0
SECTION
2
HEADER
9
$ACADVER
1
AC1015
9
$DWGCODEPAGE
3
ANSI_1252
9
$HANDSEED
5
2de
9
$ANGBASE
50
0
9
$ANGDIR
70
0
9
$ATTMODE
70
1
9
$AUNITS
70
0
9
$AUPREC
70
0
9
$CECOLOR
62
256
9
$CELTSCALE
40
1
9
$CELTYPE
6
ByLayer
9
$CELWEIGHT
370
18
9
$CLAYER
8
0
9
$CMLJUST
70
0
9
$CMLSCALE
40
1
9
$CMLSTYLE
2
Standard
9
$DIMSTYLE
2
Standard
9
$TEXTSIZE
40
0.2
9
$TEXTSTYLE
7
Standard
9
$LUNITS
70
2
9
$LUPREC
70
4
9
$EXTNAMES
290
1
9
$INSUNITS
70
4
9
$LTSCALE
40
1
9
$LWDISPLAY
290
1
9
$PDMODE
70
0
9
$PDSIZE
40
0
9
$PLINEGEN
70
0
0
ENDSEC
0
SECTION
2
CLASSES
0
CLASS
1
RASTERVARIABLES
2
AcDbRasterVariables
3
ISM
90
0
280
0
281
0
0
ENDSEC
0
SECTION
2
TABLES
0
TABLE
2
VPORT
5
2d4
100
AcDbSymbolTable
0
VPORT
5
1
100
AcDbSymbolTableRecord
100
AcDbViewportTableRecord
2
*Active
70
0
10
0
20
0
11
1
21
1
12
-1
22
1
13
0
23
0
14
0.5
24
0.5
15
10
25
10
16
0
26
0
36
1
17
0
27
0
37
0
0
ENDTAB
0
TABLE
2
LTYPE
5
2d5
100
AcDbSymbolTable
0
LTYPE
5
14
100
AcDbSymbolTableRecord
100
AcDbLinetypeTableRecord
70
0
2
ByBlock
3

72
65
73
0
40
0
0
LTYPE
5
15
100
AcDbSymbolTableRecord
100
AcDbLinetypeTableRecord
70
0
2
ByLayer
3

72
65
73
0
40
0
0
LTYPE
5
16
100
AcDbSymbolTableRecord
100
AcDbLinetypeTableRecord
70
0
2
Continuous
3
Solid line
72
65
73
0
40
0
0
LTYPE
5
6E
100
AcDbSymbolTableRecord
100
AcDbLinetypeTableRecord
70
0
2
CENTER
3
____ _ ____ _ ____ _ ____
72
65
73
4
40
47.5
49
22
74
0
49
-8.5
74
0
49
8.5
74
0
49
-8.5
74
0
0
LTYPE
5
6F
100
AcDbSymbolTableRecord
100
AcDbLinetypeTableRecord
70
0
2
DASHED
3
__ __ __ __ __ __ __ __ __
72
65
73
2
40
25.72
49
12.86
74
0
49
-12.86
74
0
0
ENDTAB
0
TABLE
2
LAYER
5
2d6
100
AcDbSymbolTable
0
LAYER
5
10
100
AcDbSymbolTableRecord
100
AcDbLayerTableRecord
2
0
70
0
62
7
6
Continuous
290
1
370
-3
390
0
0
LAYER
5
71
100
AcDbSymbolTableRecord
100
AcDbLayerTableRecord
2
81
70
0
62
-3
6
Continuous
290
1
370
-3
390
0
0
LAYER
5
73
100
AcDbSymbolTableRecord
100
AcDbLayerTableRecord
2
80
70
0
62
-6
6
Continuous
290
1
370
-3
390
0
0
LAYER
5
75
100
AcDbSymbolTableRecord
100
AcDbLayerTableRecord
2
1
70
0
62
4
6
Continuous
290
1
370
-3
390
0
0
LAYER
5
82
100
AcDbSymbolTableRecord
100
AcDbLayerTableRecord
2
4
70
0
62
-2
6
CENTER
290
1
370
-3
390
0
0
LAYER
5
E0
100
AcDbSymbolTableRecord
100
AcDbLayerTableRecord
2
2
70
0
62
7
6
Continuous
290
1
370
-3
390
0
0
LAYER
5
203
100
AcDbSymbolTableRecord
100
AcDbLayerTableRecord
2
Defpoints
70
0
62
7
6
Continuous
290
0
370
-3
390
0
0
LAYER
5
2c0
100
AcDbSymbolTableRecord
100
AcDbLayerTableRecord
2
SK4
70
0
62
2
6
CENTER
290
1
370
-3
390
0
0
LAYER
5
2c1
100
AcDbSymbolTableRecord
100
AcDbLayerTableRecord
2
SK1
70
0
62
4
6
Continuous
290
1
370
-3
390
0
0
LAYER
5
2c2
100
AcDbSymbolTableRecord
100
AcDbLayerTableRecord
2
SK2
70
0
62
7
6
Continuous
290
1
370
-3
390
0
0
LAYER
5
2c3
100
AcDbSymbolTableRecord
100
AcDbLayerTableRecord
2
SK6
70
0
62
5
6
Continuous
290
1
370
-3
390
0
0
ENDTAB
0
TABLE
2
STYLE
5
2d7
100
AcDbSymbolTable
0
STYLE
5
11
100
AcDbSymbolTableRecord
100
AcDbTextStyleTableRecord
2
Standard
3
txt
70
0
71
0
40
0
41
1
42
0
50
0
0
STYLE
5
1C8
100
AcDbSymbolTableRecord
100
AcDbTextStyleTableRecord
2
iso_b_vert
3
simplex.shx
70
0
71
0
40
0
41
1
42
0
50
0
0
STYLE
5
1C9
100
AcDbSymbolTableRecord
100
AcDbTextStyleTableRecord
2
DWGDirectTextStyle
3
simplex
70
0
71
0
40
0
41
1
42
0
50
0
0
ENDTAB
0
TABLE
2
DIMSTYLE
5
2d8
100
AcDbSymbolTable
100
AcDbDimStyleTable
0
DIMSTYLE
105
27
100
AcDbSymbolTableRecord
100
AcDbDimStyleTableRecord
2
Standard
70
0
3
<>
41
0.18
42
0.0625
44
0.18
140
0.18
147
0.09
73
0
74
0
77
1
271
2
275
0
278
52
280
0
340
11
0
ENDTAB
0
TABLE
2
VIEW
5
2d9
100
AcDbSymbolTable
0
ENDTAB
0
TABLE
2
UCS
5
2da
100
AcDbSymbolTable
0
ENDTAB
0
TABLE
2
APPID
5
2db
100
AcDbSymbolTable
0
APPID
5
12
100
AcDbSymbolTableRecord
100
AcDbRegAppTableRecord
2
ACAD
70
0
0
APPID
5
1FF
100
AcDbSymbolTableRecord
100
AcDbRegAppTableRecord
2
ACAD_DSTYLE_DIMBREAK
70
0
0
APPID
5
27F
100
AcDbSymbolTableRecord
100
AcDbRegAppTableRecord
2
ACAD_DSTYLE_DIM_LINETYPE
70
0
0
APPID
5
280
100
AcDbSymbolTableRecord
100
AcDbRegAppTableRecord
2
ACAD_DSTYLE_DIM_EXT1_LINETYPE
70
0
0
APPID
5
281
100
AcDbSymbolTableRecord
100
AcDbRegAppTableRecord
2
ACAD_DSTYLE_DIM_EXT2_LINETYPE
70
0
0
APPID
5
2BC
100
AcDbSymbolTableRecord
100
AcDbRegAppTableRecord
2
ACAD_MLEADERVER
70
0
0
ENDTAB
0
TABLE
2
BLOCK_RECORD
5
2dc
100
AcDbSymbolTable
0
BLOCK_RECORD
5
1F
100
AcDbSymbolTableRecord
100
AcDbBlockTableRecord
2
*Model_Space
340
0
70
0
0
BLOCK_RECORD
5
1B
100
AcDbSymbolTableRecord
100
AcDbBlockTableRecord
2
*Paper_Space
340
0
70
0
0
BLOCK_RECORD
5
23
100
AcDbSymbolTableRecord
100
AcDbBlockTableRecord
2
*Paper_Space0
340
0
70
0
0
BLOCK_RECORD
5
204
100
AcDbSymbolTableRecord
100
AcDbBlockTableRecord
2
*D1
340
0
70
0
0
BLOCK_RECORD
5
210
100
AcDbSymbolTableRecord
100
AcDbBlockTableRecord
2
_U0
340
0
70
0
0
BLOCK_RECORD
5
21C
100
AcDbSymbolTableRecord
100
AcDbBlockTableRecord
2
*D3
340
0
70
0
0
BLOCK_RECORD
5
228
100
AcDbSymbolTableRecord
100
AcDbBlockTableRecord
2
_U1
340
0
70
0
0
BLOCK_RECORD
5
234
100
AcDbSymbolTableRecord
100
AcDbBlockTableRecord
2
*D5
340
0
70
0
0
BLOCK_RECORD
5
240
100
AcDbSymbolTableRecord
100
AcDbBlockTableRecord
2
_U2
340
0
70
0
0
BLOCK_RECORD
5
24C
100
AcDbSymbolTableRecord
100
AcDbBlockTableRecord
2
*D7
340
0
70
0
0
BLOCK_RECORD
5
258
100
AcDbSymbolTableRecord
100
AcDbBlockTableRecord
2
_U3
340
0
70
0
0
ENDTAB
0
ENDSEC
0
SECTION
2
BLOCKS
0
BLOCK
5
20
100
AcDbEntity
8
0
100
AcDbBlockBegin
2
*Model_Space
70
0
10
0
20
0
30
0
3
*Model_Space
0
ENDBLK
5
21
100
AcDbEntity
8
0
100
AcDbBlockEnd
0
BLOCK
5
1C
100
AcDbEntity
8
0
100
AcDbBlockBegin
2
*Paper_Space
70
0
10
0
20
0
30
0
3
*Paper_Space
0
ENDBLK
5
1D
100
AcDbEntity
8
0
100
AcDbBlockEnd
0
BLOCK
5
24
100
AcDbEntity
8
0
100
AcDbBlockBegin
2
*Paper_Space0
70
0
10
0
20
0
30
0
3
*Paper_Space0
0
ENDBLK
5
25
100
AcDbEntity
8
0
100
AcDbBlockEnd
0
BLOCK
5
205
100
AcDbEntity
8
0
100
AcDbBlockBegin
2
*D1
70
1
10
0
20
0
30
0
3
*D1
0
LINE
5
207
100
AcDbEntity
8
0
62
256
6
ByLayer
370
-2
48
1
60
0
100
AcDbLine
10
60
20
5.07218
30
0
11
60
21
14.85
31
0
39
0
210
0
220
0
230
1
0
LINE
5
208
100
AcDbEntity
8
0
62
256
6
ByLayer
370
-2
48
1
60
0
100
AcDbLine
10
36
20
5.1875
30
0
11
36
21
14.85
31
0
39
0
210
0
220
0
230
1
0
LINE
5
209
100
AcDbEntity
8
0
62
256
6
ByLayer
370
-2
48
1
60
0
100
AcDbLine
10
56.5
20
12.85
30
0
11
39.5
21
12.85
31
0
39
0
210
0
220
0
230
1
0
SOLID
5
20A
100
AcDbEntity
8
0
62
256
6
ByLayer
370
-1
48
1
60
0
100
AcDbTrace
10
56.5
20
12.266667
30
0
11
56.5
21
13.433333
31
0
12
60
22
12.85
32
0
13
60
23
12.85
33
0
39
0
210
0
220
0
230
1
0
SOLID
5
20B
100
AcDbEntity
8
0
62
256
6
ByLayer
370
-1
48
1
60
0
100
AcDbTrace
10
39.5
20
13.433333
30
0
11
39.5
21
12.266667
31
0
12
36
22
12.85
32
0
13
36
23
12.85
33
0
39
0
210
0
220
0
230
1
0
MTEXT
5
20C
100
AcDbEntity
8
0
62
256
6
ByLayer
370
18
48
1
60
0
100
AcDbMText
10
48
20
18.85
30
0
210
0
220
0
230
1
1
\A1;24
40
3
41
0
44
1
50
0
71
5
72
5
7
iso_b_vert
0
POINT
5
20D
100
AcDbEntity
8
Defpoints
62
0
6
ByLayer
370
-1
48
1
60
0
100
AcDbPoint
10
60
20
3.48468
30
0
39
0
210
0
220
0
230
1
50
360
0
POINT
5
20E
100
AcDbEntity
8
Defpoints
62
0
6
ByLayer
370
-1
48
1
60
0
100
AcDbPoint
10
36
20
3.6
30
0
39
0
210
0
220
0
230
1
50
360
0
POINT
5
20F
100
AcDbEntity
8
Defpoints
62
0
6
ByLayer
370
-1
48
1
60
0
100
AcDbPoint
10
36
20
12.85
30
0
39
0
210
0
220
0
230
1
50
360
0
ENDBLK
5
206
100
AcDbEntity
8
0
100
AcDbBlockEnd
0
BLOCK
5
217
100
AcDbEntity
8
0
100
AcDbBlockBegin
2
_U0
70
0
10
0
20
0
30
0
3
_U0
0
MTEXT
5
211
100
AcDbEntity
8
2
62
256
6
ByLayer
370
18
48
1
60
0
100
AcDbMText
10
46.209229
20
13.735114
30
0
210
0
220
0
230
1
1
\W0.7167;24
40
3
41
0
44
1.084337
50
0
71
7
72
5
7
iso_b_vert
0
LINE
5
212
100
AcDbEntity
8
2
62
256
6
ByLayer
370
13
48
1
60
0
100
AcDbLine
10
60
20
5.07218
30
0
11
60
21
14.85
31
0
39
0
210
0
220
0
230
1
0
LINE
5
213
100
AcDbEntity
8
2
62
256
6
ByLayer
370
13
48
1
60
0
100
AcDbLine
10
36
20
5.1875
30
0
11
36
21
14.85
31
0
39
0
210
0
220
0
230
1
0
LINE
5
214
100
AcDbEntity
8
2
62
256
6
ByLayer
370
13
48
1
60
0
100
AcDbLine
10
60
20
12.85
30
0
11
36
21
12.85
31
0
39
0
210
0
220
0
230
1
0
SOLID
5
215
100
AcDbEntity
8
2
62
256
6
ByLayer
370
18
48
1
60
0
100
AcDbTrace
10
60
20
12.85
30
0
11
56.500002
21
12.389216
31
0
12
56.499998
22
13.310784
32
0
13
56.499998
23
13.310784
33
0
39
0
210
0
220
0
230
1
0
SOLID
5
216
100
AcDbEntity
8
2
62
256
6
ByLayer
370
18
48
1
60
0
100
AcDbTrace
10
36
20
12.85
30
0
11
39.499998
21
13.310784
31
0
12
39.500002
22
12.389216
32
0
13
39.500002
23
12.389216
33
0
39
0
210
0
220
0
230
1
0
ENDBLK
5
218
100
AcDbEntity
8
0
100
AcDbBlockEnd
0
BLOCK
5
21D
100
AcDbEntity
8
0
100
AcDbBlockBegin
2
*D3
70
1
10
0
20
0
30
0
3
*D3
0
LINE
5
21F
100
AcDbEntity
8
0
62
256
6
ByLayer
370
-2
48
1
60
0
100
AcDbLine
10
60
20
5.07218
30
0
11
60
21
24.85
31
0
39
0
210
0
220
0
230
1
0
LINE
5
220
100
AcDbEntity
8
0
62
256
6
ByLayer
370
-2
48
1
60
0
100
AcDbLine
10
-0.020063
20
6.5875
30
0
11
-0.020063
21
24.85
31
0
39
0
210
0
220
0
230
1
0
LINE
5
221
100
AcDbEntity
8
0
62
256
6
ByLayer
370
-2
48
1
60
0
100
AcDbLine
10
56.5
20
22.85
30
0
11
3.479937
21
22.85
31
0
39
0
210
0
220
0
230
1
0
SOLID
5
222
100
AcDbEntity
8
0
62
256
6
ByLayer
370
-1
48
1
60
0
100
AcDbTrace
10
56.5
20
22.266667
30
0
11
56.5
21
23.433333
31
0
12
60
22
22.85
32
0
13
60
23
22.85
33
0
39
0
210
0
220
0
230
1
0
SOLID
5
223
100
AcDbEntity
8
0
62
256
6
ByLayer
370
-1
48
1
60
0
100
AcDbTrace
10
3.479937
20
23.433333
30
0
11
3.479937
21
22.266667
31
0
12
-0.020063
22
22.85
32
0
13
-0.020063
23
22.85
33
0
39
0
210
0
220
0
230
1
0
MTEXT
5
224
100
AcDbEntity
8
0
62
256
6
ByLayer
370
18
48
1
60
0
100
AcDbMText
10
29.989968
20
28.85
30
0
210
0
220
0
230
1
1
\A1;60.02
40
3
41
0
44
1
50
0
71
5
72
5
7
iso_b_vert
0
POINT
5
225
100
AcDbEntity
8
Defpoints
62
0
6
ByLayer
370
-1
48
1
60
0
100
AcDbPoint
10
60
20
3.48468
30
0
39
0
210
0
220
0
230
1
50
360
0
POINT
5
226
100
AcDbEntity
8
Defpoints
62
0
6
ByLayer
370
-1
48
1
60
0
100
AcDbPoint
10
-0.020063
20
5
30
0
39
0
210
0
220
0
230
1
50
360
0
POINT
5
227
100
AcDbEntity
8
Defpoints
62
0
6
ByLayer
370
-1
48
1
60
0
100
AcDbPoint
10
-0.020063
20
22.85
30
0
39
0
210
0
220
0
230
1
50
360
0
ENDBLK
5
21E
100
AcDbEntity
8
0
100
AcDbBlockEnd
0
BLOCK
5
22F
100
AcDbEntity
8
0
100
AcDbBlockBegin
2
_U1
70
0
10
0
20
0
30
0
3
_U1
0
MTEXT
5
229
100
AcDbEntity
8
2
62
256
6
ByLayer
370
18
48
1
60
0
100
AcDbMText
10
28.35714
20
23.735114
30
0
210
0
220
0
230
1
1
\W0.6740;60
40
3
41
0
44
1.084337
50
0
71
7
72
5
7
iso_b_vert
0
LINE
5
22A
100
AcDbEntity
8
2
62
256
6
ByLayer
370
13
48
1
60
0
100
AcDbLine
10
60
20
5.07218
30
0
11
60
21
24.85
31
0
39
0
210
0
220
0
230
1
0
LINE
5
22B
100
AcDbEntity
8
2
62
256
6
ByLayer
370
13
48
1
60
0
100
AcDbLine
10
-0.020063
20
6.5875
30
0
11
-0.020063
21
24.85
31
0
39
0
210
0
220
0
230
1
0
LINE
5
22C
100
AcDbEntity
8
2
62
256
6
ByLayer
370
13
48
1
60
0
100
AcDbLine
10
60
20
22.85
30
0
11
-0.020063
21
22.85
31
0
39
0
210
0
220
0
230
1
0
SOLID
5
22D
100
AcDbEntity
8
2
62
256
6
ByLayer
370
18
48
1
60
0
100
AcDbTrace
10
60
20
22.85
30
0
11
56.500002
21
22.389216
31
0
12
56.499998
22
23.310784
32
0
13
56.499998
23
23.310784
33
0
39
0
210
0
220
0
230
1
0
SOLID
5
22E
100
AcDbEntity
8
2
62
256
6
ByLayer
370
18
48
1
60
0
100
AcDbTrace
10
-0.020063
20
22.85
30
0
11
3.479935
21
23.310784
31
0
12
3.479938
22
22.389216
32
0
13
3.479938
23
22.389216
33
0
39
0
210
0
220
0
230
1
0
ENDBLK
5
230
100
AcDbEntity
8
0
100
AcDbBlockEnd
0
BLOCK
5
235
100
AcDbEntity
8
0
100
AcDbBlockBegin
2
*D5
70
1
10
0
20
0
30
0
3
*D5
0
LINE
5
237
100
AcDbEntity
8
0
62
256
6
ByLayer
370
-2
48
1
60
0
100
AcDbLine
10
60
20
5.07218
30
0
11
60
21
34.85
31
0
39
0
210
0
220
0
230
1
0
LINE
5
238
100
AcDbEntity
8
0
62
256
6
ByLayer
370
-2
48
1
60
0
100
AcDbLine
10
-40
20
1.5875
30
0
11
-40
21
34.85
31
0
39
0
210
0
220
0
230
1
0
LINE
5
239
100
AcDbEntity
8
0
62
256
6
ByLayer
370
-2
48
1
60
0
100
AcDbLine
10
56.5
20
32.85
30
0
11
-36.5
21
32.85
31
0
39
0
210
0
220
0
230
1
0
SOLID
5
23A
100
AcDbEntity
8
0
62
256
6
ByLayer
370
-1
48
1
60
0
100
AcDbTrace
10
56.5
20
32.266667
30
0
11
56.5
21
33.433333
31
0
12
60
22
32.85
32
0
13
60
23
32.85
33
0
39
0
210
0
220
0
230
1
0
SOLID
5
23B
100
AcDbEntity
8
0
62
256
6
ByLayer
370
-1
48
1
60
0
100
AcDbTrace
10
-36.5
20
33.433333
30
0
11
-36.5
21
32.266667
31
0
12
-40
22
32.85
32
0
13
-40
23
32.85
33
0
39
0
210
0
220
0
230
1
0
MTEXT
5
23C
100
AcDbEntity
8
0
62
256
6
ByLayer
370
18
48
1
60
0
100
AcDbMText
10
10
20
38.85
30
0
210
0
220
0
230
1
1
\A1;100
40
3
41
0
44
1
50
0
71
5
72
5
7
iso_b_vert
0
POINT
5
23D
100
AcDbEntity
8
Defpoints
62
0
6
ByLayer
370
-1
48
1
60
0
100
AcDbPoint
10
60
20
3.48468
30
0
39
0
210
0
220
0
230
1
50
360
0
POINT
5
23E
100
AcDbEntity
8
Defpoints
62
0
6
ByLayer
370
-1
48
1
60
0
100
AcDbPoint
10
-40
20
0
30
0
39
0
210
0
220
0
230
1
50
360
0
POINT
5
23F
100
AcDbEntity
8
Defpoints
62
0
6
ByLayer
370
-1
48
1
60
0
100
AcDbPoint
10
-40
20
32.85
30
0
39
0
210
0
220
0
230
1
50
360
0
ENDBLK
5
236
100
AcDbEntity
8
0
100
AcDbBlockEnd
0
BLOCK
5
247
100
AcDbEntity
8
0
100
AcDbBlockBegin
2
_U2
70
0
10
0
20
0
30
0
3
_U2
0
MTEXT
5
241
100
AcDbEntity
8
SK2
62
256
6
ByLayer
370
18
48
1
60
0
100
AcDbMText
10
7.621201
20
33.735114
30
0
210
0
220
0
230
1
1
\W0.6217;100
40
3
41
0
44
1.084337
50
0
71
7
72
5
7
iso_b_vert
0
LINE
5
242
100
AcDbEntity
8
SK2
62
256
6
ByLayer
370
13
48
1
60
0
100
AcDbLine
10
60
20
5.07218
30
0
11
60
21
34.85
31
0
39
0
210
0
220
0
230
1
0
LINE
5
243
100
AcDbEntity
8
SK2
62
256
6
ByLayer
370
13
48
1
60
0
100
AcDbLine
10
-40
20
1.5875
30
0
11
-40
21
34.85
31
0
39
0
210
0
220
0
230
1
0
LINE
5
244
100
AcDbEntity
8
SK2
62
256
6
ByLayer
370
13
48
1
60
0
100
AcDbLine
10
60
20
32.85
30
0
11
-40
21
32.85
31
0
39
0
210
0
220
0
230
1
0
SOLID
5
245
100
AcDbEntity
8
SK2
62
256
6
ByLayer
370
18
48
1
60
0
100
AcDbTrace
10
60
20
32.85
30
0
11
56.500002
21
32.389216
31
0
12
56.499998
22
33.310784
32
0
13
56.499998
23
33.310784
33
0
39
0
210
0
220
0
230
1
0
SOLID
5
246
100
AcDbEntity
8
SK2
62
256
6
ByLayer
370
18
48
1
60
0
100
AcDbTrace
10
-40
20
32.85
30
0
11
-36.500002
21
33.310784
31
0
12
-36.499998
22
32.389216
32
0
13
-36.499998
23
32.389216
33
0
39
0
210
0
220
0
230
1
0
ENDBLK
5
248
100
AcDbEntity
8
0
100
AcDbBlockEnd
0
BLOCK
5
24D
100
AcDbEntity
8
0
100
AcDbBlockBegin
2
*D7
70
1
10
0
20
0
30
0
3
*D7
0
LINE
5
24F
100
AcDbEntity
8
0
62
256
6
ByLayer
370
-2
48
1
60
0
100
AcDbLine
10
-40
20
-1.5875
30
0
11
-40
21
-25.53244
31
0
39
0
210
0
220
0
230
1
0
LINE
5
250
100
AcDbEntity
8
0
62
256
6
ByLayer
370
-2
48
1
60
0
100
AcDbLine
10
-0.020063
20
3.4125
30
0
11
-0.020063
21
-25.53244
31
0
39
0
210
0
220
0
230
1
0
LINE
5
251
100
AcDbEntity
8
0
62
256
6
ByLayer
370
-2
48
1
60
0
100
AcDbLine
10
-36.5
20
-23.53244
30
0
11
-3.520063
21
-23.53244
31
0
39
0
210
0
220
0
230
1
0
SOLID
5
252
100
AcDbEntity
8
0
62
256
6
ByLayer
370
-1
48
1
60
0
100
AcDbTrace
10
-36.5
20
-22.949107
30
0
11
-36.5
21
-24.115773
31
0
12
-40
22
-23.53244
32
0
13
-40
23
-23.53244
33
0
39
0
210
0
220
0
230
1
0
SOLID
5
253
100
AcDbEntity
8
0
62
256
6
ByLayer
370
-1
48
1
60
0
100
AcDbTrace
10
-3.520063
20
-24.115773
30
0
11
-3.520063
21
-22.949107
31
0
12
-0.020063
22
-23.53244
32
0
13
-0.020063
23
-23.53244
33
0
39
0
210
0
220
0
230
1
0
MTEXT
5
254
100
AcDbEntity
8
0
62
256
6
ByLayer
370
18
48
1
60
0
100
AcDbMText
10
-20.010032
20
-17.53244
30
0
210
0
220
0
230
1
1
\A1;39.98
40
3
41
0
44
1
50
0
71
5
72
5
7
iso_b_vert
0
POINT
5
255
100
AcDbEntity
8
Defpoints
62
0
6
ByLayer
370
-1
48
1
60
0
100
AcDbPoint
10
-40
20
0
30
0
39
0
210
0
220
0
230
1
50
360
0
POINT
5
256
100
AcDbEntity
8
Defpoints
62
0
6
ByLayer
370
-1
48
1
60
0
100
AcDbPoint
10
-0.020063
20
5
30
0
39
0
210
0
220
0
230
1
50
360
0
POINT
5
257
100
AcDbEntity
8
Defpoints
62
0
6
ByLayer
370
-1
48
1
60
0
100
AcDbPoint
10
-0.020063
20
-23.53244
30
0
39
0
210
0
220
0
230
1
50
360
0
ENDBLK
5
24E
100
AcDbEntity
8
0
100
AcDbBlockEnd
0
BLOCK
5
25F
100
AcDbEntity
8
0
100
AcDbBlockBegin
2
_U3
70
0
10
0
20
0
30
0
3
_U3
0
MTEXT
5
259
100
AcDbEntity
8
SK2
62
256
6
ByLayer
370
18
48
1
60
0
100
AcDbMText
10
-27.732887
20
-22.647326
30
0
210
0
220
0
230
1
1
\W0.7399;(MIN. 40)
40
3
41
0
44
1.084337
50
0
71
7
72
5
7
iso_b_vert
0
LINE
5
25A
100
AcDbEntity
8
SK2
62
256
6
ByLayer
370
13
48
1
60
0
100
AcDbLine
10
-40
20
-1.5875
30
0
11
-40
21
-25.53244
31
0
39
0
210
0
220
0
230
1
0
LINE
5
25B
100
AcDbEntity
8
SK2
62
256
6
ByLayer
370
13
48
1
60
0
100
AcDbLine
10
-0.020063
20
3.4125
30
0
11
-0.020063
21
-25.53244
31
0
39
0
210
0
220
0
230
1
0
LINE
5
25C
100
AcDbEntity
8
SK2
62
256
6
ByLayer
370
13
48
1
60
0
100
AcDbLine
10
-40
20
-23.53244
30
0
11
-0.020063
21
-23.53244
31
0
39
0
210
0
220
0
230
1
0
SOLID
5
25D
100
AcDbEntity
8
SK2
62
256
6
ByLayer
370
18
48
1
60
0
100
AcDbTrace
10
-40
20
-23.53244
30
0
11
-36.500002
21
-23.071656
31
0
12
-36.499998
22
-23.993224
32
0
13
-36.499998
23
-23.993224
33
0
39
0
210
0
220
0
230
1
0
SOLID
5
25E
100
AcDbEntity
8
SK2
62
256
6
ByLayer
370
18
48
1
60
0
100
AcDbTrace
10
-0.020063
20
-23.53244
30
0
11
-3.520062
21
-23.993224
31
0
12
-3.520065
22
-23.071656
32
0
13
-3.520065
23
-23.071656
33
0
39
0
210
0
220
0
230
1
0
ENDBLK
5
260
100
AcDbEntity
8
0
100
AcDbBlockEnd
0
ENDSEC
0
SECTION
2
ENTITIES
0
ARC
5
FB
100
AcDbEntity
8
1
62
256
6
ByLayer
370
18
48
1
60
0
100
AcDbCircle
39
0
10
35.999374
20
4.6
30
0
40
1
210
0
220
0
230
1
100
AcDbArc
50
267.772953
51
270
0
ARC
5
FC
100
AcDbEntity
8
1
62
256
6
ByLayer
370
18
48
1
60
0
100
AcDbCircle
39
0
10
35.999374
20
-4.6
30
0
40
1
210
0
220
0
230
1
100
AcDbArc
50
90
51
92.227047
0
ARC
5
FD
100
AcDbEntity
8
SK2
62
256
6
ByLayer
370
13
48
1
60
0
100
AcDbCircle
39
0
10
128.62302
20
0
30
0
40
141.531434457495
210
0
220
0
230
1
100
AcDbArc
50
177.774192
51
183.033367
0
ARC
5
FE
100
AcDbEntity
8
SK2
62
256
6
ByLayer
370
13
48
1
60
0
100
AcDbCircle
39
0
10
128.62302
20
0
30
0
40
141.531434457495
210
0
220
0
230
1
100
AcDbArc
50
172.494796
51
177.774192
0
ELLIPSE
5
FF
100
AcDbEntity
8
1
62
256
6
ByLayer
370
18
48
1
60
0
100
AcDbEllipse
10
59.85735
20
-0.322452
30
0
11
0.0715564660207266
21
0.398877135283906
31
0
210
0
220
0
230
1
40
0.169911
41
-1.80167557168804
42
-1.36816201713422
0
ELLIPSE
5
100
100
AcDbEntity
8
1
62
256
6
ByLayer
370
18
48
1
60
0
100
AcDbEllipse
10
60.546011
20
-0.566805
30
0
11
0.621223909825803
21
-0.314572932874314
31
0
210
0
220
0
230
1
40
0.564733
41
3.1347891707115
42
-2.71504620723284
0
ELLIPSE
5
101
100
AcDbEntity
8
1
62
256
6
ByLayer
370
18
48
1
60
0
100
AcDbEllipse
10
48.148206
20
-12.429448
30
0
11
-0.849232714041578
21
8.82778392781586
31
0
210
0
220
0
230
1
40
0.716229
41
-0.103586045465661
42
-0.0818008387106889
0
ELLIPSE
5
102
100
AcDbEntity
8
1
62
256
6
ByLayer
370
18
48
1
60
0
100
AcDbEllipse
10
48.303315
20
-12.414527
30
0
11
-0.856416078598151
21
8.90245508582908
31
0
210
0
220
0
230
1
40
0.716229
41
-0.0797057673856986
42
-0.0401513165496947
0
ELLIPSE
5
103
100
AcDbEntity
8
1
62
256
6
ByLayer
370
18
48
1
60
0
100
AcDbEllipse
10
59.85735
20
0.133996
30
0
11
0.0697259885332177
21
-1.09982892226149
31
0
210
0
220
0
230
1
40
0.063333
41
-0.258530816216573
42
0.174982738509109
0
ELLIPSE
5
104
100
AcDbEntity
8
1
62
256
6
ByLayer
370
18
48
1
60
0
100
AcDbEllipse
10
60.546011
20
-1.369339
30
0
11
0.645680102447247
21
-0.452967463238135
31
0
210
0
220
0
230
1
40
0.052973
41
2.89340099620429
42
-2.95643438179572
0
ELLIPSE
5
105
100
AcDbEntity
8
1
62
256
6
ByLayer
370
18
48
1
60
0
100
AcDbEllipse
10
59.61562
20
-0.659689
30
0
11
0.340460112680606
21
-0.216463552389286
31
0
210
0
220
0
230
1
40
0.108357
41
-2.10578878891551
42
-1.79338566573762
0
ELLIPSE
5
106
100
AcDbEntity
8
1
62
256
6
ByLayer
370
18
48
1
60
0
100
AcDbEllipse
10
48.303315
20
7.173029
30
0
11
-5.77169654026566
21
6.83188656975296
31
0
210
0
220
0
230
1
40
0.415988
41
1.9349808676263
42
1.97453531846231
0
ELLIPSE
5
107
100
AcDbEntity
8
1
62
256
6
ByLayer
370
18
48
1
60
0
100
AcDbEllipse
10
48.148206
20
7.041991
30
0
11
-5.7232852581859
21
6.7745827275364
31
0
210
0
220
0
230
1
40
0.415988
41
1.9766303897873
42
1.99841559654227
0
ELLIPSE
5
108
100
AcDbEntity
8
1
62
256
6
ByLayer
370
18
48
1
60
0
100
AcDbEllipse
10
48.148206
20
-5.19044
30
0
11
-6.10284527723823
21
6.43476843413137
31
0
210
0
220
0
230
1
40
0.288787
41
-1.24529234031309
42
-1.22350713355812
0
ELLIPSE
5
109
100
AcDbEntity
8
1
62
256
6
ByLayer
370
18
48
1
60
0
100
AcDbEllipse
10
48.303315
20
-5.043332
30
0
11
-6.15446712568323
21
6.48919790527072
31
0
210
0
220
0
230
1
40
0.288787
41
-1.22141206223313
42
-1.18185761139713
0
ELLIPSE
5
10A
100
AcDbEntity
8
1
62
256
6
ByLayer
370
18
48
1
60
0
100
AcDbEllipse
10
50.253734
20
0
30
0
11
6.03895709083713
21
0.367625007277506
31
0
210
0
220
0
230
1
40
0.593013
41
-2.61351193856287
42
-2.06265482265683
0
ELLIPSE
5
10B
100
AcDbEntity
8
1
62
256
6
ByLayer
370
18
48
1
60
0
100
AcDbEllipse
10
50.253734
20
0
30
0
11
5.98597674200904
21
-3.26472807979286
31
0
210
0
220
0
230
1
40
0.25344
41
-2.4400727614166
42
-1.88921564551341
0
ELLIPSE
5
10C
100
AcDbEntity
8
1
62
256
6
ByLayer
370
18
48
1
60
0
100
AcDbEllipse
10
50.253734
20
0
30
0
11
6.00394199514991
21
-3.38934472051779
31
0
210
0
220
0
230
1
40
0.202101
41
2.14016918685606
42
2.69102630276379
0
ELLIPSE
5
10D
100
AcDbEntity
8
1
62
256
6
ByLayer
370
18
48
1
60
0
100
AcDbEllipse
10
59.617888
20
-0.237486
30
0
11
0.160013509727616
21
-0.418119286082912
31
0
210
0
220
0
230
1
40
0.722034
41
2.92531045743025
42
-3.05679336194389
0
ELLIPSE
5
10E
100
AcDbEntity
8
1
62
256
6
ByLayer
370
18
48
1
60
0
100
AcDbEllipse
10
59.61562
20
0.225695
30
0
11
0.159127703911558
21
0.426011154178658
31
0
210
0
220
0
230
1
40
0.708659
41
3.02290203171986
42
-2.94788015320154
0
ELLIPSE
5
10F
100
AcDbEntity
8
1
62
256
6
ByLayer
370
18
48
1
60
0
100
AcDbEllipse
10
50.253734
20
0
30
0
11
6.00129389621485
21
3.3724656114831
31
0
210
0
220
0
230
1
40
0.20988
41
-2.59847195666679
42
-2.54454814041327
0
POINT
5
70
100
AcDbEntity
8
81
62
256
6
ByLayer
370
18
48
1
60
0
100
AcDbPoint
10
60
20
0
30
0
39
0
210
0
220
0
230
1
50
360
0
POINT
5
72
100
AcDbEntity
8
80
62
256
6
ByLayer
370
18
48
1
60
0
100
AcDbPoint
10
0
20
0
30
0
39
0
210
0
220
0
230
1
50
360
0
POINT
5
74
100
AcDbEntity
8
1
62
256
6
ByLayer
370
18
48
1
60
1
100
AcDbPoint
10
60
20
3.48468
30
0
39
0
210
0
220
0
230
1
50
360
0
POINT
5
76
100
AcDbEntity
8
1
62
256
6
ByLayer
370
18
48
1
60
1
100
AcDbPoint
10
36
20
3.6
30
0
39
0
210
0
220
0
230
1
50
360
0
POINT
5
77
100
AcDbEntity
8
1
62
256
6
ByLayer
370
18
48
1
60
1
100
AcDbPoint
10
60
20
3.48468
30
0
39
0
210
0
220
0
230
1
50
360
0
POINT
5
78
100
AcDbEntity
8
1
62
256
6
ByLayer
370
18
48
1
60
1
100
AcDbPoint
10
-0.020063
20
5
30
0
39
0
210
0
220
0
230
1
50
360
0
POINT
5
79
100
AcDbEntity
8
1
62
256
6
ByLayer
370
18
48
1
60
1
100
AcDbPoint
10
60
20
3.48468
30
0
39
0
210
0
220
0
230
1
50
360
0
POINT
5
7A
100
AcDbEntity
8
1
62
256
6
ByLayer
370
18
48
1
60
1
100
AcDbPoint
10
-40
20
0
30
0
39
0
210
0
220
0
230
1
50
360
0
POINT
5
7B
100
AcDbEntity
8
1
62
256
6
ByLayer
370
18
48
1
60
1
100
AcDbPoint
10
-40
20
0
30
0
39
0
210
0
220
0
230
1
50
360
0
POINT
5
7C
100
AcDbEntity
8
1
62
256
6
ByLayer
370
18
48
1
60
1
100
AcDbPoint
10
-0.020063
20
5
30
0
39
0
210
0
220
0
230
1
50
360
0
SPLINE
5
110
100
AcDbEntity
8
1
62
256
6
ByLayer
370
18
48
1
60
0
100
AcDbSpline
70
4
71
1
72
4
73
2
40
0
40
0
40
1
40
1
41
1
10
47.9573
20
-3.58613802576835
30
0
41
1
10
47.9573
20
-3.5860900595743
30
0
0
SPLINE
5
111
100
AcDbEntity
8
1
62
256
6
ByLayer
370
18
48
1
60
0
100
AcDbSpline
70
4
71
3
72
8
73
4
40
0
40
0
40
0
40
0
40
1
40
1
40
1
40
1
41
1
10
59.639148449074
20
-2.89004766954773
30
0
41
1
10
59.7063879627261
20
-2.81929101160597
30
0
41
1
10
59.7736237789701
20
-2.74836292442444
30
0
41
1
10
59.8408567897047
20
-2.67730476090156
30
0
0
SPLINE
5
112
100
AcDbEntity
8
1
62
256
6
ByLayer
370
18
48
1
60
0
100
AcDbSpline
70
4
71
3
72
14
73
10
40
0
40
0
40
0
40
0
40
0.25
40
0.25
40
0.5
40
0.5
40
0.75
40
0.75
40
1
40
1
40
1
40
1
41
1
10
59.8408792371874
20
-2.6779626115881
30
0
41
1
10
59.8428036823396
20
-2.66878547889888
30
0
41
1
10
59.8445485205761
20
-2.65945916649457
30
0
41
1
10
59.8475971590833
20
-2.64044021994442
30
0
41
1
10
59.8489013911126
20
-2.63069445648617
30
0
41
1
10
59.8508904620619
20
-2.61153167321263
30
0
41
1
10
59.8515910100339
20
-2.60203298579893
30
0
41
1
10
59.8523621033665
20
-2.58321284257514
30
0
41
1
10
59.8524268799363
20
-2.57384085515957
30
0
41
1
10
59.8521704857615
20
-2.56483652696542
30
0
0
SPLINE
5
113
100
AcDbEntity
8
1
62
256
6
ByLayer
370
18
48
1
60
0
100
AcDbSpline
70
4
71
3
72
8
73
4
40
0
40
0
40
0
40
0
40
1
40
1
40
1
40
1
41
1
10
47.8184399708532
20
-3.58148317960547
30
0
41
1
10
47.8153857356111
20
-3.58319546184274
30
0
41
1
10
47.8126439513264
20
-3.58490125781972
30
0
41
1
10
47.8104046243363
20
-3.5865988014364
30
0
0
SPLINE
5
114
100
AcDbEntity
8
1
62
256
6
ByLayer
370
18
48
1
60
0
100
AcDbSpline
70
4
71
3
72
12
73
8
40
0
40
0
40
0
40
0
40
0.250000000000015
40
0.250000000000015
40
0.500000000000031
40
0.500000000000031
40
1
40
1
40
1
40
1
41
1
10
47.7572650903684
20
-3.5428277679238
30
0
41
1
10
47.7631579583531
20
-3.54564476799982
30
0
41
1
10
47.7686791191957
20
-3.5486285749254
30
0
41
1
10
47.7793567789051
20
-3.55478635288341
30
0
41
1
10
47.7845037643991
20
-3.55796389917438
30
0
41
1
10
47.7995824476266
20
-3.56771075742606
30
0
41
1
10
47.8091603374978
20
-3.57449118608332
30
0
41
1
10
47.8184399713656
20
-3.58148317976068
30
0
0
SPLINE
5
115
100
AcDbEntity
8
1
62
256
6
ByLayer
370
18
48
1
60
0
100
AcDbSpline
70
4
71
5
72
12
73
6
40
0
40
0
40
0
40
0
40
0
40
0
40
1
40
1
40
1
40
1
40
1
40
1
41
1
10
47.9573000005825
20
-3.58609005973986
30
0
41
1
10
47.9573000005825
20
-3.56700786340687
30
0
41
1
10
47.9573000005825
20
-3.54800805906081
30
0
41
1
10
47.9573
20
-3.52908995962568
30
0
41
1
10
47.9573
20
-3.51025289431041
30
0
41
1
10
47.9573
20
-3.49149620762759
30
0
0
SPLINE
5
116
100
AcDbEntity
8
1
62
256
6
ByLayer
370
18
48
1
60
0
100
AcDbSpline
70
4
71
3
72
8
73
4
40
0
40
0
40
0
40
0
40
1
40
1
40
1
40
1
41
1
10
59.5198379142197
20
3.32447622743234
30
0
41
1
10
59.5177834186201
20
3.32621627429072
30
0
41
1
10
59.5157397238333
20
3.32794779397298
30
0
41
1
10
59.5137068665545
20
3.32967089200039
30
0
0
SPLINE
5
117
100
AcDbEntity
8
1
62
256
6
ByLayer
370
18
48
1
60
0
100
AcDbSpline
70
4
71
2
72
6
73
3
40
0
40
0
40
0
40
1
40
1
40
1
41
0.499636198344856
10
59.9381373223614
20
1.20235716355756
30
0
41
0.500363801655144
10
59.9320742891629
20
1.18703029153649
30
0
41
0.499636198344856
10
59.9260105647417
20
1.17170165436737
30
0
0
SPLINE
5
118
100
AcDbEntity
8
1
62
256
6
ByLayer
370
18
48
1
60
0
100
AcDbSpline
70
4
71
3
72
14
73
10
40
0
40
0
40
0
40
0
40
0.499999999999956
40
0.499999999999956
40
0.624999999999956
40
0.624999999999956
40
0.749999999999955
40
0.749999999999955
40
1
40
1
40
1
40
1
41
1
10
59.9278440364676
20
2.78206236842158
30
-1E-16
41
1
10
59.835789590105
20
2.87281535065299
30
-1E-16
41
1
10
59.7335870593678
20
2.95188256596015
30
0
41
1
10
59.5945885375035
20
3.03776728028842
30
0
41
1
10
59.5662137678704
20
3.05428202146689
30
-1E-16
41
1
10
59.5083274742143
20
3.08600250338915
30
1E-16
41
1
10
59.478736571756
20
3.10125166059825
30
1E-16
41
1
10
59.3891915620958
20
3.14471330818029
30
0
41
1
10
59.3283154941252
20
3.17062131988985
30
-1E-16
41
1
10
59.2664219810373
20
3.19388398001749
30
1E-16
0
SPLINE
5
119
100
AcDbEntity
8
1
62
256
6
ByLayer
370
18
48
1
60
0
100
AcDbSpline
70
4
71
3
72
10
73
6
40
0
40
0
40
0
40
0
40
0.5
40
0.5
40
1
40
1
40
1
40
1
41
1
10
59.179834564486
20
3.41762065494555
30
0
41
1
10
59.2361770413256
20
3.39973510515537
30
0
41
1
10
59.292679440969
20
3.38288206439316
30
1E-16
41
1
10
59.4060727421492
20
3.35167138395153
30
-1E-16
41
1
10
59.4629100358382
20
3.33732788478304
30
0
41
1
10
59.5198379142196
20
3.32447622743231
30
0
0
SPLINE
5
11A
100
AcDbEntity
8
1
62
256
6
ByLayer
370
18
48
1
60
0
100
AcDbSpline
70
4
71
3
72
14
73
10
40
0
40
0
40
0
40
0
40
0.25
40
0.25
40
0.5
40
0.5
40
0.75
40
0.75
40
1
40
1
40
1
40
1
41
1
10
58.5561910925079
20
2.18234943055967
30
0
41
1
10
58.5470106521942
20
2.18625800479848
30
0
41
1
10
58.5385633169185
20
2.19021953543256
30
0
41
1
10
58.5230295804828
20
2.19865319289806
30
0
41
1
10
58.5159498737802
20
2.20312720300038
30
-1E-16
41
1
10
58.5031737602039
20
2.21291415763758
30
-1E-16
41
1
10
58.4974423031763
20
2.21825581434871
30
-1E-16
41
1
10
58.4872707575283
20
2.23010707012739
30
1E-16
41
1
10
58.482824283447
20
2.23661409722885
30
1E-16
41
1
10
58.478928532921
20
2.2438850947789
30
1E-16
0
SPLINE
5
11B
100
AcDbEntity
8
1
62
256
6
ByLayer
370
18
48
1
60
0
100
AcDbSpline
70
4
71
3
72
18
73
14
40
0
40
0
40
0
40
0
40
0.103939291899
40
0.103939291899
40
0.207878583797999
40
0.207878583797999
40
0.415757167596103
40
0.415757167596103
40
0.623635751394207
40
0.623635751394207
40
0.831514335192311
40
0.831514335192311
40
1
40
1
40
1
40
1
41
1
10
59.5694727083524
20
5.68E-14
30
0
41
1
10
59.5620302845788
20
0.0023428705265189
30
0
41
1
10
59.5547481595952
20
0.0049551517596456
30
0
41
1
10
59.5404877323438
20
0.0107921256693544
30
0
41
1
10
59.5335315118117
20
0.0140115797832436
30
0
41
1
10
59.5134279089029
20
0.0245104882740463
30
0
41
1
10
59.5009299696428
20
0.0326733498446572
30
0
41
1
10
59.4774717698706
20
0.0516801155897042
30
0
41
1
10
59.466483360087
20
0.0625599463939466
30
0
41
1
10
59.4459409261513
20
0.0872479310447147
30
0
41
1
10
59.436655140685
20
0.100717049789637
30
0
41
1
10
59.4212474954984
20
0.126979413063964
30
0
41
1
10
59.414859884792
20
0.139416282063138
30
0
41
1
10
59.4089123009249
20
0.152477256845344
30
0
0
SPLINE
5
11C
100
AcDbEntity
8
1
62
256
6
ByLayer
370
18
48
1
60
0
100
AcDbSpline
70
4
71
5
72
12
73
6
40
0
40
0
40
0
40
0
40
0
40
0
40
1
40
1
40
1
40
1
40
1
40
1
41
1
10
47.9573000006889
20
-3.49149620768432
30
0
41
1
10
47.9573000006889
20
-3.4408040690079
30
0
41
1
10
47.9573000006889
20
-3.39021793903805
30
-1E-16
41
1
10
47.9573000006744
20
-3.33973649996696
30
1E-16
41
1
10
47.9573000006429
20
-3.2893584735269
30
-1E-16
41
1
10
47.9573000005975
20
-3.23908261848681
30
0
0
SPLINE
5
11D
100
AcDbEntity
8
1
62
256
6
ByLayer
370
18
48
1
60
0
100
AcDbSpline
70
4
71
3
72
8
73
4
40
0
40
0
40
0
40
0
40
1
40
1
40
1
40
1
41
1
10
59.179834564486
20
3.41762065494555
30
0
41
1
10
59.2141883534329
20
3.34532683421878
30
-1E-16
41
1
10
59.2435276047564
20
3.27088281771256
30
1E-16
41
1
10
59.2664219810373
20
3.19388398001746
30
1E-16
0
SPLINE
5
11E
100
AcDbEntity
8
1
62
256
6
ByLayer
370
18
48
1
60
0
100
AcDbSpline
70
4
71
3
72
30
73
26
40
0
40
0
40
0
40
0
40
0.125000000000041
40
0.125000000000041
40
0.187500000000062
40
0.187500000000062
40
0.250000000000082
40
0.250000000000082
40
0.375000000000115
40
0.375000000000115
40
0.437500000000122
40
0.437500000000122
40
0.500000000000128
40
0.562500000000135
40
0.562500000000135
40
0.625000000000142
40
0.625000000000142
40
0.75000000000012
40
0.75000000000012
40
0.81250000000009
40
0.81250000000009
40
0.87500000000006
40
0.93750000000003
40
0.93750000000003
40
1
40
1
40
1
40
1
41
1
10
58.478928532921
20
2.24388509477888
30
1E-16
41
1
10
58.4707404958381
20
2.25916718066191
30
0
41
1
10
58.4660495962862
20
2.27506441493125
30
0
41
1
10
58.463832850158
20
2.30053977208132
30
-1E-16
41
1
10
58.463903607893
20
2.30930392415451
30
-1E-16
41
1
10
58.4656708342261
20
2.32751377659255
30
1E-16
41
1
10
58.4673547668483
20
2.33681320130137
30
1E-16
41
1
10
58.4746193481637
20
2.36530570539276
30
0
41
1
10
58.4823909990965
20
2.38514277837729
30
0
41
1
10
58.4982507697843
20
2.41663407515509
30
-1E-16
41
1
10
58.5041769653625
20
2.42728129425126
30
1E-16
41
1
10
58.5171317732213
20
2.44874050761987
30
0
41
1
10
58.5312166142202
20
2.47041844386453
30
0
41
1
10
58.5474884733113
20
2.49257527506362
30
-1E-16
41
1
10
58.5648705858827
20
2.51498175772102
30
1E-16
41
1
10
58.5740263884621
20
2.52618940548314
30
1E-16
41
1
10
58.6025741136493
20
2.55946520289441
30
0
41
1
10
58.6231349408927
20
2.58134664846739
30
-1E-16
41
1
10
58.6565255146765
20
2.61345345485313
30
0
41
1
10
58.6680232177521
20
2.62396520494863
30
0
41
1
10
58.6914181537855
20
2.64419032170207
30
0
41
1
10
58.7153231544692
20
2.66372453847893
30
0
41
1
10
58.7404011869937
20
2.68168273070168
30
0
41
1
10
58.7661909472189
20
2.69869175561007
30
0
41
1
10
58.7794643460836
20
2.706727325381
30
0
41
1
10
58.7929304285183
20
2.71403762454432
30
0
0
SPLINE
5
11F
100
AcDbEntity
8
1
62
256
6
ByLayer
370
18
48
1
60
0
100
AcDbSpline
70
4
71
3
72
17
73
13
40
0
40
0
40
0
40
0
40
0.0624999999999939
40
0.0624999999999939
40
0.124999999999988
40
0.249999999999976
40
0.249999999999976
40
0.499999999999984
40
0.499999999999984
40
0.749999999999992
40
0.749999999999992
40
1
40
1
40
1
40
1
41
1
10
59.2664219810373
20
3.19388398001746
30
1E-16
41
1
10
59.2606843235143
20
3.18102447864212
30
1E-16
41
1
10
59.2545898065106
20
3.16822652631691
30
-1E-16
41
1
10
59.2418328994496
20
3.14306106043216
30
0
41
1
10
59.2218086703074
20
3.10586733903116
30
1E-16
41
1
10
59.1991724495405
20
3.07030298160433
30
-1E-16
41
1
10
59.1505390825076
20
3.00127081670658
30
1E-16
41
1
10
59.1136416353105
20
2.95804101093128
30
0
41
1
10
59.031375899008
20
2.87686552223221
30
-1E-16
41
1
10
58.9871164725548
20
2.83999464770096
30
0
41
1
10
58.8936286707508
20
2.77255400545889
30
-1E-16
41
1
10
58.8443608349857
20
2.7419575232372
30
0
41
1
10
58.7929304285183
20
2.71403762454429
30
0
0
SPLINE
5
120
100
AcDbEntity
8
1
62
256
6
ByLayer
370
18
48
1
60
0
100
AcDbSpline
70
4
71
3
72
10
73
6
40
0
40
0
40
0
40
0
40
0.5
40
0.5
40
1
40
1
40
1
40
1
41
1
10
59.5095029336205
20
1.80046952729205
30
0
41
1
10
59.5292901016538
20
1.76218428395646
30
-1E-16
41
1
10
59.5500079297545
20
1.72100829191686
30
0
41
1
10
59.5932610005248
20
1.63293856775141
30
2E-16
41
1
10
59.6157840847329
20
1.58606886932191
30
-2E-16
41
1
10
59.639148449077
20
1.53647492507784
30
0
0
SPLINE
5
121
100
AcDbEntity
8
1
62
256
6
ByLayer
370
18
48
1
60
0
100
AcDbSpline
70
4
71
3
72
11
73
7
40
0
40
0
40
0
40
0
40
0.25
40
0.25
40
0.5
40
1
40
1
40
1
40
1
41
1
10
58.6610061755142
20
2.1421278032002
30
1E-16
41
1
10
58.731848167454
20
2.11716716518305
30
-1E-16
41
1
10
58.8027549534644
20
2.09126868392133
30
0
41
1
10
58.9445612713793
20
2.03767984293867
30
1E-16
41
1
10
59.1570117822
20
1.95470478246571
30
1E-16
41
1
10
59.3687037374362
20
1.86413790216645
30
1E-16
41
1
10
59.5095029336204
20
1.80046952729205
30
0
0
SPLINE
5
122
100
AcDbEntity
8
1
62
256
6
ByLayer
370
18
48
1
60
0
100
AcDbSpline
70
4
71
3
72
10
73
6
40
0
40
0
40
0
40
0
40
0.5
40
0.5
40
1
40
1
40
1
40
1
41
1
10
58.6610061755142
20
2.1421278032002
30
1E-16
41
1
10
58.6408973181912
20
2.14921300640859
30
1E-16
41
1
10
58.6220377229742
20
2.15615310952467
30
1E-16
41
1
10
58.5869944746927
20
2.16960966353111
30
0
41
1
10
58.5708059692054
20
2.17612714339325
30
0
41
1
10
58.5561910925079
20
2.1823494305597
30
0
0
SPLINE
5
123
100
AcDbEntity
8
1
62
256
6
ByLayer
370
18
48
1
60
0
100
AcDbSpline
70
4
71
3
72
8
73
4
40
0
40
0
40
0
40
0
40
1
40
1
40
1
40
1
41
1
10
59.6438212040858
20
-1.31674009910355
30
0
41
1
10
59.7095029703983
20
-1.4288477285254
30
-2E-16
41
1
10
59.7751812226614
20
-1.54081867922506
30
1E-16
41
1
10
59.8408567897141
20
-1.65268518884741
30
-1E-16
0
SPLINE
5
124
100
AcDbEntity
8
1
62
256
6
ByLayer
370
18
48
1
60
0
100
AcDbSpline
70
4
71
3
72
8
73
4
40
0
40
0
40
0
40
0
40
1
40
1
40
1
40
1
41
1
10
47.9573000006728
20
2.6209305528464
30
1E-16
41
1
10
47.8355341757137
20
2.69601031955571
30
-1E-16
41
1
10
47.7144068046214
20
2.77209890532026
30
2E-16
41
1
10
47.5939095922939
20
2.84918319728149
30
0
0
SPLINE
5
125
100
AcDbEntity
8
1
62
256
6
ByLayer
370
18
48
1
60
0
100
AcDbSpline
70
4
71
3
72
16
73
12
40
0
40
0
40
0
40
0
40
0.249999999999999
40
0.249999999999999
40
0.499999999999998
40
0.499999999999998
40
0.624999999999999
40
0.624999999999999
40
0.75
40
0.75
40
1
40
1
40
1
40
1
41
1
10
59.5198379142196
20
-2.62843208026141
30
-1E-16
41
1
10
59.5675632853752
20
-2.60786219228888
30
-1E-16
41
1
10
59.6116831447412
20
-2.58528888855713
30
-2E-16
41
1
10
59.6935184626522
20
-2.53629675165649
30
2E-16
41
1
10
59.7312249802403
20
-2.50986371365832
30
1E-16
41
1
10
59.7830442390938
20
-2.46722674897708
30
0
41
1
10
59.7995621612995
20
-2.45246962914192
30
0
41
1
10
59.8304805295131
20
-2.42243306418737
30
-1E-16
41
1
10
59.8449474637644
20
-2.4071079090634
30
-1E-16
41
1
10
59.8854472798702
20
-2.36023447255121
30
0
41
1
10
59.9085963696461
20
-2.32777231783845
30
-1E-16
41
1
10
59.927844036467
20
-2.29417942451974
30
0
0
SPLINE
5
126
100
AcDbEntity
8
1
62
256
6
ByLayer
370
18
48
1
60
0
100
AcDbSpline
70
4
71
3
72
14
73
10
40
0
40
0
40
0
40
0
40
0.25
40
0.25
40
0.5
40
0.5
40
0.75
40
0.75
40
1
40
1
40
1
40
1
41
1
10
59.8408792371875
20
-1.65325929249124
30
-1E-16
41
1
10
59.8428036823397
20
-1.65092111021181
30
-1E-16
41
1
10
59.8445485205763
20
-1.64801046707902
30
-1E-16
41
1
10
59.8475971590834
20
-1.64078346116358
30
-2E-16
41
1
10
59.8489013911125
20
-1.63642642122477
30
-2E-16
41
1
10
59.8508904620619
20
-1.62640109590967
30
-2E-16
41
1
10
59.8515910100339
20
-1.62070841280476
30
-2E-16
41
1
10
59.8523621033664
20
-1.60786579193757
30
2E-16
41
1
10
59.8524268799362
20
-1.60066150551265
30
2E-16
41
1
10
59.8521704857615
20
-1.59293234635865
30
2E-16
0
SPLINE
5
127
100
AcDbEntity
8
1
62
256
6
ByLayer
370
18
48
1
60
0
100
AcDbSpline
70
4
71
3
72
29
73
25
40
0
40
0
40
0
40
0
40
0.018526898582261
40
0.0368909778447072
40
0.055091593597909
40
0.0731280921495241
40
0.0909998115674323
40
0.108706082840604
40
0.126246230947694
40
0.143619575844231
40
0.160825433377846
40
0.287478627802569
40
0.411393394492054
40
0.532388477046811
40
0.650271167027254
40
0.689504120637593
40
0.728658778268439
40
0.767728626959114
40
0.806707111874507
40
0.845587661402871
40
0.884363714292415
40
0.923028749147593
40
0.961576313414072
40
1
40
1
40
1
40
1
41
1
10
59.4919560758927
20
-2.13138705730657
30
1E-16
41
1
10
59.4956172764879
20
-2.12957658393512
30
1E-16
41
1
10
59.502907502072
20
-2.12597154811445
30
1E-16
41
1
10
59.5136221103572
20
-2.12038845615592
30
1E-16
41
1
10
59.5241148229375
20
-2.11471376008356
30
1E-16
41
1
10
59.5343746938089
20
-2.1089389356429
30
1E-16
41
1
10
59.5444062575836
20
-2.10307355715705
30
0
41
1
10
59.554210132306
20
-2.09712233916542
30
0
41
1
10
59.5637880905234
20
-2.09109126918375
30
0
41
1
10
59.5731419018
20
-2.08498573512259
30
0
41
1
10
59.6016639510445
20
-2.06570101170132
30
0
41
1
10
59.6461742915597
20
-2.03091418761835
30
-1E-16
41
1
10
59.7003337480574
20
-1.97654705208521
30
2E-16
41
1
10
59.7455077909231
20
-1.91815974101223
30
1E-16
41
1
10
59.7740750549464
20
-1.86985006095321
30
-1E-16
41
1
10
59.7912983614237
20
-1.83434147549346
30
-1E-16
41
1
10
59.8007227580736
20
-1.81268118421471
30
-2E-16
41
1
10
59.8092366720313
20
-1.79068112280089
30
2E-16
41
1
10
59.8168365082984
20
-1.76836743189116
30
1E-16
41
1
10
59.8235175223478
20
-1.74576681507048
30
1E-16
41
1
10
59.8292840000811
20
-1.72290806290306
30
0
41
1
10
59.8341131269212
20
-1.69981316399017
30
0
41
1
10
59.8380887856187
20
-1.67653084769927
30
-1E-16
41
1
10
59.8399699231428
20
-1.66082546336409
30
-1E-16
41
1
10
59.8409089781516
20
-1.65298540933452
30
-1E-16
0
SPLINE
5
128
100
AcDbEntity
8
1
62
256
6
ByLayer
370
18
48
1
60
0
100
AcDbSpline
70
4
71
3
72
40
73
36
40
0
40
0
40
0
40
0
40
0.125000000000008
40
0.125000000000008
40
0.156250000000009
40
0.156250000000009
40
0.187500000000011
40
0.187500000000011
40
0.250000000000015
40
0.250000000000015
40
0.281250000000017
40
0.281250000000017
40
0.312500000000019
40
0.312500000000019
40
0.375000000000023
40
0.375000000000023
40
0.437500000000026
40
0.437500000000026
40
0.50000000000003
40
0.50000000000003
40
0.62500000000003
40
0.62500000000003
40
0.68750000000003
40
0.68750000000003
40
0.75000000000003
40
0.75000000000003
40
0.81250000000003
40
0.81250000000003
40
0.84375000000003
40
0.84375000000003
40
0.87500000000003
40
0.87500000000003
40
0.937500000000015
40
0.937500000000015
40
1
40
1
40
1
40
1
41
1
10
59.5694727083524
20
5.68E-14
30
0
41
1
10
59.540263770431
20
-0.0144776720077857
30
0
41
1
10
59.5143977192123
20
-0.0284370928792157
30
0
41
1
10
59.4852395210584
20
-0.0420201084108953
30
0
41
1
10
59.4795904591586
20
-0.0445271709158419
30
0
41
1
10
59.4688015501415
20
-0.0489783815514784
30
0
41
1
10
59.4636342541672
20
-0.0509354856170603
30
0
41
1
10
59.4487491251222
20
-0.0559384488533112
30
0
41
1
10
59.4396447233555
20
-0.0581097724287361
30
0
41
1
10
59.4270169228048
20
-0.0594747947483825
30
0
41
1
10
59.4229653785226
20
-0.0596150541994689
30
0
41
1
10
59.4152530267034
20
-0.05926603099212
30
0
41
1
10
59.4116114534781
20
-0.0587808334074964
30
0
41
1
10
59.4012547292921
20
-0.0564737345347623
30
0
41
1
10
59.3951023471877
20
-0.0538018451048288
30
0
41
1
10
59.3840497431831
20
-0.0466046367254194
30
0
41
1
10
59.3791414252465
20
-0.042067921554434
30
0
41
1
10
59.3705185503437
20
-0.0315525426628938
30
0
41
1
10
59.3668468139506
20
-0.0256367258502053
30
0
41
1
10
59.3575808883898
20
-0.0064408250560462
30
0
41
1
10
59.3536973581905
20
0.0082591697350267
30
0
41
1
10
59.3515509375885
20
0.0318948749185779
30
0
41
1
10
59.3514587082664
20
0.0400465783673098
30
0
41
1
10
59.3526992132604
20
0.0567593472414103
30
0
41
1
10
59.3540262806833
20
0.0652362644363222
30
0
41
1
10
59.3582898112422
20
0.0822612017954043
30
0
41
1
10
59.3612240932299
20
0.0908132450657035
30
0
41
1
10
59.3670869512242
20
0.103585231903708
30
0
41
1
10
59.3692861201251
20
0.10783311704526
30
0
41
1
10
59.3742393755817
20
0.116287697153268
30
-1E-16
41
1
10
59.3770039438915
20
0.120508468707555
30
1E-16
41
1
10
59.386178202983
20
0.132959382593384
30
0
41
1
10
59.3934249801932
20
0.140950024986466
30
0
41
1
10
59.4107635339331
20
0.15598508055163
30
0
41
1
10
59.4208408878957
20
0.163036561575012
30
0
41
1
10
59.4328796747769
20
0.169345313692219
30
0
0
SPLINE
5
129
100
AcDbEntity
8
1
62
256
6
ByLayer
370
18
48
1
60
0
100
AcDbSpline
70
4
71
3
72
14
73
10
40
0
40
0
40
0
40
0
40
0.25
40
0.25
40
0.5
40
0.5
40
0.75
40
0.75
40
1
40
1
40
1
40
1
41
1
10
58.6054847208366
20
-0.270739414031681
30
2E-16
41
1
10
58.5896525230794
20
-0.256997527407378
30
2E-16
41
1
10
58.5751900953392
20
-0.242243574883247
30
1E-16
41
1
10
58.5488896331566
20
-0.210673954223267
30
0
41
1
10
58.5370281515474
20
-0.193818560412069
30
0
41
1
10
58.5159014169727
20
-0.158129265328228
30
-1E-16
41
1
10
58.5067572281717
20
-0.139513967078273
30
-1E-16
41
1
10
58.490969260782
20
-0.100891529136675
30
-2E-16
41
1
10
58.484406694864
20
-0.0810900364936913
30
2E-16
41
1
10
58.478928532921
20
-0.0608551854955408
30
1E-16
0
SPLINE
5
12A
100
AcDbEntity
8
1
62
256
6
ByLayer
370
18
48
1
60
0
100
AcDbSpline
70
4
71
3
72
8
73
4
40
0
40
0
40
0
40
0
40
1
40
1
40
1
40
1
41
1
10
47.9573000006728
20
-3.23908261907332
30
0
41
1
10
47.8355341754055
20
-3.26646672062842
30
1E-16
41
1
10
47.7144068049264
20
-3.29687615937499
30
0
41
1
10
47.5939095922938
20
-3.33027161670378
30
0
0
SPLINE
5
12B
100
AcDbEntity
8
1
62
256
6
ByLayer
370
18
48
1
60
0
100
AcDbSpline
70
4
71
3
72
8
73
4
40
0
40
0
40
0
40
0
40
1
40
1
40
1
40
1
41
1
10
59.6391484490771
20
-2.8900476695292
30
0
41
1
10
59.6433706901997
20
-2.90395991972528
30
0
41
1
10
59.6468728611119
20
-2.91794356956171
30
0
41
1
10
59.6496569185906
20
-2.9320119521966
30
0
0
SPLINE
5
12C
100
AcDbEntity
8
1
62
256
6
ByLayer
370
18
48
1
60
0
100
AcDbSpline
70
4
71
3
72
10
73
6
40
0
40
0
40
0
40
0
40
0.432322121368021
40
0.432322121368021
40
1
40
1
40
1
40
1
41
1
10
59.5238153823021
20
-2.62561251844457
30
0
41
1
10
59.5392215828093
20
-2.66756115354852
30
0
41
1
10
59.5551645091885
20
-2.7078957214712
30
0
41
1
10
59.5932610005248
20
-2.7973420799232
30
0
41
1
10
59.6157840847328
20
-2.84521598742194
30
0
41
1
10
59.639148449077
20
-2.89004766952931
30
0
0
SPLINE
5
12D
100
AcDbEntity
8
1
62
256
6
ByLayer
370
18
48
1
60
0
100
AcDbSpline
70
4
71
3
72
27
73
23
40
0
40
0
40
0
40
0
40
0.0275903277799773
40
0.0662452469158105
40
0.104900166051644
40
0.143555085187477
40
0.18221000432331
40
0.24019238302706
40
0.29817476173081
40
0.356157140434559
40
0.414139519138309
40
0.452794438274142
40
0.491449357409976
40
0.549431736113725
40
0.607414114817475
40
0.665396493521225
40
0.723378872224975
40
0.781361250928724
40
0.839343629632474
40
0.916653467904141
40
0.993963306175807
40
1
40
1
40
1
40
1
41
1
10
58.3869404774055
20
-2.30993133082123
30
0
41
1
10
58.2974030266037
20
-2.28472911412081
30
0
41
1
10
58.0824207841352
20
-2.22090024298979
30
-1E-16
41
1
10
57.74199375
20
-2.10779879161379
30
1E-16
41
1
10
57.365659375
20
-1.9682041073612
30
-1E-16
41
1
10
56.989325
20
-1.81431645532888
30
0
41
1
10
56.5502682291667
20
-1.61864299537916
30
-2E-16
41
1
10
56.0484890625
20
-1.37444300598949
30
1E-16
41
1
10
55.4839875
20
-1.07776573173982
30
-1E-16
41
1
10
54.9194859375
20
-0.764995922602565
30
0
41
1
10
54.4177067708334
20
-0.477173628825881
30
-2E-16
41
1
10
53.9786500000001
20
-0.2205149446078
30
1E-16
41
1
10
53.5395932291666
20
0.0392641482860086
30
-1E-16
41
1
10
53.0378140624999
20
0.337095088742728
30
1E-16
41
1
10
52.4733125
20
0.666312873817105
30
2E-16
41
1
10
51.9088109375
20
0.983530503058688
30
-1E-16
41
1
10
51.344309375
20
1.28384320295348
30
1E-16
41
1
10
50.7798078125
20
1.56404371491294
30
-1E-16
41
1
10
50.1525838541667
20
1.84917634527611
30
1E-16
41
1
10
49.4626375
20
2.12049846554251
30
-1E-16
41
1
10
48.9412677659214
20
2.28264644186658
30
0
41
1
10
48.6707876151762
20
2.35371090232053
30
0
41
1
10
48.6511970477643
20
2.35878923268643
30
0
0
SPLINE
5
12E
100
AcDbEntity
8
1
62
256
6
ByLayer
370
18
48
1
60
0
100
AcDbSpline
70
4
71
3
72
12
73
8
40
0
40
0
40
0
40
0
40
0.249999999999998
40
0.249999999999998
40
0.499999999999996
40
0.499999999999996
40
1
40
1
40
1
40
1
41
1
10
47.7572650903684
20
2.32483827366752
30
-1E-16
41
1
10
47.7631579583531
20
2.31272169293945
30
-1E-16
41
1
10
47.7686791191957
20
2.30061406377459
30
-1E-16
41
1
10
47.7793567789051
20
2.27642553153592
30
0
41
1
10
47.784503764399
20
2.26434438799817
30
0
41
1
10
47.7995824476266
20
2.22814462849985
30
1E-16
41
1
10
47.8091603374979
20
2.20406995065164
30
2E-16
41
1
10
47.8184399713655
20
2.18005504563871
30
2E-16
0
SPLINE
5
12F
100
AcDbEntity
8
1
62
256
6
ByLayer
370
18
48
1
60
0
100
AcDbSpline
70
4
71
3
72
8
73
4
40
0
40
0
40
0
40
0
40
1
40
1
40
1
40
1
41
1
10
59.6438212040866
20
-1.31674009910347
30
0
41
1
10
59.6483588109905
20
-1.35211333136206
30
1E-16
41
1
10
59.6515374137096
20
-1.38765464511505
30
1E-16
41
1
10
59.6533121470057
20
-1.42336418386643
30
-2E-16
0
SPLINE
5
130
100
AcDbEntity
8
1
62
256
6
ByLayer
370
18
48
1
60
0
100
AcDbSpline
70
4
71
3
72
10
73
6
40
0
40
0
40
0
40
0
40
0.5
40
0.5
40
1
40
1
40
1
40
1
41
1
10
59.544316153887
20
-0.85082775904641
30
2E-16
41
1
10
59.5595994033495
20
-0.928155720054122
30
0
41
1
10
59.5755357767535
20
-1.00567914780743
30
1E-16
41
1
10
59.6087289301138
20
-1.16111738594691
30
1E-16
41
1
10
59.6259659079854
20
-1.23893662333705
30
-2E-16
41
1
10
59.6438212040863
20
-1.31674009910367
30
0
0
SPLINE
5
131
100
AcDbEntity
8
1
62
256
6
ByLayer
370
18
48
1
60
0
100
AcDbSpline
70
4
71
3
72
10
73
6
40
0
40
0
40
0
40
0
40
0.5
40
0.5
40
1
40
1
40
1
40
1
41
1
10
58.6602294845267
20
-0.31082009309489
30
-2E-16
41
1
10
58.8077884943133
20
-0.4018680762141
30
1E-16
41
1
10
58.9552634618748
20
-0.492389558127343
30
-2E-16
41
1
10
59.250054683356
20
-0.672438225058556
30
-2E-16
41
1
10
59.397457186349
20
-0.76201623718876
30
0
41
1
10
59.5443161538798
20
-0.850827759060195
30
2E-16
0
SPLINE
5
132
100
AcDbEntity
8
1
62
256
6
ByLayer
370
18
48
1
60
0
100
AcDbSpline
70
4
71
3
72
8
73
4
40
0
40
0
40
0
40
0
40
1
40
1
40
1
40
1
41
1
10
58.6602294845267
20
-0.31082009309489
30
-2E-16
41
1
10
58.6409212917035
20
-0.298906405026827
30
-2E-16
41
1
10
58.6226227770999
20
-0.28561474796075
30
-2E-16
41
1
10
58.6054847208366
20
-0.270739414031652
30
2E-16
0
SPLINE
5
133
100
AcDbEntity
8
1
62
256
6
ByLayer
370
18
48
1
60
0
100
AcDbSpline
70
4
71
3
72
8
73
4
40
0
40
0
40
0
40
0
40
1
40
1
40
1
40
1
41
1
10
47.8184399708532
20
2.18005504548864
30
2E-16
41
1
10
47.8153857364808
20
2.16227379633094
30
-2E-16
41
1
10
47.8126439520714
20
2.14446149538171
30
-1E-16
41
1
10
47.8104046243363
20
2.12660049752566
30
-1E-16
0
SPLINE
5
134
100
AcDbEntity
8
1
62
256
6
ByLayer
370
18
48
1
60
0
100
AcDbSpline
70
4
71
3
72
8
73
4
40
0
40
0
40
0
40
0
40
1
40
1
40
1
40
1
41
1
10
47.8104046243515
20
2.12660049752401
30
-1E-16
41
1
10
47.8594576141453
20
2.10625397676367
30
0
41
1
10
47.9084275566598
20
2.08594313778991
30
0
41
1
10
47.9573
20
2.06564517673095
30
0
0
SPLINE
5
135
100
AcDbEntity
8
1
62
256
6
ByLayer
370
18
48
1
60
0
100
AcDbSpline
70
4
71
3
72
8
73
4
40
0
40
0
40
0
40
0
40
1
40
1
40
1
40
1
41
1
10
47.7572650903685
20
2.14088811153692
30
-1E-16
41
1
10
47.7752405690379
20
2.13440418483665
30
-1E-16
41
1
10
47.7929728029998
20
2.1296641488907
30
-1E-16
41
1
10
47.810404624351
20
2.12660049752759
30
-1E-16
0
SPLINE
5
136
100
AcDbEntity
8
1
62
256
6
ByLayer
370
18
48
1
60
0
100
AcDbSpline
70
4
71
3
72
14
73
10
40
0
40
0
40
0
40
0
40
0.25
40
0.25
40
0.5
40
0.5
40
0.75
40
0.75
40
1
40
1
40
1
40
1
41
1
10
59.6533121470057
20
-1.4233641838664
30
-2E-16
41
1
10
59.6567757905012
20
-1.45297698632223
30
-1E-16
41
1
10
59.6602246596016
20
-1.4823284157348
30
-1E-16
41
1
10
59.6676238800174
20
-1.54044035747378
30
1E-16
41
1
10
59.6715818534631
20
-1.56922722383263
30
1E-16
41
1
10
59.6803443689562
20
-1.62543470074095
30
-2E-16
41
1
10
59.6851762421171
20
-1.65302717812705
30
-1E-16
41
1
10
59.6959386463355
20
-1.70656854063142
30
0
41
1
10
59.7018653401668
20
-1.73251771027378
30
1E-16
41
1
10
59.7084213418225
20
-1.75769042095462
30
1E-16
0
SPLINE
5
137
100
AcDbEntity
8
1
62
256
6
ByLayer
370
18
48
1
60
0
100
AcDbSpline
70
4
71
3
72
16
73
12
40
0
40
0
40
0
40
0
40
0.284015658960189
40
0.284015658960189
40
0.426023488440277
40
0.426023488440277
40
0.568031317920365
40
0.568031317920365
40
0.852046976880559
40
0.852046976880559
40
1
40
1
40
1
40
1
41
1
10
59.6496569185905
20
-2.9320119521966
30
0
41
1
10
59.6534617402139
20
-2.94693429121631
30
0
41
1
10
59.6571401511658
20
-2.95996944070532
30
0
41
1
10
59.6630006679458
20
-2.97659728479363
30
0
41
1
10
59.6650145293647
20
-2.98165938241001
30
0
41
1
10
59.6692096475558
20
-2.9907387878506
30
0
41
1
10
59.671392435396
20
-2.99476293074639
30
0
41
1
10
59.6782998566807
20
-3.00531644413206
30
0
41
1
10
59.6834104445213
20
-3.01033262850038
30
0
41
1
10
59.6921504918673
20
-3.01494920938734
30
0
41
1
10
59.695316933281
20
-3.01599982547768
30
0
41
1
10
59.6986723157764
20
-3.01654356067743
30
0
0
SPLINE
5
138
100
AcDbEntity
8
1
62
256
6
ByLayer
370
18
48
1
60
0
100
AcDbSpline
70
4
71
3
72
30
73
26
40
0
40
0
40
0
40
0
40
0.035292708588139
40
0.0683054156199957
40
0.101318122651852
40
0.134330829683709
40
0.167343536715566
40
0.200356243747423
40
0.233368950779279
40
0.266381657811136
40
0.315900718358921
40
0.365419778906706
40
0.414938839454491
40
0.464457900002276
40
0.497470607034133
40
0.53048331406599
40
0.580002374613775
40
0.62952143516156
40
0.679040495709345
40
0.72855955625713
40
0.778078616804915
40
0.8275976773527
40
0.893623091416414
40
0.959648505480127
40
1
40
1
40
1
40
1
41
1
10
59.6496569185906
20
-2.9320119521966
30
0
41
1
10
59.5155483623937
20
-2.93100303278391
30
0
41
1
10
59.2559950145302
20
-2.92133076300502
30
0
41
1
10
58.8709968749999
20
-2.88473250343284
30
0
41
1
10
58.4946625
20
-2.82823577812286
30
0
41
1
10
58.118328125
20
-2.75142246437804
30
0
41
1
10
57.74199375
20
-2.65494420263465
30
0
41
1
10
57.365659375
20
-2.53953269492706
30
0
41
1
10
56.989325
20
-2.40578202986049
30
1E-16
41
1
10
56.5502682291667
20
-2.2295450667834
30
-1E-16
41
1
10
56.0484890625
20
-2.00115642265163
30
-2E-16
41
1
10
55.4839875
20
-1.71204136149277
30
0
41
1
10
54.9194859375
20
-1.39549729517247
30
2E-16
41
1
10
54.4177067708334
20
-1.09416738854964
30
-1E-16
41
1
10
53.9786500000001
20
-0.819092285911893
30
1E-16
41
1
10
53.5395932291666
20
-0.537233220698028
30
-1E-16
41
1
10
53.0378140624999
20
-0.208187190314135
30
0
41
1
10
52.4733125
20
0.165336910936617
30
1E-16
41
1
10
51.9088109375
20
0.535982628579632
30
1E-16
41
1
10
51.344309375
20
0.897659549363311
30
1E-16
41
1
10
50.7798078125
20
1.24478100391212
30
2E-16
41
1
10
50.1525838541667
20
1.60863839367147
30
-2E-16
41
1
10
49.4626375
20
1.9732137575082
30
-2E-16
41
1
10
48.8075269261694
20
2.27009297749819
30
-1E-16
41
1
10
48.4033059356723
20
2.42429870173038
30
-1E-16
41
1
10
48.2499745285084
20
2.47829981213857
30
-1E-16
0
SPLINE
5
139
100
AcDbEntity
8
1
62
256
6
ByLayer
370
18
48
1
60
0
100
AcDbSpline
70
4
71
3
72
25
73
21
40
0
40
0
40
0
40
0
40
0.250000000000009
40
0.250000000000009
40
0.375000000000004
40
0.375000000000004
40
0.499999999999999
40
0.499999999999999
40
0.562499999999989
40
0.562499999999989
40
0.624999999999979
40
0.687499999999969
40
0.687499999999969
40
0.74999999999996
40
0.74999999999996
40
0.87499999999994
40
0.87499999999994
40
0.93749999999997
40
0.93749999999997
40
1
40
1
40
1
40
1
41
1
10
59.7084213418225
20
-1.75769042095462
30
1E-16
41
1
10
59.7127119532063
20
-1.7741647012347
30
2E-16
41
1
10
59.7161881063185
20
-1.79136018156174
30
2E-16
41
1
10
59.7195435861502
20
-1.81867463612667
30
-2E-16
41
1
10
59.7203496207733
20
-1.82811731134811
30
-2E-16
41
1
10
59.721077566308
20
-1.84727111056381
30
-1E-16
41
1
10
59.721004646411
20
-1.85692102610997
30
-1E-16
41
1
10
59.7200498993769
20
-1.87152943388608
30
-1E-16
41
1
10
59.7195846894629
20
-1.87645396715726
30
0
41
1
10
59.7183509354636
20
-1.88614195977718
30
0
41
1
10
59.7168175042644
20
-1.89568154042911
30
0
41
1
10
59.7146476658
20
-1.90491037095643
30
0
41
1
10
59.7121346183922
20
-1.9139738702292
30
0
41
1
10
59.7106942545421
20
-1.91845482090588
30
1E-16
41
1
10
59.705899419243
20
-1.93139299562483
30
1E-16
41
1
10
59.7021308425303
20
-1.93923265499745
30
1E-16
41
1
10
59.6956764712698
20
-1.94992785051079
30
1E-16
41
1
10
59.6933819318665
20
-1.95332397230351
30
1E-16
41
1
10
59.6886200862397
20
-1.95965944038343
30
2E-16
41
1
10
59.6861448129242
20
-1.96261462893281
30
2E-16
41
1
10
59.6835825313665
20
-1.96537753065195
30
2E-16
0
SPLINE
5
13A
100
AcDbEntity
8
1
62
256
6
ByLayer
370
18
48
1
60
0
100
AcDbSpline
70
4
71
3
72
10
73
6
40
0
40
0
40
0
40
0
40
0.72538681295438
40
0.72538681295438
40
1
40
1
40
1
40
1
41
1
10
59.7084213418225
20
-3.01677607470248
30
0
41
1
10
59.7127119532062
20
-3.01635060218445
30
0
41
1
10
59.7161881063184
20
-3.01751828983077
30
0
41
1
10
59.7192719596702
20
-3.02217169788534
30
0
41
1
10
59.7199397015458
20
-3.02378517083665
30
0
41
1
10
59.7203720635276
20
-3.025771059617
30
0
0
SPLINE
5
13B
100
AcDbEntity
8
1
62
256
6
ByLayer
370
18
48
1
60
0
100
AcDbSpline
70
4
71
3
72
8
73
4
40
0
40
0
40
0
40
0
40
1
40
1
40
1
40
1
41
1
10
59.6391484490741
20
1.53647492508082
30
0
41
1
10
59.7063879627262
20
1.35348509687154
30
-1E-16
41
1
10
59.7736237789701
20
1.17046999510302
30
-1E-16
41
1
10
59.8408567897047
20
0.987435716372659
30
-1E-16
0
SPLINE
5
13C
100
AcDbEntity
8
1
62
256
6
ByLayer
370
18
48
1
60
0
100
AcDbSpline
70
4
71
3
72
8
73
4
40
0
40
0
40
0
40
0
40
1
40
1
40
1
40
1
41
1
10
59.6391484490771
20
1.53647492507784
30
0
41
1
10
59.6433706901997
20
1.52269674605154
30
0
41
1
10
59.6468728611118
20
1.5088694058519
30
0
41
1
10
59.6496569185906
20
1.49500660735845
30
1E-16
0
SPLINE
5
13D
100
AcDbEntity
8
1
62
256
6
ByLayer
370
18
48
1
60
0
100
AcDbSpline
70
4
71
3
72
16
73
12
40
0
40
0
40
0
40
0
40
0.250000000000007
40
0.250000000000007
40
0.375000000000006
40
0.375000000000006
40
0.500000000000005
40
0.500000000000005
40
0.750000000000002
40
0.750000000000002
40
1
40
1
40
1
40
1
41
1
10
59.6496569185906
20
1.49500660735848
30
1E-16
41
1
10
59.6534617402139
20
1.47766550505816
30
1E-16
41
1
10
59.6571401511658
20
1.45868033773866
30
1E-16
41
1
10
59.6630006679458
20
1.42771487576132
30
2E-16
41
1
10
59.6650145293648
20
1.41695848887048
30
-2E-16
41
1
10
59.6692096475559
20
1.39476079463222
30
-2E-16
41
1
10
59.671392435396
20
1.38331172126811
30
-1E-16
41
1
10
59.6782998566807
20
1.34794645344806
30
0
41
1
10
59.6834104445214
20
1.32291445162517
30
0
41
1
10
59.6949034550533
20
1.27093571723444
30
1E-16
41
1
10
59.7012870934707
20
1.24397674799718
30
2E-16
41
1
10
59.7084213418225
20
1.21615970867973
30
-2E-16
0
SPLINE
5
13E
100
AcDbEntity
8
1
62
256
6
ByLayer
370
18
48
1
60
0
100
AcDbSpline
70
4
71
3
72
25
73
21
40
0
40
0
40
0
40
0
40
0.249999999999958
40
0.249999999999958
40
0.374999999999948
40
0.374999999999948
40
0.499999999999939
40
0.499999999999939
40
0.562499999999937
40
0.562499999999937
40
0.624999999999935
40
0.687499999999933
40
0.687499999999933
40
0.749999999999931
40
0.749999999999931
40
0.874999999999927
40
0.874999999999927
40
0.937499999999963
40
0.937499999999963
40
1
40
1
40
1
40
1
41
1
10
59.7084213418225
20
1.21615970867967
30
-2E-16
41
1
10
59.7127119532063
20
1.19943032762188
30
-1E-16
41
1
10
59.7161881063185
20
1.18354820306843
30
-1E-16
41
1
10
59.7195435861503
20
1.16146439652002
30
-1E-16
41
1
10
59.7203496207734
20
1.15434229254345
30
0
41
1
10
59.721077566308
20
1.14114599368492
30
0
41
1
10
59.7210046464111
20
1.13510372981938
30
0
41
1
10
59.7200498993769
20
1.12706285025064
30
0
41
1
10
59.719584689463
20
1.1245398190612
30
0
41
1
10
59.7183509354638
20
1.11998282859801
30
0
41
1
10
59.7168175506777
20
1.11590202890264
30
1E-16
41
1
10
59.7146476658
20
1.11280935935741
30
1E-16
41
1
10
59.7121346183922
20
1.1102375659062
30
1E-16
41
1
10
59.7106942545422
20
1.10920720093361
30
1E-16
41
1
10
59.7058994192429
20
1.10699128198496
30
1E-16
41
1
10
59.7021308425303
20
1.1066779355034
30
1E-16
41
1
10
59.6956764712698
20
1.10776450412081
30
1E-16
41
1
10
59.6933819318665
20
1.10839222431193
30
1E-16
41
1
10
59.6886200862397
20
1.11011138634859
30
1E-16
41
1
10
59.6861448129242
20
1.11120262296723
30
1E-16
41
1
10
59.6835825313666
20
1.11250228045253
30
1E-16
0
SPLINE
5
13F
100
AcDbEntity
8
1
62
256
6
ByLayer
370
18
48
1
60
0
100
AcDbSpline
70
4
71
3
72
8
73
4
40
0
40
0
40
0
40
0
40
1
40
1
40
1
40
1
41
1
10
47.8184399708532
20
-1.34316055748053
30
0
41
1
10
47.8152650351236
20
-1.36358968582954
30
1E-16
41
1
10
47.8124273913861
20
-1.3840457197478
30
1E-16
41
1
10
47.8101415234678
20
-1.40454681919775
30
2E-16
0
SPLINE
5
140
100
AcDbEntity
8
1
62
256
6
ByLayer
370
18
48
1
60
0
100
AcDbSpline
70
4
71
3
72
14
73
10
40
0
40
0
40
0
40
0
40
0.499999999999959
40
0.499999999999959
40
0.624999999999992
40
0.624999999999992
40
0.750000000000026
40
0.750000000000026
40
1
40
1
40
1
40
1
41
1
10
59.6835825313666
20
1.11250228045262
30
1E-16
41
1
10
59.655596047094
20
1.1266976467532
30
0
41
1
10
59.6240591216555
20
1.1445234237647
30
0
41
1
10
59.580673496238
20
1.17100168242041
30
-1E-16
41
1
10
59.5717946464538
20
1.17650921672114
30
-1E-16
41
1
10
59.5536409833084
20
1.18794066968093
30
-1E-16
41
1
10
59.544341880301
20
1.19388047086079
30
-1E-16
41
1
10
59.5161784020279
20
1.21210513672659
30
-2E-16
41
1
10
59.4969850151027
20
1.2248324759324
30
-2E-16
41
1
10
59.4774133113273
20
1.2380698802788
30
2E-16
0
SPLINE
5
141
100
AcDbEntity
8
1
62
256
6
ByLayer
370
18
48
1
60
0
100
AcDbSpline
70
4
71
3
72
8
73
4
40
0
40
0
40
0
40
0
40
1
40
1
40
1
40
1
41
1
10
59.4919345697622
20
1.175740404165
30
-1E-16
41
1
10
59.4870373167051
20
1.19652787452162
30
-1E-16
41
1
10
59.4821985444143
20
1.21730421982949
30
-2E-16
41
1
10
59.4774133113281
20
1.23806988027914
30
2E-16
0
SPLINE
5
142
100
AcDbEntity
8
1
62
256
6
ByLayer
370
18
48
1
60
0
100
AcDbSpline
70
4
71
3
72
14
73
10
40
0
40
0
40
0
40
0
40
0.25
40
0.25
40
0.5
40
0.5
40
0.75
40
0.75
40
1
40
1
40
1
40
1
41
1
10
59.8408792371874
20
0.987511977794981
30
-1E-16
41
1
10
59.8428036823397
20
0.98083317470477
30
-1E-16
41
1
10
59.8445485205764
20
0.974575004336486
30
-1E-16
41
1
10
59.8475971590833
20
0.96309155812736
30
0
41
1
10
59.8489013911124
20
0.957854490580786
30
0
41
1
10
59.8508904620618
20
0.949000899991489
30
0
41
1
10
59.8515910100339
20
0.945328496956961
30
0
41
1
10
59.8523621033663
20
0.939600321153449
30
0
41
1
10
59.8524268799363
20
0.937548839714793
30
0
41
1
10
59.8521704857616
20
0.936377396278175
30
0
0
SPLINE
5
143
100
AcDbEntity
8
1
62
256
6
ByLayer
370
18
48
1
60
0
100
AcDbSpline
70
4
71
3
72
29
73
25
40
0
40
0
40
0
40
0
40
0.0185268968746523
40
0.0368909744592482
40
0.0550915885645376
40
0.0731280854981961
40
0.0909998033285032
40
0.108706073044414
40
0.126246219624879
40
0.143619563025637
40
0.160825419094482
40
0.287478615586282
40
0.411393384298148
40
0.532388468827637
40
0.650271160732015
40
0.689504115049359
40
0.728658773385636
40
0.767728622780085
40
0.806707108397375
40
0.845587658625665
40
0.884363712213034
40
0.923028747763775
40
0.961576312723423
40
1
40
1
40
1
40
1
41
1
10
59.4919560859526
20
1.17571497631985
30
-1E-16
41
1
10
59.4956172861104
20
1.17426062901282
30
-1E-16
41
1
10
59.5029075108267
20
1.17136471558913
30
-1E-16
41
1
10
59.5136221178551
20
1.16706294118745
30
-1E-16
41
1
10
59.5241148292242
20
1.16281692465407
30
-1E-16
41
1
10
59.5343746989323
20
1.15862864611668
30
-1E-16
41
1
10
59.5444062615904
20
1.15449802870822
30
0
41
1
10
59.5542101352428
20
1.15042545040961
30
0
41
1
10
59.5637880924362
20
1.14641108528906
30
0
41
1
10
59.5731419027346
20
1.14245506736191
30
0
41
1
10
59.6016639513346
20
1.13028046396471
30
0
41
1
10
59.6461742915598
20
1.1105065316936
30
1E-16
41
1
10
59.7003337480573
20
1.08449966877413
30
1E-16
41
1
10
59.7455077909231
20
1.06071079812719
30
2E-16
41
1
10
59.7740750549532
20
1.04382766406332
30
2E-16
41
1
10
59.791298361441
20
1.032604477213
30
-2E-16
41
1
10
59.8007227581045
20
1.02610014930698
30
-2E-16
41
1
10
59.8092366720729
20
1.01982904444478
30
-2E-16
41
1
10
59.8168365083475
20
1.01379739962979
30
-2E-16
41
1
10
59.8235175224012
20
1.00801165295994
30
-1E-16
41
1
10
59.8292840001357
20
1.00247552428488
30
-1E-16
41
1
10
59.8341131269739
20
0.997200048428823
30
-1E-16
41
1
10
59.8380887856665
20
0.992166454174992
30
-1E-16
41
1
10
59.8399699231848
20
0.989025921735163
30
-1E-16
41
1
10
59.8409089781907
20
0.987458182704785
30
-1E-16
0
SPLINE
5
144
100
AcDbEntity
8
1
62
256
6
ByLayer
370
18
48
1
60
0
100
AcDbSpline
70
4
71
3
72
12
73
8
40
0
40
0
40
0
40
0
40
0.25
40
0.25
40
0.5
40
0.5
40
1
40
1
40
1
40
1
41
1
10
59.5137068665547
20
0.654934499739113
30
-2E-16
41
1
10
59.5157197661647
20
0.697683353034421
30
1E-16
41
1
10
59.5158421635754
20
0.740765582613733
30
0
41
1
10
59.5143447840232
20
0.827227829830861
30
-2E-16
41
1
10
59.5126702084912
20
0.870617278876892
30
2E-16
41
1
10
59.5060283115001
20
1.00104150916749
30
-1E-16
41
1
10
59.4994790141196
20
1.08832497559857
30
1E-16
41
1
10
59.4919667613009
20
1.17571074361601
30
-1E-16
0
SPLINE
5
145
100
AcDbEntity
8
1
62
256
6
ByLayer
370
18
48
1
60
0
100
AcDbSpline
70
4
71
5
72
12
73
6
40
0
40
0
40
0
40
0
40
0
40
0
40
1
40
1
40
1
40
1
40
1
40
1
41
1
10
47.9573
20
-1.46331304651483
30
-1E-16
41
1
10
47.9573
20
-1.46321245577468
30
-1E-16
41
1
10
47.9573
20
-1.46311186523332
30
-1E-16
41
1
10
47.9573
20
-1.46301127489073
30
-1E-16
41
1
10
47.9573
20
-1.4629106847469
30
-1E-16
41
1
10
47.9573
20
-1.46281009480188
30
-1E-16
0
SPLINE
5
146
100
AcDbEntity
8
1
62
256
6
ByLayer
370
18
48
1
60
0
100
AcDbSpline
70
4
71
3
72
8
73
4
40
0
40
0
40
0
40
0
40
1
40
1
40
1
40
1
41
1
10
47.9573000000075
20
-1.46331304651525
30
-1E-16
41
1
10
48.2627065585995
20
-1.70215145245908
30
0
41
1
10
48.5633683663743
20
-1.93616787564224
30
1E-16
41
1
10
48.8633922922466
20
-2.16035613655657
30
2E-16
0
SPLINE
5
147
100
AcDbEntity
8
1
62
256
6
ByLayer
370
18
48
1
60
0
100
AcDbSpline
70
4
71
3
72
12
73
8
40
0
40
0
40
0
40
0
40
0.249999999999999
40
0.249999999999999
40
0.499999999999998
40
0.499999999999998
40
1
40
1
40
1
40
1
41
1
10
47.7572650903684
20
-1.15868049625013
30
1E-16
41
1
10
47.7631579583531
20
-1.17370550658157
30
1E-16
41
1
10
47.7686791191956
20
-1.1888865771889
30
1E-16
41
1
10
47.7793567789051
20
-1.2194099461083
30
2E-16
41
1
10
47.784503764399
20
-1.23475602595994
30
-2E-16
41
1
10
47.7995824476265
20
-1.2809621892595
30
-1E-16
41
1
10
47.8091603374978
20
-1.31198685585872
30
0
41
1
10
47.8184399713656
20
-1.34316055748266
30
0
0
SPLINE
5
148
100
AcDbEntity
8
1
62
256
6
ByLayer
370
18
48
1
60
0
100
AcDbSpline
70
4
71
5
72
12
73
6
40
0
40
0
40
0
40
0
40
0
40
0
40
1
40
1
40
1
40
1
40
1
40
1
41
1
10
47.9573000005825
20
-1.46281009486779
30
-1E-16
41
1
10
47.9573000005825
20
-1.40061396920575
30
2E-16
41
1
10
47.9573000005825
20
-1.33843507217688
30
0
41
1
10
47.9573
20
-1.27627339835621
30
-1E-16
41
1
10
47.9573
20
-1.21412894547498
30
2E-16
41
1
10
47.9573
20
-1.15200171478307
30
0
0
SPLINE
5
149
100
AcDbEntity
8
1
62
256
6
ByLayer
370
18
48
1
60
0
100
AcDbSpline
70
4
71
3
72
14
73
10
40
0
40
0
40
0
40
0
40
0.500000000000023
40
0.500000000000023
40
0.625000000000029
40
0.625000000000029
40
0.750000000000034
40
0.750000000000034
40
1
40
1
40
1
40
1
41
1
10
59.9278440364675
20
0.436659655333358
30
-1E-16
41
1
10
59.835789590105
20
0.450656772966283
30
-2E-16
41
1
10
59.7335870593678
20
0.463395518527335
30
-2E-16
41
1
10
59.5945885375034
20
0.477924515383336
30
2E-16
41
1
10
59.5662137678704
20
0.480759006117893
30
2E-16
41
1
10
59.5083274742143
20
0.486287028965904
30
2E-16
41
1
10
59.478736571756
20
0.488988131062513
30
2E-16
41
1
10
59.3891915620958
20
0.496815306688234
30
2E-16
41
1
10
59.3283154941252
20
0.501666540357093
30
2E-16
41
1
10
59.2664219810373
20
0.506201269561984
30
1E-16
0
SPLINE
5
14A
100
AcDbEntity
8
1
62
256
6
ByLayer
370
18
48
1
60
0
100
AcDbSpline
70
4
71
3
72
16
73
12
40
0
40
0
40
0
40
0
40
0.250000000000001
40
0.250000000000001
40
0.500000000000001
40
0.500000000000001
40
0.625000000000001
40
0.625000000000001
40
0.750000000000001
40
0.750000000000001
40
1
40
1
40
1
40
1
41
1
10
59.5198379142196
20
0.635955729977127
30
-2E-16
41
1
10
59.5675632853752
20
0.62376673222974
30
-1E-16
41
1
10
59.6116831447413
20
0.610078668109793
30
-1E-16
41
1
10
59.6935184626523
20
0.58037621309785
30
0
41
1
10
59.7312249802403
20
0.564368936348757
30
0
41
1
10
59.7830442390939
20
0.538801377498714
30
1E-16
41
1
10
59.7995621612996
20
0.529986345950164
30
1E-16
41
1
10
59.8304805295131
20
0.512119948579709
30
1E-16
41
1
10
59.8449474637644
20
0.503037407015626
30
2E-16
41
1
10
59.8854472798703
20
0.47535408249172
30
2E-16
41
1
10
59.908596369646
20
0.456345233386514
30
-2E-16
41
1
10
59.927844036467
20
0.436659655333187
30
-1E-16
0
SPLINE
5
14B
100
AcDbEntity
8
1
62
256
6
ByLayer
370
18
48
1
60
0
100
AcDbSpline
70
4
71
3
72
8
73
4
40
0
40
0
40
0
40
0
40
1
40
1
40
1
40
1
41
1
10
47.8101415234839
20
-1.40454681919891
30
2E-16
41
1
10
47.8592950438309
20
-1.42368897929771
30
-2E-16
41
1
10
47.908352390077
20
-1.44326664706503
30
-2E-16
41
1
10
47.9573
20
-1.46331304650937
30
-1E-16
0
SPLINE
5
14C
100
AcDbEntity
8
1
62
256
6
ByLayer
370
18
48
1
60
0
100
AcDbSpline
70
4
71
3
72
8
73
4
40
0
40
0
40
0
40
0
40
1
40
1
40
1
40
1
41
1
10
47.7572650903688
20
-1.38163804313038
30
1E-16
41
1
10
47.7751558427283
20
-1.38872544016809
30
1E-16
41
1
10
47.7927998162544
20
-1.39632026651006
30
2E-16
41
1
10
47.8101415234834
20
-1.40454681919999
30
2E-16
0
SPLINE
5
14D
100
AcDbEntity
8
1
62
256
6
ByLayer
370
18
48
1
60
0
100
AcDbSpline
70
4
71
3
72
10
73
6
40
0
40
0
40
0
40
0
40
0.5
40
0.5
40
1
40
1
40
1
40
1
41
1
10
59.179834564486
20
0.644817379215311
30
-2E-16
41
1
10
59.2361770413256
20
0.639284489105933
30
-2E-16
41
1
10
59.292679440969
20
0.635799499711908
30
-2E-16
41
1
10
59.4060727421491
20
0.632868909110499
30
-2E-16
41
1
10
59.4629100358382
20
0.633416024642429
30
-2E-16
41
1
10
59.5198379142196
20
0.635955729977098
30
-2E-16
0
SPLINE
5
14E
100
AcDbEntity
8
1
62
256
6
ByLayer
370
18
48
1
60
0
100
AcDbSpline
70
4
71
3
72
8
73
4
40
0
40
0
40
0
40
0
40
1
40
1
40
1
40
1
41
1
10
59.5198379142196
20
0.635955729977098
30
-2E-16
41
1
10
59.5177834186201
20
0.642280786705641
30
-2E-16
41
1
10
59.5157397238332
20
0.648607031418209
30
-2E-16
41
1
10
59.5137068665544
20
0.65493449973934
30
-2E-16
0
SPLINE
5
14F
100
AcDbEntity
8
1
62
256
6
ByLayer
370
18
48
1
60
0
100
AcDbSpline
70
4
71
3
72
42
73
38
40
0
40
0
40
0
40
0
40
0.0266920291654548
40
0.0534953768079481
40
0.0804099810624296
40
0.107435778246895
40
0.13457270296565
40
0.161820688218944
40
0.189179665518784
40
0.216649565011275
40
0.244230315605617
40
0.271921845109816
40
0.299724080373435
40
0.327636947437394
40
0.35566037169117
40
0.383794278037209
40
0.412038591063214
40
0.440393235222084
40
0.468858135018614
40
0.497433215098721
40
0.526118400396909
40
0.55491361655519
40
0.58381879016296
40
0.612833848982281
40
0.641958722182166
40
0.671193340581924
40
0.700537636903903
40
0.729991546035702
40
0.759555005301981
40
0.789227954746296
40
0.819010337422841
40
0.848902099698448
40
0.878903191565067
40
0.909013566962712
40
0.939233184113319
40
0.969562005864466
40
1
40
1
40
1
40
1
41
1
10
55.4428698141802
20
3.3832761707786
30
1E-16
41
1
10
55.4327631982996
20
3.38833954351398
30
1E-16
41
1
10
55.4125078171357
20
3.39848740566112
30
0
41
1
10
55.3820658614421
20
3.41352019174698
30
0
41
1
10
55.3515005926449
20
3.42845144478773
30
0
41
1
10
55.3208123294588
20
3.44326237141436
30
-1E-16
41
1
10
55.2900009858735
20
3.45795425646199
30
-1E-16
41
1
10
55.2590665849943
20
3.47252294081875
30
1E-16
41
1
10
55.2280091205043
20
3.48696570245596
30
0
41
1
10
55.1968285940141
20
3.5012794012051
30
0
41
1
10
55.1655250049925
20
3.5154609788581
30
0
41
1
10
55.1340983534816
20
3.52950732428459
30
-1E-16
41
1
10
55.1025486393642
20
3.54341530973406
30
-1E-16
41
1
10
55.0708758625612
20
3.55718178099158
30
1E-16
41
1
10
55.0390800229783
20
3.57080355997505
30
1E-16
41
1
10
55.0071611205204
20
3.5842774439779
30
0
41
1
10
54.9751191550888
20
3.59760020582732
30
0
41
1
10
54.942954126574
20
3.61076859375908
30
0
41
1
10
54.9106660349332
20
3.62377933149722
30
-1E-16
41
1
10
54.8782548801022
20
3.63662911770595
30
-1E-16
41
1
10
54.8457206618176
20
3.64931462540008
30
1E-16
41
1
10
54.8130633799639
20
3.66183250325241
30
1E-16
41
1
10
54.7802830344152
20
3.6741793753645
30
1E-16
41
1
10
54.7473796250448
20
3.6863518412907
30
0
41
1
10
54.7143531517202
20
3.69834647596176
30
0
41
1
10
54.6812036143041
20
3.71015982971474
30
0
41
1
10
54.6479310126551
20
3.72178842799806
30
-1E-16
41
1
10
54.6145353466243
20
3.73322877228128
30
-1E-16
41
1
10
54.5810166160655
20
3.74447733645258
30
1E-16
41
1
10
54.5473748207998
20
3.75553058015316
30
1E-16
41
1
10
54.5136099607441
20
3.76638489855571
30
1E-16
41
1
10
54.4797220354317
20
3.77703681065435
30
0
41
1
10
54.4457110458096
20
3.78748225251269
30
0
41
1
10
54.4115769874934
20
3.79771922920486
30
0
41
1
10
54.3773198760781
20
3.80773786338182
30
0
41
1
10
54.3429396521807
20
3.81755773653225
30
-1E-16
41
1
10
54.3199788201126
20
3.82389970267116
30
-1E-16
41
1
10
54.3084777786044
20
3.82707638266214
30
-1E-16
0
SPLINE
5
150
100
AcDbEntity
8
1
62
256
6
ByLayer
370
18
48
1
60
0
100
AcDbSpline
70
4
71
3
72
47
73
43
40
0
40
0
40
0
40
0
40
0.0266866587490829
40
0.053288482729745
40
0.0798053941465774
40
0.106237306385636
40
0.132584124492878
40
0.158845745641621
40
0.18502205958858
40
0.211112949458822
40
0.237118293731707
40
0.263037965209275
40
0.288871830684862
40
0.314619751352072
40
0.340281583204332
40
0.365857177424204
40
0.391346380762392
40
0.416749035906517
40
0.442064981839806
40
0.467294054189487
40
0.492436085565324
40
0.517490905887998
40
0.542458342707692
40
0.567338221512744
40
0.592130366049372
40
0.616834599006158
40
0.64145074222685
40
0.665978616575468
40
0.690418042178806
40
0.714768838676341
40
0.739030825461734
40
0.763203821916198
40
0.787287647633652
40
0.811282122637804
40
0.83518706759118
40
0.859002303996393
40
0.882727654389477
40
0.90636294252547
40
0.929907993556573
40
0.953362634202542
40
0.976726692913622
40
1
40
1
40
1
40
1
41
1
10
56.8857319351777
20
2.488934055258
30
-1E-16
41
1
10
56.8728309083286
20
2.49820515646914
30
-1E-16
41
1
10
56.8470698659703
20
2.51671788679712
30
-1E-16
41
1
10
56.8085048175511
20
2.54421038317972
30
-2E-16
41
1
10
56.7700737516974
20
2.5714430315816
30
2E-16
41
1
10
56.7317777390548
20
2.5983985855309
30
1E-16
41
1
10
56.6936164937119
20
2.62508069953537
30
1E-16
41
1
10
56.6555900914898
20
2.65148750656871
30
0
41
1
10
56.6176985116795
20
2.67761866383171
30
-1E-16
41
1
10
56.5799417578924
20
2.7034734743267
30
-1E-16
41
1
10
56.5423198297774
20
2.72905138787294
30
-2E-16
41
1
10
56.5048327278988
20
2.75435186696961
30
2E-16
41
1
10
56.4674804518424
20
2.7793744214523
30
1E-16
41
1
10
56.4302630013671
20
2.80411859854482
30
1E-16
41
1
10
56.3931803761941
20
2.82858398517939
30
0
41
1
10
56.3562325760641
20
2.85277020710595
30
0
41
1
10
56.3194196007215
20
2.87667692885185
30
-1E-16
41
1
10
56.2827414499188
20
2.90030385344903
30
-1E-16
41
1
10
56.246198123415
20
2.92365072221716
30
-2E-16
41
1
10
56.2097896209764
20
2.94671731452598
30
2E-16
41
1
10
56.1735159423756
20
2.96950344756053
30
1E-16
41
1
10
56.137377087395
20
2.9920089760667
30
1E-16
41
1
10
56.101373055812
20
3.01423379214876
30
0
41
1
10
56.0655038474449
20
3.03617782485878
30
0
41
1
10
56.0297694617456
20
3.05784104067774
30
-1E-16
41
1
10
55.9941698985783
20
3.07922344053193
30
-1E-16
41
1
10
55.9587051580978
20
3.10032506016748
30
-2E-16
41
1
10
55.9233752401005
20
3.12114597235089
30
-2E-16
41
1
10
55.8881801444224
20
3.14168628585892
30
2E-16
41
1
10
55.8531198708942
20
3.16194614531469
30
1E-16
41
1
10
55.8181944193544
20
3.18192573090425
30
1E-16
41
1
10
55.7834037896496
20
3.20162525784767
30
0
41
1
10
55.7487479816186
20
3.22104497695224
30
0
41
1
10
55.714226995156
20
3.24018517108698
30
0
41
1
10
55.6798408299743
20
3.25904616679387
30
-1E-16
41
1
10
55.6455894864866
20
3.27762828970876
30
-1E-16
41
1
10
55.6114729625308
20
3.2959320284954
30
-2E-16
41
1
10
55.5774912655252
20
3.31395742498688
30
-2E-16
41
1
10
55.5436443673618
20
3.33170633572379
30
2E-16
41
1
10
55.5099323717807
20
3.34917403858211
30
1E-16
41
1
10
55.4763548933329
20
3.36638037527081
30
1E-16
41
1
10
55.4540170181447
20
3.37765154980013
30
1E-16
41
1
10
55.4428698141802
20
3.3832761707786
30
1E-16
0
SPLINE
5
151
100
AcDbEntity
8
1
62
256
6
ByLayer
370
18
48
1
60
0
100
AcDbSpline
70
4
71
3
72
14
73
10
40
0
40
0
40
0
40
0
40
0.250000000000012
40
0.250000000000012
40
0.37500000000001
40
0.37500000000001
40
0.500000000000008
40
0.500000000000008
40
1
40
1
40
1
40
1
41
1
10
58.3370461282797
20
1.35091124522015
30
-1E-16
41
1
10
58.2151071919549
20
1.45185523465227
30
2E-16
41
1
10
58.0935454364567
20
1.55179440675263
30
-1E-16
41
1
10
57.9113855362291
20
1.69979555681792
30
0
41
1
10
57.8506577191495
20
1.74884277049833
30
-1E-16
41
1
10
57.7294313960664
20
1.84604569519109
30
1E-16
41
1
10
57.668934121948
20
1.89420065332106
30
0
41
1
10
57.3668692854601
20
2.13256762359416
30
-1E-16
41
1
10
57.1265367160999
20
2.31552868550733
30
-1E-16
41
1
10
56.8857319351762
20
2.48893405525905
30
-1E-16
0
SPLINE
5
152
100
AcDbEntity
8
1
62
256
6
ByLayer
370
18
48
1
60
0
100
AcDbSpline
70
4
71
3
72
8
73
4
40
0
40
0
40
0
40
0
40
1
40
1
40
1
40
1
41
1
10
47.9573000006728
20
-0.559011537841116
30
0
41
1
10
47.8355946090097
20
-0.510314875954663
30
-1E-16
41
1
10
47.7144664070905
20
-0.463567572979372
30
2E-16
41
1
10
47.5939095922932
20
-0.418750024095402
30
1E-16
0
SPLINE
5
153
100
AcDbEntity
8
1
62
256
6
ByLayer
370
18
48
1
60
0
100
AcDbSpline
70
4
71
3
72
10
73
6
40
0
40
0
40
0
40
0
40
0.5
40
0.5
40
1
40
1
40
1
40
1
41
1
10
45.3226419081977
20
-3.59844324319414
30
0
41
1
10
45.299453817123
20
-3.59554784534885
30
0
41
1
10
45.2809513734884
20
-3.58860843673622
30
0
41
1
10
45.252115258345
20
-3.56642073496835
30
0
41
1
10
45.2417822798199
20
-3.5511737440072
30
0
41
1
10
45.2351011138002
20
-3.53159891539218
30
-1E-16
0
SPLINE
5
154
100
AcDbEntity
8
1
62
256
6
ByLayer
370
18
48
1
60
0
100
AcDbSpline
70
4
71
3
72
20
73
16
40
0
40
0
40
0
40
0
40
0.25000000000005
40
0.25000000000005
40
0.375000000000041
40
0.375000000000041
40
0.500000000000033
40
0.500000000000033
40
0.625000000000025
40
0.625000000000025
40
0.750000000000017
40
0.750000000000017
40
0.875000000000008
40
0.875000000000008
40
1
40
1
40
1
40
1
41
1
10
45.2351011138002
20
-3.53159891539218
30
-1E-16
41
1
10
45.2343683860259
20
-3.52945213134879
30
1E-16
41
1
10
45.2349583234009
20
-3.52727602771088
30
0
41
1
10
45.2385683515295
20
-3.5239849284373
30
0
41
1
10
45.2402241022261
20
-3.52289832368081
30
0
41
1
10
45.2443994863276
20
-3.52080583565436
30
0
41
1
10
45.2469271941178
20
-3.51979188630938
30
0
41
1
10
45.2528892570922
20
-3.51783613125571
30
0
41
1
10
45.2563358224049
20
-3.51689541919731
30
0
41
1
10
45.2638142975131
20
-3.5151632158634
30
0
41
1
10
45.2678760426755
20
-3.51436067978685
30
0
41
1
10
45.2765723092443
20
-3.51287252157499
30
0
41
1
10
45.2811883086657
20
-3.51219118345153
30
0
41
1
10
45.290707765981
20
-3.51096067517202
30
0
41
1
10
45.2956360625784
20
-3.51040723404026
30
0
41
1
10
45.3007068764919
20
-3.50990719332896
30
0
0
SPLINE
5
155
100
AcDbEntity
8
1
62
256
6
ByLayer
370
18
48
1
60
0
100
AcDbSpline
70
4
71
3
72
10
73
6
40
0
40
0
40
0
40
0
40
0.5
40
0.5
40
1
40
1
40
1
40
1
41
1
10
47.7035334717867
20
-3.4946246437961
30
0
41
1
10
47.7076515786122
20
-3.50409440516114
30
0
41
1
10
47.7141384358042
20
-3.51283924768103
30
0
41
1
10
47.7320815936244
20
-3.52894016826284
30
1E-16
41
1
10
47.7434644041568
20
-3.53623055003124
30
0
41
1
10
47.757265090369
20
-3.54282776792402
30
0
0
SPLINE
5
156
100
AcDbEntity
8
1
62
256
6
ByLayer
370
18
48
1
60
0
100
AcDbSpline
70
4
71
3
72
14
73
10
40
0
40
0
40
0
40
0
40
0.250000000000003
40
0.250000000000003
40
0.375000000000005
40
0.375000000000005
40
0.500000000000007
40
0.500000000000007
40
1
40
1
40
1
40
1
41
1
10
47.5939095922931
20
-3.33027161670412
30
0
41
1
10
47.5953336131985
20
-3.34729808337204
30
1E-16
41
1
10
47.5985520158763
20
-3.3635542503788
30
1E-16
41
1
10
47.6062985970641
20
-3.38677883179244
30
-1E-16
41
1
10
47.6093677734036
20
-3.39432703036579
30
0
41
1
10
47.6165243136164
20
-3.40903545607932
30
0
41
1
10
47.6206055822156
20
-3.41617727554436
30
0
41
1
10
47.6434186953676
20
-3.4506108162598
30
1E-16
41
1
10
47.6694702870013
20
-3.4743169898961
30
0
41
1
10
47.7035334726239
20
-3.49462464382791
30
0
0
SPLINE
5
157
100
AcDbEntity
8
1
62
256
6
ByLayer
370
18
48
1
60
0
100
AcDbSpline
70
4
71
3
72
30
73
26
40
0
40
0
40
0
40
0
40
0.250000000000049
40
0.250000000000049
40
0.375000000000075
40
0.375000000000075
40
0.500000000000101
40
0.500000000000101
40
0.562500000000088
40
0.562500000000088
40
0.625000000000076
40
0.625000000000076
40
0.687500000000063
40
0.687500000000063
40
0.718750000000057
40
0.718750000000057
40
0.750000000000051
40
0.750000000000051
40
0.812500000000038
40
0.812500000000038
40
0.875000000000025
40
0.875000000000025
40
0.937500000000013
40
0.937500000000013
40
1
40
1
40
1
40
1
41
1
10
45.1472774107967
20
-2.12201790474907
30
1E-16
41
1
10
45.1301320843391
20
-2.10658699486569
30
1E-16
41
1
10
45.1137358031942
20
-2.09057994304808
30
0
41
1
10
45.0911630166076
20
-2.06507821106163
30
0
41
1
10
45.0840065916214
20
-2.05634963003658
30
-1E-16
41
1
10
45.0708618124203
20
-2.03834182132005
30
-1E-16
41
1
10
45.0648460190667
20
-2.02905862363244
30
-1E-16
41
1
10
45.0572667230857
20
-2.0144286109452
30
-2E-16
41
1
10
45.0549732103358
20
-2.00939819478134
30
-2E-16
41
1
10
45.0511700362088
20
-1.9991890318135
30
-2E-16
41
1
10
45.0496560366613
20
-1.99401977131382
30
-2E-16
41
1
10
45.0477354478516
20
-1.98350239542168
30
2E-16
41
1
10
45.0473208584008
20
-1.97811366895118
30
2E-16
41
1
10
45.0480169116389
20
-1.96995918640934
30
2E-16
41
1
10
45.0484670538278
20
-1.96727446941182
30
2E-16
41
1
10
45.0498737377558
20
-1.96198386791372
30
2E-16
41
1
10
45.0508412876975
20
-1.95935623788756
30
1E-16
41
1
10
45.054564956524
20
-1.9517720061128
30
1E-16
41
1
10
45.0581103550344
20
-1.94718377267378
30
1E-16
41
1
10
45.0670662282081
20
-1.93919476159206
30
1E-16
41
1
10
45.0723355867192
20
-1.93590533472593
30
1E-16
41
1
10
45.0836741396016
20
-1.9305554402174
30
1E-16
41
1
10
45.0896496485485
20
-1.92851444725522
30
1E-16
41
1
10
45.1020054637131
20
-1.92527298483378
30
1E-16
41
1
10
45.1083877720627
20
-1.92408254681743
30
1E-16
41
1
10
45.1148141493367
20
-1.92321355999934
30
1E-16
0
SPLINE
5
158
100
AcDbEntity
8
1
62
256
6
ByLayer
370
18
48
1
60
0
100
AcDbSpline
70
4
71
3
72
18
73
14
40
0
40
0
40
0
40
0
40
0.25
40
0.25
40
0.5
40
0.5
40
0.625
40
0.625
40
0.75
40
0.75
40
0.875
40
0.875
40
1
40
1
40
1
40
1
41
1
10
45.1148141493371
20
-1.9232135599998
30
1E-16
41
1
10
45.1421587754688
20
-1.91951596823978
30
1E-16
41
1
10
45.1689181489974
20
-1.91388667205294
30
0
41
1
10
45.2202631755712
20
-1.8960689962129
30
0
41
1
10
45.2438202555407
20
-1.88422201877791
30
0
41
1
10
45.2741910620218
20
-1.85965777016028
30
-1E-16
41
1
10
45.2830605636888
20
-1.85064242921317
30
-1E-16
41
1
10
45.2982864892449
20
-1.83092854930317
30
-2E-16
41
1
10
45.304659745596
20
-1.82012457944484
30
-2E-16
41
1
10
45.3145227868851
20
-1.79785272463485
30
2E-16
41
1
10
45.3181149724431
20
-1.78628658144194
30
2E-16
41
1
10
45.3230475076775
20
-1.7624603264606
30
1E-16
41
1
10
45.324351302334
20
-1.75040558167572
30
1E-16
41
1
10
45.3247498692811
20
-1.73823040673625
30
1E-16
0
SPLINE
5
159
100
AcDbEntity
8
1
62
256
6
ByLayer
370
18
48
1
60
0
100
AcDbSpline
70
4
71
3
72
10
73
6
40
0
40
0
40
0
40
0
40
0.5
40
0.5
40
1
40
1
40
1
40
1
41
1
10
45.3247498692788
20
-1.73823040673676
30
1E-16
41
1
10
45.3163577989894
20
-1.64601424821518
30
-1E-16
41
1
10
45.3129455225092
20
-1.55194186637664
30
1E-16
41
1
10
45.3142170913574
20
-1.36012484836118
30
1E-16
41
1
10
45.3189080892544
20
-1.26238021317428
30
-2E-16
41
1
10
45.32706381604
20
-1.16277750953688
30
1E-16
0
SPLINE
5
15A
100
AcDbEntity
8
1
62
256
6
ByLayer
370
18
48
1
60
0
100
AcDbSpline
70
4
71
3
72
16
73
12
40
0
40
0
40
0
40
0
40
0.250000000000088
40
0.250000000000088
40
0.375000000000072
40
0.375000000000072
40
0.500000000000056
40
0.500000000000056
40
0.750000000000028
40
0.750000000000028
40
1
40
1
40
1
40
1
41
1
10
45.32706381604
20
-1.16277750953688
30
1E-16
41
1
10
45.3277623328746
20
-1.15424679644499
30
0
41
1
10
45.3294979297715
20
-1.14594934786768
30
0
41
1
10
45.333933469423
20
-1.13392116332881
30
0
41
1
10
45.3357395576948
20
-1.12994950316073
30
0
41
1
10
45.3398931192243
20
-1.12239078829452
30
0
41
1
10
45.3422396203673
20
-1.11878840259035
30
0
41
1
10
45.3500510918359
20
-1.10848908896472
30
-1E-16
41
1
10
45.3563942933064
20
-1.10223244965621
30
-1E-16
41
1
10
45.3702842735869
20
-1.09148236455141
30
-1E-16
41
1
10
45.3778386507502
20
-1.08692010559159
30
-1E-16
41
1
10
45.3858672573911
20
-1.08299219199111
30
-1E-16
0
SPLINE
5
15B
100
AcDbEntity
8
1
62
256
6
ByLayer
370
18
48
1
60
0
100
AcDbSpline
70
4
71
3
72
32
73
28
40
0
40
0
40
0
40
0
40
0.0312500000000093
40
0.0312500000000093
40
0.0625000000000185
40
0.0625000000000185
40
0.125000000000021
40
0.125000000000021
40
0.15625000000003
40
0.15625000000003
40
0.18750000000004
40
0.18750000000004
40
0.250000000000042
40
0.250000000000042
40
0.312500000000044
40
0.312500000000044
40
0.375000000000046
40
0.375000000000046
40
0.437500000000048
40
0.437500000000048
40
0.50000000000005
40
0.50000000000005
40
0.625000000000037
40
0.625000000000037
40
0.750000000000025
40
0.750000000000025
40
1
40
1
40
1
40
1
41
1
10
45.3858672573911
20
-1.08299219199108
30
-1E-16
41
1
10
45.4089130072627
20
-1.07171729481365
30
-2E-16
41
1
10
45.4323279442599
20
-1.06172770977687
30
-2E-16
41
1
10
45.4797352354391
20
-1.04376936805031
30
-2E-16
41
1
10
45.5037287115215
20
-1.03580441420368
30
2E-16
41
1
10
45.5764217346199
20
-1.01441459000847
30
2E-16
41
1
10
45.6258257782391
20
-1.00346718846916
30
1E-16
41
1
10
45.7009735758029
20
-0.990735678279236
30
1E-16
41
1
10
45.726199060353
20
-0.987115607787558
30
1E-16
41
1
10
45.7769632578784
20
-0.980986982314249
30
1E-16
41
1
10
45.8025101576457
20
-0.978480352026736
30
1E-16
41
1
10
45.8790339861572
20
-0.972500021764489
30
1E-16
41
1
10
45.9300850632444
20
-0.970529000478933
30
1E-16
41
1
10
46.0322438310179
20
-0.969834788013458
30
1E-16
41
1
10
46.0833516244874
20
-0.971117314936208
30
1E-16
41
1
10
46.1856152013571
20
-0.976432687748002
30
1E-16
41
1
10
46.2366629080545
20
-0.980463837432126
30
1E-16
41
1
10
46.3383851176893
20
-0.990857309183951
30
1E-16
41
1
10
46.3890988460069
20
-0.99722334894247
30
1E-16
41
1
10
46.4902671469624
20
-1.01200061266209
30
2E-16
41
1
10
46.5407570557159
20
-1.02042033520394
30
2E-16
41
1
10
46.691444115532
20
-1.04832709039098
30
-2E-16
41
1
10
46.7909668767046
20
-1.07045524024068
30
-2E-16
41
1
10
46.9884855168304
20
-1.12033297389985
30
0
41
1
10
47.0865399602397
20
-1.14811127377323
30
0
41
1
10
47.3783529448937
20
-1.23824068913916
30
-2E-16
41
1
10
47.5691553708335
20
-1.30711863543868
30
0
41
1
10
47.7572650903685
20
-1.38163804313084
30
1E-16
0
SPLINE
5
15C
100
AcDbEntity
8
1
62
256
6
ByLayer
370
18
48
1
60
0
100
AcDbSpline
70
4
71
3
72
10
73
6
40
0
40
0
40
0
40
0
40
0.5
40
0.5
40
1
40
1
40
1
40
1
41
1
10
47.7035334717867
20
-0.937998349726826
30
0
41
1
10
47.7076515786122
20
-0.976064689756385
30
1E-16
41
1
10
47.7141384358041
20
-1.01357638834881
30
2E-16
41
1
10
47.7320815936243
20
-1.08744229916701
30
-1E-16
41
1
10
47.7434644041568
20
-1.12349296898049
30
0
41
1
10
47.757265090369
20
-1.15868049625163
30
1E-16
0
SPLINE
5
15D
100
AcDbEntity
8
1
62
256
6
ByLayer
370
18
48
1
60
0
100
AcDbSpline
70
4
71
3
72
14
73
10
40
0
40
0
40
0
40
0
40
0.250000000000007
40
0.250000000000007
40
0.375000000000011
40
0.375000000000011
40
0.500000000000015
40
0.500000000000015
40
1
40
1
40
1
40
1
41
1
10
47.5939095922931
20
-0.418750024095402
30
1E-16
41
1
10
47.5953336131985
20
-0.463277745773439
30
2E-16
41
1
10
47.5985520158763
20
-0.507718935504812
30
-1E-16
41
1
10
47.6062985970641
20
-0.57425014601364
30
0
41
1
10
47.6093677734036
20
-0.596405447663017
30
1E-16
41
1
10
47.6165243136164
20
-0.640672309116582
30
2E-16
41
1
10
47.6206055822156
20
-0.662731002616511
30
2E-16
41
1
10
47.6434186953676
20
-0.771904012149065
30
0
41
1
10
47.6694702870013
20
-0.856366085842836
30
-2E-16
41
1
10
47.7035334726239
20
-0.93799834985461
30
0
0
SPLINE
5
15E
100
AcDbEntity
8
1
62
256
6
ByLayer
370
18
48
1
60
0
100
AcDbSpline
70
4
71
3
72
30
73
26
40
0
40
0
40
0
40
0
40
0.250000000000044
40
0.250000000000044
40
0.375000000000025
40
0.375000000000025
40
0.500000000000007
40
0.500000000000007
40
0.562500000000025
40
0.562500000000025
40
0.625000000000043
40
0.625000000000043
40
0.687500000000062
40
0.687500000000062
40
0.718750000000076
40
0.718750000000076
40
0.750000000000091
40
0.750000000000091
40
0.812500000000069
40
0.812500000000069
40
0.875000000000046
40
0.875000000000046
40
0.937500000000023
40
0.937500000000023
40
1
40
1
40
1
40
1
41
1
10
45.1472774107971
20
1.51470603395464
30
0
41
1
10
45.1301320843395
20
1.53203514658901
30
0
41
1
10
45.1137358031947
20
1.54984982805902
30
-1E-16
41
1
10
45.0911630166081
20
1.57792937515734
30
-1E-16
41
1
10
45.0840065916217
20
1.58749226684469
30
-2E-16
41
1
10
45.0708618124207
20
1.60711222115739
30
-2E-16
41
1
10
45.0648460190671
20
1.61717421893226
30
2E-16
41
1
10
45.057266723086
20
1.63293662112721
30
2E-16
41
1
10
45.0549732103361
20
1.63834096307593
30
2E-16
41
1
10
45.0511700362092
20
1.64927504527756
30
1E-16
41
1
10
45.0496560366616
20
1.65479484705566
30
1E-16
41
1
10
45.0477354478519
20
1.66599014497137
30
1E-16
41
1
10
45.0473208584011
20
1.67170863301436
30
1E-16
41
1
10
45.0480169116392
20
1.68033400572997
30
1E-16
41
1
10
45.0484670538281
20
1.6831691493303
30
1E-16
41
1
10
45.049873737756
20
1.68874763562246
30
0
41
1
10
45.0508412876977
20
1.6915138264684
30
0
41
1
10
45.0545649565243
20
1.69948638184064
30
0
41
1
10
45.0581103550347
20
1.7042937243059
30
0
41
1
10
45.0670662282083
20
1.71264721486352
30
0
41
1
10
45.0723355867194
20
1.71607737545898
30
0
41
1
10
45.0836741396019
20
1.72164971573696
30
0
41
1
10
45.0896496485487
20
1.72377160577025
30
0
41
1
10
45.1020054637134
20
1.72713955022948
30
0
41
1
10
45.1083877720629
20
1.72837499921252
30
-1E-16
41
1
10
45.1148141493369
20
1.72927660629296
30
-1E-16
0
SPLINE
5
15F
100
AcDbEntity
8
1
62
256
6
ByLayer
370
18
48
1
60
0
100
AcDbSpline
70
4
71
3
72
22
73
18
40
0
40
0
40
0
40
0
40
0.249999999999893
40
0.249999999999893
40
0.374999999999839
40
0.374999999999839
40
0.499999999999786
40
0.499999999999786
40
0.562499999999812
40
0.562499999999812
40
0.624999999999838
40
0.624999999999838
40
0.749999999999892
40
0.749999999999892
40
0.874999999999946
40
0.874999999999946
40
1
40
1
40
1
40
1
41
1
10
45.1148141493373
20
1.72927660629085
30
-1E-16
41
1
10
45.1398605722478
20
1.73279056622098
30
-1E-16
41
1
10
45.1643914029029
20
1.73799179728522
30
-1E-16
41
1
10
45.199943516222
20
1.74983513034707
30
-1E-16
41
1
10
45.2114749715293
20
1.75444381508541
30
-1E-16
41
1
10
45.2333753131908
20
1.76509580155775
30
-1E-16
41
1
10
45.2437992358676
20
1.77115514878267
30
-2E-16
41
1
10
45.2584708555265
20
1.78157775677266
30
-2E-16
41
1
10
45.2632278971325
20
1.78530073024044
30
-2E-16
41
1
10
45.2722143809889
20
1.79309240143647
30
-2E-16
41
1
10
45.2764457432793
20
1.79715665855758
30
-2E-16
41
1
10
45.288352828215
20
1.8098520786676
30
2E-16
41
1
10
45.2952521359906
20
1.8190030398525
30
2E-16
41
1
10
45.3068959537917
20
1.838563161801
30
1E-16
41
1
10
45.311475752577
20
1.84867641553509
30
1E-16
41
1
10
45.3185538375577
20
1.86944099548347
30
1E-16
41
1
10
45.3210534005227
20
1.88013764740407
30
0
41
1
10
45.3226419081973
20
1.89089860416433
30
0
0
SPLINE
5
160
100
AcDbEntity
8
1
62
256
6
ByLayer
370
18
48
1
60
0
100
AcDbSpline
70
4
71
3
72
10
73
6
40
0
40
0
40
0
40
0
40
0.5
40
0.5
40
1
40
1
40
1
40
1
41
1
10
45.3226419081973
20
1.89089860416433
30
0
41
1
10
45.2994538171225
20
1.97468706148061
30
-2E-16
41
1
10
45.280951373488
20
2.05665792271947
30
1E-16
41
1
10
45.2521152583446
20
2.21667859727563
30
1E-16
41
1
10
45.2417822798195
20
2.29472927756086
30
0
41
1
10
45.2351011137998
20
2.37066045462063
30
2E-16
0
SPLINE
5
161
100
AcDbEntity
8
1
62
256
6
ByLayer
370
18
48
1
60
0
100
AcDbSpline
70
4
71
3
72
20
73
16
40
0
40
0
40
0
40
0
40
0.249999999999944
40
0.249999999999944
40
0.374999999999953
40
0.374999999999953
40
0.499999999999963
40
0.499999999999963
40
0.624999999999972
40
0.624999999999972
40
0.749999999999981
40
0.749999999999981
40
0.874999999999991
40
0.874999999999991
40
1
40
1
40
1
40
1
41
1
10
45.2351011137998
20
2.37066045462063
30
2E-16
41
1
10
45.2343683860256
20
2.37898787564248
30
2E-16
41
1
10
45.2349583234005
20
2.38720078200845
30
2E-16
41
1
10
45.2385683515292
20
2.3993068156212
30
2E-16
41
1
10
45.2402241022257
20
2.40325105327506
30
1E-16
41
1
10
45.2443994863272
20
2.41075960289359
30
1E-16
41
1
10
45.2469271941175
20
2.41435364999271
30
1E-16
41
1
10
45.2528892570919
20
2.42121542894782
30
1E-16
41
1
10
45.2563358224045
20
2.42447860980872
30
1E-16
41
1
10
45.2638142975127
20
2.43043588382929
30
1E-16
41
1
10
45.2678760426751
20
2.43316888776121
30
1E-16
41
1
10
45.2765723092439
20
2.43820142779509
30
1E-16
41
1
10
45.2811883086653
20
2.44048632024564
30
1E-16
41
1
10
45.2907077659805
20
2.44459005611179
30
0
41
1
10
45.295636062578
20
2.44642325123621
30
0
41
1
10
45.3007068764915
20
2.44807236048982
30
0
0
SPLINE
5
162
100
AcDbEntity
8
1
62
256
6
ByLayer
370
18
48
1
60
0
100
AcDbSpline
70
4
71
3
72
34
73
30
40
0
40
0
40
0
40
0
40
0.0312499999999893
40
0.0312499999999893
40
0.0624999999999786
40
0.0624999999999786
40
0.124999999999957
40
0.124999999999957
40
0.187499999999936
40
0.187499999999936
40
0.218749999999933
40
0.218749999999933
40
0.24999999999993
40
0.24999999999993
40
0.312499999999941
40
0.312499999999941
40
0.374999999999953
40
0.374999999999953
40
0.499999999999975
40
0.499999999999975
40
0.562499999999978
40
0.562499999999978
40
0.624999999999981
40
0.624999999999981
40
0.749999999999988
40
0.749999999999988
40
0.874999999999994
40
0.874999999999994
40
1
40
1
40
1
40
1
41
1
10
45.3007068765036
20
2.44807236046779
30
0
41
1
10
45.3253419079165
20
2.4560840641044
30
0
41
1
10
45.3502448340895
20
2.46304923751339
30
0
41
1
10
45.4004663904804
20
2.47537984582155
30
0
41
1
10
45.4257858976153
20
2.48074159672478
30
0
41
1
10
45.5022547849527
20
2.49488738211525
30
-1E-16
41
1
10
45.5539085778554
20
2.50175665039038
30
-1E-16
41
1
10
45.658203062051
20
2.51182135283634
30
-1E-16
41
1
10
45.7108480843216
20
2.51499874840596
30
-1E-16
41
1
10
45.790411481799
20
2.51756727321862
30
-1E-16
41
1
10
45.8170461001597
20
2.51805260242347
30
-1E-16
41
1
10
45.8701801149859
20
2.51835129676283
30
-1E-16
41
1
10
45.8967207133075
20
2.51816633685974
30
-1E-16
41
1
10
45.9762710677478
20
2.51670656332735
30
-1E-16
41
1
10
46.0292097267475
20
2.51453157438664
30
-1E-16
41
1
10
46.1349274095709
20
2.50814475744829
30
-1E-16
41
1
10
46.1877302923704
20
2.50392823944449
30
-1E-16
41
1
10
46.3457754239217
20
2.48858946332641
30
-1E-16
41
1
10
46.4502306432901
20
2.47484847485913
30
0
41
1
10
46.6058487169559
20
2.44990045639469
30
0
41
1
10
46.657572125247
20
2.44084848603043
30
1E-16
41
1
10
46.7604936346382
20
2.42141823925834
30
1E-16
41
1
10
46.8117017233164
20
2.41103907916053
30
1E-16
41
1
10
46.9646393512528
20
2.37802934302076
30
2E-16
41
1
10
47.0656846050272
20
2.35353181088635
30
-2E-16
41
1
10
47.2662466747383
20
2.30000058342893
30
-1E-16
41
1
10
47.3656474405164
20
2.27099200161339
30
0
41
1
10
47.5626553241459
20
2.20892915967718
30
2E-16
41
1
10
47.660315216674
20
2.17585885619363
30
-2E-16
41
1
10
47.7572650903684
20
2.14088811153678
30
-1E-16
0
SPLINE
5
163
100
AcDbEntity
8
1
62
256
6
ByLayer
370
18
48
1
60
0
100
AcDbSpline
70
4
71
3
72
10
73
6
40
0
40
0
40
0
40
0
40
0.5
40
0.5
40
1
40
1
40
1
40
1
41
1
10
47.7035334717867
20
2.49611065872151
30
-1E-16
41
1
10
47.7076515786122
20
2.46769917027194
30
0
41
1
10
47.7141384358042
20
2.43912641955717
30
1E-16
41
1
10
47.7320815936244
20
2.38176597798599
30
2E-16
41
1
10
47.7434644041568
20
2.35321446146239
30
-2E-16
41
1
10
47.757265090369
20
2.32483827366636
30
-1E-16
0
SPLINE
5
164
100
AcDbEntity
8
1
62
256
6
ByLayer
370
18
48
1
60
0
100
AcDbSpline
70
4
71
3
72
14
73
10
40
0
40
0
40
0
40
0
40
0.249999999999992
40
0.249999999999992
40
0.374999999999989
40
0.374999999999989
40
0.499999999999985
40
0.499999999999985
40
1
40
1
40
1
40
1
41
1
10
47.5939095922931
20
2.84918319728172
30
0
41
1
10
47.5953336131984
20
2.82177973555324
30
1E-16
41
1
10
47.5985520158763
20
2.79370702659369
30
1E-16
41
1
10
47.6062985970641
20
2.7505907254436
30
2E-16
41
1
10
47.6093677734036
20
2.73605070884352
30
-2E-16
41
1
10
47.6165243136164
20
2.7066337579241
30
-1E-16
41
1
10
47.6206055822156
20
2.69179113006379
30
-1E-16
41
1
10
47.6434186953676
20
2.617437334942
30
1E-16
41
1
10
47.6694702870013
20
2.55703834761286
30
-2E-16
41
1
10
47.7035334726239
20
2.49611065862612
30
-1E-16
0
SPLINE
5
165
100
AcDbEntity
8
1
62
256
6
ByLayer
370
18
48
1
60
0
100
AcDbSpline
70
4
71
3
72
30
73
26
40
0
40
0
40
0
40
0
40
0.250000000000044
40
0.250000000000044
40
0.375000000000105
40
0.375000000000105
40
0.500000000000167
40
0.500000000000167
40
0.562500000000171
40
0.562500000000171
40
0.625000000000176
40
0.625000000000176
40
0.68750000000018
40
0.68750000000018
40
0.718750000000182
40
0.718750000000182
40
0.750000000000184
40
0.750000000000184
40
0.812500000000138
40
0.812500000000138
40
0.875000000000092
40
0.875000000000092
40
0.937500000000046
40
0.937500000000046
40
1
40
1
40
1
40
1
41
1
10
45.1472774107976
20
3.57949659557298
30
0
41
1
10
45.1301320843399
20
3.58153242940995
30
0
41
1
10
45.1137358031951
20
3.58348441528534
30
0
41
1
10
45.0911630166086
20
3.58629518015121
30
0
41
1
10
45.0840065916223
20
3.58720969521664
30
0
41
1
10
45.0708618124213
20
3.58898838148917
30
0
41
1
10
45.0648460190677
20
3.58985354857367
30
0
41
1
10
45.0572667230865
20
3.59112298285703
30
0
41
1
10
45.0549732103367
20
3.59154418211739
30
0
41
1
10
45.0511700362097
20
3.59236537592796
30
0
41
1
10
45.0496560366687
20
3.59276482666999
30
0
41
1
10
45.0477354478597
20
3.59354260664509
30
0
41
1
10
45.0473208584016
20
3.59392370461751
30
0
41
1
10
45.0480169116398
20
3.59447255584493
30
0
41
1
10
45.0484670538287
20
3.59464869498072
30
0
41
1
10
45.0498737377566
20
3.59498733386115
30
0
41
1
10
45.0508412876983
20
3.59515114563715
30
0
41
1
10
45.0545649565249
20
3.59561246614461
30
0
41
1
10
45.0581103550353
20
3.59587589152346
30
0
41
1
10
45.0670662282089
20
3.59631770179348
30
0
41
1
10
45.07233558672
20
3.59649036777137
30
0
41
1
10
45.0836741396025
20
3.59676481116935
30
0
41
1
10
45.0896496485493
20
3.59686558438997
30
0
41
1
10
45.1020054637139
20
3.59702365293674
30
0
41
1
10
45.1083877720635
20
3.5970802783053
30
0
41
1
10
45.1148141493375
20
3.5971213790836
30
0
0
SPLINE
5
166
100
AcDbEntity
8
1
62
256
6
ByLayer
370
18
48
1
60
0
100
AcDbSpline
70
4
71
3
72
8
73
4
40
0
40
0
40
0
40
0
40
1
40
1
40
1
40
1
41
1
10
59.179834564486
20
0.644817379215311
30
-2E-16
41
1
10
59.2141883534329
20
0.598411049760017
30
-1E-16
41
1
10
59.2435276047565
20
0.552513665148268
30
0
41
1
10
59.2664219810373
20
0.506201269561984
30
1E-16
0
SPLINE
5
167
100
AcDbEntity
8
1
62
256
6
ByLayer
370
18
48
1
60
0
100
AcDbSpline
70
4
71
3
72
12
73
8
40
0
40
0
40
0
40
0
40
0.5
40
0.5
40
0.75
40
0.75
40
1
40
1
40
1
40
1
41
1
10
58.3370461211844
20
1.35091123834766
30
-1E-16
41
1
10
58.4773639124964
20
1.23475306343121
30
2E-16
41
1
10
58.6176377697651
20
1.11747435640123
30
0
41
1
10
58.8284990722875
20
0.94046731534246
30
0
41
1
10
58.8988826057957
20
0.881265572518686
30
2E-16
41
1
10
59.0394229644347
20
0.762990494848708
30
0
41
1
10
59.1096360608673
20
0.703870086757149
30
1E-16
41
1
10
59.179834564486
20
0.64481737921534
30
-2E-16
0
SPLINE
5
168
100
AcDbEntity
8
1
62
256
6
ByLayer
370
18
48
1
60
0
100
AcDbSpline
70
4
71
3
72
30
73
26
40
0
40
0
40
0
40
0
40
0.125000000000004
40
0.125000000000004
40
0.187500000000007
40
0.187500000000007
40
0.250000000000009
40
0.250000000000009
40
0.375000000000022
40
0.375000000000022
40
0.437500000000038
40
0.437500000000038
40
0.500000000000054
40
0.56250000000007
40
0.56250000000007
40
0.625000000000086
40
0.625000000000086
40
0.750000000000084
40
0.750000000000084
40
0.812500000000063
40
0.812500000000063
40
0.875000000000042
40
0.937500000000021
40
0.937500000000021
40
1
40
1
40
1
40
1
41
1
10
58.478928532921
20
-0.0608551854955977
30
1E-16
41
1
10
58.470740495838
20
-0.030610783466642
30
1E-16
41
1
10
58.4660495962861
20
-4.89382495061E-05
30
0
41
1
10
58.4638328501579
20
0.0461722956727328
30
-1E-16
41
1
10
58.4639036078929
20
0.0616430588362391
30
-1E-16
41
1
10
58.4656708342261
20
0.0927022883383302
30
-2E-16
41
1
10
58.4673547668485
20
0.1080383817023
30
2E-16
41
1
10
58.4746193481639
20
0.153278139821822
30
1E-16
41
1
10
58.4823909990965
20
0.182506455002027
30
0
41
1
10
58.4982507697843
20
0.224876555351301
30
-1E-16
41
1
10
58.5041769653625
20
0.238561697817488
30
-1E-16
41
1
10
58.5171317732213
20
0.264872928693762
30
-2E-16
41
1
10
58.5312166142202
20
0.290197983175688
30
2E-16
41
1
10
58.5474884733112
20
0.313578124644494
30
2E-16
41
1
10
58.5648705858826
20
0.335966648661326
30
1E-16
41
1
10
58.5740263884621
20
0.346540763143793
30
1E-16
41
1
10
58.6025741136494
20
0.376153689728596
30
0
41
1
10
58.6231349408927
20
0.39325718114867
30
0
41
1
10
58.6565255146765
20
0.414890769877871
30
-1E-16
41
1
10
58.6680232177521
20
0.421372715588746
30
-1E-16
41
1
10
58.6914181537855
20
0.432681277341203
30
-1E-16
41
1
10
58.7153226057891
20
0.442408630956663
30
-1E-16
41
1
10
58.7404011869937
20
0.448936394175519
30
-2E-16
41
1
10
58.7661909472189
20
0.453765126851351
30
-2E-16
41
1
10
58.7794643460836
20
0.455322163713305
30
-2E-16
41
1
10
58.7929304285183
20
0.455933389739556
30
-2E-16
0
SPLINE
5
169
100
AcDbEntity
8
1
62
256
6
ByLayer
370
18
48
1
60
0
100
AcDbSpline
70
4
71
3
72
17
73
13
40
0
40
0
40
0
40
0
40
0.0625000000000004
40
0.0625000000000004
40
0.125000000000001
40
0.25
40
0.25
40
0.5
40
0.5
40
0.75
40
0.75
40
1
40
1
40
1
40
1
41
1
10
59.2664219810373
20
0.506201269561984
30
1E-16
41
1
10
59.2606843235143
20
0.504682261348108
30
1E-16
41
1
10
59.2545898065106
20
0.503180025430225
30
2E-16
41
1
10
59.2418328994495
20
0.500245186809025
30
2E-16
41
1
10
59.2218086703076
20
0.495936518519244
30
2E-16
41
1
10
59.1991724495405
20
0.491902868805113
30
2E-16
41
1
10
59.1505390825077
20
0.484189443765331
30
2E-16
41
1
10
59.1136416353105
20
0.479518357864379
30
2E-16
41
1
10
59.031375899008
20
0.471068087417564
30
-2E-16
41
1
10
58.9871164725549
20
0.467400304076733
30
-2E-16
41
1
10
58.8936286707509
20
0.46100140669796
30
-2E-16
41
1
10
58.8443608349856
20
0.458267817968846
30
-2E-16
41
1
10
58.7929304285182
20
0.455933389739556
30
-2E-16
0
SPLINE
5
16A
100
AcDbEntity
8
1
62
256
6
ByLayer
370
18
48
1
60
0
100
AcDbSpline
70
4
71
5
72
12
73
6
40
0
40
0
40
0
40
0
40
0
40
0
40
1
40
1
40
1
40
1
40
1
40
1
41
1
10
47.9573000006889
20
-1.15200171479509
30
0
41
1
10
47.9573000006889
20
-1.03338825373524
30
2E-16
41
1
10
47.9573000006889
20
-0.914782471180871
30
-1E-16
41
1
10
47.9573000006744
20
-0.796184401140351
30
1E-16
41
1
10
47.9573000006429
20
-0.677594077159682
30
-2E-16
41
1
10
47.9573000005975
20
-0.559011533105661
30
0
0
SPLINE
5
16B
100
AcDbEntity
8
1
62
256
6
ByLayer
370
18
48
1
60
0
100
AcDbSpline
70
4
71
3
72
12
73
8
40
0
40
0
40
0
40
0
40
0.250000000000001
40
0.250000000000001
40
0.500000000000001
40
0.500000000000001
40
1
40
1
40
1
40
1
41
1
10
59.5137068665547
20
-2.61473081096361
30
-1E-16
41
1
10
59.5157197661736
20
-2.57330707499105
30
-2E-16
41
1
10
59.5158421635772
20
-2.53246503825983
30
2E-16
41
1
10
59.5143447840014
20
-2.4513050240684
30
0
41
1
10
59.5126702084521
20
-2.41100361281099
30
-1E-16
41
1
10
59.5060283114013
20
-2.29055978842374
30
0
41
1
10
59.4994790139713
20
-2.21086561043063
30
-1E-16
41
1
10
59.4919667611005
20
-2.13138183698422
30
1E-16
0
SPLINE
5
16C
100
AcDbEntity
8
1
62
256
6
ByLayer
370
18
48
1
60
0
100
AcDbSpline
70
4
71
3
72
8
73
4
40
0
40
0
40
0
40
0
40
1
40
1
40
1
40
1
41
1
10
59.4919345697621
20
-2.13136097524645
30
1E-16
41
1
10
59.4870373167051
20
-2.11309468118404
30
1E-16
41
1
10
59.4821985444142
20
-2.09478478036107
30
0
41
1
10
59.4774133113281
20
-2.07643421546044
30
0
0
SPLINE
5
16D
100
AcDbEntity
8
1
62
256
6
ByLayer
370
18
48
1
60
0
100
AcDbSpline
70
4
71
3
72
14
73
10
40
0
40
0
40
0
40
0
40
0.499999999999996
40
0.499999999999996
40
0.624999999999974
40
0.624999999999974
40
0.749999999999953
40
0.749999999999953
40
1
40
1
40
1
40
1
41
1
10
59.6835825313665
20
-1.96537753065189
30
2E-16
41
1
10
59.655596047094
20
-1.99555545402814
30
-2E-16
41
1
10
59.6240591216554
20
-2.01958567145414
30
-2E-16
41
1
10
59.580673496238
20
-2.04262292559139
30
-1E-16
41
1
10
59.5717946464538
20
-2.04687572033132
30
-1E-16
41
1
10
59.5536409833083
20
-2.05468469817569
30
-1E-16
41
1
10
59.544341880301
20
-2.05824962485693
30
-1E-16
41
1
10
59.5161784020279
20
-2.06783068276513
30
0
41
1
10
59.4969850151027
20
-2.07277590090203
30
0
41
1
10
59.4774133113273
20
-2.07643421546251
30
0
0
SPLINE
5
16E
100
AcDbEntity
8
1
62
256
6
ByLayer
370
18
48
1
60
0
100
AcDbSpline
70
4
71
5
72
12
73
6
40
0
40
0
40
0
40
0
40
0
40
0
40
1
40
1
40
1
40
1
40
1
40
1
41
1
10
47.9573000005825
20
2.06609617730245
30
0
41
1
10
47.9573000005825
20
2.10897971835684
30
-1E-16
41
1
10
47.9573000005825
20
2.15192694798648
30
-2E-16
41
1
10
47.9573
20
2.19493719819712
30
2E-16
41
1
10
47.9573
20
2.23800981382937
30
1E-16
41
1
10
47.9573
20
2.28114415123793
30
0
0
SPLINE
5
16F
100
AcDbEntity
8
1
62
256
6
ByLayer
370
18
48
1
60
0
100
AcDbSpline
70
4
71
3
72
14
73
10
40
0
40
0
40
0
40
0
40
0.500000000000131
40
0.500000000000131
40
0.625000000000121
40
0.625000000000121
40
0.750000000000111
40
0.750000000000111
40
1
40
1
40
1
40
1
41
1
10
59.6835825313665
20
-3.12084150445529
30
0
41
1
10
59.655596047094
20
-3.16581568319759
30
0
41
1
10
59.6240591216555
20
-3.20828295252633
30
0
41
1
10
59.580673496238
20
-3.25857564814365
30
0
41
1
10
59.5717946464538
20
-3.26849206272465
30
0
41
1
10
59.5536409833084
20
-3.28804594353292
30
0
41
1
10
59.5443418803009
20
-3.29770844959236
30
0
41
1
10
59.5161784020278
20
-3.32598424994788
30
0
41
1
10
59.4969850151026
20
-3.34396704771674
30
0
41
1
10
59.4774133113273
20
-3.3611700931958
30
0
0
SPLINE
5
170
100
AcDbEntity
8
1
62
256
6
ByLayer
370
18
48
1
60
0
100
AcDbSpline
70
4
71
3
72
8
73
4
40
0
40
0
40
0
40
0
40
1
40
1
40
1
40
1
41
1
10
50.0211259482314
20
1.34724942306056
30
1E-16
41
1
10
50.0117204968902
20
1.3533133818749
30
1E-16
41
1
10
50.0023150455492
20
1.3593685117919
30
1E-16
41
1
10
49.992909594208
20
1.36541468005865
30
1E-16
0
SPLINE
5
171
100
AcDbEntity
8
1
62
256
6
ByLayer
370
18
48
1
60
0
100
AcDbSpline
70
4
71
5
72
12
73
6
40
0
40
0
40
0
40
0
40
0
40
0
40
1
40
1
40
1
40
1
40
1
40
1
41
1
10
47.9573000006889
20
2.28114415128164
30
0
41
1
10
47.9573000006889
20
2.34891146328462
30
-2E-16
41
1
10
47.9573000006889
20
2.41677506561399
30
1E-16
41
1
10
47.9573000006744
20
2.48473363308375
30
0
41
1
10
47.9573000006429
20
2.55278587971662
30
-2E-16
41
1
10
47.9573000005975
20
2.6209305555154
30
1E-16
0
SPLINE
5
172
100
AcDbEntity
8
1
62
256
6
ByLayer
370
18
48
1
60
0
100
AcDbSpline
70
4
71
3
72
12
73
8
40
0
40
0
40
0
40
0
40
0.499999999999985
40
0.499999999999985
40
0.749999999999993
40
0.749999999999993
40
1
40
1
40
1
40
1
41
1
10
58.3370461211817
20
-2.27314320747954
30
0
41
1
10
58.4773639124941
20
-2.35639820993475
30
2E-16
41
1
10
58.6176377697633
20
-2.43475674438921
30
-1E-16
41
1
10
58.8284990722864
20
-2.54450992339091
30
2E-16
41
1
10
58.8988826057948
20
-2.57980417451142
30
-2E-16
41
1
10
59.0394229644343
20
-2.64750443191949
30
0
41
1
10
59.109636060867
20
-2.67994100928442
30
1E-16
41
1
10
59.179834564486
20
-2.71094330606405
30
1E-16
0
SPLINE
5
173
100
AcDbEntity
8
1
62
256
6
ByLayer
370
18
48
1
60
0
100
AcDbSpline
70
4
71
3
72
10
73
6
40
0
40
0
40
0
40
0
40
0.5
40
0.5
40
1
40
1
40
1
40
1
41
1
10
59.179834564486
20
-2.71094330606408
30
1E-16
41
1
10
59.2361770413256
20
-2.69889317163637
30
1E-16
41
1
10
59.292679440969
20
-2.68582716589887
30
1E-16
41
1
10
59.4060727421491
20
-2.6581410657565
30
0
41
1
10
59.4629100358383
20
-2.64354204139184
30
0
41
1
10
59.5198379142196
20
-2.62843208026141
30
-1E-16
0
SPLINE
5
174
100
AcDbEntity
8
1
62
256
6
ByLayer
370
18
48
1
60
0
100
AcDbSpline
70
4
71
3
72
8
73
4
40
0
40
0
40
0
40
0
40
1
40
1
40
1
40
1
41
1
10
59.5198379142197
20
-2.62843208026141
30
-1E-16
41
1
10
59.5177834186202
20
-2.62387450111461
30
-1E-16
41
1
10
59.5157397238332
20
-2.61930738863495
30
-1E-16
41
1
10
59.5137068665543
20
-2.61473081096347
30
-1E-16
0
SPLINE
5
175
100
AcDbEntity
8
1
62
256
6
ByLayer
370
18
48
1
60
0
100
AcDbSpline
70
4
71
3
72
16
73
12
40
0
40
0
40
0
40
0
40
0.0510720045856091
40
0.141223883171914
40
0.19106257528425
40
0.281478400841208
40
0.464228329892279
40
0.653549846910362
40
0.842312817645635
40
0.965713253204771
40
1
40
1
40
1
40
1
41
1
10
47.9573000008118
20
2.06609617750294
30
0
41
1
10
48.073487973689
20
2.00016837804776
30
2E-16
41
1
10
48.390575038475
20
1.80999493137031
30
2E-16
41
1
10
48.807425210397
20
1.52681451343346
30
0
41
1
10
49.3028324509319
20
1.15925366320002
30
-1E-16
41
1
10
49.9894026094726
20
0.613548381820237
30
-1E-16
41
1
10
50.9619725229813
20
-0.232653424678773
30
1E-16
41
1
10
52.1354329078366
20
-1.27866218402866
30
-1E-16
41
1
10
53.1831263728852
20
-2.14285519583584
30
1E-16
41
1
10
53.9073090781766
20
-2.65230244935063
30
0
41
1
10
54.2368207587899
20
-2.85774105176373
30
0
41
1
10
54.3084777785768
20
-2.90110469285062
30
1E-16
0
SPLINE
5
176
100
AcDbEntity
8
1
62
256
6
ByLayer
370
18
48
1
60
0
100
AcDbSpline
70
4
71
5
72
12
73
6
40
0
40
0
40
0
40
0
40
0
40
0
40
1
40
1
40
1
40
1
40
1
40
1
41
1
10
47.9573
20
2.06564517672606
30
0
41
1
10
47.9573
20
2.06573537626139
30
0
41
1
10
47.9573
20
2.065825576077
30
0
41
1
10
47.9573
20
2.06591577617289
30
0
41
1
10
47.9573
20
2.06600597654904
30
0
41
1
10
47.9573
20
2.06609617720545
30
0
0
SPLINE
5
177
100
AcDbEntity
8
1
62
256
6
ByLayer
370
18
48
1
60
0
100
AcDbSpline
70
4
71
3
72
8
73
4
40
0
40
0
40
0
40
0
40
1
40
1
40
1
40
1
41
1
10
47.9573000000073
20
2.06564517672717
30
0
41
1
10
48.2627065585993
20
1.89235981162511
30
0
41
1
10
48.5633683663742
20
1.69655253603975
30
0
41
1
10
48.8633922922465
20
1.48155798998809
30
1E-16
0
SPLINE
5
178
100
AcDbEntity
8
1
62
256
6
ByLayer
370
18
48
1
60
0
100
AcDbSpline
70
4
71
3
72
34
73
30
40
0
40
0
40
0
40
0
40
0.124999999999998
40
0.124999999999998
40
0.187499999999997
40
0.187499999999997
40
0.249999999999996
40
0.249999999999996
40
0.374999999999994
40
0.374999999999994
40
0.499999999999993
40
0.499999999999993
40
0.531249999999993
40
0.546874999999993
40
0.546874999999993
40
0.562499999999994
40
0.562499999999994
40
0.624999999999995
40
0.624999999999995
40
0.749999999999997
40
0.749999999999997
40
0.874999999999998
40
0.874999999999998
40
0.906249999999998
40
0.921874999999998
40
0.921874999999998
40
0.937499999999997
40
0.937499999999997
40
1
40
1
40
1
40
1
41
1
10
48.8633922922474
20
1.48155798998761
30
1E-16
41
1
10
49.0967006309352
20
1.31437121624711
30
0
41
1
10
49.3278274655542
20
1.13770601379011
30
0
41
1
10
49.6739335134821
20
0.861340574630276
30
2E-16
41
1
10
49.7892041123195
20
0.767316654171452
30
0
41
1
10
50.0199905999912
20
0.575910519026479
30
0
41
1
10
50.1346723855826
20
0.479225418529779
30
2E-16
41
1
10
50.4771504476789
20
0.187106323592758
30
0
41
1
10
50.7034534937949
20
-0.0104046584403648
30
0
41
1
10
51.155126236524
20
-0.407396204426107
30
1E-16
41
1
10
51.3804624764322
20
-0.606915471439095
30
1E-16
41
1
10
51.6633608618678
20
-0.855465719052006
30
-2E-16
41
1
10
51.7483240222952
20
-0.929965536657733
30
0
41
1
10
51.8334862651122
20
-1.00430066526482
30
1E-16
41
1
10
51.8903122416351
20
-1.05381296458538
30
-2E-16
41
1
10
51.9187733019696
20
-1.07856640709409
30
-1E-16
41
1
10
52.0608483885846
20
-1.20187687080829
30
2E-16
41
1
10
52.1738695408959
20
-1.29914672208352
30
-1E-16
41
1
10
52.5116829669781
20
-1.58620740383742
30
2E-16
41
1
10
52.7352420461667
20
-1.77129064941911
30
2E-16
41
1
10
53.1823821370531
20
-2.12578833325296
30
1E-16
41
1
10
53.4059555106065
20
-2.29516776909449
30
0
41
1
10
53.6874214128157
20
-2.49491447565819
30
1E-16
41
1
10
53.772010477829
20
-2.55394241275417
30
2E-16
41
1
10
53.8568784568401
20
-2.61156419413132
30
-1E-16
41
1
10
53.9135252554402
20
-2.64965878629775
30
0
41
1
10
53.9418819512405
20
-2.66854521966189
30
0
41
1
10
54.0833928482555
20
-2.76186024300168
30
-2E-16
41
1
10
54.1960939157904
20
-2.83317951628751
30
0
41
1
10
54.3084777785767
20
-2.90110469285042
30
1E-16
0
SPLINE
5
179
100
AcDbEntity
8
1
62
256
6
ByLayer
370
18
48
1
60
0
100
AcDbSpline
70
4
71
3
72
42
73
38
40
0
40
0
40
0
40
0
40
0.0266920291654252
40
0.0534953768078752
40
0.0804099810623087
40
0.107435778246737
40
0.134572702965462
40
0.161820688218736
40
0.189179665518554
40
0.216649565011027
40
0.244230315605341
40
0.271921845109523
40
0.299724080373111
40
0.327636947437069
40
0.355660371690822
40
0.383794278036848
40
0.412038591062866
40
0.440393235221719
40
0.468858135018249
40
0.497433215098348
40
0.526118400396539
40
0.554913616554827
40
0.583818790162594
40
0.612833848981938
40
0.641958722181822
40
0.671193340581603
40
0.700537636903598
40
0.729991546035423
40
0.759555005301711
40
0.789227954746061
40
0.819010337422631
40
0.848902099698266
40
0.878903191564905
40
0.909013566962594
40
0.939233184113236
40
0.969562005864422
40
1
40
1
40
1
40
1
41
1
10
55.4428698142208
20
-3.46912344425863
30
-1E-16
41
1
10
55.4327631983396
20
-3.46516859837257
30
-1E-16
41
1
10
55.4125078171745
20
-3.45724241300911
30
1E-16
41
1
10
55.3820658614792
20
-3.44508492664392
30
1E-16
41
1
10
55.3515005926801
20
-3.43269849009479
30
0
41
1
10
55.3208123294922
20
-3.42006422762486
30
0
41
1
10
55.2900009859051
20
-3.40718562769334
30
0
41
1
10
55.2590665850242
20
-3.39406016641183
30
0
41
1
10
55.2280091205322
20
-3.38068695851965
30
-1E-16
41
1
10
55.1968285940401
20
-3.36706469494359
30
-1E-16
41
1
10
55.1655250050167
20
-3.35319219912515
30
-1E-16
41
1
10
55.134098353504
20
-3.33906827734
30
-2E-16
41
1
10
55.1025486393847
20
-3.32469175934833
30
-2E-16
41
1
10
55.0708758625798
20
-3.31006148773543
30
2E-16
41
1
10
55.0390800229951
20
-3.29517632108414
30
2E-16
41
1
10
55.0071611205352
20
-3.28003513341679
30
1E-16
41
1
10
54.9751191551017
20
-3.26463681464867
30
1E-16
41
1
10
54.9429541265849
20
-3.24898027074551
30
1E-16
41
1
10
54.9106660349423
20
-3.23306442406675
30
0
41
1
10
54.8782548801092
20
-3.21688821333805
30
0
41
1
10
54.8457206618227
20
-3.20045059355181
30
-1E-16
41
1
10
54.8130633799671
20
-3.18375053695755
30
-1E-16
41
1
10
54.7802830344165
20
-3.16678703311499
30
-1E-16
41
1
10
54.7473796250441
20
-3.14955908915707
30
-2E-16
41
1
10
54.7143531517173
20
-3.13206572999403
30
-2E-16
41
1
10
54.6812036142993
20
-3.11430599859574
30
2E-16
41
1
10
54.6479310126482
20
-3.09627895601992
30
1E-16
41
1
10
54.6145353466155
20
-3.07798368237863
30
1E-16
41
1
10
54.5810166160546
20
-3.05941927428393
30
1E-16
41
1
10
54.5473748207868
20
-3.04058485550107
30
0
41
1
10
54.5136099607291
20
-3.02147953803478
30
0
41
1
10
54.4797220354147
20
-3.00210256922051
30
-1E-16
41
1
10
54.4457110457905
20
-2.98245278080483
30
-1E-16
41
1
10
54.4115769874721
20
-2.96253065734047
30
-2E-16
41
1
10
54.3773198760548
20
-2.94233057569005
30
-2E-16
41
1
10
54.3429396521552
20
-2.92186992630593
30
2E-16
41
1
10
54.3199788200857
20
-2.90803472268109
30
2E-16
41
1
10
54.3084777785768
20
-2.90110469285062
30
1E-16
0
SPLINE
5
17A
100
AcDbEntity
8
1
62
256
6
ByLayer
370
18
48
1
60
0
100
AcDbSpline
70
4
71
3
72
33
73
29
40
0
40
0
40
0
40
0
40
0.125000000000017
40
0.125000000000017
40
0.187500000000025
40
0.187500000000025
40
0.250000000000034
40
0.250000000000034
40
0.375000000000055
40
0.375000000000055
40
0.500000000000076
40
0.500000000000076
40
0.531250000000082
40
0.546875000000082
40
0.546875000000082
40
0.562500000000083
40
0.562500000000083
40
0.625000000000072
40
0.625000000000072
40
0.750000000000051
40
0.750000000000051
40
0.87500000000003
40
0.87500000000003
40
0.906250000000025
40
0.921875000000023
40
0.937500000000021
40
0.937500000000021
40
1
40
1
40
1
40
1
41
1
10
48.8633922922474
20
3.70121084341733
30
0
41
1
10
49.0967006285645
20
3.71018201581683
30
0
41
1
10
49.327827440925
20
3.7014501601096
30
0
41
1
10
49.673933425919
20
3.66198261072398
30
1E-16
41
1
10
49.789203998806
20
3.64441523540552
30
-1E-16
41
1
10
50.0199904242809
20
3.60043355628699
30
0
41
1
10
50.134672343007
20
3.57418840393245
30
1E-16
41
1
10
50.4771505155661
20
3.48324692168379
30
1E-16
41
1
10
50.7034535961898
20
3.40639099256629
30
0
41
1
10
51.1551263338552
20
3.22178667990192
30
0
41
1
10
51.3804625341559
20
3.11401279292809
30
-2E-16
41
1
10
51.6633608225065
20
2.96083753967412
30
2E-16
41
1
10
51.748323950203
20
2.91349549785173
30
-2E-16
41
1
10
51.8334861547286
20
2.86407993224864
30
0
41
1
10
51.8903121044654
20
2.83067612299732
30
0
41
1
10
51.9187731548452
20
2.8137304699523
30
1E-16
41
1
10
52.0608483092748
20
2.72808126055051
30
-2E-16
41
1
10
52.1738695055507
20
2.65655738920645
30
0
41
1
10
52.5116830345103
20
2.43366046285459
30
1E-16
41
1
10
52.7352421440858
20
2.27404718534152
30
0
41
1
10
53.182382223534
20
1.93618034348688
30
-1E-16
41
1
10
53.4059555550515
20
1.75786877045482
30
-1E-16
41
1
10
53.6874213565529
20
1.5249514210609
30
0
41
1
10
53.7720103877263
20
1.45432542910171
30
1E-16
41
1
10
53.8851683881374
20
1.35871280010551
30
-1E-16
41
1
10
53.941881808528
20
1.3104347751387
30
0
41
1
10
54.0833927719309
20
1.18955240561624
30
-1E-16
41
1
10
54.1960938824282
20
1.09193476924568
30
1E-16
41
1
10
54.3084777785926
20
0.993624832035323
30
-1E-16
0
SPLINE
5
17B
100
AcDbEntity
8
1
62
256
6
ByLayer
370
18
48
1
60
0
100
AcDbSpline
70
4
71
3
72
14
73
10
40
0
40
0
40
0
40
0
40
0.250000000000016
40
0.250000000000016
40
0.375000000000017
40
0.375000000000017
40
0.500000000000017
40
0.500000000000017
40
1
40
1
40
1
40
1
41
1
10
58.3370461282769
20
-2.27314319775101
30
0
41
1
10
58.2151071919502
20
-2.20079269356938
30
-2E-16
41
1
10
58.0935454364495
20
-2.12478682466104
30
1E-16
41
1
10
57.9113855362174
20
-2.00569410021797
30
-2E-16
41
1
10
57.8506577191362
20
-1.96512191897412
30
2E-16
41
1
10
57.7294313960518
20
-1.88248783803567
30
0
41
1
10
57.6689341219327
20
-1.8404277680869
30
-1E-16
41
1
10
57.3668692854402
20
-1.62655276255052
30
-2E-16
41
1
10
57.1265367160739
20
-1.44404619228371
30
-2E-16
41
1
10
56.885731935142
20
-1.25191138754829
30
-2E-16
0
SPLINE
5
17C
100
AcDbEntity
8
1
62
256
6
ByLayer
370
18
48
1
60
0
100
AcDbSpline
70
4
71
3
72
47
73
43
40
0
40
0
40
0
40
0
40
0.0266866587490924
40
0.0532884827297629
40
0.079805394146614
40
0.106237306385658
40
0.132584124492913
40
0.158845745641666
40
0.185022059588641
40
0.211112949458881
40
0.237118293731769
40
0.263037965209344
40
0.288871830684933
40
0.314619751352149
40
0.340281583204414
40
0.365857177424295
40
0.391346380762482
40
0.416749035906624
40
0.442064981839899
40
0.467294054189586
40
0.492436085565418
40
0.517490905888095
40
0.542458342707783
40
0.567338221512837
40
0.592130366049472
40
0.616834599006259
40
0.64145074222694
40
0.665978616575551
40
0.690418042178893
40
0.714768838676419
40
0.739030825461809
40
0.763203821916258
40
0.787287647633723
40
0.811282122637857
40
0.83518706759122
40
0.859002303996427
40
0.882727654389501
40
0.906362942525511
40
0.929907993556599
40
0.953362634202551
40
0.976726692913619
40
1
40
1
40
1
40
1
41
1
10
56.8857319351434
20
-1.25191138754945
30
-2E-16
41
1
10
56.8728309082946
20
-1.24160129515505
30
-2E-16
41
1
10
56.8470698659364
20
-1.22101388533096
30
2E-16
41
1
10
56.8085048175178
20
-1.18999328090146
30
1E-16
41
1
10
56.7700737516644
20
-1.15893861756649
30
1E-16
41
1
10
56.7317777390223
20
-1.12784081845541
30
0
41
1
10
56.6936164936798
20
-1.09670817557435
30
-1E-16
41
1
10
56.6555900914582
20
-1.06554428554242
30
-2E-16
41
1
10
56.6176985116482
20
-1.03435393299136
30
2E-16
41
1
10
56.5799417578615
20
-1.00314152148707
30
1E-16
41
1
10
56.542319829747
20
-0.971911484849699
30
1E-16
41
1
10
56.5048327278687
20
-0.940668182361605
30
0
41
1
10
56.4674804518128
20
-0.909415930292738
30
-1E-16
41
1
10
56.4302630013378
20
-0.878158993966622
30
-2E-16
41
1
10
56.3931803761653
20
-0.846901589901961
30
2E-16
41
1
10
56.3562325760357
20
-0.815647885198985
30
1E-16
41
1
10
56.3194196006936
20
-0.784401997670784
30
1E-16
41
1
10
56.2827414498911
20
-0.753167995786981
30
0
41
1
10
56.2461981233877
20
-0.721949898677849
30
-1E-16
41
1
10
56.2097896209496
20
-0.690751676132379
30
-2E-16
41
1
10
56.1735159423491
20
-0.659577248610617
30
2E-16
41
1
10
56.137377087369
20
-0.628430487252473
30
1E-16
41
1
10
56.1013730557864
20
-0.597315213935104
30
1E-16
41
1
10
56.0655038474197
20
-0.566235201177733
30
0
41
1
10
56.0297694617207
20
-0.535194172453942
30
-1E-16
41
1
10
55.9941698985538
20
-0.504195800051548
30
-2E-16
41
1
10
55.9587051580737
20
-0.473243705732386
30
2E-16
41
1
10
55.9233752400768
20
-0.442341462877579
30
1E-16
41
1
10
55.8881801443991
20
-0.41149259626593
30
1E-16
41
1
10
55.8531198708714
20
-0.380700582237949
30
0
41
1
10
55.8181944193319
20
-0.349968848722824
30
-1E-16
41
1
10
55.7834037896275
20
-0.31930077528483
30
-1E-16
41
1
10
55.7487479815969
20
-0.288699693267176
30
-2E-16
41
1
10
55.7142269951346
20
-0.258168885576112
30
2E-16
41
1
10
55.6798408299534
20
-0.227711587843714
30
1E-16
41
1
10
55.6455894864661
20
-0.197330984508085
30
0
41
1
10
55.6114729625107
20
-0.167030223789851
30
-1E-16
41
1
10
55.5774912655054
20
-0.136812362579405
30
-1E-16
41
1
10
55.5436443673424
20
-0.10668057144693
30
-2E-16
41
1
10
55.5099323717618
20
-0.0766373744473015
30
2E-16
41
1
10
55.4763548933142
20
-0.0466874704394513
30
1E-16
41
1
10
55.4540170181263
20
-0.0267418070339431
30
1E-16
41
1
10
55.4428698141619
20
-0.0167883814589516
30
0
0
SPLINE
5
17D
100
AcDbEntity
8
1
62
256
6
ByLayer
370
18
48
1
60
0
100
AcDbSpline
70
4
71
3
72
42
73
38
40
0
40
0
40
0
40
0
40
0.0266920291655579
40
0.053495376808113
40
0.0804099810626869
40
0.107435778247215
40
0.13457270296604
40
0.161820688219387
40
0.189179665519278
40
0.216649565011825
40
0.244230315606207
40
0.271921845110445
40
0.299724080374101
40
0.327636947438095
40
0.355660371691898
40
0.38379427803794
40
0.412038591063981
40
0.440393235222865
40
0.468858135019385
40
0.497433215099501
40
0.526118400397671
40
0.554913616555931
40
0.583818790163684
40
0.612833848982993
40
0.641958722182858
40
0.671193340582573
40
0.700537636904529
40
0.729991546036274
40
0.759555005302518
40
0.789227954746783
40
0.819010337423262
40
0.848902099698808
40
0.878903191565364
40
0.909013566962938
40
0.939233184113479
40
0.969562005864537
40
1
40
1
40
1
40
1
41
1
10
55.442869814162
20
-0.01678838145898
30
0
41
1
10
55.4327631982814
20
-0.0077603666715618
30
0
41
1
10
55.4125078171176
20
0.0103333140256723
30
0
41
1
10
55.3820658614241
20
0.0375484172218137
30
-1E-16
41
1
10
55.3515005926269
20
0.0648875881512652
30
-2E-16
41
1
10
55.3208123294409
20
0.0923505296099449
30
-2E-16
41
1
10
55.2900009858557
20
0.11993508640569
30
2E-16
41
1
10
55.2590665849768
20
0.147639556225243
30
1E-16
41
1
10
55.2280091204868
20
0.175462066232626
30
0
41
1
10
55.1968285939966
20
0.203400740780296
30
0
41
1
10
55.1655250049752
20
0.231453655835139
30
-1E-16
41
1
10
55.1340983534644
20
0.259618850906662
30
-2E-16
41
1
10
55.1025486393472
20
0.287894325475179
30
2E-16
41
1
10
55.0708758625443
20
0.31627803959995
30
1E-16
41
1
10
55.0390800229617
20
0.344767913402251
30
1E-16
41
1
10
55.0071611205038
20
0.373361826853113
30
0
41
1
10
54.9751191550724
20
0.402057619483912
30
-1E-16
41
1
10
54.9429541265577
20
0.430853090104392
30
-1E-16
41
1
10
54.9106660349173
20
0.459745996543404
30
-2E-16
41
1
10
54.8782548800863
20
0.488734055122166
30
2E-16
41
1
10
54.8457206618019
20
0.51781494015799
30
1E-16
41
1
10
54.8130633799485
20
0.546986284303671
30
1E-16
41
1
10
54.7802830344
20
0.576245678263888
30
0
41
1
10
54.7473796250298
20
0.605590670559138
30
-1E-16
41
1
10
54.7143531517054
20
0.635018767246322
30
-2E-16
41
1
10
54.6812036142896
20
0.664527431669882
30
2E-16
41
1
10
54.6479310126407
20
0.694114084135492
30
2E-16
41
1
10
54.6145353466103
20
0.723776101872915
30
1E-16
41
1
10
54.5810166160516
20
0.753510817925275
30
0
41
1
10
54.5473748207862
20
0.783315524072151
30
-1E-16
41
1
10
54.5136099607308
20
0.81318745862481
30
-1E-16
41
1
10
54.4797220354187
20
0.843123850998381
30
-2E-16
41
1
10
54.4457110457968
20
0.873121753230606
30
2E-16
41
1
10
54.4115769874809
20
0.903178671001882
30
1E-16
41
1
10
54.3773198760658
20
0.933290194563
30
0
41
1
10
54.3429396521687
20
0.963458887151688
30
0
41
1
10
54.3199788201008
20
0.983557480837078
30
-1E-16
41
1
10
54.3084777785927
20
0.993624832035295
30
-1E-16
0
SPLINE
5
17E
100
AcDbEntity
8
1
62
256
6
ByLayer
370
18
48
1
60
0
100
AcDbSpline
70
4
71
3
72
10
73
6
40
0
40
0
40
0
40
0
40
0.5
40
0.5
40
1
40
1
40
1
40
1
41
1
10
59.9738825972644
20
0.393857308015441
30
0
41
1
10
59.9754457831684
20
0.400918967308627
30
-1E-16
41
1
10
59.9721888937728
20
0.408018234816893
30
-1E-16
41
1
10
59.9567616949466
20
0.42228631601094
30
-1E-16
41
1
10
59.9445837191381
20
0.429455189513249
30
-1E-16
41
1
10
59.927844036467
20
0.436659655333273
30
-1E-16
0
SPLINE
5
17F
100
AcDbEntity
8
1
62
256
6
ByLayer
370
18
48
1
60
0
100
AcDbSpline
70
4
71
3
72
8
73
4
40
0
40
0
40
0
40
0
40
1
40
1
40
1
40
1
41
1
10
59.9738825972527
20
0.39385730809596
30
0
41
1
10
59.933311893424
20
0.574697337491642
30
0
41
1
10
59.8927411895953
20
0.755537366887296
30
0
41
1
10
59.8521704857667
20
0.936377396282978
30
0
0
SPLINE
5
180
100
AcDbEntity
8
1
62
256
6
ByLayer
370
18
48
1
60
0
100
AcDbSpline
70
4
71
3
72
10
73
6
40
0
40
0
40
0
40
0
40
0.5
40
0.5
40
1
40
1
40
1
40
1
41
1
10
59.9738825972644
20
-2.02040766092904
30
1E-16
41
1
10
59.9754457831685
20
-2.06729360730176
30
0
41
1
10
59.9721888937726
20
-2.11352340497004
30
1E-16
41
1
10
59.9567616949466
20
-2.20476963148681
30
1E-16
41
1
10
59.944583719138
20
-2.24978501672791
30
-1E-16
41
1
10
59.927844036467
20
-2.29417942451974
30
0
0
SPLINE
5
181
100
AcDbEntity
8
1
62
256
6
ByLayer
370
18
48
1
60
0
100
AcDbSpline
70
4
71
2
72
6
73
3
40
0
40
0
40
0
40
1
40
1
40
1
41
0.500612884759477
10
59.926010564742
20
-0.921849362805369
30
1E-16
41
0.499387115240523
10
59.9320742850773
20
-0.935060252721769
30
0
41
0.500612884759477
10
59.9381373223862
20
-0.948269639384859
30
0
0
SPLINE
5
182
100
AcDbEntity
8
1
62
256
6
ByLayer
370
18
48
1
60
0
100
AcDbSpline
70
4
71
3
72
10
73
6
40
0
40
0
40
0
40
0
40
0.5
40
0.5
40
1
40
1
40
1
40
1
41
1
10
59.9738825972644
20
2.4594717847784
30
0
41
1
10
59.9754457831684
20
2.51444699088719
30
0
41
1
10
59.9721888937724
20
2.56879068560363
30
0
41
1
10
59.9567616949463
20
2.67631026622061
30
-1E-16
41
1
10
59.9445837191379
20
2.72948514770303
30
0
41
1
10
59.927844036467
20
2.7820623684218
30
-1E-16
0
SPLINE
5
183
100
AcDbEntity
8
1
62
256
6
ByLayer
370
18
48
1
60
0
100
AcDbSpline
70
4
71
3
72
16
73
12
40
0
40
0
40
0
40
0
40
0.249999999999975
40
0.249999999999975
40
0.49999999999995
40
0.49999999999995
40
0.624999999999956
40
0.624999999999956
40
0.749999999999961
40
0.749999999999961
40
1
40
1
40
1
40
1
41
1
10
59.5198379142197
20
3.32447622743231
30
0
41
1
10
59.5675632853752
20
3.29117256423032
30
1E-16
41
1
10
59.6116831447412
20
3.25431013663928
30
-1E-16
41
1
10
59.6935184626523
20
3.17431108748394
30
-1E-16
41
1
10
59.7312249802403
20
3.13116715953356
30
0
41
1
10
59.7830442390938
20
3.0618303043
30
-1E-16
41
1
10
59.7995621612995
20
3.03786659375265
30
0
41
1
10
59.8304805295131
20
2.9891674359491
30
1E-16
41
1
10
59.8449474637644
20
2.96435385008976
30
-1E-16
41
1
10
59.8854472798703
20
2.88855663575299
30
-1E-16
41
1
10
59.9085963696461
20
2.8362282438124
30
0
41
1
10
59.927844036467
20
2.78206236842175
30
-1E-16
0
SPLINE
5
184
100
AcDbEntity
8
1
62
256
6
ByLayer
370
18
48
1
60
0
100
AcDbSpline
70
4
71
3
72
40
73
36
40
0
40
0
40
0
40
0
40
0.0625
40
0.0625
40
0.125
40
0.125
40
0.15625
40
0.15625
40
0.1875
40
0.1875
40
0.25
40
0.25
40
0.375
40
0.375
40
0.5
40
0.5
40
0.5625
40
0.5625
40
0.59375
40
0.59375
40
0.625
40
0.625
40
0.6875
40
0.6875
40
0.75
40
0.75
40
0.8125
40
0.8125
40
0.875
40
0.875
40
0.90625
40
0.90625
40
0.9375
40
0.9375
40
1
40
1
40
1
40
1
41
1
10
59.4218634558587
20
-0.58106474533875
30
0
41
1
10
59.4100193977633
20
-0.572420809239361
30
0
41
1
10
59.400240140043
20
-0.563516697180631
30
0
41
1
10
59.3835520610749
20
-0.545223769862247
30
0
41
1
10
59.3766612158828
20
-0.535834289152064
30
0
41
1
10
59.3680201072896
20
-0.521376949000114
30
0
41
1
10
59.3654181119684
20
-0.516478770398351
30
0
41
1
10
59.3607754910149
20
-0.506646768960621
30
0
41
1
10
59.3587332794277
20
-0.501715389852649
30
0
41
1
10
59.3533381022077
20
-0.48685686507045
30
0
41
1
10
59.3507109683
20
-0.476865563482278
30
0
41
1
10
59.3451852199576
20
-0.44649196364395
30
0
41
1
10
59.3446044739678
20
-0.425697370688113
30
0
41
1
10
59.3483452912342
20
-0.38221120574508
30
0
41
1
10
59.3526344963298
20
-0.359894972145327
30
0
41
1
10
59.3623652259032
20
-0.324504911667191
30
0
41
1
10
59.3661679390465
20
-0.312384504305499
30
0
41
1
10
59.3727764519091
20
-0.293520732553304
30
0
41
1
10
59.3751308856808
20
-0.287118352316611
30
0
41
1
10
59.3801670050215
20
-0.274043174945433
30
0
41
1
10
59.3828577981886
20
-0.267349086397474
30
0
41
1
10
59.3913874453981
20
-0.246993696766964
30
0
41
1
10
59.3976789543504
20
-0.233047982122713
30
0
41
1
10
59.4116927172313
20
-0.20423997364918
30
0
41
1
10
59.4194179559523
20
-0.189366024837398
30
0
41
1
10
59.4366886546965
20
-0.158644549369342
30
0
41
1
10
59.4459914165745
20
-0.143237081205854
30
0
41
1
10
59.466186213561
20
-0.112554339847236
30
0
41
1
10
59.4770785695699
20
-0.0972797767035445
30
0
41
1
10
59.4948723636685
20
-0.0747236206687489
30
0
41
1
10
59.5010564760209
20
-0.0672581312242642
30
0
41
1
10
59.5137224369881
20
-0.0527595304090767
30
0
41
1
10
59.5202308389247
20
-0.0456912314231772
30
0
41
1
10
59.5403201441152
20
-0.0250668714399751
30
0
41
1
10
59.5544635599016
20
-0.012089699323667
30
0
41
1
10
59.5694727083522
20
2.274E-13
30
0
0
SPLINE
5
185
100
AcDbEntity
8
1
62
256
6
ByLayer
370
18
48
1
60
0
100
AcDbSpline
70
4
71
3
72
8
73
4
40
0
40
0
40
0
40
0
40
1
40
1
40
1
40
1
41
1
10
47.9573000000073
20
3.58009880210472
30
0
41
1
10
48.2627065585993
20
3.64872396819501
30
0
41
1
10
48.5633683663742
20
3.68967431776929
30
0
41
1
10
48.8633922922465
20
3.70121084341733
30
0
0
SPLINE
5
186
100
AcDbEntity
8
1
62
256
6
ByLayer
370
18
48
1
60
0
100
AcDbSpline
70
4
71
3
72
8
73
4
40
0
40
0
40
0
40
0
40
1
40
1
40
1
40
1
41
1
10
47.8101415234684
20
3.5795816519404
30
0
41
1
10
47.8592950438206
20
3.57930604255011
30
0
41
1
10
47.9083523900718
20
3.57947449038906
30
0
41
1
10
47.9573
20
3.58009880210258
30
0
0
SPLINE
5
187
100
AcDbEntity
8
1
62
256
6
ByLayer
370
18
48
1
60
0
100
AcDbSpline
70
4
71
3
72
16
73
12
40
0
40
0
40
0
40
0
40
0.0510720045854802
40
0.141223883171557
40
0.191062575283767
40
0.281478400840496
40
0.464228329891105
40
0.65354984690871
40
0.842312817643506
40
0.96571325320233
40
1
40
1
40
1
40
1
41
1
10
47.9573000008118
20
3.58004127128743
30
0
41
1
10
48.073487973689
20
3.60616432613489
30
0
41
1
10
48.390575038475
20
3.66679420025827
30
0
41
1
10
48.807425210397
20
3.70639761220298
30
0
41
1
10
49.3028324509319
20
3.70488854056166
30
0
41
1
10
49.9894026094726
20
3.63482105494555
30
-1E-16
41
1
10
50.9619725229813
20
3.34809882228643
30
1E-16
41
1
10
52.1354329078366
20
2.71931110859654
30
-2E-16
41
1
10
53.1831263728852
20
1.95097715795112
30
-1E-16
41
1
10
53.9073090781819
20
1.34321522123082
30
0
41
1
10
54.2368207588005
20
1.05638417070256
30
2E-16
41
1
10
54.3084777785927
20
0.993624832035295
30
-1E-16
0
SPLINE
5
188
100
AcDbEntity
8
1
62
256
6
ByLayer
370
18
48
1
60
0
100
AcDbSpline
70
4
71
3
72
8
73
4
40
0
40
0
40
0
40
0
40
1
40
1
40
1
40
1
41
1
10
47.7572650903684
20
3.56976105612094
30
0
41
1
10
47.7751558427228
20
3.57075376092641
30
0
41
1
10
47.7927998162443
20
3.57401033731188
30
0
41
1
10
47.8101415234684
20
3.5795816519404
30
0
0
SPLINE
5
189
100
AcDbEntity
8
1
62
256
6
ByLayer
370
18
48
1
60
0
100
AcDbSpline
70
4
71
3
72
8
73
4
40
0
40
0
40
0
40
0
40
1
40
1
40
1
40
1
41
1
10
47.8104046243522
20
-3.58659880143577
30
0
41
1
10
47.8594576141457
20
-3.58599433181078
30
0
41
1
10
47.9084275566601
20
-3.5858373173771
30
0
41
1
10
47.9573
20
-3.58613802576784
30
0
0
SPLINE
5
18A
100
AcDbEntity
8
1
62
256
6
ByLayer
370
18
48
1
60
0
100
AcDbSpline
70
4
71
3
72
8
73
4
40
0
40
0
40
0
40
0
40
1
40
1
40
1
40
1
41
1
10
47.7572650903687
20
-3.57692536836888
30
0
41
1
10
47.7752405690383
20
-3.57783704507952
30
0
41
1
10
47.7929728030002
20
-3.58104314907089
30
0
41
1
10
47.8104046243517
20
-3.58659880144072
30
0
0
SPLINE
5
18B
100
AcDbEntity
8
1
62
256
6
ByLayer
370
18
48
1
60
0
100
AcDbSpline
70
4
71
3
72
8
73
4
40
0
40
0
40
0
40
0
40
1
40
1
40
1
40
1
41
1
10
59.4919345697621
20
-3.35306593567751
30
0
41
1
10
59.4870373167051
20
-3.35582158972838
30
0
41
1
10
59.4821985444143
20
-3.3585218348185
30
0
41
1
10
59.4774133113282
20
-3.36117009319403
30
0
0
SPLINE
5
18C
100
AcDbEntity
8
1
62
256
6
ByLayer
370
18
48
1
60
0
100
AcDbSpline
70
4
71
3
72
59
73
55
40
0
40
0
40
0
40
0
40
0.0312500000000012
40
0.0312500000000012
40
0.0625000000000024
40
0.0625000000000024
40
0.125000000000003
40
0.125000000000003
40
0.140625000000003
40
0.140625000000003
40
0.156250000000004
40
0.156250000000004
40
0.187500000000003
40
0.187500000000003
40
0.250000000000001
40
0.250000000000001
40
0.312499999999999
40
0.312499999999999
40
0.320312499999997
40
0.320312499999997
40
0.328124999999996
40
0.328124999999996
40
0.343749999999995
40
0.374999999999995
40
0.374999999999995
40
0.437499999999995
40
0.437499999999995
40
0.499999999999996
40
0.499999999999996
40
0.515624999999996
40
0.515624999999996
40
0.531249999999997
40
0.531249999999997
40
0.562499999999998
40
0.562499999999998
40
0.624999999999999
40
0.624999999999999
40
0.6875
40
0.6875
40
0.75
40
0.75
40
0.812500000000001
40
0.812500000000001
40
0.843750000000001
40
0.843750000000001
40
0.859375000000001
40
0.859375000000001
40
0.867187500000002
40
0.867187500000002
40
0.875000000000004
40
0.875000000000004
40
0.937500000000002
40
0.937500000000002
40
1
40
1
40
1
40
1
41
1
10
59.4774133113288
20
-3.36117009319389
30
0
41
1
10
59.3503282182682
20
-3.39320160239501
30
0
41
1
10
59.2240369694312
20
-3.42128918624454
30
0
41
1
10
58.9724558504336
20
-3.46932387071226
30
0
41
1
10
58.847183424583
20
-3.48926572590187
30
0
41
1
10
58.4722930021158
20
-3.53642950927878
30
0
41
1
10
58.2235825824806
20
-3.5510030888455
30
0
41
1
10
57.9123570458968
20
-3.54671889085168
30
0
41
1
10
57.8500863053495
20
-3.54473799664228
30
0
41
1
10
57.7254914070769
20
-3.53847432779128
30
0
41
1
10
57.6634567446623
20
-3.53420182420024
30
0
41
1
10
57.4780028148315
20
-3.51798024661113
30
0
41
1
10
57.3552138026444
20
-3.50261523869594
30
0
41
1
10
56.9883712100104
20
-3.44341737343962
30
1E-16
41
1
10
56.7459797815546
20
-3.38650551081506
30
-1E-16
41
1
10
56.2625266694234
20
-3.23830460392961
30
0
41
1
10
56.0214695657641
20
-3.14693944376529
30
-2E-16
41
1
10
55.7490385444894
20
-3.02498237236102
30
0
41
1
10
55.7187508938642
20
-3.01116453807637
30
-1E-16
41
1
10
55.6581330240808
20
-2.98299419599627
30
-1E-16
41
1
10
55.6277950351379
20
-2.96863746926837
30
-2E-16
41
1
10
55.5370073101624
20
-2.92491200008405
30
2E-16
41
1
10
55.3560421186279
20
-2.83470427366675
30
0
41
1
10
55.1766316290193
20
-2.73645835244815
30
2E-16
41
1
10
54.8191284047218
20
-2.53001566800265
30
2E-16
41
1
10
54.5825362130969
20
-2.37916478238014
30
-2E-16
41
1
10
54.1093092769295
20
-2.05392558116995
30
-1E-16
41
1
10
53.8726572649714
20
-1.8794794613849
30
0
41
1
10
53.5744995221169
20
-1.64846571180021
30
-1E-16
41
1
10
53.5147036490254
20
-1.60156955149614
30
2E-16
41
1
10
53.3956229558804
20
-1.50714217183497
30
0
41
1
10
53.3362450904336
20
-1.45953952292098
30
-1E-16
41
1
10
53.1585171427929
20
-1.31565818687994
30
0
41
1
10
53.0405705179979
20
-1.21831013546347
30
2E-16
41
1
10
52.6876569601918
20
-0.922783580603095
30
-1E-16
41
1
10
52.4536185639307
20
-0.721129186879296
30
-1E-16
41
1
10
51.984379988474
20
-0.312536107695536
30
-2E-16
41
1
10
51.7491539827541
20
-0.105544126063279
30
-2E-16
41
1
10
51.2735653561486
20
0.308967467352772
30
2E-16
41
1
10
51.0380612679324
20
0.512205068192458
30
1E-16
41
1
10
50.5683793752211
20
0.907131854526284
30
1E-16
41
1
10
50.3341988610511
20
1.0988448542777
30
1E-16
41
1
10
49.9811718371125
20
1.37471031758395
30
-1E-16
41
1
10
49.8632008805575
20
1.46470735067066
30
1E-16
41
1
10
49.6854166277399
20
1.59630103752784
30
-2E-16
41
1
10
49.6260166109977
20
1.63959822158989
30
2E-16
41
1
10
49.5366558223027
20
1.70363146698159
30
0
41
1
10
49.5068013375562
20
1.72484059103203
30
0
41
1
10
49.4471485961843
20
1.76683722793714
30
-1E-16
41
1
10
49.4173468548395
20
1.78762759188189
30
-2E-16
41
1
10
49.1493149292759
20
1.97284489432928
30
-2E-16
41
1
10
48.9123575457334
20
2.12405399106149
30
-1E-16
41
1
10
48.4369731128533
20
2.39617852505492
30
2E-16
41
1
10
48.1985625026937
20
2.51710640782963
30
-1E-16
41
1
10
47.9573
20
2.62093055266757
30
1E-16
0
SPLINE
5
18D
100
AcDbEntity
8
1
62
256
6
ByLayer
370
18
48
1
60
0
100
AcDbSpline
70
4
71
3
72
13
73
9
40
0
40
0
40
0
40
0
40
0.180174160741846
40
0.358764903108192
40
0.535765962356273
40
0.711170981325912
40
0.884973522726644
40
1
40
1
40
1
40
1
41
1
10
59.4919560859527
20
-3.35306633673795
30
0
41
1
10
59.4956172861105
20
-3.34975319516502
30
0
41
1
10
59.5029075108267
20
-3.34315602878721
30
0
41
1
10
59.5136221178552
20
-3.33312587982044
30
0
41
1
10
59.5241148292241
20
-3.32306007324075
30
0
41
1
10
59.5343746989323
20
-3.31295201714832
30
0
41
1
10
59.543306388327
20
-3.30392314677536
30
0
41
1
10
59.5488004248153
20
-3.29824906593223
30
0
41
1
10
59.5509783688565
20
-3.29598049429472
30
0
0
SPLINE
5
18E
100
AcDbEntity
8
1
62
256
6
ByLayer
370
18
48
1
60
0
100
AcDbSpline
70
4
71
3
72
18
73
14
40
0
40
0
40
0
40
0
40
0.0303224095409565
40
0.274773619901821
40
0.356130288969073
40
0.437324597074199
40
0.518343038408045
40
0.599172020327061
40
0.679797915398402
40
0.760207117672475
40
0.840386103848731
40
0.920321493381548
40
1
40
1
40
1
40
1
41
1
10
59.7395230598339
20
-3.02931184770034
30
0
41
1
10
59.7412212732878
20
-3.02591151537789
30
0
41
1
10
59.7564342796827
20
-2.99503220974177
30
0
41
1
10
59.7740750549469
20
-2.95425396865758
30
0
41
1
10
59.7912983614252
20
-2.90692673461638
30
0
41
1
10
59.8007227580762
20
-2.87840584278638
30
0
41
1
10
59.8092366720348
20
-2.84977964117755
30
0
41
1
10
59.8168365083026
20
-2.82108090456279
30
0
41
1
10
59.8235175223524
20
-2.79234318166738
30
0
41
1
10
59.8292840000858
20
-2.76359935616969
30
0
41
1
10
59.8341131269259
20
-2.73488290340399
30
0
41
1
10
59.8380887856227
20
-2.70622390290563
30
0
41
1
10
59.8399699231464
20
-2.6871517411937
30
0
41
1
10
59.840908978155
20
-2.67763100772478
30
0
0
SPLINE
5
18F
100
AcDbEntity
8
1
62
256
6
ByLayer
370
18
48
1
60
0
100
AcDbSpline
70
4
71
3
72
22
73
18
40
0
40
0
40
0
40
0
40
0.0279379175179952
40
0.0789755115825533
40
0.107190641168598
40
0.158377663271196
40
0.261837700272048
40
0.369018103883994
40
0.475882298240011
40
0.545742865054796
40
0.666053790244317
40
0.758243950148671
40
0.852710080454696
40
0.882785931072975
40
0.914301518262682
40
0.978566838211254
40
1
40
1
40
1
40
1
41
1
10
47.9573000009574
20
2.28114415149633
30
0
41
1
10
48.0704254329265
20
2.22336243927717
30
1E-16
41
1
10
48.3860179083613
20
2.05173835788659
30
1E-16
41
1
10
48.801774807209
20
1.79048583687336
30
-2E-16
41
1
10
49.2992022274185
20
1.44308878342687
30
2E-16
41
1
10
49.9877845479501
20
0.920610207243158
30
1E-16
41
1
10
50.9624694443089
20
0.094661137697102
30
-2E-16
41
1
10
52.136602139518
20
-0.950651278567335
30
0
41
1
10
53.1838476775953
20
-1.83310447801028
30
-1E-16
41
1
10
54.2787137726573
20
-2.64146219475069
30
0
41
1
10
55.3176915595054
20
-3.24703303911858
30
1E-16
41
1
10
56.460179661204
20
-3.64483196365748
30
1E-16
41
1
10
57.2813058721725
20
-3.74221130651307
30
0
41
1
10
57.88258354115
20
-3.71745238441775
30
0
41
1
10
58.3721925908162
20
-3.65981575543455
30
0
41
1
10
58.8330633829494
20
-3.55170445536328
30
0
41
1
10
59.1751148512983
20
-3.4373349251095
30
-1E-16
41
1
10
59.260990792133
20
-3.40654304428031
30
-1E-16
0
SPLINE
5
190
100
AcDbEntity
8
1
62
256
6
ByLayer
370
18
48
1
60
0
100
AcDbSpline
70
4
71
3
72
47
73
43
40
0
40
0
40
0
40
0
40
0.0266866587490617
40
0.0532884827296796
40
0.0798053941464889
40
0.106237306385501
40
0.132584124492723
40
0.158845745641444
40
0.185022059588381
40
0.211112949458593
40
0.237118293731458
40
0.263037965209011
40
0.288871830684576
40
0.314619751351769
40
0.340281583204021
40
0.365857177423884
40
0.391346380762051
40
0.41674903590618
40
0.442064981839452
40
0.467294054189136
40
0.492436085564964
40
0.517490905887627
40
0.542458342707332
40
0.567338221512383
40
0.592130366049014
40
0.616834599005823
40
0.641450742226517
40
0.665978616575124
40
0.690418042178477
40
0.714768838676026
40
0.739030825461428
40
0.763203821915927
40
0.787287647633402
40
0.811282122637548
40
0.835187067590961
40
0.859002303996201
40
0.882727654389303
40
0.906362942525341
40
0.929907993556472
40
0.953362634202469
40
0.976726692913585
40
1
40
1
40
1
40
1
41
1
10
56.8857319351704
20
-3.80445898572643
30
0
41
1
10
56.8728309083218
20
-3.80350221322453
30
0
41
1
10
56.8470698659643
20
-3.80159170972456
30
0
41
1
10
56.8085048175465
20
-3.79830279245044
30
0
41
1
10
56.7700737516941
20
-3.79471432566942
30
0
41
1
10
56.7317777390529
20
-3.79079954108963
30
0
41
1
10
56.6936164937113
20
-3.78657054532343
30
0
41
1
10
56.6555900914905
20
-3.78202906711806
30
0
41
1
10
56.6176985116815
20
-3.77717959077165
30
0
41
1
10
56.5799417578956
20
-3.77202585416831
30
0
41
1
10
56.542319829782
20
-3.76657177556521
30
1E-16
41
1
10
56.5048327279046
20
-3.76082121084954
30
-1E-16
41
1
10
56.4674804518495
20
-3.75477802075199
30
-1E-16
41
1
10
56.4302630013754
20
-3.74844605267953
30
-1E-16
41
1
10
56.3931803762037
20
-3.74182914524701
30
1E-16
41
1
10
56.356232576075
20
-3.73493112674808
30
1E-16
41
1
10
56.3194196007336
20
-3.72775581524704
30
1E-16
41
1
10
56.2827414499321
20
-3.720307018243
30
1E-16
41
1
10
56.2461981234294
20
-3.71258853245365
30
0
41
1
10
56.2097896209921
20
-3.70460414356972
30
0
41
1
10
56.1735159423925
20
-3.69635762602894
30
0
41
1
10
56.1373770874131
20
-3.68785274276445
30
0
41
1
10
56.1013730558314
20
-3.67909324505695
30
0
41
1
10
56.0655038474654
20
-3.67008287201881
30
-1E-16
41
1
10
56.0297694617673
20
-3.66082535140123
30
-1E-16
41
1
10
55.9941698986011
20
-3.6513243943871
30
-1E-16
41
1
10
55.9587051581218
20
-3.64158369664011
30
1E-16
41
1
10
55.9233752401257
20
-3.63160694271733
30
1E-16
41
1
10
55.8881801444487
20
-3.62139780481468
30
0
41
1
10
55.8531198709218
20
-3.6109599427655
30
0
41
1
10
55.8181944193831
20
-3.60029700377839
30
0
41
1
10
55.7834037896793
20
-3.58941262194477
30
0
41
1
10
55.7487479816494
20
-3.57831041894821
30
-1E-16
41
1
10
55.714226995188
20
-3.56699400024951
30
-1E-16
41
1
10
55.6798408300073
20
-3.5554669681089
30
-1E-16
41
1
10
55.6455894865207
20
-3.5437328721388
30
1E-16
41
1
10
55.6114729625661
20
-3.53179539170739
30
1E-16
41
1
10
55.5774912655615
20
-3.51965765798019
30
0
41
1
10
55.5436443673992
20
-3.50732476863348
30
0
41
1
10
55.5099323718192
20
-3.49479445553689
30
0
41
1
10
55.4763548933724
20
-3.48209171180548
30
-1E-16
41
1
10
55.4540170181849
20
-3.47344058870232
30
-1E-16
41
1
10
55.4428698142208
20
-3.46912344425863
30
-1E-16
0
SPLINE
5
191
100
AcDbEntity
8
1
62
256
6
ByLayer
370
18
48
1
60
0
100
AcDbSpline
70
4
71
3
72
14
73
10
40
0
40
0
40
0
40
0
40
0.250000000000004
40
0.250000000000004
40
0.374999999999998
40
0.374999999999998
40
0.499999999999992
40
0.499999999999992
40
1
40
1
40
1
40
1
41
1
10
58.3370461282797
20
-3.67505077571087
30
0
41
1
10
58.2151071919543
20
-3.70495185553142
30
0
41
1
10
58.0935454364554
20
-3.73013451953023
30
0
41
1
10
57.911385536227
20
-3.7608256083459
30
0
41
1
10
57.8506577191471
20
-3.7698799901635
30
0
41
1
10
57.7294313960634
20
-3.78557398619762
30
0
41
1
10
57.6689341219448
20
-3.79221468085808
30
0
41
1
10
57.3668692854553
20
-3.81934971235916
30
0
41
1
10
57.1265367160938
20
-3.8216433418319
30
0
41
1
10
56.8857319351689
20
-3.80445898572631
30
0
0
SPLINE
5
192
100
AcDbEntity
8
1
62
256
6
ByLayer
370
18
48
1
60
0
100
AcDbSpline
70
4
71
3
72
10
73
6
40
0
40
0
40
0
40
0
40
0.5
40
0.5
40
1
40
1
40
1
40
1
41
1
10
59.9738825972644
20
-2.44316333817326
30
0
41
1
10
59.9754457831685
20
-2.49773924999707
30
0
41
1
10
59.9721888937722
20
-2.55169060631664
30
0
41
1
10
59.9567616949461
20
-2.65843837315481
30
0
41
1
10
59.9445837191377
20
-2.71123379032153
30
-1E-16
41
1
10
59.927844036467
20
-2.76343812975659
30
0
0
SPLINE
5
193
100
AcDbEntity
8
1
62
256
6
ByLayer
370
18
48
1
60
0
100
AcDbSpline
70
4
71
3
72
14
73
10
40
0
40
0
40
0
40
0
40
0.282993145005394
40
0.282993145005394
40
0.462244858754055
40
0.462244858754055
40
0.641496572502716
40
0.641496572502716
40
1
40
1
40
1
40
1
41
1
10
59.6780289224616
20
-3.1689724671553
30
0
41
1
10
59.7092622340688
20
-3.13643353472364
30
0
41
1
10
59.7385013158332
20
-3.10194876554979
30
0
41
1
10
59.7830442390938
20
-3.04249513761045
30
0
41
1
10
59.7995621612995
20
-3.01859100482488
30
0
41
1
10
59.8304805295131
20
-2.97001387000569
30
1E-16
41
1
10
59.8449474637644
20
-2.94526287509515
30
0
41
1
10
59.8854472798702
20
-2.86965806852251
30
1E-16
41
1
10
59.908596369646
20
-2.81746456482301
30
-1E-16
41
1
10
59.927844036467
20
-2.76343812975654
30
0
0
SPLINE
5
194
100
AcDbEntity
8
1
62
256
6
ByLayer
370
18
48
1
60
0
100
AcDbSpline
70
4
71
3
72
18
73
14
40
0
40
0
40
0
40
0
40
0.101808596053756
40
0.228626604561592
40
0.355070467920154
40
0.437730895182177
40
0.580085200821027
40
0.689166451582301
40
0.800940676283173
40
0.83652702743556
40
0.873816903846403
40
0.949856922519073
40
1
40
1
40
1
40
1
41
1
10
49.9859792493193
20
3.65115518005325
30
0
41
1
10
50.3079682294575
20
3.60770922870827
30
1E-16
41
1
10
51.0268752132794
20
3.43357757612893
30
1E-16
41
1
10
52.136602139518
20
2.91187533754478
30
-2E-16
41
1
10
53.1838476775953
20
2.20023974768739
30
2E-16
41
1
10
54.2787137726573
20
1.32522861913392
30
0
41
1
10
55.3176915595054
20
0.408890706243625
30
-1E-16
41
1
10
56.460179661204
20
-0.59571347494861
30
1E-16
41
1
10
57.2813058721725
20
-1.26144669553446
30
-2E-16
41
1
10
57.88258354115
20
-1.69502639187536
30
0
41
1
10
58.3721925908162
20
-2.02333862341206
30
-1E-16
41
1
10
58.9154177330436
20
-2.34065461428529
30
2E-16
41
1
10
59.342618931916
20
-2.54236827840887
30
2E-16
41
1
10
59.5137068665525
20
-2.61473081096264
30
-1E-16
0
SPLINE
5
195
100
AcDbEntity
8
1
62
256
6
ByLayer
370
18
48
1
60
0
100
AcDbSpline
70
4
71
3
72
49
73
45
40
0
40
0
40
0
40
0
40
0.038035107281601
40
0.038035107281601
40
0.0760702145632021
40
0.0760702145632021
40
0.152140429126404
40
0.152140429126404
40
0.171157982767204
40
0.171157982767204
40
0.190175536408004
40
0.190175536408004
40
0.228210643689603
40
0.228210643689603
40
0.304280858252805
40
0.304280858252805
40
0.380351072816007
40
0.380351072816007
40
0.389859849636409
40
0.389859849636409
40
0.39936862645681
40
0.39936862645681
40
0.418386180097614
40
0.456421287379217
40
0.456421287379217
40
0.532491501942422
40
0.532491501942422
40
0.608561716505626
40
0.608561716505626
40
0.627579270146427
40
0.627579270146427
40
0.646596823787227
40
0.646596823787227
40
0.684631931068826
40
0.684631931068826
40
0.760702145632023
40
0.760702145632023
40
0.83677236019522
40
0.83677236019522
40
0.912842574758416
40
0.912842574758416
40
0.988912789321613
40
0.988912789321613
40
1
40
1
40
1
40
1
41
1
10
59.4774133113288
20
-2.07643421546075
30
0
41
1
10
59.3503282182682
20
-2.01738775655454
30
-2E-16
41
1
10
59.2240369694312
20
-1.95472634164085
30
1E-16
41
1
10
58.9724558504337
20
-1.82272437089267
30
-2E-16
41
1
10
58.847183424583
20
-1.75335888470485
30
1E-16
41
1
10
58.4722930021159
20
-1.53564802615358
30
0
41
1
10
58.2235825824806
20
-1.37772091727487
30
1E-16
41
1
10
57.9123570458968
20
-1.16566313893131
30
1E-16
41
1
10
57.8500863053495
20
-1.12251502656861
30
0
41
1
10
57.725491407077
20
-1.03480621251578
30
2E-16
41
1
10
57.6634567446624
20
-0.990441433133981
30
1E-16
41
1
10
57.4780028148315
20
-0.85597973579803
30
-2E-16
41
1
10
57.3552138026444
20
-0.764536306600462
30
0
41
1
10
56.9883712100104
20
-0.486077679229737
30
-2E-16
41
1
10
56.7459797815546
20
-0.294778594797179
30
-2E-16
41
1
10
56.2625266694234
20
0.0955519675113976
30
2E-16
41
1
10
56.0214695657641
20
0.294602464634948
30
2E-16
41
1
10
55.7490385444893
20
0.520544362755203
30
1E-16
41
1
10
55.7187508938642
20
0.545676739757226
30
1E-16
41
1
10
55.6581330240808
20
0.595988342279838
30
-1E-16
41
1
10
55.6277950351379
20
0.621174015514555
30
-1E-16
41
1
10
55.5370073101623
20
0.69653787436016
30
1E-16
41
1
10
55.3560421186279
20
0.846738509245967
30
-2E-16
41
1
10
55.1766316290192
20
0.995041285574644
30
-1E-16
41
1
10
54.8191284047218
20
1.28832229790788
30
1E-16
41
1
10
54.5825362130969
20
1.47941302154027
30
1E-16
41
1
10
54.1093092769295
20
1.84865416746706
30
1E-16
41
1
10
53.8726572649714
20
2.02674523417593
30
1E-16
41
1
10
53.574499522117
20
2.23850961302941
30
1E-16
41
1
10
53.5147036490254
20
2.2803542096608
30
0
41
1
10
53.3956229558805
20
2.36234980141001
30
-2E-16
41
1
10
53.3362450904336
20
2.40256790742316
30
1E-16
41
1
10
53.1585171427928
20
2.52082369856171
30
-1E-16
41
1
10
53.0405705179979
20
2.59646798003689
30
1E-16
41
1
10
52.6876569601918
20
2.81336834238093
30
1E-16
41
1
10
52.4536185639308
20
2.94463352156518
30
2E-16
41
1
10
51.984379988474
20
3.17711200679744
30
1E-16
41
1
10
51.749153982754
20
3.27826427966426
30
1E-16
41
1
10
51.2735653561487
20
3.4472736877359
30
-1E-16
41
1
10
51.0380612679324
20
3.5133935962792
30
0
41
1
10
50.568379375221
20
3.60837624055426
30
0
41
1
10
50.3341988610511
20
3.63731573021249
30
0
41
1
10
50.0645451240498
20
3.6486519877929
30
0
41
1
10
50.0302176456772
20
3.64968830480973
30
0
41
1
10
49.9958587209305
20
3.65031556374564
30
0
0
SPLINE
5
196
100
AcDbEntity
8
1
62
256
6
ByLayer
370
18
48
1
60
0
100
AcDbSpline
70
4
71
3
72
21
73
17
40
0
40
0
40
0
40
0
40
0.0673082039484979
40
0.12970126493277
40
0.192094325917042
40
0.254487386901314
40
0.316880447885586
40
0.379273508869858
40
0.44166656985413
40
0.504059630838402
40
0.59764922231481
40
0.691238813791218
40
0.784828405267625
40
0.878417996744033
40
0.940811057728305
40
1
40
1
40
1
40
1
41
1
10
59.6533121470058
20
-1.42336418386645
30
-2E-16
41
1
10
59.5179851813372
20
-1.34474814171637
30
0
41
1
10
59.2572134240019
20
-1.1893041529604
30
1E-16
41
1
10
58.8709968749999
20
-0.950358847406249
30
0
41
1
10
58.4946625
20
-0.710898186546928
30
-1E-16
41
1
10
58.118328125
20
-0.466353161890567
30
2E-16
41
1
10
57.74199375
20
-0.218216712188592
30
1E-16
41
1
10
57.365659375
20
0.0318565872017587
30
-1E-16
41
1
10
56.989325
20
0.28128082807487
30
-2E-16
41
1
10
56.5502682291667
20
0.569768189199692
30
0
41
1
10
56.0484890625
20
0.893166536062523
30
1E-16
41
1
10
55.4839875
20
1.24276666975169
30
2E-16
41
1
10
54.9194859375
20
1.57241571002413
30
-1E-16
41
1
10
54.4177067708334
20
1.84290407926261
30
1E-16
41
1
10
53.9850920625953
20
2.0568361425978
30
1E-16
41
1
10
53.7406445418573
20
2.16823679043228
30
0
41
1
10
53.621641812786
20
2.22007506724219
30
0
0
SPLINE
5
197
100
AcDbEntity
8
1
62
256
6
ByLayer
370
18
48
1
60
0
100
AcDbSpline
70
4
71
3
72
8
73
4
40
0
40
0
40
0
40
0
40
1
40
1
40
1
40
1
41
1
10
58.3370461211844
20
-3.67505077852766
30
0
41
1
10
58.4413110424094
20
-3.64948358935661
30
0
41
1
10
58.545551705794
20
-3.62055362455175
30
0
41
1
10
58.6499093606321
20
-3.58830448294731
30
0
0
SPLINE
5
198
100
AcDbEntity
8
1
62
256
6
ByLayer
370
18
48
1
60
0
100
AcDbSpline
70
4
71
3
72
19
73
15
40
0
40
0
40
0
40
0
40
0.0222206908246111
40
0.0976785703944723
40
0.173136449964334
40
0.248594329534195
40
0.324052209104056
40
0.399510088673917
40
0.512696908028709
40
0.625883727383501
40
0.739070546738293
40
0.852257366093084
40
0.927715245662946
40
1
40
1
40
1
40
1
41
1
10
58.6054847208366
20
-0.270739414031681
30
2E-16
41
1
10
58.5685439805577
20
-0.248869570412609
30
1E-16
41
1
10
58.4061584486122
20
-0.152640740455439
30
-1E-16
41
1
10
58.118328125
20
0.0183684651728981
30
0
41
1
10
57.74199375
20
0.241091318355558
30
-1E-16
41
1
10
57.365659375
20
0.461569953611758
30
-2E-16
41
1
10
56.989325
20
0.67914033534305
30
2E-16
41
1
10
56.5502682291667
20
0.928504083059182
30
0
41
1
10
56.0484890625
20
1.20359675969732
30
-2E-16
41
1
10
55.4839875
20
1.49311091740225
30
1E-16
41
1
10
54.9194859375
20
1.75743712768695
30
1E-16
41
1
10
54.4177067708334
20
1.96663081737705
30
1E-16
41
1
10
53.9839251553056
20
2.1272695127162
30
-1E-16
41
1
10
53.7383107272779
20
2.20884365520706
30
0
41
1
10
53.6181410909168
20
2.24631349345367
30
0
0
SPLINE
5
199
100
AcDbEntity
8
1
62
256
6
ByLayer
370
18
48
1
60
0
100
AcDbSpline
70
4
71
3
72
16
73
12
40
0
40
0
40
0
40
0
40
0.0525598621157206
40
0.157830988547307
40
0.263102114978894
40
0.36837324141048
40
0.473644367842067
40
0.578915494273654
40
0.719276996182436
40
0.859638498091218
40
1
40
1
40
1
40
1
41
1
10
53.3196589072817
20
-2.23122509188292
30
0
41
1
10
53.2257106256878
20
-2.20133315862782
30
0
41
1
10
52.9435951565939
20
-2.10701625332746
30
-1E-16
41
1
10
52.4733125
20
-1.92819954351725
30
1E-16
41
1
10
51.9088109375
20
-1.68343255843757
30
-1E-16
41
1
10
51.344309375
20
-1.4127831506174
30
2E-16
41
1
10
50.7798078125
20
-1.1190526625715
30
0
41
1
10
50.1525838541667
20
-0.770284423238849
30
0
41
1
10
49.4626375
20
-0.368182026394777
30
0
41
1
10
48.70996875
20
0.0788706010116301
30
-2E-16
41
0.999999999999999
10
48.2081895833334
20
0.374731724126918
30
0
41
1
10
47.9573
20
0.520841764737384
30
1E-16
0
SPLINE
5
19A
100
AcDbEntity
8
1
62
256
6
ByLayer
370
18
48
1
60
0
100
AcDbSpline
70
4
71
3
72
8
73
4
40
0
40
0
40
0
40
0
40
1
40
1
40
1
40
1
41
1
10
59.9738825972644
20
2.04930603015802
30
1E-16
41
1
10
59.9745496891513
20
2.06958280740761
30
0
41
1
10
59.9743389642544
20
2.08973899350588
30
0
41
1
10
59.9732786628224
20
2.10977846799057
30
0
0
SPLINE
5
19B
100
AcDbEntity
8
1
62
256
6
ByLayer
370
18
48
1
60
0
100
AcDbSpline
70
4
71
3
72
18
73
14
40
0
40
0
40
0
40
0
40
0.0497352338656117
40
0.109126781749011
40
0.19821410357411
40
0.287301425399209
40
0.376388747224308
40
0.465476069049407
40
0.554563390874505
40
0.643650712699604
40
0.762433808466403
40
0.881216904233201
40
1
40
1
40
1
40
1
41
1
10
54.2937971685676
20
-2.89919461461491
30
0
41
1
10
54.1887481123783
20
-2.88681821503593
30
0
41
1
10
53.9582542645226
20
-2.85427193387142
30
0
41
1
10
53.5395932291666
20
-2.77405942684865
30
1E-16
41
1
10
53.0378140624999
20
-2.64457318545968
30
0
41
1
10
52.4733125
20
-2.45645206655158
30
0
41
1
10
51.9088109375
20
-2.22907786399986
30
-1E-16
41
1
10
51.344309375
20
-1.96612431808646
30
2E-16
41
1
10
50.7798078125
20
-1.67118793422895
30
-1E-16
41
1
10
50.1525838541667
20
-1.31297398122771
30
0
41
1
10
49.4626375
20
-0.887644159638626
30
-1E-16
41
1
10
48.70996875
20
-0.398732959644775
30
0
41
0.999999999999999
10
48.2081895833334
20
-0.0656392636959709
30
2E-16
41
1
10
47.9573
20
0.100566602937334
30
2E-16
0
SPLINE
5
19C
100
AcDbEntity
8
1
62
256
6
ByLayer
370
18
48
1
60
0
100
AcDbSpline
70
4
71
3
72
16
73
12
40
0
40
0
40
0
40
0
40
0.246244847546563
40
0.246244847546563
40
0.369367271319907
40
0.369367271319907
40
0.492489695093252
40
0.492489695093252
40
0.984979390186519
40
0.984979390186519
40
1
40
1
40
1
40
1
41
1
10
59.5694727083524
20
5.68E-14
30
0
41
1
10
59.5549229999973
20
0.0118383212834203
30
0
41
1
10
59.541167172414
20
0.0245378353528451
30
0
41
1
10
59.5215750053257
20
0.0447358349847775
30
0
41
1
10
59.5152182188652
20
0.0516603500513213
30
0
41
1
10
59.5028308109363
20
0.0658730540212389
30
0
41
1
10
59.4967798860309
20
0.0731894513893963
30
0
41
1
10
59.4677871305407
20
0.109980700559078
30
0
41
1
10
59.4482265000045
20
0.140381292790522
30
0
41
1
10
59.4307147150191
20
0.171630374725879
30
0
41
1
10
59.4301996580049
20
0.172553564350238
30
0
41
1
10
59.4296878025389
20
0.173475086134317
30
0
0
SPLINE
5
19D
100
AcDbEntity
8
1
62
256
6
ByLayer
370
18
48
1
60
0
100
AcDbSpline
70
4
71
3
72
10
73
6
40
0
40
0
40
0
40
0
40
0.085804214277216
40
0.610618354113332
40
1
40
1
40
1
40
1
41
1
10
58.556191092508
20
2.1823494305597
30
0
41
1
10
58.5356815616719
20
2.18910181119787
30
0
41
1
10
58.3897272391693
20
2.23664788408596
30
1E-16
41
1
10
58.1507001586378
20
2.30854992062916
30
-1E-16
41
1
10
57.9321826089423
20
2.36577182850976
30
-1E-16
41
1
10
57.8391098509135
20
2.38857086716851
30
-1E-16
0
SPLINE
5
19E
100
AcDbEntity
8
1
62
256
6
ByLayer
370
18
48
1
60
0
100
AcDbSpline
70
4
71
3
72
9
73
5
40
0
40
0
40
0
40
0
40
0.323072552631036
40
1
40
1
40
1
40
1
41
1
10
49.0691898383061
20
-2.30682700404054
30
0
41
1
10
48.9494494755374
20
-2.2730705508888
30
0
41
1
10
48.5788195294354
20
-2.16092623872771
30
1E-16
41
0.999999999999999
10
48.2081895833334
20
-2.02614501445865
30
1E-16
41
1
10
47.9573
20
-1.92518894296703
30
1E-16
0
SPLINE
5
19F
100
AcDbEntity
8
1
62
256
6
ByLayer
370
18
48
1
60
0
100
AcDbSpline
70
4
71
3
72
12
73
8
40
0
40
0
40
0
40
0
40
0.227593429939287
40
0.440483727270712
40
0.653374024602137
40
0.866264321933562
40
1
40
1
40
1
40
1
41
1
10
59.6496569185906
20
1.49500660735845
30
1E-16
41
1
10
59.5155483623938
20
1.57120460315187
30
-1E-16
41
1
10
59.2559950145302
20
1.71488798322647
30
0
41
1
10
58.8709968749999
20
1.91456339392485
30
0
41
1
10
58.4946625
20
2.09579926588461
30
0
41
1
10
58.164969680992
20
2.24136459215163
30
0
41
1
10
57.9607216536508
20
2.32451213522347
30
0
41
1
10
57.8819184179762
20
2.35550793171589
30
0
0
SPLINE
5
1A0
100
AcDbEntity
8
1
62
256
6
ByLayer
370
18
48
1
60
0
100
AcDbSpline
70
4
71
3
72
10
73
6
40
0
40
0
40
0
40
0
40
0.246483145245652
40
0.623241572622826
40
1
40
1
40
1
40
1
41
1
10
49.9550489428432
20
-2.91760187426559
30
0
41
1
10
49.7909117952288
20
-2.90682966503488
30
0
41
1
10
49.3758850642811
20
-2.86456626401787
30
0
41
1
10
48.70996875
20
-2.73665680700526
30
0
41
0.999999999999999
10
48.2081895833334
20
-2.58800322417309
30
1E-16
41
1
10
47.9573
20
-2.50131257060468
30
1E-16
0
SPLINE
5
1A1
100
AcDbEntity
8
1
62
256
6
ByLayer
370
18
48
1
60
0
100
AcDbSpline
70
4
71
3
72
12
73
8
40
0
40
0
40
0
40
0
40
0.249999999999601
40
0.249999999999601
40
0.62500000000285
40
0.62500000000285
40
1
40
1
40
1
40
1
41
1
10
59.9381373223615
20
-0.254087524226833
30
0
41
1
10
59.9371267591611
20
-0.253734588367792
30
0
41
1
10
59.9361161959777
20
-0.253381652459922
30
0
41
1
10
59.9335897880619
20
-0.252499312568148
30
0
41
1
10
59.9320739433508
20
-0.251969908523194
30
0
41
1
10
59.9290422540053
20
-0.2509111002135
30
0
41
1
10
59.927526409371
20
-0.250381695948761
30
0
41
1
10
59.926010564775
20
-0.249852291574172
30
0
0
SPLINE
5
1A2
100
AcDbEntity
8
1
62
256
6
ByLayer
370
18
48
1
60
0
100
AcDbSpline
70
4
71
3
72
25
73
21
40
0
40
0
40
0
40
0
40
0.190652067906093
40
0.190652067906093
40
0.24123631366196
40
0.266528436539893
40
0.266528436539893
40
0.291820559417826
40
0.291820559417826
40
0.392989050929565
40
0.392989050929565
40
0.595326033953043
40
0.595326033953043
40
0.797663016976522
40
0.797663016976522
40
0.848247262732391
40
0.873539385610326
40
0.898831508488261
40
0.898831508488261
40
1
40
1
40
1
40
1
41
1
10
50.9684111453215
20
3.50398098339235
30
0
41
1
10
51.1811557471303
20
3.59960333494064
30
0
41
1
10
51.3935323307891
20
3.68246512057542
30
0
41
1
10
51.663360861882
20
3.77013886324335
30
0
41
1
10
51.7483240223098
20
3.79627522865434
30
0
41
1
10
51.8334862651274
20
3.82019703788072
30
-1E-16
41
1
10
51.8903122416505
20
3.83564576575344
30
0
41
1
10
51.9187733019852
20
3.84312612499716
30
0
41
1
10
52.0608483886008
20
3.87916846254336
30
0
41
1
10
52.1738695409126
20
3.90367633681345
30
0
41
1
10
52.5116829669963
20
3.96430232931524
30
0
41
1
10
52.7352420461861
20
3.98764753413337
30
0
41
1
10
53.1823821370749
20
4.00052461830811
30
0
41
1
10
53.4059555106293
20
3.98996475497921
30
0
41
1
10
53.6874214128401
20
3.95509695018634
30
-1E-16
41
1
10
53.7720104778538
20
3.94301500134154
30
0
41
1
10
53.8851685596656
20
3.92363867849682
30
0
41
1
10
53.9418819512663
20
3.91285420934088
30
0
41
1
10
54.083392848282
20
3.88461271421008
30
0
41
1
10
54.1960939158174
20
3.85785048633147
30
1E-16
41
1
10
54.3084777786043
20
3.82707638266203
30
-1E-16
0
SPLINE
5
1A3
100
AcDbEntity
8
1
62
256
6
ByLayer
370
18
48
1
60
0
100
AcDbSpline
70
4
71
3
72
10
73
6
40
0
40
0
40
0
40
0
40
0.23249100327099
40
0.833116514331494
40
1
40
1
40
1
40
1
41
1
10
53.0203528888774
20
3.99542946447002
30
0
41
1
10
53.1201675677811
20
3.9969330423267
30
0
41
1
10
53.4778514617141
20
3.99018385340614
30
0
41
1
10
53.9073090781858
20
3.92939400683585
30
0
41
1
10
54.2368207588083
20
3.84672067639323
30
1E-16
41
1
10
54.3084777786044
20
3.8270763826622
30
-1E-16
0
SPLINE
5
1A4
100
AcDbEntity
8
1
62
256
6
ByLayer
370
18
48
1
60
0
100
AcDbSpline
70
4
71
3
72
27
73
23
40
0
40
0
40
0
40
0
40
0.161124664478385
40
0.161124664478385
40
0.241686996717578
40
0.241686996717578
40
0.322249328956771
40
0.322249328956771
40
0.483373993435162
40
0.483373993435162
40
0.644498657913554
40
0.644498657913554
40
0.684779824033153
40
0.704920407092955
40
0.704920407092955
40
0.725060990152757
40
0.725060990152757
40
0.805623322391956
40
0.805623322391956
40
0.966747986870353
40
0.966747986870353
40
1
40
1
40
1
40
1
41
1
10
48.8633922922474
20
-2.16035613655708
30
2E-16
41
1
10
49.0967006285637
20
-2.33469223503431
30
1E-16
41
1
10
49.3278274409233
20
-2.5010638325146
30
1E-16
41
1
10
49.6739334259161
20
-2.73603355831736
30
2E-16
41
1
10
49.7892039988026
20
-2.81191671562269
30
-1E-16
41
1
10
50.0199904242766
20
-2.95833792052531
30
-2E-16
41
1
10
50.1346723430024
20
-3.02835162159477
30
0
41
1
10
50.4771505155602
20
-3.22847354013086
30
0
41
1
10
50.7034535961831
20
-3.34872142077541
30
1E-16
41
1
10
51.1551263338468
20
-3.56089132604478
30
-1E-16
41
1
10
51.3804625341467
20
-3.65282667888707
30
-1E-16
41
1
10
51.6633608224962
20
-3.74881575360047
30
-1E-16
41
1
10
51.7483239501923
20
-3.77618611748335
30
0
41
1
10
51.8334861547175
20
-3.8013612580778
30
0
41
1
10
51.8903121044542
20
-3.81764974997677
30
1E-16
41
1
10
51.9187731548338
20
-3.82555243382345
30
1E-16
41
1
10
52.060848309263
20
-3.86371112598968
30
-1E-16
41
1
10
52.1738695055384
20
-3.88992854522044
30
0
41
1
10
52.5116830344968
20
-3.95571938138676
30
1E-16
41
1
10
52.7352421440715
20
-3.98255565027671
30
0
41
1
10
53.0049513265533
20
-3.99455262577146
30
0
41
1
10
53.0510906095105
20
-3.99588162975141
30
0
41
1
10
53.0972440609816
20
-3.99648408934439
30
0
0
SPLINE
5
1A5
100
AcDbEntity
8
1
62
256
6
ByLayer
370
18
48
1
60
0
100
AcDbSpline
70
4
71
3
72
41
73
37
40
0
40
0
40
0
40
0
40
0.0078678311397048
40
0.0078678311397048
40
0.0309406722759876
40
0.0770863545485565
40
0.0770863545485565
40
0.169377719093694
40
0.169377719093694
40
0.261669083638832
40
0.261669083638832
40
0.284741924775117
40
0.284741924775117
40
0.307814765911403
40
0.307814765911403
40
0.353960448183973
40
0.353960448183973
40
0.446251812729117
40
0.446251812729117
40
0.538543177274261
40
0.538543177274261
40
0.630834541819405
40
0.630834541819405
40
0.723125906364549
40
0.723125906364549
40
0.769271588637121
40
0.769271588637121
40
0.792344429773407
40
0.792344429773407
40
0.80388085034155
40
0.80388085034155
40
0.815417270909693
40
0.815417270909693
40
0.907708635454846
40
0.907708635454846
40
1
40
1
40
1
40
1
41
1
10
55.6595217197143
20
-3.53721165510598
30
1E-16
41
1
10
55.6388456488716
20
-3.54440719450559
30
1E-16
41
1
10
55.6181715161238
20
-3.55148540215296
30
1E-16
41
1
10
55.5370073101624
20
-3.57880980723192
30
-1E-16
41
1
10
55.3560421186279
20
-3.63669198123344
30
1E-16
41
1
10
55.1766316290193
20
-3.6847549582458
30
0
41
1
10
54.8191284047218
20
-3.76776964902046
30
-1E-16
41
1
10
54.5825362130969
20
-3.80567872008535
30
0
41
1
10
54.1093092769295
20
-3.84550863190103
30
0
41
1
10
53.8726572649715
20
-3.84731406527013
30
0
41
1
10
53.574499522117
20
-3.82610910658263
30
0
41
1
10
53.5147036490254
20
-3.8206833813434
30
0
41
1
10
53.3956229558805
20
-3.80754330519781
30
0
41
1
10
53.3362450904336
20
-3.79982399837084
30
0
41
1
10
53.1585171427929
20
-3.77325257004645
30
0
41
1
10
53.040570517998
20
-3.75099594718392
30
0
41
1
10
52.6876569601918
20
-3.67094560608285
30
-1E-16
41
1
10
52.4536185639308
20
-3.59991861237927
30
0
41
1
10
51.984379988474
20
-3.4231800487911
30
0
41
1
10
51.7491539827541
20
-3.31735589113194
30
0
41
1
10
51.2735653561486
20
-3.07255437316508
30
1E-16
41
1
10
51.0380612679324
20
-2.93611438578714
30
2E-16
41
1
10
50.5683793752211
20
-2.6381556150597
30
0
41
1
10
50.3341988610511
20
-2.47668847381686
30
0
41
1
10
49.9811718371125
20
-2.21807888414122
30
-1E-16
41
1
10
49.8632008805575
20
-2.12913466030733
30
1E-16
41
1
10
49.6854166277399
20
-1.99187098948241
30
-2E-16
41
1
10
49.6260166109977
20
-1.94547630169137
30
1E-16
41
1
10
49.5366558223028
20
-1.87496469959441
30
0
41
1
10
49.5068013375562
20
-1.85128831396008
30
-1E-16
41
1
10
49.4471485961844
20
-1.80375734261563
30
-2E-16
41
1
10
49.4173468548396
20
-1.77990026200879
30
2E-16
41
1
10
49.1493149292759
20
-1.56440738343542
30
1E-16
41
1
10
48.9123575457335
20
-1.36735092682392
30
1E-16
41
1
10
48.4369731128533
20
-0.966828433411365
30
0
41
1
10
48.1985625026937
20
-0.763343320818734
30
0
41
1
10
47.9573
20
-0.559011536511662
30
0
0
SPLINE
5
1A6
100
AcDbEntity
8
1
62
256
6
ByLayer
370
18
48
1
60
0
100
AcDbSpline
70
4
71
3
72
8
73
4
40
0
40
0
40
0
40
0
40
1
40
1
40
1
40
1
41
1
10
59.9738825972644
20
-0.439064123849192
30
1E-16
41
1
10
59.9753014996725
20
-0.44640673747594
30
2E-16
41
1
10
59.9727490571045
20
-0.453769650217794
30
2E-16
41
1
10
59.9664970192896
20
-0.461151473050393
30
2E-16
0
SPLINE
5
1A7
100
AcDbEntity
8
1
62
256
6
ByLayer
370
18
48
1
60
0
100
AcDbSpline
70
4
71
3
72
8
73
4
40
0
40
0
40
0
40
0
40
1
40
1
40
1
40
1
41
1
10
59.9738825972709
20
-0.439064123827791
30
1E-16
41
1
10
59.9402476105748
20
-0.588132964983146
30
1E-16
41
1
10
59.9066126238789
20
-0.737201806138557
30
1E-16
41
1
10
59.8729776371829
20
-0.886270647293941
30
1E-16
0
SPLINE
5
1A8
100
AcDbEntity
8
1
62
256
6
ByLayer
370
18
48
1
60
0
100
AcDbSpline
70
4
71
3
72
15
73
11
40
0
40
0
40
0
40
0
40
0.0516666405439596
40
0.146052380821971
40
0.19823168005873
40
0.29289376322177
40
0.484226296827562
40
0.682439044188133
40
0.880067013891161
40
1
40
1
40
1
40
1
41
1
10
47.9573000009574
20
-1.15200171446298
30
0
41
1
10
48.0704254329265
20
-1.24138260115339
30
-2E-16
41
1
10
48.3860179083613
20
-1.49144261904576
30
-1E-16
41
1
10
48.801774807209
20
-1.81816119166277
30
-2E-16
41
1
10
49.2992022274185
20
-2.19652807960583
30
-2E-16
41
1
10
49.9877845479501
20
-2.69505506142389
30
1E-16
41
1
10
50.9624694443089
20
-3.30100615084191
30
2E-16
41
1
10
52.136602139518
20
-3.79508082581396
30
0
41
1
10
53.1653719899699
20
-3.96831619758794
30
0
41
1
10
53.7983264123567
20
-3.93924481067529
30
0
41
1
10
54.03723822525
20
-3.90912793127384
30
0
0
SPLINE
5
1A9
100
AcDbEntity
8
1
62
256
6
ByLayer
370
18
48
1
60
0
100
AcDbSpline
70
4
71
3
72
15
73
11
40
0
40
0
40
0
40
0
40
0.0534409404899489
40
0.147774445071936
40
0.199924866832016
40
0.294534561363186
40
0.485761206218882
40
0.683864257127543
40
0.881382854010897
40
1
40
1
40
1
40
1
41
1
10
47.9573000008118
20
-1.46281009459142
30
-1E-16
41
1
10
48.073487973689
20
-1.55369185372015
30
1E-16
41
1
10
48.390575038475
20
-1.80141664167488
30
-2E-16
41
1
10
48.807425210397
20
-2.12062758927175
30
1E-16
41
1
10
49.3028324509319
20
-2.48309770546695
30
0
41
1
10
49.9894026094726
20
-2.954771366344
30
-2E-16
41
1
10
50.9619725229813
20
-3.51165721622928
30
0
41
1
10
52.1354329078366
20
-3.93114683889039
30
0
41
1
10
53.1621481332005
20
-4.03178923939933
30
0
41
1
10
53.7936612478497
20
-3.95681243672973
30
0
41
1
10
54.0305668122137
20
-3.90993604329282
30
0
0
SPLINE
5
1AA
100
AcDbEntity
8
1
62
256
6
ByLayer
370
18
48
1
60
0
100
AcDbSpline
70
4
71
3
72
14
73
10
40
0
40
0
40
0
40
0
40
0.0348214262760784
40
0.0348214262760784
40
0.356547617517386
40
0.356547617517386
40
0.678273808758693
40
0.678273808758693
40
1
40
1
40
1
40
1
41
1
10
45.2778004174896
20
-3.59999967096078
30
0
41
1
10
45.2786841581318
20
-3.60000011562056
30
0
41
1
10
45.2795556110353
20
-3.60000011415519
30
0
41
1
10
45.2883528282156
20
-3.59999528883901
30
0
41
1
10
45.2952521359911
20
-3.59995085866666
30
0
41
1
10
45.3068959537922
20
-3.59974064860222
30
0
41
1
10
45.3114757525775
20
-3.599577800009
30
0
41
1
10
45.3185538375582
20
-3.59911592939548
30
0
41
1
10
45.3210534005232
20
-3.59881509931867
30
0
41
1
10
45.3226419081978
20
-3.59844324319414
30
0
0
SPLINE
5
1AB
100
AcDbEntity
8
1
62
256
6
ByLayer
370
18
48
1
60
0
100
AcDbSpline
70
4
71
3
72
34
73
30
40
0
40
0
40
0
40
0
40
0.0312500000000141
40
0.0312500000000141
40
0.0625000000000282
40
0.0625000000000282
40
0.12500000000004
40
0.12500000000004
40
0.187500000000053
40
0.187500000000053
40
0.218750000000051
40
0.218750000000051
40
0.250000000000049
40
0.250000000000049
40
0.312500000000045
40
0.312500000000045
40
0.375000000000041
40
0.375000000000041
40
0.500000000000033
40
0.500000000000033
40
0.562500000000028
40
0.562500000000028
40
0.625000000000024
40
0.625000000000024
40
0.750000000000016
40
0.750000000000016
40
0.875000000000008
40
0.875000000000008
40
1
40
1
40
1
40
1
41
1
10
45.300706876504
20
-3.50990719331298
30
0
41
1
10
45.3253419079169
20
-3.50747789520787
30
0
41
1
10
45.3502448340899
20
-3.50530894778279
30
0
41
1
10
45.4004663904808
20
-3.50140916321234
30
0
41
1
10
45.4257858976157
20
-3.49967881428097
30
0
41
1
10
45.5022547849532
20
-3.49506024315434
30
0
41
1
10
45.5539085778557
20
-3.49274074697937
30
0
41
1
10
45.6582030620514
20
-3.48931659342338
30
0
41
1
10
45.710848084322
20
-3.48821456732631
30
0
41
1
10
45.7904114817993
20
-3.48732404322357
30
0
41
1
10
45.81704610016
20
-3.48715519140799
30
0
41
1
10
45.8701801149862
20
-3.48705133888248
30
0
41
1
10
45.8967207133078
20
-3.48711572486022
30
0
41
1
10
45.976271067748
20
-3.4876227687146
30
0
41
1
10
46.0292097267478
20
-3.48837831678051
30
0
41
1
10
46.134927409571
20
-3.49057015546904
30
0
41
1
10
46.1877302923706
20
-3.49200772739792
30
0
41
1
10
46.3457754239219
20
-3.49714696922405
30
0
41
1
10
46.4502306432903
20
-3.50165313073575
30
0
41
1
10
46.6058487169561
20
-3.50937312975739
30
0
41
1
10
46.6575721252472
20
-3.51211011539147
30
0
41
1
10
46.7604936346385
20
-3.51780261998996
30
0
41
1
10
46.8117017233166
20
-3.52075848391831
30
0
41
1
10
46.9646393512529
20
-3.52982353470881
30
1E-16
41
1
10
47.0656846050272
20
-3.53612784970392
30
0
41
1
10
47.2662466747384
20
-3.54862922505038
30
0
41
1
10
47.3656474405164
20
-3.55481924055095
30
0
41
1
10
47.5626553241459
20
-3.56650690635465
30
0
41
1
10
47.6603152166741
20
-3.57200828417947
30
0
41
1
10
47.7572650903684
20
-3.57692536836782
30
0
0
SPLINE
5
1AC
100
AcDbEntity
8
1
62
256
6
ByLayer
370
18
48
1
60
0
100
AcDbSpline
70
4
71
3
72
18
73
14
40
0
40
0
40
0
40
0
40
0.25
40
0.25
40
0.5
40
0.5
40
0.625
40
0.625
40
0.75
40
0.75
40
0.875
40
0.875
40
1
40
1
40
1
40
1
41
1
10
45.114814149338
20
3.59712137908198
30
0
41
1
10
45.1421587754697
20
3.59729626539331
30
0
41
1
10
45.1689181489983
20
3.59756088321441
30
0
41
1
10
45.220263175572
20
3.59827494886056
30
0
41
1
10
45.2438202555415
20
3.59871707032204
30
0
41
1
10
45.2741910620226
20
3.59934635827028
30
0
41
1
10
45.2830605636896
20
3.59953897237793
30
0
41
1
10
45.2982864892456
20
3.59984020810288
30
0
41
1
10
45.3046597455967
20
3.59994784688158
30
0
41
1
10
45.3145227868859
20
3.6000221787464
30
0
41
1
10
45.3181149724438
20
3.59999123332324
30
0
41
1
10
45.3230475076781
20
3.59976668052948
30
0
41
1
10
45.3243513023347
20
3.59957523230509
30
0
41
1
10
45.3247498692818
20
3.59930133068866
30
0
0
SPLINE
5
1AD
100
AcDbEntity
8
1
62
256
6
ByLayer
370
18
48
1
60
0
100
AcDbSpline
70
4
71
3
72
28
73
24
40
0
40
0
40
0
40
0
40
0.0495747714458123
40
0.0495747714458123
40
0.0835185296084599
40
0.0835185296084599
40
0.117462287771107
40
0.117462287771107
40
0.185349804096403
40
0.185349804096403
40
0.253237320421698
40
0.253237320421698
40
0.321124836746993
40
0.321124836746993
40
0.389012353072288
40
0.389012353072288
40
0.456899869397584
40
0.456899869397584
40
0.592674902048192
40
0.592674902048192
40
0.7284499346988
40
0.7284499346988
40
1
40
1
40
1
40
1
41
1
10
45.5673785755596
20
3.49940609856097
30
0
41
1
10
45.6031258782406
20
3.49716676103176
30
0
41
1
10
45.6393399216298
20
3.49529476162485
30
0
41
1
10
45.7009735758034
20
3.49267441948862
30
0
41
1
10
45.7261990603534
20
3.49175888018237
30
0
41
1
10
45.7769632578788
20
3.49020281317633
30
0
41
1
10
45.8025101576461
20
3.4895627199376
30
0
41
1
10
45.8790339861576
20
3.48803208974408
30
0
41
1
10
45.9300850632448
20
3.48752284885998
30
0
41
1
10
46.0322438310184
20
3.48734398934732
30
0
41
1
10
46.0833516244878
20
3.48767525849181
30
0
41
1
10
46.1856152013574
20
3.48903958431848
30
0
41
1
10
46.2366629080548
20
3.49007189670863
30
0
41
1
10
46.3383851176895
20
3.49270629281202
30
0
41
1
10
46.3890988460072
20
3.4943091885539
30
0
41
1
10
46.4902671469627
20
3.49797882758028
30
0
41
1
10
46.5407570557161
20
3.50004752712613
30
0
41
1
10
46.6914441155322
20
3.50678662912361
30
0
41
1
10
46.7909668767048
20
3.51198898734643
30
0
41
1
10
46.9884855168306
20
3.52313030281459
30
0
41
1
10
47.0865399602398
20
3.52907484472806
30
-1E-16
41
1
10
47.3783529448938
20
3.54710643787016
30
0
41
1
10
47.5691553708335
20
3.5593234054935
30
0
41
1
10
47.7572650903684
20
3.56976105612091
30
0
0
SPLINE
5
1AE
100
AcDbEntity
8
1
62
256
6
ByLayer
370
18
48
1
60
0
100
AcDbSpline
70
4
71
3
72
14
73
10
40
0
40
0
40
0
40
0
40
0.246831746648844
40
0.442482234009283
40
0.642962897592075
40
0.706791345631985
40
0.773675273369107
40
0.910062293213279
40
1
40
1
40
1
40
1
41
1
10
54.1368404419745
20
3.88442377318248
30
0
41
1
10
54.5652439195776
20
3.81434349109514
30
0
41
1
10
55.3325947960071
20
3.57922337090966
30
0
41
1
10
56.460179661204
20
2.98224216974248
30
1E-16
41
1
10
57.2813058721725
20
2.41848687279912
30
1E-16
41
1
10
57.88258354115
20
1.9649027987395
30
-2E-16
41
1
10
58.3721925908162
20
1.58333014053522
30
-2E-16
41
1
10
58.9154177330436
20
1.14424495166571
30
0
41
1
10
59.3426189319161
20
0.794501234052063
30
-1E-16
41
1
10
59.5137068665525
20
0.654934499740875
30
-2E-16
0
SPLINE
5
1AF
100
AcDbEntity
8
1
62
256
6
ByLayer
370
18
48
1
60
0
100
AcDbSpline
70
4
71
3
72
31
73
27
40
0
40
0
40
0
40
0
40
0.0747971124084855
40
0.0747971124084855
40
0.149594224816971
40
0.149594224816971
40
0.299188449633942
40
0.299188449633942
40
0.336587005838185
40
0.336587005838185
40
0.373985562042428
40
0.373985562042428
40
0.448782674450908
40
0.448782674450908
40
0.598376899267869
40
0.598376899267869
40
0.74797112408483
40
0.74797112408483
40
0.766670402186947
40
0.766670402186947
40
0.785369680289063
40
0.785369680289063
40
0.822768236493296
40
0.897565348901756
40
0.897565348901756
40
1
40
1
40
1
40
1
41
1
10
59.4774133113288
20
1.23806988027869
30
2E-16
41
1
10
59.3503282182682
20
1.327928472595
30
0
41
1
10
59.2240369694313
20
1.41750127200072
30
-2E-16
41
1
10
58.9724558504337
20
1.59528233452835
30
-2E-16
41
1
10
58.847183424583
20
1.6835101422698
30
1E-16
41
1
10
58.472293002116
20
1.94530436575241
30
-1E-16
41
1
10
58.2235825824806
20
2.11596240475558
30
-1E-16
41
1
10
57.9123570458967
20
2.32173772312135
30
-1E-16
41
1
10
57.8500863053495
20
2.36252048092783
30
-2E-16
41
1
10
57.725491407077
20
2.44322875723103
30
0
41
1
10
57.6634567446624
20
2.48297034471619
30
0
41
1
10
57.4780028148316
20
2.60021288912344
30
1E-16
41
1
10
57.3552138026445
20
2.67569935460716
30
-1E-16
41
1
10
56.9883712100105
20
2.89340514065637
30
-1E-16
41
1
10
56.7459797815546
20
3.0270482294427
30
0
41
1
10
56.2625266694235
20
3.26829960966396
30
-1E-16
41
1
10
56.0214695657642
20
3.37585213639162
30
1E-16
41
1
10
55.7490385444895
20
3.4800503486093
30
1E-16
41
1
10
55.7187508938644
20
3.49139365718668
30
0
41
1
10
55.6581330240809
20
3.51360265802498
30
0
41
1
10
55.627795035138
20
3.52447059989589
30
0
41
1
10
55.5370073101624
20
3.55624094953248
30
1E-16
41
1
10
55.356042118628
20
3.61655796696237
30
0
41
1
10
55.1766316290193
20
3.66711797641051
30
1E-16
41
1
10
54.8942636566857
20
3.73668323384322
30
0
41
1
10
54.7318808247387
20
3.76875709718922
30
0
41
1
10
54.5697488466038
20
3.79250701057032
30
0
0
SPLINE
5
1B0
100
AcDbEntity
8
1
62
256
6
ByLayer
370
18
48
1
60
0
100
AcDbSpline
70
4
71
3
72
22
73
18
40
0
40
0
40
0
40
0
40
0.0593215629858577
40
0.0593215629858577
40
0.294491172239377
40
0.294491172239377
40
0.412075976866138
40
0.412075976866138
40
0.470868379179514
40
0.470868379179514
40
0.500264580336205
40
0.500264580336205
40
0.529660781492897
40
0.529660781492897
40
0.764830390746448
40
0.764830390746448
40
1
40
1
40
1
40
1
41
1
10
50.9810889979986
20
-3.49794906821578
30
0
41
1
10
50.9217398328347
20
-3.51316257909278
30
0
41
1
10
50.862458979306
20
-3.52719950373739
30
0
41
1
10
50.5683793752211
20
-3.59102030163714
30
0
41
1
10
50.3341988610511
20
-3.6235009171271
30
1E-16
41
1
10
49.9811718371126
20
-3.64370105354297
30
0
41
1
10
49.8632008805575
20
-3.64566708906523
30
0
41
1
10
49.6854166277399
20
-3.64125792169779
30
0
41
1
10
49.6260166109978
20
-3.63856252281659
30
0
41
1
10
49.5366558223028
20
-3.63265924075984
30
0
41
1
10
49.5068013375562
20
-3.63037913329205
30
0
41
1
10
49.4471485961844
20
-3.62520868129695
30
0
41
1
10
49.4173468548396
20
-3.62231872523012
30
0
41
1
10
49.149314929276
20
-3.5935873394956
30
0
41
1
10
48.9123575457335
20
-3.54878226880155
30
0
41
1
10
48.4369731128534
20
-3.42178585425521
30
0
41
1
10
48.1985625026938
20
-3.33958793639008
30
1E-16
41
1
10
47.9573000000001
20
-3.23908261754764
30
0
0
SPLINE
5
1B1
100
AcDbEntity
8
1
62
256
6
ByLayer
370
18
48
1
60
0
100
AcDbSpline
70
4
71
3
72
12
73
8
40
0
40
0
40
0
40
0
40
0.500000000000014
40
0.500000000000014
40
0.750000000000007
40
0.750000000000007
40
1
40
1
40
1
40
1
41
1
10
58.3370461211844
20
3.68429744636018
30
0
41
1
10
58.4773639124963
20
3.65188899535283
30
0
41
1
10
58.6176377697652
20
3.6133522696426
30
0
41
1
10
58.8284990722874
20
3.54650382490726
30
0
41
1
10
58.8988826057957
20
3.52270314371199
30
0
41
1
10
59.0394229644347
20
3.47228446517156
30
1E-16
41
1
10
59.1096360608673
20
3.4456501016403
30
-1E-16
41
1
10
59.179834564486
20
3.41762065494555
30
0
0
SPLINE
5
1B2
100
AcDbEntity
8
1
62
256
6
ByLayer
370
18
48
1
60
0
100
AcDbSpline
70
4
71
3
72
12
73
8
40
0
40
0
40
0
40
0
40
0.25
40
0.25
40
0.499999999999999
40
0.499999999999999
40
1
40
1
40
1
40
1
41
1
10
59.5137068665548
20
3.32967089200031
30
0
41
1
10
59.5157197661648
20
3.33059437248301
30
0
41
1
10
59.5158421635753
20
3.33244821737199
30
0
41
1
10
59.5143447840231
20
3.33699150200601
30
0
41
1
10
59.5126702084912
20
3.33970737412469
30
-1E-16
41
1
10
59.5060283115001
20
3.3485833015466
30
0
41
1
10
59.4994790141196
20
3.355451973442
30
0
41
1
10
59.491966761301
20
3.36263869262592
30
0
0
SPLINE
5
1B3
100
AcDbEntity
8
1
62
256
6
ByLayer
370
18
48
1
60
0
100
AcDbSpline
70
4
71
3
72
8
73
4
40
0
40
0
40
0
40
0
40
1
40
1
40
1
40
1
41
1
10
59.4919345697621
20
3.36264737103264
30
0
41
1
10
59.4870373167051
20
3.36501145636839
30
0
41
1
10
59.4821985444142
20
3.36731980706875
30
0
41
1
10
59.4774133113281
20
3.36957587047081
30
0
0
SPLINE
5
1B4
100
AcDbEntity
8
1
62
256
6
ByLayer
370
18
48
1
60
0
100
AcDbSpline
70
4
71
3
72
8
73
4
40
0
40
0
40
0
40
0
40
1
40
1
40
1
40
1
41
1
10
59.4774133113287
20
3.36957587047067
30
0
41
1
10
59.4147604937542
20
3.38463133244537
30
0
41
1
10
59.3523006184034
20
3.39872011856059
30
0
41
1
10
59.2899985587566
20
3.41182790046449
30
0
0
SPLINE
5
1B5
100
AcDbEntity
8
1
62
256
6
ByLayer
370
18
48
1
60
0
100
AcDbSpline
70
4
71
3
72
9
73
5
40
0
40
0
40
0
40
0
40
0.368083110650307
40
1
40
1
40
1
40
1
41
1
10
58.7110716262596
20
3.58382683697212
30
0
41
1
10
58.8084452338542
20
3.56064118088995
30
0
41
1
10
59.0739717401361
20
3.4896235173689
30
0
41
1
10
59.342618931916
20
3.3968440568658
30
0
41
1
10
59.5137068665525
20
3.32967089200116
30
0
0
SPLINE
5
1B6
100
AcDbEntity
8
1
62
256
6
ByLayer
370
18
48
1
60
0
100
AcDbSpline
70
4
71
3
72
12
73
8
40
0
40
0
40
0
40
0
40
0.165392773978456
40
0.467535883037547
40
0.634569755458122
40
0.937597480119134
40
1
40
1
40
1
40
1
41
1
10
47.9573000009574
20
-3.49149620756785
30
0
41
1
10
48.0704254329265
20
-3.52284259029327
30
0
41
1
10
48.3860179083613
20
-3.60036832430959
30
0
41
1
10
48.801774807209
20
-3.66389148987119
30
0
41
1
10
49.2992022274185
20
-3.69169822928313
30
0
41
1
10
49.6378902197665
20
-3.6772189243018
30
0
41
1
10
49.8692734304844
20
-3.64955233631608
30
0
41
1
10
49.9087564299919
20
-3.6443148178972
30
0
0
SPLINE
5
1B7
100
AcDbEntity
8
1
62
256
6
ByLayer
370
18
48
1
60
0
100
AcDbSpline
70
4
71
3
72
14
73
10
40
0
40
0
40
0
40
0
40
0.249999999999992
40
0.249999999999992
40
0.374999999999996
40
0.374999999999996
40
0.5
40
0.5
40
1
40
1
40
1
40
1
41
1
10
58.3370461282797
20
3.68429744337692
30
0
41
1
10
58.2151071919563
20
3.71246100305754
30
0
41
1
10
58.0935454364591
20
3.73587957146478
30
0
41
1
10
57.9113855362321
20
3.76389266990455
30
0
41
1
10
57.8506577191525
20
3.77204849170266
30
0
41
1
10
57.7294313960715
20
3.78593936974605
30
0
41
1
10
57.6689341219541
20
3.79167553232995
30
0
41
1
10
57.3668692854701
20
3.81427620428823
30
0
41
1
10
57.1265367161106
20
3.81290550861252
30
-1E-16
41
1
10
56.8857319351854
20
3.79205610002
30
0
0
SPLINE
5
1B8
100
AcDbEntity
8
1
62
256
6
ByLayer
370
18
48
1
60
0
100
AcDbSpline
70
4
71
3
72
41
73
37
40
0
40
0
40
0
40
0
40
0.0316403551025823
40
0.0631801280295107
40
0.0946192265446791
40
0.125957547956387
40
0.157194979684889
40
0.188331399816319
40
0.219366677643562
40
0.250300674596799
40
0.281133246598243
40
0.311864242838828
40
0.342493505385518
40
0.373020869666035
40
0.403446164942683
40
0.433769214773838
40
0.46398983746341
40
0.494107846498002
40
0.524123050972174
40
0.554035256001562
40
0.583844263124197
40
0.613549870689881
40
0.643151874237916
40
0.672650066862973
40
0.702044239594286
40
0.731334182207121
40
0.760519683475014
40
0.789600531010004
40
0.81857651155002
40
0.847447411255185
40
0.876213015994259
40
0.904873111621159
40
0.933427484242036
40
0.961875920472556
40
0.990218207685907
40
1
40
1
40
1
40
1
41
1
10
56.8857319351869
20
3.79205610002015
30
0
41
1
10
56.872830908338
20
3.79090299861286
30
0
41
1
10
56.8470698659797
20
3.78860046141611
30
0
41
1
10
56.8085048175607
20
3.7847248683108
30
0
41
1
10
56.7700737517072
20
3.7805519895505
30
0
41
1
10
56.7317777390648
20
3.77605513875494
30
0
41
1
10
56.6936164937222
20
3.77124646903397
30
0
41
1
10
56.6555900915002
20
3.76612776391553
30
-1E-16
41
1
10
56.6176985116902
20
3.76070355910741
30
0
41
1
10
56.5799417579032
20
3.75497764363402
30
1E-16
41
1
10
56.5423198297884
20
3.74895398572414
30
1E-16
41
1
10
56.5048327279099
20
3.74263649036206
30
-1E-16
41
1
10
56.4674804518538
20
3.73602906646968
30
-1E-16
41
1
10
56.4302630013786
20
3.72913560875958
30
-1E-16
41
1
10
56.3931803762059
20
3.72196000226469
30
-1E-16
41
1
10
56.3562325760761
20
3.71450612081208
30
0
41
1
10
56.3194196007338
20
3.70677782711641
30
0
41
1
10
56.2827414499312
20
3.69877897244652
30
0
41
1
10
56.2461981234276
20
3.69051339641106
30
0
41
1
10
56.2097896209892
20
3.68198492671561
30
0
41
1
10
56.1735159423886
20
3.67319737893902
30
1E-16
41
1
10
56.1373770874082
20
3.66415455628439
30
1E-16
41
1
10
56.1013730558256
20
3.65486024943385
30
1E-16
41
1
10
56.0655038474587
20
3.64531823603596
30
-1E-16
41
1
10
56.0297694617596
20
3.63553228151102
30
-1E-16
41
1
10
55.9941698985925
20
3.62550613385253
30
-1E-16
41
1
10
55.9587051581122
20
3.6152435246789
30
0
41
1
10
55.9233752401151
20
3.60474817364587
30
0
41
1
10
55.8881801444372
20
3.59402378719949
30
0
41
1
10
55.8531198709094
20
3.58307405857826
30
0
41
1
10
55.8181944193698
20
3.57190266755401
30
1E-16
41
1
10
55.7834037896653
20
3.56051327994507
30
1E-16
41
1
10
55.7487479816344
20
3.54890954832175
30
-1E-16
41
1
10
55.7142269951721
20
3.53709510822441
30
-1E-16
41
1
10
55.6873039831147
20
3.52768273411132
30
0
41
1
10
55.6718877360074
20
3.52221715405079
30
0
41
1
10
55.6679323833594
20
3.52080984969808
30
0
0
SPLINE
5
1B9
100
AcDbEntity
8
1
62
256
6
ByLayer
370
18
48
1
60
0
100
AcDbSpline
70
4
71
3
72
11
73
7
40
0
40
0
40
0
40
0
40
0.248942063669759
40
0.688372528188961
40
0.931303013602944
40
1
40
1
40
1
40
1
41
1
10
47.9573000008118
20
-3.5860900596652
30
0
41
1
10
48.073487973689
20
-3.61064087894752
30
0
41
1
10
48.390575038475
20
-3.66688020963329
30
0
41
1
10
48.807425210397
20
-3.70044380399565
30
0
41
1
10
49.1387285982315
20
-3.69453964454687
30
0
41
1
10
49.2754763058337
20
-3.6859645698303
30
0
41
1
10
49.3055898303993
20
-3.68377741108654
30
0
0
SPLINE
5
1BA
100
AcDbEntity
8
1
62
256
6
ByLayer
370
18
48
1
60
0
100
AcDbSpline
70
4
71
3
72
8
73
4
40
0
40
0
40
0
40
0
40
1
40
1
40
1
40
1
41
1
10
48.8344758242839
20
-3.69362619930735
30
0
41
1
10
48.844115395989
20
-3.69391619463659
30
0
41
1
10
48.8537541732596
20
-3.69417579342203
30
0
41
1
10
48.8633922922466
20
-3.69440494078466
30
0
0
SPLINE
5
1BB
100
AcDbEntity
8
1
62
256
6
ByLayer
370
18
48
1
60
0
100
AcDbSpline
70
4
71
2
72
6
73
3
40
0
40
0
40
0
40
1
40
1
40
1
41
1
10
59.5509031927356
20
-3.29605073280374
30
0
41
1
10
59.6143004919938
20
-3.23267370757341
30
0
41
1
10
59.6776977912521
20
-3.16929668234309
30
1E-16
0
SPLINE
5
1BC
100
AcDbEntity
8
1
62
256
6
ByLayer
370
18
48
1
60
0
100
AcDbSpline
70
4
71
2
72
6
73
3
40
0
40
0
40
0
40
1
40
1
40
1
41
1
10
59.6284358201029
20
3.23721583105998
30
0
41
1
10
59.5644223159167
20
3.29609367040018
30
0
41
1
10
59.5011687645654
20
3.35427274453249
30
0
0
SPLINE
5
1BD
100
AcDbEntity
8
1
62
256
6
ByLayer
370
18
48
1
60
0
100
AcDbSpline
70
4
71
2
72
6
73
3
40
0
40
0
40
0
40
1
40
1
40
1
41
1
10
59.9658957386471
20
0.416357261473706
30
-1E-16
41
1
10
59.9005038254202
20
0.707835456186217
30
1E-16
41
1
10
59.8351119121934
20
0.999313650898728
30
-1E-16
0
SPLINE
5
1BE
100
AcDbEntity
8
1
62
256
6
ByLayer
370
18
48
1
60
0
100
AcDbSpline
70
4
71
2
72
6
73
3
40
0
40
0
40
0
40
1
40
1
40
1
41
1
10
57.9582351333706
20
2.35853314407612
30
0
41
1
10
57.8667323765611
20
2.38224695889326
30
1E-16
41
1
10
57.775246755701
20
2.40910471868642
30
0
0
SPLINE
5
1BF
100
AcDbEntity
8
1
62
256
6
ByLayer
370
18
48
1
60
0
100
AcDbSpline
70
4
71
2
72
6
73
3
40
0
40
0
40
0
40
1
40
1
40
1
41
1
10
48.6606295903721
20
2.35633878409121
30
0
41
1
10
48.4105876948993
20
2.42329292350143
30
1E-16
41
1
10
48.248145008772
20
2.47894392936232
30
0
0
SPLINE
5
1C0
100
AcDbEntity
8
1
62
256
6
ByLayer
370
18
48
1
60
0
100
AcDbSpline
70
4
71
2
72
6
73
3
40
0
40
0
40
0
40
1
40
1
40
1
41
1
10
53.6234412946767
20
2.24465926582406
30
1E-16
41
1
10
53.5626763543372
20
2.26351020790159
30
0
41
1
10
53.4996233653681
20
2.28469291102738
30
0
0
SPLINE
5
1C1
100
AcDbEntity
8
1
62
256
6
ByLayer
370
18
48
1
60
0
100
AcDbSpline
70
4
71
1
72
4
73
2
40
0
40
0
40
1
40
1
41
1
10
59.3694888213482
20
-3.03372064778708
30
0
41
1
10
59.4519915105998
20
-3.03002335235087
30
0
0
SPLINE
5
1C2
100
AcDbEntity
8
1
62
256
6
ByLayer
370
18
48
1
60
0
100
AcDbSpline
70
4
71
2
72
6
73
3
40
0
40
0
40
0
40
1
40
1
40
1
41
1
10
59.4519915105997
20
-3.03002335235087
30
0
41
1
10
59.5758144272054
20
-3.02597841526179
30
0
41
1
10
59.6997353841589
20
-3.0158324628548
30
0
0
SPLINE
5
1C3
100
AcDbEntity
8
1
62
256
6
ByLayer
370
18
48
1
60
0
100
AcDbSpline
70
4
71
1
72
4
73
2
40
0
40
0
40
1
40
1
41
1
10
54.7189672231196
20
1.36809856128653
30
-1E-16
41
1
10
54.7189717896728
20
1.36808669739509
30
-1E-16
0
SPLINE
5
1C4
100
AcDbEntity
8
1
62
256
6
ByLayer
370
18
48
1
60
0
100
AcDbSpline
70
4
71
2
72
6
73
3
40
0
40
0
40
0
40
1
40
1
40
1
41
1
10
49.9877071369443
20
3.65092170660779
30
0
41
1
10
49.9917026747504
20
3.65034607155832
30
0
41
1
10
49.9957081183574
20
3.65036521755078
30
0
0
SPLINE
5
1C5
100
AcDbEntity
8
1
62
256
6
ByLayer
370
18
48
1
60
0
100
AcDbSpline
70
4
71
2
72
6
73
3
40
0
40
0
40
0
40
1
40
1
40
1
41
1
10
48.9695864346846
20
-2.24581142693558
30
-1E-16
41
1
10
48.9200591443913
20
-2.26132787310973
30
0
41
1
10
48.8718978471111
20
-2.2771953049984
30
0
0
SPLINE
5
1C6
100
AcDbEntity
8
1
62
256
6
ByLayer
370
18
48
1
60
0
100
AcDbSpline
70
4
71
2
72
6
73
3
40
0
40
0
40
0
40
1
40
1
40
1
41
1
10
49.918260169465
20
-3.64357917288263
30
0
41
1
10
49.914460242407
20
-3.64354253925228
30
0
41
1
10
49.9106700706915
20
-3.64406056394213
30
0
0
LINE
5
7D
100
AcDbEntity
8
80
62
256
6
ByLayer
370
18
48
1
60
0
100
AcDbLine
10
0
20
0
30
0
11
-3
21
0
31
0
39
0
210
0
220
0
230
1
0
LINE
5
7E
100
AcDbEntity
8
81
62
256
6
ByLayer
370
18
48
1
60
0
100
AcDbLine
10
60
20
0
30
0
11
63
21
0
31
0
39
0
210
0
220
0
230
1
0
LINE
5
7F
100
AcDbEntity
8
SK4
62
256
6
ByLayer
370
18
48
0.05
60
0
100
AcDbLine
10
-43
20
0
30
0
11
63
21
0
31
0
39
0
210
0
220
0
230
1
0
LINE
5
81
100
AcDbEntity
8
4
62
256
6
ByLayer
370
18
48
0.05
60
0
100
AcDbLine
10
0
20
0
30
0
11
63
21
0
31
0
39
0
210
0
220
0
230
1
0
LINE
5
83
100
AcDbEntity
8
81
62
256
6
ByLayer
370
18
48
1
60
0
100
AcDbLine
10
-40
20
3.598712
30
0
11
-40
21
2.608344
31
0
39
0
210
0
220
0
230
1
0
LINE
5
84
100
AcDbEntity
8
81
62
256
6
ByLayer
370
18
48
1
60
0
100
AcDbLine
10
46.31756
20
0
30
0
11
47.165046
21
0
31
0
39
0
210
0
220
0
230
1
0
LINE
5
85
100
AcDbEntity
8
81
62
256
6
ByLayer
370
18
48
1
60
0
100
AcDbLine
10
-40
20
3.50806
30
0
11
-40
21
3.6
31
0
39
0
210
0
220
0
230
1
0
LINE
5
86
100
AcDbEntity
8
81
62
256
6
ByLayer
370
18
48
1
60
0
100
AcDbLine
10
-40
20
-12.108854
30
0
11
-40
21
-12.334954
31
0
39
0
210
0
220
0
230
1
0
LINE
5
87
100
AcDbEntity
8
81
62
256
6
ByLayer
370
18
48
1
60
0
100
AcDbLine
10
-40
20
-0.861538
30
0
11
-40
21
0
31
0
39
0
210
0
220
0
230
1
0
LINE
5
88
100
AcDbEntity
8
81
62
256
6
ByLayer
370
18
48
1
60
0
100
AcDbLine
10
47.665046
20
0
30
0
11
47.891146
21
0
31
0
39
0
210
0
220
0
230
1
0
LINE
5
89
100
AcDbEntity
8
81
62
256
6
ByLayer
370
18
48
1
60
0
100
AcDbLine
10
-40
20
3.598712
30
0
11
-40
21
3.984
31
0
39
0
210
0
220
0
230
1
0
LINE
5
8A
100
AcDbEntity
8
81
62
256
6
ByLayer
370
18
48
1
60
0
100
AcDbLine
10
-40
20
-0.000343
30
0
11
-40
21
-0.067959
31
0
39
0
210
0
220
0
230
1
0
LINE
5
8B
100
AcDbEntity
8
81
62
256
6
ByLayer
370
18
48
1
60
0
100
AcDbLine
10
-40
20
-12.834954
30
0
11
-40
21
-13.68244
31
0
39
0
210
0
220
0
230
1
0
LINE
5
8C
100
AcDbEntity
8
81
62
256
6
ByLayer
370
18
48
1
60
0
100
AcDbLine
10
47.891146
20
0
30
0
11
47.916395
21
0
31
0
39
0
210
0
220
0
230
1
0
LINE
5
8D
100
AcDbEntity
8
81
62
256
6
ByLayer
370
18
48
1
60
0
100
AcDbLine
10
-40
20
-6.400006
30
0
11
-40
21
-0.861538
31
0
39
0
210
0
220
0
230
1
0
LINE
5
8E
100
AcDbEntity
8
81
62
256
6
ByLayer
370
18
48
1
60
0
100
AcDbLine
10
60
20
0
30
0
11
59.138462
21
0
31
0
39
0
210
0
220
0
230
1
0
LINE
5
8F
100
AcDbEntity
8
81
62
256
6
ByLayer
370
18
48
1
60
0
100
AcDbLine
10
-40
20
3.57815
30
0
11
-40
21
3.564663
31
0
39
0
210
0
220
0
230
1
0
LINE
5
90
100
AcDbEntity
8
81
62
256
6
ByLayer
370
18
48
1
60
0
100
AcDbLine
10
59.999657
20
0
30
0
11
59.932041
21
0
31
0
39
0
210
0
220
0
230
1
0
LINE
5
91
100
AcDbEntity
8
81
62
256
6
ByLayer
370
18
48
1
60
0
100
AcDbLine
10
53.599994
20
0
30
0
11
47.916395
21
0
31
0
39
0
210
0
220
0
230
1
0
LINE
5
92
100
AcDbEntity
8
81
62
256
6
ByLayer
370
18
48
1
60
0
100
AcDbLine
10
-40
20
3.984
30
0
11
-40
21
3.57815
31
0
39
0
210
0
220
0
230
1
0
LINE
5
93
100
AcDbEntity
8
81
62
256
6
ByLayer
370
18
48
1
60
0
100
AcDbLine
10
47.165046
20
0
30
0
11
47.665046
21
0
31
0
39
0
210
0
220
0
230
1
0
LINE
5
94
100
AcDbEntity
8
81
62
256
6
ByLayer
370
13
48
1
60
0
100
AcDbLine
10
60
20
0
30
0
11
59.138462
21
0
31
0
39
0
210
0
220
0
230
1
0
LINE
5
95
100
AcDbEntity
8
81
62
256
6
ByLayer
370
18
48
1
60
0
100
AcDbLine
10
-40
20
-12.083605
30
0
11
-40
21
-12.108854
31
0
39
0
210
0
220
0
230
1
0
LINE
5
96
100
AcDbEntity
8
81
62
256
6
ByLayer
370
18
48
1
60
0
100
AcDbLine
10
-40
20
-6.400006
30
0
11
-40
21
-12.083605
31
0
39
0
210
0
220
0
230
1
0
LINE
5
97
100
AcDbEntity
8
81
62
256
6
ByLayer
370
18
48
1
60
0
100
AcDbLine
10
-40
20
-12.334954
30
0
11
-40
21
-12.834954
31
0
39
0
210
0
220
0
230
1
0
LINE
5
98
100
AcDbEntity
8
81
62
256
6
ByLayer
370
18
48
1
60
0
100
AcDbLine
10
59.138462
20
0
30
0
11
53.599994
21
0
31
0
39
0
210
0
220
0
230
1
0
LINE
5
99
100
AcDbEntity
8
81
62
256
6
ByLayer
370
18
48
1
60
0
100
AcDbLine
10
-40
20
3.564663
30
0
11
-40
21
3.50806
31
0
39
0
210
0
220
0
230
1
0
LINE
5
9A
100
AcDbEntity
8
81
62
256
6
ByLayer
370
18
48
1
60
0
100
AcDbLine
10
-40
20
2.608344
30
0
11
-40
21
0
31
0
39
0
210
0
220
0
230
1
0
LINE
5
9B
100
AcDbEntity
8
1
62
256
6
ByLayer
370
18
48
1
60
0
100
AcDbLine
10
0
20
-4.99922
30
0
11
0
21
4.99922
31
0
39
0
210
0
220
0
230
1
0
LINE
5
9C
100
AcDbEntity
8
1
62
256
6
ByLayer
370
18
48
1
60
0
100
AcDbLine
10
59.83125
20
-0.858279
30
0
11
59.90695
21
-0.425564
31
0
39
0
210
0
220
0
230
1
0
LINE
5
9D
100
AcDbEntity
8
1
62
256
6
ByLayer
370
18
48
1
60
0
100
AcDbLine
10
59.85217
20
-2.564837
30
0
11
59.847237
21
-2.391571
31
0
39
0
210
0
220
0
230
1
0
LINE
5
9E
100
AcDbEntity
8
1
62
256
6
ByLayer
370
18
48
1
60
0
100
AcDbLine
10
59.806463
20
1.081034
30
0
11
59.926011
21
1.171702
31
0
39
0
210
0
220
0
230
1
0
LINE
5
9F
100
AcDbEntity
8
1
62
256
6
ByLayer
370
18
48
1
60
0
100
AcDbLine
10
59.85217
20
-1.592932
30
0
11
59.830264
21
-0.932533
31
0
39
0
210
0
220
0
230
1
0
LINE
5
A0
100
AcDbEntity
8
1
62
256
6
ByLayer
370
18
48
1
60
0
100
AcDbLine
10
59.544316
20
-0.850828
30
0
11
59.830264
21
-0.932533
31
0
39
0
210
0
220
0
230
1
0
LINE
5
A1
100
AcDbEntity
8
1
62
256
6
ByLayer
370
18
48
1
60
0
100
AcDbLine
10
59.830264
20
-0.932533
30
0
11
59.90695
21
-0.930411
31
0
39
0
210
0
220
0
230
1
0
LINE
5
A2
100
AcDbEntity
8
1
62
256
6
ByLayer
370
18
48
1
60
0
100
AcDbLine
10
47.9573
20
0.520842
30
0
11
47.9573
21
0.642835
31
0
39
0
210
0
220
0
230
1
0
LINE
5
A3
100
AcDbEntity
8
1
62
256
6
ByLayer
370
18
48
1
60
0
100
AcDbLine
10
47.9573
20
-2.936543
30
0
11
47.9573
21
-3.239083
31
0
39
0
210
0
220
0
230
1
0
LINE
5
A4
100
AcDbEntity
8
1
62
256
6
ByLayer
370
18
48
1
60
0
100
AcDbLine
10
47.9573
20
-2.936543
30
0
11
47.9573
21
-2.747149
31
0
39
0
210
0
220
0
230
1
0
LINE
5
A5
100
AcDbEntity
8
1
62
256
6
ByLayer
370
18
48
1
60
0
100
AcDbLine
10
47.9573
20
0.100567
30
0
11
47.9573
21
0.520842
31
0
39
0
210
0
220
0
230
1
0
LINE
5
A6
100
AcDbEntity
8
1
62
256
6
ByLayer
370
18
48
1
60
0
100
AcDbLine
10
47.9573
20
-2.747149
30
0
11
47.9573
21
-2.501313
31
0
39
0
210
0
220
0
230
1
0
LINE
5
A7
100
AcDbEntity
8
1
62
256
6
ByLayer
370
18
48
1
60
0
100
AcDbLine
10
47.9573
20
-0.202281
30
0
11
47.9573
21
0.100567
31
0
39
0
210
0
220
0
230
1
0
LINE
5
A8
100
AcDbEntity
8
1
62
256
6
ByLayer
370
18
48
1
60
0
100
AcDbLine
10
45.322642
20
1.890899
30
0
11
47.9573
21
0.100567
31
0
39
0
210
0
220
0
230
1
0
LINE
5
A9
100
AcDbEntity
8
1
62
256
6
ByLayer
370
18
48
1
60
0
100
AcDbLine
10
47.9573
20
-0.394792
30
0
11
47.9573
21
-0.202281
31
0
39
0
210
0
220
0
230
1
0
LINE
5
AA
100
AcDbEntity
8
1
62
256
6
ByLayer
370
18
48
1
60
0
100
AcDbLine
10
45.32475
20
-1.73823
30
0
11
47.9573
21
-2.501313
31
0
39
0
210
0
220
0
230
1
0
LINE
5
AB
100
AcDbEntity
8
1
62
256
6
ByLayer
370
18
48
1
60
0
100
AcDbLine
10
47.9573
20
-2.501313
30
0
11
47.9573
21
-1.925189
31
0
39
0
210
0
220
0
230
1
0
LINE
5
AC
100
AcDbEntity
8
1
62
256
6
ByLayer
370
18
48
1
60
0
100
AcDbLine
10
47.9573
20
-1.925189
30
0
11
47.9573
21
-1.828359
31
0
39
0
210
0
220
0
230
1
0
LINE
5
AD
100
AcDbEntity
8
1
62
256
6
ByLayer
370
18
48
1
60
0
100
AcDbLine
10
47.9573
20
-1.40137
30
0
11
47.9573
21
-1.828359
31
0
39
0
210
0
220
0
230
1
0
LINE
5
AE
100
AcDbEntity
8
1
62
256
6
ByLayer
370
18
48
1
60
0
100
AcDbLine
10
47.9573
20
2.609213
30
0
11
47.9573
21
3.580099
31
0
39
0
210
0
220
0
230
1
0
LINE
5
AF
100
AcDbEntity
8
1
62
256
6
ByLayer
370
18
48
1
60
0
100
AcDbLine
10
47.9573
20
0.642835
30
0
11
47.9573
21
2.065645
31
0
39
0
210
0
220
0
230
1
0
LINE
5
B0
100
AcDbEntity
8
1
62
256
6
ByLayer
370
18
48
1
60
0
100
AcDbLine
10
47.9573
20
-0.394792
30
0
11
47.9573
21
-0.559012
31
0
39
0
210
0
220
0
230
1
0
LINE
5
B1
100
AcDbEntity
8
1
62
256
6
ByLayer
370
18
48
1
60
0
100
AcDbLine
10
59.936388
20
0.224474
30
0
11
59.973883
21
0.393857
31
0
39
0
210
0
220
0
230
1
0
LINE
5
B2
100
AcDbEntity
8
1
62
256
6
ByLayer
370
18
48
1
60
0
100
AcDbLine
10
59.52639
20
0.195686
30
0
11
59.936388
21
0.224474
31
0
39
0
210
0
220
0
230
1
0
LINE
5
B3
100
AcDbEntity
8
1
62
256
6
ByLayer
370
18
48
1
60
0
100
AcDbLine
10
59.926011
20
-0.921849
30
0
11
59.517585
21
-0.647884
31
0
39
0
210
0
220
0
230
1
0
LINE
5
B4
100
AcDbEntity
8
1
62
256
6
ByLayer
370
18
48
1
60
0
100
AcDbLine
10
59.938137
20
-0.94827
30
0
11
59.973883
21
-2.020408
31
0
39
0
210
0
220
0
230
1
0
LINE
5
B5
100
AcDbEntity
8
1
62
256
6
ByLayer
370
18
48
1
60
0
100
AcDbLine
10
59.938137
20
1.202357
30
0
11
59.973883
21
2.459472
31
0
39
0
210
0
220
0
230
1
0
LINE
5
B6
100
AcDbEntity
8
1
62
256
6
ByLayer
370
18
48
1
60
0
100
AcDbLine
10
45.32475
20
3.599301
30
0
11
45.547447
21
3.512723
31
0
39
0
210
0
220
0
230
1
0
LINE
5
B7
100
AcDbEntity
8
1
62
256
6
ByLayer
370
18
48
1
60
0
100
AcDbLine
10
59.963536
20
-2.08192
30
0
11
59.973883
21
-2.443163
31
0
39
0
210
0
220
0
230
1
0
LINE
5
B8
100
AcDbEntity
8
1
62
256
6
ByLayer
370
18
48
1
60
0
100
AcDbLine
10
45.322642
20
-3.598443
30
0
11
45.603727
21
-3.491924
31
0
39
0
210
0
220
0
230
1
0
LINE
5
B9
100
AcDbEntity
8
1
62
256
6
ByLayer
370
18
48
1
60
0
100
AcDbLine
10
59.936388
20
0.909614
30
0
11
59.973883
21
2.049306
31
0
39
0
210
0
220
0
230
1
0
LINE
5
BA
100
AcDbEntity
8
1
62
256
6
ByLayer
370
18
48
1
60
0
100
AcDbLine
10
59.868245
20
0.864704
30
0
11
59.936388
21
0.909614
31
0
39
0
210
0
220
0
230
1
0
LINE
5
BB
100
AcDbEntity
8
1
62
256
6
ByLayer
370
18
48
1
60
0
100
AcDbLine
10
59.517585
20
-0.214056
30
0
11
59.926011
21
-0.249852
31
0
39
0
210
0
220
0
230
1
0
LINE
5
BC
100
AcDbEntity
8
1
62
256
6
ByLayer
370
18
48
1
60
0
100
AcDbLine
10
59.938137
20
-0.254088
30
0
11
59.973883
21
-0.439064
31
0
39
0
210
0
220
0
230
1
0
LINE
5
BD
100
AcDbEntity
8
SK1
62
256
6
ByLayer
370
18
48
1
60
0
100
AcDbLine
10
0
20
-4.99922
30
0
11
0
21
4.99922
31
0
39
0
210
0
220
0
230
1
0
LINE
5
BF
100
AcDbEntity
8
SK1
62
256
6
ByLayer
370
18
48
1
60
0
100
AcDbLine
10
-40
20
4.4
30
0
11
-40
21
-4.4
31
0
39
0
210
0
220
0
230
1
0
LINE
5
C0
100
AcDbEntity
8
SK1
62
256
6
ByLayer
370
18
48
1
60
0
100
AcDbLine
10
-39.4
20
5
30
0
11
-39.4
21
-5
31
0
39
0
210
0
220
0
230
1
0
LINE
5
C1
100
AcDbEntity
8
SK1
62
256
6
ByLayer
370
18
48
1
60
0
100
AcDbLine
10
-0.020063
20
-5
30
0
11
-0.020063
21
5
31
0
39
0
210
0
220
0
230
1
0
LINE
5
C2
100
AcDbEntity
8
1
62
256
6
ByLayer
370
18
48
1
60
0
100
AcDbLine
10
35.960514
20
3.600755
30
0
11
0
21
4.99922
31
0
39
0
210
0
220
0
230
1
0
LINE
5
C3
100
AcDbEntity
8
1
62
256
6
ByLayer
370
18
48
1
60
0
100
AcDbLine
10
0
20
-4.99922
30
0
11
35.960514
21
-3.600755
31
0
39
0
210
0
220
0
230
1
0
LINE
5
C4
100
AcDbEntity
8
1
62
256
6
ByLayer
370
18
48
1
60
0
100
AcDbLine
10
45.310862
20
3.6
30
0
11
35.999374
21
3.6
31
0
39
0
210
0
220
0
230
1
0
LINE
5
C5
100
AcDbEntity
8
1
62
256
6
ByLayer
370
18
48
1
60
0
100
AcDbLine
10
35.999374
20
-3.6
30
0
11
45.275986
21
-3.6
31
0
39
0
210
0
220
0
230
1
0
LINE
5
C6
100
AcDbEntity
8
SK1
62
256
6
ByLayer
370
18
48
1
60
0
100
AcDbLine
10
0
20
4.99922
30
0
11
-0.020063
21
5
31
0
39
0
210
0
220
0
230
1
0
LINE
5
C7
100
AcDbEntity
8
SK1
62
256
6
ByLayer
370
18
48
1
60
0
100
AcDbLine
10
-0.020063
20
-5
30
0
11
0
21
-4.99922
31
0
39
0
210
0
220
0
230
1
0
LINE
5
C8
100
AcDbEntity
8
SK1
62
256
6
ByLayer
370
18
48
1
60
0
100
AcDbLine
10
-40
20
-4.4
30
0
11
-39.4
21
-5
31
0
39
0
210
0
220
0
230
1
0
LINE
5
C9
100
AcDbEntity
8
SK1
62
256
6
ByLayer
370
18
48
1
60
0
100
AcDbLine
10
-39.4
20
5
30
0
11
-40
21
4.4
31
0
39
0
210
0
220
0
230
1
0
LINE
5
CA
100
AcDbEntity
8
SK1
62
256
6
ByLayer
370
18
48
1
60
0
100
AcDbLine
10
-0.020063
20
5
30
0
11
-39.4
21
5
31
0
39
0
210
0
220
0
230
1
0
LINE
5
CB
100
AcDbEntity
8
SK1
62
256
6
ByLayer
370
18
48
1
60
0
100
AcDbLine
10
-39.4
20
-5
30
0
11
-0.020063
21
-5
31
0
39
0
210
0
220
0
230
1
0
LINE
5
CC
100
AcDbEntity
8
SK2
62
256
6
ByLayer
370
13
48
1
60
0
100
AcDbLine
10
-46.5
20
-5
30
0
11
-46.5
21
25.625256
31
0
39
0
210
0
220
0
230
1
0
LINE
5
CE
100
AcDbEntity
8
SK2
62
256
6
ByLayer
370
13
48
1
60
0
100
AcDbLine
10
-41.5875
20
-5
30
0
11
-48.5
21
-5
31
0
39
0
210
0
220
0
230
1
0
LINE
5
CF
100
AcDbEntity
8
SK2
62
256
6
ByLayer
370
13
48
1
60
0
100
AcDbLine
10
-41.5875
20
5
30
0
11
-48.5
21
5
31
0
39
0
210
0
220
0
230
1
0
LINE
5
D0
100
AcDbEntity
8
1
62
256
6
ByLayer
370
18
48
1
60
1
100
AcDbLine
10
-46.5
20
-5
30
0
11
-46.960784
21
-1.500002
31
0
39
0
210
0
220
0
230
1
0
LINE
5
D1
100
AcDbEntity
8
1
62
256
6
ByLayer
370
18
48
1
60
1
100
AcDbLine
10
-46.960784
20
-1.500002
30
0
11
-46.039216
21
-1.499998
31
0
39
0
210
0
220
0
230
1
0
LINE
5
D2
100
AcDbEntity
8
1
62
256
6
ByLayer
370
18
48
1
60
1
100
AcDbLine
10
-46.039216
20
-1.499998
30
0
11
-46.5
21
-5
31
0
39
0
210
0
220
0
230
1
0
LINE
5
D3
100
AcDbEntity
8
1
62
256
6
ByLayer
370
18
48
1
60
1
100
AcDbLine
10
-46.5
20
5
30
0
11
-46.039216
21
1.500002
31
0
39
0
210
0
220
0
230
1
0
LINE
5
D4
100
AcDbEntity
8
1
62
256
6
ByLayer
370
18
48
1
60
1
100
AcDbLine
10
-46.039216
20
1.500002
30
0
11
-46.960784
21
1.499998
31
0
39
0
210
0
220
0
230
1
0
LINE
5
D5
100
AcDbEntity
8
1
62
256
6
ByLayer
370
18
48
1
60
1
100
AcDbLine
10
-46.960784
20
1.499998
30
0
11
-46.5
21
5
31
0
39
0
210
0
220
0
230
1
0
LINE
5
D6
100
AcDbEntity
8
SK2
62
256
6
ByLayer
370
13
48
1
60
0
100
AcDbLine
10
40.5
20
3.6
30
0
11
40.5
21
-33.6
31
0
39
0
210
0
220
0
230
1
0
LINE
5
D7
100
AcDbEntity
8
SK2
62
256
6
ByLayer
370
13
48
1
60
0
100
AcDbLine
10
37.5875
20
-3.6
30
0
11
42.5
21
-3.6
31
0
39
0
210
0
220
0
230
1
0
LINE
5
D8
100
AcDbEntity
8
SK2
62
256
6
ByLayer
370
13
48
1
60
0
100
AcDbLine
10
37.5875
20
3.6
30
0
11
42.5
21
3.6
31
0
39
0
210
0
220
0
230
1
0
LINE
5
D9
100
AcDbEntity
8
1
62
256
6
ByLayer
370
18
48
1
60
1
100
AcDbLine
10
40.5
20
-3.6
30
0
11
40.039216
21
-0.100002
31
0
39
0
210
0
220
0
230
1
0
LINE
5
DA
100
AcDbEntity
8
1
62
256
6
ByLayer
370
18
48
1
60
1
100
AcDbLine
10
40.039216
20
-0.100002
30
0
11
40.960784
21
-0.099998
31
0
39
0
210
0
220
0
230
1
0
LINE
5
DB
100
AcDbEntity
8
1
62
256
6
ByLayer
370
18
48
1
60
1
100
AcDbLine
10
40.960784
20
-0.099998
30
0
11
40.5
21
-3.6
31
0
39
0
210
0
220
0
230
1
0
LINE
5
DC
100
AcDbEntity
8
1
62
256
6
ByLayer
370
18
48
1
60
1
100
AcDbLine
10
40.5
20
3.6
30
0
11
40.960784
21
0.100002
31
0
39
0
210
0
220
0
230
1
0
LINE
5
DD
100
AcDbEntity
8
1
62
256
6
ByLayer
370
18
48
1
60
1
100
AcDbLine
10
40.960784
20
0.100002
30
0
11
40.039216
21
0.099998
31
0
39
0
210
0
220
0
230
1
0
LINE
5
DE
100
AcDbEntity
8
1
62
256
6
ByLayer
370
18
48
1
60
1
100
AcDbLine
10
40.039216
20
0.099998
30
0
11
40.5
21
3.6
31
0
39
0
210
0
220
0
230
1
0
LINE
5
DF
100
AcDbEntity
8
2
62
256
6
ByLayer
370
13
48
1
60
0
100
AcDbLine
10
96.5
20
-4
30
0
11
96.5
21
32.625256
31
0
39
0
210
0
220
0
230
1
0
LINE
5
E1
100
AcDbEntity
8
2
62
256
6
ByLayer
370
13
48
1
60
0
100
AcDbLine
10
61.5875
20
-4
30
0
11
98.5
21
-4
31
0
39
0
210
0
220
0
230
1
0
LINE
5
E2
100
AcDbEntity
8
2
62
256
6
ByLayer
370
13
48
1
60
0
100
AcDbLine
10
61.5875
20
3.48468
30
0
11
98.5
21
3.48468
31
0
39
0
210
0
220
0
230
1
0
LINE
5
E3
100
AcDbEntity
8
1
62
256
6
ByLayer
370
18
48
1
60
1
100
AcDbLine
10
96.5
20
-4
30
0
11
96.039216
21
-0.500002
31
0
39
0
210
0
220
0
230
1
0
LINE
5
E4
100
AcDbEntity
8
1
62
256
6
ByLayer
370
18
48
1
60
1
100
AcDbLine
10
96.039216
20
-0.500002
30
0
11
96.960784
21
-0.499998
31
0
39
0
210
0
220
0
230
1
0
LINE
5
E5
100
AcDbEntity
8
1
62
256
6
ByLayer
370
18
48
1
60
1
100
AcDbLine
10
96.960784
20
-0.499998
30
0
11
96.5
21
-4
31
0
39
0
210
0
220
0
230
1
0
LINE
5
E6
100
AcDbEntity
8
1
62
256
6
ByLayer
370
18
48
1
60
1
100
AcDbLine
10
96.5
20
3.48468
30
0
11
96.960784
21
-0.015319
31
0
39
0
210
0
220
0
230
1
0
LINE
5
E7
100
AcDbEntity
8
1
62
256
6
ByLayer
370
18
48
1
60
1
100
AcDbLine
10
96.960784
20
-0.015319
30
0
11
96.039216
21
-0.015322
31
0
39
0
210
0
220
0
230
1
0
LINE
5
E8
100
AcDbEntity
8
1
62
256
6
ByLayer
370
18
48
1
60
1
100
AcDbLine
10
96.039216
20
-0.015322
30
0
11
96.5
21
3.48468
31
0
39
0
210
0
220
0
230
1
0
LINE
5
E9
100
AcDbEntity
8
SK2
62
256
6
ByLayer
370
13
48
1
60
0
100
AcDbLine
10
-1.606366
20
5.061655
30
0
11
-14.800123
21
5.57446
31
0
39
0
210
0
220
0
230
1
0
LINE
5
EA
100
AcDbEntity
8
SK2
62
256
6
ByLayer
370
13
48
1
60
0
100
AcDbLine
10
-38.4125
20
0
30
0
11
-10.908414
21
0
31
0
39
0
210
0
220
0
230
1
0
LINE
5
EB
100
AcDbEntity
8
1
62
256
6
ByLayer
370
18
48
1
60
1
100
AcDbLine
10
-12.801632
20
5.496784
30
0
11
-13.104398
21
9.013977
31
0
39
0
210
0
220
0
230
1
0
LINE
5
EC
100
AcDbEntity
8
1
62
256
6
ByLayer
370
18
48
1
60
1
100
AcDbLine
10
-13.104398
20
9.013977
30
0
11
-12.183764
21
8.972496
31
0
39
0
210
0
220
0
230
1
0
LINE
5
ED
100
AcDbEntity
8
1
62
256
6
ByLayer
370
18
48
1
60
1
100
AcDbLine
10
-12.183764
20
8.972496
30
0
11
-12.801632
21
5.496784
31
0
39
0
210
0
220
0
230
1
0
LINE
5
EE
100
AcDbEntity
8
1
62
256
6
ByLayer
370
18
48
1
60
1
100
AcDbLine
10
-12.908414
20
0
30
0
11
-12.426002
21
-3.497083
31
0
39
0
210
0
220
0
230
1
0
LINE
5
EF
100
AcDbEntity
8
1
62
256
6
ByLayer
370
18
48
1
60
1
100
AcDbLine
10
-12.426002
20
-3.497083
30
0
11
-13.347552
21
-3.502783
31
0
39
0
210
0
220
0
230
1
0
LINE
5
F0
100
AcDbEntity
8
1
62
256
6
ByLayer
370
18
48
1
60
1
100
AcDbLine
10
-13.347552
20
-3.502783
30
0
11
-12.908414
21
0
31
0
39
0
210
0
220
0
230
1
0
LINE
5
F1
100
AcDbEntity
8
SK2
62
256
6
ByLayer
370
13
48
1
60
0
100
AcDbLine
10
59.907099
20
3.045262
30
0
11
77.738583
21
11.319551
31
0
39
0
210
0
220
0
230
1
0
LINE
5
F2
100
AcDbEntity
8
1
62
256
6
ByLayer
370
18
48
1
60
1
100
AcDbLine
10
59.907099
20
3.045262
30
0
11
62.88799
21
4.936451
31
0
39
0
210
0
220
0
230
1
0
LINE
5
F3
100
AcDbEntity
8
1
62
256
6
ByLayer
370
18
48
1
60
1
100
AcDbLine
10
62.88799
20
4.936451
30
0
11
63.275898
21
4.1005
31
0
39
0
210
0
220
0
230
1
0
LINE
5
F4
100
AcDbEntity
8
1
62
256
6
ByLayer
370
18
48
1
60
1
100
AcDbLine
10
63.275898
20
4.1005
30
0
11
59.907099
21
3.045262
31
0
39
0
210
0
220
0
230
1
0
LINE
5
F5
100
AcDbEntity
8
SK2
62
256
6
ByLayer
370
13
48
1
60
0
100
AcDbLine
10
59.267745
20
3.596422
30
0
11
61.971372
21
22.48468
31
0
39
0
210
0
220
0
230
1
0
LINE
5
F6
100
AcDbEntity
8
SK2
62
256
6
ByLayer
370
13
48
1
60
0
100
AcDbLine
10
61.971372
20
22.48468
30
0
11
68.971372
21
22.48468
31
0
39
0
210
0
220
0
230
1
0
LINE
5
F7
100
AcDbEntity
8
SK2
62
256
6
ByLayer
370
13
48
1
60
0
100
AcDbLine
10
-205.736015
20
69.258774
30
0
11
-205.636085
21
69.258774
31
0
39
0
210
0
220
0
230
1
0
LINE
5
F8
100
AcDbEntity
8
1
62
256
6
ByLayer
370
18
48
1
60
1
100
AcDbLine
10
59.267745
20
3.596422
30
0
11
59.307539
21
7.126397
31
0
39
0
210
0
220
0
230
1
0
LINE
5
F9
100
AcDbEntity
8
1
62
256
6
ByLayer
370
18
48
1
60
1
100
AcDbLine
10
59.307539
20
7.126397
30
0
11
60.219808
21
6.99582
31
0
39
0
210
0
220
0
230
1
0
LINE
5
FA
100
AcDbEntity
8
1
62
256
6
ByLayer
370
18
48
1
60
1
100
AcDbLine
10
60.219808
20
6.99582
30
0
11
59.267745
21
3.596422
31
0
39
0
210
0
220
0
230
1
0
LINE
5
1CB
100
AcDbEntity
8
1
62
256
6
ByLayer
370
18
48
1
60
1
100
AcDbLine
10
-46.5
20
-5
30
0
11
-46.960784
21
-1.500002
31
0
39
0
210
0
220
0
230
1
0
LINE
5
1CC
100
AcDbEntity
8
1
62
256
6
ByLayer
370
18
48
1
60
1
100
AcDbLine
10
-46.960784
20
-1.500002
30
0
11
-46.039216
21
-1.499998
31
0
39
0
210
0
220
0
230
1
0
LINE
5
1CD
100
AcDbEntity
8
1
62
256
6
ByLayer
370
18
48
1
60
1
100
AcDbLine
10
-46.039216
20
-1.499998
30
0
11
-46.5
21
-5
31
0
39
0
210
0
220
0
230
1
0
LINE
5
1CF
100
AcDbEntity
8
1
62
256
6
ByLayer
370
18
48
1
60
1
100
AcDbLine
10
-46.5
20
5
30
0
11
-46.039216
21
1.500002
31
0
39
0
210
0
220
0
230
1
0
LINE
5
1D0
100
AcDbEntity
8
1
62
256
6
ByLayer
370
18
48
1
60
1
100
AcDbLine
10
-46.039216
20
1.500002
30
0
11
-46.960784
21
1.499998
31
0
39
0
210
0
220
0
230
1
0
LINE
5
1D1
100
AcDbEntity
8
1
62
256
6
ByLayer
370
18
48
1
60
1
100
AcDbLine
10
-46.960784
20
1.499998
30
0
11
-46.5
21
5
31
0
39
0
210
0
220
0
230
1
0
LINE
5
1D5
100
AcDbEntity
8
1
62
256
6
ByLayer
370
18
48
1
60
1
100
AcDbLine
10
40.5
20
-3.6
30
0
11
40.039216
21
-0.100002
31
0
39
0
210
0
220
0
230
1
0
LINE
5
1D6
100
AcDbEntity
8
1
62
256
6
ByLayer
370
18
48
1
60
1
100
AcDbLine
10
40.039216
20
-0.100002
30
0
11
40.960784
21
-0.099998
31
0
39
0
210
0
220
0
230
1
0
LINE
5
1D7
100
AcDbEntity
8
1
62
256
6
ByLayer
370
18
48
1
60
1
100
AcDbLine
10
40.960784
20
-0.099998
30
0
11
40.5
21
-3.6
31
0
39
0
210
0
220
0
230
1
0
LINE
5
1D9
100
AcDbEntity
8
1
62
256
6
ByLayer
370
18
48
1
60
1
100
AcDbLine
10
40.5
20
3.6
30
0
11
40.960784
21
0.100002
31
0
39
0
210
0
220
0
230
1
0
LINE
5
1DA
100
AcDbEntity
8
1
62
256
6
ByLayer
370
18
48
1
60
1
100
AcDbLine
10
40.960784
20
0.100002
30
0
11
40.039216
21
0.099998
31
0
39
0
210
0
220
0
230
1
0
LINE
5
1DB
100
AcDbEntity
8
1
62
256
6
ByLayer
370
18
48
1
60
1
100
AcDbLine
10
40.039216
20
0.099998
30
0
11
40.5
21
3.6
31
0
39
0
210
0
220
0
230
1
0
LINE
5
1DF
100
AcDbEntity
8
1
62
256
6
ByLayer
370
18
48
1
60
1
100
AcDbLine
10
96.5
20
-4
30
0
11
96.039216
21
-0.500002
31
0
39
0
210
0
220
0
230
1
0
LINE
5
1E0
100
AcDbEntity
8
1
62
256
6
ByLayer
370
18
48
1
60
1
100
AcDbLine
10
96.039216
20
-0.500002
30
0
11
96.960784
21
-0.499998
31
0
39
0
210
0
220
0
230
1
0
LINE
5
1E1
100
AcDbEntity
8
1
62
256
6
ByLayer
370
18
48
1
60
1
100
AcDbLine
10
96.960784
20
-0.499998
30
0
11
96.5
21
-4
31
0
39
0
210
0
220
0
230
1
0
LINE
5
1E3
100
AcDbEntity
8
1
62
256
6
ByLayer
370
18
48
1
60
1
100
AcDbLine
10
96.5
20
3.48468
30
0
11
96.960784
21
-0.015319
31
0
39
0
210
0
220
0
230
1
0
LINE
5
1E4
100
AcDbEntity
8
1
62
256
6
ByLayer
370
18
48
1
60
1
100
AcDbLine
10
96.960784
20
-0.015319
30
0
11
96.039216
21
-0.015322
31
0
39
0
210
0
220
0
230
1
0
LINE
5
1E5
100
AcDbEntity
8
1
62
256
6
ByLayer
370
18
48
1
60
1
100
AcDbLine
10
96.039216
20
-0.015322
30
0
11
96.5
21
3.48468
31
0
39
0
210
0
220
0
230
1
0
LINE
5
1E8
100
AcDbEntity
8
1
62
256
6
ByLayer
370
18
48
1
60
1
100
AcDbLine
10
-12.801632
20
5.496784
30
0
11
-13.104398
21
9.013977
31
0
39
0
210
0
220
0
230
1
0
LINE
5
1E9
100
AcDbEntity
8
1
62
256
6
ByLayer
370
18
48
1
60
1
100
AcDbLine
10
-13.104398
20
9.013977
30
0
11
-12.183764
21
8.972496
31
0
39
0
210
0
220
0
230
1
0
LINE
5
1EA
100
AcDbEntity
8
1
62
256
6
ByLayer
370
18
48
1
60
1
100
AcDbLine
10
-12.183764
20
8.972496
30
0
11
-12.801632
21
5.496784
31
0
39
0
210
0
220
0
230
1
0
LINE
5
1EC
100
AcDbEntity
8
1
62
256
6
ByLayer
370
18
48
1
60
1
100
AcDbLine
10
-12.908414
20
0
30
0
11
-12.426002
21
-3.497083
31
0
39
0
210
0
220
0
230
1
0
LINE
5
1ED
100
AcDbEntity
8
1
62
256
6
ByLayer
370
18
48
1
60
1
100
AcDbLine
10
-12.426002
20
-3.497083
30
0
11
-13.347552
21
-3.502783
31
0
39
0
210
0
220
0
230
1
0
LINE
5
1EE
100
AcDbEntity
8
1
62
256
6
ByLayer
370
18
48
1
60
1
100
AcDbLine
10
-13.347552
20
-3.502783
30
0
11
-12.908414
21
0
31
0
39
0
210
0
220
0
230
1
0
LINE
5
1F3
100
AcDbEntity
8
1
62
256
6
ByLayer
370
18
48
1
60
1
100
AcDbLine
10
59.907099
20
3.045262
30
0
11
62.88799
21
4.936451
31
0
39
0
210
0
220
0
230
1
0
LINE
5
1F4
100
AcDbEntity
8
1
62
256
6
ByLayer
370
18
48
1
60
1
100
AcDbLine
10
62.88799
20
4.936451
30
0
11
63.275898
21
4.1005
31
0
39
0
210
0
220
0
230
1
0
LINE
5
1F5
100
AcDbEntity
8
1
62
256
6
ByLayer
370
18
48
1
60
1
100
AcDbLine
10
63.275898
20
4.1005
30
0
11
59.907099
21
3.045262
31
0
39
0
210
0
220
0
230
1
0
LINE
5
1F9
100
AcDbEntity
8
1
62
256
6
ByLayer
370
18
48
1
60
1
100
AcDbLine
10
59.267745
20
3.596422
30
0
11
59.307539
21
7.126397
31
0
39
0
210
0
220
0
230
1
0
LINE
5
1FA
100
AcDbEntity
8
1
62
256
6
ByLayer
370
18
48
1
60
1
100
AcDbLine
10
59.307539
20
7.126397
30
0
11
60.219808
21
6.99582
31
0
39
0
210
0
220
0
230
1
0
LINE
5
1FB
100
AcDbEntity
8
1
62
256
6
ByLayer
370
18
48
1
60
1
100
AcDbLine
10
60.219808
20
6.99582
30
0
11
59.267745
21
3.596422
31
0
39
0
210
0
220
0
230
1
0
MTEXT
5
1C7
100
AcDbEntity
8
SK2
62
256
6
ByLayer
370
18
48
1
60
0
100
AcDbMText
10
-47.841114
20
10.658437
30
0
210
0
220
0
230
1
1
%%c
40
3
41
0
44
1.084337
50
90
71
7
72
5
7
iso_b_vert
0
MTEXT
5
1CA
100
AcDbEntity
8
SK2
62
256
6
ByLayer
370
18
48
1
60
0
100
AcDbMText
10
-47.841114
20
16.635
30
0
210
0
220
0
230
1
1
\W0.6563;10 h6
40
3
41
0
44
1.084337
50
90
71
7
72
5
7
iso_b_vert
0
MTEXT
5
1D3
100
AcDbEntity
8
SK2
62
256
6
ByLayer
370
18
48
1
60
0
100
AcDbMText
10
39.158886
20
-31.941562
30
0
210
0
220
0
230
1
1
%%c
40
3
41
0
44
1.084337
50
90
71
7
72
5
7
iso_b_vert
0
MTEXT
5
1D4
100
AcDbEntity
8
SK2
62
256
6
ByLayer
370
18
48
1
60
0
100
AcDbMText
10
39.158886
20
-25.965
30
0
210
0
220
0
230
1
1
\W0.7346;7.20
40
3
41
0
44
1.084337
50
90
71
7
72
5
7
iso_b_vert
0
MTEXT
5
1DD
100
AcDbEntity
8
2
62
256
6
ByLayer
370
18
48
1
60
0
100
AcDbMText
10
95.158886
20
17.658438
30
0
210
0
220
0
230
1
1
%%c
40
3
41
0
44
1.084337
50
90
71
7
72
5
7
iso_b_vert
0
MTEXT
5
1DE
100
AcDbEntity
8
2
62
256
6
ByLayer
370
18
48
1
60
0
100
AcDbMText
10
95.158886
20
23.635
30
0
210
0
220
0
230
1
1
\W0.6563;8 h10
40
3
41
0
44
1.084337
50
90
71
7
72
5
7
iso_b_vert
0
MTEXT
5
1E7
100
AcDbEntity
8
SK2
62
256
6
ByLayer
370
18
48
1
60
0
100
AcDbMText
10
-12.939356
20
13.0638
30
0
210
0
220
0
230
1
1
\W0.7635;(2%%d)
40
3
41
0
44
1.084337
50
83.6441832707606
71
7
72
5
7
iso_b_vert
0
MTEXT
5
1F0
100
AcDbEntity
8
SK2
62
256
6
ByLayer
370
18
48
1
60
0
100
AcDbMText
10
64.235394
20
5.793839
30
0
210
0
220
0
230
1
1
\W0.6380;R
40
2.5
41
0
44
1.084337
50
24.8925682365516
71
7
72
5
7
iso_b_vert
0
MTEXT
5
1F1
100
AcDbEntity
8
SK2
62
256
6
ByLayer
370
18
48
1
60
0
100
AcDbMText
10
69.337564
20
8.161383
30
0
210
0
220
0
230
1
1
\W0.8221;\W0.4110;%%p\W0.8221;0.03
40
2.5
41
0
44
1.084337
50
24.8925682365516
71
7
72
5
7
iso_b_vert
0
MTEXT
5
1F2
100
AcDbEntity
8
SK2
62
256
6
ByLayer
370
18
48
1
60
0
100
AcDbMText
10
66.622359
20
6.901455
30
0
210
0
220
0
230
1
1
\W0.3580;1
40
2.5
41
0
44
1.084337
50
24.8925682365516
71
7
72
5
7
iso_b_vert
0
MTEXT
5
1F7
100
AcDbEntity
8
SK2
62
256
6
ByLayer
370
18
48
1
60
0
100
AcDbMText
10
70.630372
20
20.369794
30
0
210
0
220
0
230
1
1
\W0.6380;R
40
3
41
0
44
1.084337
50
0
71
7
72
5
7
iso_b_vert
0
MTEXT
5
1F8
100
AcDbEntity
8
SK2
62
256
6
ByLayer
370
18
48
1
60
0
100
AcDbMText
10
73.788086
20
20.369794
30
0
210
0
220
0
230
1
1
\W0.7361;40
40
3
41
0
44
1.084337
50
0
71
7
72
5
7
iso_b_vert
0
MTEXT
5
1FD
100
AcDbEntity
8
SK6
62
256
6
ByLayer
370
18
48
1
60
0
100
AcDbMText
10
-17.990939
20
-46.456106
30
0
210
0
220
0
230
1
1
\W0.7977;2A146-0800A040-RCMH R2AH
40
3
41
0
44
1.084337
50
0
71
7
72
5
7
iso_b_vert
0
HATCH
5
1CE
100
AcDbEntity
8
SK2
62
256
6
ByLayer
370
13
48
1
60
0
100
AcDbHatch
10
0
20
0
30
0
210
0
220
0
230
1
2
ANSI31
70
0
71
0
91
1
92
5
93
3
72
1
10
-46.5
20
-5.00000000000006
11
-46.9607837415528
21
-1.50000169255324
72
1
10
-46.9607837415528
20
-1.50000169255324
11
-46.0392162584472
21
-1.49999830744687
72
1
10
-46.0392162584472
20
-1.49999830744687
11
-46.5
21
-5.00000000000006
97
0
75
0
76
1
52
0
41
0.0062
77
0
78
1
53
45
43
0
44
0
45
-0.0139193969876572
46
0.0139193969876572
79
0
47
0
98
1
10
0
20
0
0
HATCH
5
1D2
100
AcDbEntity
8
SK2
62
256
6
ByLayer
370
13
48
1
60
0
100
AcDbHatch
10
0
20
0
30
0
210
0
220
0
230
1
2
ANSI31
70
0
71
0
91
1
92
5
93
3
72
1
10
-46.5
20
4.99999999999994
11
-46.0392162584472
21
1.50000169255313
72
1
10
-46.0392162584472
20
1.50000169255313
11
-46.9607837415528
21
1.49999830744676
72
1
10
-46.9607837415528
20
1.49999830744676
11
-46.5
21
4.99999999999994
97
0
75
0
76
1
52
0
41
0.0062
77
0
78
1
53
45
43
0
44
0
45
-0.0139193969876572
46
0.0139193969876572
79
0
47
0
98
1
10
0
20
0
0
HATCH
5
1D8
100
AcDbEntity
8
SK2
62
256
6
ByLayer
370
13
48
1
60
0
100
AcDbHatch
10
0
20
0
30
0
210
0
220
0
230
1
2
ANSI31
70
0
71
0
91
1
92
5
93
3
72
1
10
40.5
20
-3.59999999999997
11
40.0392162584472
21
-0.10000169255315
72
1
10
40.0392162584472
20
-0.10000169255315
11
40.9607837415528
21
-0.0999983074467821
72
1
10
40.9607837415528
20
-0.0999983074467821
11
40.5
21
-3.59999999999997
97
0
75
0
76
1
52
0
41
0.0062
77
0
78
1
53
45
43
0
44
0
45
-0.0139193969876572
46
0.0139193969876572
79
0
47
0
98
1
10
0
20
0
0
HATCH
5
1DC
100
AcDbEntity
8
SK2
62
256
6
ByLayer
370
13
48
1
60
0
100
AcDbHatch
10
0
20
0
30
0
210
0
220
0
230
1
2
ANSI31
70
0
71
0
91
1
92
5
93
3
72
1
10
40.5
20
3.60000000000002
11
40.9607837415528
21
0.100001692553207
72
1
10
40.9607837415528
20
0.100001692553207
11
40.0392162584472
21
0.0999983074468389
72
1
10
40.0392162584472
20
0.0999983074468389
11
40.5
21
3.60000000000002
97
0
75
0
76
1
52
0
41
0.0062
77
0
78
1
53
45
43
0
44
0
45
-0.0139193969876572
46
0.0139193969876572
79
0
47
0
98
1
10
0
20
0
0
HATCH
5
1E2
100
AcDbEntity
8
2
62
256
6
ByLayer
370
13
48
1
60
0
100
AcDbHatch
10
0
20
0
30
0
210
0
220
0
230
1
2
ANSI31
70
0
71
0
91
1
92
5
93
3
72
1
10
96.5
20
-3.99999999999994
11
96.0392162584472
21
-0.500001692553127
72
1
10
96.0392162584472
20
-0.500001692553127
11
96.9607837415528
21
-0.499998307446759
72
1
10
96.9607837415528
20
-0.499998307446759
11
96.5
21
-3.99999999999994
97
0
75
0
76
1
52
0
41
0.0062
77
0
78
1
53
45
43
0
44
0
45
-0.0139193969876572
46
0.0139193969876572
79
0
47
0
98
1
10
0
20
0
0
HATCH
5
1E6
100
AcDbEntity
8
2
62
256
6
ByLayer
370
13
48
1
60
0
100
AcDbHatch
10
0
20
0
30
0
210
0
220
0
230
1
2
ANSI31
70
0
71
0
91
1
92
5
93
3
72
1
10
96.5
20
3.48467966459751
11
96.9607837415528
21
-0.0153186428493086
72
1
10
96.9607837415528
20
-0.0153186428493086
11
96.0392162584472
21
-0.0153220279556763
72
1
10
96.0392162584472
20
-0.0153220279556763
11
96.5
21
3.48467966459751
97
0
75
0
76
1
52
0
41
0.0062
77
0
78
1
53
45
43
0
44
0
45
-0.0139193969876572
46
0.0139193969876572
79
0
47
0
98
1
10
0
20
0
0
HATCH
5
1EB
100
AcDbEntity
8
SK2
62
256
6
ByLayer
370
13
48
1
60
0
100
AcDbHatch
10
0
20
0
30
0
210
0
220
0
230
1
2
ANSI31
70
0
71
0
91
1
92
5
93
3
72
1
10
-12.8016319976067
20
5.4967841304005
11
-13.1043979334453
21
9.01397656140364
72
1
10
-13.1043979334453
20
9.01397656140364
11
-12.183764460522
21
8.97249603028109
72
1
10
-12.183764460522
20
8.97249603028109
11
-12.8016319976067
21
5.4967841304005
97
0
75
0
76
1
52
0
41
0.0062
77
0
78
1
53
45
43
0
44
0
45
-0.0139193969876572
46
0.0139193969876572
79
0
47
0
98
1
10
0
20
0
0
HATCH
5
1EF
100
AcDbEntity
8
SK2
62
256
6
ByLayer
370
13
48
1
60
0
100
AcDbHatch
10
0
20
0
30
0
210
0
220
0
230
1
2
ANSI31
70
0
71
0
91
1
92
5
93
3
72
1
10
-12.9084140644383
20
-2.84E-14
11
-12.4260020762996
21
-3.49708285322356
72
1
10
-12.4260020762996
20
-3.49708285322356
11
-13.3475519283796
21
-3.50278338479671
72
1
10
-13.3475519283796
20
-3.50278338479671
11
-12.9084140644383
21
-2.84E-14
97
0
75
0
76
1
52
0
41
0.0062
77
0
78
1
53
45
43
0
44
0
45
-0.0139193969876572
46
0.0139193969876572
79
0
47
0
98
1
10
0
20
0
0
HATCH
5
1F6
100
AcDbEntity
8
SK2
62
256
6
ByLayer
370
13
48
1
60
0
100
AcDbHatch
10
0
20
0
30
0
210
0
220
0
230
1
2
ANSI31
70
0
71
0
91
1
92
5
93
3
72
1
10
59.9070986186865
20
3.04526202885975
11
62.887990004913
21
4.93645116591884
72
1
10
62.887990004913
20
4.93645116591884
11
63.2758975632657
21
4.10049999982013
72
1
10
63.2758975632657
20
4.10049999982013
11
59.9070986186865
21
3.04526202885975
97
0
75
0
76
1
52
0
41
0.0062
77
0
78
1
53
45
43
0
44
0
45
-0.0139193969876572
46
0.0139193969876572
79
0
47
0
98
1
10
0
20
0
0
HATCH
5
1FC
100
AcDbEntity
8
SK2
62
256
6
ByLayer
370
13
48
1
60
0
100
AcDbHatch
10
0
20
0
30
0
210
0
220
0
230
1
2
ANSI31
70
0
71
0
91
1
92
5
93
3
72
1
10
59.2677452351038
20
3.59642156027476
11
59.3075385120966
21
7.12639695731596
72
1
10
59.3075385120966
20
7.12639695731596
11
60.2198083556773
21
6.99581993628166
72
1
10
60.2198083556773
20
6.99581993628166
11
59.2677452351038
21
3.59642156027476
97
0
75
0
76
1
52
0
41
0.0062
77
0
78
1
53
45
43
0
44
0
45
-0.0139193969876572
46
0.0139193969876572
79
0
47
0
98
1
10
0
20
0
0
DIMENSION
5
200
100
AcDbEntity
8
2
62
256
6
ByLayer
370
18
48
1
60
0
100
AcDbDimension
2
_U0
10
36
20
12.85
30
0
11
48
21
12.85
31
0
70
32
71
1
72
1
41
1
210
0
220
0
230
1
3
Standard
100
AcDbAlignedDimension
13
60
23
3.48468
33
0
14
36
24
3.6
34
0
50
0
100
AcDbRotatedDimension
1001
ACAD
1000
DSTYLE
1002
{
1070
   371
1070
    13
1070
   372
1070
    13
1070
     3
1000

1070
   170
1070
     0
1070
   144
1040
1.0
1070
   277
1070
     2
1070
   284
1070
     8
1070
   278
1070
    46
1070
   146
1040
1.166667
1070
   345
1005
16
1070
   347
1005
16
1070
   346
1005
16
1070
   344
1005
0
1070
   343
1005
0
1070
   172
1070
     1
1070
    76
1070
     0
1070
    75
1070
     0
1070
   282
1070
     0
1070
   281
1070
     0
1070
    71
1070
     0
1070
    74
1070
     0
1070
   279
1070
     0
1070
   173
1070
     1
1070
   340
1005
1C8
1070
   271
1070
     2
1070
   272
1070
     2
1070
    77
1070
     1
1070
    73
1070
     1
1070
   171
1070
     3
1070
   274
1070
     4
1070
   177
1070
     2
1070
   176
1070
     2
1070
   178
1070
     2
1070
    78
1070
     8
1070
    48
1040
-0.1
1070
    41
1040
3.5
1070
   147
1040
1.5
1070
    42
1040
1.5875
1070
    44
1040
2.0
1070
   140
1040
3.0
1002
}
1001
ACAD_DSTYLE_DIM_LINETYPE
1070
   380
1005
16
1001
ACAD_DSTYLE_DIM_EXT1_LINETYPE
1070
   381
1005
16
1001
ACAD_DSTYLE_DIM_EXT2_LINETYPE
1070
   382
1005
16
0
DIMENSION
5
219
100
AcDbEntity
8
2
62
256
6
ByLayer
370
18
48
1
60
0
100
AcDbDimension
2
_U1
10
-0.020063
20
22.85
30
0
11
29.989968
21
22.85
31
0
70
32
71
1
72
1
41
1
210
0
220
0
230
1
3
Standard
100
AcDbAlignedDimension
13
60
23
3.48468
33
0
14
-0.020063
24
5
34
0
50
0
100
AcDbRotatedDimension
1001
ACAD
1000
DSTYLE
1002
{
1070
   371
1070
    13
1070
   372
1070
    13
1070
     3
1000

1070
   170
1070
     0
1070
   144
1040
1.0
1070
   277
1070
     2
1070
   284
1070
     8
1070
   278
1070
    46
1070
   146
1040
1.166667
1070
   345
1005
16
1070
   347
1005
16
1070
   346
1005
16
1070
   344
1005
0
1070
   343
1005
0
1070
   172
1070
     1
1070
    76
1070
     0
1070
    75
1070
     0
1070
   282
1070
     0
1070
   281
1070
     0
1070
    71
1070
     0
1070
    74
1070
     0
1070
   279
1070
     0
1070
   173
1070
     1
1070
   340
1005
1C8
1070
   271
1070
     2
1070
   272
1070
     2
1070
    77
1070
     1
1070
    73
1070
     1
1070
   171
1070
     3
1070
   274
1070
     4
1070
   177
1070
     2
1070
   176
1070
     2
1070
   178
1070
     2
1070
    78
1070
     8
1070
    48
1040
-0.1
1070
    41
1040
3.5
1070
   147
1040
1.5
1070
    42
1040
1.5875
1070
    44
1040
2.0
1070
   140
1040
3.0
1002
}
1001
ACAD_DSTYLE_DIM_LINETYPE
1070
   380
1005
16
1001
ACAD_DSTYLE_DIM_EXT1_LINETYPE
1070
   381
1005
16
1001
ACAD_DSTYLE_DIM_EXT2_LINETYPE
1070
   382
1005
16
0
DIMENSION
5
231
100
AcDbEntity
8
SK2
62
256
6
ByLayer
370
18
48
1
60
0
100
AcDbDimension
2
_U2
10
-40
20
32.85
30
0
11
10
21
32.85
31
0
70
32
71
1
72
1
41
1
210
0
220
0
230
1
3
Standard
100
AcDbAlignedDimension
13
60
23
3.48468
33
0
14
-40
24
0
34
0
50
0
100
AcDbRotatedDimension
1001
ACAD
1000
DSTYLE
1002
{
1070
   371
1070
    13
1070
   372
1070
    13
1070
     3
1000

1070
   170
1070
     0
1070
   144
1040
1.0
1070
   277
1070
     2
1070
   284
1070
     8
1070
   278
1070
    46
1070
   146
1040
1.166667
1070
   345
1005
16
1070
   347
1005
16
1070
   346
1005
16
1070
   344
1005
0
1070
   343
1005
0
1070
   172
1070
     1
1070
    76
1070
     0
1070
    75
1070
     0
1070
   282
1070
     0
1070
   281
1070
     0
1070
    71
1070
     0
1070
    74
1070
     0
1070
   279
1070
     0
1070
   173
1070
     1
1070
   340
1005
1C8
1070
   271
1070
     2
1070
   272
1070
     2
1070
    77
1070
     1
1070
    73
1070
     1
1070
   171
1070
     3
1070
   274
1070
     4
1070
   177
1070
     2
1070
   176
1070
     2
1070
   178
1070
     2
1070
    78
1070
     8
1070
    48
1040
-0.1
1070
    41
1040
3.5
1070
   147
1040
1.5
1070
    42
1040
1.5875
1070
    44
1040
2.0
1070
   140
1040
3.0
1002
}
1001
ACAD_DSTYLE_DIM_LINETYPE
1070
   380
1005
16
1001
ACAD_DSTYLE_DIM_EXT1_LINETYPE
1070
   381
1005
16
1001
ACAD_DSTYLE_DIM_EXT2_LINETYPE
1070
   382
1005
16
0
DIMENSION
5
249
100
AcDbEntity
8
SK2
62
256
6
ByLayer
370
18
48
1
60
0
100
AcDbDimension
2
_U3
10
-0.020063
20
-23.53244
30
0
11
-20.010032
21
-23.53244
31
0
70
32
71
1
72
1
41
1
210
0
220
0
230
1
3
Standard
100
AcDbAlignedDimension
13
-40
23
0
33
0
14
-0.020063
24
5
34
0
50
0
100
AcDbRotatedDimension
1001
ACAD
1000
DSTYLE
1002
{
1070
   371
1070
    13
1070
   372
1070
    13
1070
     3
1000

1070
   170
1070
     0
1070
   144
1040
1.0
1070
   277
1070
     2
1070
   284
1070
     8
1070
   278
1070
    46
1070
   146
1040
1.166667
1070
   345
1005
16
1070
   347
1005
16
1070
   346
1005
16
1070
   344
1005
0
1070
   343
1005
0
1070
   172
1070
     1
1070
    76
1070
     0
1070
    75
1070
     0
1070
   282
1070
     0
1070
   281
1070
     0
1070
    71
1070
     0
1070
    74
1070
     0
1070
   279
1070
     0
1070
   173
1070
     1
1070
   340
1005
1C8
1070
   271
1070
     2
1070
   272
1070
     2
1070
    77
1070
     1
1070
    73
1070
     1
1070
   171
1070
     3
1070
   274
1070
     4
1070
   177
1070
     2
1070
   176
1070
     2
1070
   178
1070
     2
1070
    78
1070
     8
1070
    48
1040
-0.1
1070
    41
1040
3.5
1070
   147
1040
1.5
1070
    42
1040
1.5875
1070
    44
1040
2.0
1070
   140
1040
3.0
1002
}
1001
ACAD_DSTYLE_DIM_LINETYPE
1070
   380
1005
16
1001
ACAD_DSTYLE_DIM_EXT1_LINETYPE
1070
   381
1005
16
1001
ACAD_DSTYLE_DIM_EXT2_LINETYPE
1070
   382
1005
16
0
ENDSEC
0
SECTION
2
OBJECTS
0
DICTIONARY
5
2d1
330
0
100
AcDbDictionary
280
0
281
1
3
ACAD_GROUP
350
2d2
3
ACAD_MLINESTYLE
350
2d3
0
DICTIONARY
5
2d2
330
0
100
AcDbDictionary
280
0
281
1
0
DICTIONARY
5
2d3
330
0
100
AcDbDictionary
280
0
281
1
3
Standard
350
18
0
MLINESTYLE
5
18
330
2d3
100
AcDbMlineStyle
2
Standard
70
0
3

62
256
51
90
52
90
71
2
49
-0.5
62
256
6
ByLayer
49
0.5
62
256
6
ByLayer
0
RASTERVARIABLES
5
2bf
330

100
AcDbRasterVariables
90
0
70
1
71
1
72
1
0
ENDSEC
0
EOF
