0
SECTION
2
HEADER
9
$ACADVER
1
AC1015
9
$DWGCODEPAGE
3
ANSI_1252
9
$HANDSEED
5
2d6
9
$ANGBASE
50
0
9
$ANGDIR
70
0
9
$ATTMODE
70
1
9
$AUNITS
70
0
9
$AUPREC
70
0
9
$CECOLOR
62
256
9
$CELTSCALE
40
1
9
$CELTYPE
6
ByLayer
9
$CELWEIGHT
370
18
9
$CLAYER
8
0
9
$CMLJUST
70
0
9
$CMLSCALE
40
1
9
$CMLSTYLE
2
Standard
9
$DIMSTYLE
2
Standard
9
$TEXTSIZE
40
0.2
9
$TEXTSTYLE
7
Standard
9
$LUNITS
70
2
9
$LUPREC
70
4
9
$EXTNAMES
290
1
9
$INSUNITS
70
4
9
$LTSCALE
40
1
9
$LWDISPLAY
290
1
9
$PDMODE
70
0
9
$PDSIZE
40
0
9
$PLINEGEN
70
0
0
ENDSEC
0
SECTION
2
CLASSES
0
CLASS
1
RASTERVARIABLES
2
AcDbRasterVariables
3
ISM
90
0
280
0
281
0
0
ENDSEC
0
SECTION
2
TABLES
0
TABLE
2
VPORT
5
2cc
100
AcDbSymbolTable
0
VPORT
5
1
100
AcDbSymbolTableRecord
100
AcDbViewportTableRecord
2
*Active
70
0
10
0
20
0
11
1
21
1
12
-1
22
1
13
0
23
0
14
0.5
24
0.5
15
10
25
10
16
0
26
0
36
1
17
0
27
0
37
0
0
ENDTAB
0
TABLE
2
LTYPE
5
2cd
100
AcDbSymbolTable
0
LTYPE
5
14
100
AcDbSymbolTableRecord
100
AcDbLinetypeTableRecord
70
0
2
ByBlock
3

72
65
73
0
40
0
0
LTYPE
5
15
100
AcDbSymbolTableRecord
100
AcDbLinetypeTableRecord
70
0
2
ByLayer
3

72
65
73
0
40
0
0
LTYPE
5
16
100
AcDbSymbolTableRecord
100
AcDbLinetypeTableRecord
70
0
2
Continuous
3
Solid line
72
65
73
0
40
0
0
LTYPE
5
6E
100
AcDbSymbolTableRecord
100
AcDbLinetypeTableRecord
70
0
2
CENTER
3
____ _ ____ _ ____ _ ____
72
65
73
4
40
47.5
49
22
74
0
49
-8.5
74
0
49
8.5
74
0
49
-8.5
74
0
0
LTYPE
5
6F
100
AcDbSymbolTableRecord
100
AcDbLinetypeTableRecord
70
0
2
DASHED
3
__ __ __ __ __ __ __ __ __
72
65
73
2
40
25.72
49
12.86
74
0
49
-12.86
74
0
0
ENDTAB
0
TABLE
2
LAYER
5
2ce
100
AcDbSymbolTable
0
LAYER
5
10
100
AcDbSymbolTableRecord
100
AcDbLayerTableRecord
2
0
70
0
62
7
6
Continuous
290
1
370
-3
390
0
0
LAYER
5
71
100
AcDbSymbolTableRecord
100
AcDbLayerTableRecord
2
81
70
0
62
-3
6
Continuous
290
1
370
-3
390
0
0
LAYER
5
73
100
AcDbSymbolTableRecord
100
AcDbLayerTableRecord
2
80
70
0
62
-6
6
Continuous
290
1
370
-3
390
0
0
LAYER
5
75
100
AcDbSymbolTableRecord
100
AcDbLayerTableRecord
2
1
70
0
62
4
6
Continuous
290
1
370
-3
390
0
0
LAYER
5
9A
100
AcDbSymbolTableRecord
100
AcDbLayerTableRecord
2
4
70
0
62
-2
6
CENTER
290
1
370
-3
390
0
0
LAYER
5
E5
100
AcDbSymbolTableRecord
100
AcDbLayerTableRecord
2
2
70
0
62
7
6
Continuous
290
1
370
-3
390
0
0
LAYER
5
1FB
100
AcDbSymbolTableRecord
100
AcDbLayerTableRecord
2
Defpoints
70
0
62
7
6
Continuous
290
0
370
-3
390
0
0
LAYER
5
2b8
100
AcDbSymbolTableRecord
100
AcDbLayerTableRecord
2
SK4
70
0
62
2
6
CENTER
290
1
370
-3
390
0
0
LAYER
5
2b9
100
AcDbSymbolTableRecord
100
AcDbLayerTableRecord
2
SK1
70
0
62
4
6
Continuous
290
1
370
-3
390
0
0
LAYER
5
2ba
100
AcDbSymbolTableRecord
100
AcDbLayerTableRecord
2
SK2
70
0
62
7
6
Continuous
290
1
370
-3
390
0
0
LAYER
5
2bb
100
AcDbSymbolTableRecord
100
AcDbLayerTableRecord
2
SK6
70
0
62
5
6
Continuous
290
1
370
-3
390
0
0
ENDTAB
0
TABLE
2
STYLE
5
2cf
100
AcDbSymbolTable
0
STYLE
5
11
100
AcDbSymbolTableRecord
100
AcDbTextStyleTableRecord
2
Standard
3
txt
70
0
71
0
40
0
41
1
42
0
50
0
0
STYLE
5
1C0
100
AcDbSymbolTableRecord
100
AcDbTextStyleTableRecord
2
iso_b_vert
3
simplex.shx
70
0
71
0
40
0
41
1
42
0
50
0
0
STYLE
5
1C1
100
AcDbSymbolTableRecord
100
AcDbTextStyleTableRecord
2
DWGDirectTextStyle
3
simplex
70
0
71
0
40
0
41
1
42
0
50
0
0
ENDTAB
0
TABLE
2
DIMSTYLE
5
2d0
100
AcDbSymbolTable
100
AcDbDimStyleTable
0
DIMSTYLE
105
27
100
AcDbSymbolTableRecord
100
AcDbDimStyleTableRecord
2
Standard
70
0
3
<>
41
0.18
42
0.0625
44
0.18
140
0.18
147
0.09
73
0
74
0
77
1
271
2
275
0
278
52
280
0
340
11
0
ENDTAB
0
TABLE
2
VIEW
5
2d1
100
AcDbSymbolTable
0
ENDTAB
0
TABLE
2
UCS
5
2d2
100
AcDbSymbolTable
0
ENDTAB
0
TABLE
2
APPID
5
2d3
100
AcDbSymbolTable
0
APPID
5
12
100
AcDbSymbolTableRecord
100
AcDbRegAppTableRecord
2
ACAD
70
0
0
APPID
5
1F7
100
AcDbSymbolTableRecord
100
AcDbRegAppTableRecord
2
ACAD_DSTYLE_DIMBREAK
70
0
0
APPID
5
277
100
AcDbSymbolTableRecord
100
AcDbRegAppTableRecord
2
ACAD_DSTYLE_DIM_LINETYPE
70
0
0
APPID
5
278
100
AcDbSymbolTableRecord
100
AcDbRegAppTableRecord
2
ACAD_DSTYLE_DIM_EXT1_LINETYPE
70
0
0
APPID
5
279
100
AcDbSymbolTableRecord
100
AcDbRegAppTableRecord
2
ACAD_DSTYLE_DIM_EXT2_LINETYPE
70
0
0
APPID
5
2B4
100
AcDbSymbolTableRecord
100
AcDbRegAppTableRecord
2
ACAD_MLEADERVER
70
0
0
ENDTAB
0
TABLE
2
BLOCK_RECORD
5
2d4
100
AcDbSymbolTable
0
BLOCK_RECORD
5
1F
100
AcDbSymbolTableRecord
100
AcDbBlockTableRecord
2
*Model_Space
340
0
70
0
0
BLOCK_RECORD
5
1B
100
AcDbSymbolTableRecord
100
AcDbBlockTableRecord
2
*Paper_Space
340
0
70
0
0
BLOCK_RECORD
5
23
100
AcDbSymbolTableRecord
100
AcDbBlockTableRecord
2
*Paper_Space0
340
0
70
0
0
BLOCK_RECORD
5
1FC
100
AcDbSymbolTableRecord
100
AcDbBlockTableRecord
2
*D1
340
0
70
0
0
BLOCK_RECORD
5
208
100
AcDbSymbolTableRecord
100
AcDbBlockTableRecord
2
_U0
340
0
70
0
0
BLOCK_RECORD
5
214
100
AcDbSymbolTableRecord
100
AcDbBlockTableRecord
2
*D3
340
0
70
0
0
BLOCK_RECORD
5
220
100
AcDbSymbolTableRecord
100
AcDbBlockTableRecord
2
_U1
340
0
70
0
0
BLOCK_RECORD
5
22C
100
AcDbSymbolTableRecord
100
AcDbBlockTableRecord
2
*D5
340
0
70
0
0
BLOCK_RECORD
5
238
100
AcDbSymbolTableRecord
100
AcDbBlockTableRecord
2
_U2
340
0
70
0
0
BLOCK_RECORD
5
244
100
AcDbSymbolTableRecord
100
AcDbBlockTableRecord
2
*D7
340
0
70
0
0
BLOCK_RECORD
5
250
100
AcDbSymbolTableRecord
100
AcDbBlockTableRecord
2
_U3
340
0
70
0
0
ENDTAB
0
ENDSEC
0
SECTION
2
BLOCKS
0
BLOCK
5
20
100
AcDbEntity
8
0
100
AcDbBlockBegin
2
*Model_Space
70
0
10
0
20
0
30
0
3
*Model_Space
0
ENDBLK
5
21
100
AcDbEntity
8
0
100
AcDbBlockEnd
0
BLOCK
5
1C
100
AcDbEntity
8
0
100
AcDbBlockBegin
2
*Paper_Space
70
0
10
0
20
0
30
0
3
*Paper_Space
0
ENDBLK
5
1D
100
AcDbEntity
8
0
100
AcDbBlockEnd
0
BLOCK
5
24
100
AcDbEntity
8
0
100
AcDbBlockBegin
2
*Paper_Space0
70
0
10
0
20
0
30
0
3
*Paper_Space0
0
ENDBLK
5
25
100
AcDbEntity
8
0
100
AcDbBlockEnd
0
BLOCK
5
1FD
100
AcDbEntity
8
0
100
AcDbBlockBegin
2
*D1
70
1
10
0
20
0
30
0
3
*D1
0
LINE
5
1FF
100
AcDbEntity
8
0
62
256
6
ByLayer
370
-2
48
1
60
0
100
AcDbLine
10
60
20
5.079428
30
0
11
60
21
14.85
31
0
39
0
210
0
220
0
230
1
0
LINE
5
200
100
AcDbEntity
8
0
62
256
6
ByLayer
370
-2
48
1
60
0
100
AcDbLine
10
36
20
5.1875
30
0
11
36
21
14.85
31
0
39
0
210
0
220
0
230
1
0
LINE
5
201
100
AcDbEntity
8
0
62
256
6
ByLayer
370
-2
48
1
60
0
100
AcDbLine
10
56.5
20
12.85
30
0
11
39.5
21
12.85
31
0
39
0
210
0
220
0
230
1
0
SOLID
5
202
100
AcDbEntity
8
0
62
256
6
ByLayer
370
-1
48
1
60
0
100
AcDbTrace
10
56.5
20
12.266667
30
0
11
56.5
21
13.433333
31
0
12
60
22
12.85
32
0
13
60
23
12.85
33
0
39
0
210
0
220
0
230
1
0
SOLID
5
203
100
AcDbEntity
8
0
62
256
6
ByLayer
370
-1
48
1
60
0
100
AcDbTrace
10
39.5
20
13.433333
30
0
11
39.5
21
12.266667
31
0
12
36
22
12.85
32
0
13
36
23
12.85
33
0
39
0
210
0
220
0
230
1
0
MTEXT
5
204
100
AcDbEntity
8
0
62
256
6
ByLayer
370
18
48
1
60
0
100
AcDbMText
10
48
20
18.85
30
0
210
0
220
0
230
1
1
\A1;24
40
3
41
0
44
1
50
0
71
5
72
5
7
iso_b_vert
0
POINT
5
205
100
AcDbEntity
8
Defpoints
62
0
6
ByLayer
370
-1
48
1
60
0
100
AcDbPoint
10
60
20
3.491928
30
0
39
0
210
0
220
0
230
1
50
360
0
POINT
5
206
100
AcDbEntity
8
Defpoints
62
0
6
ByLayer
370
-1
48
1
60
0
100
AcDbPoint
10
36
20
3.6
30
0
39
0
210
0
220
0
230
1
50
360
0
POINT
5
207
100
AcDbEntity
8
Defpoints
62
0
6
ByLayer
370
-1
48
1
60
0
100
AcDbPoint
10
36
20
12.85
30
0
39
0
210
0
220
0
230
1
50
360
0
ENDBLK
5
1FE
100
AcDbEntity
8
0
100
AcDbBlockEnd
0
BLOCK
5
20F
100
AcDbEntity
8
0
100
AcDbBlockBegin
2
_U0
70
0
10
0
20
0
30
0
3
_U0
0
MTEXT
5
209
100
AcDbEntity
8
2
62
256
6
ByLayer
370
18
48
1
60
0
100
AcDbMText
10
46.209229
20
13.735114
30
0
210
0
220
0
230
1
1
\W0.7167;24
40
3
41
0
44
1.084337
50
0
71
7
72
5
7
iso_b_vert
0
LINE
5
20A
100
AcDbEntity
8
2
62
256
6
ByLayer
370
13
48
1
60
0
100
AcDbLine
10
60
20
5.079428
30
0
11
60
21
14.85
31
0
39
0
210
0
220
0
230
1
0
LINE
5
20B
100
AcDbEntity
8
2
62
256
6
ByLayer
370
13
48
1
60
0
100
AcDbLine
10
36
20
5.1875
30
0
11
36
21
14.85
31
0
39
0
210
0
220
0
230
1
0
LINE
5
20C
100
AcDbEntity
8
2
62
256
6
ByLayer
370
13
48
1
60
0
100
AcDbLine
10
60
20
12.85
30
0
11
36
21
12.85
31
0
39
0
210
0
220
0
230
1
0
SOLID
5
20D
100
AcDbEntity
8
2
62
256
6
ByLayer
370
18
48
1
60
0
100
AcDbTrace
10
60
20
12.85
30
0
11
56.500002
21
12.389216
31
0
12
56.499998
22
13.310784
32
0
13
56.499998
23
13.310784
33
0
39
0
210
0
220
0
230
1
0
SOLID
5
20E
100
AcDbEntity
8
2
62
256
6
ByLayer
370
18
48
1
60
0
100
AcDbTrace
10
36
20
12.85
30
0
11
39.499998
21
13.310784
31
0
12
39.500002
22
12.389216
32
0
13
39.500002
23
12.389216
33
0
39
0
210
0
220
0
230
1
0
ENDBLK
5
210
100
AcDbEntity
8
0
100
AcDbBlockEnd
0
BLOCK
5
215
100
AcDbEntity
8
0
100
AcDbBlockBegin
2
*D3
70
1
10
0
20
0
30
0
3
*D3
0
LINE
5
217
100
AcDbEntity
8
0
62
256
6
ByLayer
370
-2
48
1
60
0
100
AcDbLine
10
60
20
5.079428
30
0
11
60
21
24.85
31
0
39
0
210
0
220
0
230
1
0
LINE
5
218
100
AcDbEntity
8
0
62
256
6
ByLayer
370
-2
48
1
60
0
100
AcDbLine
10
-0.020063
20
6.5875
30
0
11
-0.020063
21
24.85
31
0
39
0
210
0
220
0
230
1
0
LINE
5
219
100
AcDbEntity
8
0
62
256
6
ByLayer
370
-2
48
1
60
0
100
AcDbLine
10
56.5
20
22.85
30
0
11
3.479937
21
22.85
31
0
39
0
210
0
220
0
230
1
0
SOLID
5
21A
100
AcDbEntity
8
0
62
256
6
ByLayer
370
-1
48
1
60
0
100
AcDbTrace
10
56.5
20
22.266667
30
0
11
56.5
21
23.433333
31
0
12
60
22
22.85
32
0
13
60
23
22.85
33
0
39
0
210
0
220
0
230
1
0
SOLID
5
21B
100
AcDbEntity
8
0
62
256
6
ByLayer
370
-1
48
1
60
0
100
AcDbTrace
10
3.479937
20
23.433333
30
0
11
3.479937
21
22.266667
31
0
12
-0.020063
22
22.85
32
0
13
-0.020063
23
22.85
33
0
39
0
210
0
220
0
230
1
0
MTEXT
5
21C
100
AcDbEntity
8
0
62
256
6
ByLayer
370
18
48
1
60
0
100
AcDbMText
10
29.989968
20
28.85
30
0
210
0
220
0
230
1
1
\A1;60.02
40
3
41
0
44
1
50
0
71
5
72
5
7
iso_b_vert
0
POINT
5
21D
100
AcDbEntity
8
Defpoints
62
0
6
ByLayer
370
-1
48
1
60
0
100
AcDbPoint
10
60
20
3.491928
30
0
39
0
210
0
220
0
230
1
50
360
0
POINT
5
21E
100
AcDbEntity
8
Defpoints
62
0
6
ByLayer
370
-1
48
1
60
0
100
AcDbPoint
10
-0.020063
20
5
30
0
39
0
210
0
220
0
230
1
50
360
0
POINT
5
21F
100
AcDbEntity
8
Defpoints
62
0
6
ByLayer
370
-1
48
1
60
0
100
AcDbPoint
10
-0.020063
20
22.85
30
0
39
0
210
0
220
0
230
1
50
360
0
ENDBLK
5
216
100
AcDbEntity
8
0
100
AcDbBlockEnd
0
BLOCK
5
227
100
AcDbEntity
8
0
100
AcDbBlockBegin
2
_U1
70
0
10
0
20
0
30
0
3
_U1
0
MTEXT
5
221
100
AcDbEntity
8
2
62
256
6
ByLayer
370
18
48
1
60
0
100
AcDbMText
10
28.35714
20
23.735114
30
0
210
0
220
0
230
1
1
\W0.6740;60
40
3
41
0
44
1.084337
50
0
71
7
72
5
7
iso_b_vert
0
LINE
5
222
100
AcDbEntity
8
2
62
256
6
ByLayer
370
13
48
1
60
0
100
AcDbLine
10
60
20
5.079428
30
0
11
60
21
24.85
31
0
39
0
210
0
220
0
230
1
0
LINE
5
223
100
AcDbEntity
8
2
62
256
6
ByLayer
370
13
48
1
60
0
100
AcDbLine
10
-0.020063
20
6.5875
30
0
11
-0.020063
21
24.85
31
0
39
0
210
0
220
0
230
1
0
LINE
5
224
100
AcDbEntity
8
2
62
256
6
ByLayer
370
13
48
1
60
0
100
AcDbLine
10
60
20
22.85
30
0
11
-0.020063
21
22.85
31
0
39
0
210
0
220
0
230
1
0
SOLID
5
225
100
AcDbEntity
8
2
62
256
6
ByLayer
370
18
48
1
60
0
100
AcDbTrace
10
60
20
22.85
30
0
11
56.500002
21
22.389216
31
0
12
56.499998
22
23.310784
32
0
13
56.499998
23
23.310784
33
0
39
0
210
0
220
0
230
1
0
SOLID
5
226
100
AcDbEntity
8
2
62
256
6
ByLayer
370
18
48
1
60
0
100
AcDbTrace
10
-0.020063
20
22.85
30
0
11
3.479935
21
23.310784
31
0
12
3.479938
22
22.389216
32
0
13
3.479938
23
22.389216
33
0
39
0
210
0
220
0
230
1
0
ENDBLK
5
228
100
AcDbEntity
8
0
100
AcDbBlockEnd
0
BLOCK
5
22D
100
AcDbEntity
8
0
100
AcDbBlockBegin
2
*D5
70
1
10
0
20
0
30
0
3
*D5
0
LINE
5
22F
100
AcDbEntity
8
0
62
256
6
ByLayer
370
-2
48
1
60
0
100
AcDbLine
10
60
20
5.079428
30
0
11
60
21
34.85
31
0
39
0
210
0
220
0
230
1
0
LINE
5
230
100
AcDbEntity
8
0
62
256
6
ByLayer
370
-2
48
1
60
0
100
AcDbLine
10
-40
20
1.5875
30
0
11
-40
21
34.85
31
0
39
0
210
0
220
0
230
1
0
LINE
5
231
100
AcDbEntity
8
0
62
256
6
ByLayer
370
-2
48
1
60
0
100
AcDbLine
10
56.5
20
32.85
30
0
11
-36.5
21
32.85
31
0
39
0
210
0
220
0
230
1
0
SOLID
5
232
100
AcDbEntity
8
0
62
256
6
ByLayer
370
-1
48
1
60
0
100
AcDbTrace
10
56.5
20
32.266667
30
0
11
56.5
21
33.433333
31
0
12
60
22
32.85
32
0
13
60
23
32.85
33
0
39
0
210
0
220
0
230
1
0
SOLID
5
233
100
AcDbEntity
8
0
62
256
6
ByLayer
370
-1
48
1
60
0
100
AcDbTrace
10
-36.5
20
33.433333
30
0
11
-36.5
21
32.266667
31
0
12
-40
22
32.85
32
0
13
-40
23
32.85
33
0
39
0
210
0
220
0
230
1
0
MTEXT
5
234
100
AcDbEntity
8
0
62
256
6
ByLayer
370
18
48
1
60
0
100
AcDbMText
10
10
20
38.85
30
0
210
0
220
0
230
1
1
\A1;100
40
3
41
0
44
1
50
0
71
5
72
5
7
iso_b_vert
0
POINT
5
235
100
AcDbEntity
8
Defpoints
62
0
6
ByLayer
370
-1
48
1
60
0
100
AcDbPoint
10
60
20
3.491928
30
0
39
0
210
0
220
0
230
1
50
360
0
POINT
5
236
100
AcDbEntity
8
Defpoints
62
0
6
ByLayer
370
-1
48
1
60
0
100
AcDbPoint
10
-40
20
0
30
0
39
0
210
0
220
0
230
1
50
360
0
POINT
5
237
100
AcDbEntity
8
Defpoints
62
0
6
ByLayer
370
-1
48
1
60
0
100
AcDbPoint
10
-40
20
32.85
30
0
39
0
210
0
220
0
230
1
50
360
0
ENDBLK
5
22E
100
AcDbEntity
8
0
100
AcDbBlockEnd
0
BLOCK
5
23F
100
AcDbEntity
8
0
100
AcDbBlockBegin
2
_U2
70
0
10
0
20
0
30
0
3
_U2
0
MTEXT
5
239
100
AcDbEntity
8
SK2
62
256
6
ByLayer
370
18
48
1
60
0
100
AcDbMText
10
7.621201
20
33.735114
30
0
210
0
220
0
230
1
1
\W0.6217;100
40
3
41
0
44
1.084337
50
0
71
7
72
5
7
iso_b_vert
0
LINE
5
23A
100
AcDbEntity
8
SK2
62
256
6
ByLayer
370
13
48
1
60
0
100
AcDbLine
10
60
20
5.079428
30
0
11
60
21
34.85
31
0
39
0
210
0
220
0
230
1
0
LINE
5
23B
100
AcDbEntity
8
SK2
62
256
6
ByLayer
370
13
48
1
60
0
100
AcDbLine
10
-40
20
1.5875
30
0
11
-40
21
34.85
31
0
39
0
210
0
220
0
230
1
0
LINE
5
23C
100
AcDbEntity
8
SK2
62
256
6
ByLayer
370
13
48
1
60
0
100
AcDbLine
10
60
20
32.85
30
0
11
-40
21
32.85
31
0
39
0
210
0
220
0
230
1
0
SOLID
5
23D
100
AcDbEntity
8
SK2
62
256
6
ByLayer
370
18
48
1
60
0
100
AcDbTrace
10
60
20
32.85
30
0
11
56.500002
21
32.389216
31
0
12
56.499998
22
33.310784
32
0
13
56.499998
23
33.310784
33
0
39
0
210
0
220
0
230
1
0
SOLID
5
23E
100
AcDbEntity
8
SK2
62
256
6
ByLayer
370
18
48
1
60
0
100
AcDbTrace
10
-40
20
32.85
30
0
11
-36.500002
21
33.310784
31
0
12
-36.499998
22
32.389216
32
0
13
-36.499998
23
32.389216
33
0
39
0
210
0
220
0
230
1
0
ENDBLK
5
240
100
AcDbEntity
8
0
100
AcDbBlockEnd
0
BLOCK
5
245
100
AcDbEntity
8
0
100
AcDbBlockBegin
2
*D7
70
1
10
0
20
0
30
0
3
*D7
0
LINE
5
247
100
AcDbEntity
8
0
62
256
6
ByLayer
370
-2
48
1
60
0
100
AcDbLine
10
-40
20
-1.5875
30
0
11
-40
21
-21.04504
31
0
39
0
210
0
220
0
230
1
0
LINE
5
248
100
AcDbEntity
8
0
62
256
6
ByLayer
370
-2
48
1
60
0
100
AcDbLine
10
-0.020063
20
3.4125
30
0
11
-0.020063
21
-21.04504
31
0
39
0
210
0
220
0
230
1
0
LINE
5
249
100
AcDbEntity
8
0
62
256
6
ByLayer
370
-2
48
1
60
0
100
AcDbLine
10
-36.5
20
-19.04504
30
0
11
-3.520063
21
-19.04504
31
0
39
0
210
0
220
0
230
1
0
SOLID
5
24A
100
AcDbEntity
8
0
62
256
6
ByLayer
370
-1
48
1
60
0
100
AcDbTrace
10
-36.5
20
-18.461707
30
0
11
-36.5
21
-19.628373
31
0
12
-40
22
-19.04504
32
0
13
-40
23
-19.04504
33
0
39
0
210
0
220
0
230
1
0
SOLID
5
24B
100
AcDbEntity
8
0
62
256
6
ByLayer
370
-1
48
1
60
0
100
AcDbTrace
10
-3.520063
20
-19.628373
30
0
11
-3.520063
21
-18.461707
31
0
12
-0.020063
22
-19.04504
32
0
13
-0.020063
23
-19.04504
33
0
39
0
210
0
220
0
230
1
0
MTEXT
5
24C
100
AcDbEntity
8
0
62
256
6
ByLayer
370
18
48
1
60
0
100
AcDbMText
10
-20.010032
20
-13.04504
30
0
210
0
220
0
230
1
1
\A1;39.98
40
3
41
0
44
1
50
0
71
5
72
5
7
iso_b_vert
0
POINT
5
24D
100
AcDbEntity
8
Defpoints
62
0
6
ByLayer
370
-1
48
1
60
0
100
AcDbPoint
10
-40
20
0
30
0
39
0
210
0
220
0
230
1
50
360
0
POINT
5
24E
100
AcDbEntity
8
Defpoints
62
0
6
ByLayer
370
-1
48
1
60
0
100
AcDbPoint
10
-0.020063
20
5
30
0
39
0
210
0
220
0
230
1
50
360
0
POINT
5
24F
100
AcDbEntity
8
Defpoints
62
0
6
ByLayer
370
-1
48
1
60
0
100
AcDbPoint
10
-0.020063
20
-19.04504
30
0
39
0
210
0
220
0
230
1
50
360
0
ENDBLK
5
246
100
AcDbEntity
8
0
100
AcDbBlockEnd
0
BLOCK
5
257
100
AcDbEntity
8
0
100
AcDbBlockBegin
2
_U3
70
0
10
0
20
0
30
0
3
_U3
0
MTEXT
5
251
100
AcDbEntity
8
SK2
62
256
6
ByLayer
370
18
48
1
60
0
100
AcDbMText
10
-27.732887
20
-18.159926
30
0
210
0
220
0
230
1
1
\W0.7399;(MIN. 40)
40
3
41
0
44
1.084337
50
0
71
7
72
5
7
iso_b_vert
0
LINE
5
252
100
AcDbEntity
8
SK2
62
256
6
ByLayer
370
13
48
1
60
0
100
AcDbLine
10
-40
20
-1.5875
30
0
11
-40
21
-21.04504
31
0
39
0
210
0
220
0
230
1
0
LINE
5
253
100
AcDbEntity
8
SK2
62
256
6
ByLayer
370
13
48
1
60
0
100
AcDbLine
10
-0.020063
20
3.4125
30
0
11
-0.020063
21
-21.04504
31
0
39
0
210
0
220
0
230
1
0
LINE
5
254
100
AcDbEntity
8
SK2
62
256
6
ByLayer
370
13
48
1
60
0
100
AcDbLine
10
-40
20
-19.04504
30
0
11
-0.020063
21
-19.04504
31
0
39
0
210
0
220
0
230
1
0
SOLID
5
255
100
AcDbEntity
8
SK2
62
256
6
ByLayer
370
18
48
1
60
0
100
AcDbTrace
10
-40
20
-19.04504
30
0
11
-36.500002
21
-18.584256
31
0
12
-36.499998
22
-19.505824
32
0
13
-36.499998
23
-19.505824
33
0
39
0
210
0
220
0
230
1
0
SOLID
5
256
100
AcDbEntity
8
SK2
62
256
6
ByLayer
370
18
48
1
60
0
100
AcDbTrace
10
-0.020063
20
-19.04504
30
0
11
-3.520062
21
-19.505824
31
0
12
-3.520065
22
-18.584256
32
0
13
-3.520065
23
-18.584256
33
0
39
0
210
0
220
0
230
1
0
ENDBLK
5
258
100
AcDbEntity
8
0
100
AcDbBlockEnd
0
ENDSEC
0
SECTION
2
ENTITIES
0
ARC
5
100
100
AcDbEntity
8
1
62
256
6
ByLayer
370
18
48
1
60
0
100
AcDbCircle
39
0
10
35.999374
20
4.6
30
0
40
1
210
0
220
0
230
1
100
AcDbArc
50
267.772953
51
270
0
ARC
5
101
100
AcDbEntity
8
1
62
256
6
ByLayer
370
18
48
1
60
0
100
AcDbCircle
39
0
10
35.999374
20
-4.6
30
0
40
1
210
0
220
0
230
1
100
AcDbArc
50
90
51
92.227047
0
ARC
5
102
100
AcDbEntity
8
SK2
62
256
6
ByLayer
370
13
48
1
60
0
100
AcDbCircle
39
0
10
128.62302
20
0
30
0
40
141.531434457495
210
0
220
0
230
1
100
AcDbArc
50
177.774192
51
183.033367
0
ARC
5
103
100
AcDbEntity
8
SK2
62
256
6
ByLayer
370
13
48
1
60
0
100
AcDbCircle
39
0
10
128.62302
20
0
30
0
40
141.531434457495
210
0
220
0
230
1
100
AcDbArc
50
172.494796
51
177.774192
0
ELLIPSE
5
104
100
AcDbEntity
8
1
62
256
6
ByLayer
370
18
48
1
60
0
100
AcDbEllipse
10
59.85559
20
-0.321828
30
0
11
0.071556465936158
21
0.398877134802865
31
0
210
0
220
0
230
1
40
0.169911
41
-1.79173784497687
42
-1.36818577365653
0
ELLIPSE
5
105
100
AcDbEntity
8
1
62
256
6
ByLayer
370
18
48
1
60
0
100
AcDbEllipse
10
60.546011
20
-0.566805
30
0
11
0.621223909982628
21
-0.314572932919887
31
0
210
0
220
0
230
1
40
0.564733
41
3.13478917068852
42
-2.72498393426803
0
ELLIPSE
5
106
100
AcDbEntity
8
1
62
256
6
ByLayer
370
18
48
1
60
0
100
AcDbEllipse
10
52.739946
20
-12.449681
30
0
11
0.823389307005912
21
8.92148433003159
31
0
210
0
220
0
230
1
40
0.763744
41
0.163290886960271
42
0.207392109484237
0
ELLIPSE
5
107
100
AcDbEntity
8
1
62
256
6
ByLayer
370
18
48
1
60
0
100
AcDbEllipse
10
59.85559
20
0.137836
30
0
11
0.0697259885237128
21
-1.09982892210686
31
0
210
0
220
0
230
1
40
0.063333
41
-0.248593089273152
42
0.174958981726694
0
ELLIPSE
5
108
100
AcDbEntity
8
1
62
256
6
ByLayer
370
18
48
1
60
0
100
AcDbEllipse
10
60.546011
20
-1.369339
30
0
11
0.64568010248209
21
-0.45296746326201
31
0
210
0
220
0
230
1
40
0.052973
41
2.89340099621089
42
-2.9663721087609
0
ELLIPSE
5
109
100
AcDbEntity
8
1
62
256
6
ByLayer
370
18
48
1
60
0
100
AcDbEllipse
10
59.61562
20
-0.659689
30
0
11
0.340460113522922
21
-0.216463552850974
31
0
210
0
220
0
230
1
40
0.108357
41
-2.10578878926221
42
-1.79338566674958
0
ELLIPSE
5
10A
100
AcDbEntity
8
1
62
256
6
ByLayer
370
18
48
1
60
0
100
AcDbEllipse
10
52.586024
20
-7.351133
30
0
11
-6.18972429820213
21
6.37504693966516
31
0
210
0
220
0
230
1
40
0.444208
41
-1.1209525092115
42
-1.09949003665382
0
ELLIPSE
5
10B
100
AcDbEntity
8
1
62
256
6
ByLayer
370
18
48
1
60
0
100
AcDbEllipse
10
52.739946
20
5.427055
30
0
11
-6.5603382444126
21
6.10186977251959
31
0
210
0
220
0
230
1
40
0.330495
41
1.78189439149312
42
1.82599561401708
0
ELLIPSE
5
10C
100
AcDbEntity
8
1
62
256
6
ByLayer
370
18
48
1
60
0
100
AcDbEllipse
10
52.586024
20
5.261568
30
0
11
-6.5063004731176
21
6.05160842455935
31
0
210
0
220
0
230
1
40
0.330495
41
1.82680075563751
42
1.84826322819518
0
ELLIPSE
5
10D
100
AcDbEntity
8
1
62
256
6
ByLayer
370
18
48
1
60
0
100
AcDbEllipse
10
52.739946
20
-7.201685
30
0
11
-6.24113276102788
21
6.42799459093701
31
0
210
0
220
0
230
1
40
0.444208
41
-1.0986848950334
42
-1.05458367250943
0
ELLIPSE
5
10E
100
AcDbEntity
8
1
62
256
6
ByLayer
370
18
48
1
60
0
100
AcDbEllipse
10
55.084253
20
0
30
0
11
6.93356831545423
21
-3.50674584921722
31
0
210
0
220
0
230
1
40
0.117412
41
2.08748997882363
42
2.6367513783121
0
ELLIPSE
5
10F
100
AcDbEntity
8
1
62
256
6
ByLayer
370
18
48
1
60
0
100
AcDbEllipse
10
55.084253
20
0
30
0
11
6.92376275354053
21
1.11816679643341
31
0
210
0
220
0
230
1
40
0.494232
41
-2.6570864057753
42
-2.10782500628525
0
ELLIPSE
5
110
100
AcDbEntity
8
1
62
256
6
ByLayer
370
18
48
1
60
0
100
AcDbEllipse
10
55.084253
20
0
30
0
11
6.88658162347592
21
-2.8733474351494
31
0
210
0
220
0
230
1
40
0.314937
41
-2.44678287121625
42
-1.89752147172837
0
ELLIPSE
5
111
100
AcDbEntity
8
1
62
256
6
ByLayer
370
18
48
1
60
0
100
AcDbEllipse
10
59.617888
20
-0.237486
30
0
11
0.160013509727616
21
-0.418119286082912
31
0
210
0
220
0
230
1
40
0.722034
41
2.92531045743025
42
-3.05679336194389
0
ELLIPSE
5
112
100
AcDbEntity
8
1
62
256
6
ByLayer
370
18
48
1
60
0
100
AcDbEllipse
10
52.586024
20
12.414312
30
0
11
-0.997856644745078
21
8.82939366475559
31
0
210
0
220
0
230
1
40
0.762592
41
2.95223847675823
42
2.97370094931591
0
ELLIPSE
5
113
100
AcDbEntity
8
1
62
256
6
ByLayer
370
18
48
1
60
0
100
AcDbEllipse
10
52.586024
20
-12.435475
30
0
11
0.816607016001843
21
8.84799770298934
31
0
210
0
220
0
230
1
40
0.763744
41
0.141023272782168
42
0.162485745339845
0
ELLIPSE
5
114
100
AcDbEntity
8
1
62
256
6
ByLayer
370
18
48
1
60
0
100
AcDbEllipse
10
59.61562
20
0.225695
30
0
11
0.159127703948905
21
0.426011154328196
31
0
210
0
220
0
230
1
40
0.708659
41
3.02290203171288
42
-2.94788015326138
0
POINT
5
70
100
AcDbEntity
8
81
62
256
6
ByLayer
370
18
48
1
60
0
100
AcDbPoint
10
60
20
0
30
0
39
0
210
0
220
0
230
1
50
360
0
POINT
5
72
100
AcDbEntity
8
80
62
256
6
ByLayer
370
18
48
1
60
0
100
AcDbPoint
10
0
20
0
30
0
39
0
210
0
220
0
230
1
50
360
0
POINT
5
74
100
AcDbEntity
8
1
62
256
6
ByLayer
370
18
48
1
60
1
100
AcDbPoint
10
60
20
3.491928
30
0
39
0
210
0
220
0
230
1
50
360
0
POINT
5
76
100
AcDbEntity
8
1
62
256
6
ByLayer
370
18
48
1
60
1
100
AcDbPoint
10
36
20
3.6
30
0
39
0
210
0
220
0
230
1
50
360
0
POINT
5
77
100
AcDbEntity
8
1
62
256
6
ByLayer
370
18
48
1
60
1
100
AcDbPoint
10
60
20
3.491928
30
0
39
0
210
0
220
0
230
1
50
360
0
POINT
5
78
100
AcDbEntity
8
1
62
256
6
ByLayer
370
18
48
1
60
1
100
AcDbPoint
10
-0.020063
20
5
30
0
39
0
210
0
220
0
230
1
50
360
0
POINT
5
79
100
AcDbEntity
8
1
62
256
6
ByLayer
370
18
48
1
60
1
100
AcDbPoint
10
60
20
3.491928
30
0
39
0
210
0
220
0
230
1
50
360
0
POINT
5
7A
100
AcDbEntity
8
1
62
256
6
ByLayer
370
18
48
1
60
1
100
AcDbPoint
10
-40
20
0
30
0
39
0
210
0
220
0
230
1
50
360
0
POINT
5
7B
100
AcDbEntity
8
1
62
256
6
ByLayer
370
18
48
1
60
1
100
AcDbPoint
10
-40
20
0
30
0
39
0
210
0
220
0
230
1
50
360
0
POINT
5
7C
100
AcDbEntity
8
1
62
256
6
ByLayer
370
18
48
1
60
1
100
AcDbPoint
10
-0.020063
20
5
30
0
39
0
210
0
220
0
230
1
50
360
0
SPLINE
5
115
100
AcDbEntity
8
1
62
256
6
ByLayer
370
18
48
1
60
0
100
AcDbSpline
70
4
71
3
72
33
73
29
40
0
40
0
40
0
40
0
40
0.0396089088276055
40
0.0791329069753873
40
0.118571146827895
40
0.157922789091453
40
0.197187000361969
40
0.236362946054405
40
0.275449782790866
40
0.31444665235383
40
0.353352677426089
40
0.392166962253933
40
0.43088860054233
40
0.469516684157126
40
0.508050310191553
40
0.546488586382667
40
0.584830634932731
40
0.623075594790722
40
0.661222622224495
40
0.699270886565746
40
0.73721955999598
40
0.775067808367437
40
0.812814785240692
40
0.850459629038497
40
0.888001463163516
40
0.925439398930237
40
0.962772541280592
40
1
40
1
40
1
40
1
41
1
10
59.74223380839
20
-3.09316547643647
30
0
41
1
10
59.7445330823952
20
-3.08861224329158
30
0
41
1
10
59.7491267013902
20
-3.07951553788982
30
0
41
1
10
59.7557325374871
20
-3.06578120218788
30
0
41
1
10
59.7621200312814
20
-3.05200518651307
30
0
41
1
10
59.7682691796858
20
-3.03818398547574
30
0
41
1
10
59.7741851034004
20
-3.02432382919801
30
0
41
1
10
59.779866332539
20
-3.01042831675446
30
-1E-16
41
1
10
59.7853132663186
20
-2.99650171723854
30
0
41
1
10
59.790525903629
20
-2.98254808704701
30
0
41
1
10
59.7955044389026
20
-2.96857150405128
30
0
41
1
10
59.8002490962432
20
-2.95457600288833
30
0
41
1
10
59.8047601779136
20
-2.94056559038836
30
0
41
1
10
59.8090380594904
20
-2.92654423863848
30
0
41
1
10
59.8130831992517
20
-2.91251588348987
30
1E-16
41
1
10
59.8168961433863
20
-2.89848442164651
30
0
41
1
10
59.8204775320882
20
-2.88445370826051
30
0
41
1
10
59.8238281045483
20
-2.87042755452734
30
0
41
1
10
59.8269487056421
20
-2.85640972591455
30
0
41
1
10
59.8298402824956
20
-2.84240394106453
30
0
41
1
10
59.8325038804123
20
-2.82841387073381
30
0
41
1
10
59.8349405808489
20
-2.81444313915796
30
0
41
1
10
59.8371516520343
20
-2.80049532175821
30
0
41
1
10
59.8391379124532
20
-2.78657395746427
30
0
41
1
10
59.8409020227134
20
-2.77268250662232
30
0
41
1
10
59.8424398962134
20
-2.75882451102638
30
0
41
1
10
59.8437725532648
20
-2.74500300220157
30
0
41
1
10
59.8444769728469
20
-2.73580302312538
30
0
41
1
10
59.8448286834089
20
-2.73120955370098
30
0
0
SPLINE
5
116
100
AcDbEntity
8
1
62
256
6
ByLayer
370
18
48
1
60
0
100
AcDbSpline
70
4
71
5
72
12
73
6
40
0
40
0
40
0
40
0
40
0
40
0
40
1
40
1
40
1
40
1
40
1
40
1
41
1
10
52.4446999999991
20
-3.58765261620397
30
0
41
1
10
52.4446999999991
20
-3.57892099235909
30
0
41
1
10
52.4446999999991
20
-3.57025530850598
30
0
41
1
10
52.4447
20
-3.56165441906452
30
0
41
1
10
52.4447
20
-3.55311722693119
30
0
41
1
10
52.4447000000001
20
-3.5446426781366
30
0
0
SPLINE
5
117
100
AcDbEntity
8
1
62
256
6
ByLayer
370
18
48
1
60
0
100
AcDbSpline
70
4
71
3
72
8
73
4
40
0
40
0
40
0
40
0
40
1
40
1
40
1
40
1
41
1
10
52.2986852345117
20
3.59950435964168
30
0
41
1
10
52.2957258801724
20
3.59737019370439
30
0
41
1
10
52.2930569537316
20
3.59522915415835
30
0
41
1
10
52.2908744820679
20
3.59307620526326
30
0
0
SPLINE
5
118
100
AcDbEntity
8
1
62
256
6
ByLayer
370
18
48
1
60
0
100
AcDbSpline
70
4
71
3
72
8
73
4
40
0
40
0
40
0
40
0
40
1
40
1
40
1
40
1
41
1
10
59.6658654924267
20
-2.92083741788656
30
0
41
1
10
59.7255098550801
20
-2.85767004243829
30
0
41
1
10
59.7851514758574
20
-2.79438033858872
30
0
41
1
10
59.8447909813116
20
-2.73099625989761
30
0
0
SPLINE
5
119
100
AcDbEntity
8
1
62
256
6
ByLayer
370
18
48
1
60
0
100
AcDbSpline
70
4
71
3
72
12
73
8
40
0
40
0
40
0
40
0
40
0.25
40
0.25
40
0.5
40
0.5
40
1
40
1
40
1
40
1
41
1
10
59.8448126195874
20
-2.73143213153028
30
0
41
1
10
59.8462183316749
20
-2.72366930044549
30
0
41
1
10
59.8474735220344
20
-2.71582572048646
30
0
41
1
10
59.8496313534656
20
-2.69994943200561
30
0
41
1
10
59.8505379426662
20
-2.69184589170786
30
0
41
1
10
59.8525714194978
20
-2.66801083324242
30
0
41
1
10
59.8530453317539
20
-2.65261096565305
30
0
41
1
10
59.8526210454405
20
-2.63771041958279
30
0
0
SPLINE
5
11A
100
AcDbEntity
8
1
62
256
6
ByLayer
370
18
48
1
60
0
100
AcDbSpline
70
4
71
5
72
12
73
6
40
0
40
0
40
0
40
0
40
0
40
0
40
1
40
1
40
1
40
1
40
1
40
1
41
1
10
52.4446999999988
20
-3.54464267813603
30
0
41
1
10
52.4446999999988
20
-3.51250106325597
30
0
41
1
10
52.4446999999988
20
-3.48034721900444
30
0
41
1
10
52.4446999999989
20
-3.44818143729697
30
0
41
1
10
52.4446999999989
20
-3.41600399659018
30
0
41
1
10
52.444699999999
20
-3.38381516312785
30
0
0
SPLINE
5
11B
100
AcDbEntity
8
1
62
256
6
ByLayer
370
18
48
1
60
0
100
AcDbSpline
70
4
71
3
72
8
73
4
40
0
40
0
40
0
40
0
40
1
40
1
40
1
40
1
41
1
10
52.2908744820675
20
3.59307620526329
30
0
41
1
10
52.3422168727822
20
3.58890586885906
30
0
41
1
10
52.3934969808494
20
3.58517335457421
30
0
41
1
10
52.4447000000001
20
3.58187988557964
30
0
0
SPLINE
5
11C
100
AcDbEntity
8
1
62
256
6
ByLayer
370
18
48
1
60
0
100
AcDbSpline
70
4
71
3
72
8
73
4
40
0
40
0
40
0
40
0
40
1
40
1
40
1
40
1
41
1
10
52.2446650903685
20
3.58908971928631
30
0
41
1
10
52.2602748315817
20
3.58861132879761
30
0
41
1
10
52.2756871347487
20
3.58994176555123
30
0
41
1
10
52.2908744820676
20
3.5930762052632
30
0
0
SPLINE
5
11D
100
AcDbEntity
8
1
62
256
6
ByLayer
370
18
48
1
60
0
100
AcDbSpline
70
4
71
2
72
6
73
3
40
0
40
0
40
0
40
1
40
1
40
1
41
0.499990463256266
10
59.9363767255706
20
1.19790651268987
30
0
41
0.500009536743735
10
59.9311938910889
20
1.18480471172736
30
0
41
0.499990463256266
10
59.926010564741
20
1.17170165436587
30
0
0
SPLINE
5
11E
100
AcDbEntity
8
1
62
256
6
ByLayer
370
18
48
1
60
0
100
AcDbSpline
70
4
71
3
72
18
73
14
40
0
40
0
40
0
40
0
40
0.249999999999997
40
0.249999999999997
40
0.499999999999994
40
0.499999999999994
40
0.562499999999977
40
0.562499999999977
40
0.624999999999961
40
0.624999999999961
40
0.749999999999962
40
0.749999999999962
40
1
40
1
40
1
40
1
41
1
10
59.9507144152874
20
2.76653208755681
30
0
41
1
10
59.9045421133578
20
2.82970987237101
30
0
41
1
10
59.8540531568248
20
2.8892548942558
30
-1E-16
41
1
10
59.7447847675399
20
3.00136792979902
30
1E-16
41
1
10
59.686054042873
20
3.05397693467518
30
0
41
1
10
59.6074667451011
20
3.11538400342724
30
0
41
1
10
59.5914902979765
20
3.1274474612527
30
0
41
1
10
59.5590290146411
20
3.15114653238268
30
-1E-16
41
1
10
59.5425532353491
20
3.16277661278588
30
-1E-16
41
1
10
59.4927345864173
20
3.19676617744923
30
1E-16
41
1
10
59.4588599904794
20
3.21827844431755
30
0
41
1
10
59.3554554293407
20
3.27972939635575
30
1E-16
41
1
10
59.2841098697173
20
3.31652189252637
30
0
41
1
10
59.2104250200252
20
3.34926070325389
30
-1E-16
0
SPLINE
5
11F
100
AcDbEntity
8
1
62
256
6
ByLayer
370
18
48
1
60
0
100
AcDbSpline
70
4
71
3
72
8
73
4
40
0
40
0
40
0
40
0
40
1
40
1
40
1
40
1
41
1
10
59.5210639924581
20
3.356299063943
30
-1E-16
41
1
10
59.5433360712343
20
3.34718877155217
30
-1E-16
41
1
10
59.5655909084504
20
3.33822892488485
30
0
41
1
10
59.5878358152775
20
3.32942950619358
30
0
0
SPLINE
5
120
100
AcDbEntity
8
1
62
256
6
ByLayer
370
18
48
1
60
0
100
AcDbSpline
70
4
71
3
72
8
73
4
40
0
40
0
40
0
40
0
40
1
40
1
40
1
40
1
41
1
10
59.1453052458082
20
3.47331957882002
30
1E-16
41
1
10
59.2706835959404
20
3.42973508636561
30
0
41
1
10
59.3960637127681
20
3.38998533145369
30
1E-16
41
1
10
59.5210639924582
20
3.356299063943
30
-1E-16
0
SPLINE
5
121
100
AcDbEntity
8
1
62
256
6
ByLayer
370
18
48
1
60
0
100
AcDbSpline
70
4
71
3
72
20
73
16
40
0
40
0
40
0
40
0
40
0.103960837429348
40
0.103960837429348
40
0.207921674858697
40
0.207921674858697
40
0.415843349717289
40
0.415843349717289
40
0.519804187146631
40
0.519804187146631
40
0.623765024575974
40
0.623765024575974
40
0.831686699434737
40
0.831686699434737
40
1
40
1
40
1
40
1
41
1
10
59.5694727083524
20
5.68E-14
30
0
41
1
10
59.5620287816245
20
0.0023433436556672
30
0
41
1
10
59.554744513274
20
0.0049564246244245
30
0
41
1
10
59.5404786480498
20
0.0107960638030136
30
0
41
1
10
59.5335277939194
20
0.0140134576604396
30
0
41
1
10
59.5134306524953
20
0.0245091829931425
30
0
41
1
10
59.5009336865115
20
0.032670593096185
30
0
41
1
10
59.4833378786152
20
0.0469270337844421
30
0
41
1
10
59.4776646326777
20
0.0520153927397473
30
0
41
1
10
59.4666731997138
20
0.0629130605312582
30
0
41
1
10
59.4613382295182
20
0.0687428704658544
30
0
41
1
10
59.4459393574036
20
0.0872508489540849
30
0
41
1
10
59.436655684521
20
0.10071629199291
30
0
41
1
10
59.4212571895946
20
0.126962752527163
30
0
41
1
10
59.4148759501335
20
0.13938473084508
30
0
41
1
10
59.4089330751298
20
0.152431649508515
30
0
0
SPLINE
5
122
100
AcDbEntity
8
1
62
256
6
ByLayer
370
18
48
1
60
0
100
AcDbSpline
70
4
71
3
72
8
73
4
40
0
40
0
40
0
40
0
40
1
40
1
40
1
40
1
41
1
10
59.1453052458082
20
3.47331957882008
30
1E-16
41
1
10
59.1686376844235
20
3.43280125482534
30
0
41
1
10
59.1904110982828
20
3.39147491160452
30
0
41
1
10
59.2104250200216
20
3.34926070325213
30
-1E-16
0
SPLINE
5
123
100
AcDbEntity
8
1
62
256
6
ByLayer
370
18
48
1
60
0
100
AcDbSpline
70
4
71
3
72
8
73
4
40
0
40
0
40
0
40
0
40
1
40
1
40
1
40
1
41
1
10
58.9870283853958
20
3.53984103825405
30
-1E-16
41
1
10
59.0398295274052
20
3.51841903436406
30
0
41
1
10
59.0925844448765
20
3.49624296758768
30
0
41
1
10
59.1453052458099
20
3.47331957881931
30
1E-16
0
SPLINE
5
124
100
AcDbEntity
8
1
62
256
6
ByLayer
370
18
48
1
60
0
100
AcDbSpline
70
4
71
3
72
41
73
37
40
0
40
0
40
0
40
0
40
0.124999999999968
40
0.124999999999968
40
0.187499999999953
40
0.187499999999953
40
0.249999999999936
40
0.312499999999921
40
0.312499999999921
40
0.343749999999914
40
0.343749999999914
40
0.374999999999907
40
0.374999999999907
40
0.437499999999893
40
0.437499999999893
40
0.46874999999989
40
0.46874999999989
40
0.499999999999888
40
0.499999999999888
40
0.624999999999877
40
0.624999999999877
40
0.65624999999988
40
0.65624999999988
40
0.687499999999882
40
0.687499999999882
40
0.749999999999887
40
0.749999999999887
40
0.781249999999891
40
0.781249999999891
40
0.812499999999894
40
0.812499999999894
40
0.87499999999993
40
0.87499999999993
40
0.937499999999965
40
0.937499999999965
40
1
40
1
40
1
40
1
41
1
10
58.5652048517626
20
2.15809437562939
30
1E-16
41
1
10
58.5390288098184
20
2.17524303363098
30
0
41
1
10
58.517423094521
20
2.1938380567737
30
0
41
1
10
58.4917616813306
20
2.22483028768548
30
-1E-16
41
1
10
58.4843135689289
20
2.2357680456258
30
1E-16
41
1
10
58.4721035097858
20
2.25833067830035
30
0
41
1
10
58.4624679994428
20
2.28166345391565
30
0
41
1
10
58.457762152311
20
2.30690367664124
30
-1E-16
41
1
10
58.4560756716559
20
2.32671757050139
30
1E-16
41
1
10
58.4558258135422
20
2.33344524473537
30
1E-16
41
1
10
58.4559314899105
20
2.34702115690931
30
1E-16
41
1
10
58.4562850076809
20
2.3538902168452
30
0
41
1
10
58.4582107279859
20
2.3747650195715
30
0
41
1
10
58.4606445575673
20
2.38903818006298
30
0
41
1
10
58.4659400588829
20
2.41108046714552
30
-1E-16
41
1
10
58.4679802438652
20
2.41853334920143
30
1E-16
41
1
10
58.4726081888784
20
2.43366726346494
30
1E-16
41
1
10
58.4751928275425
20
2.44133201466531
30
1E-16
41
1
10
58.4892608685833
20
2.47970331678579
30
0
41
1
10
58.5042237560136
20
2.51097956464861
30
-1E-16
41
1
10
58.5272319860132
20
2.55100768491778
30
0
41
1
10
58.5320548427321
20
2.55905818063181
30
0
41
1
10
58.5420054318696
20
2.57502909148627
30
0
41
1
10
58.5471488810457
20
2.58297757791405
30
-1E-16
41
1
10
58.5630768268738
20
2.60671090344525
30
1E-16
41
1
10
58.5743549925319
20
2.62238548386625
30
1E-16
41
1
10
58.5923024642672
20
2.64563899041767
30
0
41
1
10
58.5984576007643
20
2.65334665380033
30
0
41
1
10
58.611132923392
20
2.66866256044727
30
0
41
1
10
58.6176767311731
20
2.67629632817179
30
-1E-16
41
1
10
58.6376335632351
20
2.6987276728556
30
-1E-16
41
1
10
58.6514110822744
20
2.71311938956734
30
1E-16
41
1
10
58.6800589740228
20
2.74062328149432
30
0
41
1
10
58.6949271795313
20
2.75373783427352
30
0
41
1
10
58.7260477701643
20
2.77837047500168
30
-1E-16
41
1
10
58.7423889351944
20
2.78993469132743
30
-1E-16
41
1
10
58.759235364452
20
2.80015670032057
30
1E-16
0
SPLINE
5
125
100
AcDbEntity
8
1
62
256
6
ByLayer
370
18
48
1
60
0
100
AcDbSpline
70
4
71
3
72
20
73
16
40
0
40
0
40
0
40
0
40
0.125000000000046
40
0.125000000000046
40
0.187500000000061
40
0.187500000000061
40
0.250000000000076
40
0.250000000000076
40
0.500000000000059
40
0.500000000000059
40
0.625000000000034
40
0.625000000000034
40
0.750000000000008
40
0.750000000000008
40
1
40
1
40
1
40
1
41
1
10
59.2104250200194
20
3.34926070325525
30
-1E-16
41
1
10
59.202639443947
20
3.32075479619712
30
0
41
1
10
59.1932346688081
20
3.29266285647518
30
1E-16
41
1
10
59.1766314393605
20
3.25116309579005
30
-1E-16
41
1
10
59.170680789287
20
3.23743625895901
30
0
41
1
10
59.1579330447993
20
3.21019898877432
30
0
41
1
10
59.1511222459245
20
3.19666836936955
30
1E-16
41
1
10
59.1153627068496
20
3.13034873429081
30
0
41
1
10
59.0810562791515
20
3.08093160632842
30
1E-16
41
1
10
59.0220456281236
20
3.01162709954946
30
0
41
1
10
59.0010787315248
20
2.98929868023956
30
1E-16
41
1
10
58.9568889862941
20
2.94631187072082
30
0
41
1
10
58.9339230005077
20
2.92589375650832
30
0
41
1
10
58.862725619506
20
2.86747779192311
30
-1E-16
41
1
10
58.8122095219535
20
2.83230014781918
30
0
41
1
10
58.7592353644521
20
2.80015670032054
30
1E-16
0
SPLINE
5
126
100
AcDbEntity
8
1
62
256
6
ByLayer
370
18
48
1
60
0
100
AcDbSpline
70
4
71
3
72
10
73
6
40
0
40
0
40
0
40
0
40
0.5
40
0.5
40
1
40
1
40
1
40
1
41
1
10
58.6749514055045
20
2.10648607490768
30
-1E-16
41
1
10
58.789153497361
20
2.06647557700401
30
0
41
1
10
58.9033664326898
20
2.02485865615157
30
-1E-16
41
1
10
59.1317009155673
20
1.93852788631833
30
-1E-16
41
1
10
59.2458071008435
20
1.89381554721282
30
0
41
1
10
59.3598572447936
20
1.84768331024907
30
-1E-16
0
SPLINE
5
127
100
AcDbEntity
8
1
62
256
6
ByLayer
370
18
48
1
60
0
100
AcDbSpline
70
4
71
3
72
10
73
6
40
0
40
0
40
0
40
0
40
0.5
40
0.5
40
1
40
1
40
1
40
1
41
1
10
58.6749514055044
20
2.10648607490771
30
-1E-16
41
1
10
58.6541968086182
20
2.11375741067494
30
-1E-16
41
1
10
58.6346806496185
20
2.1215378618688
30
-1E-16
41
1
10
58.5980966813516
20
2.13852107179366
30
1E-16
41
1
10
58.5810324748763
20
2.14772507735978
30
1E-16
41
1
10
58.5652048517626
20
2.15809437562939
30
1E-16
0
SPLINE
5
128
100
AcDbEntity
8
1
62
256
6
ByLayer
370
18
48
1
60
0
100
AcDbSpline
70
4
71
3
72
8
73
4
40
0
40
0
40
0
40
0
40
1
40
1
40
1
40
1
41
1
10
52.4446999999989
20
-3.38381516304622
30
0
41
1
10
52.3013077728549
20
-3.42283108752886
30
0
41
1
10
52.1587453407563
20
-3.46567476834141
30
0
41
1
10
52.0169991224814
20
-3.51228355675062
30
0
0
SPLINE
5
129
100
AcDbEntity
8
1
62
256
6
ByLayer
370
18
48
1
60
0
100
AcDbSpline
70
4
71
3
72
10
73
6
40
0
40
0
40
0
40
0
40
0.5
40
0.5
40
1
40
1
40
1
40
1
41
1
10
59.5130746587685
20
1.78432854811996
30
0
41
1
10
59.5361836182021
20
1.73961586492794
30
-1E-16
41
1
10
59.5604965175943
20
1.69115222130989
30
0
41
1
10
59.6114796233638
20
1.58679561357005
30
-2E-16
41
1
10
59.638128308163
20
1.53094563907356
30
0
41
1
10
59.6658654924266
20
1.47156125790602
30
1E-16
0
SPLINE
5
12A
100
AcDbEntity
8
1
62
256
6
ByLayer
370
18
48
1
60
0
100
AcDbSpline
70
4
71
3
72
8
73
4
40
0
40
0
40
0
40
0
40
1
40
1
40
1
40
1
41
1
10
59.3598572472704
20
1.84768330974191
30
-1E-16
41
1
10
59.4109736850291
20
1.82700725095216
30
-1E-16
41
1
10
59.4620460143136
20
1.80588759226885
30
0
41
1
10
59.5130746587685
20
1.78432854811996
30
0
0
SPLINE
5
12B
100
AcDbEntity
8
1
62
256
6
ByLayer
370
18
48
1
60
0
100
AcDbSpline
70
4
71
3
72
8
73
4
40
0
40
0
40
0
40
0
40
1
40
1
40
1
40
1
41
1
10
59.6685916606086
20
-1.409435763728
30
2E-16
41
1
10
59.7273272226599
20
-1.50937790216673
30
0
41
1
10
59.7860601303288
20
-1.60922042251454
30
2E-16
41
1
10
59.8447909812945
20
-1.70898575458034
30
0
0
SPLINE
5
12C
100
AcDbEntity
8
1
62
256
6
ByLayer
370
18
48
1
60
0
100
AcDbSpline
70
4
71
3
72
8
73
4
40
0
40
0
40
0
40
0
40
1
40
1
40
1
40
1
41
1
10
59.5483681829505
20
-0.851339890711586
30
2E-16
41
1
10
59.5485031801278
20
-0.852017706318634
30
2E-16
41
1
10
59.548637544007
20
-0.852695433665332
30
2E-16
41
1
10
59.5487712701128
20
-0.853373072127624
30
-2E-16
0
SPLINE
5
12D
100
AcDbEntity
8
1
62
256
6
ByLayer
370
18
48
1
60
0
100
AcDbSpline
70
4
71
3
72
10
73
6
40
0
40
0
40
0
40
0
40
0.5
40
0.5
40
1
40
1
40
1
40
1
41
1
10
58.6749514101991
20
-0.31604375936169
30
-1E-16
41
1
10
58.8206382840657
20
-0.405933236776946
30
1E-16
41
1
10
58.9663318354375
20
-0.495516171861908
30
-2E-16
41
1
10
59.257531550111
20
-0.6739681883451
30
-2E-16
41
1
10
59.4030048955517
20
-0.762817772935193
30
0
41
1
10
59.5483681829547
20
-0.851339890704196
30
2E-16
0
SPLINE
5
12E
100
AcDbEntity
8
1
62
256
6
ByLayer
370
18
48
1
60
0
100
AcDbSpline
70
4
71
3
72
18
73
14
40
0
40
0
40
0
40
0
40
0.24999999999993
40
0.24999999999993
40
0.499999999999859
40
0.499999999999859
40
0.562499999999867
40
0.562499999999867
40
0.624999999999875
40
0.624999999999875
40
0.749999999999917
40
0.749999999999917
40
1
40
1
40
1
40
1
41
1
10
59.5878358152774
20
-2.6565433574234
30
0
41
1
10
59.6324025789817
20
-2.63080061653582
30
-1E-16
41
1
10
59.6732645506879
20
-2.60347390967692
30
-1E-16
41
1
10
59.7482457572394
20
-2.54586182560214
30
2E-16
41
1
10
59.782354230032
20
-2.5155398377413
30
1E-16
41
1
10
59.8207663471936
20
-2.47573448630666
30
0
41
1
10
59.8282361440309
20
-2.4676778475783
30
0
41
1
10
59.8427446433985
20
-2.45137158326548
30
0
41
1
10
59.8497991716656
20
-2.44310214228733
30
0
41
1
10
59.8701708945599
20
-2.41816712895655
30
-1E-16
41
1
10
59.8826869552358
20
-2.40139830953115
30
-1E-16
41
1
10
59.9171333170935
20
-2.35067504375974
30
0
41
1
10
59.9359828775718
20
-2.31629585660707
30
1E-16
41
1
10
59.9507144152873
20
-2.28150502646167
30
0
0
SPLINE
5
12F
100
AcDbEntity
8
1
62
256
6
ByLayer
370
18
48
1
60
0
100
AcDbSpline
70
4
71
3
72
10
73
6
40
0
40
0
40
0
40
0
40
0.5
40
0.5
40
1
40
1
40
1
40
1
41
1
10
59.9742875952874
20
-2.08152639496294
30
0
41
1
10
59.9754207444668
20
-2.11551388905136
30
1E-16
41
1
10
59.9739355311432
20
-2.1491611716074
30
-1E-16
41
1
10
59.9660218294346
20
-2.21581344243572
30
1E-16
41
1
10
59.9595982745624
20
-2.24881907174216
30
-1E-16
41
1
10
59.9507144152873
20
-2.28150502646167
30
0
0
SPLINE
5
130
100
AcDbEntity
8
1
62
256
6
ByLayer
370
18
48
1
60
0
100
AcDbSpline
70
4
71
3
72
12
73
8
40
0
40
0
40
0
40
0
40
0.250000000000004
40
0.250000000000004
40
0.500000000000007
40
0.500000000000007
40
1
40
1
40
1
40
1
41
1
10
59.8448126195873
20
-1.70938328295801
30
0
41
1
10
59.8462183316749
20
-1.70684244297155
30
0
41
1
10
59.8474735220344
20
-1.70385665362212
30
0
41
1
10
59.8496313534656
20
-1.69684292251782
30
0
41
1
10
59.8505379426662
20
-1.69276929700556
30
0
41
1
10
59.8525714194977
20
-1.67918307011138
30
-1E-16
41
1
10
59.8530453317538
20
-1.66827640219913
30
-1E-16
41
1
10
59.8526210454405
20
-1.65548603188185
30
-1E-16
0
SPLINE
5
131
100
AcDbEntity
8
1
62
256
6
ByLayer
370
18
48
1
60
0
100
AcDbSpline
70
4
71
3
72
33
73
29
40
0
40
0
40
0
40
0
40
0.0396089088290896
40
0.0791329069782899
40
0.118571146832084
40
0.157922789096797
40
0.197187000368427
40
0.236362946061836
40
0.275449782799133
40
0.314446652362829
40
0.353352677435676
40
0.392166962264026
40
0.430888600552786
40
0.469516684167838
40
0.508050310202326
40
0.546488586393437
40
0.584830634943364
40
0.623075594801053
40
0.661222622234417
40
0.699270886575127
40
0.737219560004689
40
0.775067808375317
40
0.812814785247624
40
0.850459629044339
40
0.888001463168107
40
0.925439398933452
40
0.962772541282275
40
1
40
1
40
1
40
1
41
1
10
59.7422338085527
20
-1.99680709164568
30
-2E-16
41
1
10
59.7445330825581
20
-1.99339846105809
30
-2E-16
41
1
10
59.7491267015537
20
-1.9865885070557
30
2E-16
41
1
10
59.7557325376511
20
-1.97623834052712
30
2E-16
41
1
10
59.7621200314451
20
-1.96580724631244
30
2E-16
41
1
10
59.768269179849
20
-1.95528805142067
30
1E-16
41
1
10
59.7741851035628
20
-1.94468710747927
30
1E-16
41
1
10
59.7798663327
20
-1.93400716245955
30
1E-16
41
1
10
59.7853132664777
20
-1.92325193069487
30
1E-16
41
1
10
59.790525903786
20
-1.91242486848341
30
0
41
1
10
59.7955044390569
20
-1.90152949675883
30
0
41
1
10
59.8002490963943
20
-1.89056931109354
30
0
41
1
10
59.8047601780611
20
-1.87954780542526
30
0
41
1
10
59.8090380596341
20
-1.8684684657093
30
-1E-16
41
1
10
59.8130831993909
20
-1.85733477112515
30
-1E-16
41
1
10
59.8168961435208
20
-1.84615019318528
30
-1E-16
41
1
10
59.8204775322175
20
-1.83491819543855
30
-1E-16
41
1
10
59.823828104672
20
-1.82364223290188
30
-2E-16
41
1
10
59.8269487057598
20
-1.81232575243459
30
-2E-16
41
1
10
59.829840282607
20
-1.80097219109322
30
-2E-16
41
1
10
59.832503880517
20
-1.78958497294335
30
2E-16
41
1
10
59.8349405809465
20
-1.77816749612165
30
2E-16
41
1
10
59.8371516521242
20
-1.7667231600212
30
1E-16
41
1
10
59.8391379125355
20
-1.75525524518423
30
1E-16
41
1
10
59.8409020227873
20
-1.74376734136683
30
1E-16
41
1
10
59.8424398962788
20
-1.73226173891413
30
1E-16
41
1
10
59.8437725533213
20
-1.72074538996458
30
0
41
1
10
59.8444769728972
20
-1.71304264326807
30
0
41
1
10
59.8448286834561
20
-1.70919672893052
30
0
0
SPLINE
5
132
100
AcDbEntity
8
1
62
256
6
ByLayer
370
18
48
1
60
0
100
AcDbSpline
70
4
71
3
72
16
73
12
40
0
40
0
40
0
40
0
40
0.152557091724509
40
0.305501090493242
40
0.458826469274847
40
0.547130158370577
40
0.636192999439326
40
0.726013191769827
40
0.816588942944264
40
0.907918469888711
40
1
40
1
40
1
40
1
41
1
10
59.6314868161154
20
-2.12070002876288
30
1E-16
41
1
10
59.6266904062365
20
-2.12480845075407
30
1E-16
41
1
10
59.6170854220834
20
-2.1330357142941
30
1E-16
41
1
10
59.602139408005
20
-2.14497653935481
30
1E-16
41
1
10
59.5889667136623
20
-2.1549764486019
30
2E-16
41
1
10
59.5776971745369
20
-2.16315775939509
30
2E-16
41
1
10
59.5684611542578
20
-2.16965118861225
30
2E-16
41
1
10
59.5590150682222
20
-2.17607961370487
30
2E-16
41
1
10
59.5493546492794
20
-2.18243550860217
30
-2E-16
41
1
10
59.5394902805747
20
-2.18872606906737
30
-2E-16
41
1
10
59.5327750151553
20
-2.19282628063482
30
-2E-16
41
1
10
59.5294036158249
20
-2.1948847920516
30
-2E-16
0
SPLINE
5
133
100
AcDbEntity
8
1
62
256
6
ByLayer
370
18
48
1
60
0
100
AcDbSpline
70
4
71
3
72
8
73
4
40
0
40
0
40
0
40
0
40
1
40
1
40
1
40
1
41
1
10
59.6658654924267
20
-2.92083741788701
30
0
41
1
10
59.6672462873416
20
-2.92470491636757
30
0
41
1
10
59.6685675036028
20
-2.92857691940023
30
0
41
1
10
59.6698296297562
20
-2.93245350213533
30
0
0
SPLINE
5
134
100
AcDbEntity
8
1
62
256
6
ByLayer
370
18
48
1
60
0
100
AcDbSpline
70
4
71
3
72
10
73
6
40
0
40
0
40
0
40
0
40
0.31565349525848
40
0.31565349525848
40
1
40
1
40
1
40
1
41
1
10
59.5514690389546
20
-2.67363800951176
30
0
41
1
10
59.5627229702894
20
-2.70220286523124
30
0
41
1
10
59.5742301412548
20
-2.72998189703452
30
0
41
1
10
59.6114796233638
20
-2.81545532972052
30
0
41
1
10
59.6381283081632
20
-2.87013832602369
30
0
41
1
10
59.6658654924267
20
-2.92083741788701
30
0
0
SPLINE
5
135
100
AcDbEntity
8
1
62
256
6
ByLayer
370
18
48
1
60
0
100
AcDbSpline
70
4
71
3
72
17
73
13
40
0
40
0
40
0
40
0
40
0.285950109043651
40
0.285950109043651
40
0.428925163565476
40
0.428925163565476
40
0.571900218087302
40
0.714875272609127
40
0.714875272609127
40
0.857850327130953
40
0.857850327130953
40
1
40
1
40
1
40
1
41
1
10
59.6698296297564
20
-2.9324535021353
30
0
41
1
10
59.675422214617
20
-2.9467382963827
30
0
41
1
10
59.6807404535026
20
-2.95919468765123
30
0
41
1
10
59.6888665526669
20
-2.97500915022718
30
0
41
1
10
59.6916041014793
20
-2.97980951207984
30
0
41
1
10
59.697183914702
20
-2.98839444489513
30
0
41
1
10
59.7028667741828
20
-2.99596569856848
30
0
41
1
10
59.7089008566545
20
-3.00153365916356
30
0
41
1
10
59.7151741221404
20
-3.00611140884914
30
0
41
1
10
59.7184300973327
20
-3.00790247813313
30
0
41
1
10
59.7251681863811
20
-3.01048872969435
30
0
41
1
10
59.7286551118734
20
-3.01129462559123
30
0
41
1
10
59.7322859613965
20
-3.01163338575455
30
0
0
SPLINE
5
136
100
AcDbEntity
8
1
62
256
6
ByLayer
370
18
48
1
60
0
100
AcDbSpline
70
4
71
3
72
17
73
13
40
0
40
0
40
0
40
0
40
0.0850146864116451
40
0.215726874067124
40
0.313761014808734
40
0.411795155550343
40
0.477151249378083
40
0.542507343205823
40
0.640541483947432
40
0.738575624689041
40
0.869287812344521
40
1
40
1
40
1
40
1
41
1
10
59.6698296297573
20
-2.9324535021353
30
0
41
1
10
59.4650822531716
20
-2.93284845826432
30
0
41
1
10
58.945530709919
20
-2.91568331042549
30
0
41
1
10
58.1898760416667
20
-2.82487060171383
30
0
41
1
10
57.402865625
20
-2.66098095597152
30
0
41
0.999999999999999
10
56.7732572916667
20
-2.48499803074094
30
0
41
1
10
56.22235
20
-2.30062030099569
30
1E-16
41
0.999999999999999
10
55.6714427083333
20
-2.09321229883978
30
0
41
1
10
55.041834375
20
-1.82584661633032
30
-2E-16
41
1
10
54.2548239583333
20
-1.45274409824703
30
-1E-16
41
1
10
53.3891125
20
-1.00196159074471
30
1E-16
41
1
10
52.7595041666666
20
-0.651400937403025
30
2E-16
41
1
10
52.4447
20
-0.472952401887483
30
2E-16
0
SPLINE
5
137
100
AcDbEntity
8
1
62
256
6
ByLayer
370
18
48
1
60
0
100
AcDbSpline
70
4
71
3
72
8
73
4
40
0
40
0
40
0
40
0
40
1
40
1
40
1
40
1
41
1
10
59.6685916606095
20
-1.40943576372325
30
2E-16
41
1
10
59.6711176025373
20
-1.4264728043326
30
-2E-16
41
1
10
59.6733336372449
20
-1.44356051089602
30
-2E-16
41
1
10
59.6752403058743
20
-1.46069855499925
30
-1E-16
0
SPLINE
5
138
100
AcDbEntity
8
1
62
256
6
ByLayer
370
18
48
1
60
0
100
AcDbSpline
70
4
71
3
72
10
73
6
40
0
40
0
40
0
40
0
40
0.5
40
0.5
40
1
40
1
40
1
40
1
41
1
10
59.5487712744982
20
-0.853373071506809
30
-2E-16
41
1
10
59.5669831334243
20
-0.945658706637914
30
0
41
1
10
59.5860799683296
20
-1.03819497319867
30
2E-16
41
1
10
59.6260534546167
20
-1.22372843120274
30
2E-16
41
1
10
59.6469073936619
20
-1.31661564395688
30
0
41
1
10
59.6685916606095
20
-1.40943576372325
30
2E-16
0
SPLINE
5
139
100
AcDbEntity
8
1
62
256
6
ByLayer
370
18
48
1
60
0
100
AcDbSpline
70
4
71
3
72
8
73
4
40
0
40
0
40
0
40
0
40
1
40
1
40
1
40
1
41
1
10
52.6983377657757
20
2.23188287215524
30
-1E-16
41
1
10
52.6822057055226
20
2.23630503479873
30
-1E-16
41
1
10
52.6660736452695
20
2.24069485600205
30
-1E-16
41
1
10
52.6499415850163
20
2.24505219596821
30
-1E-16
0
SPLINE
5
13A
100
AcDbEntity
8
1
62
256
6
ByLayer
370
18
48
1
60
0
100
AcDbSpline
70
4
71
3
72
8
73
4
40
0
40
0
40
0
40
0
40
1
40
1
40
1
40
1
41
1
10
59.6658654924267
20
1.47156125790576
30
1E-16
41
1
10
59.72550985508
20
1.30916009386846
30
0
41
1
10
59.7851514758574
20
1.14674115480238
30
0
41
1
10
59.8447909813115
20
0.984308502522566
30
-1E-16
0
SPLINE
5
13B
100
AcDbEntity
8
1
62
256
6
ByLayer
370
18
48
1
60
0
100
AcDbSpline
70
4
71
3
72
8
73
4
40
0
40
0
40
0
40
0
40
1
40
1
40
1
40
1
41
1
10
59.6658654924266
20
1.47156125790602
30
1E-16
41
1
10
59.6672462873415
20
1.46739214695799
30
1E-16
41
1
10
59.6685675036028
20
1.46321567233849
30
1E-16
41
1
10
59.6698296297562
20
1.45903200382995
30
1E-16
0
SPLINE
5
13C
100
AcDbEntity
8
1
62
256
6
ByLayer
370
18
48
1
60
0
100
AcDbSpline
70
4
71
3
72
17
73
13
40
0
40
0
40
0
40
0
40
0.249999999999982
40
0.249999999999982
40
0.374999999999982
40
0.374999999999982
40
0.499999999999981
40
0.624999999999981
40
0.624999999999981
40
0.74999999999998
40
0.74999999999998
40
1
40
1
40
1
40
1
41
1
10
59.6698296297563
20
1.45903200382992
30
1E-16
41
1
10
59.675422214617
20
1.44091064782617
30
2E-16
41
1
10
59.6807404535026
20
1.42121443593726
30
-2E-16
41
1
10
59.6888665526669
20
1.38928858523937
30
-1E-16
41
1
10
59.6916041014793
20
1.3782297603278
30
-1E-16
41
1
10
59.697183914702
20
1.35543002049238
30
-1E-16
41
1
10
59.7028667482032
20
1.33195765238213
30
0
41
1
10
59.7089008566545
20
1.30717973892928
30
0
41
1
10
59.7151741221403
20
1.28176712914848
30
1E-16
41
1
10
59.7184300973327
20
1.26874566247781
30
1E-16
41
1
10
59.7285664891275
20
1.22903142284198
30
-2E-16
41
1
10
59.7358405644711
20
1.2016053085994
30
-2E-16
41
1
10
59.7437637265372
20
1.17332619771471
30
-1E-16
0
SPLINE
5
13D
100
AcDbEntity
8
1
62
256
6
ByLayer
370
18
48
1
60
0
100
AcDbSpline
70
4
71
3
72
40
73
36
40
0
40
0
40
0
40
0
40
0.124999999999996
40
0.124999999999996
40
0.156249999999995
40
0.156249999999995
40
0.187499999999994
40
0.187499999999994
40
0.249999999999992
40
0.249999999999992
40
0.281249999999991
40
0.281249999999991
40
0.31249999999999
40
0.31249999999999
40
0.374999999999988
40
0.374999999999988
40
0.437499999999986
40
0.437499999999986
40
0.499999999999984
40
0.499999999999984
40
0.624999999999988
40
0.624999999999988
40
0.68749999999999
40
0.68749999999999
40
0.749999999999992
40
0.749999999999992
40
0.812499999999994
40
0.812499999999994
40
0.843749999999995
40
0.843749999999995
40
0.874999999999996
40
0.874999999999996
40
0.937499999999998
40
0.937499999999998
40
1
40
1
40
1
40
1
41
1
10
59.5694727083524
20
5.68E-14
30
0
41
1
10
59.540263770431
20
-0.0144776720077857
30
0
41
1
10
59.5143977192122
20
-0.0284370928792441
30
0
41
1
10
59.4852395210584
20
-0.0420201084108953
30
0
41
1
10
59.4795904591586
20
-0.0445271709158419
30
0
41
1
10
59.4688015501414
20
-0.0489783815514784
30
0
41
1
10
59.4636342541671
20
-0.0509354856170887
30
0
41
1
10
59.4487491251222
20
-0.0559384488533112
30
0
41
1
10
59.4396447233555
20
-0.0581097724287361
30
0
41
1
10
59.4270169228049
20
-0.0594747947483825
30
0
41
1
10
59.4229653785225
20
-0.0596150541994689
30
0
41
1
10
59.4152530267033
20
-0.05926603099212
30
0
41
1
10
59.4116114534781
20
-0.0587808334074964
30
0
41
1
10
59.4012547292922
20
-0.0564737345347623
30
0
41
1
10
59.3951023471876
20
-0.0538018451048288
30
0
41
1
10
59.3840497431831
20
-0.0466046367254194
30
0
41
1
10
59.3791414252465
20
-0.042067921554434
30
0
41
1
10
59.3705185503437
20
-0.0315525426628653
30
0
41
1
10
59.3668468139506
20
-0.0256367258502053
30
0
41
1
10
59.3575808883898
20
-0.0064408250560177
30
0
41
1
10
59.3536973581905
20
0.0082591697350267
30
0
41
1
10
59.3515509375885
20
0.0318948749185779
30
0
41
1
10
59.3514587082664
20
0.0400465783673383
30
0
41
1
10
59.3526992132604
20
0.0567593472414103
30
0
41
1
10
59.3540262806833
20
0.0652362644363222
30
0
41
1
10
59.3582898112422
20
0.0822612017954043
30
0
41
1
10
59.3612240932299
20
0.0908132450657035
30
0
41
1
10
59.3670869512242
20
0.103585231903708
30
0
41
1
10
59.3692861201251
20
0.10783311704526
30
0
41
1
10
59.3742393755817
20
0.116287697153268
30
-1E-16
41
1
10
59.3770039438915
20
0.120508468707555
30
1E-16
41
1
10
59.386178202983
20
0.132959382593384
30
0
41
1
10
59.3934249801932
20
0.140950024986466
30
0
41
1
10
59.4107635339331
20
0.15598508055163
30
0
41
1
10
59.4208408878957
20
0.163036561575041
30
0
41
1
10
59.4328796747769
20
0.169345313692219
30
0
0
SPLINE
5
13E
100
AcDbEntity
8
1
62
256
6
ByLayer
370
18
48
1
60
0
100
AcDbSpline
70
4
71
3
72
10
73
6
40
0
40
0
40
0
40
0
40
0.5
40
0.5
40
1
40
1
40
1
40
1
41
1
10
58.6749514101991
20
-0.31604375936169
30
-1E-16
41
1
10
58.654196812583
20
-0.30323807629523
30
-2E-16
41
1
10
58.6346806528175
20
-0.28897154845049
30
-2E-16
41
1
10
58.598096682963
20
-0.257586477263345
30
2E-16
41
1
10
58.58103247567
20
-0.240463663815802
30
1E-16
41
1
10
58.5652048517626
20
-0.221939110272018
30
1E-16
0
SPLINE
5
13F
100
AcDbEntity
8
1
62
256
6
ByLayer
370
18
48
1
60
0
100
AcDbSpline
70
4
71
3
72
20
73
16
40
0
40
0
40
0
40
0
40
0.250000000000022
40
0.250000000000022
40
0.375000000000018
40
0.375000000000018
40
0.500000000000014
40
0.500000000000014
40
0.62500000000001
40
0.62500000000001
40
0.750000000000007
40
0.750000000000007
40
0.875000000000003
40
0.875000000000003
40
1
40
1
40
1
40
1
41
1
10
59.7437637265372
20
-3.01124425037284
30
0
41
1
10
59.7481117042646
20
-3.01059350999037
30
0
41
1
10
59.7518380640325
20
-3.01131984508854
30
0
41
1
10
59.7561457490534
20
-3.01498907627459
30
0
41
1
10
59.7573654350512
20
-3.01664621391669
30
0
41
1
10
59.7592540169111
20
-3.02100905697904
30
0
41
1
10
59.7599140978193
20
-3.02371724618166
30
0
41
1
10
59.7604997907024
20
-3.03020727361897
30
0
41
1
10
59.7604343764084
20
-3.0340012818267
30
0
41
1
10
59.7594024879572
20
-3.04290263429598
30
0
41
1
10
59.758435661409
20
-3.04794584023404
30
0
41
1
10
59.7555380844328
20
-3.05905379813637
30
0
41
1
10
59.7536048551106
20
-3.06514918974082
30
0
41
1
10
59.7486290600855
20
-3.0785218091674
30
0
41
1
10
59.7456555894653
20
-3.08560637030413
30
0
41
1
10
59.7422250515267
20
-3.09301109011895
30
0
0
SPLINE
5
140
100
AcDbEntity
8
1
62
256
6
ByLayer
370
18
48
1
60
0
100
AcDbSpline
70
4
71
3
72
8
73
4
40
0
40
0
40
0
40
0
40
1
40
1
40
1
40
1
41
1
10
59.7421573886543
20
-3.09331514251446
30
0
41
1
10
59.7394228257924
20
-3.09892151416844
30
0
41
1
10
59.7365083695921
20
-3.10464733847053
30
-1E-16
41
1
10
59.7334212405479
20
-3.11047966644139
30
0
0
SPLINE
5
141
100
AcDbEntity
8
1
62
256
6
ByLayer
370
18
48
1
60
0
100
AcDbSpline
70
4
71
3
72
20
73
16
40
0
40
0
40
0
40
0
40
0.250000000000025
40
0.250000000000025
40
0.375000000000021
40
0.375000000000021
40
0.500000000000017
40
0.500000000000017
40
0.625000000000013
40
0.625000000000013
40
0.750000000000008
40
0.750000000000008
40
0.875000000000004
40
0.875000000000004
40
1
40
1
40
1
40
1
41
1
10
59.7437637265372
20
1.17332619771471
30
-1E-16
41
1
10
59.7481117042646
20
1.15780735923289
30
0
41
1
10
59.7518380640349
20
1.14301185696209
30
0
41
1
10
59.756145749056
20
1.12215554387208
30
0
41
1
10
59.7573654350513
20
1.11542830948244
30
1E-16
41
1
10
59.7592540169112
20
1.10251266565322
30
1E-16
41
1
10
59.7599140978194
20
1.09635221198758
30
1E-16
41
1
10
59.7604997907024
20
1.08506735141387
30
1E-16
41
1
10
59.7604343764083
20
1.07989489755676
30
1E-16
41
1
10
59.7594024879571
20
1.07067371420061
30
2E-16
41
1
10
59.7584356614087
20
1.0667158072327
30
2E-16
41
1
10
59.7555380844324
20
1.06038962278339
30
2E-16
41
1
10
59.75360485511
20
1.057986765549
30
2E-16
41
1
10
59.7486290600848
20
1.0548508655979
30
2E-16
41
1
10
59.7456555894643
20
1.05416884676905
30
2E-16
41
1
10
59.7422250515256
20
1.05433118100754
30
2E-16
0
SPLINE
5
142
100
AcDbEntity
8
1
62
256
6
ByLayer
370
18
48
1
60
0
100
AcDbSpline
70
4
71
5
72
12
73
6
40
0
40
0
40
0
40
0
40
0
40
0
40
1
40
1
40
1
40
1
40
1
40
1
41
1
10
52.4447000000001
20
-2.1033358259005
30
0
41
1
10
52.4447000000001
20
-2.10329124792153
30
0
41
1
10
52.4447000000001
20
-2.10324667001507
30
0
41
1
10
52.4447000000001
20
-2.10320209218105
30
0
41
1
10
52.4447000000001
20
-2.10315751441956
30
0
41
1
10
52.4447000000001
20
-2.10311293673053
30
0
0
SPLINE
5
143
100
AcDbEntity
8
1
62
256
6
ByLayer
370
18
48
1
60
0
100
AcDbSpline
70
4
71
3
72
8
73
4
40
0
40
0
40
0
40
0
40
1
40
1
40
1
40
1
41
1
10
52.444700000004
20
-2.10333582590084
30
0
41
1
10
52.6369312830959
20
-2.23419144723607
30
-1E-16
41
1
10
52.8269643050263
20
-2.36318498125309
30
2E-16
41
1
10
53.0163101980764
20
-2.48843467852777
30
1E-16
0
SPLINE
5
144
100
AcDbEntity
8
1
62
256
6
ByLayer
370
18
48
1
60
0
100
AcDbSpline
70
4
71
3
72
14
73
10
40
0
40
0
40
0
40
0
40
0.25
40
0.25
40
0.5
40
0.5
40
0.75
40
0.75
40
1
40
1
40
1
40
1
41
1
10
59.6752403058744
20
-1.46069855499928
30
-1E-16
41
1
10
59.680257539988
20
-1.49041025867513
30
-1E-16
41
1
10
59.6851393859623
20
-1.5198490525124
30
0
41
1
10
59.6951875945838
20
-1.57807906235607
30
1E-16
41
1
10
59.7003654275438
20
-1.6069193047494
30
2E-16
41
1
10
59.7113497708155
20
-1.66321649768855
30
-1E-16
41
1
10
59.7171857151638
20
-1.69082195000522
30
0
41
1
10
59.7297604100173
20
-1.74438995775608
30
1E-16
41
1
10
59.7364909679248
20
-1.7703360880152
30
2E-16
41
1
10
59.7437637265372
20
-1.7954737628109
30
2E-16
0
SPLINE
5
145
100
AcDbEntity
8
1
62
256
6
ByLayer
370
18
48
1
60
0
100
AcDbSpline
70
4
71
3
72
17
73
13
40
0
40
0
40
0
40
0
40
0.0856993778697187
40
0.216313752459759
40
0.314274533402289
40
0.412235314344819
40
0.477542501639839
40
0.542849688934859
40
0.640810469877389
40
0.73877125081992
40
0.86938562540996
40
1
40
1
40
1
40
1
41
1
10
59.6752403058755
20
-1.46069855499982
30
-1E-16
41
1
10
59.4686893705837
20
-1.35750159056596
30
1E-16
41
1
10
58.9473342686251
20
-1.08803057632898
30
-1E-16
41
1
10
58.1898760416667
20
-0.670331896551005
30
-2E-16
41
1
10
57.402865625
20
-0.220711909064391
30
1E-16
41
0.999999999999999
10
56.7732572916667
20
0.142441864645292
30
1E-16
41
1
10
56.22235
20
0.457622211402366
30
-2E-16
41
0.999999999999999
10
55.6714427083333
20
0.768228549678583
30
0
41
1
10
55.041834375
20
1.11321984810419
30
1E-16
41
1
10
54.2548239583333
20
1.52125671498277
30
0
41
1
10
53.3891125
20
1.9297839850104
30
-1E-16
41
1
10
52.7595041666666
20
2.18298797106348
30
0
41
1
10
52.4447
20
2.29643525153943
30
-1E-16
0
SPLINE
5
146
100
AcDbEntity
8
1
62
256
6
ByLayer
370
18
48
1
60
0
100
AcDbSpline
70
4
71
3
72
17
73
13
40
0
40
0
40
0
40
0
40
0.0152010502677806
40
0.0535650403791812
40
0.158761610781509
40
0.187104405727905
40
0.205950550943507
40
0.434481349499611
40
0.609017378031493
40
0.804352846739823
40
0.915380404099833
40
1
40
1
40
1
40
1
41
1
10
52.4446999999981
20
-2.10311293672916
30
0
41
1
10
52.4643728723476
20
-2.11650262944312
30
1E-16
41
1
10
52.533619270923
20
-2.16362754491036
30
2E-16
41
1
10
52.7380880593363
20
-2.30258382320821
30
1E-16
41
1
10
52.9585359115596
20
-2.45083339927203
30
0
41
1
10
53.1556772427973
20
-2.57972828735251
30
-2E-16
41
1
10
53.5136940578333
20
-2.81086765862924
30
-1E-16
41
1
10
54.0592610888364
20
-3.13804306056858
30
-2E-16
41
1
10
54.8326940846504
20
-3.51501586803346
30
0
41
1
10
55.4556091218385
20
-3.74106213813533
30
1E-16
41
1
10
55.9640533038242
20
-3.86540267753102
30
0
41
1
10
56.2192862196821
20
-3.9075035220965
30
1E-16
41
1
10
56.3298833833853
20
-3.92184846650284
30
0
0
SPLINE
5
147
100
AcDbEntity
8
1
62
256
6
ByLayer
370
18
48
1
60
0
100
AcDbSpline
70
4
71
3
72
8
73
4
40
0
40
0
40
0
40
0
40
1
40
1
40
1
40
1
41
1
10
52.4446999999989
20
2.20525466809764
30
2E-16
41
1
10
52.3013077728549
20
2.28283166738686
30
0
41
1
10
52.1587453407562
20
2.36114164302791
30
-2E-16
41
1
10
52.0169991224811
20
2.44017259842693
30
1E-16
0
SPLINE
5
148
100
AcDbEntity
8
1
62
256
6
ByLayer
370
18
48
1
60
0
100
AcDbSpline
70
4
71
3
72
8
73
4
40
0
40
0
40
0
40
0
40
1
40
1
40
1
40
1
41
1
10
52.2986852345117
20
-2.00677652275405
30
-2E-16
41
1
10
52.2957258792488
20
-2.02268977069574
30
-1E-16
41
1
10
52.2930569529253
20
-2.03862615739334
30
-1E-16
41
1
10
52.2908744820679
20
-2.05460106476295
30
-1E-16
0
SPLINE
5
149
100
AcDbEntity
8
1
62
256
6
ByLayer
370
18
48
1
60
0
100
AcDbSpline
70
4
71
3
72
20
73
16
40
0
40
0
40
0
40
0
40
0.249999999999999
40
0.249999999999999
40
0.374999999999997
40
0.374999999999997
40
0.499999999999996
40
0.499999999999996
40
0.624999999999994
40
0.624999999999994
40
0.749999999999992
40
0.749999999999992
40
0.874999999999996
40
0.874999999999996
40
1
40
1
40
1
40
1
41
1
10
59.7437637265372
20
-1.79547376281087
30
2E-16
41
1
10
59.7481117042645
20
-1.81050252355391
30
-2E-16
41
1
10
59.7518380640348
20
-1.82616375993038
30
-2E-16
41
1
10
59.7561457490559
20
-1.8508587484888
30
-1E-16
41
1
10
59.7573654350512
20
-1.85929293060556
30
-1E-16
41
1
10
59.7592540169111
20
-1.87665496521654
30
0
41
1
10
59.7599140978193
20
-1.88555704288748
30
0
41
1
10
59.7604997907023
20
-1.90337753716227
30
0
41
1
10
59.7604343764083
20
-1.91235652301882
30
0
41
1
10
59.7594024879572
20
-1.93047952135882
30
1E-16
41
1
10
59.758435661409
20
-1.93946832771485
30
1E-16
41
1
10
59.7555380844328
20
-1.95685163288834
30
1E-16
41
1
10
59.7536048551104
20
-1.96531138086689
30
2E-16
41
1
10
59.7486290600854
20
-1.98171423918052
30
2E-16
41
1
10
59.7456555894651
20
-1.9894151232719
30
2E-16
41
1
10
59.7422250515265
20
-1.99658015901457
30
-2E-16
0
SPLINE
5
14A
100
AcDbEntity
8
1
62
256
6
ByLayer
370
18
48
1
60
0
100
AcDbSpline
70
4
71
3
72
8
73
4
40
0
40
0
40
0
40
0
40
1
40
1
40
1
40
1
41
1
10
59.7421573889421
20
-1.99691895998316
30
-2E-16
41
1
10
59.739422825997
20
-2.00224577398541
30
-2E-16
41
1
10
59.7365083697004
20
-2.00723996531252
30
-2E-16
41
1
10
59.7334212405478
20
-2.01192610110036
30
-2E-16
0
SPLINE
5
14B
100
AcDbEntity
8
1
62
256
6
ByLayer
370
18
48
1
60
0
100
AcDbSpline
70
4
71
3
72
12
73
8
40
0
40
0
40
0
40
0
40
0.25
40
0.25
40
0.5
40
0.5
40
1
40
1
40
1
40
1
41
1
10
52.2446650903685
20
-1.89321445620231
30
0
41
1
10
52.2504132152136
20
-1.90203021769054
30
0
41
1
10
52.2555615126769
20
-1.91115214438759
30
0
41
1
10
52.265289320957
20
-1.92969284122387
30
1E-16
41
1
10
52.2698516827506
20
-1.93912016700418
30
1E-16
41
1
10
52.2829889691626
20
-1.96769518955082
30
2E-16
41
1
10
52.2910254747217
20
-1.98713022879466
30
2E-16
41
1
10
52.2986852345104
20
-2.00677652275246
30
-2E-16
0
SPLINE
5
14C
100
AcDbEntity
8
1
62
256
6
ByLayer
370
18
48
1
60
0
100
AcDbSpline
70
4
71
5
72
12
73
6
40
0
40
0
40
0
40
0
40
0
40
0
40
1
40
1
40
1
40
1
40
1
40
1
41
1
10
52.4446999999991
20
-2.10311293672913
30
0
41
1
10
52.4446999999991
20
-2.04430787824072
30
-1E-16
41
1
10
52.4446999999991
20
-1.98552899180314
30
2E-16
41
1
10
52.4447
20
-1.92677589679431
30
1E-16
41
1
10
52.4447
20
-1.86804823134395
30
-1E-16
41
1
10
52.4447000000001
20
-1.8093456513391
30
-2E-16
0
SPLINE
5
14D
100
AcDbEntity
8
1
62
256
6
ByLayer
370
18
48
1
60
0
100
AcDbSpline
70
4
71
3
72
12
73
8
40
0
40
0
40
0
40
0
40
0.250000000000002
40
0.250000000000002
40
0.500000000000004
40
0.500000000000004
40
1
40
1
40
1
40
1
41
1
10
52.2446650903685
20
1.76022196899362
30
-1E-16
41
1
10
52.2504132152136
20
1.75118066278216
30
-1E-16
41
1
10
52.2555615126769
20
1.74202313431556
30
-1E-16
41
1
10
52.265289320957
20
1.72360479066691
30
0
41
1
10
52.2698516827506
20
1.71434044300926
30
0
41
1
10
52.2829889691626
20
1.68645404639261
30
0
41
1
10
52.2910254747216
20
1.66774096106283
30
1E-16
41
1
10
52.2986852345103
20
1.64897499255324
30
1E-16
0
SPLINE
5
14E
100
AcDbEntity
8
1
62
256
6
ByLayer
370
18
48
1
60
0
100
AcDbSpline
70
4
71
3
72
8
73
4
40
0
40
0
40
0
40
0
40
1
40
1
40
1
40
1
41
1
10
52.2986852345117
20
1.64897499255201
30
1E-16
41
1
10
52.2956093677464
20
1.6303642042688
30
2E-16
41
1
10
52.2928468036064
20
1.61172120855105
30
2E-16
41
1
10
52.2906190026773
20
1.59302307012908
30
-2E-16
0
SPLINE
5
14F
100
AcDbEntity
8
1
62
256
6
ByLayer
370
18
48
1
60
0
100
AcDbSpline
70
4
71
3
72
8
73
4
40
0
40
0
40
0
40
0
40
1
40
1
40
1
40
1
41
1
10
52.2908744820679
20
-2.05460106476292
30
-1E-16
41
1
10
52.3422168727825
20
-2.07039286063196
30
0
41
1
10
52.3934969808495
20
-2.0866267178541
30
0
41
1
10
52.4447
20
-2.1033358258982
30
0
0
SPLINE
5
150
100
AcDbEntity
8
1
62
256
6
ByLayer
370
18
48
1
60
0
100
AcDbSpline
70
4
71
3
72
8
73
4
40
0
40
0
40
0
40
0
40
1
40
1
40
1
40
1
41
1
10
52.2446650903686
20
-2.03708607301803
30
-1E-16
41
1
10
52.260274831582
20
-2.04215624260561
30
-1E-16
41
1
10
52.275687134749
20
-2.0479743064659
30
-1E-16
41
1
10
52.2908744820679
20
-2.05460106476295
30
-1E-16
0
SPLINE
5
151
100
AcDbEntity
8
1
62
256
6
ByLayer
370
18
48
1
60
0
100
AcDbSpline
70
4
71
3
72
8
73
4
40
0
40
0
40
0
40
0
40
1
40
1
40
1
40
1
41
1
10
52.2906190027039
20
1.59302307012607
30
-2E-16
41
1
10
52.3420567194222
20
1.5739207813894
30
-1E-16
41
1
10
52.3934218254295
20
1.55479162018494
30
-1E-16
41
1
10
52.4447
20
1.53560396538887
30
0
0
SPLINE
5
152
100
AcDbEntity
8
1
62
256
6
ByLayer
370
18
48
1
60
0
100
AcDbSpline
70
4
71
3
72
8
73
4
40
0
40
0
40
0
40
0
40
1
40
1
40
1
40
1
41
1
10
52.2446650903687
20
1.60558703528986
30
-2E-16
41
1
10
52.2601911624179
20
1.60034689768639
30
-2E-16
41
1
10
52.2755179557017
20
1.59618181723619
30
-2E-16
41
1
10
52.2906190027031
20
1.59302307013044
30
-2E-16
0
SPLINE
5
153
100
AcDbEntity
8
1
62
256
6
ByLayer
370
18
48
1
60
0
100
AcDbSpline
70
4
71
1
72
4
73
2
40
0
40
0
40
1
40
1
41
1
10
52.4447000000001
20
3.58187988557936
30
0
41
1
10
52.4447000000001
20
3.58190743080903
30
0
0
SPLINE
5
154
100
AcDbEntity
8
1
62
256
6
ByLayer
370
18
48
1
60
0
100
AcDbSpline
70
4
71
3
72
12
73
8
40
0
40
0
40
0
40
0
40
0.249999999999997
40
0.249999999999997
40
0.499999999999995
40
0.499999999999995
40
1
40
1
40
1
40
1
41
1
10
59.8448126195874
20
0.984342054450906
30
-1E-16
41
1
10
59.846218331675
20
0.979249997920334
30
-1E-16
41
1
10
59.8474735220344
20
0.974519380944201
30
-1E-16
41
1
10
59.8496313534655
20
0.965904704223419
30
0
41
1
10
59.8505379426662
20
0.961996460953458
30
0
41
1
10
59.8525714194977
20
0.952089738038126
30
0
41
1
10
59.8530453317539
20
0.947796659092546
30
0
41
1
10
59.8526210454405
20
0.945858130585293
30
0
0
SPLINE
5
155
100
AcDbEntity
8
1
62
256
6
ByLayer
370
18
48
1
60
0
100
AcDbSpline
70
4
71
3
72
30
73
26
40
0
40
0
40
0
40
0
40
0.0449523663568507
40
0.0898083671206897
40
0.134567040328156
40
0.179227433460216
40
0.223788600682178
40
0.268249594818835
40
0.312609458715998
40
0.356867218377998
40
0.40102187813271
40
0.445072421384402
40
0.489017819573886
40
0.532857042054812
40
0.576589064113226
40
0.620212873115235
40
0.663727472843341
40
0.707131886086004
40
0.750425155287077
40
0.79360633771655
40
0.836674493878698
40
0.879628677094689
40
0.922467926735803
40
0.965191264993357
40
1
40
1
40
1
40
1
41
1
10
59.7422338084166
20
1.05425778369281
30
2E-16
41
1
10
59.7445330824212
20
1.05317054328566
30
2E-16
41
1
10
59.749126701415
20
1.05099839321775
30
2E-16
41
1
10
59.7557325375101
20
1.04778657864253
30
2E-16
41
1
10
59.7621200313025
20
1.04461404825204
30
2E-16
41
1
10
59.7682691797053
20
1.04148446911088
30
-2E-16
41
1
10
59.7741851034182
20
1.03839765780944
30
-2E-16
41
1
10
59.7798663325553
20
1.03535442063639
30
-2E-16
41
1
10
59.7853132663333
20
1.03235526366356
30
-2E-16
41
1
10
59.7905259036425
20
1.02940074000972
30
-2E-16
41
1
10
59.7955044389148
20
1.02649135983947
30
-2E-16
41
1
10
59.800249096254
20
1.02362761605787
30
-2E-16
41
1
10
59.8047601779232
20
1.02080997593649
30
-2E-16
41
1
10
59.809038059499
20
1.01803888060124
30
-2E-16
41
1
10
59.8130831992591
20
1.01531474237422
30
-2E-16
41
1
10
59.8168961433927
20
1.01263794280334
30
-2E-16
41
1
10
59.8204775320938
20
1.01000883059905
30
-1E-16
41
1
10
59.8238281045529
20
1.00742771984031
30
-1E-16
41
1
10
59.826948705646
20
1.00489488786823
30
-1E-16
41
1
10
59.8298402824989
20
1.00241057583943
30
-1E-16
41
1
10
59.8325038804149
20
0.999974990843697
30
-1E-16
41
1
10
59.834940580851
20
0.997588320051989
30
-1E-16
41
1
10
59.8371516520357
20
0.995250701551129
30
-1E-16
41
1
10
59.8390170700156
20
0.99310157643518
30
-1E-16
41
1
10
59.8400991575541
20
0.991740923946736
30
-1E-16
41
1
10
59.840560362947
20
0.991134943781503
30
-1E-16
0
SPLINE
5
156
100
AcDbEntity
8
1
62
256
6
ByLayer
370
18
48
1
60
0
100
AcDbSpline
70
4
71
3
72
8
73
4
40
0
40
0
40
0
40
0
40
1
40
1
40
1
40
1
41
1
10
59.7421573887012
20
1.05429369389915
30
2E-16
41
1
10
59.7394228258258
20
1.05451372368736
30
2E-16
41
1
10
59.7365083696098
20
1.05518017672779
30
2E-16
41
1
10
59.7334212405479
20
1.05625603669969
30
2E-16
0
SPLINE
5
157
100
AcDbEntity
8
1
62
256
6
ByLayer
370
18
48
1
60
0
100
AcDbSpline
70
4
71
3
72
16
73
12
40
0
40
0
40
0
40
0
40
0.152557091726943
40
0.305501090497802
40
0.45882646928157
40
0.547130158376177
40
0.63619299944372
40
0.726013191773076
40
0.816588942946415
40
0.907918469889568
40
1
40
1
40
1
40
1
41
1
10
59.6314868161166
20
1.10021258037753
30
1E-16
41
1
10
59.6266904062376
20
1.10200084463528
30
1E-16
41
1
10
59.6170854220842
20
1.10558190844986
30
1E-16
41
1
10
59.6021394080054
20
1.11101390396212
30
1E-16
41
1
10
59.5889667136624
20
1.11571525965149
30
1E-16
41
1
10
59.5776971745368
20
1.11967604053416
30
0
41
1
10
59.5684611542579
20
1.1228879279366
30
0
41
1
10
59.5590150682222
20
1.12613854635219
30
0
41
1
10
59.5493546492794
20
1.12942785959913
30
0
41
1
10
59.5394902805747
20
1.13275467273485
30
0
41
1
10
59.5327750151553
20
1.13499039717752
30
0
41
1
10
59.5294036158249
20
1.13611284274268
30
0
0
SPLINE
5
158
100
AcDbEntity
8
1
62
256
6
ByLayer
370
18
48
1
60
0
100
AcDbSpline
70
4
71
3
72
8
73
4
40
0
40
0
40
0
40
0
40
1
40
1
40
1
40
1
41
1
10
59.6314843523707
20
1.10021665935815
30
1E-16
41
1
10
59.597992738683
20
1.11676009186922
30
0
41
1
10
59.5617228472782
20
1.13623277433965
30
0
41
1
10
59.5231425226166
20
1.1581514436125
30
0
0
SPLINE
5
159
100
AcDbEntity
8
1
62
256
6
ByLayer
370
18
48
1
60
0
100
AcDbSpline
70
4
71
3
72
8
73
4
40
0
40
0
40
0
40
0
40
1
40
1
40
1
40
1
41
1
10
59.7334212405478
20
1.05625603669984
30
2E-16
41
1
10
59.7048744413102
20
1.06620517968375
30
2E-16
41
1
10
59.6707726810419
20
1.08086457713688
30
1E-16
41
1
10
59.6314567607948
20
1.10022385262155
30
1E-16
0
SPLINE
5
15A
100
AcDbEntity
8
1
62
256
6
ByLayer
370
18
48
1
60
0
100
AcDbSpline
70
4
71
3
72
10
73
6
40
0
40
0
40
0
40
0
40
0.5
40
0.5
40
1
40
1
40
1
40
1
41
1
10
59.5878358152775
20
0.612468095175245
30
-1E-16
41
1
10
59.5803339405609
20
0.699506033388644
30
1E-16
41
1
10
59.5711391109097
20
0.786750221549482
30
-1E-16
41
1
10
59.5512841846681
20
0.961357446066188
30
0
41
1
10
59.5405704732859
20
1.04872804627883
30
2E-16
41
1
10
59.5294189990538
20
1.13610773599373
30
0
0
SPLINE
5
15B
100
AcDbEntity
8
1
62
256
6
ByLayer
370
18
48
1
60
0
100
AcDbSpline
70
4
71
3
72
8
73
4
40
0
40
0
40
0
40
0
40
1
40
1
40
1
40
1
41
1
10
59.5293714905255
20
1.1361260533923
30
0
41
1
10
59.5272870364792
20
1.14346878920341
30
0
41
1
10
59.5252107596051
20
1.15081057924692
30
0
41
1
10
59.5231425226163
20
1.15815144361278
30
0
0
SPLINE
5
15C
100
AcDbEntity
8
1
62
256
6
ByLayer
370
18
48
1
60
0
100
AcDbSpline
70
4
71
3
72
8
73
4
40
0
40
0
40
0
40
0
40
1
40
1
40
1
40
1
41
1
10
52.4447000000001
20
-1.23469730914542
30
-2E-16
41
1
10
52.3013077728557
20
-1.1973169153473
30
1E-16
41
1
10
52.1587453407568
20
-1.16307678481047
30
1E-16
41
1
10
52.0169991224814
20
-1.13192552097354
30
0
0
SPLINE
5
15D
100
AcDbEntity
8
1
62
256
6
ByLayer
370
18
48
1
60
0
100
AcDbSpline
70
4
71
3
72
14
73
10
40
0
40
0
40
0
40
0
40
0.125000000000001
40
0.125000000000001
40
0.250000000000003
40
0.250000000000003
40
0.500000000000007
40
0.500000000000007
40
1
40
1
40
1
40
1
41
1
10
52.0169991225013
20
2.44017259841976
30
1E-16
41
1
10
52.0179963819328
20
2.42352980466725
30
1E-16
41
1
10
52.0195021583635
20
2.40670909436483
30
1E-16
41
1
10
52.0235868131048
20
2.37270512095265
30
2E-16
41
1
10
52.0261714331224
20
2.35551218869961
30
-2E-16
41
1
10
52.0354885720638
20
2.30402734880718
30
-1E-16
41
1
10
52.0438032540016
20
2.2696224173294
30
0
41
1
10
52.0751220616024
20
2.16629977247439
30
-2E-16
41
1
10
52.1044896098813
20
2.09727313958155
30
0
41
1
10
52.1426854079182
20
2.0284776157047
30
1E-16
0
SPLINE
5
15E
100
AcDbEntity
8
1
62
256
6
ByLayer
370
18
48
1
60
0
100
AcDbSpline
70
4
71
3
72
32
73
28
40
0
40
0
40
0
40
0
40
0.249999999999991
40
0.249999999999991
40
0.375000000000028
40
0.375000000000028
40
0.500000000000066
40
0.500000000000066
40
0.562500000000057
40
0.562500000000057
40
0.625000000000048
40
0.625000000000048
40
0.687500000000039
40
0.687500000000039
40
0.718750000000035
40
0.718750000000035
40
0.750000000000031
40
0.750000000000031
40
0.781250000000027
40
0.781250000000027
40
0.812500000000023
40
0.812500000000023
40
0.875000000000015
40
0.875000000000015
40
0.937500000000007
40
0.937500000000007
40
1
40
1
40
1
40
1
41
1
10
49.21478132134
20
3.46303074766163
30
0
41
1
10
49.1953823575171
20
3.46816826288227
30
0
41
1
10
49.1767444917498
20
3.47334484315698
30
0
41
1
10
49.1508917907281
20
3.48132124474358
30
-1E-16
41
1
10
49.1426295570918
20
3.48401605188749
30
1E-16
41
1
10
49.1272245938857
20
3.48954609053223
30
0
41
1
10
49.1200731645113
20
3.49238125943091
30
0
41
1
10
49.1111876956379
20
3.49670716510849
30
0
41
1
10
49.1085250794351
20
3.49816573946543
30
0
41
1
10
49.1040755387379
20
3.50113987928043
30
0
41
1
10
49.1022716955549
20
3.50266259768009
30
0
41
1
10
49.1001399499903
20
3.50578093092048
30
0
41
1
10
49.0998397563442
20
3.50732687811484
30
0
41
1
10
49.1011758423708
20
3.50962976240325
30
0
41
1
10
49.1019139132918
20
3.51037343640715
30
0
41
1
10
49.1040333395254
20
3.51180899821748
30
0
41
1
10
49.1054362691923
20
3.51250855885576
30
0
41
1
10
49.1088471960775
20
3.51381302294772
30
0
41
1
10
49.1108375431697
20
3.51441570947557
30
0
41
1
10
49.1153386783769
20
3.51553264068167
30
0
41
1
10
49.1178680323522
20
3.5160486917309
30
0
41
1
10
49.125859204276
20
3.51742964264034
30
0
41
1
10
49.1318407089266
20
3.51815816854551
30
0
41
1
10
49.1443794995631
20
3.5193378278172
30
0
41
1
10
49.1508372514708
20
3.519782300337
30
0
41
1
10
49.1639913108668
20
3.5204905124204
30
0
41
1
10
49.1706898381426
20
3.52075244039864
30
0
41
1
10
49.1774753054005
20
3.52094922521377
30
0
0
SPLINE
5
15F
100
AcDbEntity
8
1
62
256
6
ByLayer
370
18
48
1
60
0
100
AcDbSpline
70
4
71
3
72
20
73
16
40
0
40
0
40
0
40
0
40
0.25000000000009
40
0.25000000000009
40
0.375000000000075
40
0.375000000000075
40
0.50000000000006
40
0.50000000000006
40
0.625000000000045
40
0.625000000000045
40
0.75000000000003
40
0.75000000000003
40
0.875000000000015
40
0.875000000000015
40
1
40
1
40
1
40
1
41
1
10
49.1774753054005
20
3.52094922521377
30
0
41
1
10
49.2046488645939
20
3.52173728351824
30
0
41
1
10
49.2314234974855
20
3.52288366577571
30
0
41
1
10
49.2706135376241
20
3.52542559785778
30
0
41
1
10
49.2834608642905
20
3.52641068246066
30
0
41
1
10
49.3081655174575
20
3.52867908407154
30
-1E-16
41
1
10
49.3200802211947
20
3.52996553211929
30
-1E-16
41
1
10
49.3427809796077
20
3.53290650059009
30
0
41
1
10
49.353631731949
20
3.53457950583919
30
0
41
1
10
49.3729372883006
20
3.53819296927716
30
0
41
1
10
49.3815138474043
20
3.54014602839595
30
0
41
1
10
49.3962411681136
20
3.54432398269896
30
0
41
1
10
49.4021094727214
20
3.54646713033841
30
0
41
1
10
49.4111835683493
20
3.55080271026878
30
0
41
1
10
49.4143883531795
20
3.55300632492202
30
0
41
1
10
49.4163626257394
20
3.55515742064375
30
0
0
SPLINE
5
160
100
AcDbEntity
8
1
62
256
6
ByLayer
370
18
48
1
60
0
100
AcDbSpline
70
4
71
3
72
10
73
6
40
0
40
0
40
0
40
0
40
0.5
40
0.5
40
1
40
1
40
1
40
1
41
1
10
49.4163626257395
20
3.55515742064372
30
0
41
1
10
49.3895937338468
20
3.57056142773288
30
0
41
1
10
49.3680931313639
20
3.58211609422881
30
0
41
1
10
49.3344036633617
20
3.59716621144023
30
0
41
1
10
49.3222146622904
20
3.60066328073833
30
0
41
1
10
49.31423604492
20
3.59989653620778
30
0
0
SPLINE
5
161
100
AcDbEntity
8
1
62
256
6
ByLayer
370
18
48
1
60
0
100
AcDbSpline
70
4
71
3
72
14
73
10
40
0
40
0
40
0
40
0
40
0.125000000000002
40
0.125000000000002
40
0.250000000000004
40
0.250000000000004
40
0.500000000000009
40
0.500000000000009
40
1
40
1
40
1
40
1
41
1
10
52.0169991225014
20
-3.51228355674269
30
0
41
1
10
52.0179963819329
20
-3.51725005071305
30
0
41
1
10
52.0195021583634
20
-3.52201819002244
30
0
41
1
10
52.0235868131048
20
-3.53115327568767
30
-1E-16
41
1
10
52.0261714331224
20
-3.53552068130043
30
0
41
1
10
52.0354885720638
20
-3.54786882136318
30
0
41
1
10
52.0438032540016
20
-3.55515380533004
30
0
41
1
10
52.0751220616024
20
-3.57436442226106
30
0
41
1
10
52.1044896098814
20
-3.58364838296023
30
0
41
1
10
52.1426854079182
20
-3.58988608998135
30
0
0
SPLINE
5
162
100
AcDbEntity
8
1
62
256
6
ByLayer
370
18
48
1
60
0
100
AcDbSpline
70
4
71
3
72
32
73
28
40
0
40
0
40
0
40
0
40
0.249999999999995
40
0.249999999999995
40
0.375000000000034
40
0.375000000000034
40
0.500000000000073
40
0.500000000000073
40
0.562500000000064
40
0.562500000000064
40
0.625000000000055
40
0.625000000000055
40
0.687500000000046
40
0.687500000000046
40
0.718750000000041
40
0.718750000000041
40
0.750000000000036
40
0.750000000000036
40
0.781250000000032
40
0.781250000000032
40
0.812500000000027
40
0.812500000000027
40
0.875000000000018
40
0.875000000000018
40
0.937500000000009
40
0.937500000000009
40
1
40
1
40
1
40
1
41
1
10
49.2147813213389
20
-2.58331554438848
30
-2E-16
41
1
10
49.1953823575161
20
-2.57021920783362
30
-2E-16
41
1
10
49.1767444917489
20
-2.55656674487707
30
2E-16
41
1
10
49.1508917907271
20
-2.53462648651214
30
2E-16
41
1
10
49.1426295570908
20
-2.52706645081474
30
1E-16
41
1
10
49.1272245938847
20
-2.5111891720253
30
1E-16
41
1
10
49.1200731645104
20
-2.50286998147405
30
1E-16
41
1
10
49.1111876956369
20
-2.48984292700428
30
1E-16
41
1
10
49.1085250794341
20
-2.48539633235077
30
0
41
1
10
49.1040755387369
20
-2.47620402793407
30
0
41
1
10
49.1022716955539
20
-2.47143599412141
30
0
41
1
10
49.1001399499893
20
-2.46152279280094
30
0
41
1
10
49.0998397563433
20
-2.45653539677818
30
0
41
1
10
49.1011758423698
20
-2.44899284003185
30
0
41
1
10
49.1019139132907
20
-2.44653805690689
30
0
41
1
10
49.1040333395244
20
-2.44176606737938
30
-1E-16
41
1
10
49.1054362691914
20
-2.43942293508402
30
-1E-16
41
1
10
49.1088471960766
20
-2.43502539774644
30
-1E-16
41
1
10
49.1108375431688
20
-2.4329790267071
30
-1E-16
41
1
10
49.115338678376
20
-2.42916612697439
30
-1E-16
41
1
10
49.1178680323513
20
-2.4273932011256
30
-1E-16
41
1
10
49.1258592042751
20
-2.42262776534554
30
-1E-16
41
1
10
49.1318407089257
20
-2.42008450946292
30
-1E-16
41
1
10
49.1443794995623
20
-2.41594765543522
30
-1E-16
41
1
10
49.1508372514699
20
-2.41437687374003
30
-1E-16
41
1
10
49.163991310866
20
-2.41186789060194
30
-1E-16
41
1
10
49.1706898381417
20
-2.41093548631585
30
-1E-16
41
1
10
49.1774753053996
20
-2.4102341181931
30
-1E-16
0
SPLINE
5
163
100
AcDbEntity
8
1
62
256
6
ByLayer
370
18
48
1
60
0
100
AcDbSpline
70
4
71
3
72
20
73
16
40
0
40
0
40
0
40
0
40
0.24999999999991
40
0.24999999999991
40
0.374999999999925
40
0.374999999999925
40
0.49999999999994
40
0.49999999999994
40
0.624999999999955
40
0.624999999999955
40
0.74999999999997
40
0.74999999999997
40
0.874999999999985
40
0.874999999999985
40
1
40
1
40
1
40
1
41
1
10
49.1774753053996
20
-2.4102341181931
30
-1E-16
41
1
10
49.2046488645931
20
-2.40742537010317
30
-1E-16
41
1
10
49.2314234974847
20
-2.40332963814063
30
-1E-16
41
1
10
49.2706135376233
20
-2.394016016167
30
-2E-16
41
1
10
49.2834608642897
20
-2.39037755546966
30
-2E-16
41
1
10
49.3081655174567
20
-2.38186861306841
30
-2E-16
41
1
10
49.3200802211938
20
-2.37698806934125
30
-2E-16
41
1
10
49.3427809796069
20
-2.36559574442626
30
2E-16
41
1
10
49.3536317319481
20
-2.35900816495857
30
2E-16
41
1
10
49.3729372882998
20
-2.34439012756192
30
2E-16
41
1
10
49.3815138474035
20
-2.33631270115507
30
1E-16
41
1
10
49.3962411681129
20
-2.31844803282385
30
1E-16
41
1
10
49.4021094727207
20
-2.30900643400375
30
1E-16
41
1
10
49.4111835683485
20
-2.28918582499338
30
0
41
1
10
49.4143883531787
20
-2.27874784191428
30
0
41
1
10
49.4163626257387
20
-2.26813124148563
30
0
0
SPLINE
5
164
100
AcDbEntity
8
1
62
256
6
ByLayer
370
18
48
1
60
0
100
AcDbSpline
70
4
71
3
72
10
73
6
40
0
40
0
40
0
40
0
40
0.5
40
0.5
40
1
40
1
40
1
40
1
41
1
10
49.4163626257387
20
-2.26813124148563
30
0
41
1
10
49.3895937338461
20
-2.19210571337223
30
-2E-16
41
1
10
49.3680931313633
20
-2.11311954169918
30
1E-16
41
1
10
49.3344036633612
20
-1.94920457214718
30
1E-16
41
1
10
49.3222146622899
20
-1.86427670937519
30
-1E-16
41
1
10
49.3142360449194
20
-1.77631150754414
30
2E-16
0
SPLINE
5
165
100
AcDbEntity
8
1
62
256
6
ByLayer
370
18
48
1
60
0
100
AcDbSpline
70
4
71
3
72
18
73
14
40
0
40
0
40
0
40
0
40
0.250000000000058
40
0.250000000000058
40
0.375000000000048
40
0.375000000000048
40
0.500000000000038
40
0.500000000000038
40
0.625000000000028
40
0.625000000000028
40
0.750000000000018
40
0.750000000000018
40
1
40
1
40
1
40
1
41
1
10
49.3142360449194
20
-1.77631150754416
30
2E-16
41
1
10
49.3133141805547
20
-1.76614784369858
30
1E-16
41
1
10
49.3140846624954
20
-1.75608746744544
30
1E-16
41
1
10
49.3187254984159
20
-1.74122919732844
30
1E-16
41
1
10
49.3208193389766
20
-1.73646531947463
30
1E-16
41
1
10
49.3260540498444
20
-1.72739798444658
30
1E-16
41
1
10
49.3292375701617
20
-1.72304092515873
30
0
41
1
10
49.3364565772293
20
-1.71497036215578
30
0
41
1
10
49.3404630022541
20
-1.71126762522729
30
0
41
1
10
49.3491499256082
20
-1.70442911944198
30
0
41
1
10
49.3538488050041
20
-1.70128939348538
30
0
41
1
10
49.3684020370947
20
-1.69283035700718
30
0
41
1
10
49.3788268547292
20
-1.68834286187615
30
0
41
1
10
49.38973564014
20
-1.68463061083173
30
0
0
SPLINE
5
166
100
AcDbEntity
8
1
62
256
6
ByLayer
370
18
48
1
60
0
100
AcDbSpline
70
4
71
3
72
26
73
22
40
0
40
0
40
0
40
0
40
0.0312499999999935
40
0.0312499999999935
40
0.0624999999999869
40
0.0624999999999869
40
0.124999999999988
40
0.124999999999988
40
0.187499999999989
40
0.187499999999989
40
0.24999999999999
40
0.24999999999999
40
0.374999999999991
40
0.374999999999991
40
0.499999999999993
40
0.499999999999993
40
0.624999999999995
40
0.624999999999995
40
0.749999999999996
40
0.749999999999996
40
1
40
1
40
1
40
1
41
1
10
49.3897356401399
20
-1.68463061083173
30
0
41
1
10
49.4186163649427
20
-1.67480252303136
30
-1E-16
41
1
10
49.447755035362
20
-1.66623901436716
30
-1E-16
41
1
10
49.5064266350085
20
-1.65106152313444
30
-1E-16
41
1
10
49.5359605252121
20
-1.64445205808184
30
-1E-16
41
1
10
49.6250414186827
20
-1.62700993775505
30
-2E-16
41
1
10
49.6850617539188
20
-1.61853563264538
30
-2E-16
41
1
10
49.8060152652303
20
-1.60618339812268
30
2E-16
41
1
10
49.8669743007939
20
-1.60232572198242
30
2E-16
41
1
10
49.9895335084767
20
-1.59829862304923
30
2E-16
41
1
10
50.0507173057704
20
-1.5981458708952
30
2E-16
41
1
10
50.234037331036
20
-1.60218304204272
30
2E-16
41
1
10
50.3559691818842
20
-1.61082046235396
30
2E-16
41
1
10
50.5992844499024
20
-1.63671959018046
30
-2E-16
41
1
10
50.7201051925942
20
-1.65395764863797
30
-1E-16
41
1
10
50.960425472335
20
-1.69500437891995
30
0
41
1
10
51.0799794650435
20
-1.71884772630872
30
0
41
1
10
51.3172384814513
20
-1.77160674386442
30
2E-16
41
1
10
51.4350560188944
20
-1.80054791190753
30
2E-16
41
1
10
51.7862827626794
20
-1.89338865334795
30
0
41
1
10
52.0167841489982
20
-1.96306850906674
30
2E-16
41
1
10
52.2446650903685
20
-2.03708607301797
30
-1E-16
0
SPLINE
5
167
100
AcDbEntity
8
1
62
256
6
ByLayer
370
18
48
1
60
0
100
AcDbSpline
70
4
71
3
72
12
73
8
40
0
40
0
40
0
40
0
40
0.25
40
0.25
40
0.500000000000001
40
0.500000000000001
40
1
40
1
40
1
40
1
41
1
10
52.1426854079209
20
-1.61778214839302
30
-2E-16
41
1
10
52.1459460048807
20
-1.64255696319381
30
-1E-16
41
1
10
52.1505153976549
20
-1.66694851355325
30
-1E-16
41
1
10
52.1623389330215
20
-1.71497027592045
30
0
41
1
10
52.1696256999138
20
-1.73867837366512
30
1E-16
41
1
10
52.1953433060034
20
-1.80794258506941
30
-2E-16
41
1
10
52.2175857074282
20
-1.85168345475756
30
-1E-16
41
1
10
52.2446650903688
20
-1.89321445620277
30
0
0
SPLINE
5
168
100
AcDbEntity
8
1
62
256
6
ByLayer
370
18
48
1
60
0
100
AcDbSpline
70
4
71
3
72
14
73
10
40
0
40
0
40
0
40
0
40
0.124999999999998
40
0.124999999999998
40
0.249999999999996
40
0.249999999999996
40
0.499999999999991
40
0.499999999999991
40
1
40
1
40
1
40
1
41
1
10
52.0169991225013
20
-1.13192552097257
30
0
41
1
10
52.0179963819328
20
-1.15341386533004
30
0
41
1
10
52.0195021583635
20
-1.17487798332354
30
1E-16
41
1
10
52.0235868131048
20
-1.21775988943136
30
2E-16
41
1
10
52.0261714331224
20
-1.23918771160305
30
-2E-16
41
1
10
52.0354885720638
20
-1.30261662216739
30
-1E-16
41
1
10
52.0438032540016
20
-1.34402692333467
30
0
41
1
10
52.0751220616024
20
-1.46569399717052
30
-1E-16
41
1
10
52.1044896098813
20
-1.54339068746052
30
1E-16
41
1
10
52.1426854079182
20
-1.61778214839043
30
-2E-16
0
SPLINE
5
169
100
AcDbEntity
8
1
62
256
6
ByLayer
370
18
48
1
60
0
100
AcDbSpline
70
4
71
3
72
32
73
28
40
0
40
0
40
0
40
0
40
0.249999999999883
40
0.249999999999883
40
0.374999999999866
40
0.374999999999866
40
0.499999999999849
40
0.499999999999849
40
0.562499999999868
40
0.562499999999868
40
0.624999999999888
40
0.624999999999888
40
0.687499999999907
40
0.687499999999907
40
0.718749999999916
40
0.718749999999916
40
0.749999999999925
40
0.749999999999925
40
0.781249999999934
40
0.781249999999934
40
0.812499999999943
40
0.812499999999943
40
0.874999999999962
40
0.874999999999962
40
0.937499999999981
40
0.937499999999981
40
1
40
1
40
1
40
1
41
1
10
49.2147813213392
20
0.818657316796902
30
-1E-16
41
1
10
49.1953823575163
20
0.836968585758427
30
-2E-16
41
1
10
49.1767444917491
20
0.855880165513696
30
2E-16
41
1
10
49.1508917907274
20
0.885932970950194
30
1E-16
41
1
10
49.1426295570911
20
0.896235274709511
30
1E-16
41
1
10
49.1272245938849
20
0.91774359206542
30
1E-16
41
1
10
49.1200731645106
20
0.92895151048566
30
0
41
1
10
49.1111876956372
20
0.946389501787053
30
0
41
1
10
49.1085250794345
20
0.952323879157035
30
0
41
1
10
49.1040755387372
20
0.964551125549235
30
0
41
1
10
49.1022716955542
20
0.970873619939482
30
-1E-16
41
1
10
49.1001399499896
20
0.983971635855085
30
-1E-16
41
1
10
49.0998397563436
20
0.990538660572298
30
-1E-16
41
1
10
49.1011758423701
20
1.00043539783249
30
-1E-16
41
1
10
49.1019139132911
20
1.00365060921567
30
-1E-16
41
1
10
49.1040333395247
20
1.00989083346471
30
-1E-16
41
1
10
49.1054362691917
20
1.01294962385859
30
-2E-16
41
1
10
49.1088471960769
20
1.01868192312045
30
-2E-16
41
1
10
49.1108375431692
20
1.02134512400727
30
-2E-16
41
1
10
49.1153386783763
20
1.02630136909639
30
-2E-16
41
1
10
49.1178680323517
20
1.02860266183316
30
-2E-16
41
1
10
49.1258592042754
20
1.03478221498065
30
-2E-16
41
1
10
49.1318407089261
20
1.03807178395451
30
-2E-16
41
1
10
49.1443794995625
20
1.04341728466571
30
2E-16
41
1
10
49.1508372514701
20
1.04544358080966
30
2E-16
41
1
10
49.1639913108663
20
1.04867843087882
30
2E-16
41
1
10
49.170689838142
20
1.04987933706144
30
2E-16
41
1
10
49.1774753054
20
1.05078243746416
30
2E-16
0
SPLINE
5
16A
100
AcDbEntity
8
1
62
256
6
ByLayer
370
18
48
1
60
0
100
AcDbSpline
70
4
71
3
72
22
73
18
40
0
40
0
40
0
40
0
40
0.249999999999933
40
0.249999999999933
40
0.374999999999845
40
0.374999999999845
40
0.499999999999756
40
0.499999999999756
40
0.562499999999758
40
0.562499999999758
40
0.624999999999761
40
0.624999999999761
40
0.74999999999984
40
0.74999999999984
40
0.87499999999992
40
0.87499999999992
40
1
40
1
40
1
40
1
41
1
10
49.1774753053999
20
1.05078243746416
30
2E-16
41
1
10
49.2069579762167
20
1.05470638416901
30
2E-16
41
1
10
49.2359755584375
20
1.06056127162068
30
2E-16
41
1
10
49.2783084734969
20
1.07427742556868
30
1E-16
41
1
10
49.2920221543804
20
1.07963244189688
30
1E-16
41
1
10
49.318323646996
20
1.09229369720802
30
1E-16
41
1
10
49.3309300405441
20
1.09959998464177
30
1E-16
41
1
10
49.3487453878161
20
1.11251213596606
30
1E-16
41
1
10
49.3544641768384
20
1.11712512440519
30
0
41
1
10
49.3652097494374
20
1.1268401093773
30
0
41
1
10
49.3702684860048
20
1.13196448529899
30
0
41
1
10
49.384447401898
20
1.14818195588182
30
0
41
1
10
49.3926156510083
20
1.16028423487396
30
-1E-16
41
1
10
49.4053761041357
20
1.1855588334125
30
-1E-16
41
1
10
49.410113862189
20
1.1988717360743
30
-1E-16
41
1
10
49.4165951403155
20
1.22638511084153
30
-2E-16
41
1
10
49.4182927340354
20
1.2402992162088
30
2E-16
41
1
10
49.4187862300739
20
1.25432730512475
30
2E-16
0
SPLINE
5
16B
100
AcDbEntity
8
1
62
256
6
ByLayer
370
18
48
1
60
0
100
AcDbSpline
70
4
71
3
72
10
73
6
40
0
40
0
40
0
40
0
40
0.5
40
0.5
40
1
40
1
40
1
40
1
41
1
10
49.4187862300729
20
1.2543273051252
30
2E-16
41
1
10
49.408904341964
20
1.35288464735299
30
-1E-16
41
1
10
49.4047387482011
20
1.44945229698618
30
2E-16
41
1
10
49.4057098616228
20
1.6386593090115
30
2E-16
41
1
10
49.4108546464626
20
1.73129864309041
30
-1E-16
41
1
10
49.4199822069503
20
1.82195331161367
30
2E-16
0
SPLINE
5
16C
100
AcDbEntity
8
1
62
256
6
ByLayer
370
18
48
1
60
0
100
AcDbSpline
70
4
71
3
72
16
73
12
40
0
40
0
40
0
40
0
40
0.249999999999996
40
0.249999999999996
40
0.374999999999994
40
0.374999999999994
40
0.499999999999992
40
0.499999999999992
40
0.749999999999996
40
0.749999999999996
40
1
40
1
40
1
40
1
41
1
10
49.4199822069503
20
1.82195331161367
30
2E-16
41
1
10
49.4208121041415
20
1.83019582667305
30
2E-16
41
1
10
49.422974381579
20
1.83809727082166
30
1E-16
41
1
10
49.4284638893366
20
1.84938516033762
30
1E-16
41
1
10
49.430691284477
20
1.85307100119343
30
1E-16
41
1
10
49.435717599548
20
1.8599622829725
30
1E-16
41
1
10
49.4385299944485
20
1.86320631063333
30
1E-16
41
1
10
49.4477813654626
20
1.87239205941594
30
1E-16
41
1
10
49.4551051413726
20
1.87780405470028
30
0
41
1
10
49.4706605308335
20
1.88695537771054
30
0
41
1
10
49.4789798450512
20
1.89079599879213
30
0
41
1
10
49.4876978446586
20
1.89409820479156
30
0
0
SPLINE
5
16D
100
AcDbEntity
8
1
62
256
6
ByLayer
370
18
48
1
60
0
100
AcDbSpline
70
4
71
3
72
30
73
26
40
0
40
0
40
0
40
0
40
0.0312500000000083
40
0.0312500000000083
40
0.0625000000000166
40
0.0625000000000166
40
0.125000000000033
40
0.125000000000033
40
0.18750000000005
40
0.18750000000005
40
0.218750000000058
40
0.218750000000058
40
0.250000000000066
40
0.250000000000066
40
0.375000000000055
40
0.375000000000055
40
0.500000000000044
40
0.500000000000044
40
0.625000000000033
40
0.625000000000033
40
0.750000000000022
40
0.750000000000022
40
0.875000000000011
40
0.875000000000011
40
1
40
1
40
1
40
1
41
1
10
49.4876978446586
20
1.89409820479156
30
0
41
1
10
49.5150203428741
20
1.90444742727249
30
0
41
1
10
49.5426604880204
20
1.9134849691917
30
0
41
1
10
49.5984221780877
20
1.92959325543163
30
-1E-16
41
1
10
49.6265449837193
20
1.93665854893391
30
-1E-16
41
1
10
49.7114951141703
20
1.95549925102338
30
-1E-16
41
1
10
49.768896774724
20
1.9649510972103
30
-2E-16
41
1
10
49.8847980343381
20
1.97947831087222
30
-2E-16
41
1
10
49.9433032624927
20
1.98452947931185
30
-2E-16
41
1
10
50.0317147825947
20
1.98952212633051
30
-2E-16
41
1
10
50.0612576213904
20
1.99074815571095
30
2E-16
41
1
10
50.1202533285904
20
1.99241123418616
30
2E-16
41
1
10
50.149740634897
20
1.99285011283845
30
2E-16
41
1
10
50.2971296604373
20
1.99327748315341
30
2E-16
41
1
10
50.4149198649457
20
1.98806292156507
30
-2E-16
41
1
10
50.6501660964977
20
1.96945603168328
30
-2E-16
41
1
10
50.7670749167505
20
1.95606579097242
30
-1E-16
41
1
10
50.9997675747469
20
1.92266107038697
30
-1E-16
41
1
10
51.1155778868057
20
1.90261521332934
30
0
41
1
10
51.3454031707375
20
1.85690920220014
30
1E-16
41
1
10
51.4595359163828
20
1.83122638090742
30
2E-16
41
1
10
51.6864773388229
20
1.77479358668836
30
-2E-16
41
1
10
51.7992054111254
20
1.744056866053
30
-1E-16
41
1
10
52.0230209839239
20
1.67810871627501
30
1E-16
41
1
10
52.1341684515063
20
1.64288027922859
30
1E-16
41
1
10
52.2446650903685
20
1.60558703528849
30
-2E-16
0
SPLINE
5
16E
100
AcDbEntity
8
1
62
256
6
ByLayer
370
18
48
1
60
0
100
AcDbSpline
70
4
71
3
72
12
73
8
40
0
40
0
40
0
40
0
40
0.25
40
0.25
40
0.500000000000001
40
0.500000000000001
40
1
40
1
40
1
40
1
41
1
10
52.1426854079209
20
2.02847761570229
30
1E-16
41
1
10
52.1459460048807
20
2.00556643286129
30
2E-16
41
1
10
52.150515397655
20
1.9826959575303
30
-2E-16
41
1
10
52.1623389330215
20
1.93706772495074
30
-1E-16
41
1
10
52.1696256999138
20
1.91423324482469
30
0
41
1
10
52.1953433060033
20
1.84665772911154
30
1E-16
41
1
10
52.2175857074282
20
1.80281551032664
30
2E-16
41
1
10
52.2446650903687
20
1.76022196899314
30
-1E-16
0
SPLINE
5
16F
100
AcDbEntity
8
1
62
256
6
ByLayer
370
18
48
1
60
0
100
AcDbSpline
70
4
71
3
72
8
73
4
40
0
40
0
40
0
40
0
40
1
40
1
40
1
40
1
41
1
10
59.6314843524049
20
-3.26517221079388
30
0
41
1
10
59.5979927387079
20
-3.30669378186062
30
0
41
1
10
59.5617228472922
20
-3.34502913288969
30
0
41
1
10
59.5231425226166
20
-3.38071395166787
30
0
0
SPLINE
5
170
100
AcDbEntity
8
1
62
256
6
ByLayer
370
18
48
1
60
0
100
AcDbSpline
70
4
71
3
72
8
73
4
40
0
40
0
40
0
40
0
40
1
40
1
40
1
40
1
41
1
10
59.7334212405478
20
-3.11047966644145
30
0
41
1
10
59.7048744413104
20
-3.16441129110581
30
0
41
1
10
59.6707726810424
20
-3.21593743753684
30
0
41
1
10
59.6314567607957
20
-3.26526713092014
30
0
0
SPLINE
5
171
100
AcDbEntity
8
1
62
256
6
ByLayer
370
18
48
1
60
0
100
AcDbSpline
70
4
71
5
72
12
73
6
40
0
40
0
40
0
40
0
40
0
40
0
40
1
40
1
40
1
40
1
40
1
40
1
41
1
10
52.4446999999988
20
-1.80934565133739
30
-2E-16
41
1
10
52.4446999999988
20
-1.69442254900875
30
0
41
1
10
52.4446999999988
20
-1.57949608397675
30
1E-16
41
1
10
52.4446999999989
20
-1.46456633776972
30
-1E-16
41
1
10
52.4446999999989
20
-1.34963338814046
30
1E-16
41
1
10
52.444699999999
20
-1.23469730943546
30
-2E-16
0
SPLINE
5
172
100
AcDbEntity
8
1
62
256
6
ByLayer
370
18
48
1
60
0
100
AcDbSpline
70
4
71
3
72
18
73
14
40
0
40
0
40
0
40
0
40
0.250000000000074
40
0.250000000000074
40
0.500000000000147
40
0.500000000000147
40
0.562500000000141
40
0.562500000000141
40
0.625000000000135
40
0.625000000000135
40
0.75000000000009
40
0.75000000000009
40
1
40
1
40
1
40
1
41
1
10
59.9507144152875
20
0.434088402110518
30
-1E-16
41
1
10
59.9045418978889
20
0.44338971232338
30
-2E-16
41
1
10
59.8540528797858
20
0.452328516270455
30
-2E-16
41
1
10
59.7447848672763
20
0.469509919400878
30
-2E-16
41
1
10
59.6860545764056
20
0.477756608781163
30
2E-16
41
1
10
59.6074682550132
20
0.487630495685465
30
2E-16
41
1
10
59.5914920247881
20
0.48958352471368
30
2E-16
41
1
10
59.5590312205831
20
0.493446891292365
30
2E-16
41
1
10
59.5425550001933
20
0.495356372289763
30
2E-16
41
1
10
59.4927353888207
20
0.500978111942146
30
2E-16
41
1
10
59.4588603046249
20
0.504594086519148
30
2E-16
41
1
10
59.3554547457801
20
0.515087428436289
30
1E-16
41
1
10
59.2841091531166
20
0.521603280540177
30
1E-16
41
1
10
59.2104250200252
20
0.527653367889911
30
1E-16
0
SPLINE
5
173
100
AcDbEntity
8
1
62
256
6
ByLayer
370
18
48
1
60
0
100
AcDbSpline
70
4
71
3
72
18
73
14
40
0
40
0
40
0
40
0
40
0.250000000000015
40
0.250000000000015
40
0.50000000000003
40
0.50000000000003
40
0.562500000000033
40
0.562500000000033
40
0.625000000000037
40
0.625000000000037
40
0.750000000000017
40
0.750000000000017
40
1
40
1
40
1
40
1
41
1
10
59.5878358152775
20
0.61246809517516
30
-1E-16
41
1
10
59.6324025789817
20
0.60271715518823
30
-1E-16
41
1
10
59.6732645506879
20
0.591464916017287
30
-1E-16
41
1
10
59.7482457572395
20
0.566325380731826
30
0
41
1
10
59.7823542300318
20
0.552474793129988
30
0
41
1
10
59.8207663471935
20
0.53357470952443
30
1E-16
41
1
10
59.8282361440309
20
0.529714510016959
30
1E-16
41
1
10
59.8427446433985
20
0.521830547816819
30
1E-16
41
1
10
59.8497991716656
20
0.51779699219594
30
1E-16
41
1
10
59.8701708945599
20
0.505523908378251
30
1E-16
41
1
10
59.8826869552358
20
0.497122802912855
30
2E-16
41
1
10
59.9171333170935
20
0.471273215717645
30
-2E-16
41
1
10
59.9359828775718
20
0.453195941829506
30
-2E-16
41
1
10
59.9507144152873
20
0.43408840211049
30
-1E-16
0
SPLINE
5
174
100
AcDbEntity
8
1
62
256
6
ByLayer
370
18
48
1
60
0
100
AcDbSpline
70
4
71
3
72
8
73
4
40
0
40
0
40
0
40
0
40
1
40
1
40
1
40
1
41
1
10
59.5210639924581
20
0.610596100524248
30
-1E-16
41
1
10
59.5433360712343
20
0.610894644621084
30
-1E-16
41
1
10
59.5655909084504
20
0.611520716323099
30
-1E-16
41
1
10
59.5878358152775
20
0.61246809517516
30
-1E-16
0
SPLINE
5
175
100
AcDbEntity
8
1
62
256
6
ByLayer
370
18
48
1
60
0
100
AcDbSpline
70
4
71
3
72
8
73
4
40
0
40
0
40
0
40
0
40
1
40
1
40
1
40
1
41
1
10
59.1453052458083
20
0.601625551056401
30
-1E-16
41
1
10
59.1686376844235
20
0.576980007844014
30
0
41
1
10
59.1904110982828
20
0.552375957879065
30
0
41
1
10
59.2104250200216
20
0.527653367887837
30
1E-16
0
SPLINE
5
176
100
AcDbEntity
8
1
62
256
6
ByLayer
370
18
48
1
60
0
100
AcDbSpline
70
4
71
3
72
8
73
4
40
0
40
0
40
0
40
0
40
1
40
1
40
1
40
1
41
1
10
52.4447000000037
20
3.58187988558015
30
0
41
1
10
52.6369312830957
20
3.61246080125605
30
0
41
1
10
52.826964305026
20
3.63125418235586
30
0
41
1
10
53.0163101980764
20
3.63808441428469
30
0
0
SPLINE
5
177
100
AcDbEntity
8
1
62
256
6
ByLayer
370
18
48
1
60
0
100
AcDbSpline
70
4
71
3
72
41
73
37
40
0
40
0
40
0
40
0
40
0.124999999999963
40
0.124999999999963
40
0.187499999999954
40
0.187499999999954
40
0.249999999999945
40
0.312499999999936
40
0.312499999999936
40
0.343749999999933
40
0.343749999999933
40
0.37499999999993
40
0.37499999999993
40
0.437499999999926
40
0.437499999999926
40
0.468749999999928
40
0.468749999999928
40
0.49999999999993
40
0.49999999999993
40
0.62499999999994
40
0.62499999999994
40
0.656249999999947
40
0.656249999999947
40
0.687499999999954
40
0.687499999999954
40
0.749999999999968
40
0.749999999999968
40
0.781249999999961
40
0.781249999999961
40
0.812499999999954
40
0.812499999999954
40
0.87499999999997
40
0.87499999999997
40
0.937499999999985
40
0.937499999999985
40
1
40
1
40
1
40
1
41
1
10
58.5652048517626
20
-0.221939110272046
30
1E-16
41
1
10
58.5390288098184
20
-0.191302703738188
30
0
41
1
10
58.5174230945212
20
-0.157943163203356
30
-1E-16
41
1
10
58.4917616813307
20
-0.103994167915317
30
-2E-16
41
1
10
58.4843135689289
20
-0.0852207820222475
30
2E-16
41
1
10
58.4721035097857
20
-0.0473870134792378
30
1E-16
41
1
10
58.4624679994428
20
-0.0091141076611905
30
0
41
1
10
58.4577621523109
20
0.029912448020184
30
-1E-16
41
1
10
58.4560756716558
20
0.0594297291330577
30
-1E-16
41
1
10
58.4558258135422
20
0.0692719936263586
30
-2E-16
41
1
10
58.4559314899104
20
0.0887474357529925
30
-2E-16
41
1
10
58.4562850076809
20
0.0984118095726956
30
2E-16
41
1
10
58.4582107279859
20
0.127179596162932
30
1E-16
41
1
10
58.4606445575673
20
0.146058224944056
30
1E-16
41
1
10
58.4659400588829
20
0.173896165442528
30
0
41
1
10
58.4679802438653
20
0.183095349345251
30
0
41
1
10
58.4726081888786
20
0.201326589390987
30
0
41
1
10
58.4751928275425
20
0.210337175331034
30
0
41
1
10
58.4892608685833
20
0.254327225558455
30
-2E-16
41
1
10
58.5042237560135
20
0.286659565228831
30
2E-16
41
1
10
58.5272319860131
20
0.323525516821235
30
1E-16
41
1
10
58.5320548427321
20
0.330715832744886
30
1E-16
41
1
10
58.5420054318697
20
0.344541119294888
30
1E-16
41
1
10
58.5471488810457
20
0.351202431704166
30
1E-16
41
1
10
58.5630768268738
20
0.370448916428813
30
0
41
1
10
58.5743549925319
20
0.382300188718261
30
0
41
1
10
58.5923024642672
20
0.398610410205322
30
0
41
1
10
58.5984576007642
20
0.403801840255511
30
-1E-16
41
1
10
58.611132923392
20
0.413683056213728
30
-1E-16
41
1
10
58.617676731173
20
0.418386916329354
30
-1E-16
41
1
10
58.6376335632351
20
0.431548633705461
30
-1E-16
41
1
10
58.6514110822744
20
0.439107244413293
30
-1E-16
41
1
10
58.6800589740228
20
0.451786756576354
30
-2E-16
41
1
10
58.6949271795312
20
0.456909554536679
30
-2E-16
41
1
10
58.7260477701644
20
0.464511767679909
30
-2E-16
41
1
10
58.7423889351944
20
0.466985435133154
30
-2E-16
41
1
10
58.759235364452
20
0.467889146984703
30
-2E-16
0
SPLINE
5
178
100
AcDbEntity
8
1
62
256
6
ByLayer
370
18
48
1
60
0
100
AcDbSpline
70
4
71
3
72
20
73
16
40
0
40
0
40
0
40
0
40
0.125000000000044
40
0.125000000000044
40
0.187500000000056
40
0.187500000000056
40
0.250000000000068
40
0.250000000000068
40
0.500000000000045
40
0.500000000000045
40
0.625000000000034
40
0.625000000000034
40
0.750000000000023
40
0.750000000000023
40
1
40
1
40
1
40
1
41
1
10
59.2104250200194
20
0.527653367890139
30
1E-16
41
1
10
59.202639443947
20
0.524164185010903
30
1E-16
41
1
10
59.1932346688081
20
0.520768500826193
30
1E-16
41
1
10
59.1766314393606
20
0.51581910690814
30
1E-16
41
1
10
59.170680789287
20
0.514193344226356
30
1E-16
41
1
10
59.1579330447993
20
0.510990695768982
30
1E-16
41
1
10
59.1511222459245
20
0.509411541696835
30
1E-16
41
1
10
59.1153627068496
20
0.501730161896006
30
2E-16
41
1
10
59.0810562791515
20
0.496195894120547
30
2E-16
41
1
10
59.0220456281236
20
0.488703861412517
30
2E-16
41
1
10
59.0010787315248
20
0.486338423418886
30
2E-16
41
1
10
58.9568889862941
20
0.481879015424852
30
2E-16
41
1
10
58.9339230005077
20
0.479809727560536
30
2E-16
41
1
10
58.8627256195061
20
0.47402530452797
30
2E-16
41
1
10
58.8122095219535
20
0.470730898980207
30
-2E-16
41
1
10
58.7592353644521
20
0.467889146984703
30
-2E-16
0
SPLINE
5
179
100
AcDbEntity
8
1
62
256
6
ByLayer
370
18
48
1
60
0
100
AcDbSpline
70
4
71
3
72
25
73
21
40
0
40
0
40
0
40
0
40
0.249999999999975
40
0.249999999999975
40
0.312499999999971
40
0.312499999999971
40
0.343749999999969
40
0.343749999999969
40
0.374999999999967
40
0.499999999999975
40
0.499999999999975
40
0.749999999999984
40
0.749999999999984
40
0.874999999999988
40
0.874999999999988
40
0.906249999999991
40
0.906249999999991
40
0.937499999999994
40
0.937499999999994
40
1
40
1
40
1
40
1
41
1
10
53.0163101980764
20
3.63808441428469
30
0
41
1
10
53.297747018698
20
3.64823659940058
30
0
41
1
10
53.5759131305811
20
3.6325926676175
30
-1E-16
41
1
10
53.9236131938554
20
3.58183092336856
30
0
41
1
10
53.9931518773624
20
3.57011631788078
30
1E-16
41
1
10
54.0975342616761
20
3.55020517303223
30
-1E-16
41
1
10
54.1323664044465
20
3.54317225210508
30
-1E-16
41
1
10
54.201880872835
20
3.52836803049601
30
-1E-16
41
1
10
54.3753517297652
20
3.48950224005392
30
0
41
1
10
54.5474239204203
20
3.44154315266749
30
-1E-16
41
1
10
54.9589373824776
20
3.30997347843842
30
-2E-16
41
1
10
55.2313466797437
20
3.20031235380856
30
1E-16
41
1
10
55.6415586066048
20
3.00621294842546
30
1E-16
41
1
10
55.7785587189252
20
2.93654957280225
30
-2E-16
41
1
10
55.9505952818595
20
2.84352714287292
30
0
41
1
10
55.9850419595897
20
2.82462505375534
30
0
41
1
10
56.0540257298318
20
2.78623074035801
30
1E-16
41
1
10
56.088590008384
20
2.76672308061671
30
2E-16
41
1
10
56.1922407166078
20
2.70743752920589
30
-1E-16
41
1
10
56.2611399886971
20
2.6669825594152
30
0
41
1
10
56.3298833833525
20
2.62565459181698
30
1E-16
0
SPLINE
5
17A
100
AcDbEntity
8
1
62
256
6
ByLayer
370
18
48
1
60
0
100
AcDbSpline
70
4
71
3
72
8
73
4
40
0
40
0
40
0
40
0
40
1
40
1
40
1
40
1
41
1
10
58.9870283853958
20
0.721335882183013
30
1E-16
41
1
10
59.0398295274053
20
0.681368804344658
30
2E-16
41
1
10
59.0925844448765
20
0.641459948506565
30
-2E-16
41
1
10
59.14530524581
20
0.601625551055093
30
-1E-16
0
SPLINE
5
17B
100
AcDbEntity
8
1
62
256
6
ByLayer
370
18
48
1
60
0
100
AcDbSpline
70
4
71
3
72
8
73
4
40
0
40
0
40
0
40
0
40
1
40
1
40
1
40
1
41
1
10
59.1453052458082
20
0.601625551056372
30
-1E-16
41
1
10
59.2706835959405
20
0.594570669919221
30
-1E-16
41
1
10
59.3960637127681
20
0.597678127486091
30
-1E-16
41
1
10
59.5210639924582
20
0.610596100524219
30
-1E-16
0
SPLINE
5
17C
100
AcDbEntity
8
1
62
256
6
ByLayer
370
18
48
1
60
0
100
AcDbSpline
70
4
71
3
72
22
73
18
40
0
40
0
40
0
40
0
40
0.0624999999999957
40
0.0624999999999957
40
0.124999999999991
40
0.124999999999991
40
0.249999999999993
40
0.249999999999993
40
0.374999999999994
40
0.374999999999994
40
0.499999999999995
40
0.499999999999995
40
0.749999999999997
40
0.749999999999997
40
0.874999999999999
40
0.874999999999999
40
1
40
1
40
1
40
1
41
1
10
56.3298833833525
20
2.62565459181698
30
1E-16
41
1
10
56.3850455088407
20
2.59247583403081
30
1E-16
41
1
10
56.4402427073614
20
2.55865410403871
30
-2E-16
41
1
10
56.5507525736135
20
2.489764214909
30
-1E-16
41
1
10
56.6060457958608
20
2.45470718609206
30
0
41
1
10
56.7716709947836
20
2.34805103782017
30
-2E-16
41
1
10
56.8819081681577
20
2.27486811418771
30
0
41
1
10
57.1023987519642
20
2.12474358662502
30
-1E-16
41
1
10
57.2126527389017
20
2.04780591113635
30
1E-16
41
1
10
57.4335720502362
20
1.89062160564552
30
0
41
1
10
57.5443826882746
20
1.81026457277588
30
2E-16
41
1
10
57.8761573552986
20
1.56626323153131
30
-1E-16
41
1
10
58.0968999019812
20
1.39939255462315
30
-2E-16
41
1
10
58.4298340247213
20
1.14584167243086
30
0
41
1
10
58.5411908551826
20
1.0607288918437
30
2E-16
41
1
10
58.7638566398405
20
0.890813978434409
30
1E-16
41
1
10
58.8752905599803
20
0.805914255112441
30
-1E-16
41
1
10
58.9870283853957
20
0.721335882183212
30
1E-16
0
SPLINE
5
17D
100
AcDbEntity
8
1
62
256
6
ByLayer
370
18
48
1
60
0
100
AcDbSpline
70
4
71
3
72
8
73
4
40
0
40
0
40
0
40
0
40
1
40
1
40
1
40
1
41
1
10
59.6314843524049
20
-2.12063949838352
30
1E-16
41
1
10
59.5979927387079
20
-2.14502876086809
30
1E-16
41
1
10
59.5617228472923
20
-2.16330607404123
30
2E-16
41
1
10
59.5231425226166
20
-2.17648970541163
30
2E-16
0
SPLINE
5
17E
100
AcDbEntity
8
1
62
256
6
ByLayer
370
18
48
1
60
0
100
AcDbSpline
70
4
71
3
72
8
73
4
40
0
40
0
40
0
40
0
40
1
40
1
40
1
40
1
41
1
10
59.7334212405478
20
-2.01192610110027
30
-2E-16
41
1
10
59.7048744413099
20
-2.05525821174004
30
-1E-16
41
1
10
59.6707726810414
20
-2.0914524501633
30
0
41
1
10
59.631456760794
20
-2.1207261829621
30
1E-16
0
SPLINE
5
17F
100
AcDbEntity
8
1
62
256
6
ByLayer
370
18
48
1
60
0
100
AcDbSpline
70
4
71
3
72
8
73
4
40
0
40
0
40
0
40
0
40
1
40
1
40
1
40
1
41
1
10
59.5210639924581
20
-2.68473035230735
30
1E-16
41
1
10
59.5433360712343
20
-2.67550623873726
30
1E-16
41
1
10
59.5655909084504
20
-2.66610525964438
30
0
41
1
10
59.5878358152775
20
-2.65654335742337
30
0
0
SPLINE
5
180
100
AcDbEntity
8
1
62
256
6
ByLayer
370
18
48
1
60
0
100
AcDbSpline
70
4
71
3
72
10
73
6
40
0
40
0
40
0
40
0
40
0.5
40
0.5
40
1
40
1
40
1
40
1
41
1
10
59.5878358152775
20
-2.65654335742329
30
0
41
1
10
59.5803339405609
20
-2.57875796712119
30
-2E-16
41
1
10
59.5711391109097
20
-2.50165109303001
30
1E-16
41
1
10
59.551284184668
20
-2.34793603875423
30
2E-16
41
1
10
59.5405704732859
20
-2.27135087879168
30
0
41
1
10
59.5294189990538
20
-2.19487549249317
30
-2E-16
0
SPLINE
5
181
100
AcDbEntity
8
1
62
256
6
ByLayer
370
18
48
1
60
0
100
AcDbSpline
70
4
71
3
72
8
73
4
40
0
40
0
40
0
40
0
40
1
40
1
40
1
40
1
41
1
10
59.5293714905255
20
-2.19487151207869
30
-2E-16
41
1
10
59.5272870364792
20
-2.18875112405584
30
-2E-16
41
1
10
59.5252107596051
20
-2.18262381394277
30
-2E-16
41
1
10
59.5231425226163
20
-2.17648970541063
30
2E-16
0
SPLINE
5
182
100
AcDbEntity
8
1
62
256
6
ByLayer
370
18
48
1
60
0
100
AcDbSpline
70
4
71
3
72
40
73
36
40
0
40
0
40
0
40
0
40
0.125
40
0.125
40
0.187500000000001
40
0.187500000000001
40
0.203125000000001
40
0.203125000000001
40
0.21875
40
0.21875
40
0.249999999999996
40
0.249999999999996
40
0.37499999999998
40
0.37499999999998
40
0.437499999999973
40
0.437499999999973
40
0.468749999999971
40
0.468749999999971
40
0.499999999999969
40
0.499999999999969
40
0.624999999999965
40
0.624999999999965
40
0.749999999999961
40
0.749999999999961
40
0.765624999999962
40
0.765624999999962
40
0.781249999999962
40
0.781249999999962
40
0.812499999999968
40
0.812499999999968
40
0.874999999999978
40
0.874999999999978
40
0.937499999999989
40
0.937499999999989
40
1
40
1
40
1
40
1
41
1
10
59.5231425226167
20
-2.17648970541075
30
2E-16
41
1
10
59.2112111335782
20
-2.08366393860467
30
0
41
1
10
58.904544854232
20
-1.96455875642641
30
2E-16
41
1
10
58.4467829972756
20
-1.75183300837591
30
1E-16
41
1
10
58.2945769489605
20
-1.67520684081217
30
-1E-16
41
1
10
58.1042007603195
20
-1.57256499864658
30
1E-16
41
1
10
58.0661194735934
20
-1.55169560230914
30
1E-16
41
1
10
57.989929467544
20
-1.50928767542456
30
0
41
1
10
57.951789723949
20
-1.48773116922561
30
-1E-16
41
1
10
57.8377414660121
20
-1.42233349955509
30
-2E-16
41
1
10
57.762092338126
20
-1.37770504495955
30
1E-16
41
1
10
57.3854169638576
20
-1.14987510627293
30
0
41
1
10
57.0890654376585
20
-0.952682251900455
30
0
41
1
10
56.646250131794
20
-0.641678672965753
30
2E-16
41
1
10
56.4989269408232
20
-0.535496270578875
30
-1E-16
41
1
10
56.277669405161
20
-0.373354546803227
30
0
41
1
10
56.2038714478027
20
-0.318828541588914
30
-1E-16
41
1
10
56.0560750094896
20
-0.208949666113341
30
0
41
1
10
55.9819524658786
20
-0.153500192181212
30
-1E-16
41
1
10
55.6134011692429
20
0.123379402427759
30
2E-16
41
1
10
55.3234796151494
20
0.34493459188991
30
1E-16
41
1
10
54.7462699391286
20
0.778697759091784
30
0
41
1
10
54.4590380246843
20
0.990953828510584
30
-1E-16
41
1
10
54.1331907372499
20
1.21878618423682
30
-2E-16
41
1
10
54.0969475445123
20
1.24394779468463
30
2E-16
41
1
10
54.0243693517356
20
1.29394300489426
30
1E-16
41
1
10
53.9880355584275
20
1.31877519179056
30
0
41
1
10
53.8793262444731
20
1.39244191752505
30
-2E-16
41
1
10
53.8070913174012
20
1.44055147708269
30
2E-16
41
1
10
53.5909160052704
20
1.58169433198032
30
-2E-16
41
1
10
53.4475037564532
20
1.67154504978745
30
1E-16
41
1
10
53.1611574860849
20
1.84173105017888
30
1E-16
41
1
10
53.0182273269735
20
1.9220737736031
30
-1E-16
41
1
10
52.732005112416
20
2.07202533331935
30
0
41
1
10
52.5887062872624
20
2.14164367279196
30
-1E-16
41
1
10
52.4447
20
2.20525466827144
30
2E-16
0
SPLINE
5
183
100
AcDbEntity
8
1
62
256
6
ByLayer
370
18
48
1
60
0
100
AcDbSpline
70
4
71
5
72
12
73
6
40
0
40
0
40
0
40
0
40
0
40
0
40
1
40
1
40
1
40
1
40
1
40
1
41
1
10
52.4446999999988
20
1.78876987202401
30
-2E-16
41
1
10
52.4446999999988
20
1.87208457178735
30
1E-16
41
1
10
52.4446999999988
20
1.95539019063642
30
-1E-16
41
1
10
52.4446999999989
20
2.03868694405949
30
1E-16
41
1
10
52.4446999999989
20
2.12197503762633
30
-1E-16
41
1
10
52.444699999999
20
2.20525466788692
30
2E-16
0
SPLINE
5
184
100
AcDbEntity
8
1
62
256
6
ByLayer
370
18
48
1
60
0
100
AcDbSpline
70
4
71
3
72
8
73
4
40
0
40
0
40
0
40
0
40
1
40
1
40
1
40
1
41
1
10
58.9870283853958
20
-2.75495826285896
30
-2E-16
41
1
10
59.0398295274052
20
-2.77353806770489
30
-2E-16
41
1
10
59.0925844448765
20
-2.79132120655473
30
-1E-16
41
1
10
59.1453052458101
20
-2.80829820895093
30
-1E-16
0
SPLINE
5
185
100
AcDbEntity
8
1
62
256
6
ByLayer
370
18
48
1
60
0
100
AcDbSpline
70
4
71
3
72
8
73
4
40
0
40
0
40
0
40
0
40
1
40
1
40
1
40
1
41
1
10
59.1453052458083
20
-2.80829820895036
30
-1E-16
41
1
10
59.2706835959406
20
-2.77256897119241
30
-2E-16
41
1
10
59.3960637127681
20
-2.73053547135771
30
2E-16
41
1
10
59.5210639924582
20
-2.68473035230735
30
1E-16
0
SPLINE
5
186
100
AcDbEntity
8
1
62
256
6
ByLayer
370
18
48
1
60
0
100
AcDbSpline
70
4
71
3
72
23
73
19
40
0
40
0
40
0
40
0
40
0.0070141681670268
40
0.0283783749694806
40
0.0869604275260098
40
0.102744013405269
40
0.113239088152344
40
0.240503724257847
40
0.337699657141951
40
0.446478419132584
40
0.508307642039866
40
0.643733026340755
40
0.738595659831654
40
0.804504480851139
40
0.852454147898499
40
0.90764353579525
40
0.954814057797275
40
1
40
1
40
1
40
1
41
1
10
52.4446999999984
20
1.78876987202364
30
-2E-16
41
1
10
52.4612704538704
20
1.78105584261897
30
-2E-16
41
1
10
52.5282347300911
20
1.7495234322613
30
-1E-16
41
1
10
52.7325076972139
20
1.64897603167546
30
1E-16
41
1
10
52.955588607518
20
1.52636665301199
30
0
41
1
10
53.1540496063361
20
1.4083256667686
30
-2E-16
41
1
10
53.51384171233
20
1.1891982991219
30
-1E-16
41
1
10
54.0611931145476
20
0.818735185440829
30
-1E-16
41
1
10
54.8352922828241
20
0.242429686352438
30
-1E-16
41
1
10
55.4573956674534
20
-0.239639936003982
30
1E-16
41
1
10
56.1698226284898
20
-0.788396087727079
30
1E-16
41
1
10
56.8522465583141
20
-1.29774632035628
30
-1E-16
41
1
10
57.5519701036123
20
-1.76439105471812
30
1E-16
41
1
10
58.0504794408472
20
-2.05844218172726
30
-1E-16
41
1
10
58.4580453014827
20
-2.27243027883867
30
0
41
1
10
58.8254768649668
20
-2.44126198605741
30
-1E-16
41
1
10
59.1860703618145
20
-2.58020959346399
30
-2E-16
41
1
10
59.4110479021727
20
-2.65274598099006
30
0
41
1
10
59.5210639924582
20
-2.68473035230735
30
1E-16
0
SPLINE
5
187
100
AcDbEntity
8
1
62
256
6
ByLayer
370
18
48
1
60
0
100
AcDbSpline
70
4
71
5
72
12
73
6
40
0
40
0
40
0
40
0
40
0
40
0
40
1
40
1
40
1
40
1
40
1
40
1
41
1
10
52.4446999999991
20
1.53585239332949
30
0
41
1
10
52.4446999999991
20
1.58635574803805
30
-2E-16
41
1
10
52.4446999999991
20
1.63689994279656
30
2E-16
41
1
10
52.4447
20
1.68748419325581
30
0
41
1
10
52.4447
20
1.7381077455845
30
-1E-16
41
1
10
52.4447000000001
20
1.78876987202287
30
-2E-16
0
SPLINE
5
188
100
AcDbEntity
8
1
62
256
6
ByLayer
370
18
48
1
60
0
100
AcDbSpline
70
4
71
3
72
17
73
13
40
0
40
0
40
0
40
0
40
0.0152010502677726
40
0.0535650403791545
40
0.158761610781431
40
0.187104405727813
40
0.205950550943406
40
0.434481349499398
40
0.609017378031195
40
0.80435284673943
40
0.915380404099386
40
1
40
1
40
1
40
1
41
1
10
52.4446999999981
20
1.53585239332949
30
0
41
1
10
52.4643728723476
20
1.52576169556792
30
0
41
1
10
52.533619270923
20
1.48982197382438
30
1E-16
41
1
10
52.7380880593363
20
1.37939981284401
30
-1E-16
41
1
10
52.9585359115596
20
1.24873270182533
30
2E-16
41
1
10
53.1556772427973
20
1.1241859220367
30
0
41
1
10
53.5136940578333
20
0.893724033608606
30
1E-16
41
1
10
54.0592610888364
20
0.509085556150211
30
1E-16
41
1
10
54.8326940846504
20
-0.0797447371649298
30
2E-16
41
1
10
55.4556091218385
20
-0.566623002350582
30
0
41
1
10
55.9640533038249
20
-0.957336635162164
30
0
41
1
10
56.2192862196834
20
-1.14850866629911
30
0
41
1
10
56.3298833833872
20
-1.23002282498226
30
2E-16
0
SPLINE
5
189
100
AcDbEntity
8
1
62
256
6
ByLayer
370
18
48
1
60
0
100
AcDbSpline
70
4
71
5
72
12
73
6
40
0
40
0
40
0
40
0
40
0
40
0
40
1
40
1
40
1
40
1
40
1
40
1
41
1
10
52.4447000000001
20
1.53560396538631
30
0
41
1
10
52.4447000000001
20
1.53565365086894
30
0
41
1
10
52.4447000000001
20
1.53570333640448
30
0
41
1
10
52.4447000000001
20
1.53575302199289
30
0
41
1
10
52.4447000000001
20
1.53580270763422
30
0
41
1
10
52.4447000000001
20
1.53585239332844
30
0
0
SPLINE
5
18A
100
AcDbEntity
8
1
62
256
6
ByLayer
370
18
48
1
60
0
100
AcDbSpline
70
4
71
3
72
8
73
4
40
0
40
0
40
0
40
0
40
1
40
1
40
1
40
1
41
1
10
52.4447000000037
20
1.53560396538685
30
0
41
1
10
52.6369312830957
20
1.43697119106415
30
2E-16
41
1
10
52.826964305026
20
1.32827694551869
30
0
41
1
10
53.0163101980764
20
1.21120637341483
30
-2E-16
0
SPLINE
5
18B
100
AcDbEntity
8
1
62
256
6
ByLayer
370
18
48
1
60
0
100
AcDbSpline
70
4
71
3
72
22
73
18
40
0
40
0
40
0
40
0
40
0.0625000000000048
40
0.0625000000000048
40
0.12500000000001
40
0.12500000000001
40
0.25000000000001
40
0.25000000000001
40
0.375000000000009
40
0.375000000000009
40
0.50000000000001
40
0.50000000000001
40
0.75
40
0.75
40
0.875
40
0.875
40
1
40
1
40
1
40
1
41
1
10
56.3298833833872
20
-1.23002282498223
30
2E-16
41
1
10
56.3850455088748
20
-1.27056955637909
30
-1E-16
41
1
10
56.4402427073948
20
-1.31081670314001
30
0
41
1
10
56.5507525736453
20
-1.39065457525078
30
1E-16
41
1
10
56.606045795892
20
-1.43023053801335
30
-2E-16
41
1
10
56.7716709948124
20
-1.54753550861855
30
1E-16
41
1
10
56.8819081681852
20
-1.62395929736428
30
-2E-16
41
1
10
57.1023987519889
20
-1.77280357276342
30
2E-16
41
1
10
57.2126527389249
20
-1.84522687601984
30
-1E-16
41
1
10
57.4335720502565
20
-1.98563429331133
30
2E-16
41
1
10
57.5443826882935
20
-2.05369941483548
30
-1E-16
41
1
10
57.8761573553132
20
-2.24938782873596
30
-1E-16
41
1
10
58.0968999019929
20
-2.36883719320841
30
2E-16
41
1
10
58.4298340247287
20
-2.529006433684
30
2E-16
41
1
10
58.5411908551886
20
-2.5792455336659
30
-2E-16
41
1
10
58.7638566398435
20
-2.67252752390752
30
0
41
1
10
58.8752905599818
20
-2.71563965736388
30
1E-16
41
1
10
58.9870283853957
20
-2.75495826285885
30
-2E-16
0
SPLINE
5
18C
100
AcDbEntity
8
1
62
256
6
ByLayer
370
18
48
1
60
0
100
AcDbSpline
70
4
71
3
72
25
73
21
40
0
40
0
40
0
40
0
40
0.249999999999996
40
0.249999999999996
40
0.312499999999999
40
0.312499999999999
40
0.343750000000001
40
0.343750000000001
40
0.375000000000002
40
0.5
40
0.5
40
0.749999999999988
40
0.749999999999988
40
0.874999999999986
40
0.874999999999986
40
0.906249999999988
40
0.906249999999988
40
0.937499999999989
40
0.937499999999989
40
1
40
1
40
1
40
1
41
1
10
53.0163101980764
20
1.21120637341491
30
-2E-16
41
1
10
53.297747018701
20
1.03719684943459
30
-2E-16
41
1
10
53.5759131305869
20
0.848642063583611
30
-2E-16
41
1
10
53.9236131938649
20
0.599881146510626
30
-1E-16
41
1
10
53.9931518773726
20
0.549473700169187
30
0
41
1
10
54.0975342616874
20
0.472968929391925
30
-2E-16
41
1
10
54.1323664044583
20
0.447299296214908
30
-2E-16
41
1
10
54.2018808728473
20
0.395816315185954
30
0
41
1
10
54.3753517297792
20
0.26670605569862
30
-2E-16
41
1
10
54.5474239204362
20
0.135813815542576
30
1E-16
41
1
10
54.9589373824978
20
-0.180148772970199
30
0
41
1
10
55.2313466797667
20
-0.393201299128094
30
0
41
1
10
55.6415586066324
20
-0.710522602343133
30
-1E-16
41
1
10
55.7785587189542
20
-0.815924582371679
30
1E-16
41
1
10
55.9505952818904
20
-0.946613863891912
30
0
41
1
10
55.985041959621
20
-0.972698500403339
30
1E-16
41
1
10
56.0540257298638
20
-1.02474605439872
30
2E-16
41
1
10
56.0885900084164
20
-1.05072934423998
30
-2E-16
41
1
10
56.1922407166412
20
-1.12832844781514
30
0
41
1
10
56.2611399887312
20
-1.17948534886622
30
1E-16
41
1
10
56.3298833833872
20
-1.2300228249822
30
2E-16
0
SPLINE
5
18D
100
AcDbEntity
8
1
62
256
6
ByLayer
370
18
48
1
60
0
100
AcDbSpline
70
4
71
3
72
8
73
4
40
0
40
0
40
0
40
0
40
1
40
1
40
1
40
1
41
1
10
54.9310452372953
20
-0.158369140515333
30
1E-16
41
1
10
54.9221513145811
20
-0.151914047953909
30
1E-16
41
1
10
54.913257391867
20
-0.145458150087535
30
1E-16
41
1
10
54.9043634691529
20
-0.139001534890099
30
1E-16
0
SPLINE
5
18E
100
AcDbEntity
8
1
62
256
6
ByLayer
370
18
48
1
60
0
100
AcDbSpline
70
4
71
3
72
10
73
6
40
0
40
0
40
0
40
0
40
0.5
40
0.5
40
1
40
1
40
1
40
1
41
1
10
59.9742875952874
20
0.403109043025381
30
-1E-16
41
1
10
59.9754207444668
20
0.408228020502747
30
-1E-16
41
1
10
59.9739355311434
20
0.413369886114225
30
-1E-16
41
1
10
59.9660218294348
20
0.423696828442189
30
-1E-16
41
1
10
59.9595982745627
20
0.42888186203345
30
-1E-16
41
1
10
59.9507144152873
20
0.43408840211049
30
-1E-16
0
SPLINE
5
18F
100
AcDbEntity
8
1
62
256
6
ByLayer
370
18
48
1
60
0
100
AcDbSpline
70
4
71
3
72
8
73
4
40
0
40
0
40
0
40
0
40
1
40
1
40
1
40
1
41
1
10
59.9742875953052
20
0.403109043007191
30
-1E-16
41
1
10
59.9337320786895
20
0.584025405527882
30
0
41
1
10
59.8931765620737
20
0.764941768048544
30
0
41
1
10
59.8526210454579
20
0.945858130569235
30
0
0
SPLINE
5
190
100
AcDbEntity
8
1
62
256
6
ByLayer
370
18
48
1
60
0
100
AcDbSpline
70
4
71
2
72
6
73
3
40
0
40
0
40
0
40
1
40
1
40
1
41
0.498741739705893
10
59.9260105647416
20
-0.921849362804455
30
1E-16
41
0.501258260294107
10
59.9311938997213
20
-0.933142177121576
30
0
41
0.498741739705893
10
59.9363767255852
20
-0.94443387116266
30
0
0
SPLINE
5
191
100
AcDbEntity
8
1
62
256
6
ByLayer
370
18
48
1
60
0
100
AcDbSpline
70
4
71
3
72
10
73
6
40
0
40
0
40
0
40
0
40
0.5
40
0.5
40
1
40
1
40
1
40
1
41
1
10
59.9742875952874
20
2.53118227438623
30
0
41
1
10
59.9754207444669
20
2.57103365069938
30
0
41
1
10
59.9739355311434
20
2.61056101324104
30
0
41
1
10
59.9660218294349
20
2.68900402423549
30
-1E-16
41
1
10
59.9595982745626
20
2.72792028319788
30
0
41
1
10
59.9507144152873
20
2.76653208755687
30
0
0
SPLINE
5
192
100
AcDbEntity
8
1
62
256
6
ByLayer
370
18
48
1
60
0
100
AcDbSpline
70
4
71
3
72
18
73
14
40
0
40
0
40
0
40
0
40
0.25000000000001
40
0.25000000000001
40
0.50000000000002
40
0.50000000000002
40
0.562500000000022
40
0.562500000000022
40
0.625000000000023
40
0.625000000000023
40
0.750000000000024
40
0.750000000000024
40
1
40
1
40
1
40
1
41
1
10
59.5878358152775
20
3.32942950619358
30
0
41
1
10
59.6324025789818
20
3.29331092093008
30
1E-16
41
1
10
59.6732645506879
20
3.25405930541237
30
-1E-16
41
1
10
59.7482457572394
20
3.16987487579331
30
-1E-16
41
1
10
59.782354230032
20
3.12494179349812
30
0
41
1
10
59.8207663471935
20
3.06523058273623
30
-1E-16
41
1
10
59.8282361440309
20
3.0531098149074
30
0
41
1
10
59.8427446433985
20
3.02850610960005
30
0
41
1
10
59.8497991716654
20
3.01599305914536
30
0
41
1
10
59.8701708945599
20
2.97815043915835
30
-1E-16
41
1
10
59.8826869552358
20
2.95255227335119
30
0
41
1
10
59.9171333170934
20
2.87467953253633
30
-1E-16
41
1
10
59.9359828775718
20
2.82133627856481
30
1E-16
41
1
10
59.9507144152873
20
2.7665320875569
30
0
0
SPLINE
5
193
100
AcDbEntity
8
1
62
256
6
ByLayer
370
18
48
1
60
0
100
AcDbSpline
70
4
71
3
72
17
73
13
40
0
40
0
40
0
40
0
40
0.0152010502679077
40
0.0535650403796292
40
0.158761610782837
40
0.18710440572947
40
0.20595055094523
40
0.434481349503245
40
0.609017378036587
40
0.804352846746551
40
0.91538040410749
40
1
40
1
40
1
40
1
41
1
10
52.4446999999981
20
3.58190743080871
30
0
41
1
10
52.4643728723476
20
3.58503839862831
30
0
41
1
10
52.533619270923
20
3.59563640422584
30
0
41
1
10
52.7380880593363
20
3.62248279385415
30
0
41
1
10
52.9585359115596
20
3.63839102373964
30
0
41
1
10
53.1556772427973
20
3.64139096532835
30
0
41
1
10
53.5136940578333
20
3.63972082342815
30
-1E-16
41
1
10
54.0592610888364
20
3.57950878362894
30
1E-16
41
1
10
54.8326940846504
20
3.36591511864398
30
1E-16
41
1
10
55.4556091218385
20
3.10535676034945
30
-2E-16
41
1
10
55.9640533038134
20
2.84034182277068
30
0
41
1
10
56.2192862196603
20
2.69230906396044
30
-1E-16
41
1
10
56.3298833833526
20
2.62565459181698
30
1E-16
0
SPLINE
5
194
100
AcDbEntity
8
1
62
256
6
ByLayer
370
18
48
1
60
0
100
AcDbSpline
70
4
71
3
72
12
73
8
40
0
40
0
40
0
40
0
40
0.25
40
0.25
40
0.5
40
0.5
40
1
40
1
40
1
40
1
41
1
10
52.2446650903685
20
3.59836216910159
30
0
41
1
10
52.2504132152136
20
3.59804955508
30
0
41
1
10
52.255561512677
20
3.59792191674427
30
0
41
1
10
52.2652893209572
20
3.59785528843187
30
0
41
1
10
52.2698516827507
20
3.59792118561029
30
0
41
1
10
52.2829889691626
20
3.59831363852553
30
0
41
1
10
52.2910254747217
20
3.59883166121048
30
0
41
1
10
52.2986852345105
20
3.59950435964146
30
0
0
SPLINE
5
195
100
AcDbEntity
8
1
62
256
6
ByLayer
370
18
48
1
60
0
100
AcDbSpline
70
4
71
3
72
12
73
8
40
0
40
0
40
0
40
0
40
0.25
40
0.25
40
0.5
40
0.5
40
1
40
1
40
1
40
1
41
1
10
52.2446650903685
20
-3.59970911012198
30
0
41
1
10
52.2504132152136
20
-3.59957735155692
30
0
41
1
10
52.2555615126768
20
-3.59963484659605
30
0
41
1
10
52.2652893209571
20
-3.59994253753095
30
0
41
1
10
52.2698516827506
20
-3.60019774300963
30
0
41
1
10
52.2829889691626
20
-3.60116203425301
30
0
41
1
10
52.2910254747217
20
-3.60206641916724
30
0
41
1
10
52.2986852345104
20
-3.60312815500245
30
0
0
SPLINE
5
196
100
AcDbEntity
8
1
62
256
6
ByLayer
370
18
48
1
60
0
100
AcDbSpline
70
4
71
3
72
40
73
36
40
0
40
0
40
0
40
0
40
0.0624999999999998
40
0.0624999999999998
40
0.125
40
0.125
40
0.15625
40
0.15625
40
0.1875
40
0.1875
40
0.25
40
0.25
40
0.375
40
0.375
40
0.5
40
0.5
40
0.5625
40
0.5625
40
0.59375
40
0.59375
40
0.625
40
0.625
40
0.6875
40
0.6875
40
0.75
40
0.75
40
0.8125
40
0.8125
40
0.875
40
0.875
40
0.90625
40
0.90625
40
0.9375
40
0.9375
40
1
40
1
40
1
40
1
41
1
10
59.4218634558587
20
-0.58106474533875
30
0
41
1
10
59.4100193977633
20
-0.572420809239361
30
0
41
1
10
59.400240140043
20
-0.563516697180631
30
0
41
1
10
59.3835520610749
20
-0.545223769862247
30
0
41
1
10
59.3766612158827
20
-0.535834289152064
30
0
41
1
10
59.3680201072895
20
-0.521376949000114
30
0
41
1
10
59.3654181119684
20
-0.516478770398351
30
0
41
1
10
59.3607754910149
20
-0.506646768960621
30
0
41
1
10
59.3587332794277
20
-0.501715389852649
30
0
41
1
10
59.3533381022077
20
-0.48685686507045
30
0
41
1
10
59.3507109683
20
-0.476865563482278
30
0
41
1
10
59.3451852199575
20
-0.44649196364395
30
0
41
1
10
59.3446044739678
20
-0.425697370688113
30
0
41
1
10
59.3483452912342
20
-0.38221120574508
30
0
41
1
10
59.3526344963298
20
-0.359894972145355
30
0
41
1
10
59.3623652259032
20
-0.324504911667191
30
0
41
1
10
59.3661679390465
20
-0.312384504305527
30
0
41
1
10
59.3727764519091
20
-0.293520732553304
30
0
41
1
10
59.3751308856808
20
-0.287118352316611
30
0
41
1
10
59.3801670050215
20
-0.274043174945433
30
0
41
1
10
59.3828577981886
20
-0.267349086397474
30
0
41
1
10
59.3913874453981
20
-0.246993696766964
30
0
41
1
10
59.3976789543504
20
-0.233047982122713
30
0
41
1
10
59.4116927172313
20
-0.20423997364918
30
0
41
1
10
59.4194179559523
20
-0.189366024837398
30
0
41
1
10
59.4366886546965
20
-0.15864454936937
30
0
41
1
10
59.4459914165745
20
-0.143237081205854
30
0
41
1
10
59.466186213561
20
-0.112554339847236
30
0
41
1
10
59.4770785695698
20
-0.0972797767035445
30
0
41
1
10
59.4948723636685
20
-0.0747236206687489
30
0
41
1
10
59.5010564760209
20
-0.0672581312242642
30
0
41
1
10
59.5137224369881
20
-0.0527595304091051
30
0
41
1
10
59.5202308389247
20
-0.0456912314232056
30
0
41
1
10
59.5403201441152
20
-0.0250668714399751
30
0
41
1
10
59.5544635599015
20
-0.012089699323667
30
0
41
1
10
59.5694727083522
20
2.274E-13
30
0
0
SPLINE
5
197
100
AcDbEntity
8
1
62
256
6
ByLayer
370
18
48
1
60
0
100
AcDbSpline
70
4
71
3
72
18
73
14
40
0
40
0
40
0
40
0
40
0.0698859401046844
40
0.188916548453366
40
0.32213202188887
40
0.397850931085982
40
0.563699083378629
40
0.679872226008412
40
0.760587198628184
40
0.819308565555847
40
0.886896027508342
40
0.944663217589442
40
1
40
1
40
1
40
1
41
1
10
53.7321920912913
20
3.65297530036222
30
-1E-16
41
1
10
53.8652127784523
20
3.64564471082488
30
-1E-16
41
1
10
54.2242606631961
20
3.61026111981201
30
-1E-16
41
1
10
54.8352922828241
20
3.47923964595259
30
1E-16
41
1
10
55.4573956674534
20
3.25496030080794
30
-1E-16
41
1
10
56.1698226284898
20
2.9217142508073
30
-2E-16
41
1
10
56.8522465583141
20
2.52569911551697
30
-1E-16
41
1
10
57.5519701036123
20
2.05403688983509
30
1E-16
41
1
10
58.0504794408472
20
1.69653378481195
30
0
41
1
10
58.4580453014827
20
1.39657393412512
30
-2E-16
41
1
10
58.8254768649668
20
1.12321442499413
30
0
41
1
10
59.1860703618145
20
0.856790879699588
30
2E-16
41
1
10
59.4110479021728
20
0.691242522121456
30
2E-16
41
1
10
59.5210639924582
20
0.610596100524248
30
-1E-16
0
SPLINE
5
198
100
AcDbEntity
8
1
62
256
6
ByLayer
370
18
48
1
60
0
100
AcDbSpline
70
4
71
3
72
34
73
30
40
0
40
0
40
0
40
0
40
0.154466996340363
40
0.154466996340363
40
0.231700494510546
40
0.231700494510546
40
0.251008869053094
40
0.251008869053094
40
0.270317243595641
40
0.270317243595641
40
0.308933992680735
40
0.308933992680735
40
0.463400989021122
40
0.463400989021122
40
0.540634487191318
40
0.540634487191318
40
0.579251236276416
40
0.579251236276416
40
0.617867985361514
40
0.617867985361514
40
0.77233498170191
40
0.77233498170191
40
0.926801978042307
40
0.926801978042307
40
0.946110352584856
40
0.946110352584856
40
0.965418727127406
40
0.965418727127406
40
1
40
1
40
1
40
1
41
1
10
59.5231425226167
20
1.15815144361258
30
0
41
1
10
59.2112111335776
20
1.35011882446716
30
-1E-16
41
1
10
58.904544854231
20
1.54680103482826
30
-1E-16
41
1
10
58.4467829972739
20
1.83996753731463
30
1E-16
41
1
10
58.2945769489585
20
1.93738799632217
30
-1E-16
41
1
10
58.1042007603173
20
2.05780118692817
30
1E-16
41
1
10
58.0661194735911
20
2.08181582680615
30
0
41
1
10
57.9899294675415
20
2.12968465339449
30
-1E-16
41
1
10
57.9517897239466
20
2.15355808470065
30
-2E-16
41
1
10
57.8377414660094
20
2.22463166643894
30
1E-16
41
1
10
57.7620923381232
20
2.27135553496575
30
0
41
1
10
57.3854169638542
20
2.50131939748371
30
-1E-16
41
1
10
57.0890654376548
20
2.67360282001113
30
0
41
1
10
56.6462501317896
20
2.90728166754838
30
-2E-16
41
1
10
56.4989269408185
20
2.98108072744518
30
1E-16
41
1
10
56.277669405156
20
3.08484773417308
30
-1E-16
41
1
10
56.2038714477976
20
3.11827999239642
30
-2E-16
41
1
10
56.0560750094843
20
3.18268222183133
30
1E-16
41
1
10
55.9819524658731
20
3.21369809294615
30
0
41
1
10
55.6134011692369
20
3.36112869426097
30
-1E-16
41
1
10
55.3234796151429
20
3.4554352296951
30
-1E-16
41
1
10
54.7462699391212
20
3.59295800191259
30
0
41
1
10
54.4590380246766
20
3.63609892705429
30
-1E-16
41
1
10
54.1331907372416
20
3.65285837685084
30
0
41
1
10
54.096947544504
20
3.65427676577866
30
0
41
1
10
54.0243693517271
20
3.65621376803972
30
0
41
1
10
53.9880355584189
20
3.65673118053667
30
0
41
1
10
53.8868997086724
20
3.65690843032817
30
0
41
1
10
53.8221911126641
20
3.6555707728136
30
0
41
1
10
53.7576291974513
20
3.65278973644763
30
0
0
SPLINE
5
199
100
AcDbEntity
8
1
62
256
6
ByLayer
370
18
48
1
60
0
100
AcDbSpline
70
4
71
3
72
25
73
21
40
0
40
0
40
0
40
0
40
0.250000000000013
40
0.250000000000013
40
0.312500000000015
40
0.312500000000015
40
0.343750000000012
40
0.343750000000012
40
0.375000000000009
40
0.500000000000004
40
0.500000000000004
40
0.750000000000002
40
0.750000000000002
40
0.875000000000001
40
0.875000000000001
40
0.906250000000003
40
0.906250000000003
40
0.937500000000004
40
0.937500000000004
40
1
40
1
40
1
40
1
41
1
10
53.0163101980764
20
-2.48843467852768
30
1E-16
41
1
10
53.2977470187008
20
-2.67460133386973
30
0
41
1
10
53.5759131305866
20
-2.84914222383884
30
0
41
1
10
53.9236131938644
20
-3.04867859395449
30
0
41
1
10
53.9931518773721
20
-3.0876538374373
30
1E-16
41
1
10
54.0975342616869
20
-3.14463267375913
30
-2E-16
41
1
10
54.1323664044577
20
-3.1633914658668
30
-1E-16
41
1
10
54.2018808728467
20
-3.20030083634703
30
-1E-16
41
1
10
54.3753517297785
20
-3.29108822206104
30
2E-16
41
1
10
54.5474239204354
20
-3.37439756215059
30
-1E-16
41
1
10
54.9589373824966
20
-3.55937685175087
30
-1E-16
41
1
10
55.2313466797654
20
-3.66273721000329
30
-1E-16
41
1
10
55.6415586066308
20
-3.78528638396819
30
0
41
1
10
55.7785587189526
20
-3.82069584382728
30
1E-16
41
1
10
55.9505952818886
20
-3.85781927043144
30
-1E-16
41
1
10
55.9850419596191
20
-3.86488652347964
30
0
41
1
10
56.0540257298621
20
-3.87829590204012
30
0
41
1
10
56.0885900084146
20
-3.8846428607047
30
0
41
1
10
56.1922407166393
20
-3.90255124729501
30
0
41
1
10
56.2611399887292
20
-3.91295815625026
30
0
41
1
10
56.3298833833853
20
-3.92184846650278
30
0
0
SPLINE
5
19A
100
AcDbEntity
8
1
62
256
6
ByLayer
370
18
48
1
60
0
100
AcDbSpline
70
4
71
3
72
8
73
4
40
0
40
0
40
0
40
0
40
1
40
1
40
1
40
1
41
1
10
59.5293714905255
20
-3.37681187934183
30
0
41
1
10
59.5272870364792
20
-3.37812048028238
30
0
41
1
10
59.5252107596051
20
-3.37942112257477
30
0
41
1
10
59.5231425226163
20
-3.38071395166722
30
0
0
SPLINE
5
19B
100
AcDbEntity
8
1
62
256
6
ByLayer
370
18
48
1
60
0
100
AcDbSpline
70
4
71
3
72
40
73
36
40
0
40
0
40
0
40
0
40
0.124999999999996
40
0.124999999999996
40
0.187499999999995
40
0.187499999999995
40
0.203124999999993
40
0.203124999999993
40
0.218749999999992
40
0.218749999999992
40
0.249999999999989
40
0.249999999999989
40
0.374999999999985
40
0.374999999999985
40
0.437499999999983
40
0.437499999999983
40
0.468749999999982
40
0.468749999999982
40
0.499999999999982
40
0.499999999999982
40
0.624999999999981
40
0.624999999999981
40
0.749999999999981
40
0.749999999999981
40
0.765624999999984
40
0.765624999999984
40
0.781249999999987
40
0.781249999999987
40
0.812499999999988
40
0.812499999999988
40
0.874999999999992
40
0.874999999999992
40
0.937499999999996
40
0.937499999999996
40
1
40
1
40
1
40
1
41
1
10
59.5231425226167
20
-3.38071395166708
30
0
41
1
10
59.2112111335781
20
-3.4828048529084
30
0
41
1
10
58.904544854232
20
-3.56315558919999
30
0
41
1
10
58.4467829972756
20
-3.64736703618056
30
0
41
1
10
58.2945769489605
20
-3.66935299575479
30
0
41
1
10
58.1042007603195
20
-3.68851530710671
30
0
41
1
10
58.0661194735935
20
-3.69193383451071
30
0
41
1
10
57.989929467544
20
-3.69793112008566
30
0
41
1
10
57.9517897239491
20
-3.70051135326824
30
0
41
1
10
57.8377414660121
20
-3.70695853336682
30
0
41
1
10
57.762092338126
20
-3.70954407389559
30
0
41
1
10
57.3854169638576
20
-3.7140057600092
30
0
41
1
10
57.0890654376584
20
-3.6905662928724
30
0
41
1
10
56.646250131794
20
-3.61478543331964
30
0
41
1
10
56.4989269408231
20
-3.58280737521434
30
0
41
1
10
56.277669405161
20
-3.52486981421853
30
0
41
1
10
56.2038714478027
20
-3.5038932863325
30
0
41
1
10
56.0560750094897
20
-3.45859240000402
30
1E-16
41
1
10
55.9819524658786
20
-3.43421727402404
30
1E-16
41
1
10
55.6134011692429
20
-3.30490873264051
30
0
41
1
10
55.3234796151494
20
-3.17729062597448
30
-1E-16
41
1
10
54.7462699391285
20
-2.87936769418363
30
1E-16
41
1
10
54.4590380246843
20
-2.70893743536374
30
1E-16
41
1
10
54.1331907372499
20
-2.4958513054566
30
1E-16
41
1
10
54.0969475445124
20
-2.47187693904951
30
0
41
1
10
54.0243693517356
20
-2.42334151110612
30
-1E-16
41
1
10
53.9880355584275
20
-2.39878065175012
30
-2E-16
41
1
10
53.8793262444731
20
-2.32454704449924
30
1E-16
41
1
10
53.8070913174012
20
-2.27422315585591
30
0
41
1
10
53.5909160052705
20
-2.12096415028719
30
1E-16
41
1
10
53.4475037564532
20
-2.01574530840054
30
-2E-16
41
1
10
53.1611574860849
20
-1.80026123467607
30
2E-16
41
1
10
53.0182273269736
20
-1.68999309264942
30
0
41
1
10
52.732005112416
20
-1.46522302232998
30
-1E-16
41
1
10
52.5887062872625
20
-1.3507363172514
30
1E-16
41
1
10
52.4447000000001
20
-1.23469730957754
30
-2E-16
0
SPLINE
5
19C
100
AcDbEntity
8
1
62
256
6
ByLayer
370
18
48
1
60
0
100
AcDbSpline
70
4
71
3
72
16
73
12
40
0
40
0
40
0
40
0
40
0.152557091728533
40
0.305501090501355
40
0.458826469286905
40
0.547130158380798
40
0.636192999447265
40
0.726013191775773
40
0.816588942948144
40
0.907918469890558
40
1
40
1
40
1
40
1
41
1
10
59.6314868161175
20
-3.26522920468551
30
0
41
1
10
59.6266904062384
20
-3.27120475808246
30
0
41
1
10
59.6170854220849
20
-3.28317101975168
30
0
41
1
10
59.6021394080057
20
-3.30077783718053
30
0
41
1
10
59.5889667136626
20
-3.31567816500413
30
0
41
1
10
59.5776971745368
20
-3.32798544736349
30
0
41
1
10
59.5684611542579
20
-3.33782326393927
30
0
41
1
10
59.5590150682222
20
-3.34763492422573
30
0
41
1
10
59.5493546492795
20
-3.3574127874582
30
0
41
1
10
59.5394902805747
20
-3.36716290448959
30
0
41
1
10
59.5327750151553
20
-3.37358673333969
30
0
41
1
10
59.5294036158249
20
-3.37681181692619
30
0
0
SPLINE
5
19D
100
AcDbEntity
8
1
62
256
6
ByLayer
370
18
48
1
60
0
100
AcDbSpline
70
4
71
3
72
22
73
18
40
0
40
0
40
0
40
0
40
0.0074294018849911
40
0.0300583543865339
40
0.0921084223812099
40
0.108826385208866
40
0.119942760843482
40
0.254741372005905
40
0.357691234311343
40
0.472909620887713
40
0.538399089385813
40
0.681841559175799
40
0.782319992439713
40
0.852130568328321
40
0.902918821227786
40
0.961375381251412
40
1
40
1
40
1
40
1
41
1
10
52.4446999999984
20
-1.80934565133793
30
-2E-16
41
1
10
52.4612704538704
20
-1.82085661964422
30
-2E-16
41
1
10
52.5282347300911
20
-1.86740165464272
30
-1E-16
41
1
10
52.7325076972139
20
-2.00960162334854
30
-2E-16
41
1
10
52.955588607518
20
-2.16464873811395
30
2E-16
41
1
10
53.1540496063361
20
-2.300149390987
30
1E-16
41
1
10
53.51384171233
20
-2.54363088466505
30
2E-16
41
1
10
54.0611931145476
20
-2.89224989277764
30
1E-16
41
1
10
54.8352922828241
20
-3.3051439210029
30
2E-16
41
1
10
55.4573956674534
20
-3.563349529178
30
-1E-16
41
1
10
56.1698226284898
20
-3.77774548789895
30
0
41
1
10
56.8522465583141
20
-3.88828120146667
30
0
41
1
10
57.5519701036123
20
-3.87848278383205
30
0
41
1
10
58.0504794408472
20
-3.81079061339128
30
0
41
1
10
58.4580453014827
20
-3.72092289621139
30
-1E-16
41
1
10
58.7993093466659
20
-3.62029039587841
30
0
41
1
10
59.0233148019034
20
-3.5402559273569
30
0
41
1
10
59.1123470049988
20
-3.50630377316307
30
0
0
SPLINE
5
19E
100
AcDbEntity
8
1
62
256
6
ByLayer
370
18
48
1
60
0
100
AcDbSpline
70
4
71
3
72
20
73
16
40
0
40
0
40
0
40
0
40
0.0782227633087265
40
0.0782227633087265
40
0.156445526617453
40
0.156445526617453
40
0.312891053234906
40
0.312891053234906
40
0.469336579852359
40
0.469336579852359
40
0.625782106469812
40
0.625782106469812
40
0.938673159704705
40
0.938673159704705
40
1
40
1
40
1
40
1
41
1
10
56.3298833833853
20
-3.92184846650281
30
0
41
1
10
56.3850455088728
20
-3.92895991838282
30
0
41
1
10
56.4402427073929
20
-3.93511262619151
30
0
41
1
10
56.5507525736436
20
-3.94548302969341
30
0
41
1
10
56.6060457958903
20
-3.9496971671808
30
0
41
1
10
56.7716709948108
20
-3.9593866587912
30
0
41
1
10
56.8819081681836
20
-3.96192725415807
30
0
41
1
10
57.1023987519875
20
-3.95912856290545
30
0
41
1
10
57.2126527389236
20
-3.95379613042303
30
0
41
1
10
57.4335720502554
20
-3.93526987426901
30
0
41
1
10
57.5443826882924
20
-3.92204524449906
30
0
41
1
10
57.8761573553124
20
-3.87078658832039
30
0
41
1
10
58.0968999019922
20
-3.82120210413404
30
0
41
1
10
58.3623595133735
20
-3.74394934215218
30
0
41
1
10
58.4059212496157
20
-3.7307065889965
30
0
41
1
10
58.4495169334925
20
-3.71690020355356
30
0
0
SPLINE
5
19F
100
AcDbEntity
8
1
62
256
6
ByLayer
370
18
48
1
60
0
100
AcDbSpline
70
4
71
3
72
10
73
6
40
0
40
0
40
0
40
0
40
0.322177834585848
40
0.817534241229664
40
1
40
1
40
1
40
1
41
1
10
59.6698296297573
20
1.45903200382941
30
1E-16
41
1
10
59.4650822531716
20
1.56079685134469
30
-1E-16
41
1
10
58.945530709919
20
1.80983723136046
30
2E-16
41
1
10
58.3100202724958
20
2.08132667088563
30
-1E-16
41
1
10
57.8792572116582
20
2.24259907550547
30
-1E-16
41
1
10
57.7632983174873
20
2.28426319621008
30
-1E-16
0
SPLINE
5
1A0
100
AcDbEntity
8
1
62
256
6
ByLayer
370
18
48
1
60
0
100
AcDbSpline
70
4
71
3
72
10
73
6
40
0
40
0
40
0
40
0
40
0.5
40
0.5
40
1
40
1
40
1
40
1
41
1
10
59.9742875952874
20
-2.51435378843365
30
0
41
1
10
59.9754207444669
20
-2.5539157174114
30
0
41
1
10
59.9739355311428
20
-2.59315727321459
30
1E-16
41
1
10
59.9660218294341
20
-2.67103554385631
30
0
41
1
10
59.9595982745621
20
-2.70967286235881
30
-1E-16
41
1
10
59.9507144152873
20
-2.74800914707629
30
0
0
SPLINE
5
1A1
100
AcDbEntity
8
1
62
256
6
ByLayer
370
18
48
1
60
0
100
AcDbSpline
70
4
71
3
72
18
73
14
40
0
40
0
40
0
40
0
40
0.0952783489150774
40
0.0952783489150774
40
0.396852232610101
40
0.396852232610101
40
0.472245703533837
40
0.472245703533837
40
0.547639174457574
40
0.547639174457574
40
0.698426116305048
40
0.698426116305048
40
1
40
1
40
1
40
1
41
1
10
59.6742010813018
20
-3.23083846684449
30
0
41
1
10
59.6867292991542
20
-3.21816740922861
30
0
41
1
10
59.6989104851343
20
-3.20520372873358
30
0
41
1
10
59.7482457572395
20
-3.15002724896999
30
1E-16
41
1
10
59.782354230032
20
-3.105259315544
30
-1E-16
41
1
10
59.8207663471936
20
-3.04575770938706
30
0
41
1
10
59.8282361440309
20
-3.03367901674198
30
0
41
1
10
59.8427446433985
20
-3.00915975681562
30
-1E-16
41
1
10
59.8497991716655
20
-2.99668917704747
30
-1E-16
41
1
10
59.8701708945599
20
-2.95897351064724
30
0
41
1
10
59.8826869552358
20
-2.93345924289838
30
0
41
1
10
59.9171333170935
20
-2.85583589556723
30
0
41
1
10
59.9359828775719
20
-2.80265609112036
30
-1E-16
41
1
10
59.9507144152873
20
-2.74800914707626
30
0
0
SPLINE
5
1A2
100
AcDbEntity
8
1
62
256
6
ByLayer
370
18
48
1
60
0
100
AcDbSpline
70
4
71
3
72
9
73
5
40
0
40
0
40
0
40
0
40
0.245616900887467
40
1
40
1
40
1
40
1
41
1
10
53.6966003953178
20
-2.92281238375264
30
0
41
1
10
53.5941044302118
20
-2.9154669693005
30
0
41
1
10
53.1768042984392
20
-2.87840271008059
30
0
41
1
10
52.7595041666666
20
-2.812275165382
30
0
41
1
10
52.4447
20
-2.74620272008656
30
0
0
SPLINE
5
1A3
100
AcDbEntity
8
1
62
256
6
ByLayer
370
18
48
1
60
0
100
AcDbSpline
70
4
71
3
72
16
73
12
40
0
40
0
40
0
40
0
40
0.38214402745999
40
0.38214402745999
40
0.691072013730005
40
0.691072013730005
40
0.768304010297499
40
0.768304010297499
40
0.845536006864993
40
0.845536006864993
40
1
40
1
40
1
40
1
41
1
10
54.9979021783292
20
3.53754188030933
30
0
41
1
10
55.1669406296888
20
3.6062027280235
30
-1E-16
41
1
10
55.3356771984776
20
3.66706446037554
30
0
41
1
10
55.6415586066067
20
3.76226887124599
30
1E-16
41
1
10
55.7785587189272
20
3.79943360661835
30
0
41
1
10
55.9505952818616
20
3.83880005662198
30
1E-16
41
1
10
55.9850419595918
20
3.84631836463552
30
1E-16
41
1
10
56.054025729834
20
3.86063454965486
30
1E-16
41
1
10
56.0885900083862
20
3.86743761883648
30
0
41
1
10
56.1922407166101
20
3.88671846591265
30
0
41
1
10
56.2611399886994
20
3.89804391225096
30
0
41
1
10
56.3298833833548
20
3.90785530230994
30
-1E-16
0
SPLINE
5
1A4
100
AcDbEntity
8
1
62
256
6
ByLayer
370
18
48
1
60
0
100
AcDbSpline
70
4
71
3
72
16
73
12
40
0
40
0
40
0
40
0
40
0.246259414116715
40
0.246259414116715
40
0.369389121175009
40
0.369389121175009
40
0.492518828233304
40
0.492518828233304
40
0.985037656466592
40
0.985037656466592
40
1
40
1
40
1
40
1
41
1
10
59.5694727083524
20
5.68E-14
30
0
41
1
10
59.554926235593
20
0.0118356886517574
30
0
41
1
10
59.5411710559309
20
0.0245340257075384
30
0
41
1
10
59.5215769005139
20
0.0447337842424247
30
0
41
1
10
59.5152189538734
20
0.0516594723111723
30
0
41
1
10
59.5028283431296
20
0.0658759198956886
30
0
41
1
10
59.496777861552
20
0.0731920196415672
30
0
41
1
10
59.4677951343854
20
0.109970546924387
30
0
41
1
10
59.4482205691965
20
0.140391746256171
30
0
41
1
10
59.4307162076624
20
0.171627715110191
30
0
41
1
10
59.4302033189529
20
0.1725470053577
30
0
41
1
10
59.4296936009001
20
0.173464649505974
30
0
0
SPLINE
5
1A5
100
AcDbEntity
8
1
62
256
6
ByLayer
370
18
48
1
60
0
100
AcDbSpline
70
4
71
3
72
22
73
18
40
0
40
0
40
0
40
0
40
0.0625
40
0.0625
40
0.125
40
0.125
40
0.25
40
0.25
40
0.375
40
0.375
40
0.5
40
0.5
40
0.75
40
0.75
40
0.875
40
0.875
40
1
40
1
40
1
40
1
41
1
10
56.3298833833549
20
3.90785530230997
30
-1E-16
41
1
10
56.3850455088431
20
3.91570595553245
30
0
41
1
10
56.4402427073638
20
3.9226013076252
30
0
41
1
10
56.5507525736156
20
3.93446291534946
30
0
41
1
10
56.606045795863
20
3.93942535316251
30
0
41
1
10
56.7716709947855
20
3.95136036883187
30
0
41
1
10
56.8819081681595
20
3.95540098113781
30
0
41
1
10
57.102398751966
20
3.9555998710868
30
0
41
1
10
57.2126527389033
20
3.95176499171922
30
0
41
1
10
57.4335720502376
20
3.93622250960794
30
0
41
1
10
57.544382688276
20
3.92448601992297
30
0
41
1
10
57.8761573552996
20
3.87763586968603
30
0
41
1
10
58.0968999019821
20
3.83092214514039
30
0
41
1
10
58.4298340247219
20
3.73818140378739
30
0
41
1
10
58.5411908551831
20
3.70345105040479
30
0
41
1
10
58.7638566398408
20
3.6269614731043
30
1E-16
41
1
10
58.8752905599805
20
3.58517430319785
30
0
41
1
10
58.9870283853957
20
3.53984103825408
30
-1E-16
0
SPLINE
5
1A6
100
AcDbEntity
8
1
62
256
6
ByLayer
370
18
48
1
60
0
100
AcDbSpline
70
4
71
3
72
8
73
4
40
0
40
0
40
0
40
0
40
1
40
1
40
1
40
1
41
1
10
59.9742875953052
20
-0.449655879419822
30
2E-16
41
1
10
59.9413514586493
20
-0.595752651845828
30
1E-16
41
1
10
59.9084153219934
20
-0.741849424271834
30
1E-16
41
1
10
59.8754791853375
20
-0.887946196697811
30
1E-16
0
SPLINE
5
1A7
100
AcDbEntity
8
1
62
256
6
ByLayer
370
18
48
1
60
0
100
AcDbSpline
70
4
71
3
72
20
73
16
40
0
40
0
40
0
40
0
40
0.320709728607634
40
0.320709728607634
40
0.363165370569655
40
0.363165370569655
40
0.405621012531676
40
0.405621012531676
40
0.490532296455718
40
0.490532296455718
40
0.660354864303812
40
0.660354864303812
40
0.830177432151906
40
0.830177432151906
40
1
40
1
40
1
40
1
41
1
10
54.9866172777971
20
-3.55981715505598
30
0
41
1
10
54.7142357670496
20
-3.61852350504222
30
0
41
1
10
54.4428903186417
20
-3.65410781073501
30
0
41
1
10
54.1331907372498
20
-3.66579242623695
30
0
41
1
10
54.0969475445123
20
-3.66671316853686
30
0
41
1
10
54.0243693517354
20
-3.66765225759943
30
0
41
1
10
53.9880355584274
20
-3.66766941988291
30
0
41
1
10
53.8793262444731
20
-3.66636201595057
30
0
41
1
10
53.8070913174011
20
-3.66368219447023
30
0
41
1
10
53.5909160052703
20
-3.65025561359238
30
0
41
1
10
53.4475037564531
20
-3.63412849838266
30
0
41
1
10
53.1611574860849
20
-3.58755190394854
30
0
41
1
10
53.0182273269735
20
-3.55710683549506
30
0
41
1
10
52.7320051124159
20
-3.48150481476622
30
0
41
1
10
52.5887062872625
20
-3.43637224966815
30
0
41
1
10
52.4447000000001
20
-3.38381516364535
30
0
0
SPLINE
5
1A8
100
AcDbEntity
8
1
62
256
6
ByLayer
370
18
48
1
60
0
100
AcDbSpline
70
4
71
3
72
10
73
6
40
0
40
0
40
0
40
0
40
0.881365551957978
40
0.881365551957978
40
1
40
1
40
1
40
1
41
1
10
59.9742875952874
20
-0.449655879423119
30
2E-16
41
1
10
59.9754207444668
20
-0.455519761646968
30
2E-16
41
1
10
59.9739355311436
20
-0.461399841636762
30
2E-16
41
1
10
59.9694460762909
20
-0.46808874622252
30
2E-16
41
1
10
59.9688687806284
20
-0.468882557198498
30
2E-16
41
1
10
59.9682468089089
20
-0.469676644550418
30
2E-16
0
SPLINE
5
1A9
100
AcDbEntity
8
1
62
256
6
ByLayer
370
18
48
1
60
0
100
AcDbSpline
70
4
71
3
72
12
73
8
40
0
40
0
40
0
40
0
40
0.249999999999173
40
0.249999999999173
40
0.625000000000082
40
0.625000000000082
40
1
40
1
40
1
40
1
41
1
10
59.9363767255693
20
-0.253472641558403
30
0
41
1
10
59.9355128787866
20
-0.25317094586913
30
0
41
1
10
59.9346490320164
20
-0.252869250144158
30
0
41
1
10
59.932489415122
20
-0.252115010742557
30
0
41
1
10
59.9311936450134
20
-0.251662467021305
30
0
41
1
10
59.9286021048522
20
-0.250757379418189
30
0
41
1
10
59.9273063347997
20
-0.250304835536355
30
0
41
1
10
59.9260105647752
20
-0.249852291574229
30
0
0
SPLINE
5
1AA
100
AcDbEntity
8
1
62
256
6
ByLayer
370
18
48
1
60
0
100
AcDbSpline
70
4
71
3
72
18
73
14
40
0
40
0
40
0
40
0
40
0.183656836126748
40
0.183656836126748
40
0.319714030105624
40
0.319714030105624
40
0.455771224084499
40
0.455771224084499
40
0.591828418063374
40
0.591828418063374
40
0.727885612042249
40
0.727885612042249
40
1
40
1
40
1
40
1
41
1
10
49.3138952076147
20
3.5997926154981
30
0
41
1
10
49.3140606323411
20
3.59970870577726
30
0
41
1
10
49.3150904086138
20
3.5996001926423
30
0
41
1
10
49.3187254984165
20
3.59937159026654
30
0
41
1
10
49.3208193389771
20
3.59926473639374
30
0
41
1
10
49.3260540498449
20
3.59904032568193
30
0
41
1
10
49.3292375701622
20
3.5989212913382
30
0
41
1
10
49.3364565772298
20
3.59868442818012
30
0
41
1
10
49.3404630022545
20
3.59856721521925
30
0
41
1
10
49.3491499256086
20
3.59833952912632
30
0
41
1
10
49.3538488050046
20
3.598228811925
30
0
41
1
10
49.3684020370952
20
3.59791926135739
30
0
41
1
10
49.3788268547298
20
3.59773948330849
30
0
41
1
10
49.3897356401405
20
3.59758566942497
30
0
0
SPLINE
5
1AB
100
AcDbEntity
8
1
62
256
6
ByLayer
370
18
48
1
60
0
100
AcDbSpline
70
4
71
3
72
26
73
22
40
0
40
0
40
0
40
0
40
0.0312500000000027
40
0.0312500000000027
40
0.0625000000000053
40
0.0625000000000053
40
0.125000000000011
40
0.125000000000011
40
0.187500000000016
40
0.187500000000016
40
0.250000000000021
40
0.250000000000021
40
0.375000000000018
40
0.375000000000018
40
0.500000000000014
40
0.500000000000014
40
0.625000000000011
40
0.625000000000011
40
0.750000000000007
40
0.750000000000007
40
1
40
1
40
1
40
1
41
1
10
49.3897356401404
20
3.59758566942497
30
0
41
1
10
49.4186163649432
20
3.59717845118084
30
0
41
1
10
49.4477550353625
20
3.59677478444016
30
0
41
1
10
49.506426635009
20
3.59600936938506
30
0
41
1
10
49.5359605252127
20
3.59564721038456
30
0
41
1
10
49.6250414186832
20
3.59464806252163
30
0
41
1
10
49.6850617539192
20
3.59410041297554
30
0
41
1
10
49.8060152652307
20
3.59328290320553
30
0
41
1
10
49.8669743007944
20
3.59301135261049
30
0
41
1
10
49.9895335084772
20
3.59272854314145
30
0
41
1
10
50.0507173057707
20
3.5927173336851
30
0
41
1
10
50.2340373310363
20
3.59300195906107
30
0
41
1
10
50.3559691818846
20
3.59361771425472
30
0
41
1
10
50.5992844499027
20
3.59523206933764
30
0
41
1
10
50.7201051925944
20
3.59622442444189
30
0
41
1
10
50.9604254723353
20
3.59806999229591
30
0
41
1
10
51.0799794650437
20
3.59892274417965
30
0
41
1
10
51.3172384814514
20
3.59997717027983
30
0
41
1
10
51.4350560188945
20
3.6001794223636
30
0
41
1
10
51.7862827626795
20
3.59908683438309
30
0
41
1
10
52.0167841489983
20
3.59607356824421
30
0
41
1
10
52.2446650903685
20
3.58908971928628
30
0
0
SPLINE
5
1AC
100
AcDbEntity
8
1
62
256
6
ByLayer
370
18
48
1
60
0
100
AcDbSpline
70
4
71
3
72
8
73
4
40
0
40
0
40
0
40
0
40
1
40
1
40
1
40
1
41
1
10
52.1945464918194
20
3.5999999712588
30
0
41
1
10
52.2087702366684
20
3.59998082826942
30
0
41
1
10
52.2255071662878
20
3.59940408030809
30
0
41
1
10
52.2446650903687
20
3.59836216910159
30
0
0
SPLINE
5
1AD
100
AcDbEntity
8
1
62
256
6
ByLayer
370
18
48
1
60
0
100
AcDbSpline
70
4
71
3
72
16
73
12
40
0
40
0
40
0
40
0
40
0.25
40
0.25
40
0.375
40
0.375
40
0.5
40
0.5
40
0.75
40
0.75
40
1
40
1
40
1
40
1
41
1
10
49.4199822069504
20
-3.59991038457829
30
0
41
1
10
49.4208121041415
20
-3.59984295270823
30
0
41
1
10
49.422974381579
20
-3.59974004485358
30
0
41
1
10
49.4284638893366
20
-3.59954683795465
30
0
41
1
10
49.430691284477
20
-3.5994754604055
30
0
41
1
10
49.435717599548
20
-3.59932888199899
30
0
41
1
10
49.4385299944485
20
-3.59925311336858
30
0
41
1
10
49.4477813654626
20
-3.59902337007415
30
0
41
1
10
49.4551051413726
20
-3.59886641813773
30
0
41
1
10
49.4706605308335
20
-3.59858054242639
30
0
41
1
10
49.4789798450512
20
-3.59844891809553
30
0
41
1
10
49.4876978446587
20
-3.59833067796521
30
0
0
SPLINE
5
1AE
100
AcDbEntity
8
1
62
256
6
ByLayer
370
18
48
1
60
0
100
AcDbSpline
70
4
71
3
72
28
73
24
40
0
40
0
40
0
40
0
40
0.0415990674725779
40
0.0415990674725779
40
0.0831981349451558
40
0.0831981349451558
40
0.166396269890312
40
0.166396269890312
40
0.249594404835467
40
0.249594404835467
40
0.291193472308045
40
0.291193472308045
40
0.332792539780623
40
0.332792539780623
40
0.499188809670935
40
0.499188809670935
40
0.665585079561247
40
0.665585079561247
40
0.831981349451558
40
0.831981349451558
40
0.99837761934187
40
0.99837761934187
40
1
40
1
40
1
40
1
41
1
10
49.4876978446586
20
-3.59833067796521
30
0
41
1
10
49.515020342874
20
-3.59796010949822
30
0
41
1
10
49.5426604880204
20
-3.59757558982884
30
0
41
1
10
49.5984221780877
20
-3.59682444607773
30
0
41
1
10
49.6265449837193
20
-3.59645731308419
30
0
41
1
10
49.7114951141702
20
-3.59541728286933
30
0
41
1
10
49.768896774724
20
-3.59480820887205
30
0
41
1
10
49.8847980343381
20
-3.59383319200774
30
0
41
1
10
49.9433032624927
20
-3.5934652342072
30
0
41
1
10
50.0317147825946
20
-3.5930978908336
30
0
41
1
10
50.0612576213904
20
-3.59300609234572
30
0
41
1
10
50.1202533285903
20
-3.59288115568489
30
0
41
1
10
50.1497406348969
20
-3.59284785110037
30
0
41
1
10
50.2971296604372
20
-3.59281550420187
30
0
41
1
10
50.4149198649457
20
-3.59322313961292
30
0
41
1
10
50.6501660964978
20
-3.59452211170958
30
0
41
1
10
50.7670749167506
20
-3.59540748444098
30
0
41
1
10
50.9997675747469
20
-3.59720336580944
30
0
41
1
10
51.1155778868057
20
-3.59811323488879
30
0
41
1
10
51.3454031707374
20
-3.5994946012089
30
0
41
1
10
51.4595359163828
20
-3.59996683905766
30
0
41
1
10
51.5741129786483
20
-3.5999986282404
30
0
41
1
10
51.5752192590951
20
-3.5999988931913
30
0
41
1
10
51.5763254688714
20
-3.59999911594537
30
0
0
SPLINE
5
1AF
100
AcDbEntity
8
1
62
256
6
ByLayer
370
18
48
1
60
0
100
AcDbSpline
70
4
71
3
72
12
73
8
40
0
40
0
40
0
40
0
40
0.293480268503583
40
0.293480268503583
40
0.586960537007167
40
0.586960537007167
40
1
40
1
40
1
40
1
41
1
10
52.1426854079209
20
-3.58988608998158
30
0
41
1
10
52.1459460048807
20
-3.59196345254841
30
0
41
1
10
52.1505153976549
20
-3.59370121197838
30
0
41
1
10
52.1623389330215
20
-3.59653334252405
30
0
41
1
10
52.1696256999139
20
-3.59762964211785
30
0
41
1
10
52.1902630852275
20
-3.59952064499859
30
0
41
1
10
52.2048520441349
20
-3.60001839754869
30
0
41
1
10
52.2218743917689
20
-3.60000002088239
30
0
0
SPLINE
5
1B0
100
AcDbEntity
8
1
62
256
6
ByLayer
370
18
48
1
60
0
100
AcDbSpline
70
4
71
3
72
10
73
6
40
0
40
0
40
0
40
0
40
0.278200887429713
40
0.646855547541611
40
1
40
1
40
1
40
1
41
1
10
58.5842959843482
20
3.69233752447681
30
0
41
1
10
58.6710448208991
20
3.66881899790528
30
0
41
1
10
58.8733603114904
20
3.60887179972067
30
0
41
1
10
59.1860703618145
20
3.49838919903755
30
0
41
1
10
59.4110479021727
20
3.40514330743974
30
0
41
1
10
59.5210639924581
20
3.356299063943
30
-1E-16
0
SPLINE
5
1B1
100
AcDbEntity
8
1
62
256
6
ByLayer
370
18
48
1
60
0
100
AcDbSpline
70
4
71
3
72
10
73
6
40
0
40
0
40
0
40
0
40
0.57124167290672
40
0.57124167290672
40
1
40
1
40
1
40
1
41
1
10
59.5878358152775
20
3.32942950619361
30
0
41
1
10
59.5803339405609
20
3.33799776386519
30
0
41
1
10
59.5711391109098
20
3.347466734085
30
0
41
1
10
59.5537603663403
20
3.36459334209772
30
0
41
1
10
59.5458661447209
20
3.3721312108523
30
0
41
1
10
59.5376763371777
20
3.3797688864959
30
0
0
SPLINE
5
1B2
100
AcDbEntity
8
1
62
256
6
ByLayer
370
18
48
1
60
0
100
AcDbSpline
70
4
71
3
72
8
73
4
40
0
40
0
40
0
40
0
40
1
40
1
40
1
40
1
41
1
10
59.5293714905255
20
3.38742728620616
30
-1E-16
41
1
10
59.5272870364792
20
3.3886009004641
30
1E-16
41
1
10
59.5252107596051
20
3.38976649615293
30
1E-16
41
1
10
59.5231425226163
20
3.39092421975931
30
0
0
SPLINE
5
1B3
100
AcDbEntity
8
1
62
256
6
ByLayer
370
18
48
1
60
0
100
AcDbSpline
70
4
71
3
72
8
73
4
40
0
40
0
40
0
40
0
40
1
40
1
40
1
40
1
41
1
10
59.5231425226166
20
3.39092421975923
30
0
41
1
10
59.4157992080309
20
3.42507359552889
30
0
41
1
10
59.30907939748
20
3.45661165986502
30
0
41
1
10
59.2028293177109
20
3.48544166150353
30
0
0
SPLINE
5
1B4
100
AcDbEntity
8
1
62
256
6
ByLayer
370
18
48
1
60
0
100
AcDbSpline
70
4
71
3
72
13
73
9
40
0
40
0
40
0
40
0
40
0.0373497684824893
40
0.151112107634086
40
0.463055883162747
40
0.5471019545394
40
0.602987214583832
40
1
40
1
40
1
40
1
41
1
10
52.4446999999984
20
-3.5446426781362
30
0
41
1
10
52.4612704538704
20
-3.54848043434689
30
0
41
1
10
52.5282347300911
20
-3.56366489857677
30
0
41
1
10
52.7325076972139
20
-3.60592651361026
30
0
41
1
10
52.955588607518
20
-3.63928728719267
30
0
41
1
10
53.1540496063361
20
-3.65777090233996
30
0
41
1
10
53.3903356755463
20
-3.67506529753092
30
0
41
1
10
53.5889190011651
20
-3.67665089555746
30
0
41
1
10
53.762673411913
20
-3.66821631905654
30
0
0
SPLINE
5
1B5
100
AcDbEntity
8
1
62
256
6
ByLayer
370
18
48
1
60
0
100
AcDbSpline
70
4
71
3
72
11
73
7
40
0
40
0
40
0
40
0
40
0.0868476052031052
40
0.306031188476466
40
0.90704691134307
40
1
40
1
40
1
40
1
41
1
10
52.4446999999981
20
-3.587652616204
30
0
41
1
10
52.4643728723476
20
-3.59102139220187
30
0
41
1
10
52.533619270923
20
-3.60246067214175
30
0
41
1
10
52.7380880593363
20
-3.63183275368345
30
0
41
1
10
52.9430534469334
20
-3.64925017785396
30
0
41
1
10
53.1000703481051
20
-3.65448299983069
30
0
41
1
10
53.1211267870016
20
-3.65504020129583
30
0
0
SPLINE
5
1B6
100
AcDbEntity
8
1
62
256
6
ByLayer
370
18
48
1
60
0
100
AcDbSpline
70
4
71
2
72
6
73
3
40
0
40
0
40
0
40
1
40
1
40
1
41
1
10
59.6458207305851
20
3.27875584037466
30
1E-16
41
1
10
59.5909936861083
20
3.329967140619
30
0
41
1
10
59.5369451157982
20
3.38045154646008
30
0
0
SPLINE
5
1B7
100
AcDbEntity
8
1
62
256
6
ByLayer
370
18
48
1
60
0
100
AcDbSpline
70
4
71
1
72
4
73
2
40
0
40
0
40
1
40
1
41
1
10
59.5329870654431
20
-3.0238448981645
30
0
41
1
10
59.7331508552704
20
-3.01094138240339
30
0
0
SPLINE
5
1B8
100
AcDbEntity
8
1
62
256
6
ByLayer
370
18
48
1
60
0
100
AcDbSpline
70
4
71
2
72
6
73
3
40
0
40
0
40
0
40
1
40
1
40
1
41
1
10
57.6466436181026
20
2.35901510742752
30
0
41
1
10
57.6065490392731
20
2.3679424597745
30
0
41
1
10
57.5658181955697
20
2.37753691203528
30
0
0
SPLINE
5
1B9
100
AcDbEntity
8
1
62
256
6
ByLayer
370
18
48
1
60
0
100
AcDbSpline
70
4
71
1
72
4
73
2
40
0
40
0
40
1
40
1
41
1
10
59.4924985807126
20
-3.02645497964485
30
0
41
1
10
59.5329870654431
20
-3.0238448981645
30
0
0
SPLINE
5
1BA
100
AcDbEntity
8
1
62
256
6
ByLayer
370
18
48
1
60
0
100
AcDbSpline
70
4
71
1
72
4
73
2
40
0
40
0
40
1
40
1
41
1
10
52.6581218193845
20
2.24283989563455
30
1E-16
41
1
10
52.4447
20
2.30395183157913
30
-1E-16
0
SPLINE
5
1BB
100
AcDbEntity
8
1
62
256
6
ByLayer
370
18
48
1
60
0
100
AcDbSpline
70
4
71
2
72
6
73
3
40
0
40
0
40
0
40
1
40
1
40
1
41
1
10
59.9715152476116
20
0.406664030538991
30
-1E-16
41
1
10
59.9055392458361
20
0.700980050921032
30
1E-16
41
1
10
59.8395632440606
20
0.995296071303073
30
-1E-16
0
SPLINE
5
1BC
100
AcDbEntity
8
1
62
256
6
ByLayer
370
18
48
1
60
0
100
AcDbSpline
70
4
71
2
72
6
73
3
40
0
40
0
40
0
40
1
40
1
40
1
41
1
10
53.733774319012
20
3.65288783383656
30
0
41
1
10
53.7451960188461
20
3.65214953586997
30
0
41
1
10
53.7566193618873
20
3.65286174971627
30
0
0
SPLINE
5
1BD
100
AcDbEntity
8
1
62
256
6
ByLayer
370
18
48
1
60
0
100
AcDbSpline
70
4
71
2
72
6
73
3
40
0
40
0
40
0
40
1
40
1
40
1
41
1
10
59.6793912627564
20
-3.22556929548532
30
0
41
1
10
59.6165724092583
20
-3.2892606249026
30
0
41
1
10
59.5546065695539
20
-3.35208737619263
30
0
0
SPLINE
5
1BE
100
AcDbEntity
8
1
62
256
6
ByLayer
370
18
48
1
60
0
100
AcDbSpline
70
4
71
2
72
6
73
3
40
0
40
0
40
0
40
1
40
1
40
1
41
1
10
53.8452003432787
20
-3.6647584587179
30
0
41
1
10
53.833868985715
20
-3.66412190537801
30
0
41
1
10
53.8225330777163
20
-3.66492135296019
30
0
0
LINE
5
7D
100
AcDbEntity
8
81
62
256
6
ByLayer
370
18
48
1
60
0
100
AcDbLine
10
50.80496
20
0
30
0
11
51.707702
21
0
31
0
39
0
210
0
220
0
230
1
0
LINE
5
7E
100
AcDbEntity
8
81
62
256
6
ByLayer
370
18
48
1
60
0
100
AcDbLine
10
-40
20
-7.792298
30
0
11
-40
21
-8.292298
31
0
39
0
210
0
220
0
230
1
0
LINE
5
7F
100
AcDbEntity
8
81
62
256
6
ByLayer
370
18
48
1
60
0
100
AcDbLine
10
-40
20
-7.618315
30
0
11
-40
21
-7.792298
31
0
39
0
210
0
220
0
230
1
0
LINE
5
80
100
AcDbEntity
8
81
62
256
6
ByLayer
370
18
48
1
60
0
100
AcDbLine
10
51.707702
20
0
30
0
11
52.207702
21
0
31
0
39
0
210
0
220
0
230
1
0
LINE
5
81
100
AcDbEntity
8
81
62
256
6
ByLayer
370
18
48
1
60
0
100
AcDbLine
10
52.207702
20
0
30
0
11
52.381685
21
0
31
0
39
0
210
0
220
0
230
1
0
LINE
5
82
100
AcDbEntity
8
81
62
256
6
ByLayer
370
18
48
1
60
0
100
AcDbLine
10
-40
20
-4.000022
30
0
11
-40
21
-0.799999
31
0
39
0
210
0
220
0
230
1
0
LINE
5
83
100
AcDbEntity
8
81
62
256
6
ByLayer
370
18
48
1
60
0
100
AcDbLine
10
-40
20
3.66073
30
0
11
-40
21
3.984
31
0
39
0
210
0
220
0
230
1
0
LINE
5
84
100
AcDbEntity
8
81
62
256
6
ByLayer
370
18
48
1
60
0
100
AcDbLine
10
-40
20
-0.000343
30
0
11
-40
21
-0.06986
31
0
39
0
210
0
220
0
230
1
0
LINE
5
85
100
AcDbEntity
8
81
62
256
6
ByLayer
370
18
48
1
60
0
100
AcDbLine
10
-40
20
-8.292298
30
0
11
-40
21
-9.19504
31
0
39
0
210
0
220
0
230
1
0
LINE
5
86
100
AcDbEntity
8
81
62
256
6
ByLayer
370
18
48
1
60
0
100
AcDbLine
10
52.381685
20
0
30
0
11
52.406258
21
0
31
0
39
0
210
0
220
0
230
1
0
LINE
5
87
100
AcDbEntity
8
81
62
256
6
ByLayer
370
18
48
1
60
0
100
AcDbLine
10
60
20
0
30
0
11
59.200001
21
0
31
0
39
0
210
0
220
0
230
1
0
LINE
5
88
100
AcDbEntity
8
81
62
256
6
ByLayer
370
18
48
1
60
0
100
AcDbLine
10
-40
20
3.559329
30
0
11
-40
21
3.50806
31
0
39
0
210
0
220
0
230
1
0
LINE
5
89
100
AcDbEntity
8
81
62
256
6
ByLayer
370
18
48
1
60
0
100
AcDbLine
10
-40
20
3.575189
30
0
11
-40
21
3.559329
31
0
39
0
210
0
220
0
230
1
0
LINE
5
8A
100
AcDbEntity
8
81
62
256
6
ByLayer
370
18
48
1
60
0
100
AcDbLine
10
59.999657
20
0
30
0
11
59.93014
21
0
31
0
39
0
210
0
220
0
230
1
0
LINE
5
8B
100
AcDbEntity
8
81
62
256
6
ByLayer
370
18
48
1
60
0
100
AcDbLine
10
55.999978
20
0
30
0
11
52.406258
21
0
31
0
39
0
210
0
220
0
230
1
0
LINE
5
8C
100
AcDbEntity
8
81
62
256
6
ByLayer
370
18
48
1
60
0
100
AcDbLine
10
-40
20
3.984
30
0
11
-40
21
3.575189
31
0
39
0
210
0
220
0
230
1
0
LINE
5
8D
100
AcDbEntity
8
81
62
256
6
ByLayer
370
13
48
1
60
0
100
AcDbLine
10
60
20
0
30
0
11
59.200001
21
0
31
0
39
0
210
0
220
0
230
1
0
LINE
5
8E
100
AcDbEntity
8
81
62
256
6
ByLayer
370
18
48
1
60
0
100
AcDbLine
10
-40
20
-7.593742
30
0
11
-40
21
-7.618315
31
0
39
0
210
0
220
0
230
1
0
LINE
5
8F
100
AcDbEntity
8
81
62
256
6
ByLayer
370
18
48
1
60
0
100
AcDbLine
10
-40
20
3.50806
30
0
11
-40
21
3.6
31
0
39
0
210
0
220
0
230
1
0
LINE
5
90
100
AcDbEntity
8
81
62
256
6
ByLayer
370
18
48
1
60
0
100
AcDbLine
10
-40
20
-4.000022
30
0
11
-40
21
-7.593742
31
0
39
0
210
0
220
0
230
1
0
LINE
5
91
100
AcDbEntity
8
81
62
256
6
ByLayer
370
18
48
1
60
0
100
AcDbLine
10
-40
20
-0.799999
30
0
11
-40
21
0
31
0
39
0
210
0
220
0
230
1
0
LINE
5
92
100
AcDbEntity
8
81
62
256
6
ByLayer
370
18
48
1
60
0
100
AcDbLine
10
59.200001
20
0
30
0
11
55.999978
21
0
31
0
39
0
210
0
220
0
230
1
0
LINE
5
93
100
AcDbEntity
8
81
62
256
6
ByLayer
370
18
48
1
60
0
100
AcDbLine
10
-40
20
2.680934
30
0
11
-40
21
0
31
0
39
0
210
0
220
0
230
1
0
LINE
5
94
100
AcDbEntity
8
81
62
256
6
ByLayer
370
18
48
1
60
0
100
AcDbLine
10
-40
20
3.66073
30
0
11
-40
21
2.680934
31
0
39
0
210
0
220
0
230
1
0
LINE
5
95
100
AcDbEntity
8
80
62
256
6
ByLayer
370
18
48
1
60
0
100
AcDbLine
10
0
20
0
30
0
11
-3
21
0
31
0
39
0
210
0
220
0
230
1
0
LINE
5
96
100
AcDbEntity
8
81
62
256
6
ByLayer
370
18
48
1
60
0
100
AcDbLine
10
60
20
0
30
0
11
63
21
0
31
0
39
0
210
0
220
0
230
1
0
LINE
5
97
100
AcDbEntity
8
SK4
62
256
6
ByLayer
370
18
48
0.05
60
0
100
AcDbLine
10
-43
20
0
30
0
11
63
21
0
31
0
39
0
210
0
220
0
230
1
0
LINE
5
99
100
AcDbEntity
8
4
62
256
6
ByLayer
370
18
48
0.05
60
0
100
AcDbLine
10
0
20
0
30
0
11
63
21
0
31
0
39
0
210
0
220
0
230
1
0
LINE
5
9B
100
AcDbEntity
8
1
62
256
6
ByLayer
370
18
48
1
60
0
100
AcDbLine
10
0
20
-4.99922
30
0
11
0
21
4.99922
31
0
39
0
210
0
220
0
230
1
0
LINE
5
9C
100
AcDbEntity
8
1
62
256
6
ByLayer
370
18
48
1
60
0
100
AcDbLine
10
59.829732
20
-0.857262
30
0
11
59.906035
21
-0.421104
31
0
39
0
210
0
220
0
230
1
0
LINE
5
9D
100
AcDbEntity
8
1
62
256
6
ByLayer
370
18
48
1
60
0
100
AcDbLine
10
59.852621
20
-2.63771
30
0
11
59.84713
21
-2.444878
31
0
39
0
210
0
220
0
230
1
0
LINE
5
9E
100
AcDbEntity
8
1
62
256
6
ByLayer
370
18
48
1
60
0
100
AcDbLine
10
59.808658
20
1.082698
30
0
11
59.926011
21
1.171702
31
0
39
0
210
0
220
0
230
1
0
LINE
5
9F
100
AcDbEntity
8
1
62
256
6
ByLayer
370
18
48
1
60
0
100
AcDbLine
10
49.416363
20
3.555157
30
0
11
52.4447
21
2.296435
31
0
39
0
210
0
220
0
230
1
0
LINE
5
A0
100
AcDbEntity
8
1
62
256
6
ByLayer
370
18
48
1
60
0
100
AcDbLine
10
52.4447
20
-3.09321
30
0
11
52.4447
21
-3.383815
31
0
39
0
210
0
220
0
230
1
0
LINE
5
A1
100
AcDbEntity
8
1
62
256
6
ByLayer
370
18
48
1
60
0
100
AcDbLine
10
59.852621
20
-1.655486
30
0
11
59.828602
21
-0.931413
31
0
39
0
210
0
220
0
230
1
0
LINE
5
A2
100
AcDbEntity
8
1
62
256
6
ByLayer
370
18
48
1
60
0
100
AcDbLine
10
59.548368
20
-0.85134
30
0
11
59.828602
21
-0.931413
31
0
39
0
210
0
220
0
230
1
0
LINE
5
A3
100
AcDbEntity
8
1
62
256
6
ByLayer
370
18
48
1
60
0
100
AcDbLine
10
59.828602
20
-0.931413
30
0
11
59.906035
21
-0.92927
31
0
39
0
210
0
220
0
230
1
0
LINE
5
A4
100
AcDbEntity
8
1
62
256
6
ByLayer
370
18
48
1
60
0
100
AcDbLine
10
52.4447
20
2.327796
30
0
11
52.4447
21
2.303952
31
0
39
0
210
0
220
0
230
1
0
LINE
5
A5
100
AcDbEntity
8
1
62
256
6
ByLayer
370
18
48
1
60
0
100
AcDbLine
10
52.4447
20
-3.09321
30
0
11
52.4447
21
-2.926018
31
0
39
0
210
0
220
0
230
1
0
LINE
5
A6
100
AcDbEntity
8
1
62
256
6
ByLayer
370
18
48
1
60
0
100
AcDbLine
10
52.4447
20
-2.926018
30
0
11
52.4447
21
-2.746203
31
0
39
0
210
0
220
0
230
1
0
LINE
5
A7
100
AcDbEntity
8
1
62
256
6
ByLayer
370
18
48
1
60
0
100
AcDbLine
10
52.4447
20
2.303952
30
0
11
52.4447
21
2.296435
31
0
39
0
210
0
220
0
230
1
0
LINE
5
A8
100
AcDbEntity
8
1
62
256
6
ByLayer
370
18
48
1
60
0
100
AcDbLine
10
52.4447
20
2.162934
30
0
11
52.4447
21
2.296435
31
0
39
0
210
0
220
0
230
1
0
LINE
5
A9
100
AcDbEntity
8
1
62
256
6
ByLayer
370
18
48
1
60
0
100
AcDbLine
10
52.4447
20
0.095356
30
0
11
52.4447
21
0.206155
31
0
39
0
210
0
220
0
230
1
0
LINE
5
AA
100
AcDbEntity
8
1
62
256
6
ByLayer
370
18
48
1
60
0
100
AcDbLine
10
49.416363
20
-2.268131
30
0
11
52.4447
21
-2.746203
31
0
39
0
210
0
220
0
230
1
0
LINE
5
AB
100
AcDbEntity
8
1
62
256
6
ByLayer
370
18
48
1
60
0
100
AcDbLine
10
52.4447
20
-2.746203
30
0
11
52.4447
21
-2.270505
31
0
39
0
210
0
220
0
230
1
0
LINE
5
AC
100
AcDbEntity
8
1
62
256
6
ByLayer
370
18
48
1
60
0
100
AcDbLine
10
52.4447
20
-2.270505
30
0
11
52.4447
21
-2.166906
31
0
39
0
210
0
220
0
230
1
0
LINE
5
AD
100
AcDbEntity
8
1
62
256
6
ByLayer
370
18
48
1
60
0
100
AcDbLine
10
52.4447
20
-2.091284
30
0
11
52.4447
21
-2.166906
31
0
39
0
210
0
220
0
230
1
0
LINE
5
AE
100
AcDbEntity
8
1
62
256
6
ByLayer
370
18
48
1
60
0
100
AcDbLine
10
52.4447
20
-0.472952
30
0
11
52.4447
21
0.095356
31
0
39
0
210
0
220
0
230
1
0
LINE
5
AF
100
AcDbEntity
8
1
62
256
6
ByLayer
370
18
48
1
60
0
100
AcDbLine
10
52.4447
20
-0.814245
30
0
11
52.4447
21
-0.472952
31
0
39
0
210
0
220
0
230
1
0
LINE
5
B0
100
AcDbEntity
8
1
62
256
6
ByLayer
370
18
48
1
60
0
100
AcDbLine
10
49.418786
20
1.254327
30
0
11
52.4447
21
-0.472952
31
0
39
0
210
0
220
0
230
1
0
LINE
5
B1
100
AcDbEntity
8
1
62
256
6
ByLayer
370
18
48
1
60
0
100
AcDbLine
10
52.4447
20
-1.025074
30
0
11
52.4447
21
-0.814245
31
0
39
0
210
0
220
0
230
1
0
LINE
5
B2
100
AcDbEntity
8
1
62
256
6
ByLayer
370
18
48
1
60
0
100
AcDbLine
10
52.4447
20
-1.025074
30
0
11
52.4447
21
-1.234697
31
0
39
0
210
0
220
0
230
1
0
LINE
5
B3
100
AcDbEntity
8
1
62
256
6
ByLayer
370
18
48
1
60
0
100
AcDbLine
10
52.4447
20
2.327796
30
0
11
52.4447
21
3.58188
31
0
39
0
210
0
220
0
230
1
0
LINE
5
B4
100
AcDbEntity
8
1
62
256
6
ByLayer
370
18
48
1
60
0
100
AcDbLine
10
52.4447
20
0.206155
30
0
11
52.4447
21
1.535604
31
0
39
0
210
0
220
0
230
1
0
LINE
5
B5
100
AcDbEntity
8
1
62
256
6
ByLayer
370
18
48
1
60
0
100
AcDbLine
10
59.934719
20
0.224357
30
0
11
59.974288
21
0.403109
31
0
39
0
210
0
220
0
230
1
0
LINE
5
B6
100
AcDbEntity
8
1
62
256
6
ByLayer
370
18
48
1
60
0
100
AcDbLine
10
59.52639
20
0.195686
30
0
11
59.934719
21
0.224357
31
0
39
0
210
0
220
0
230
1
0
LINE
5
B7
100
AcDbEntity
8
1
62
256
6
ByLayer
370
18
48
1
60
0
100
AcDbLine
10
59.926011
20
-0.921849
30
0
11
59.517585
21
-0.647884
31
0
39
0
210
0
220
0
230
1
0
LINE
5
B8
100
AcDbEntity
8
1
62
256
6
ByLayer
370
18
48
1
60
0
100
AcDbLine
10
59.936377
20
-0.944434
30
0
11
59.974288
21
-2.081526
31
0
39
0
210
0
220
0
230
1
0
LINE
5
B9
100
AcDbEntity
8
1
62
256
6
ByLayer
370
18
48
1
60
0
100
AcDbLine
10
59.936377
20
1.197907
30
0
11
59.974288
21
2.531182
31
0
39
0
210
0
220
0
230
1
0
LINE
5
BA
100
AcDbEntity
8
1
62
256
6
ByLayer
370
18
48
1
60
0
100
AcDbLine
10
59.964314
20
-2.166134
30
0
11
59.974288
21
-2.514354
31
0
39
0
210
0
220
0
230
1
0
LINE
5
BB
100
AcDbEntity
8
1
62
256
6
ByLayer
370
18
48
1
60
0
100
AcDbLine
10
59.934719
20
0.908514
30
0
11
59.974288
21
2.111245
31
0
39
0
210
0
220
0
230
1
0
LINE
5
BC
100
AcDbEntity
8
1
62
256
6
ByLayer
370
18
48
1
60
0
100
AcDbLine
10
59.870477
20
0.866176
30
0
11
59.934719
21
0.908514
31
0
39
0
210
0
220
0
230
1
0
LINE
5
BD
100
AcDbEntity
8
1
62
256
6
ByLayer
370
18
48
1
60
0
100
AcDbLine
10
59.517585
20
-0.214056
30
0
11
59.926011
21
-0.249852
31
0
39
0
210
0
220
0
230
1
0
LINE
5
BE
100
AcDbEntity
8
1
62
256
6
ByLayer
370
18
48
1
60
0
100
AcDbLine
10
59.936377
20
-0.253473
30
0
11
59.974288
21
-0.449656
31
0
39
0
210
0
220
0
230
1
0
LINE
5
BF
100
AcDbEntity
8
SK1
62
256
6
ByLayer
370
18
48
1
60
0
100
AcDbLine
10
0
20
-4.99922
30
0
11
0
21
4.99922
31
0
39
0
210
0
220
0
230
1
0
LINE
5
C1
100
AcDbEntity
8
SK1
62
256
6
ByLayer
370
18
48
1
60
0
100
AcDbLine
10
-40
20
4.4
30
0
11
-40
21
-4.4
31
0
39
0
210
0
220
0
230
1
0
LINE
5
C2
100
AcDbEntity
8
SK1
62
256
6
ByLayer
370
18
48
1
60
0
100
AcDbLine
10
-39.4
20
5
30
0
11
-39.4
21
-5
31
0
39
0
210
0
220
0
230
1
0
LINE
5
C3
100
AcDbEntity
8
SK1
62
256
6
ByLayer
370
18
48
1
60
0
100
AcDbLine
10
-0.020063
20
-5
30
0
11
-0.020063
21
5
31
0
39
0
210
0
220
0
230
1
0
LINE
5
C4
100
AcDbEntity
8
1
62
256
6
ByLayer
370
18
48
1
60
0
100
AcDbLine
10
51.575614
20
-3.6
30
0
11
52.225648
21
-3.6
31
0
39
0
210
0
220
0
230
1
0
LINE
5
C5
100
AcDbEntity
8
1
62
256
6
ByLayer
370
18
48
1
60
0
100
AcDbLine
10
35.960514
20
3.600755
30
0
11
0
21
4.99922
31
0
39
0
210
0
220
0
230
1
0
LINE
5
C6
100
AcDbEntity
8
1
62
256
6
ByLayer
370
18
48
1
60
0
100
AcDbLine
10
0
20
-4.99922
30
0
11
35.960514
21
-3.600755
31
0
39
0
210
0
220
0
230
1
0
LINE
5
C7
100
AcDbEntity
8
1
62
256
6
ByLayer
370
18
48
1
60
0
100
AcDbLine
10
52.446915
20
2.303031
30
0
11
49.363059
21
3.58483
31
0
39
0
210
0
220
0
230
1
0
LINE
5
C8
100
AcDbEntity
8
1
62
256
6
ByLayer
370
18
48
1
60
0
100
AcDbLine
10
52.199534
20
3.6
30
0
11
51.417114
21
3.6
31
0
39
0
210
0
220
0
230
1
0
LINE
5
C9
100
AcDbEntity
8
1
62
256
6
ByLayer
370
18
48
1
60
0
100
AcDbLine
10
49.318903
20
3.6
30
0
11
35.999374
21
3.6
31
0
39
0
210
0
220
0
230
1
0
LINE
5
CA
100
AcDbEntity
8
1
62
256
6
ByLayer
370
18
48
1
60
0
100
AcDbLine
10
35.999374
20
-3.6
30
0
11
49.419934
21
-3.6
31
0
39
0
210
0
220
0
230
1
0
LINE
5
CB
100
AcDbEntity
8
SK1
62
256
6
ByLayer
370
18
48
1
60
0
100
AcDbLine
10
0
20
4.99922
30
0
11
-0.020063
21
5
31
0
39
0
210
0
220
0
230
1
0
LINE
5
CC
100
AcDbEntity
8
SK1
62
256
6
ByLayer
370
18
48
1
60
0
100
AcDbLine
10
-0.020063
20
-5
30
0
11
0
21
-4.99922
31
0
39
0
210
0
220
0
230
1
0
LINE
5
CD
100
AcDbEntity
8
SK1
62
256
6
ByLayer
370
18
48
1
60
0
100
AcDbLine
10
-40
20
-4.4
30
0
11
-39.4
21
-5
31
0
39
0
210
0
220
0
230
1
0
LINE
5
CE
100
AcDbEntity
8
SK1
62
256
6
ByLayer
370
18
48
1
60
0
100
AcDbLine
10
-39.4
20
5
30
0
11
-40
21
4.4
31
0
39
0
210
0
220
0
230
1
0
LINE
5
CF
100
AcDbEntity
8
SK1
62
256
6
ByLayer
370
18
48
1
60
0
100
AcDbLine
10
-0.020063
20
5
30
0
11
-39.4
21
5
31
0
39
0
210
0
220
0
230
1
0
LINE
5
D0
100
AcDbEntity
8
SK1
62
256
6
ByLayer
370
18
48
1
60
0
100
AcDbLine
10
-39.4
20
-5
30
0
11
-0.020063
21
-5
31
0
39
0
210
0
220
0
230
1
0
LINE
5
D1
100
AcDbEntity
8
SK2
62
256
6
ByLayer
370
13
48
1
60
0
100
AcDbLine
10
-46.5
20
-5
30
0
11
-46.5
21
25.625256
31
0
39
0
210
0
220
0
230
1
0
LINE
5
D3
100
AcDbEntity
8
SK2
62
256
6
ByLayer
370
13
48
1
60
0
100
AcDbLine
10
-41.5875
20
-5
30
0
11
-48.5
21
-5
31
0
39
0
210
0
220
0
230
1
0
LINE
5
D4
100
AcDbEntity
8
SK2
62
256
6
ByLayer
370
13
48
1
60
0
100
AcDbLine
10
-41.5875
20
5
30
0
11
-48.5
21
5
31
0
39
0
210
0
220
0
230
1
0
LINE
5
D5
100
AcDbEntity
8
1
62
256
6
ByLayer
370
18
48
1
60
1
100
AcDbLine
10
-46.5
20
-5
30
0
11
-46.960784
21
-1.500002
31
0
39
0
210
0
220
0
230
1
0
LINE
5
D6
100
AcDbEntity
8
1
62
256
6
ByLayer
370
18
48
1
60
1
100
AcDbLine
10
-46.960784
20
-1.500002
30
0
11
-46.039216
21
-1.499998
31
0
39
0
210
0
220
0
230
1
0
LINE
5
D7
100
AcDbEntity
8
1
62
256
6
ByLayer
370
18
48
1
60
1
100
AcDbLine
10
-46.039216
20
-1.499998
30
0
11
-46.5
21
-5
31
0
39
0
210
0
220
0
230
1
0
LINE
5
D8
100
AcDbEntity
8
1
62
256
6
ByLayer
370
18
48
1
60
1
100
AcDbLine
10
-46.5
20
5
30
0
11
-46.039216
21
1.500002
31
0
39
0
210
0
220
0
230
1
0
LINE
5
D9
100
AcDbEntity
8
1
62
256
6
ByLayer
370
18
48
1
60
1
100
AcDbLine
10
-46.039216
20
1.500002
30
0
11
-46.960784
21
1.499998
31
0
39
0
210
0
220
0
230
1
0
LINE
5
DA
100
AcDbEntity
8
1
62
256
6
ByLayer
370
18
48
1
60
1
100
AcDbLine
10
-46.960784
20
1.499998
30
0
11
-46.5
21
5
31
0
39
0
210
0
220
0
230
1
0
LINE
5
DB
100
AcDbEntity
8
SK2
62
256
6
ByLayer
370
13
48
1
60
0
100
AcDbLine
10
40.5
20
3.6
30
0
11
40.5
21
-33.6
31
0
39
0
210
0
220
0
230
1
0
LINE
5
DC
100
AcDbEntity
8
SK2
62
256
6
ByLayer
370
13
48
1
60
0
100
AcDbLine
10
37.5875
20
-3.6
30
0
11
42.5
21
-3.6
31
0
39
0
210
0
220
0
230
1
0
LINE
5
DD
100
AcDbEntity
8
SK2
62
256
6
ByLayer
370
13
48
1
60
0
100
AcDbLine
10
37.5875
20
3.6
30
0
11
42.5
21
3.6
31
0
39
0
210
0
220
0
230
1
0
LINE
5
DE
100
AcDbEntity
8
1
62
256
6
ByLayer
370
18
48
1
60
1
100
AcDbLine
10
40.5
20
-3.6
30
0
11
40.039216
21
-0.100002
31
0
39
0
210
0
220
0
230
1
0
LINE
5
DF
100
AcDbEntity
8
1
62
256
6
ByLayer
370
18
48
1
60
1
100
AcDbLine
10
40.039216
20
-0.100002
30
0
11
40.960784
21
-0.099998
31
0
39
0
210
0
220
0
230
1
0
LINE
5
E0
100
AcDbEntity
8
1
62
256
6
ByLayer
370
18
48
1
60
1
100
AcDbLine
10
40.960784
20
-0.099998
30
0
11
40.5
21
-3.6
31
0
39
0
210
0
220
0
230
1
0
LINE
5
E1
100
AcDbEntity
8
1
62
256
6
ByLayer
370
18
48
1
60
1
100
AcDbLine
10
40.5
20
3.6
30
0
11
40.960784
21
0.100002
31
0
39
0
210
0
220
0
230
1
0
LINE
5
E2
100
AcDbEntity
8
1
62
256
6
ByLayer
370
18
48
1
60
1
100
AcDbLine
10
40.960784
20
0.100002
30
0
11
40.039216
21
0.099998
31
0
39
0
210
0
220
0
230
1
0
LINE
5
E3
100
AcDbEntity
8
1
62
256
6
ByLayer
370
18
48
1
60
1
100
AcDbLine
10
40.039216
20
0.099998
30
0
11
40.5
21
3.6
31
0
39
0
210
0
220
0
230
1
0
LINE
5
E4
100
AcDbEntity
8
2
62
256
6
ByLayer
370
13
48
1
60
0
100
AcDbLine
10
96.5
20
-4
30
0
11
96.5
21
32.625256
31
0
39
0
210
0
220
0
230
1
0
LINE
5
E6
100
AcDbEntity
8
2
62
256
6
ByLayer
370
13
48
1
60
0
100
AcDbLine
10
61.5875
20
-4
30
0
11
98.5
21
-4
31
0
39
0
210
0
220
0
230
1
0
LINE
5
E7
100
AcDbEntity
8
2
62
256
6
ByLayer
370
13
48
1
60
0
100
AcDbLine
10
61.5875
20
3.491928
30
0
11
98.5
21
3.491928
31
0
39
0
210
0
220
0
230
1
0
LINE
5
E8
100
AcDbEntity
8
1
62
256
6
ByLayer
370
18
48
1
60
1
100
AcDbLine
10
96.5
20
-4
30
0
11
96.039216
21
-0.500002
31
0
39
0
210
0
220
0
230
1
0
LINE
5
E9
100
AcDbEntity
8
1
62
256
6
ByLayer
370
18
48
1
60
1
100
AcDbLine
10
96.039216
20
-0.500002
30
0
11
96.960784
21
-0.499998
31
0
39
0
210
0
220
0
230
1
0
LINE
5
EA
100
AcDbEntity
8
1
62
256
6
ByLayer
370
18
48
1
60
1
100
AcDbLine
10
96.960784
20
-0.499998
30
0
11
96.5
21
-4
31
0
39
0
210
0
220
0
230
1
0
LINE
5
EB
100
AcDbEntity
8
1
62
256
6
ByLayer
370
18
48
1
60
1
100
AcDbLine
10
96.5
20
3.491928
30
0
11
96.960784
21
-0.008071
31
0
39
0
210
0
220
0
230
1
0
LINE
5
EC
100
AcDbEntity
8
1
62
256
6
ByLayer
370
18
48
1
60
1
100
AcDbLine
10
96.960784
20
-0.008071
30
0
11
96.039216
21
-0.008074
31
0
39
0
210
0
220
0
230
1
0
LINE
5
ED
100
AcDbEntity
8
1
62
256
6
ByLayer
370
18
48
1
60
1
100
AcDbLine
10
96.039216
20
-0.008074
30
0
11
96.5
21
3.491928
31
0
39
0
210
0
220
0
230
1
0
LINE
5
EE
100
AcDbEntity
8
SK2
62
256
6
ByLayer
370
13
48
1
60
0
100
AcDbLine
10
-1.606366
20
5.061655
30
0
11
-14.800123
21
5.57446
31
0
39
0
210
0
220
0
230
1
0
LINE
5
EF
100
AcDbEntity
8
SK2
62
256
6
ByLayer
370
13
48
1
60
0
100
AcDbLine
10
-38.4125
20
0
30
0
11
-10.908414
21
0
31
0
39
0
210
0
220
0
230
1
0
LINE
5
F0
100
AcDbEntity
8
1
62
256
6
ByLayer
370
18
48
1
60
1
100
AcDbLine
10
-12.801632
20
5.496784
30
0
11
-13.104398
21
9.013977
31
0
39
0
210
0
220
0
230
1
0
LINE
5
F1
100
AcDbEntity
8
1
62
256
6
ByLayer
370
18
48
1
60
1
100
AcDbLine
10
-13.104398
20
9.013977
30
0
11
-12.183764
21
8.972496
31
0
39
0
210
0
220
0
230
1
0
LINE
5
F2
100
AcDbEntity
8
1
62
256
6
ByLayer
370
18
48
1
60
1
100
AcDbLine
10
-12.183764
20
8.972496
30
0
11
-12.801632
21
5.496784
31
0
39
0
210
0
220
0
230
1
0
LINE
5
F3
100
AcDbEntity
8
1
62
256
6
ByLayer
370
18
48
1
60
1
100
AcDbLine
10
-12.908414
20
0
30
0
11
-12.426002
21
-3.497083
31
0
39
0
210
0
220
0
230
1
0
LINE
5
F4
100
AcDbEntity
8
1
62
256
6
ByLayer
370
18
48
1
60
1
100
AcDbLine
10
-12.426002
20
-3.497083
30
0
11
-13.347552
21
-3.502783
31
0
39
0
210
0
220
0
230
1
0
LINE
5
F5
100
AcDbEntity
8
1
62
256
6
ByLayer
370
18
48
1
60
1
100
AcDbLine
10
-13.347552
20
-3.502783
30
0
11
-12.908414
21
0
31
0
39
0
210
0
220
0
230
1
0
LINE
5
F6
100
AcDbEntity
8
SK2
62
256
6
ByLayer
370
13
48
1
60
0
100
AcDbLine
10
59.908972
20
3.113791
30
0
11
77.74224
21
11.292183
31
0
39
0
210
0
220
0
230
1
0
LINE
5
F7
100
AcDbEntity
8
1
62
256
6
ByLayer
370
18
48
1
60
1
100
AcDbLine
10
59.908972
20
3.113791
30
0
11
62.898291
21
4.991631
31
0
39
0
210
0
220
0
230
1
0
LINE
5
F8
100
AcDbEntity
8
1
62
256
6
ByLayer
370
18
48
1
60
1
100
AcDbLine
10
62.898291
20
4.991631
30
0
11
63.282456
21
4.153953
31
0
39
0
210
0
220
0
230
1
0
LINE
5
F9
100
AcDbEntity
8
1
62
256
6
ByLayer
370
18
48
1
60
1
100
AcDbLine
10
63.282456
20
4.153953
30
0
11
59.908972
21
3.113791
31
0
39
0
210
0
220
0
230
1
0
LINE
5
FA
100
AcDbEntity
8
SK2
62
256
6
ByLayer
370
13
48
1
60
0
100
AcDbLine
10
58.964905
20
3.722888
30
0
11
62.504258
21
22.491928
31
0
39
0
210
0
220
0
230
1
0
LINE
5
FB
100
AcDbEntity
8
SK2
62
256
6
ByLayer
370
13
48
1
60
0
100
AcDbLine
10
62.504258
20
22.491928
30
0
11
69.504258
21
22.491928
31
0
39
0
210
0
220
0
230
1
0
LINE
5
FC
100
AcDbEntity
8
SK2
62
256
6
ByLayer
370
13
48
1
60
0
100
AcDbLine
10
-229.76628
20
73.902458
30
0
11
-229.71582
21
73.902458
31
0
39
0
210
0
220
0
230
1
0
LINE
5
FD
100
AcDbEntity
8
1
62
256
6
ByLayer
370
18
48
1
60
1
100
AcDbLine
10
58.964905
20
3.722888
30
0
11
59.16068
21
7.247655
31
0
39
0
210
0
220
0
230
1
0
LINE
5
FE
100
AcDbEntity
8
1
62
256
6
ByLayer
370
18
48
1
60
1
100
AcDbLine
10
59.16068
20
7.247655
30
0
11
60.066287
21
7.076884
31
0
39
0
210
0
220
0
230
1
0
LINE
5
FF
100
AcDbEntity
8
1
62
256
6
ByLayer
370
18
48
1
60
1
100
AcDbLine
10
60.066287
20
7.076884
30
0
11
58.964905
21
3.722888
31
0
39
0
210
0
220
0
230
1
0
LINE
5
1C3
100
AcDbEntity
8
1
62
256
6
ByLayer
370
18
48
1
60
1
100
AcDbLine
10
-46.5
20
-5
30
0
11
-46.960784
21
-1.500002
31
0
39
0
210
0
220
0
230
1
0
LINE
5
1C4
100
AcDbEntity
8
1
62
256
6
ByLayer
370
18
48
1
60
1
100
AcDbLine
10
-46.960784
20
-1.500002
30
0
11
-46.039216
21
-1.499998
31
0
39
0
210
0
220
0
230
1
0
LINE
5
1C5
100
AcDbEntity
8
1
62
256
6
ByLayer
370
18
48
1
60
1
100
AcDbLine
10
-46.039216
20
-1.499998
30
0
11
-46.5
21
-5
31
0
39
0
210
0
220
0
230
1
0
LINE
5
1C7
100
AcDbEntity
8
1
62
256
6
ByLayer
370
18
48
1
60
1
100
AcDbLine
10
-46.5
20
5
30
0
11
-46.039216
21
1.500002
31
0
39
0
210
0
220
0
230
1
0
LINE
5
1C8
100
AcDbEntity
8
1
62
256
6
ByLayer
370
18
48
1
60
1
100
AcDbLine
10
-46.039216
20
1.500002
30
0
11
-46.960784
21
1.499998
31
0
39
0
210
0
220
0
230
1
0
LINE
5
1C9
100
AcDbEntity
8
1
62
256
6
ByLayer
370
18
48
1
60
1
100
AcDbLine
10
-46.960784
20
1.499998
30
0
11
-46.5
21
5
31
0
39
0
210
0
220
0
230
1
0
LINE
5
1CD
100
AcDbEntity
8
1
62
256
6
ByLayer
370
18
48
1
60
1
100
AcDbLine
10
40.5
20
-3.6
30
0
11
40.039216
21
-0.100002
31
0
39
0
210
0
220
0
230
1
0
LINE
5
1CE
100
AcDbEntity
8
1
62
256
6
ByLayer
370
18
48
1
60
1
100
AcDbLine
10
40.039216
20
-0.100002
30
0
11
40.960784
21
-0.099998
31
0
39
0
210
0
220
0
230
1
0
LINE
5
1CF
100
AcDbEntity
8
1
62
256
6
ByLayer
370
18
48
1
60
1
100
AcDbLine
10
40.960784
20
-0.099998
30
0
11
40.5
21
-3.6
31
0
39
0
210
0
220
0
230
1
0
LINE
5
1D1
100
AcDbEntity
8
1
62
256
6
ByLayer
370
18
48
1
60
1
100
AcDbLine
10
40.5
20
3.6
30
0
11
40.960784
21
0.100002
31
0
39
0
210
0
220
0
230
1
0
LINE
5
1D2
100
AcDbEntity
8
1
62
256
6
ByLayer
370
18
48
1
60
1
100
AcDbLine
10
40.960784
20
0.100002
30
0
11
40.039216
21
0.099998
31
0
39
0
210
0
220
0
230
1
0
LINE
5
1D3
100
AcDbEntity
8
1
62
256
6
ByLayer
370
18
48
1
60
1
100
AcDbLine
10
40.039216
20
0.099998
30
0
11
40.5
21
3.6
31
0
39
0
210
0
220
0
230
1
0
LINE
5
1D7
100
AcDbEntity
8
1
62
256
6
ByLayer
370
18
48
1
60
1
100
AcDbLine
10
96.5
20
-4
30
0
11
96.039216
21
-0.500002
31
0
39
0
210
0
220
0
230
1
0
LINE
5
1D8
100
AcDbEntity
8
1
62
256
6
ByLayer
370
18
48
1
60
1
100
AcDbLine
10
96.039216
20
-0.500002
30
0
11
96.960784
21
-0.499998
31
0
39
0
210
0
220
0
230
1
0
LINE
5
1D9
100
AcDbEntity
8
1
62
256
6
ByLayer
370
18
48
1
60
1
100
AcDbLine
10
96.960784
20
-0.499998
30
0
11
96.5
21
-4
31
0
39
0
210
0
220
0
230
1
0
LINE
5
1DB
100
AcDbEntity
8
1
62
256
6
ByLayer
370
18
48
1
60
1
100
AcDbLine
10
96.5
20
3.491928
30
0
11
96.960784
21
-0.008071
31
0
39
0
210
0
220
0
230
1
0
LINE
5
1DC
100
AcDbEntity
8
1
62
256
6
ByLayer
370
18
48
1
60
1
100
AcDbLine
10
96.960784
20
-0.008071
30
0
11
96.039216
21
-0.008074
31
0
39
0
210
0
220
0
230
1
0
LINE
5
1DD
100
AcDbEntity
8
1
62
256
6
ByLayer
370
18
48
1
60
1
100
AcDbLine
10
96.039216
20
-0.008074
30
0
11
96.5
21
3.491928
31
0
39
0
210
0
220
0
230
1
0
LINE
5
1E0
100
AcDbEntity
8
1
62
256
6
ByLayer
370
18
48
1
60
1
100
AcDbLine
10
-12.801632
20
5.496784
30
0
11
-13.104398
21
9.013977
31
0
39
0
210
0
220
0
230
1
0
LINE
5
1E1
100
AcDbEntity
8
1
62
256
6
ByLayer
370
18
48
1
60
1
100
AcDbLine
10
-13.104398
20
9.013977
30
0
11
-12.183764
21
8.972496
31
0
39
0
210
0
220
0
230
1
0
LINE
5
1E2
100
AcDbEntity
8
1
62
256
6
ByLayer
370
18
48
1
60
1
100
AcDbLine
10
-12.183764
20
8.972496
30
0
11
-12.801632
21
5.496784
31
0
39
0
210
0
220
0
230
1
0
LINE
5
1E4
100
AcDbEntity
8
1
62
256
6
ByLayer
370
18
48
1
60
1
100
AcDbLine
10
-12.908414
20
0
30
0
11
-12.426002
21
-3.497083
31
0
39
0
210
0
220
0
230
1
0
LINE
5
1E5
100
AcDbEntity
8
1
62
256
6
ByLayer
370
18
48
1
60
1
100
AcDbLine
10
-12.426002
20
-3.497083
30
0
11
-13.347552
21
-3.502783
31
0
39
0
210
0
220
0
230
1
0
LINE
5
1E6
100
AcDbEntity
8
1
62
256
6
ByLayer
370
18
48
1
60
1
100
AcDbLine
10
-13.347552
20
-3.502783
30
0
11
-12.908414
21
0
31
0
39
0
210
0
220
0
230
1
0
LINE
5
1EB
100
AcDbEntity
8
1
62
256
6
ByLayer
370
18
48
1
60
1
100
AcDbLine
10
59.908972
20
3.113791
30
0
11
62.898291
21
4.991631
31
0
39
0
210
0
220
0
230
1
0
LINE
5
1EC
100
AcDbEntity
8
1
62
256
6
ByLayer
370
18
48
1
60
1
100
AcDbLine
10
62.898291
20
4.991631
30
0
11
63.282456
21
4.153953
31
0
39
0
210
0
220
0
230
1
0
LINE
5
1ED
100
AcDbEntity
8
1
62
256
6
ByLayer
370
18
48
1
60
1
100
AcDbLine
10
63.282456
20
4.153953
30
0
11
59.908972
21
3.113791
31
0
39
0
210
0
220
0
230
1
0
LINE
5
1F1
100
AcDbEntity
8
1
62
256
6
ByLayer
370
18
48
1
60
1
100
AcDbLine
10
58.964905
20
3.722888
30
0
11
59.16068
21
7.247655
31
0
39
0
210
0
220
0
230
1
0
LINE
5
1F2
100
AcDbEntity
8
1
62
256
6
ByLayer
370
18
48
1
60
1
100
AcDbLine
10
59.16068
20
7.247655
30
0
11
60.066287
21
7.076884
31
0
39
0
210
0
220
0
230
1
0
LINE
5
1F3
100
AcDbEntity
8
1
62
256
6
ByLayer
370
18
48
1
60
1
100
AcDbLine
10
60.066287
20
7.076884
30
0
11
58.964905
21
3.722888
31
0
39
0
210
0
220
0
230
1
0
MTEXT
5
1BF
100
AcDbEntity
8
SK2
62
256
6
ByLayer
370
18
48
1
60
0
100
AcDbMText
10
-47.841114
20
10.658437
30
0
210
0
220
0
230
1
1
%%c
40
3
41
0
44
1.084337
50
90
71
7
72
5
7
iso_b_vert
0
MTEXT
5
1C2
100
AcDbEntity
8
SK2
62
256
6
ByLayer
370
18
48
1
60
0
100
AcDbMText
10
-47.841114
20
16.635
30
0
210
0
220
0
230
1
1
\W0.6563;10 h6
40
3
41
0
44
1.084337
50
90
71
7
72
5
7
iso_b_vert
0
MTEXT
5
1CB
100
AcDbEntity
8
SK2
62
256
6
ByLayer
370
18
48
1
60
0
100
AcDbMText
10
39.158886
20
-31.941562
30
0
210
0
220
0
230
1
1
%%c
40
3
41
0
44
1.084337
50
90
71
7
72
5
7
iso_b_vert
0
MTEXT
5
1CC
100
AcDbEntity
8
SK2
62
256
6
ByLayer
370
18
48
1
60
0
100
AcDbMText
10
39.158886
20
-25.965
30
0
210
0
220
0
230
1
1
\W0.7346;7.20
40
3
41
0
44
1.084337
50
90
71
7
72
5
7
iso_b_vert
0
MTEXT
5
1D5
100
AcDbEntity
8
2
62
256
6
ByLayer
370
18
48
1
60
0
100
AcDbMText
10
95.158886
20
17.658438
30
0
210
0
220
0
230
1
1
%%c
40
3
41
0
44
1.084337
50
90
71
7
72
5
7
iso_b_vert
0
MTEXT
5
1D6
100
AcDbEntity
8
2
62
256
6
ByLayer
370
18
48
1
60
0
100
AcDbMText
10
95.158886
20
23.635
30
0
210
0
220
0
230
1
1
\W0.6563;8 h10
40
3
41
0
44
1.084337
50
90
71
7
72
5
7
iso_b_vert
0
MTEXT
5
1DF
100
AcDbEntity
8
SK2
62
256
6
ByLayer
370
18
48
1
60
0
100
AcDbMText
10
-12.939356
20
13.0638
30
0
210
0
220
0
230
1
1
\W0.7635;(2%%d)
40
3
41
0
44
1.084337
50
83.6441832707606
71
7
72
5
7
iso_b_vert
0
MTEXT
5
1E8
100
AcDbEntity
8
SK2
62
256
6
ByLayer
370
18
48
1
60
0
100
AcDbMText
10
64.213972
20
5.827507
30
0
210
0
220
0
230
1
1
\W0.6380;R
40
2.5
41
0
44
1.084337
50
24.6363353147719
71
7
72
5
7
iso_b_vert
0
MTEXT
5
1E9
100
AcDbEntity
8
SK2
62
256
6
ByLayer
370
18
48
1
60
0
100
AcDbMText
10
69.326679
20
8.17221
30
0
210
0
220
0
230
1
1
\W0.8221;\W0.4110;%%p\W0.8221;0.03
40
2.5
41
0
44
1.084337
50
24.6363353147719
71
7
72
5
7
iso_b_vert
0
MTEXT
5
1EA
100
AcDbEntity
8
SK2
62
256
6
ByLayer
370
18
48
1
60
0
100
AcDbMText
10
66.605866
20
6.924437
30
0
210
0
220
0
230
1
1
\W0.3580;1
40
2.5
41
0
44
1.084337
50
24.6363353147719
71
7
72
5
7
iso_b_vert
0
MTEXT
5
1EF
100
AcDbEntity
8
SK2
62
256
6
ByLayer
370
18
48
1
60
0
100
AcDbMText
10
71.163258
20
20.377042
30
0
210
0
220
0
230
1
1
\W0.6380;R
40
3
41
0
44
1.084337
50
0
71
7
72
5
7
iso_b_vert
0
MTEXT
5
1F0
100
AcDbEntity
8
SK2
62
256
6
ByLayer
370
18
48
1
60
0
100
AcDbMText
10
74.320972
20
20.377042
30
0
210
0
220
0
230
1
1
\W0.5321;16
40
3
41
0
44
1.084337
50
0
71
7
72
5
7
iso_b_vert
0
MTEXT
5
1F5
100
AcDbEntity
8
SK6
62
256
6
ByLayer
370
18
48
1
60
0
100
AcDbMText
10
-17.458053
20
-44.212406
30
0
210
0
220
0
230
1
1
\W0.7825;2A146-0800A016-RCMH R2AH
40
3
41
0
44
1.084337
50
0
71
7
72
5
7
iso_b_vert
0
HATCH
5
1C6
100
AcDbEntity
8
SK2
62
256
6
ByLayer
370
13
48
1
60
0
100
AcDbHatch
10
0
20
0
30
0
210
0
220
0
230
1
2
ANSI31
70
0
71
0
91
1
92
5
93
3
72
1
10
-46.5
20
-5.00000000000006
11
-46.9607837415528
21
-1.50000169255324
72
1
10
-46.9607837415528
20
-1.50000169255324
11
-46.0392162584472
21
-1.49999830744687
72
1
10
-46.0392162584472
20
-1.49999830744687
11
-46.5
21
-5.00000000000006
97
0
75
0
76
1
52
0
41
0.0062
77
0
78
1
53
45
43
0
44
0
45
-0.0139193969876572
46
0.0139193969876572
79
0
47
0
98
1
10
0
20
0
0
HATCH
5
1CA
100
AcDbEntity
8
SK2
62
256
6
ByLayer
370
13
48
1
60
0
100
AcDbHatch
10
0
20
0
30
0
210
0
220
0
230
1
2
ANSI31
70
0
71
0
91
1
92
5
93
3
72
1
10
-46.5
20
4.99999999999994
11
-46.0392162584472
21
1.50000169255313
72
1
10
-46.0392162584472
20
1.50000169255313
11
-46.9607837415528
21
1.49999830744676
72
1
10
-46.9607837415528
20
1.49999830744676
11
-46.5
21
4.99999999999994
97
0
75
0
76
1
52
0
41
0.0062
77
0
78
1
53
45
43
0
44
0
45
-0.0139193969876572
46
0.0139193969876572
79
0
47
0
98
1
10
0
20
0
0
HATCH
5
1D0
100
AcDbEntity
8
SK2
62
256
6
ByLayer
370
13
48
1
60
0
100
AcDbHatch
10
0
20
0
30
0
210
0
220
0
230
1
2
ANSI31
70
0
71
0
91
1
92
5
93
3
72
1
10
40.5
20
-3.59999999999997
11
40.0392162584472
21
-0.10000169255315
72
1
10
40.0392162584472
20
-0.10000169255315
11
40.9607837415528
21
-0.0999983074467821
72
1
10
40.9607837415528
20
-0.0999983074467821
11
40.5
21
-3.59999999999997
97
0
75
0
76
1
52
0
41
0.0062
77
0
78
1
53
45
43
0
44
0
45
-0.0139193969876572
46
0.0139193969876572
79
0
47
0
98
1
10
0
20
0
0
HATCH
5
1D4
100
AcDbEntity
8
SK2
62
256
6
ByLayer
370
13
48
1
60
0
100
AcDbHatch
10
0
20
0
30
0
210
0
220
0
230
1
2
ANSI31
70
0
71
0
91
1
92
5
93
3
72
1
10
40.5
20
3.60000000000005
11
40.9607837415528
21
0.100001692553235
72
1
10
40.9607837415528
20
0.100001692553235
11
40.0392162584472
21
0.0999983074468673
72
1
10
40.0392162584472
20
0.0999983074468673
11
40.5
21
3.60000000000005
97
0
75
0
76
1
52
0
41
0.0062
77
0
78
1
53
45
43
0
44
0
45
-0.0139193969876572
46
0.0139193969876572
79
0
47
0
98
1
10
0
20
0
0
HATCH
5
1DA
100
AcDbEntity
8
2
62
256
6
ByLayer
370
13
48
1
60
0
100
AcDbHatch
10
0
20
0
30
0
210
0
220
0
230
1
2
ANSI31
70
0
71
0
91
1
92
5
93
3
72
1
10
96.5
20
-3.99999999999992
11
96.0392162584472
21
-0.500001692553099
72
1
10
96.0392162584472
20
-0.500001692553099
11
96.9607837415528
21
-0.499998307446731
72
1
10
96.9607837415528
20
-0.499998307446731
11
96.5
21
-3.99999999999992
97
0
75
0
76
1
52
0
41
0.0062
77
0
78
1
53
45
43
0
44
0
45
-0.0139193969876572
46
0.0139193969876572
79
0
47
0
98
1
10
0
20
0
0
HATCH
5
1DE
100
AcDbEntity
8
2
62
256
6
ByLayer
370
13
48
1
60
0
100
AcDbHatch
10
0
20
0
30
0
210
0
220
0
230
1
2
ANSI31
70
0
71
0
91
1
92
5
93
3
72
1
10
96.5
20
3.49192764425774
11
96.9607837415528
21
-0.0080706631890735
72
1
10
96.9607837415528
20
-0.0080706631890735
11
96.0392162584472
21
-0.0080740482954411
72
1
10
96.0392162584472
20
-0.0080740482954411
11
96.5
21
3.49192764425774
97
0
75
0
76
1
52
0
41
0.0062
77
0
78
1
53
45
43
0
44
0
45
-0.0139193969876572
46
0.0139193969876572
79
0
47
0
98
1
10
0
20
0
0
HATCH
5
1E3
100
AcDbEntity
8
SK2
62
256
6
ByLayer
370
13
48
1
60
0
100
AcDbHatch
10
0
20
0
30
0
210
0
220
0
230
1
2
ANSI31
70
0
71
0
91
1
92
5
93
3
72
1
10
-12.8016319976067
20
5.49678413040038
11
-13.1043979334453
21
9.01397656140352
72
1
10
-13.1043979334453
20
9.01397656140352
11
-12.183764460522
21
8.97249603028098
72
1
10
-12.183764460522
20
8.97249603028098
11
-12.8016319976067
21
5.49678413040038
97
0
75
0
76
1
52
0
41
0.0062
77
0
78
1
53
45
43
0
44
0
45
-0.0139193969876572
46
0.0139193969876572
79
0
47
0
98
1
10
0
20
0
0
HATCH
5
1E7
100
AcDbEntity
8
SK2
62
256
6
ByLayer
370
13
48
1
60
0
100
AcDbHatch
10
0
20
0
30
0
210
0
220
0
230
1
2
ANSI31
70
0
71
0
91
1
92
5
93
3
72
1
10
-12.9084140644383
20
-2.84E-14
11
-12.4260020762996
21
-3.49708285322356
72
1
10
-12.4260020762996
20
-3.49708285322356
11
-13.3475519283796
21
-3.50278338479671
72
1
10
-13.3475519283796
20
-3.50278338479671
11
-12.9084140644383
21
-2.84E-14
97
0
75
0
76
1
52
0
41
0.0062
77
0
78
1
53
45
43
0
44
0
45
-0.0139193969876572
46
0.0139193969876572
79
0
47
0
98
1
10
0
20
0
0
HATCH
5
1EE
100
AcDbEntity
8
SK2
62
256
6
ByLayer
370
13
48
1
60
0
100
AcDbHatch
10
0
20
0
30
0
210
0
220
0
230
1
2
ANSI31
70
0
71
0
91
1
92
5
93
3
72
1
10
59.9089719330744
20
3.11379123794885
11
62.8982910849446
21
4.99163063919502
72
1
10
62.8982910849446
20
4.99163063919502
11
63.2824563127256
21
4.15395307372438
72
1
10
63.2824563127256
20
4.15395307372438
11
59.9089719330744
21
3.11379123794885
97
0
75
0
76
1
52
0
41
0.0062
77
0
78
1
53
45
43
0
44
0
45
-0.0139193969876572
46
0.0139193969876572
79
0
47
0
98
1
10
0
20
0
0
HATCH
5
1F4
100
AcDbEntity
8
SK2
62
256
6
ByLayer
370
13
48
1
60
0
100
AcDbHatch
10
0
20
0
30
0
210
0
220
0
230
1
2
ANSI31
70
0
71
0
91
1
92
5
93
3
72
1
10
58.9649052099842
20
3.72288794265862
11
59.1606795786199
21
7.2476549144165
72
1
10
59.1606795786199
20
7.2476549144165
11
60.0662865976863
21
7.0768844458139
72
1
10
60.0662865976863
20
7.0768844458139
11
58.9649052099842
21
3.72288794265862
97
0
75
0
76
1
52
0
41
0.0062
77
0
78
1
53
45
43
0
44
0
45
-0.0139193969876572
46
0.0139193969876572
79
0
47
0
98
1
10
0
20
0
0
DIMENSION
5
1F8
100
AcDbEntity
8
2
62
256
6
ByLayer
370
18
48
1
60
0
100
AcDbDimension
2
_U0
10
36
20
12.85
30
0
11
48
21
12.85
31
0
70
32
71
1
72
1
41
1
210
0
220
0
230
1
3
Standard
100
AcDbAlignedDimension
13
60
23
3.491928
33
0
14
36
24
3.6
34
0
50
0
100
AcDbRotatedDimension
1001
ACAD
1000
DSTYLE
1002
{
1070
   371
1070
    13
1070
   372
1070
    13
1070
     3
1000

1070
   170
1070
     0
1070
   144
1040
1.0
1070
   277
1070
     2
1070
   284
1070
     8
1070
   278
1070
    46
1070
   146
1040
1.166667
1070
   345
1005
16
1070
   347
1005
16
1070
   346
1005
16
1070
   344
1005
0
1070
   343
1005
0
1070
   172
1070
     1
1070
    76
1070
     0
1070
    75
1070
     0
1070
   282
1070
     0
1070
   281
1070
     0
1070
    71
1070
     0
1070
    74
1070
     0
1070
   279
1070
     0
1070
   173
1070
     1
1070
   340
1005
1C0
1070
   271
1070
     2
1070
   272
1070
     2
1070
    77
1070
     1
1070
    73
1070
     1
1070
   171
1070
     3
1070
   274
1070
     4
1070
   177
1070
     2
1070
   176
1070
     2
1070
   178
1070
     2
1070
    78
1070
     8
1070
    48
1040
-0.1
1070
    41
1040
3.5
1070
   147
1040
1.5
1070
    42
1040
1.5875
1070
    44
1040
2.0
1070
   140
1040
3.0
1002
}
1001
ACAD_DSTYLE_DIM_LINETYPE
1070
   380
1005
16
1001
ACAD_DSTYLE_DIM_EXT1_LINETYPE
1070
   381
1005
16
1001
ACAD_DSTYLE_DIM_EXT2_LINETYPE
1070
   382
1005
16
0
DIMENSION
5
211
100
AcDbEntity
8
2
62
256
6
ByLayer
370
18
48
1
60
0
100
AcDbDimension
2
_U1
10
-0.020063
20
22.85
30
0
11
29.989968
21
22.85
31
0
70
32
71
1
72
1
41
1
210
0
220
0
230
1
3
Standard
100
AcDbAlignedDimension
13
60
23
3.491928
33
0
14
-0.020063
24
5
34
0
50
0
100
AcDbRotatedDimension
1001
ACAD
1000
DSTYLE
1002
{
1070
   371
1070
    13
1070
   372
1070
    13
1070
     3
1000

1070
   170
1070
     0
1070
   144
1040
1.0
1070
   277
1070
     2
1070
   284
1070
     8
1070
   278
1070
    46
1070
   146
1040
1.166667
1070
   345
1005
16
1070
   347
1005
16
1070
   346
1005
16
1070
   344
1005
0
1070
   343
1005
0
1070
   172
1070
     1
1070
    76
1070
     0
1070
    75
1070
     0
1070
   282
1070
     0
1070
   281
1070
     0
1070
    71
1070
     0
1070
    74
1070
     0
1070
   279
1070
     0
1070
   173
1070
     1
1070
   340
1005
1C0
1070
   271
1070
     2
1070
   272
1070
     2
1070
    77
1070
     1
1070
    73
1070
     1
1070
   171
1070
     3
1070
   274
1070
     4
1070
   177
1070
     2
1070
   176
1070
     2
1070
   178
1070
     2
1070
    78
1070
     8
1070
    48
1040
-0.1
1070
    41
1040
3.5
1070
   147
1040
1.5
1070
    42
1040
1.5875
1070
    44
1040
2.0
1070
   140
1040
3.0
1002
}
1001
ACAD_DSTYLE_DIM_LINETYPE
1070
   380
1005
16
1001
ACAD_DSTYLE_DIM_EXT1_LINETYPE
1070
   381
1005
16
1001
ACAD_DSTYLE_DIM_EXT2_LINETYPE
1070
   382
1005
16
0
DIMENSION
5
229
100
AcDbEntity
8
SK2
62
256
6
ByLayer
370
18
48
1
60
0
100
AcDbDimension
2
_U2
10
-40
20
32.85
30
0
11
10
21
32.85
31
0
70
32
71
1
72
1
41
1
210
0
220
0
230
1
3
Standard
100
AcDbAlignedDimension
13
60
23
3.491928
33
0
14
-40
24
0
34
0
50
0
100
AcDbRotatedDimension
1001
ACAD
1000
DSTYLE
1002
{
1070
   371
1070
    13
1070
   372
1070
    13
1070
     3
1000

1070
   170
1070
     0
1070
   144
1040
1.0
1070
   277
1070
     2
1070
   284
1070
     8
1070
   278
1070
    46
1070
   146
1040
1.166667
1070
   345
1005
16
1070
   347
1005
16
1070
   346
1005
16
1070
   344
1005
0
1070
   343
1005
0
1070
   172
1070
     1
1070
    76
1070
     0
1070
    75
1070
     0
1070
   282
1070
     0
1070
   281
1070
     0
1070
    71
1070
     0
1070
    74
1070
     0
1070
   279
1070
     0
1070
   173
1070
     1
1070
   340
1005
1C0
1070
   271
1070
     2
1070
   272
1070
     2
1070
    77
1070
     1
1070
    73
1070
     1
1070
   171
1070
     3
1070
   274
1070
     4
1070
   177
1070
     2
1070
   176
1070
     2
1070
   178
1070
     2
1070
    78
1070
     8
1070
    48
1040
-0.1
1070
    41
1040
3.5
1070
   147
1040
1.5
1070
    42
1040
1.5875
1070
    44
1040
2.0
1070
   140
1040
3.0
1002
}
1001
ACAD_DSTYLE_DIM_LINETYPE
1070
   380
1005
16
1001
ACAD_DSTYLE_DIM_EXT1_LINETYPE
1070
   381
1005
16
1001
ACAD_DSTYLE_DIM_EXT2_LINETYPE
1070
   382
1005
16
0
DIMENSION
5
241
100
AcDbEntity
8
SK2
62
256
6
ByLayer
370
18
48
1
60
0
100
AcDbDimension
2
_U3
10
-0.020063
20
-19.04504
30
0
11
-20.010032
21
-19.04504
31
0
70
32
71
1
72
1
41
1
210
0
220
0
230
1
3
Standard
100
AcDbAlignedDimension
13
-40
23
0
33
0
14
-0.020063
24
5
34
0
50
0
100
AcDbRotatedDimension
1001
ACAD
1000
DSTYLE
1002
{
1070
   371
1070
    13
1070
   372
1070
    13
1070
     3
1000

1070
   170
1070
     0
1070
   144
1040
1.0
1070
   277
1070
     2
1070
   284
1070
     8
1070
   278
1070
    46
1070
   146
1040
1.166667
1070
   345
1005
16
1070
   347
1005
16
1070
   346
1005
16
1070
   344
1005
0
1070
   343
1005
0
1070
   172
1070
     1
1070
    76
1070
     0
1070
    75
1070
     0
1070
   282
1070
     0
1070
   281
1070
     0
1070
    71
1070
     0
1070
    74
1070
     0
1070
   279
1070
     0
1070
   173
1070
     1
1070
   340
1005
1C0
1070
   271
1070
     2
1070
   272
1070
     2
1070
    77
1070
     1
1070
    73
1070
     1
1070
   171
1070
     3
1070
   274
1070
     4
1070
   177
1070
     2
1070
   176
1070
     2
1070
   178
1070
     2
1070
    78
1070
     8
1070
    48
1040
-0.1
1070
    41
1040
3.5
1070
   147
1040
1.5
1070
    42
1040
1.5875
1070
    44
1040
2.0
1070
   140
1040
3.0
1002
}
1001
ACAD_DSTYLE_DIM_LINETYPE
1070
   380
1005
16
1001
ACAD_DSTYLE_DIM_EXT1_LINETYPE
1070
   381
1005
16
1001
ACAD_DSTYLE_DIM_EXT2_LINETYPE
1070
   382
1005
16
0
ENDSEC
0
SECTION
2
OBJECTS
0
DICTIONARY
5
2c9
330
0
100
AcDbDictionary
280
0
281
1
3
ACAD_GROUP
350
2ca
3
ACAD_MLINESTYLE
350
2cb
0
DICTIONARY
5
2ca
330
0
100
AcDbDictionary
280
0
281
1
0
DICTIONARY
5
2cb
330
0
100
AcDbDictionary
280
0
281
1
3
Standard
350
18
0
MLINESTYLE
5
18
330
2cb
100
AcDbMlineStyle
2
Standard
70
0
3

62
256
51
90
52
90
71
2
49
-0.5
62
256
6
ByLayer
49
0.5
62
256
6
ByLayer
0
RASTERVARIABLES
5
2b7
330

100
AcDbRasterVariables
90
0
70
1
71
1
72
1
0
ENDSEC
0
EOF
