0
SECTION
2
HEADER
9
$ACADVER
1
AC1015
9
$DWGCODEPAGE
3
ANSI_1252
9
$HANDSEED
5
2de
9
$ANGBASE
50
0
9
$ANGDIR
70
0
9
$ATTMODE
70
1
9
$AUNITS
70
0
9
$AUPREC
70
0
9
$CECOLOR
62
256
9
$CELTSCALE
40
1
9
$CELTYPE
6
ByLayer
9
$CELWEIGHT
370
18
9
$CLAYER
8
0
9
$CMLJUST
70
0
9
$CMLSCALE
40
1
9
$CMLSTYLE
2
Standard
9
$DIMSTYLE
2
Standard
9
$TEXTSIZE
40
0.2
9
$TEXTSTYLE
7
Standard
9
$LUNITS
70
2
9
$LUPREC
70
4
9
$EXTNAMES
290
1
9
$INSUNITS
70
4
9
$LTSCALE
40
1
9
$LWDISPLAY
290
1
9
$PDMODE
70
0
9
$PDSIZE
40
0
9
$PLINEGEN
70
0
0
ENDSEC
0
SECTION
2
CLASSES
0
CLASS
1
RASTERVARIABLES
2
AcDbRasterVariables
3
ISM
90
0
280
0
281
0
0
ENDSEC
0
SECTION
2
TABLES
0
TABLE
2
VPORT
5
2d4
100
AcDbSymbolTable
0
VPORT
5
1
100
AcDbSymbolTableRecord
100
AcDbViewportTableRecord
2
*Active
70
0
10
0
20
0
11
1
21
1
12
-1
22
1
13
0
23
0
14
0.5
24
0.5
15
10
25
10
16
0
26
0
36
1
17
0
27
0
37
0
0
ENDTAB
0
TABLE
2
LTYPE
5
2d5
100
AcDbSymbolTable
0
LTYPE
5
14
100
AcDbSymbolTableRecord
100
AcDbLinetypeTableRecord
70
0
2
ByBlock
3

72
65
73
0
40
0
0
LTYPE
5
15
100
AcDbSymbolTableRecord
100
AcDbLinetypeTableRecord
70
0
2
ByLayer
3

72
65
73
0
40
0
0
LTYPE
5
16
100
AcDbSymbolTableRecord
100
AcDbLinetypeTableRecord
70
0
2
Continuous
3
Solid line
72
65
73
0
40
0
0
LTYPE
5
6E
100
AcDbSymbolTableRecord
100
AcDbLinetypeTableRecord
70
0
2
CENTER
3
____ _ ____ _ ____ _ ____
72
65
73
4
40
47.5
49
22
74
0
49
-8.5
74
0
49
8.5
74
0
49
-8.5
74
0
0
LTYPE
5
6F
100
AcDbSymbolTableRecord
100
AcDbLinetypeTableRecord
70
0
2
DASHED
3
__ __ __ __ __ __ __ __ __
72
65
73
2
40
25.72
49
12.86
74
0
49
-12.86
74
0
0
ENDTAB
0
TABLE
2
LAYER
5
2d6
100
AcDbSymbolTable
0
LAYER
5
10
100
AcDbSymbolTableRecord
100
AcDbLayerTableRecord
2
0
70
0
62
7
6
Continuous
290
1
370
-3
390
0
0
LAYER
5
71
100
AcDbSymbolTableRecord
100
AcDbLayerTableRecord
2
81
70
0
62
-3
6
Continuous
290
1
370
-3
390
0
0
LAYER
5
73
100
AcDbSymbolTableRecord
100
AcDbLayerTableRecord
2
80
70
0
62
-6
6
Continuous
290
1
370
-3
390
0
0
LAYER
5
75
100
AcDbSymbolTableRecord
100
AcDbLayerTableRecord
2
1
70
0
62
4
6
Continuous
290
1
370
-3
390
0
0
LAYER
5
82
100
AcDbSymbolTableRecord
100
AcDbLayerTableRecord
2
4
70
0
62
-2
6
CENTER
290
1
370
-3
390
0
0
LAYER
5
E0
100
AcDbSymbolTableRecord
100
AcDbLayerTableRecord
2
2
70
0
62
7
6
Continuous
290
1
370
-3
390
0
0
LAYER
5
203
100
AcDbSymbolTableRecord
100
AcDbLayerTableRecord
2
Defpoints
70
0
62
7
6
Continuous
290
0
370
-3
390
0
0
LAYER
5
2c0
100
AcDbSymbolTableRecord
100
AcDbLayerTableRecord
2
SK4
70
0
62
2
6
CENTER
290
1
370
-3
390
0
0
LAYER
5
2c1
100
AcDbSymbolTableRecord
100
AcDbLayerTableRecord
2
SK1
70
0
62
4
6
Continuous
290
1
370
-3
390
0
0
LAYER
5
2c2
100
AcDbSymbolTableRecord
100
AcDbLayerTableRecord
2
SK2
70
0
62
7
6
Continuous
290
1
370
-3
390
0
0
LAYER
5
2c3
100
AcDbSymbolTableRecord
100
AcDbLayerTableRecord
2
SK6
70
0
62
5
6
Continuous
290
1
370
-3
390
0
0
ENDTAB
0
TABLE
2
STYLE
5
2d7
100
AcDbSymbolTable
0
STYLE
5
11
100
AcDbSymbolTableRecord
100
AcDbTextStyleTableRecord
2
Standard
3
txt
70
0
71
0
40
0
41
1
42
0
50
0
0
STYLE
5
1C8
100
AcDbSymbolTableRecord
100
AcDbTextStyleTableRecord
2
iso_b_vert
3
simplex.shx
70
0
71
0
40
0
41
1
42
0
50
0
0
STYLE
5
1C9
100
AcDbSymbolTableRecord
100
AcDbTextStyleTableRecord
2
DWGDirectTextStyle
3
simplex
70
0
71
0
40
0
41
1
42
0
50
0
0
ENDTAB
0
TABLE
2
DIMSTYLE
5
2d8
100
AcDbSymbolTable
100
AcDbDimStyleTable
0
DIMSTYLE
105
27
100
AcDbSymbolTableRecord
100
AcDbDimStyleTableRecord
2
Standard
70
0
3
<>
41
0.18
42
0.0625
44
0.18
140
0.18
147
0.09
73
0
74
0
77
1
271
2
275
0
278
52
280
0
340
11
0
ENDTAB
0
TABLE
2
VIEW
5
2d9
100
AcDbSymbolTable
0
ENDTAB
0
TABLE
2
UCS
5
2da
100
AcDbSymbolTable
0
ENDTAB
0
TABLE
2
APPID
5
2db
100
AcDbSymbolTable
0
APPID
5
12
100
AcDbSymbolTableRecord
100
AcDbRegAppTableRecord
2
ACAD
70
0
0
APPID
5
1FF
100
AcDbSymbolTableRecord
100
AcDbRegAppTableRecord
2
ACAD_DSTYLE_DIMBREAK
70
0
0
APPID
5
27F
100
AcDbSymbolTableRecord
100
AcDbRegAppTableRecord
2
ACAD_DSTYLE_DIM_LINETYPE
70
0
0
APPID
5
280
100
AcDbSymbolTableRecord
100
AcDbRegAppTableRecord
2
ACAD_DSTYLE_DIM_EXT1_LINETYPE
70
0
0
APPID
5
281
100
AcDbSymbolTableRecord
100
AcDbRegAppTableRecord
2
ACAD_DSTYLE_DIM_EXT2_LINETYPE
70
0
0
APPID
5
2BC
100
AcDbSymbolTableRecord
100
AcDbRegAppTableRecord
2
ACAD_MLEADERVER
70
0
0
ENDTAB
0
TABLE
2
BLOCK_RECORD
5
2dc
100
AcDbSymbolTable
0
BLOCK_RECORD
5
1F
100
AcDbSymbolTableRecord
100
AcDbBlockTableRecord
2
*Model_Space
340
0
70
0
0
BLOCK_RECORD
5
1B
100
AcDbSymbolTableRecord
100
AcDbBlockTableRecord
2
*Paper_Space
340
0
70
0
0
BLOCK_RECORD
5
23
100
AcDbSymbolTableRecord
100
AcDbBlockTableRecord
2
*Paper_Space0
340
0
70
0
0
BLOCK_RECORD
5
204
100
AcDbSymbolTableRecord
100
AcDbBlockTableRecord
2
*D1
340
0
70
0
0
BLOCK_RECORD
5
210
100
AcDbSymbolTableRecord
100
AcDbBlockTableRecord
2
_U0
340
0
70
0
0
BLOCK_RECORD
5
21C
100
AcDbSymbolTableRecord
100
AcDbBlockTableRecord
2
*D3
340
0
70
0
0
BLOCK_RECORD
5
228
100
AcDbSymbolTableRecord
100
AcDbBlockTableRecord
2
_U1
340
0
70
0
0
BLOCK_RECORD
5
234
100
AcDbSymbolTableRecord
100
AcDbBlockTableRecord
2
*D5
340
0
70
0
0
BLOCK_RECORD
5
240
100
AcDbSymbolTableRecord
100
AcDbBlockTableRecord
2
_U2
340
0
70
0
0
BLOCK_RECORD
5
24C
100
AcDbSymbolTableRecord
100
AcDbBlockTableRecord
2
*D7
340
0
70
0
0
BLOCK_RECORD
5
258
100
AcDbSymbolTableRecord
100
AcDbBlockTableRecord
2
_U3
340
0
70
0
0
ENDTAB
0
ENDSEC
0
SECTION
2
BLOCKS
0
BLOCK
5
20
100
AcDbEntity
8
0
100
AcDbBlockBegin
2
*Model_Space
70
0
10
0
20
0
30
0
3
*Model_Space
0
ENDBLK
5
21
100
AcDbEntity
8
0
100
AcDbBlockEnd
0
BLOCK
5
1C
100
AcDbEntity
8
0
100
AcDbBlockBegin
2
*Paper_Space
70
0
10
0
20
0
30
0
3
*Paper_Space
0
ENDBLK
5
1D
100
AcDbEntity
8
0
100
AcDbBlockEnd
0
BLOCK
5
24
100
AcDbEntity
8
0
100
AcDbBlockBegin
2
*Paper_Space0
70
0
10
0
20
0
30
0
3
*Paper_Space0
0
ENDBLK
5
25
100
AcDbEntity
8
0
100
AcDbBlockEnd
0
BLOCK
5
205
100
AcDbEntity
8
0
100
AcDbBlockBegin
2
*D1
70
1
10
0
20
0
30
0
3
*D1
0
LINE
5
207
100
AcDbEntity
8
0
62
256
6
ByLayer
370
-2
48
1
60
0
100
AcDbLine
10
34
20
5.07218
30
0
11
34
21
14.216097
31
0
39
0
210
0
220
0
230
1
0
LINE
5
208
100
AcDbEntity
8
0
62
256
6
ByLayer
370
-2
48
1
60
0
100
AcDbLine
10
10
20
5.1875
30
0
11
10
21
14.216097
31
0
39
0
210
0
220
0
230
1
0
LINE
5
209
100
AcDbEntity
8
0
62
256
6
ByLayer
370
-2
48
1
60
0
100
AcDbLine
10
30.5
20
12.216097
30
0
11
13.5
21
12.216097
31
0
39
0
210
0
220
0
230
1
0
SOLID
5
20A
100
AcDbEntity
8
0
62
256
6
ByLayer
370
-1
48
1
60
0
100
AcDbTrace
10
30.5
20
11.632764
30
0
11
30.5
21
12.799431
31
0
12
34
22
12.216097
32
0
13
34
23
12.216097
33
0
39
0
210
0
220
0
230
1
0
SOLID
5
20B
100
AcDbEntity
8
0
62
256
6
ByLayer
370
-1
48
1
60
0
100
AcDbTrace
10
13.5
20
12.799431
30
0
11
13.5
21
11.632764
31
0
12
10
22
12.216097
32
0
13
10
23
12.216097
33
0
39
0
210
0
220
0
230
1
0
MTEXT
5
20C
100
AcDbEntity
8
0
62
256
6
ByLayer
370
18
48
1
60
0
100
AcDbMText
10
22
20
18.216097
30
0
210
0
220
0
230
1
1
\A1;24
40
3
41
0
44
1
50
0
71
5
72
5
7
iso_b_vert
0
POINT
5
20D
100
AcDbEntity
8
Defpoints
62
0
6
ByLayer
370
-1
48
1
60
0
100
AcDbPoint
10
34
20
3.48468
30
0
39
0
210
0
220
0
230
1
50
360
0
POINT
5
20E
100
AcDbEntity
8
Defpoints
62
0
6
ByLayer
370
-1
48
1
60
0
100
AcDbPoint
10
10
20
3.6
30
0
39
0
210
0
220
0
230
1
50
360
0
POINT
5
20F
100
AcDbEntity
8
Defpoints
62
0
6
ByLayer
370
-1
48
1
60
0
100
AcDbPoint
10
10
20
12.216097
30
0
39
0
210
0
220
0
230
1
50
360
0
ENDBLK
5
206
100
AcDbEntity
8
0
100
AcDbBlockEnd
0
BLOCK
5
217
100
AcDbEntity
8
0
100
AcDbBlockBegin
2
_U0
70
0
10
0
20
0
30
0
3
_U0
0
MTEXT
5
211
100
AcDbEntity
8
2
62
256
6
ByLayer
370
18
48
1
60
0
100
AcDbMText
10
20.209229
20
13.101212
30
0
210
0
220
0
230
1
1
\W0.7167;24
40
3
41
0
44
1.084337
50
0
71
7
72
5
7
iso_b_vert
0
LINE
5
212
100
AcDbEntity
8
2
62
256
6
ByLayer
370
13
48
1
60
0
100
AcDbLine
10
34
20
5.07218
30
0
11
34
21
14.216097
31
0
39
0
210
0
220
0
230
1
0
LINE
5
213
100
AcDbEntity
8
2
62
256
6
ByLayer
370
13
48
1
60
0
100
AcDbLine
10
10
20
5.1875
30
0
11
10
21
14.216097
31
0
39
0
210
0
220
0
230
1
0
LINE
5
214
100
AcDbEntity
8
2
62
256
6
ByLayer
370
13
48
1
60
0
100
AcDbLine
10
34
20
12.216097
30
0
11
10
21
12.216097
31
0
39
0
210
0
220
0
230
1
0
SOLID
5
215
100
AcDbEntity
8
2
62
256
6
ByLayer
370
18
48
1
60
0
100
AcDbTrace
10
34
20
12.216097
30
0
11
30.500002
21
11.755313
31
0
12
30.499998
22
12.676881
32
0
13
30.499998
23
12.676881
33
0
39
0
210
0
220
0
230
1
0
SOLID
5
216
100
AcDbEntity
8
2
62
256
6
ByLayer
370
18
48
1
60
0
100
AcDbTrace
10
10
20
12.216097
30
0
11
13.499998
21
12.676881
31
0
12
13.500002
22
11.755313
32
0
13
13.500002
23
11.755313
33
0
39
0
210
0
220
0
230
1
0
ENDBLK
5
218
100
AcDbEntity
8
0
100
AcDbBlockEnd
0
BLOCK
5
21D
100
AcDbEntity
8
0
100
AcDbBlockBegin
2
*D3
70
1
10
0
20
0
30
0
3
*D3
0
LINE
5
21F
100
AcDbEntity
8
0
62
256
6
ByLayer
370
-2
48
1
60
0
100
AcDbLine
10
34
20
5.07218
30
0
11
34
21
24.216097
31
0
39
0
210
0
220
0
230
1
0
LINE
5
220
100
AcDbEntity
8
0
62
256
6
ByLayer
370
-2
48
1
60
0
100
AcDbLine
10
-0.020636
20
5.5875
30
0
11
-0.020636
21
24.216097
31
0
39
0
210
0
220
0
230
1
0
LINE
5
221
100
AcDbEntity
8
0
62
256
6
ByLayer
370
-2
48
1
60
0
100
AcDbLine
10
30.5
20
22.216097
30
0
11
3.479364
21
22.216097
31
0
39
0
210
0
220
0
230
1
0
SOLID
5
222
100
AcDbEntity
8
0
62
256
6
ByLayer
370
-1
48
1
60
0
100
AcDbTrace
10
30.5
20
21.632764
30
0
11
30.5
21
22.799431
31
0
12
34
22
22.216097
32
0
13
34
23
22.216097
33
0
39
0
210
0
220
0
230
1
0
SOLID
5
223
100
AcDbEntity
8
0
62
256
6
ByLayer
370
-1
48
1
60
0
100
AcDbTrace
10
3.479364
20
22.799431
30
0
11
3.479364
21
21.632764
31
0
12
-0.020636
22
22.216097
32
0
13
-0.020636
23
22.216097
33
0
39
0
210
0
220
0
230
1
0
MTEXT
5
224
100
AcDbEntity
8
0
62
256
6
ByLayer
370
18
48
1
60
0
100
AcDbMText
10
16.989682
20
28.216097
30
0
210
0
220
0
230
1
1
\A1;34.02
40
3
41
0
44
1
50
0
71
5
72
5
7
iso_b_vert
0
POINT
5
225
100
AcDbEntity
8
Defpoints
62
0
6
ByLayer
370
-1
48
1
60
0
100
AcDbPoint
10
34
20
3.48468
30
0
39
0
210
0
220
0
230
1
50
360
0
POINT
5
226
100
AcDbEntity
8
Defpoints
62
0
6
ByLayer
370
-1
48
1
60
0
100
AcDbPoint
10
-0.020636
20
4
30
0
39
0
210
0
220
0
230
1
50
360
0
POINT
5
227
100
AcDbEntity
8
Defpoints
62
0
6
ByLayer
370
-1
48
1
60
0
100
AcDbPoint
10
-0.020636
20
22.216097
30
0
39
0
210
0
220
0
230
1
50
360
0
ENDBLK
5
21E
100
AcDbEntity
8
0
100
AcDbBlockEnd
0
BLOCK
5
22F
100
AcDbEntity
8
0
100
AcDbBlockBegin
2
_U1
70
0
10
0
20
0
30
0
3
_U1
0
MTEXT
5
229
100
AcDbEntity
8
2
62
256
6
ByLayer
370
18
48
1
60
0
100
AcDbMText
10
15.198911
20
23.101212
30
0
210
0
220
0
230
1
1
\W0.7167;34
40
3
41
0
44
1.084337
50
0
71
7
72
5
7
iso_b_vert
0
LINE
5
22A
100
AcDbEntity
8
2
62
256
6
ByLayer
370
13
48
1
60
0
100
AcDbLine
10
34
20
5.07218
30
0
11
34
21
24.216097
31
0
39
0
210
0
220
0
230
1
0
LINE
5
22B
100
AcDbEntity
8
2
62
256
6
ByLayer
370
13
48
1
60
0
100
AcDbLine
10
-0.020636
20
5.5875
30
0
11
-0.020636
21
24.216097
31
0
39
0
210
0
220
0
230
1
0
LINE
5
22C
100
AcDbEntity
8
2
62
256
6
ByLayer
370
13
48
1
60
0
100
AcDbLine
10
34
20
22.216097
30
0
11
-0.020636
21
22.216097
31
0
39
0
210
0
220
0
230
1
0
SOLID
5
22D
100
AcDbEntity
8
2
62
256
6
ByLayer
370
18
48
1
60
0
100
AcDbTrace
10
34
20
22.216097
30
0
11
30.500002
21
21.755313
31
0
12
30.499998
22
22.676881
32
0
13
30.499998
23
22.676881
33
0
39
0
210
0
220
0
230
1
0
SOLID
5
22E
100
AcDbEntity
8
2
62
256
6
ByLayer
370
18
48
1
60
0
100
AcDbTrace
10
-0.020636
20
22.216097
30
0
11
3.479362
21
22.676881
31
0
12
3.479366
22
21.755313
32
0
13
3.479366
23
21.755313
33
0
39
0
210
0
220
0
230
1
0
ENDBLK
5
230
100
AcDbEntity
8
0
100
AcDbBlockEnd
0
BLOCK
5
235
100
AcDbEntity
8
0
100
AcDbBlockBegin
2
*D5
70
1
10
0
20
0
30
0
3
*D5
0
LINE
5
237
100
AcDbEntity
8
0
62
256
6
ByLayer
370
-2
48
1
60
0
100
AcDbLine
10
34
20
5.07218
30
0
11
34
21
34.216097
31
0
39
0
210
0
220
0
230
1
0
LINE
5
238
100
AcDbEntity
8
0
62
256
6
ByLayer
370
-2
48
1
60
0
100
AcDbLine
10
-36
20
1.5875
30
0
11
-36
21
34.216097
31
0
39
0
210
0
220
0
230
1
0
LINE
5
239
100
AcDbEntity
8
0
62
256
6
ByLayer
370
-2
48
1
60
0
100
AcDbLine
10
30.5
20
32.216097
30
0
11
-32.5
21
32.216097
31
0
39
0
210
0
220
0
230
1
0
SOLID
5
23A
100
AcDbEntity
8
0
62
256
6
ByLayer
370
-1
48
1
60
0
100
AcDbTrace
10
30.5
20
31.632764
30
0
11
30.5
21
32.799431
31
0
12
34
22
32.216097
32
0
13
34
23
32.216097
33
0
39
0
210
0
220
0
230
1
0
SOLID
5
23B
100
AcDbEntity
8
0
62
256
6
ByLayer
370
-1
48
1
60
0
100
AcDbTrace
10
-32.5
20
32.799431
30
0
11
-32.5
21
31.632764
31
0
12
-36
22
32.216097
32
0
13
-36
23
32.216097
33
0
39
0
210
0
220
0
230
1
0
MTEXT
5
23C
100
AcDbEntity
8
0
62
256
6
ByLayer
370
18
48
1
60
0
100
AcDbMText
10
-1
20
38.216097
30
0
210
0
220
0
230
1
1
\A1;70
40
3
41
0
44
1
50
0
71
5
72
5
7
iso_b_vert
0
POINT
5
23D
100
AcDbEntity
8
Defpoints
62
0
6
ByLayer
370
-1
48
1
60
0
100
AcDbPoint
10
34
20
3.48468
30
0
39
0
210
0
220
0
230
1
50
360
0
POINT
5
23E
100
AcDbEntity
8
Defpoints
62
0
6
ByLayer
370
-1
48
1
60
0
100
AcDbPoint
10
-36
20
0
30
0
39
0
210
0
220
0
230
1
50
360
0
POINT
5
23F
100
AcDbEntity
8
Defpoints
62
0
6
ByLayer
370
-1
48
1
60
0
100
AcDbPoint
10
-36
20
32.216097
30
0
39
0
210
0
220
0
230
1
50
360
0
ENDBLK
5
236
100
AcDbEntity
8
0
100
AcDbBlockEnd
0
BLOCK
5
247
100
AcDbEntity
8
0
100
AcDbBlockBegin
2
_U2
70
0
10
0
20
0
30
0
3
_U2
0
MTEXT
5
241
100
AcDbEntity
8
SK2
62
256
6
ByLayer
370
18
48
1
60
0
100
AcDbMText
10
-2.632828
20
33.101212
30
0
210
0
220
0
230
1
1
\W0.6740;70
40
3
41
0
44
1.084337
50
0
71
7
72
5
7
iso_b_vert
0
LINE
5
242
100
AcDbEntity
8
SK2
62
256
6
ByLayer
370
13
48
1
60
0
100
AcDbLine
10
34
20
5.07218
30
0
11
34
21
34.216097
31
0
39
0
210
0
220
0
230
1
0
LINE
5
243
100
AcDbEntity
8
SK2
62
256
6
ByLayer
370
13
48
1
60
0
100
AcDbLine
10
-36
20
1.5875
30
0
11
-36
21
34.216097
31
0
39
0
210
0
220
0
230
1
0
LINE
5
244
100
AcDbEntity
8
SK2
62
256
6
ByLayer
370
13
48
1
60
0
100
AcDbLine
10
34
20
32.216097
30
0
11
-36
21
32.216097
31
0
39
0
210
0
220
0
230
1
0
SOLID
5
245
100
AcDbEntity
8
SK2
62
256
6
ByLayer
370
18
48
1
60
0
100
AcDbTrace
10
34
20
32.216097
30
0
11
30.500002
21
31.755313
31
0
12
30.499998
22
32.676881
32
0
13
30.499998
23
32.676881
33
0
39
0
210
0
220
0
230
1
0
SOLID
5
246
100
AcDbEntity
8
SK2
62
256
6
ByLayer
370
18
48
1
60
0
100
AcDbTrace
10
-36
20
32.216097
30
0
11
-32.500002
21
32.676881
31
0
12
-32.499998
22
31.755313
32
0
13
-32.499998
23
31.755313
33
0
39
0
210
0
220
0
230
1
0
ENDBLK
5
248
100
AcDbEntity
8
0
100
AcDbBlockEnd
0
BLOCK
5
24D
100
AcDbEntity
8
0
100
AcDbBlockBegin
2
*D7
70
1
10
0
20
0
30
0
3
*D7
0
LINE
5
24F
100
AcDbEntity
8
0
62
256
6
ByLayer
370
-2
48
1
60
0
100
AcDbLine
10
-36
20
-1.5875
30
0
11
-36
21
-25.53244
31
0
39
0
210
0
220
0
230
1
0
LINE
5
250
100
AcDbEntity
8
0
62
256
6
ByLayer
370
-2
48
1
60
0
100
AcDbLine
10
-0.020636
20
2.4125
30
0
11
-0.020636
21
-25.53244
31
0
39
0
210
0
220
0
230
1
0
LINE
5
251
100
AcDbEntity
8
0
62
256
6
ByLayer
370
-2
48
1
60
0
100
AcDbLine
10
-32.5
20
-23.53244
30
0
11
-3.520636
21
-23.53244
31
0
39
0
210
0
220
0
230
1
0
SOLID
5
252
100
AcDbEntity
8
0
62
256
6
ByLayer
370
-1
48
1
60
0
100
AcDbTrace
10
-32.5
20
-22.949107
30
0
11
-32.5
21
-24.115773
31
0
12
-36
22
-23.53244
32
0
13
-36
23
-23.53244
33
0
39
0
210
0
220
0
230
1
0
SOLID
5
253
100
AcDbEntity
8
0
62
256
6
ByLayer
370
-1
48
1
60
0
100
AcDbTrace
10
-3.520636
20
-24.115773
30
0
11
-3.520636
21
-22.949107
31
0
12
-0.020636
22
-23.53244
32
0
13
-0.020636
23
-23.53244
33
0
39
0
210
0
220
0
230
1
0
MTEXT
5
254
100
AcDbEntity
8
0
62
256
6
ByLayer
370
18
48
1
60
0
100
AcDbMText
10
-18.010318
20
-17.53244
30
0
210
0
220
0
230
1
1
\A1;35.98
40
3
41
0
44
1
50
0
71
5
72
5
7
iso_b_vert
0
POINT
5
255
100
AcDbEntity
8
Defpoints
62
0
6
ByLayer
370
-1
48
1
60
0
100
AcDbPoint
10
-36
20
0
30
0
39
0
210
0
220
0
230
1
50
360
0
POINT
5
256
100
AcDbEntity
8
Defpoints
62
0
6
ByLayer
370
-1
48
1
60
0
100
AcDbPoint
10
-0.020636
20
4
30
0
39
0
210
0
220
0
230
1
50
360
0
POINT
5
257
100
AcDbEntity
8
Defpoints
62
0
6
ByLayer
370
-1
48
1
60
0
100
AcDbPoint
10
-0.020636
20
-23.53244
30
0
39
0
210
0
220
0
230
1
50
360
0
ENDBLK
5
24E
100
AcDbEntity
8
0
100
AcDbBlockEnd
0
BLOCK
5
25F
100
AcDbEntity
8
0
100
AcDbBlockBegin
2
_U3
70
0
10
0
20
0
30
0
3
_U3
0
MTEXT
5
259
100
AcDbEntity
8
SK2
62
256
6
ByLayer
370
18
48
1
60
0
100
AcDbMText
10
-25.575231
20
-22.647326
30
0
210
0
220
0
230
1
1
\W0.7245;(MIN. 36)
40
3
41
0
44
1.084337
50
0
71
7
72
5
7
iso_b_vert
0
LINE
5
25A
100
AcDbEntity
8
SK2
62
256
6
ByLayer
370
13
48
1
60
0
100
AcDbLine
10
-36
20
-1.5875
30
0
11
-36
21
-25.53244
31
0
39
0
210
0
220
0
230
1
0
LINE
5
25B
100
AcDbEntity
8
SK2
62
256
6
ByLayer
370
13
48
1
60
0
100
AcDbLine
10
-0.020636
20
2.4125
30
0
11
-0.020636
21
-25.53244
31
0
39
0
210
0
220
0
230
1
0
LINE
5
25C
100
AcDbEntity
8
SK2
62
256
6
ByLayer
370
13
48
1
60
0
100
AcDbLine
10
-36
20
-23.53244
30
0
11
-0.020636
21
-23.53244
31
0
39
0
210
0
220
0
230
1
0
SOLID
5
25D
100
AcDbEntity
8
SK2
62
256
6
ByLayer
370
18
48
1
60
0
100
AcDbTrace
10
-36
20
-23.53244
30
0
11
-32.500002
21
-23.071656
31
0
12
-32.499998
22
-23.993224
32
0
13
-32.499998
23
-23.993224
33
0
39
0
210
0
220
0
230
1
0
SOLID
5
25E
100
AcDbEntity
8
SK2
62
256
6
ByLayer
370
18
48
1
60
0
100
AcDbTrace
10
-0.020636
20
-23.53244
30
0
11
-3.520634
21
-23.993224
31
0
12
-3.520638
22
-23.071656
32
0
13
-3.520638
23
-23.071656
33
0
39
0
210
0
220
0
230
1
0
ENDBLK
5
260
100
AcDbEntity
8
0
100
AcDbBlockEnd
0
ENDSEC
0
SECTION
2
ENTITIES
0
ARC
5
FB
100
AcDbEntity
8
1
62
256
6
ByLayer
370
18
48
1
60
0
100
AcDbCircle
39
0
10
9.999356
20
4.6
30
0
40
1
210
0
220
0
230
1
100
AcDbArc
50
267.70939
51
270
0
ARC
5
FC
100
AcDbEntity
8
1
62
256
6
ByLayer
370
18
48
1
60
0
100
AcDbCircle
39
0
10
9.999356
20
-4.6
30
0
40
1
210
0
220
0
230
1
100
AcDbArc
50
90
51
92.29061
0
ARC
5
FD
100
AcDbEntity
8
SK2
62
256
6
ByLayer
370
13
48
1
60
0
100
AcDbCircle
39
0
10
100.185725
20
0
30
0
40
113.178766028696
210
0
220
0
230
1
100
AcDbArc
50
177.714102
51
183.791268
0
ARC
5
FE
100
AcDbEntity
8
SK2
62
256
6
ByLayer
370
13
48
1
60
0
100
AcDbCircle
39
0
10
100.185725
20
0
30
0
40
113.178766028696
210
0
220
0
230
1
100
AcDbArc
50
171.144541
51
177.714102
0
ELLIPSE
5
FF
100
AcDbEntity
8
1
62
256
6
ByLayer
370
18
48
1
60
0
100
AcDbEllipse
10
33.85735
20
-0.322452
30
0
11
0.0715564660026699
21
0.398877135190482
31
0
210
0
220
0
230
1
40
0.169911
41
-1.80167557176189
42
-1.36816201710435
0
ELLIPSE
5
100
100
AcDbEntity
8
1
62
256
6
ByLayer
370
18
48
1
60
0
100
AcDbEllipse
10
34.546011
20
-0.566805
30
0
11
0.621223910081023
21
-0.314572932953031
31
0
210
0
220
0
230
1
40
0.564733
41
3.1347891706796
42
-2.71504620735113
0
ELLIPSE
5
101
100
AcDbEntity
8
1
62
256
6
ByLayer
370
18
48
1
60
0
100
AcDbEllipse
10
22.148206
20
-12.429448
30
0
11
-0.849232714041569
21
8.8277839278164
31
0
210
0
220
0
230
1
40
0.716229
41
-0.103586045465642
42
-0.0818008387106642
0
ELLIPSE
5
102
100
AcDbEntity
8
1
62
256
6
ByLayer
370
18
48
1
60
0
100
AcDbEllipse
10
22.303315
20
-12.414527
30
0
11
-0.85641607859814
21
8.90245508582957
31
0
210
0
220
0
230
1
40
0.716229
41
-0.0797057673856739
42
-0.0401513165496711
0
ELLIPSE
5
103
100
AcDbEntity
8
1
62
256
6
ByLayer
370
18
48
1
60
0
100
AcDbEllipse
10
33.85735
20
0.133996
30
0
11
0.0697259885311698
21
-1.0998289222217
31
0
210
0
220
0
230
1
40
0.063333
41
-0.25853081622145
42
0.174982738512366
0
ELLIPSE
5
104
100
AcDbEntity
8
1
62
256
6
ByLayer
370
18
48
1
60
0
100
AcDbEllipse
10
34.546011
20
-1.369339
30
0
11
0.645680102381
21
-0.45296746319086
31
0
210
0
220
0
230
1
40
0.052973
41
2.89340099619123
42
-2.95643438178597
0
ELLIPSE
5
105
100
AcDbEntity
8
1
62
256
6
ByLayer
370
18
48
1
60
0
100
AcDbEllipse
10
33.61562
20
-0.659689
30
0
11
0.340460113375871
21
-0.216463552767385
31
0
210
0
220
0
230
1
40
0.108357
41
-2.10578878929243
42
-1.79338566665189
0
ELLIPSE
5
106
100
AcDbEntity
8
1
62
256
6
ByLayer
370
18
48
1
60
0
100
AcDbEllipse
10
22.303315
20
7.173029
30
0
11
-5.77169654026596
21
6.83188656975334
31
0
210
0
220
0
230
1
40
0.415988
41
1.93498086762629
42
1.97453531846229
0
ELLIPSE
5
107
100
AcDbEntity
8
1
62
256
6
ByLayer
370
18
48
1
60
0
100
AcDbEllipse
10
22.148206
20
7.041991
30
0
11
-5.72328525818623
21
6.77458272753682
31
0
210
0
220
0
230
1
40
0.415988
41
1.97663038978728
42
1.99841559654226
0
ELLIPSE
5
108
100
AcDbEntity
8
1
62
256
6
ByLayer
370
18
48
1
60
0
100
AcDbEllipse
10
22.148206
20
-5.19044
30
0
11
-6.10284527723857
21
6.43476843413178
31
0
210
0
220
0
230
1
40
0.288787
41
-1.24529234031308
42
-1.2235071335581
0
ELLIPSE
5
109
100
AcDbEntity
8
1
62
256
6
ByLayer
370
18
48
1
60
0
100
AcDbEllipse
10
22.303315
20
-5.043332
30
0
11
-6.15446712568354
21
6.4891979052711
31
0
210
0
220
0
230
1
40
0.288787
41
-1.22141206223311
42
-1.1818576113971
0
ELLIPSE
5
10A
100
AcDbEntity
8
1
62
256
6
ByLayer
370
18
48
1
60
0
100
AcDbEllipse
10
24.253734
20
0
30
0
11
6.0389570908354
21
0.367625007275965
31
0
210
0
220
0
230
1
40
0.593013
41
-2.61351193856209
42
-2.06265482265657
0
ELLIPSE
5
10B
100
AcDbEntity
8
1
62
256
6
ByLayer
370
18
48
1
60
0
100
AcDbEllipse
10
24.253734
20
0
30
0
11
5.98597674195844
21
-3.26472807977781
31
0
210
0
220
0
230
1
40
0.25344
41
-2.44007276141534
42
-1.88921564550877
0
ELLIPSE
5
10C
100
AcDbEntity
8
1
62
256
6
ByLayer
370
18
48
1
60
0
100
AcDbEllipse
10
24.253734
20
0
30
0
11
6.003941995173
21
-3.38934472053471
31
0
210
0
220
0
230
1
40
0.202101
41
2.1401691868582
42
2.69102630276458
0
ELLIPSE
5
10D
100
AcDbEntity
8
1
62
256
6
ByLayer
370
18
48
1
60
0
100
AcDbEllipse
10
33.617888
20
-0.237486
30
0
11
0.160013509677045
21
-0.418119285841929
31
0
210
0
220
0
230
1
40
0.722034
41
2.92531045730858
42
-3.05679336198324
0
ELLIPSE
5
10E
100
AcDbEntity
8
1
62
256
6
ByLayer
370
18
48
1
60
0
100
AcDbEllipse
10
33.61562
20
0.225695
30
0
11
0.159127703887745
21
0.426011154114811
31
0
210
0
220
0
230
1
40
0.708659
41
3.02290203171094
42
-2.94788015318697
0
ELLIPSE
5
10F
100
AcDbEntity
8
1
62
256
6
ByLayer
370
18
48
1
60
0
100
AcDbEllipse
10
24.253734
20
0
30
0
11
6.00129389613271
21
3.3724656114221
31
0
210
0
220
0
230
1
40
0.20988
41
-2.59847195666347
42
-2.54454814040941
0
POINT
5
70
100
AcDbEntity
8
81
62
256
6
ByLayer
370
18
48
1
60
0
100
AcDbPoint
10
34
20
0
30
0
39
0
210
0
220
0
230
1
50
360
0
POINT
5
72
100
AcDbEntity
8
80
62
256
6
ByLayer
370
18
48
1
60
0
100
AcDbPoint
10
0
20
0
30
0
39
0
210
0
220
0
230
1
50
360
0
POINT
5
74
100
AcDbEntity
8
1
62
256
6
ByLayer
370
18
48
1
60
1
100
AcDbPoint
10
34
20
3.48468
30
0
39
0
210
0
220
0
230
1
50
360
0
POINT
5
76
100
AcDbEntity
8
1
62
256
6
ByLayer
370
18
48
1
60
1
100
AcDbPoint
10
10
20
3.6
30
0
39
0
210
0
220
0
230
1
50
360
0
POINT
5
77
100
AcDbEntity
8
1
62
256
6
ByLayer
370
18
48
1
60
1
100
AcDbPoint
10
34
20
3.48468
30
0
39
0
210
0
220
0
230
1
50
360
0
POINT
5
78
100
AcDbEntity
8
1
62
256
6
ByLayer
370
18
48
1
60
1
100
AcDbPoint
10
-0.020636
20
4
30
0
39
0
210
0
220
0
230
1
50
360
0
POINT
5
79
100
AcDbEntity
8
1
62
256
6
ByLayer
370
18
48
1
60
1
100
AcDbPoint
10
34
20
3.48468
30
0
39
0
210
0
220
0
230
1
50
360
0
POINT
5
7A
100
AcDbEntity
8
1
62
256
6
ByLayer
370
18
48
1
60
1
100
AcDbPoint
10
-36
20
0
30
0
39
0
210
0
220
0
230
1
50
360
0
POINT
5
7B
100
AcDbEntity
8
1
62
256
6
ByLayer
370
18
48
1
60
1
100
AcDbPoint
10
-36
20
0
30
0
39
0
210
0
220
0
230
1
50
360
0
POINT
5
7C
100
AcDbEntity
8
1
62
256
6
ByLayer
370
18
48
1
60
1
100
AcDbPoint
10
-0.020636
20
4
30
0
39
0
210
0
220
0
230
1
50
360
0
SPLINE
5
110
100
AcDbEntity
8
1
62
256
6
ByLayer
370
18
48
1
60
0
100
AcDbSpline
70
4
71
1
72
4
73
2
40
0
40
0
40
1
40
1
41
1
10
21.9573
20
-3.58613802576835
30
0
41
1
10
21.9573
20
-3.5860900595743
30
0
0
SPLINE
5
111
100
AcDbEntity
8
1
62
256
6
ByLayer
370
18
48
1
60
0
100
AcDbSpline
70
4
71
3
72
8
73
4
40
0
40
0
40
0
40
0
40
1
40
1
40
1
40
1
41
1
10
33.6391484490666
20
-2.89004766953334
30
0
41
1
10
33.7063879627214
20
-2.81929101158491
30
0
41
1
10
33.773623778968
20
-2.74836292439662
30
0
41
1
10
33.8408567897053
20
-2.67730476086706
30
0
0
SPLINE
5
112
100
AcDbEntity
8
1
62
256
6
ByLayer
370
18
48
1
60
0
100
AcDbSpline
70
4
71
3
72
14
73
10
40
0
40
0
40
0
40
0
40
0.25
40
0.25
40
0.5
40
0.5
40
0.75
40
0.75
40
1
40
1
40
1
40
1
41
1
10
33.8408792371874
20
-2.67796261158733
30
0
41
1
10
33.8428036823395
20
-2.66878547889814
30
0
41
1
10
33.8445485205762
20
-2.65945916649392
30
0
41
1
10
33.8475971590832
20
-2.64044021994386
30
0
41
1
10
33.8489013911122
20
-2.63069445648574
30
0
41
1
10
33.8508904620616
20
-2.61153167321226
30
0
41
1
10
33.8515910100336
20
-2.60203298579867
30
0
41
1
10
33.8523621033663
20
-2.58321284257499
30
0
41
1
10
33.852426879936
20
-2.57384085515957
30
0
41
1
10
33.8521704857614
20
-2.56483652696545
30
0
0
SPLINE
5
113
100
AcDbEntity
8
1
62
256
6
ByLayer
370
18
48
1
60
0
100
AcDbSpline
70
4
71
3
72
8
73
4
40
0
40
0
40
0
40
0
40
1
40
1
40
1
40
1
41
1
10
21.8184399708531
20
-3.5814831796055
30
0
41
1
10
21.8153857356111
20
-3.58319546184274
30
0
41
1
10
21.8126439513263
20
-3.58490125781972
30
0
41
1
10
21.8104046243362
20
-3.5865988014364
30
0
0
SPLINE
5
114
100
AcDbEntity
8
1
62
256
6
ByLayer
370
18
48
1
60
0
100
AcDbSpline
70
4
71
3
72
12
73
8
40
0
40
0
40
0
40
0
40
0.25
40
0.25
40
0.5
40
0.5
40
1
40
1
40
1
40
1
41
1
10
21.7572650903684
20
-3.54282776792388
30
0
41
1
10
21.7631579583531
20
-3.5456447679999
30
0
41
1
10
21.7686791191957
20
-3.54862857492549
30
0
41
1
10
21.7793567789051
20
-3.55478635288347
30
0
41
1
10
21.7845037643991
20
-3.55796389917447
30
0
41
1
10
21.7995824476265
20
-3.56771075742611
30
0
41
1
10
21.8091603374978
20
-3.57449118608341
30
0
41
1
10
21.8184399713655
20
-3.58148317976074
30
0
0
SPLINE
5
115
100
AcDbEntity
8
1
62
256
6
ByLayer
370
18
48
1
60
0
100
AcDbSpline
70
4
71
5
72
12
73
6
40
0
40
0
40
0
40
0
40
0
40
0
40
1
40
1
40
1
40
1
40
1
40
1
41
1
10
21.9573000005826
20
-3.58609005973989
30
0
41
1
10
21.9573000005825
20
-3.5670078634069
30
0
41
1
10
21.9573000005825
20
-3.54800805906086
30
0
41
1
10
21.9573
20
-3.52908995962574
30
0
41
1
10
21.9573
20
-3.51025289431047
30
0
41
1
10
21.9573
20
-3.49149620762765
30
0
0
SPLINE
5
116
100
AcDbEntity
8
1
62
256
6
ByLayer
370
18
48
1
60
0
100
AcDbSpline
70
4
71
3
72
8
73
4
40
0
40
0
40
0
40
0
40
1
40
1
40
1
40
1
41
1
10
33.5198379126893
20
3.32447622872843
30
0
41
1
10
33.5177834176054
20
3.32621627515047
30
0
41
1
10
33.5157397233287
20
3.32794779440064
30
0
41
1
10
33.5137068665547
20
3.32967089200017
30
0
0
SPLINE
5
117
100
AcDbEntity
8
1
62
256
6
ByLayer
370
18
48
1
60
0
100
AcDbSpline
70
4
71
2
72
6
73
3
40
0
40
0
40
0
40
1
40
1
40
1
41
0.500122159632081
10
33.9381373223621
20
1.20235716355962
30
0
41
0.499877840367919
10
33.9320742891623
20
1.18703029153518
30
0
41
0.500122159632081
10
33.9260105647402
20
1.17170165436378
30
0
0
SPLINE
5
118
100
AcDbEntity
8
1
62
256
6
ByLayer
370
18
48
1
60
0
100
AcDbSpline
70
4
71
3
72
14
73
10
40
0
40
0
40
0
40
0
40
0.5
40
0.5
40
0.625
40
0.625
40
0.75
40
0.75
40
1
40
1
40
1
40
1
41
1
10
33.9278440370894
20
2.7820623664679
30
-1E-16
41
1
10
33.8357895894306
20
2.87281534748655
30
-1E-16
41
1
10
33.7335870577022
20
2.95188256162169
30
0
41
1
10
33.5945885349535
20
3.03776727454957
30
0
41
1
10
33.5662137651628
20
3.05428201545254
30
-1E-16
41
1
10
33.5083274712262
20
3.08600249682885
30
1E-16
41
1
10
33.478736568645
20
3.10125165376431
30
1E-16
41
1
10
33.3891915586345
20
3.14471330056935
30
0
41
1
10
33.3283154904739
20
3.17062131180367
30
-1E-16
41
1
10
33.2664219772311
20
3.19388397148654
30
1E-16
0
SPLINE
5
119
100
AcDbEntity
8
1
62
256
6
ByLayer
370
18
48
1
60
0
100
AcDbSpline
70
4
71
3
72
10
73
6
40
0
40
0
40
0
40
0
40
0.5
40
0.5
40
1
40
1
40
1
40
1
41
1
10
33.179834555985
20
3.41762065833987
30
0
41
1
10
33.2361770339575
20
3.39973510815247
30
0
41
1
10
33.2926794347521
20
3.38288206700725
30
1E-16
41
1
10
33.4060727382551
20
3.35167138585805
30
-1E-16
41
1
10
33.4629100331198
20
3.33732788636388
30
0
41
1
10
33.5198379126892
20
3.32447622872846
30
0
0
SPLINE
5
11A
100
AcDbEntity
8
1
62
256
6
ByLayer
370
18
48
1
60
0
100
AcDbSpline
70
4
71
3
72
14
73
10
40
0
40
0
40
0
40
0
40
0.25
40
0.25
40
0.5
40
0.5
40
0.75
40
0.75
40
1
40
1
40
1
40
1
41
1
10
32.5561910925078
20
2.18234943055975
30
0
41
1
10
32.5470106521941
20
2.18625800479853
30
0
41
1
10
32.5385633169184
20
2.19021953543259
30
0
41
1
10
32.5230295804827
20
2.19865319289809
30
0
41
1
10
32.5159498737801
20
2.20312720300041
30
-1E-16
41
1
10
32.5031737602038
20
2.21291415763761
30
-1E-16
41
1
10
32.4974423031762
20
2.21825581434874
30
-1E-16
41
1
10
32.4872707575282
20
2.23010707012742
30
1E-16
41
1
10
32.482824283447
20
2.23661409722885
30
1E-16
41
1
10
32.478928532921
20
2.2438850947789
30
1E-16
0
SPLINE
5
11B
100
AcDbEntity
8
1
62
256
6
ByLayer
370
18
48
1
60
0
100
AcDbSpline
70
4
71
3
72
18
73
14
40
0
40
0
40
0
40
0
40
0.103939291899065
40
0.103939291899065
40
0.207878583798131
40
0.207878583798131
40
0.415757167596157
40
0.415757167596157
40
0.623635751394183
40
0.623635751394183
40
0.831514335192209
40
0.831514335192209
40
1
40
1
40
1
40
1
41
1
10
33.5694727083524
20
5.68E-14
30
0
41
1
10
33.5620302845787
20
0.0023428705265189
30
0
41
1
10
33.5547481595952
20
0.0049551517596456
30
0
41
1
10
33.5404877323438
20
0.0107921256693544
30
0
41
1
10
33.5335315118117
20
0.0140115797832436
30
0
41
1
10
33.5134279089029
20
0.0245104882740179
30
0
41
1
10
33.5009299696428
20
0.0326733498446572
30
0
41
1
10
33.4774717698706
20
0.0516801155897042
30
0
41
1
10
33.4664833600869
20
0.0625599463939182
30
0
41
1
10
33.4459409261512
20
0.0872479310447147
30
0
41
1
10
33.436655140685
20
0.100717049789608
30
0
41
1
10
33.4212474954983
20
0.126979413063964
30
0
41
1
10
33.414859884792
20
0.139416282063109
30
0
41
1
10
33.4089123009248
20
0.152477256845401
30
0
0
SPLINE
5
11C
100
AcDbEntity
8
1
62
256
6
ByLayer
370
18
48
1
60
0
100
AcDbSpline
70
4
71
5
72
12
73
6
40
0
40
0
40
0
40
0
40
0
40
0
40
1
40
1
40
1
40
1
40
1
40
1
41
1
10
21.9573000006889
20
-3.49149620768441
30
0
41
1
10
21.9573000006889
20
-3.44080406900798
30
0
41
1
10
21.9573000006889
20
-3.39021793903811
30
-1E-16
41
1
10
21.9573000006744
20
-3.33973649996702
30
1E-16
41
1
10
21.9573000006429
20
-3.28935847352696
30
-1E-16
41
1
10
21.9573000005974
20
-3.23908261848686
30
0
0
SPLINE
5
11D
100
AcDbEntity
8
1
62
256
6
ByLayer
370
18
48
1
60
0
100
AcDbSpline
70
4
71
3
72
8
73
4
40
0
40
0
40
0
40
0
40
1
40
1
40
1
40
1
41
1
10
33.179834555985
20
3.41762065833987
30
0
41
1
10
33.2141883470673
20
3.34532683390066
30
-1E-16
41
1
10
33.2435276000408
20
3.27088281344496
30
1E-16
41
1
10
33.2664219772311
20
3.19388397148654
30
1E-16
0
SPLINE
5
11E
100
AcDbEntity
8
1
62
256
6
ByLayer
370
18
48
1
60
0
100
AcDbSpline
70
4
71
3
72
30
73
26
40
0
40
0
40
0
40
0
40
0.124999999999999
40
0.124999999999999
40
0.187499999999998
40
0.187499999999998
40
0.249999999999997
40
0.249999999999997
40
0.374999999999996
40
0.374999999999996
40
0.437500000000004
40
0.437500000000004
40
0.500000000000013
40
0.562500000000022
40
0.562500000000022
40
0.625000000000031
40
0.625000000000031
40
0.750000000000047
40
0.750000000000047
40
0.812500000000035
40
0.812500000000035
40
0.875000000000023
40
0.937500000000012
40
0.937500000000012
40
1
40
1
40
1
40
1
41
1
10
32.478928532921
20
2.2438850947789
30
1E-16
41
1
10
32.4707404958379
20
2.25916718066193
30
0
41
1
10
32.4660495962861
20
2.27506441493125
30
0
41
1
10
32.4638328501578
20
2.30053977208132
30
-1E-16
41
1
10
32.463903607893
20
2.30930392415453
30
-1E-16
41
1
10
32.4656708342262
20
2.32751377659258
30
1E-16
41
1
10
32.4673547668484
20
2.3368132013014
30
1E-16
41
1
10
32.4746193481637
20
2.36530570539276
30
0
41
1
10
32.4823909990965
20
2.38514277837729
30
0
41
1
10
32.4982507697842
20
2.41663407515509
30
-1E-16
41
1
10
32.5041769653624
20
2.42728129425126
30
1E-16
41
1
10
32.5171317732213
20
2.44874050761987
30
0
41
1
10
32.5312166142203
20
2.47041844386453
30
0
41
1
10
32.5474884733112
20
2.49257527506362
30
-1E-16
41
1
10
32.5648705858826
20
2.51498175772099
30
1E-16
41
1
10
32.5740263884621
20
2.52618940548311
30
1E-16
41
1
10
32.6025741136494
20
2.55946520289441
30
0
41
1
10
32.6231349408927
20
2.58134664846736
30
-1E-16
41
1
10
32.6565255146765
20
2.6134534548531
30
0
41
1
10
32.6680232177521
20
2.62396520494863
30
0
41
1
10
32.6914181537855
20
2.64419032170207
30
0
41
1
10
32.7153231544692
20
2.6637245384789
30
0
41
1
10
32.7404011869937
20
2.68168273070165
30
0
41
1
10
32.7661909472189
20
2.69869175561001
30
0
41
1
10
32.7794643460836
20
2.70672732538097
30
0
41
1
10
32.7929304285183
20
2.71403762454429
30
0
0
SPLINE
5
11F
100
AcDbEntity
8
1
62
256
6
ByLayer
370
18
48
1
60
0
100
AcDbSpline
70
4
71
3
72
17
73
13
40
0
40
0
40
0
40
0
40
0.0625000000000052
40
0.0625000000000052
40
0.12500000000001
40
0.250000000000022
40
0.250000000000022
40
0.500000000000015
40
0.500000000000015
40
0.750000000000008
40
0.750000000000008
40
1
40
1
40
1
40
1
41
1
10
33.2664219772311
20
3.19388397148654
30
1E-16
41
1
10
33.2606843196348
20
3.18102447032516
30
1E-16
41
1
10
33.2545898025784
20
3.16822651824077
30
-1E-16
41
1
10
33.2418328954479
20
3.14306105285709
30
0
41
1
10
33.2218086662303
20
3.10586733218994
30
1E-16
41
1
10
33.1991724454696
20
3.07030297544588
30
-1E-16
41
1
10
33.1505390785511
20
3.0012708118501
30
1E-16
41
1
10
33.1136416315657
20
2.95804100685825
30
0
41
1
10
33.031375895931
20
2.87686551957376
30
-1E-16
41
1
10
32.9871164700408
20
2.83999464574998
30
0
41
1
10
32.8936286693887
20
2.77255400461351
30
-1E-16
41
1
10
32.8443608342748
20
2.74195752285129
30
0
41
1
10
32.7929304285182
20
2.71403762454426
30
0
0
SPLINE
5
120
100
AcDbEntity
8
1
62
256
6
ByLayer
370
18
48
1
60
0
100
AcDbSpline
70
4
71
3
72
10
73
6
40
0
40
0
40
0
40
0
40
0.5
40
0.5
40
1
40
1
40
1
40
1
41
1
10
33.5095029336205
20
1.80046952729205
30
0
41
1
10
33.5292901016528
20
1.76218428395845
30
-1E-16
41
1
10
33.5500079297524
20
1.72100829192118
30
0
41
1
10
33.5932610005202
20
1.63293856776096
30
2E-16
41
1
10
33.6157840847269
20
1.58606886933438
30
-2E-16
41
1
10
33.6391484490696
20
1.5364749250935
30
0
0
SPLINE
5
121
100
AcDbEntity
8
1
62
256
6
ByLayer
370
18
48
1
60
0
100
AcDbSpline
70
4
71
3
72
11
73
7
40
0
40
0
40
0
40
0
40
0.249999999999991
40
0.249999999999991
40
0.499999999999982
40
1
40
1
40
1
40
1
41
1
10
32.6610061755141
20
2.1421278032002
30
1E-16
41
1
10
32.731848167454
20
2.11716716518305
30
-1E-16
41
1
10
32.8027549534644
20
2.09126868392133
30
0
41
1
10
32.9445612713793
20
2.03767984293867
30
1E-16
41
1
10
33.1570117822
20
1.95470478246571
30
1E-16
41
1
10
33.3687037374362
20
1.86413790216642
30
1E-16
41
1
10
33.5095029336205
20
1.80046952729205
30
0
0
SPLINE
5
122
100
AcDbEntity
8
1
62
256
6
ByLayer
370
18
48
1
60
0
100
AcDbSpline
70
4
71
3
72
10
73
6
40
0
40
0
40
0
40
0
40
0.5
40
0.5
40
1
40
1
40
1
40
1
41
1
10
32.6610061755142
20
2.1421278032002
30
1E-16
41
1
10
32.640897318191
20
2.14921300640859
30
1E-16
41
1
10
32.6220377229728
20
2.15615310952447
30
1E-16
41
1
10
32.5869944746913
20
2.16960966353096
30
0
41
1
10
32.5708059692054
20
2.17612714339327
30
0
41
1
10
32.5561910925078
20
2.18234943055973
30
0
0
SPLINE
5
123
100
AcDbEntity
8
1
62
256
6
ByLayer
370
18
48
1
60
0
100
AcDbSpline
70
4
71
3
72
8
73
4
40
0
40
0
40
0
40
0
40
1
40
1
40
1
40
1
41
1
10
33.6438212040793
20
-1.31674009907516
30
0
41
1
10
33.7095029703941
20
-1.42884772849803
30
-2E-16
41
1
10
33.7751812226596
20
-1.54081867919823
30
1E-16
41
1
10
33.8408567897146
20
-1.65268518882164
30
-1E-16
0
SPLINE
5
124
100
AcDbEntity
8
1
62
256
6
ByLayer
370
18
48
1
60
0
100
AcDbSpline
70
4
71
3
72
8
73
4
40
0
40
0
40
0
40
0
40
1
40
1
40
1
40
1
41
1
10
21.9573000006727
20
2.62093055284643
30
1E-16
41
1
10
21.8355341757138
20
2.69601031955571
30
-1E-16
41
1
10
21.7144068046214
20
2.77209890532021
30
2E-16
41
1
10
21.5939095922939
20
2.84918319728143
30
0
0
SPLINE
5
125
100
AcDbEntity
8
1
62
256
6
ByLayer
370
18
48
1
60
0
100
AcDbSpline
70
4
71
3
72
16
73
12
40
0
40
0
40
0
40
0
40
0.250000000000025
40
0.250000000000025
40
0.50000000000005
40
0.50000000000005
40
0.625000000000045
40
0.625000000000045
40
0.750000000000039
40
0.750000000000039
40
1
40
1
40
1
40
1
41
1
10
33.5198379126892
20
-2.62843207686623
30
-1E-16
41
1
10
33.5675632841281
20
-2.60786218909402
30
-1E-16
41
1
10
33.6116831437505
20
-2.58528888554281
30
-2E-16
41
1
10
33.6935184621306
20
-2.53629674897746
30
2E-16
41
1
10
33.731224979931
20
-2.50986371113081
30
1E-16
41
1
10
33.7830442390694
20
-2.46722674665796
30
0
41
1
10
33.7995621613604
20
-2.45246962689228
30
0
41
1
10
33.8304805297245
20
-2.42243306207536
30
-1E-16
41
1
10
33.8449474640443
20
-2.40710790701687
30
-1E-16
41
1
10
33.8854472803349
20
-2.36023447069041
30
0
41
1
10
33.9085963702062
20
-2.3277723160879
30
-1E-16
41
1
10
33.9278440370889
20
-2.29417942287014
30
0
0
SPLINE
5
126
100
AcDbEntity
8
1
62
256
6
ByLayer
370
18
48
1
60
0
100
AcDbSpline
70
4
71
3
72
14
73
10
40
0
40
0
40
0
40
0
40
0.25
40
0.25
40
0.5
40
0.5
40
0.75
40
0.75
40
1
40
1
40
1
40
1
41
1
10
33.8408792371874
20
-1.65325929249093
30
-1E-16
41
1
10
33.8428036823395
20
-1.65092111021147
30
-1E-16
41
1
10
33.8445485205762
20
-1.64801046707842
30
-1E-16
41
1
10
33.8475971590832
20
-1.64078346116281
30
-2E-16
41
1
10
33.8489013911122
20
-1.63642642122358
30
-2E-16
41
1
10
33.8508904620616
20
-1.62640109590845
30
-2E-16
41
1
10
33.8515910100336
20
-1.62070841280368
30
-2E-16
41
1
10
33.8523621033664
20
-1.60786579193729
30
2E-16
41
1
10
33.8524268799362
20
-1.60066150551253
30
2E-16
41
1
10
33.8521704857615
20
-1.59293234635868
30
2E-16
0
SPLINE
5
127
100
AcDbEntity
8
1
62
256
6
ByLayer
370
18
48
1
60
0
100
AcDbSpline
70
4
71
3
72
29
73
25
40
0
40
0
40
0
40
0
40
0.0185268985817368
40
0.0368909778436341
40
0.0550915935964248
40
0.073128092147571
40
0.0909998115650833
40
0.108706082837841
40
0.126246230944535
40
0.143619575840771
40
0.160825433374033
40
0.287478627796008
40
0.411393394482762
40
0.532388477034706
40
0.650271167012247
40
0.689504120624501
40
0.728658778257164
40
0.767728626949636
40
0.806707111866763
40
0.845587661396784
40
0.884363714287952
40
0.923028749144669
40
0.961576313412641
40
1
40
1
40
1
40
1
41
1
10
33.4919560758927
20
-2.13138705730651
30
1E-16
41
1
10
33.4956172764878
20
-2.12957658393506
30
1E-16
41
1
10
33.5029075020719
20
-2.12597154811439
30
1E-16
41
1
10
33.513622110357
20
-2.12038845615589
30
1E-16
41
1
10
33.5241148229372
20
-2.11471376008359
30
1E-16
41
1
10
33.5343746938087
20
-2.1089389356429
30
1E-16
41
1
10
33.5444062575833
20
-2.10307355715705
30
0
41
1
10
33.5542101323057
20
-2.09712233916542
30
0
41
1
10
33.5637880905231
20
-2.09109126918369
30
0
41
1
10
33.5731419017998
20
-2.08498573512253
30
0
41
1
10
33.6016639510442
20
-2.06570101170115
30
0
41
1
10
33.6461742915592
20
-2.03091418761812
30
-1E-16
41
1
10
33.700333748057
20
-1.9765470520849
30
2E-16
41
1
10
33.7455077909227
20
-1.91815974101201
30
1E-16
41
1
10
33.7740750549464
20
-1.86985006095261
30
-1E-16
41
1
10
33.7912983614243
20
-1.83434147549195
30
-1E-16
41
1
10
33.8007227580746
20
-1.81268118421164
30
-2E-16
41
1
10
33.8092366720328
20
-1.79068112279629
30
2E-16
41
1
10
33.8168365083003
20
-1.768367431885
30
1E-16
41
1
10
33.8235175223498
20
-1.74576681506272
30
1E-16
41
1
10
33.8292840000833
20
-1.72290806289374
30
0
41
1
10
33.8341131269233
20
-1.69981316397926
30
0
41
1
10
33.8380887856205
20
-1.67653084768682
30
-1E-16
41
1
10
33.8399699231443
20
-1.66082546335059
30
-1E-16
41
1
10
33.840908978153
20
-1.65298540932051
30
-1E-16
0
SPLINE
5
128
100
AcDbEntity
8
1
62
256
6
ByLayer
370
18
48
1
60
0
100
AcDbSpline
70
4
71
3
72
40
73
36
40
0
40
0
40
0
40
0
40
0.124999999999997
40
0.124999999999997
40
0.156249999999996
40
0.156249999999996
40
0.187499999999995
40
0.187499999999995
40
0.249999999999993
40
0.249999999999993
40
0.281249999999992
40
0.281249999999992
40
0.312499999999992
40
0.312499999999992
40
0.37499999999999
40
0.37499999999999
40
0.437499999999988
40
0.437499999999988
40
0.499999999999986
40
0.499999999999986
40
0.62499999999999
40
0.62499999999999
40
0.687499999999992
40
0.687499999999992
40
0.749999999999994
40
0.749999999999994
40
0.812499999999996
40
0.812499999999996
40
0.843749999999997
40
0.843749999999997
40
0.874999999999997
40
0.874999999999997
40
0.937499999999999
40
0.937499999999999
40
1
40
1
40
1
40
1
41
1
10
33.5694727083524
20
5.68E-14
30
0
41
1
10
33.540263770431
20
-0.0144776720077857
30
0
41
1
10
33.5143977192123
20
-0.0284370928792441
30
0
41
1
10
33.4852395210583
20
-0.0420201084108953
30
0
41
1
10
33.4795904591585
20
-0.0445271709158419
30
0
41
1
10
33.4688015501415
20
-0.0489783815514784
30
0
41
1
10
33.4636342541671
20
-0.0509354856170887
30
0
41
1
10
33.4487491251222
20
-0.0559384488533112
30
0
41
1
10
33.4396447233555
20
-0.0581097724287645
30
0
41
1
10
33.4270169228048
20
-0.0594747947483825
30
0
41
1
10
33.4229653785225
20
-0.0596150541994689
30
0
41
1
10
33.4152530267033
20
-0.05926603099212
30
0
41
1
10
33.4116114534781
20
-0.0587808334074964
30
0
41
1
10
33.4012547292921
20
-0.0564737345347908
30
0
41
1
10
33.3951023471876
20
-0.0538018451048288
30
0
41
1
10
33.384049743183
20
-0.0466046367254478
30
0
41
1
10
33.3791414252465
20
-0.042067921554434
30
0
41
1
10
33.3705185503437
20
-0.0315525426628938
30
0
41
1
10
33.3668468139506
20
-0.0256367258502053
30
0
41
1
10
33.3575808883897
20
-0.0064408250560462
30
0
41
1
10
33.3536973581905
20
0.0082591697350267
30
0
41
1
10
33.3515509375885
20
0.0318948749185495
30
0
41
1
10
33.3514587082663
20
0.0400465783673098
30
0
41
1
10
33.3526992132604
20
0.0567593472414103
30
0
41
1
10
33.3540262806833
20
0.0652362644362938
30
0
41
1
10
33.3582898112422
20
0.0822612017953759
30
0
41
1
10
33.3612240932299
20
0.0908132450657035
30
0
41
1
10
33.3670869512242
20
0.103585231903679
30
0
41
1
10
33.3692861201251
20
0.10783311704526
30
0
41
1
10
33.3742393755817
20
0.11628769715324
30
-1E-16
41
1
10
33.3770039438914
20
0.120508468707527
30
1E-16
41
1
10
33.386178202983
20
0.132959382593356
30
0
41
1
10
33.3934249801932
20
0.140950024986438
30
0
41
1
10
33.4107635339331
20
0.155985080551602
30
0
41
1
10
33.4208408878957
20
0.163036561575012
30
0
41
1
10
33.4328796747769
20
0.169345313692219
30
0
0
SPLINE
5
129
100
AcDbEntity
8
1
62
256
6
ByLayer
370
18
48
1
60
0
100
AcDbSpline
70
4
71
3
72
14
73
10
40
0
40
0
40
0
40
0
40
0.25
40
0.25
40
0.5
40
0.5
40
0.75
40
0.75
40
1
40
1
40
1
40
1
41
1
10
32.6054847208363
20
-0.270739414031482
30
2E-16
41
1
10
32.5896525230792
20
-0.256997527407179
30
2E-16
41
1
10
32.575190095339
20
-0.242243574883048
30
1E-16
41
1
10
32.5488896331564
20
-0.210673954223125
30
0
41
1
10
32.5370281515472
20
-0.193818560411927
30
0
41
1
10
32.5159014169725
20
-0.158129265328085
30
-1E-16
41
1
10
32.5067572281715
20
-0.139513967078159
30
-1E-16
41
1
10
32.490969260782
20
-0.100891529136589
30
-2E-16
41
1
10
32.4844066948641
20
-0.0810900364936913
30
2E-16
41
1
10
32.478928532921
20
-0.0608551854955977
30
1E-16
0
SPLINE
5
12A
100
AcDbEntity
8
1
62
256
6
ByLayer
370
18
48
1
60
0
100
AcDbSpline
70
4
71
3
72
8
73
4
40
0
40
0
40
0
40
0
40
1
40
1
40
1
40
1
41
1
10
21.9573000006727
20
-3.23908261907334
30
0
41
1
10
21.8355341754055
20
-3.26646672062844
30
1E-16
41
1
10
21.7144068049265
20
-3.29687615937502
30
0
41
1
10
21.5939095922939
20
-3.33027161670381
30
0
0
SPLINE
5
12B
100
AcDbEntity
8
1
62
256
6
ByLayer
370
18
48
1
60
0
100
AcDbSpline
70
4
71
3
72
8
73
4
40
0
40
0
40
0
40
0
40
1
40
1
40
1
40
1
41
1
10
33.6391484490697
20
-2.89004766951501
30
0
41
1
10
33.6433706901944
20
-2.90395991971585
30
0
41
1
10
33.6468728611084
20
-2.917943569557
30
0
41
1
10
33.6496569185884
20
-2.93201195219658
30
0
0
SPLINE
5
12C
100
AcDbEntity
8
1
62
256
6
ByLayer
370
18
48
1
60
0
100
AcDbSpline
70
4
71
3
72
10
73
6
40
0
40
0
40
0
40
0
40
0.432322121393298
40
0.432322121393298
40
1
40
1
40
1
40
1
41
1
10
33.5238153822967
20
-2.62561251842951
30
0
41
1
10
33.5392215828045
20
-2.66756115353598
30
0
41
1
10
33.5551645091845
20
-2.70789572146103
30
0
41
1
10
33.5932610005202
20
-2.79734207991282
30
0
41
1
10
33.6157840847269
20
-2.84521598740949
30
0
41
1
10
33.6391484490696
20
-2.89004766951513
30
0
0
SPLINE
5
12D
100
AcDbEntity
8
1
62
256
6
ByLayer
370
18
48
1
60
0
100
AcDbSpline
70
4
71
3
72
27
73
23
40
0
40
0
40
0
40
0
40
0.0275903277769221
40
0.0662452469130693
40
0.104900166049216
40
0.143555085185364
40
0.182210004321511
40
0.240192383025732
40
0.298174761729952
40
0.356157140434173
40
0.414139519138394
40
0.452794438274541
40
0.491449357410688
40
0.549431736114909
40
0.60741411481913
40
0.665396493523351
40
0.723378872227571
40
0.781361250931792
40
0.839343629636013
40
0.916653467908307
40
0.993963306180602
40
1
40
1
40
1
40
1
41
1
10
32.3869404773737
20
-2.30993133081219
30
0
41
1
10
32.2974030265825
20
-2.28472911411444
30
0
41
1
10
32.0824207841246
20
-2.22090024298629
30
-1E-16
41
1
10
31.74199375
20
-2.10779879161382
30
1E-16
41
1
10
31.365659375
20
-1.9682041073612
30
-1E-16
41
1
10
30.989325
20
-1.81431645532891
30
0
41
1
10
30.5502682291667
20
-1.61864299537919
30
-2E-16
41
1
10
30.0484890625
20
-1.37444300598955
30
1E-16
41
1
10
29.4839875
20
-1.07776573173979
30
-1E-16
41
1
10
28.9194859375
20
-0.764995922602594
30
0
41
1
10
28.4177067708333
20
-0.477173628825881
30
-2E-16
41
1
10
27.97865
20
-0.2205149446078
30
1E-16
41
1
10
27.5395932291666
20
0.039264148286037
30
-1E-16
41
1
10
27.0378140625
20
0.337095088742757
30
1E-16
41
1
10
26.4733125
20
0.666312873817134
30
2E-16
41
1
10
25.9088109375
20
0.983530503058688
30
-1E-16
41
1
10
25.344309375
20
1.28384320295348
30
1E-16
41
1
10
24.7798078125
20
1.56404371491294
30
-1E-16
41
1
10
24.1525838541667
20
1.84917634527611
30
1E-16
41
1
10
23.4626375
20
2.12049846554251
30
-1E-16
41
1
10
22.9412677659371
20
2.28264644186169
30
0
41
1
10
22.6707876152077
20
2.35371090231232
30
0
41
1
10
22.6511970478115
20
2.35878923267424
30
0
0
SPLINE
5
12E
100
AcDbEntity
8
1
62
256
6
ByLayer
370
18
48
1
60
0
100
AcDbSpline
70
4
71
3
72
12
73
8
40
0
40
0
40
0
40
0
40
0.25
40
0.25
40
0.5
40
0.5
40
1
40
1
40
1
40
1
41
1
10
21.7572650903684
20
2.3248382736671
30
-1E-16
41
1
10
21.7631579583531
20
2.31272169293905
30
-1E-16
41
1
10
21.7686791191956
20
2.30061406377419
30
-1E-16
41
1
10
21.7793567789051
20
2.27642553153552
30
0
41
1
10
21.784503764399
20
2.2643443879978
30
0
41
1
10
21.7995824476265
20
2.22814462849954
30
1E-16
41
1
10
21.8091603374978
20
2.20406995065133
30
2E-16
41
1
10
21.8184399713655
20
2.18005504563843
30
2E-16
0
SPLINE
5
12F
100
AcDbEntity
8
1
62
256
6
ByLayer
370
18
48
1
60
0
100
AcDbSpline
70
4
71
3
72
8
73
4
40
0
40
0
40
0
40
0
40
1
40
1
40
1
40
1
41
1
10
33.64382120408
20
-1.31674009907479
30
0
41
1
10
33.6483588109861
20
-1.35211333134257
30
1E-16
41
1
10
33.6515374137068
20
-1.38765464510479
30
1E-16
41
1
10
33.653312147004
20
-1.42336418386546
30
-2E-16
0
SPLINE
5
130
100
AcDbEntity
8
1
62
256
6
ByLayer
370
18
48
1
60
0
100
AcDbSpline
70
4
71
3
72
10
73
6
40
0
40
0
40
0
40
0
40
0.5
40
0.5
40
1
40
1
40
1
40
1
41
1
10
33.544316153891
20
-0.850827759067073
30
2E-16
41
1
10
33.559599403352
20
-0.928155720066627
30
0
41
1
10
33.5755357767544
20
-1.00567914781172
30
1E-16
41
1
10
33.6087289301111
20
-1.16111738593472
30
1E-16
41
1
10
33.6259659079808
20
-1.23893662331662
30
-2E-16
41
1
10
33.6438212040797
20
-1.31674009907499
30
0
0
SPLINE
5
131
100
AcDbEntity
8
1
62
256
6
ByLayer
370
18
48
1
60
0
100
AcDbSpline
70
4
71
3
72
10
73
6
40
0
40
0
40
0
40
0
40
0.5
40
0.5
40
1
40
1
40
1
40
1
41
1
10
32.6602294845267
20
-0.31082009309489
30
-2E-16
41
1
10
32.8077884943152
20
-0.401868076215265
30
1E-16
41
1
10
32.9552634618785
20
-0.492389558129702
30
-2E-16
41
1
10
33.2500546833634
20
-0.672438225063189
30
-2E-16
41
1
10
33.3974571863583
20
-0.762016237194501
30
0
41
1
10
33.544316153891
20
-0.850827759067045
30
2E-16
0
SPLINE
5
132
100
AcDbEntity
8
1
62
256
6
ByLayer
370
18
48
1
60
0
100
AcDbSpline
70
4
71
3
72
8
73
4
40
0
40
0
40
0
40
0
40
1
40
1
40
1
40
1
41
1
10
32.6602294845267
20
-0.310820093094918
30
-2E-16
41
1
10
32.6409212917034
20
-0.29890640502677
30
-2E-16
41
1
10
32.6226227770997
20
-0.285614747960665
30
-2E-16
41
1
10
32.6054847208363
20
-0.270739414031482
30
2E-16
0
SPLINE
5
133
100
AcDbEntity
8
1
62
256
6
ByLayer
370
18
48
1
60
0
100
AcDbSpline
70
4
71
3
72
8
73
4
40
0
40
0
40
0
40
0
40
1
40
1
40
1
40
1
41
1
10
21.8184399708531
20
2.18005504548836
30
2E-16
41
1
10
21.8153857364806
20
2.16227379632997
30
-2E-16
41
1
10
21.8126439520711
20
2.14446149538009
30
-1E-16
41
1
10
21.8104046243359
20
2.12660049752338
30
-1E-16
0
SPLINE
5
134
100
AcDbEntity
8
1
62
256
6
ByLayer
370
18
48
1
60
0
100
AcDbSpline
70
4
71
3
72
8
73
4
40
0
40
0
40
0
40
0
40
1
40
1
40
1
40
1
41
1
10
21.8104046243593
20
2.12660049752083
30
-1E-16
41
1
10
21.8594576141505
20
2.10625397676157
30
0
41
1
10
21.9084275566624
20
2.08594313778883
30
0
41
1
10
21.9573
20
2.06564517673093
30
0
0
SPLINE
5
135
100
AcDbEntity
8
1
62
256
6
ByLayer
370
18
48
1
60
0
100
AcDbSpline
70
4
71
3
72
8
73
4
40
0
40
0
40
0
40
0
40
1
40
1
40
1
40
1
41
1
10
21.7572650903684
20
2.14088811153695
30
-1E-16
41
1
10
21.7752405690405
20
2.13440418483577
30
-1E-16
41
1
10
21.7929728030048
20
2.12966414888936
30
-1E-16
41
1
10
21.8104046243585
20
2.12660049752631
30
-1E-16
0
SPLINE
5
136
100
AcDbEntity
8
1
62
256
6
ByLayer
370
18
48
1
60
0
100
AcDbSpline
70
4
71
3
72
14
73
10
40
0
40
0
40
0
40
0
40
0.25
40
0.25
40
0.5
40
0.5
40
0.75
40
0.75
40
1
40
1
40
1
40
1
41
1
10
33.653312147004
20
-1.42336418386546
30
-2E-16
41
1
10
33.6567757905
20
-1.45297698632129
30
-1E-16
41
1
10
33.6602246596006
20
-1.48232841573386
30
-1E-16
41
1
10
33.6676238800168
20
-1.54044035747288
30
1E-16
41
1
10
33.6715818534626
20
-1.5692272238318
30
1E-16
41
1
10
33.6803443689558
20
-1.62543470074024
30
-2E-16
41
1
10
33.6851762421166
20
-1.65302717812642
30
-1E-16
41
1
10
33.6959386463349
20
-1.70656854063097
30
0
41
1
10
33.7018653401662
20
-1.73251771027339
30
1E-16
41
1
10
33.7084213418219
20
-1.7576904209543
30
1E-16
0
SPLINE
5
137
100
AcDbEntity
8
1
62
256
6
ByLayer
370
18
48
1
60
0
100
AcDbSpline
70
4
71
3
72
16
73
12
40
0
40
0
40
0
40
0
40
0.284015658961653
40
0.284015658961653
40
0.426023488442486
40
0.426023488442486
40
0.568031317923319
40
0.568031317923319
40
0.852046976885002
40
0.852046976885002
40
1
40
1
40
1
40
1
41
1
10
33.6496569185883
20
-2.93201195219658
30
0
41
1
10
33.6534617402121
20
-2.94693429121619
30
0
41
1
10
33.6571401511644
20
-2.95996944070515
30
0
41
1
10
33.663000667945
20
-2.9765972847934
30
0
41
1
10
33.665014529364
20
-2.98165938240979
30
0
41
1
10
33.6692096475553
20
-2.99073878785038
30
0
41
1
10
33.6713924353955
20
-2.99476293074622
30
0
41
1
10
33.6782998566804
20
-3.00531644413195
30
0
41
1
10
33.6834104445209
20
-3.01033262850032
30
0
41
1
10
33.6921504918667
20
-3.01494920938728
30
0
41
1
10
33.6953169332802
20
-3.01599982547765
30
0
41
1
10
33.6986723157754
20
-3.01654356067746
30
0
0
SPLINE
5
138
100
AcDbEntity
8
1
62
256
6
ByLayer
370
18
48
1
60
0
100
AcDbSpline
70
4
71
3
72
30
73
26
40
0
40
0
40
0
40
0
40
0.0352927085880825
40
0.068305415620065
40
0.101318122652048
40
0.13433082968403
40
0.167343536716013
40
0.200356243747995
40
0.233368950779978
40
0.26638165781196
40
0.315900718359934
40
0.365419778907908
40
0.414938839455882
40
0.464457900003856
40
0.497470607035838
40
0.530483314067821
40
0.580002374615795
40
0.629521435163769
40
0.679040495711742
40
0.728559556259716
40
0.77807861680769
40
0.827597677355664
40
0.893623091419629
40
0.959648505483594
40
1
40
1
40
1
40
1
41
1
10
33.6496569185883
20
-2.93201195219658
30
0
41
1
10
33.5155483623922
20
-2.93100303278385
30
0
41
1
10
33.2559950145295
20
-2.92133076300493
30
0
41
1
10
32.870996875
20
-2.88473250343284
30
0
41
1
10
32.4946625000001
20
-2.82823577812286
30
0
41
1
10
32.118328125
20
-2.75142246437807
30
0
41
1
10
31.74199375
20
-2.65494420263465
30
0
41
1
10
31.365659375
20
-2.53953269492706
30
0
41
1
10
30.989325
20
-2.40578202986055
30
1E-16
41
1
10
30.5502682291667
20
-2.22954506678343
30
-1E-16
41
1
10
30.0484890625
20
-2.00115642265169
30
-2E-16
41
1
10
29.4839875
20
-1.71204136149279
30
0
41
1
10
28.9194859375
20
-1.39549729517247
30
2E-16
41
1
10
28.4177067708333
20
-1.09416738854967
30
-1E-16
41
1
10
27.97865
20
-0.819092285911893
30
1E-16
41
1
10
27.5395932291666
20
-0.537233220698056
30
-1E-16
41
1
10
27.0378140625
20
-0.208187190314192
30
0
41
1
10
26.4733125
20
0.165336910936617
30
1E-16
41
1
10
25.9088109375
20
0.535982628579575
30
1E-16
41
1
10
25.344309375
20
0.897659549363311
30
1E-16
41
1
10
24.7798078125
20
1.24478100391212
30
2E-16
41
1
10
24.1525838541667
20
1.60863839367147
30
-2E-16
41
1
10
23.4626375
20
1.97321375750823
30
-2E-16
41
1
10
22.8075269261833
20
2.270092977492
30
-1E-16
41
1
10
22.4033059356997
20
2.42429870171989
30
-1E-16
41
1
10
22.2499745285496
20
2.47829981212402
30
-1E-16
0
SPLINE
5
139
100
AcDbEntity
8
1
62
256
6
ByLayer
370
18
48
1
60
0
100
AcDbSpline
70
4
71
3
72
25
73
21
40
0
40
0
40
0
40
0
40
0.250000000000013
40
0.250000000000013
40
0.375000000000011
40
0.375000000000011
40
0.500000000000009
40
0.500000000000009
40
0.562500000000008
40
0.562500000000008
40
0.625000000000007
40
0.687500000000005
40
0.687500000000005
40
0.750000000000004
40
0.750000000000004
40
0.875000000000003
40
0.875000000000003
40
0.937500000000002
40
0.937500000000002
40
1
40
1
40
1
40
1
41
1
10
33.7084213418219
20
-1.75769042095433
30
1E-16
41
1
10
33.7127119532056
20
-1.77416470123436
30
2E-16
41
1
10
33.7161881063179
20
-1.7913601815614
30
2E-16
41
1
10
33.7195435861495
20
-1.81867463612633
30
-2E-16
41
1
10
33.7203496207726
20
-1.82811731134777
30
-2E-16
41
1
10
33.7210775663073
20
-1.84727111056344
30
-1E-16
41
1
10
33.7210046464102
20
-1.8569210261096
30
-1E-16
41
1
10
33.720049899376
20
-1.87152943388571
30
-1E-16
41
1
10
33.719584689462
20
-1.87645396715686
30
0
41
1
10
33.7183509354629
20
-1.88614195977678
30
0
41
1
10
33.7168175042635
20
-1.89568154042868
30
0
41
1
10
33.7146476657991
20
-1.90491037095597
30
0
41
1
10
33.7121346183911
20
-1.91397387022874
30
0
41
1
10
33.7106942545413
20
-1.91845482090542
30
1E-16
41
1
10
33.705899419242
20
-1.93139299562438
30
1E-16
41
1
10
33.7021308425294
20
-1.93923265499697
30
1E-16
41
1
10
33.6956764712689
20
-1.94992785051034
30
1E-16
41
1
10
33.6933819318655
20
-1.953323972303
30
1E-16
41
1
10
33.6886200862387
20
-1.95965944038292
30
2E-16
41
1
10
33.6861448129233
20
-1.96261462893236
30
2E-16
41
1
10
33.6835825313657
20
-1.96537753065149
30
2E-16
0
SPLINE
5
13A
100
AcDbEntity
8
1
62
256
6
ByLayer
370
18
48
1
60
0
100
AcDbSpline
70
4
71
3
72
10
73
6
40
0
40
0
40
0
40
0
40
0.725386812952972
40
0.725386812952972
40
1
40
1
40
1
40
1
41
1
10
33.7084213418219
20
-3.01677607470253
30
0
41
1
10
33.7127119532056
20
-3.0163506021845
30
0
41
1
10
33.7161881063178
20
-3.01751828983086
30
0
41
1
10
33.7192719596695
20
-3.02217169788545
30
0
41
1
10
33.7199397015452
20
-3.02378517083676
30
0
41
1
10
33.720372063527
20
-3.02577105961711
30
0
0
SPLINE
5
13B
100
AcDbEntity
8
1
62
256
6
ByLayer
370
18
48
1
60
0
100
AcDbSpline
70
4
71
3
72
8
73
4
40
0
40
0
40
0
40
0
40
1
40
1
40
1
40
1
41
1
10
33.6391484490667
20
1.53647492509657
30
0
41
1
10
33.7063879627215
20
1.3534850968793
30
-1E-16
41
1
10
33.773623778968
20
1.17046999510276
30
-1E-16
41
1
10
33.8408567897053
20
0.987435716364473
30
-1E-16
0
SPLINE
5
13C
100
AcDbEntity
8
1
62
256
6
ByLayer
370
18
48
1
60
0
100
AcDbSpline
70
4
71
3
72
8
73
4
40
0
40
0
40
0
40
0
40
1
40
1
40
1
40
1
41
1
10
33.6391484490697
20
1.5364749250935
30
0
41
1
10
33.6433706901943
20
1.52269674606248
30
0
41
1
10
33.6468728611083
20
1.50886940585804
30
0
41
1
10
33.6496569185883
20
1.49500660735973
30
1E-16
0
SPLINE
5
13D
100
AcDbEntity
8
1
62
256
6
ByLayer
370
18
48
1
60
0
100
AcDbSpline
70
4
71
3
72
16
73
12
40
0
40
0
40
0
40
0
40
0.249999999999992
40
0.249999999999992
40
0.374999999999994
40
0.374999999999994
40
0.499999999999995
40
0.499999999999995
40
0.749999999999997
40
0.749999999999997
40
1
40
1
40
1
40
1
41
1
10
33.6496569185884
20
1.49500660735973
30
1E-16
41
1
10
33.6534617402122
20
1.47766550505929
30
1E-16
41
1
10
33.6571401511645
20
1.45868033773971
30
1E-16
41
1
10
33.663000667945
20
1.42771487576226
30
2E-16
41
1
10
33.665014529364
20
1.41695848887142
30
-2E-16
41
1
10
33.6692096475553
20
1.3947607946331
30
-2E-16
41
1
10
33.6713924353955
20
1.38331172126897
30
-1E-16
41
1
10
33.6782998566803
20
1.34794645344883
30
0
41
1
10
33.6834104445209
20
1.32291445162591
30
0
41
1
10
33.6949034550527
20
1.27093571723501
30
1E-16
41
1
10
33.7012870934701
20
1.24397674799763
30
2E-16
41
1
10
33.708421341822
20
1.21615970868012
30
-2E-16
0
SPLINE
5
13E
100
AcDbEntity
8
1
62
256
6
ByLayer
370
18
48
1
60
0
100
AcDbSpline
70
4
71
3
72
25
73
21
40
0
40
0
40
0
40
0
40
0.250000000000002
40
0.250000000000002
40
0.375000000000013
40
0.375000000000013
40
0.500000000000024
40
0.500000000000024
40
0.562500000000023
40
0.562500000000023
40
0.625000000000022
40
0.68750000000002
40
0.68750000000002
40
0.750000000000019
40
0.750000000000019
40
0.875000000000012
40
0.875000000000012
40
0.937500000000006
40
0.937500000000006
40
1
40
1
40
1
40
1
41
1
10
33.7084213418219
20
1.2161597086801
30
-2E-16
41
1
10
33.7127119532056
20
1.19943032762231
30
-1E-16
41
1
10
33.7161881063179
20
1.18354820306885
30
-1E-16
41
1
10
33.7195435861495
20
1.1614643965205
30
-1E-16
41
1
10
33.7203496207726
20
1.15434229254393
30
0
41
1
10
33.7210775663073
20
1.14114599368543
30
0
41
1
10
33.7210046464102
20
1.13510372981992
30
0
41
1
10
33.7200498993761
20
1.12706285025121
30
0
41
1
10
33.719584689462
20
1.1245398190618
30
0
41
1
10
33.7183509354628
20
1.11998282859861
30
0
41
1
10
33.7168175506768
20
1.11590202890318
30
1E-16
41
1
10
33.7146476657991
20
1.11280935935804
30
1E-16
41
1
10
33.7121346183911
20
1.11023756590683
30
1E-16
41
1
10
33.7106942545413
20
1.10920720093426
30
1E-16
41
1
10
33.705899419242
20
1.10699128198561
30
1E-16
41
1
10
33.7021308425294
20
1.106677935504
30
1E-16
41
1
10
33.6956764712689
20
1.10776450412141
30
1E-16
41
1
10
33.6933819318656
20
1.10839222431261
30
1E-16
41
1
10
33.6886200862388
20
1.11011138634927
30
1E-16
41
1
10
33.6861448129233
20
1.11120262296785
30
1E-16
41
1
10
33.6835825313657
20
1.11250228045316
30
1E-16
0
SPLINE
5
13F
100
AcDbEntity
8
1
62
256
6
ByLayer
370
18
48
1
60
0
100
AcDbSpline
70
4
71
3
72
8
73
4
40
0
40
0
40
0
40
0
40
1
40
1
40
1
40
1
41
1
10
21.8184399708531
20
-1.34316055748087
30
0
41
1
10
21.8152650351235
20
-1.36358968583025
30
1E-16
41
1
10
21.8124273913859
20
-1.38404571974888
30
1E-16
41
1
10
21.8101415234676
20
-1.4045468191992
30
2E-16
0
SPLINE
5
140
100
AcDbEntity
8
1
62
256
6
ByLayer
370
18
48
1
60
0
100
AcDbSpline
70
4
71
3
72
14
73
10
40
0
40
0
40
0
40
0
40
0.499999999999961
40
0.499999999999961
40
0.624999999999993
40
0.624999999999993
40
0.750000000000026
40
0.750000000000026
40
1
40
1
40
1
40
1
41
1
10
33.6835825313657
20
1.11250228045327
30
1E-16
41
1
10
33.6555960470932
20
1.12669764675377
30
0
41
1
10
33.6240591216548
20
1.14452342376518
30
0
41
1
10
33.5806734962375
20
1.17100168242075
30
-1E-16
41
1
10
33.5717946464534
20
1.17650921672143
30
-1E-16
41
1
10
33.553640983308
20
1.18794066968118
30
-1E-16
41
1
10
33.5443418803007
20
1.19388047086102
30
-1E-16
41
1
10
33.5161784020277
20
1.21210513672673
30
-2E-16
41
1
10
33.4969850151026
20
1.22483247593252
30
-2E-16
41
1
10
33.4774133113272
20
1.23806988027886
30
2E-16
0
SPLINE
5
141
100
AcDbEntity
8
1
62
256
6
ByLayer
370
18
48
1
60
0
100
AcDbSpline
70
4
71
3
72
8
73
4
40
0
40
0
40
0
40
0
40
1
40
1
40
1
40
1
41
1
10
33.4919345697621
20
1.1757404041652
30
-1E-16
41
1
10
33.487037316705
20
1.19652787452176
30
-1E-16
41
1
10
33.4821985444141
20
1.21730421982957
30
-2E-16
41
1
10
33.4774133113281
20
1.23806988027917
30
2E-16
0
SPLINE
5
142
100
AcDbEntity
8
1
62
256
6
ByLayer
370
18
48
1
60
0
100
AcDbSpline
70
4
71
3
72
14
73
10
40
0
40
0
40
0
40
0
40
0.25
40
0.25
40
0.5
40
0.5
40
0.75
40
0.75
40
1
40
1
40
1
40
1
41
1
10
33.8408792371874
20
0.987511977794952
30
-1E-16
41
1
10
33.8428036823395
20
0.980833174704856
30
-1E-16
41
1
10
33.8445485205761
20
0.97457500433697
30
-1E-16
41
1
10
33.8475971590832
20
0.963091558127985
30
0
41
1
10
33.8489013911122
20
0.957854490581013
30
0
41
1
10
33.8508904620616
20
0.949000899991688
30
0
41
1
10
33.8515910100336
20
0.945328496957728
30
0
41
1
10
33.8523621033662
20
0.939600321153819
30
0
41
1
10
33.8524268799361
20
0.937548839714736
30
0
41
1
10
33.8521704857615
20
0.936377396277948
30
0
0
SPLINE
5
143
100
AcDbEntity
8
1
62
256
6
ByLayer
370
18
48
1
60
0
100
AcDbSpline
70
4
71
3
72
29
73
25
40
0
40
0
40
0
40
0
40
0.0185268968840523
40
0.0368909744780219
40
0.0550915885925514
40
0.0731280855354746
40
0.090999803374888
40
0.108706073099914
40
0.126246219689402
40
0.143619563099153
40
0.160825419176874
40
0.287478615733888
40
0.411393384509519
40
0.532388469101122
40
0.650271161065855
40
0.689504115345223
40
0.728658773643707
40
0.767728623000519
40
0.806707108580416
40
0.84558765877153
40
0.884363712321988
40
0.923028747836092
40
0.961576312759417
40
1
40
1
40
1
40
1
41
1
10
33.4919560859526
20
1.17571497631985
30
-1E-16
41
1
10
33.4956172861104
20
1.17426062901285
30
-1E-16
41
1
10
33.5029075108266
20
1.17136471558916
30
-1E-16
41
1
10
33.513622117855
20
1.16706294118754
30
-1E-16
41
1
10
33.524114829224
20
1.16281692465412
30
-1E-16
41
1
10
33.5343746989321
20
1.1586286461168
30
-1E-16
41
1
10
33.5444062615901
20
1.1544980287083
30
0
41
1
10
33.5542101352426
20
1.1504254504097
30
0
41
1
10
33.563788092436
20
1.14641108528914
30
0
41
1
10
33.5731419027344
20
1.14245506736199
30
0
41
1
10
33.6016639513342
20
1.13028046396474
30
0
41
1
10
33.6461742915594
20
1.11050653169366
30
1E-16
41
1
10
33.7003337480569
20
1.08449966877419
30
1E-16
41
1
10
33.7455077909227
20
1.06071079812725
30
2E-16
41
1
10
33.774075054947
20
1.04382766406692
30
2E-16
41
1
10
33.7912983614257
20
1.03260447722295
30
-2E-16
41
1
10
33.8007227580773
20
1.02610014932608
30
-2E-16
41
1
10
33.8092366720364
20
1.01982904447232
30
-2E-16
41
1
10
33.8168365083046
20
1.01379739966501
30
-2E-16
41
1
10
33.8235175223545
20
1.00801165300211
30
-1E-16
41
1
10
33.829284000088
20
1.00247552433322
30
-1E-16
41
1
10
33.834113126928
20
0.997200048482512
30
-1E-16
41
1
10
33.8380887856247
20
0.992166454233285
30
-1E-16
41
1
10
33.839969923148
20
0.9890259217959
30
-1E-16
41
1
10
33.8409089781564
20
0.987458182766687
30
-1E-16
0
SPLINE
5
144
100
AcDbEntity
8
1
62
256
6
ByLayer
370
18
48
1
60
0
100
AcDbSpline
70
4
71
3
72
12
73
8
40
0
40
0
40
0
40
0
40
0.250000000000001
40
0.250000000000001
40
0.500000000000002
40
0.500000000000002
40
1
40
1
40
1
40
1
41
1
10
33.513706866555
20
0.65493449973863
30
-2E-16
41
1
10
33.5157197661649
20
0.697683353033995
30
1E-16
41
1
10
33.5158421635757
20
0.740765582613363
30
0
41
1
10
33.5143447840234
20
0.827227829830576
30
-2E-16
41
1
10
33.5126702084914
20
0.870617278876637
30
2E-16
41
1
10
33.5060283115002
20
1.00104150916735
30
-1E-16
41
1
10
33.4994790141197
20
1.08832497559851
30
1E-16
41
1
10
33.491966761301
20
1.17571074361604
30
-1E-16
0
SPLINE
5
145
100
AcDbEntity
8
1
62
256
6
ByLayer
370
18
48
1
60
0
100
AcDbSpline
70
4
71
5
72
12
73
6
40
0
40
0
40
0
40
0
40
0
40
0
40
1
40
1
40
1
40
1
40
1
40
1
41
1
10
21.9573
20
-1.4633130465148
30
-1E-16
41
1
10
21.9573
20
-1.46321245577474
30
-1E-16
41
1
10
21.9573
20
-1.46311186523346
30
-1E-16
41
1
10
21.9573
20
-1.46301127489093
30
-1E-16
41
1
10
21.9573
20
-1.46291068474719
30
-1E-16
41
1
10
21.9573
20
-1.46281009480222
30
-1E-16
0
SPLINE
5
146
100
AcDbEntity
8
1
62
256
6
ByLayer
370
18
48
1
60
0
100
AcDbSpline
70
4
71
3
72
8
73
4
40
0
40
0
40
0
40
0
40
1
40
1
40
1
40
1
41
1
10
21.9573000000075
20
-1.46331304651523
30
-1E-16
41
1
10
22.2627065585995
20
-1.70215145245916
30
0
41
1
10
22.5633683663744
20
-1.93616787564233
30
1E-16
41
1
10
22.8633922922468
20
-2.16035613655672
30
2E-16
0
SPLINE
5
147
100
AcDbEntity
8
1
62
256
6
ByLayer
370
18
48
1
60
0
100
AcDbSpline
70
4
71
3
72
12
73
8
40
0
40
0
40
0
40
0
40
0.25
40
0.25
40
0.5
40
0.5
40
1
40
1
40
1
40
1
41
1
10
21.7572650903684
20
-1.15868049625078
30
1E-16
41
1
10
21.7631579583531
20
-1.1737055065822
30
1E-16
41
1
10
21.7686791191957
20
-1.18888657718946
30
1E-16
41
1
10
21.7793567789051
20
-1.21940994610884
30
2E-16
41
1
10
21.784503764399
20
-1.23475602596042
30
-2E-16
41
1
10
21.7995824476265
20
-1.2809621892599
30
-1E-16
41
1
10
21.8091603374978
20
-1.31198685585909
30
0
41
1
10
21.8184399713655
20
-1.34316055748298
30
0
0
SPLINE
5
148
100
AcDbEntity
8
1
62
256
6
ByLayer
370
18
48
1
60
0
100
AcDbSpline
70
4
71
5
72
12
73
6
40
0
40
0
40
0
40
0
40
0
40
0
40
1
40
1
40
1
40
1
40
1
40
1
41
1
10
21.9573000005826
20
-1.46281009486816
30
-1E-16
41
1
10
21.9573000005825
20
-1.40061396920609
30
2E-16
41
1
10
21.9573000005825
20
-1.33843507217722
30
0
41
1
10
21.9573
20
-1.27627339835655
30
-1E-16
41
1
10
21.9573
20
-1.21412894547532
30
2E-16
41
1
10
21.9573
20
-1.15200171478338
30
0
0
SPLINE
5
149
100
AcDbEntity
8
1
62
256
6
ByLayer
370
18
48
1
60
0
100
AcDbSpline
70
4
71
3
72
14
73
10
40
0
40
0
40
0
40
0
40
0.500000000000022
40
0.500000000000022
40
0.625000000000016
40
0.625000000000016
40
0.750000000000011
40
0.750000000000011
40
1
40
1
40
1
40
1
41
1
10
33.9278440370894
20
0.436659655065625
30
-1E-16
41
1
10
33.8357895894306
20
0.450656772573979
30
-2E-16
41
1
10
33.7335870577021
20
0.463395518008156
30
-2E-16
41
1
10
33.5945885349535
20
0.477924514705165
30
2E-16
41
1
10
33.5662137651628
20
0.480759005408032
30
2E-16
41
1
10
33.5083274712261
20
0.486287028192464
30
2E-16
41
1
10
33.478736568645
20
0.488988130256757
30
2E-16
41
1
10
33.3891915586345
20
0.49681530579079
30
2E-16
41
1
10
33.3283154904738
20
0.501666539402976
30
2E-16
41
1
10
33.2664219772311
20
0.506201268554264
30
1E-16
0
SPLINE
5
14A
100
AcDbEntity
8
1
62
256
6
ByLayer
370
18
48
1
60
0
100
AcDbSpline
70
4
71
3
72
16
73
12
40
0
40
0
40
0
40
0
40
0.249999999999976
40
0.249999999999976
40
0.499999999999951
40
0.499999999999951
40
0.624999999999957
40
0.624999999999957
40
0.749999999999962
40
0.749999999999962
40
1
40
1
40
1
40
1
41
1
10
33.5198379126893
20
0.635955734688821
30
-2E-16
41
1
10
33.5675632841282
20
0.623766736569479
30
-1E-16
41
1
10
33.6116831437505
20
0.610078672067033
30
-1E-16
41
1
10
33.6935184621306
20
0.580376216261726
30
0
41
1
10
33.731224979931
20
0.56436893910498
30
0
41
1
10
33.7830442390696
20
0.538801379619088
30
1E-16
41
1
10
33.7995621613605
20
0.529986347856294
30
1E-16
41
1
10
33.8304805297245
20
0.512119950059883
30
1E-16
41
1
10
33.8449474640444
20
0.503037408281443
30
2E-16
41
1
10
33.8854472803349
20
0.475354083110773
30
2E-16
41
1
10
33.9085963702062
20
0.456345233568726
30
-2E-16
41
1
10
33.9278440370889
20
0.436659655065455
30
-1E-16
0
SPLINE
5
14B
100
AcDbEntity
8
1
62
256
6
ByLayer
370
18
48
1
60
0
100
AcDbSpline
70
4
71
3
72
8
73
4
40
0
40
0
40
0
40
0
40
1
40
1
40
1
40
1
41
1
10
21.8101415234883
20
-1.4045468192007
30
2E-16
41
1
10
21.8592950438338
20
-1.4236889792989
30
-2E-16
41
1
10
21.9083523900784
20
-1.44326664706566
30
-2E-16
41
1
10
21.9573
20
-1.46331304650937
30
-1E-16
0
SPLINE
5
14C
100
AcDbEntity
8
1
62
256
6
ByLayer
370
18
48
1
60
0
100
AcDbSpline
70
4
71
3
72
8
73
4
40
0
40
0
40
0
40
0
40
1
40
1
40
1
40
1
41
1
10
21.7572650903688
20
-1.38163804313046
30
1E-16
41
1
10
21.7751558427298
20
-1.38872544016874
30
1E-16
41
1
10
21.7927998162573
20
-1.39632026651137
30
2E-16
41
1
10
21.8101415234876
20
-1.40454681920207
30
2E-16
0
SPLINE
5
14D
100
AcDbEntity
8
1
62
256
6
ByLayer
370
18
48
1
60
0
100
AcDbSpline
70
4
71
3
72
10
73
6
40
0
40
0
40
0
40
0
40
0.5
40
0.5
40
1
40
1
40
1
40
1
41
1
10
33.1798345559849
20
0.644817386366526
30
-2E-16
41
1
10
33.2361770339575
20
0.6392844957318
30
-2E-16
41
1
10
33.2926794347521
20
0.635799505868306
30
-2E-16
41
1
10
33.4060727382551
20
0.632868914451336
30
-2E-16
41
1
10
33.4629100331199
20
0.633416029637061
30
-2E-16
41
1
10
33.5198379126893
20
0.635955734688821
30
-2E-16
0
SPLINE
5
14E
100
AcDbEntity
8
1
62
256
6
ByLayer
370
18
48
1
60
0
100
AcDbSpline
70
4
71
3
72
8
73
4
40
0
40
0
40
0
40
0
40
1
40
1
40
1
40
1
41
1
10
33.5198379126893
20
0.635955734688821
30
-2E-16
41
1
10
33.5177834176054
20
0.642280789847234
30
-2E-16
41
1
10
33.5157397233286
20
0.648607032989133
30
-2E-16
41
1
10
33.5137068665546
20
0.654934499738886
30
-2E-16
0
SPLINE
5
14F
100
AcDbEntity
8
1
62
256
6
ByLayer
370
18
48
1
60
0
100
AcDbSpline
70
4
71
3
72
42
73
38
40
0
40
0
40
0
40
0
40
0.0266920291641063
40
0.053495376805315
40
0.0804099810586126
40
0.107435778241955
40
0.134572702959684
40
0.161820688212025
40
0.189179665510987
40
0.216649565002697
40
0.244230315596317
40
0.271921845099883
40
0.29972408036295
40
0.327636947426444
40
0.355660371679817
40
0.383794278025539
40
0.412038591051329
40
0.440393235210038
40
0.468858135006487
40
0.497433215086608
40
0.526118400384862
40
0.55491361654331
40
0.58381879015132
40
0.612833848970969
40
0.641958722171248
40
0.671193340571486
40
0.700537636894025
40
0.729991546026458
40
0.759555005293449
40
0.789227954738564
40
0.819010337415973
40
0.848902099692532
40
0.878903191560175
40
0.909013566958931
40
0.939233184110728
40
0.969562005863137
40
1
40
1
40
1
40
1
41
1
10
29.4428698145863
20
3.38327617057439
30
1E-16
41
1
10
29.4327631986988
20
3.38833954331397
30
1E-16
41
1
10
29.4125078175212
20
3.3984874054695
30
0
41
1
10
29.3820658618068
20
3.41352019156773
30
0
41
1
10
29.3515005929887
20
3.42845144462069
30
0
41
1
10
29.3208123297815
20
3.44326237125944
30
-1E-16
41
1
10
29.290000986175
20
3.45795425631903
30
-1E-16
41
1
10
29.2590665852745
20
3.47252294068761
30
1E-16
41
1
10
29.2280091207627
20
3.48696570233645
30
0
41
1
10
29.1968285942506
20
3.50127940109707
30
0
41
1
10
29.1655250052071
20
3.51546097876141
30
0
41
1
10
29.1340983536741
20
3.52950732419902
30
-1E-16
41
1
10
29.1025486395344
20
3.54341530965945
30
-1E-16
41
1
10
29.0708758627088
20
3.55718178092769
30
1E-16
41
1
10
29.0390800231034
20
3.57080355992176
30
1E-16
41
1
10
29.0071611206225
20
3.58427744393498
30
0
41
1
10
28.9751191551679
20
3.59760020579452
30
0
41
1
10
28.9429541266298
20
3.61076859373625
30
0
41
1
10
28.9106660349657
20
3.62377933148409
30
-1E-16
41
1
10
28.8782548801111
20
3.63662911770228
30
-1E-16
41
1
10
28.8457206618027
20
3.64931462540568
30
1E-16
41
1
10
28.8130633799252
20
3.66183250326699
30
1E-16
41
1
10
28.7802830343524
20
3.67417937538784
30
1E-16
41
1
10
28.7473796249576
20
3.68635184132251
30
0
41
1
10
28.7143531516085
20
3.69834647600177
30
0
41
1
10
28.6812036141678
20
3.71015982976269
30
0
41
1
10
28.6479310124939
20
3.72178842805369
30
-1E-16
41
1
10
28.6145353464382
20
3.73322877234423
30
-1E-16
41
1
10
28.5810166158542
20
3.74447733652261
30
1E-16
41
1
10
28.5473748205632
20
3.75553058022996
30
1E-16
41
1
10
28.513609960482
20
3.76638489863896
30
1E-16
41
1
10
28.4797220351439
20
3.77703681074368
30
0
41
1
10
28.4457110454958
20
3.78748225260782
30
0
41
1
10
28.4115769871535
20
3.79771922930544
30
0
41
1
10
28.377319875712
20
3.80773786348746
30
0
41
1
10
28.3429396517881
20
3.81755773664267
30
-1E-16
41
1
10
28.3199788197024
20
3.82389970278442
30
-1E-16
41
1
10
28.3084777781853
20
3.82707638277685
30
-1E-16
0
SPLINE
5
150
100
AcDbEntity
8
1
62
256
6
ByLayer
370
18
48
1
60
0
100
AcDbSpline
70
4
71
3
72
47
73
43
40
0
40
0
40
0
40
0
40
0.0266866587482906
40
0.0532884827281822
40
0.0798053941443043
40
0.106237306382671
40
0.132584124489277
40
0.15884574563741
40
0.185022059583827
40
0.211112949453544
40
0.237118293725948
40
0.263037965203064
40
0.288871830678251
40
0.314619751345094
40
0.340281583197038
40
0.365857177416639
40
0.391346380754586
40
0.416749035898524
40
0.442064981831642
40
0.467294054181215
40
0.492436085556977
40
0.517490905879618
40
0.542458342699309
40
0.567338221504432
40
0.592130366041141
40
0.61683459899808
40
0.641450742218942
40
0.665978616567782
40
0.690418042171384
40
0.714768838669225
40
0.739030825454967
40
0.763203821909828
40
0.787287647627726
40
0.81128212263235
40
0.835187067586251
40
0.85900230399205
40
0.882727654385729
40
0.906362942522399
40
0.929907993554202
40
0.953362634200903
40
0.97672669291278
40
1
40
1
40
1
40
1
41
1
10
30.8857319349103
20
2.48893405545041
30
-1E-16
41
1
10
30.8728309080677
20
2.49820515665655
30
-1E-16
41
1
10
30.8470698657221
20
2.51671788697453
30
-1E-16
41
1
10
30.8085048173222
20
2.54421038334243
30
-2E-16
41
1
10
30.7700737514875
20
2.57144303172976
30
2E-16
41
1
10
30.7317777388638
20
2.59839858566485
30
1E-16
41
1
10
30.6936164935398
20
2.62508069965528
30
1E-16
41
1
10
30.6555900913364
20
2.65148750667493
30
0
41
1
10
30.6176985115446
20
2.67761866392439
30
-1E-16
41
1
10
30.5799417577759
20
2.7034734744062
30
-1E-16
41
1
10
30.5423198296792
20
2.72905138793948
30
-2E-16
41
1
10
30.5048327278187
20
2.75435186702347
30
2E-16
41
1
10
30.4674804517804
20
2.77937442149371
30
1E-16
41
1
10
30.430263001323
20
2.80411859857406
30
1E-16
41
1
10
30.3931803761678
20
2.82858398519673
30
0
41
1
10
30.3562325760555
20
2.85277020711163
30
0
41
1
10
30.3194196007305
20
2.87667692884619
30
-1E-16
41
1
10
30.2827414499451
20
2.90030385343221
30
-1E-16
41
1
10
30.2461981234585
20
2.92365072218954
30
-2E-16
41
1
10
30.2097896210371
20
2.94671731448773
30
2E-16
41
1
10
30.1735159424533
20
2.96950344751198
30
1E-16
41
1
10
30.1373770874897
20
2.99200897600809
30
1E-16
41
1
10
30.1013730559235
20
3.0142337920804
30
0
41
1
10
30.065503847573
20
3.03617782478085
30
0
41
1
10
30.0297694618902
20
3.0578410405906
30
-1E-16
41
1
10
29.9941698987392
20
3.07922344043575
30
-1E-16
41
1
10
29.958705158275
20
3.1003250600626
30
-2E-16
41
1
10
29.9233752402939
20
3.12114597223754
30
-2E-16
41
1
10
29.8881801446318
20
3.14168628573739
30
2E-16
41
1
10
29.8531198711196
20
3.16194614518525
30
1E-16
41
1
10
29.8181944195955
20
3.18192573076715
30
1E-16
41
1
10
29.7834037899063
20
3.20162525770317
30
0
41
1
10
29.7487479818908
20
3.22104497680056
30
0
41
1
10
29.7142269954436
20
3.24018517092844
30
0
41
1
10
29.6798408302771
20
3.25904616662873
30
-1E-16
41
1
10
29.6455894868045
20
3.27762828953723
30
-1E-16
41
1
10
29.6114729628638
20
3.29593202831785
30
-2E-16
41
1
10
29.577491265873
20
3.31395742480342
30
-2E-16
41
1
10
29.5436443677243
20
3.33170633553479
30
2E-16
41
1
10
29.509932372158
20
3.34917403838779
30
1E-16
41
1
10
29.4763548937245
20
3.3663803750714
30
1E-16
41
1
10
29.454017018546
20
3.37765154959752
30
1E-16
41
1
10
29.4428698145862
20
3.38327617057442
30
1E-16
0
SPLINE
5
151
100
AcDbEntity
8
1
62
256
6
ByLayer
370
18
48
1
60
0
100
AcDbSpline
70
4
71
3
72
14
73
10
40
0
40
0
40
0
40
0
40
0.249999999999992
40
0.249999999999992
40
0.374999999999996
40
0.374999999999996
40
0.5
40
0.5
40
1
40
1
40
1
40
1
41
1
10
32.3370461282753
20
1.35091124522367
30
-1E-16
41
1
10
32.2151071919283
20
1.45185523467413
30
2E-16
41
1
10
32.0935454364081
20
1.55179440679251
30
-1E-16
41
1
10
31.9113855361475
20
1.69979555688403
30
0
41
1
10
31.8506577190569
20
1.74884277057305
30
-1E-16
41
1
10
31.7294313959519
20
1.8460456952825
30
1E-16
41
1
10
31.6689341218227
20
1.89420065342065
30
0
41
1
10
31.3668692852804
20
2.13256762373348
30
-1E-16
41
1
10
31.1265367158767
20
2.31552868567533
30
-1E-16
41
1
10
30.8857319349088
20
2.48893405545149
30
-1E-16
0
SPLINE
5
152
100
AcDbEntity
8
1
62
256
6
ByLayer
370
18
48
1
60
0
100
AcDbSpline
70
4
71
3
72
8
73
4
40
0
40
0
40
0
40
0
40
1
40
1
40
1
40
1
41
1
10
21.9573000006727
20
-0.559011537841087
30
0
41
1
10
21.8355946090097
20
-0.510314875954606
30
-1E-16
41
1
10
21.7144664070904
20
-0.463567572979315
30
2E-16
41
1
10
21.5939095922932
20
-0.418750024095317
30
1E-16
0
SPLINE
5
153
100
AcDbEntity
8
1
62
256
6
ByLayer
370
18
48
1
60
0
100
AcDbSpline
70
4
71
3
72
10
73
6
40
0
40
0
40
0
40
0
40
0.5
40
0.5
40
1
40
1
40
1
40
1
41
1
10
19.3226419081984
20
-3.59844324319411
30
0
41
1
10
19.2994538171237
20
-3.59554784534879
30
0
41
1
10
19.2809513734891
20
-3.58860843673617
30
0
41
1
10
19.2521152583458
20
-3.56642073496829
30
0
41
1
10
19.2417822798207
20
-3.55117374400712
30
0
41
1
10
19.2351011138011
20
-3.53159891539209
30
-1E-16
0
SPLINE
5
154
100
AcDbEntity
8
1
62
256
6
ByLayer
370
18
48
1
60
0
100
AcDbSpline
70
4
71
3
72
20
73
16
40
0
40
0
40
0
40
0
40
0.25
40
0.25
40
0.375
40
0.375
40
0.5
40
0.5
40
0.625
40
0.625
40
0.75
40
0.75
40
0.875
40
0.875
40
1
40
1
40
1
40
1
41
1
10
19.2351011138011
20
-3.53159891539209
30
-1E-16
41
1
10
19.2343683860268
20
-3.52945213134868
30
1E-16
41
1
10
19.2349583234017
20
-3.52727602771077
30
0
41
1
10
19.2385683515304
20
-3.52398492843719
30
0
41
1
10
19.2402241022269
20
-3.52289832368072
30
0
41
1
10
19.2443994863284
20
-3.52080583565427
30
0
41
1
10
19.2469271941187
20
-3.51979188630929
30
0
41
1
10
19.2528892570931
20
-3.51783613125562
30
0
41
1
10
19.2563358224057
20
-3.51689541919723
30
0
41
1
10
19.2638142975139
20
-3.51516321586328
30
0
41
1
10
19.2678760426763
20
-3.51436067978676
30
0
41
1
10
19.2765723092451
20
-3.51287252157488
30
0
41
1
10
19.2811883086666
20
-3.51219118345142
30
0
41
1
10
19.2907077659818
20
-3.5109606751719
30
0
41
1
10
19.2956360625793
20
-3.51040723404014
30
0
41
1
10
19.3007068764928
20
-3.50990719332887
30
0
0
SPLINE
5
155
100
AcDbEntity
8
1
62
256
6
ByLayer
370
18
48
1
60
0
100
AcDbSpline
70
4
71
3
72
10
73
6
40
0
40
0
40
0
40
0
40
0.5
40
0.5
40
1
40
1
40
1
40
1
41
1
10
21.7035334717867
20
-3.49462464379619
30
0
41
1
10
21.7076515786122
20
-3.50409440516123
30
0
41
1
10
21.7141384358041
20
-3.51283924768109
30
0
41
1
10
21.7320815936244
20
-3.52894016826286
30
1E-16
41
1
10
21.7434644041569
20
-3.53623055003135
30
0
41
1
10
21.757265090369
20
-3.54282776792411
30
0
0
SPLINE
5
156
100
AcDbEntity
8
1
62
256
6
ByLayer
370
18
48
1
60
0
100
AcDbSpline
70
4
71
3
72
14
73
10
40
0
40
0
40
0
40
0
40
0.250000000000007
40
0.250000000000007
40
0.375000000000009
40
0.375000000000009
40
0.500000000000011
40
0.500000000000011
40
1
40
1
40
1
40
1
41
1
10
21.5939095922931
20
-3.33027161670412
30
0
41
1
10
21.5953336131985
20
-3.34729808337204
30
1E-16
41
1
10
21.5985520158764
20
-3.36355425037883
30
1E-16
41
1
10
21.6062985970641
20
-3.38677883179253
30
-1E-16
41
1
10
21.6093677734036
20
-3.39432703036593
30
0
41
1
10
21.6165243136164
20
-3.40903545607952
30
0
41
1
10
21.6206055822155
20
-3.41617727554447
30
0
41
1
10
21.6434186953676
20
-3.45061081625988
30
1E-16
41
1
10
21.6694702870012
20
-3.47431698989615
30
0
41
1
10
21.7035334726239
20
-3.49462464382799
30
0
0
SPLINE
5
157
100
AcDbEntity
8
1
62
256
6
ByLayer
370
18
48
1
60
0
100
AcDbSpline
70
4
71
3
72
30
73
26
40
0
40
0
40
0
40
0
40
0.249999999999977
40
0.249999999999977
40
0.374999999999965
40
0.374999999999965
40
0.499999999999952
40
0.499999999999952
40
0.562499999999959
40
0.562499999999959
40
0.624999999999965
40
0.624999999999965
40
0.687499999999972
40
0.687499999999972
40
0.718749999999975
40
0.718749999999975
40
0.749999999999978
40
0.749999999999978
40
0.812499999999983
40
0.812499999999983
40
0.874999999999989
40
0.874999999999989
40
0.937499999999994
40
0.937499999999994
40
1
40
1
40
1
40
1
41
1
10
19.1472774107989
20
-2.12201790475103
30
1E-16
41
1
10
19.1301320843413
20
-2.10658699486766
30
1E-16
41
1
10
19.1137358031964
20
-2.09057994305007
30
0
41
1
10
19.0911630166097
20
-2.06507821106362
30
0
41
1
10
19.0840065916234
20
-2.05634963003857
30
-1E-16
41
1
10
19.0708618124224
20
-2.03834182132203
30
-1E-16
41
1
10
19.0648460190688
20
-2.02905862363443
30
-1E-16
41
1
10
19.0572667230877
20
-2.01442861094719
30
-2E-16
41
1
10
19.0549732103378
20
-2.00939819478336
30
-2E-16
41
1
10
19.0511700362108
20
-1.99918903181549
30
-2E-16
41
1
10
19.0496560366632
20
-1.99401977131583
30
-2E-16
41
1
10
19.0477354478535
20
-1.98350239542367
30
2E-16
41
1
10
19.0473208584027
20
-1.97811366895317
30
2E-16
41
1
10
19.0480169116408
20
-1.96995918641133
30
2E-16
41
1
10
19.0484670538297
20
-1.96727446941381
30
2E-16
41
1
10
19.0498737377576
20
-1.96198386791568
30
2E-16
41
1
10
19.0508412876993
20
-1.95935623788955
30
1E-16
41
1
10
19.0545649565258
20
-1.95177200611477
30
1E-16
41
1
10
19.0581103550362
20
-1.94718377267574
30
1E-16
41
1
10
19.0670662282099
20
-1.93919476159397
30
1E-16
41
1
10
19.0723355867209
20
-1.93590533472783
30
1E-16
41
1
10
19.0836741396034
20
-1.93055544021931
30
1E-16
41
1
10
19.0896496485502
20
-1.92851444725713
30
1E-16
41
1
10
19.1020054637149
20
-1.92527298483566
30
1E-16
41
1
10
19.1083877720644
20
-1.92408254681928
30
1E-16
41
1
10
19.1148141493384
20
-1.92321356000122
30
1E-16
0
SPLINE
5
158
100
AcDbEntity
8
1
62
256
6
ByLayer
370
18
48
1
60
0
100
AcDbSpline
70
4
71
3
72
18
73
14
40
0
40
0
40
0
40
0
40
0.250000000000023
40
0.250000000000023
40
0.500000000000046
40
0.500000000000046
40
0.625000000000035
40
0.625000000000035
40
0.750000000000023
40
0.750000000000023
40
0.875000000000012
40
0.875000000000012
40
1
40
1
40
1
40
1
41
1
10
19.1148141493389
20
-1.92321356000164
30
1E-16
41
1
10
19.1421587754706
20
-1.91951596824163
30
1E-16
41
1
10
19.1689181489992
20
-1.91388667205473
30
0
41
1
10
19.2202631755729
20
-1.89606899621464
30
0
41
1
10
19.2438202555424
20
-1.88422201877961
30
0
41
1
10
19.2741910620234
20
-1.85965777016196
30
-1E-16
41
1
10
19.2830605636904
20
-1.85064242921479
30
-1E-16
41
1
10
19.2982864892464
20
-1.83092854930482
30
-2E-16
41
1
10
19.3046597455975
20
-1.82012457944646
30
-2E-16
41
1
10
19.3145227868865
20
-1.79785272463647
30
2E-16
41
1
10
19.3181149724445
20
-1.78628658144353
30
2E-16
41
1
10
19.3230475076788
20
-1.76246032646222
30
1E-16
41
1
10
19.3243513023353
20
-1.75040558167734
30
1E-16
41
1
10
19.3247498692824
20
-1.73823040673787
30
1E-16
0
SPLINE
5
159
100
AcDbEntity
8
1
62
256
6
ByLayer
370
18
48
1
60
0
100
AcDbSpline
70
4
71
3
72
10
73
6
40
0
40
0
40
0
40
0
40
0.5
40
0.5
40
1
40
1
40
1
40
1
41
1
10
19.3247498692801
20
-1.73823040673838
30
1E-16
41
1
10
19.3163577989907
20
-1.6460142482168
30
-1E-16
41
1
10
19.3129455225094
20
-1.55194186637846
30
1E-16
41
1
10
19.3142170913575
20
-1.36012484836291
30
1E-16
41
1
10
19.3189080892552
20
-1.26238021317576
30
-2E-16
41
1
10
19.3270638160407
20
-1.1627775095383
30
1E-16
0
SPLINE
5
15A
100
AcDbEntity
8
1
62
256
6
ByLayer
370
18
48
1
60
0
100
AcDbSpline
70
4
71
3
72
16
73
12
40
0
40
0
40
0
40
0
40
0.250000000000051
40
0.250000000000051
40
0.375000000000041
40
0.375000000000041
40
0.500000000000032
40
0.500000000000032
40
0.750000000000016
40
0.750000000000016
40
1
40
1
40
1
40
1
41
1
10
19.3270638160407
20
-1.16277750953833
30
1E-16
41
1
10
19.3277623328753
20
-1.15424679644641
30
0
41
1
10
19.3294979297722
20
-1.14594934786911
30
0
41
1
10
19.3339334694237
20
-1.13392116333023
30
0
41
1
10
19.3357395576954
20
-1.12994950316215
30
0
41
1
10
19.339893119225
20
-1.12239078829594
30
0
41
1
10
19.3422396203679
20
-1.11878840259177
30
0
41
1
10
19.3500510918365
20
-1.10848908896614
30
-1E-16
41
1
10
19.3563942933069
20
-1.10223244965764
30
-1E-16
41
1
10
19.3702842735875
20
-1.09148236455283
30
-1E-16
41
1
10
19.3778386507508
20
-1.08692010559298
30
-1E-16
41
1
10
19.3858672573917
20
-1.08299219199247
30
-1E-16
0
SPLINE
5
15B
100
AcDbEntity
8
1
62
256
6
ByLayer
370
18
48
1
60
0
100
AcDbSpline
70
4
71
3
72
32
73
28
40
0
40
0
40
0
40
0
40
0.0312499999999964
40
0.0312499999999964
40
0.0624999999999928
40
0.0624999999999928
40
0.124999999999994
40
0.124999999999994
40
0.15624999999999
40
0.15624999999999
40
0.187499999999986
40
0.187499999999986
40
0.249999999999988
40
0.249999999999988
40
0.312499999999989
40
0.312499999999989
40
0.37499999999999
40
0.37499999999999
40
0.437499999999991
40
0.437499999999991
40
0.499999999999992
40
0.499999999999992
40
0.624999999999994
40
0.624999999999994
40
0.749999999999996
40
0.749999999999996
40
1
40
1
40
1
40
1
41
1
10
19.3858672573917
20
-1.08299219199247
30
-1E-16
41
1
10
19.4089130072633
20
-1.07171729481502
30
-2E-16
41
1
10
19.4323279442605
20
-1.06172770977821
30
-2E-16
41
1
10
19.4797352354397
20
-1.04376936805161
30
-2E-16
41
1
10
19.503728711522
20
-1.03580441420499
30
2E-16
41
1
10
19.5764217346205
20
-1.01441459000975
30
2E-16
41
1
10
19.6258257782396
20
-1.00346718847041
30
1E-16
41
1
10
19.7009735758034
20
-0.99073567828043
30
1E-16
41
1
10
19.7261990603534
20
-0.987115607788724
30
1E-16
41
1
10
19.7769632578788
20
-0.980986982315414
30
1E-16
41
1
10
19.8025101576461
20
-0.978480352027873
30
1E-16
41
1
10
19.8790339861575
20
-0.972500021765597
30
1E-16
41
1
10
19.9300850632448
20
-0.970529000480013
30
1E-16
41
1
10
20.0322438310183
20
-0.969834788014452
30
1E-16
41
1
10
20.0833516244877
20
-0.971117314937175
30
1E-16
41
1
10
20.1856152013574
20
-0.97643268774894
30
1E-16
41
1
10
20.2366629080548
20
-0.980463837433035
30
1E-16
41
1
10
20.3383851176895
20
-0.990857309184804
30
1E-16
41
1
10
20.3890988460072
20
-0.997223348943294
30
1E-16
41
1
10
20.4902671469626
20
-1.01200061266286
30
2E-16
41
1
10
20.5407570557161
20
-1.0204203352047
30
2E-16
41
1
10
20.6914441155321
20
-1.04832709039164
30
-2E-16
41
1
10
20.7909668767048
20
-1.07045524024127
30
-2E-16
41
1
10
20.9884855168305
20
-1.12033297390033
30
0
41
1
10
21.0865399602398
20
-1.14811127377368
30
0
41
1
10
21.3783529448938
20
-1.23824068913945
30
-2E-16
41
1
10
21.5691553708335
20
-1.30711863543888
30
0
41
1
10
21.7572650903685
20
-1.38163804313092
30
1E-16
0
SPLINE
5
15C
100
AcDbEntity
8
1
62
256
6
ByLayer
370
18
48
1
60
0
100
AcDbSpline
70
4
71
3
72
10
73
6
40
0
40
0
40
0
40
0
40
0.5
40
0.5
40
1
40
1
40
1
40
1
41
1
10
21.7035334717867
20
-0.937998349727138
30
0
41
1
10
21.7076515786122
20
-0.976064689756782
30
1E-16
41
1
10
21.714138435804
20
-1.01357638834926
30
2E-16
41
1
10
21.7320815936243
20
-1.08744229916758
30
-1E-16
41
1
10
21.7434644041568
20
-1.12349296898091
30
0
41
1
10
21.757265090369
20
-1.15868049625209
30
1E-16
0
SPLINE
5
15D
100
AcDbEntity
8
1
62
256
6
ByLayer
370
18
48
1
60
0
100
AcDbSpline
70
4
71
3
72
14
73
10
40
0
40
0
40
0
40
0
40
0.25
40
0.25
40
0.375
40
0.375
40
0.499999999999999
40
0.499999999999999
40
1
40
1
40
1
40
1
41
1
10
21.5939095922931
20
-0.418750024095289
30
1E-16
41
1
10
21.5953336131984
20
-0.463277745773354
30
2E-16
41
1
10
21.5985520158763
20
-0.507718935504727
30
-1E-16
41
1
10
21.606298597064
20
-0.574250146013469
30
0
41
1
10
21.6093677734034
20
-0.596405447662818
30
1E-16
41
1
10
21.6165243136162
20
-0.640672309116297
30
2E-16
41
1
10
21.6206055822154
20
-0.66273100261634
30
2E-16
41
1
10
21.6434186953675
20
-0.771904012149207
30
0
41
1
10
21.6694702870012
20
-0.856366085843092
30
-2E-16
41
1
10
21.7035334726239
20
-0.937998349854922
30
0
0
SPLINE
5
15E
100
AcDbEntity
8
1
62
256
6
ByLayer
370
18
48
1
60
0
100
AcDbSpline
70
4
71
3
72
30
73
26
40
0
40
0
40
0
40
0
40
0.249999999999998
40
0.249999999999998
40
0.374999999999996
40
0.374999999999996
40
0.499999999999994
40
0.499999999999994
40
0.562500000000008
40
0.562500000000008
40
0.625000000000021
40
0.625000000000021
40
0.687500000000034
40
0.687500000000034
40
0.718750000000041
40
0.718750000000041
40
0.750000000000048
40
0.750000000000048
40
0.812500000000036
40
0.812500000000036
40
0.875000000000024
40
0.875000000000024
40
0.937500000000012
40
0.937500000000012
40
1
40
1
40
1
40
1
41
1
10
19.1472774107972
20
1.51470603395558
30
0
41
1
10
19.1301320843396
20
1.53203514658992
30
0
41
1
10
19.1137358031948
20
1.54984982805993
30
-1E-16
41
1
10
19.0911630166082
20
1.57792937515825
30
-1E-16
41
1
10
19.0840065916219
20
1.58749226684557
30
-2E-16
41
1
10
19.0708618124209
20
1.6071122211583
30
-2E-16
41
1
10
19.0648460190673
20
1.61717421893314
30
2E-16
41
1
10
19.0572667230862
20
1.6329366211281
30
2E-16
41
1
10
19.0549732103364
20
1.63834096307681
30
2E-16
41
1
10
19.0511700362093
20
1.64927504527844
30
1E-16
41
1
10
19.0496560366618
20
1.65479484705654
30
1E-16
41
1
10
19.0477354478521
20
1.66599014497225
30
1E-16
41
1
10
19.0473208584013
20
1.67170863301524
30
1E-16
41
1
10
19.0480169116395
20
1.68033400573083
30
1E-16
41
1
10
19.0484670538284
20
1.68316914933118
30
1E-16
41
1
10
19.0498737377563
20
1.68874763562332
30
0
41
1
10
19.050841287698
20
1.69151382646925
30
0
41
1
10
19.0545649565246
20
1.69948638184147
30
0
41
1
10
19.0581103550349
20
1.70429372430672
30
0
41
1
10
19.0670662282086
20
1.71264721486435
30
0
41
1
10
19.0723355867197
20
1.7160773754598
30
0
41
1
10
19.0836741396021
20
1.72164971573778
30
0
41
1
10
19.089649648549
20
1.72377160577108
30
0
41
1
10
19.1020054637136
20
1.72713955023028
30
0
41
1
10
19.1083877720632
20
1.72837499921332
30
-1E-16
41
1
10
19.1148141493372
20
1.72927660629375
30
-1E-16
0
SPLINE
5
15F
100
AcDbEntity
8
1
62
256
6
ByLayer
370
18
48
1
60
0
100
AcDbSpline
70
4
71
3
72
22
73
18
40
0
40
0
40
0
40
0
40
0.249999999999866
40
0.249999999999866
40
0.374999999999831
40
0.374999999999831
40
0.499999999999796
40
0.499999999999796
40
0.562499999999806
40
0.562499999999806
40
0.624999999999815
40
0.624999999999815
40
0.749999999999877
40
0.749999999999877
40
0.874999999999939
40
0.874999999999939
40
1
40
1
40
1
40
1
41
1
10
19.1148141493376
20
1.72927660629168
30
-1E-16
41
1
10
19.1398605722481
20
1.73279056622181
30
-1E-16
41
1
10
19.1643914029032
20
1.73799179728601
30
-1E-16
41
1
10
19.1999435162223
20
1.74983513034783
30
-1E-16
41
1
10
19.2114749715295
20
1.75444381508618
30
-1E-16
41
1
10
19.2333753131911
20
1.76509580155849
30
-1E-16
41
1
10
19.2437992358679
20
1.77115514878341
30
-2E-16
41
1
10
19.2584708555268
20
1.7815777567734
30
-2E-16
41
1
10
19.2632278971328
20
1.78530073024117
30
-2E-16
41
1
10
19.2722143809892
20
1.79309240143718
30
-2E-16
41
1
10
19.2764457432796
20
1.79715665855829
30
-2E-16
41
1
10
19.2883528282153
20
1.80985207866831
30
2E-16
41
1
10
19.2952521359909
20
1.81900303985321
30
2E-16
41
1
10
19.306895953792
20
1.83856316180169
30
1E-16
41
1
10
19.3114757525773
20
1.84867641553578
30
1E-16
41
1
10
19.3185538375581
20
1.86944099548416
30
1E-16
41
1
10
19.3210534005231
20
1.88013764740475
30
0
41
1
10
19.3226419081977
20
1.89089860416502
30
0
0
SPLINE
5
160
100
AcDbEntity
8
1
62
256
6
ByLayer
370
18
48
1
60
0
100
AcDbSpline
70
4
71
3
72
10
73
6
40
0
40
0
40
0
40
0
40
0.5
40
0.5
40
1
40
1
40
1
40
1
41
1
10
19.3226419081976
20
1.89089860416502
30
0
41
1
10
19.299453817123
20
1.97468706148123
30
-2E-16
41
1
10
19.2809513734884
20
2.05665792272009
30
1E-16
41
1
10
19.2521152583452
20
2.2166785972762
30
1E-16
41
1
10
19.2417822798201
20
2.29472927756137
30
0
41
1
10
19.2351011138005
20
2.37066045462112
30
2E-16
0
SPLINE
5
161
100
AcDbEntity
8
1
62
256
6
ByLayer
370
18
48
1
60
0
100
AcDbSpline
70
4
71
3
72
20
73
16
40
0
40
0
40
0
40
0
40
0.24999999999997
40
0.24999999999997
40
0.374999999999975
40
0.374999999999975
40
0.49999999999998
40
0.49999999999998
40
0.624999999999985
40
0.624999999999985
40
0.74999999999999
40
0.74999999999999
40
0.874999999999995
40
0.874999999999995
40
1
40
1
40
1
40
1
41
1
10
19.2351011138005
20
2.37066045462112
30
2E-16
41
1
10
19.2343683860262
20
2.37898787564299
30
2E-16
41
1
10
19.2349583234011
20
2.38720078200893
30
2E-16
41
1
10
19.2385683515298
20
2.39930681562169
30
2E-16
41
1
10
19.2402241022263
20
2.40325105327557
30
1E-16
41
1
10
19.2443994863278
20
2.41075960289408
30
1E-16
41
1
10
19.2469271941181
20
2.41435364999319
30
1E-16
41
1
10
19.2528892570925
20
2.4212154289483
30
1E-16
41
1
10
19.2563358224051
20
2.4244786098092
30
1E-16
41
1
10
19.2638142975134
20
2.43043588382977
30
1E-16
41
1
10
19.2678760426758
20
2.4331688877617
30
1E-16
41
1
10
19.2765723092446
20
2.43820142779558
30
1E-16
41
1
10
19.281188308666
20
2.44048632024612
30
1E-16
41
1
10
19.2907077659812
20
2.44459005611228
30
0
41
1
10
19.2956360625786
20
2.44642325123669
30
0
41
1
10
19.3007068764922
20
2.4480723604903
30
0
0
SPLINE
5
162
100
AcDbEntity
8
1
62
256
6
ByLayer
370
18
48
1
60
0
100
AcDbSpline
70
4
71
3
72
34
73
30
40
0
40
0
40
0
40
0
40
0.031250000000005
40
0.031250000000005
40
0.0625000000000101
40
0.0625000000000101
40
0.125000000000012
40
0.125000000000012
40
0.187500000000014
40
0.187500000000014
40
0.218750000000011
40
0.218750000000011
40
0.250000000000008
40
0.250000000000008
40
0.312500000000002
40
0.312500000000002
40
0.374999999999996
40
0.374999999999996
40
0.499999999999992
40
0.499999999999992
40
0.56249999999999
40
0.56249999999999
40
0.624999999999988
40
0.624999999999988
40
0.749999999999992
40
0.749999999999992
40
0.874999999999996
40
0.874999999999996
40
1
40
1
40
1
40
1
41
1
10
19.3007068765043
20
2.44807236046824
30
0
41
1
10
19.3253419079171
20
2.45608406410483
30
0
41
1
10
19.3502448340902
20
2.46304923751384
30
0
41
1
10
19.400466390481
20
2.47537984582198
30
0
41
1
10
19.425785897616
20
2.48074159672521
30
0
41
1
10
19.5022547849534
20
2.49488738211568
30
-1E-16
41
1
10
19.553908577856
20
2.50175665039077
30
-1E-16
41
1
10
19.6582030620516
20
2.51182135283673
30
-1E-16
41
1
10
19.7108480843223
20
2.51499874840633
30
-1E-16
41
1
10
19.7904114817996
20
2.51756727321896
30
-1E-16
41
1
10
19.8170461001603
20
2.51805260242384
30
-1E-16
41
1
10
19.8701801149865
20
2.51835129676317
30
-1E-16
41
1
10
19.8967207133081
20
2.51816633686008
30
-1E-16
41
1
10
19.9762710677483
20
2.51670656332766
30
-1E-16
41
1
10
20.029209726748
20
2.51453157438695
30
-1E-16
41
1
10
20.1349274095713
20
2.50814475744858
30
-1E-16
41
1
10
20.1877302923709
20
2.50392823944477
30
-1E-16
41
1
10
20.3457754239221
20
2.48858946332666
30
-1E-16
41
1
10
20.4502306432906
20
2.47484847485938
30
0
41
1
10
20.6058487169563
20
2.44990045639491
30
0
41
1
10
20.6575721252473
20
2.44084848603063
30
1E-16
41
1
10
20.7604936346386
20
2.42141823925854
30
1E-16
41
1
10
20.8117017233167
20
2.4110390791607
30
1E-16
41
1
10
20.9646393512531
20
2.37802934302093
30
2E-16
41
1
10
21.0656846050274
20
2.35353181088649
30
-2E-16
41
1
10
21.2662466747385
20
2.30000058342904
30
-1E-16
41
1
10
21.3656474405165
20
2.27099200161351
30
0
41
1
10
21.562655324146
20
2.20892915967724
30
2E-16
41
1
10
21.6603152166741
20
2.17585885619369
30
-2E-16
41
1
10
21.7572650903684
20
2.14088811153684
30
-1E-16
0
SPLINE
5
163
100
AcDbEntity
8
1
62
256
6
ByLayer
370
18
48
1
60
0
100
AcDbSpline
70
4
71
3
72
10
73
6
40
0
40
0
40
0
40
0
40
0.5
40
0.5
40
1
40
1
40
1
40
1
41
1
10
21.7035334717867
20
2.49611065872125
30
-1E-16
41
1
10
21.7076515786122
20
2.46769917027166
30
0
41
1
10
21.714138435804
20
2.43912641955686
30
1E-16
41
1
10
21.7320815936243
20
2.38176597798565
30
2E-16
41
1
10
21.7434644041569
20
2.35321446146193
30
-2E-16
41
1
10
21.757265090369
20
2.3248382736659
30
-1E-16
0
SPLINE
5
164
100
AcDbEntity
8
1
62
256
6
ByLayer
370
18
48
1
60
0
100
AcDbSpline
70
4
71
3
72
14
73
10
40
0
40
0
40
0
40
0
40
0.250000000000002
40
0.250000000000002
40
0.375000000000001
40
0.375000000000001
40
0.5
40
0.5
40
1
40
1
40
1
40
1
41
1
10
21.5939095922931
20
2.84918319728172
30
0
41
1
10
21.5953336131985
20
2.82177973555321
30
1E-16
41
1
10
21.5985520158763
20
2.79370702659369
30
1E-16
41
1
10
21.6062985970641
20
2.75059072544366
30
2E-16
41
1
10
21.6093677734035
20
2.73605070884361
30
-2E-16
41
1
10
21.6165243136163
20
2.70663375792424
30
-1E-16
41
1
10
21.6206055822155
20
2.69179113006385
30
-1E-16
41
1
10
21.6434186953675
20
2.61743733494185
30
1E-16
41
1
10
21.6694702870012
20
2.55703834761266
30
-2E-16
41
1
10
21.7035334726239
20
2.49611065862587
30
-1E-16
0
SPLINE
5
165
100
AcDbEntity
8
1
62
256
6
ByLayer
370
18
48
1
60
0
100
AcDbSpline
70
4
71
3
72
30
73
26
40
0
40
0
40
0
40
0
40
0.250000000000029
40
0.250000000000029
40
0.375000000000024
40
0.375000000000024
40
0.500000000000018
40
0.500000000000018
40
0.562500000000016
40
0.562500000000016
40
0.625000000000013
40
0.625000000000013
40
0.687500000000011
40
0.687500000000011
40
0.71875000000001
40
0.71875000000001
40
0.750000000000009
40
0.750000000000009
40
0.812500000000007
40
0.812500000000007
40
0.875000000000004
40
0.875000000000004
40
0.937500000000002
40
0.937500000000002
40
1
40
1
40
1
40
1
41
1
10
19.1472774107971
20
3.57949659557298
30
0
41
1
10
19.1301320843395
20
3.58153242940995
30
0
41
1
10
19.1137358031947
20
3.58348441528534
30
0
41
1
10
19.0911630166081
20
3.58629518015121
30
0
41
1
10
19.0840065916218
20
3.58720969521664
30
0
41
1
10
19.0708618124208
20
3.58898838148917
30
0
41
1
10
19.0648460190672
20
3.58985354857367
30
0
41
1
10
19.0572667230861
20
3.59112298285703
30
0
41
1
10
19.0549732103362
20
3.59154418211739
30
0
41
1
10
19.0511700362092
20
3.59236537592796
30
0
41
1
10
19.0496560366682
20
3.59276482666999
30
0
41
1
10
19.0477354478592
20
3.59354260664509
30
0
41
1
10
19.0473208584011
20
3.59392370461751
30
0
41
1
10
19.0480169116393
20
3.59447255584493
30
0
41
1
10
19.0484670538282
20
3.59464869498072
30
0
41
1
10
19.0498737377562
20
3.59498733386115
30
0
41
1
10
19.0508412876979
20
3.59515114563715
30
0
41
1
10
19.0545649565245
20
3.59561246614461
30
0
41
1
10
19.0581103550348
20
3.59587589152346
30
0
41
1
10
19.0670662282084
20
3.59631770179348
30
0
41
1
10
19.0723355867195
20
3.59649036777137
30
0
41
1
10
19.083674139602
20
3.59676481116932
30
0
41
1
10
19.0896496485489
20
3.59686558438997
30
0
41
1
10
19.1020054637135
20
3.59702365293674
30
0
41
1
10
19.108387772063
20
3.5970802783053
30
0
41
1
10
19.114814149337
20
3.5971213790836
30
0
0
SPLINE
5
166
100
AcDbEntity
8
1
62
256
6
ByLayer
370
18
48
1
60
0
100
AcDbSpline
70
4
71
3
72
8
73
4
40
0
40
0
40
0
40
0
40
1
40
1
40
1
40
1
41
1
10
33.1798345559849
20
0.644817386366555
30
-2E-16
41
1
10
33.2141883470672
20
0.598411054184538
30
-1E-16
41
1
10
33.2435276000408
20
0.552513666902371
30
0
41
1
10
33.2664219772311
20
0.506201268554264
30
1E-16
0
SPLINE
5
167
100
AcDbEntity
8
1
62
256
6
ByLayer
370
18
48
1
60
0
100
AcDbSpline
70
4
71
3
72
12
73
8
40
0
40
0
40
0
40
0
40
0.5
40
0.5
40
0.75
40
0.75
40
1
40
1
40
1
40
1
41
1
10
32.3370461211802
20
1.35091123835113
30
-1E-16
41
1
10
32.4773639110768
20
1.23475306460637
30
2E-16
41
1
10
32.6176377669311
20
1.11747435877069
30
0
41
1
10
32.8284990673175
20
0.940467319519257
30
0
41
1
10
32.8988826001177
20
0.881265577295295
30
2E-16
41
1
10
33.039422957346
20
0.762990500816215
30
0
41
1
10
33.1096360530731
20
0.703870093318216
30
1E-16
41
1
10
33.179834555985
20
0.644817386366583
30
-2E-16
0
SPLINE
5
168
100
AcDbEntity
8
1
62
256
6
ByLayer
370
18
48
1
60
0
100
AcDbSpline
70
4
71
3
72
30
73
26
40
0
40
0
40
0
40
0
40
0.124999999999991
40
0.124999999999991
40
0.187499999999987
40
0.187499999999987
40
0.249999999999982
40
0.249999999999982
40
0.374999999999973
40
0.374999999999973
40
0.437499999999978
40
0.437499999999978
40
0.499999999999983
40
0.562499999999988
40
0.562499999999988
40
0.624999999999993
40
0.624999999999993
40
0.749999999999968
40
0.749999999999968
40
0.812499999999976
40
0.812499999999976
40
0.874999999999984
40
0.937499999999992
40
0.937499999999992
40
1
40
1
40
1
40
1
41
1
10
32.478928532921
20
-0.0608551854955692
30
1E-16
41
1
10
32.470740495838
20
-0.0306107834666136
30
1E-16
41
1
10
32.4660495962861
20
-4.89382494493E-05
30
0
41
1
10
32.4638328501579
20
0.0461722956727897
30
-1E-16
41
1
10
32.4639036078929
20
0.0616430588362675
30
-1E-16
41
1
10
32.4656708342261
20
0.092702288338387
30
-2E-16
41
1
10
32.4673547668484
20
0.108038381702329
30
2E-16
41
1
10
32.4746193481637
20
0.153278139821879
30
1E-16
41
1
10
32.4823909990965
20
0.182506455002027
30
0
41
1
10
32.4982507697843
20
0.224876555351301
30
-1E-16
41
1
10
32.5041769653625
20
0.238561697817488
30
-1E-16
41
1
10
32.5171317732213
20
0.264872928693762
30
-2E-16
41
1
10
32.5312166142202
20
0.290197983175716
30
2E-16
41
1
10
32.5474884733113
20
0.313578124644494
30
2E-16
41
1
10
32.5648705858826
20
0.335966648661326
30
1E-16
41
1
10
32.5740263884621
20
0.346540763143793
30
1E-16
41
1
10
32.6025741136494
20
0.376153689728568
30
0
41
1
10
32.6231349408927
20
0.39325718114867
30
0
41
1
10
32.6565255146765
20
0.414890769877843
30
-1E-16
41
1
10
32.6680232177521
20
0.421372715588746
30
-1E-16
41
1
10
32.6914181537855
20
0.432681277341175
30
-1E-16
41
1
10
32.7153231544692
20
0.442408074156901
30
-1E-16
41
1
10
32.7404011869937
20
0.44893639417549
30
-2E-16
41
1
10
32.7661909472188
20
0.453765126851323
30
-2E-16
41
1
10
32.7794643460835
20
0.455322163713277
30
-2E-16
41
1
10
32.7929304285182
20
0.455933389739528
30
-2E-16
0
SPLINE
5
169
100
AcDbEntity
8
1
62
256
6
ByLayer
370
18
48
1
60
0
100
AcDbSpline
70
4
71
3
72
17
73
13
40
0
40
0
40
0
40
0
40
0.0624999999999997
40
0.0624999999999997
40
0.124999999999999
40
0.249999999999999
40
0.249999999999999
40
0.499999999999999
40
0.499999999999999
40
0.75
40
0.75
40
1
40
1
40
1
40
1
41
1
10
33.2664219772311
20
0.506201268554264
30
1E-16
41
1
10
33.2606843196349
20
0.504682260369833
30
1E-16
41
1
10
33.2545898025784
20
0.503180024484351
30
2E-16
41
1
10
33.2418328954479
20
0.5002451859296
30
2E-16
41
1
10
33.2218086662302
20
0.495936517736453
30
2E-16
41
1
10
33.1991724454696
20
0.491902868110344
30
2E-16
41
1
10
33.1505390785511
20
0.484189443235891
30
2E-16
41
1
10
33.1136416315658
20
0.479518357430891
30
2E-16
41
1
10
33.031375895931
20
0.471068087150258
30
-2E-16
41
1
10
32.9871164700408
20
0.467400303886905
30
-2E-16
41
1
10
32.8936286693887
20
0.461001406622444
30
-2E-16
41
1
10
32.8443608342748
20
0.458267817936559
30
-2E-16
41
1
10
32.7929304285182
20
0.455933389739528
30
-2E-16
0
SPLINE
5
16A
100
AcDbEntity
8
1
62
256
6
ByLayer
370
18
48
1
60
0
100
AcDbSpline
70
4
71
5
72
12
73
6
40
0
40
0
40
0
40
0
40
0
40
0
40
1
40
1
40
1
40
1
40
1
40
1
41
1
10
21.9573000006889
20
-1.15200171479543
30
0
41
1
10
21.9573000006889
20
-1.03338825373552
30
2E-16
41
1
10
21.9573000006889
20
-0.914782471181098
30
-1E-16
41
1
10
21.9573000006744
20
-0.796184401140522
30
1E-16
41
1
10
21.9573000006429
20
-0.677594077159796
30
-2E-16
41
1
10
21.9573000005974
20
-0.559011533105718
30
0
0
SPLINE
5
16B
100
AcDbEntity
8
1
62
256
6
ByLayer
370
18
48
1
60
0
100
AcDbSpline
70
4
71
3
72
12
73
8
40
0
40
0
40
0
40
0
40
0.25
40
0.25
40
0.5
40
0.5
40
1
40
1
40
1
40
1
41
1
10
33.513706866555
20
-2.61473081096386
30
-1E-16
41
1
10
33.5157197661739
20
-2.57330707499128
30
-2E-16
41
1
10
33.5158421635774
20
-2.53246503826003
30
2E-16
41
1
10
33.5143447840015
20
-2.45130502406855
30
0
41
1
10
33.5126702084522
20
-2.4110036128111
30
-1E-16
41
1
10
33.5060283114013
20
-2.29055978842376
30
0
41
1
10
33.4994790139714
20
-2.2108656104306
30
-1E-16
41
1
10
33.4919667611005
20
-2.13138183698413
30
1E-16
0
SPLINE
5
16C
100
AcDbEntity
8
1
62
256
6
ByLayer
370
18
48
1
60
0
100
AcDbSpline
70
4
71
3
72
8
73
4
40
0
40
0
40
0
40
0
40
1
40
1
40
1
40
1
41
1
10
33.4919345697621
20
-2.1313609752462
30
1E-16
41
1
10
33.487037316705
20
-2.11309468118384
30
1E-16
41
1
10
33.4821985444141
20
-2.09478478036095
30
0
41
1
10
33.4774133113281
20
-2.07643421546035
30
0
0
SPLINE
5
16D
100
AcDbEntity
8
1
62
256
6
ByLayer
370
18
48
1
60
0
100
AcDbSpline
70
4
71
3
72
14
73
10
40
0
40
0
40
0
40
0
40
0.499999999999964
40
0.499999999999964
40
0.624999999999995
40
0.624999999999995
40
0.750000000000027
40
0.750000000000027
40
1
40
1
40
1
40
1
41
1
10
33.6835825313656
20
-1.96537753065141
30
2E-16
41
1
10
33.6555960470931
20
-1.99555545402762
30
-2E-16
41
1
10
33.6240591216548
20
-2.01958567145371
30
-2E-16
41
1
10
33.5806734962375
20
-2.04262292559119
30
-1E-16
41
1
10
33.5717946464534
20
-2.04687572033123
30
-1E-16
41
1
10
33.553640983308
20
-2.05468469817566
30
-1E-16
41
1
10
33.5443418803007
20
-2.05824962485687
30
-1E-16
41
1
10
33.5161784020277
20
-2.06783068276511
30
0
41
1
10
33.4969850151025
20
-2.07277590090192
30
0
41
1
10
33.4774133113272
20
-2.07643421546237
30
0
0
SPLINE
5
16E
100
AcDbEntity
8
1
62
256
6
ByLayer
370
18
48
1
60
0
100
AcDbSpline
70
4
71
5
72
12
73
6
40
0
40
0
40
0
40
0
40
0
40
0
40
1
40
1
40
1
40
1
40
1
40
1
41
1
10
21.9573000005826
20
2.06609617730211
30
0
41
1
10
21.9573000005825
20
2.10897971835652
30
-1E-16
41
1
10
21.9573000005825
20
2.15192694798617
30
-2E-16
41
1
10
21.9573
20
2.19493719819684
30
2E-16
41
1
10
21.9573
20
2.23800981382908
30
1E-16
41
1
10
21.9573
20
2.28114415123767
30
0
0
SPLINE
5
16F
100
AcDbEntity
8
1
62
256
6
ByLayer
370
18
48
1
60
0
100
AcDbSpline
70
4
71
3
72
14
73
10
40
0
40
0
40
0
40
0
40
0.499999999999871
40
0.499999999999871
40
0.62499999999988
40
0.62499999999988
40
0.749999999999889
40
0.749999999999889
40
1
40
1
40
1
40
1
41
1
10
33.6835825313657
20
-3.1208415044554
30
0
41
1
10
33.6555960470932
20
-3.16581568319759
30
0
41
1
10
33.6240591216548
20
-3.20828295252636
30
0
41
1
10
33.5806734962375
20
-3.25857564814376
30
0
41
1
10
33.5717946464534
20
-3.26849206272476
30
0
41
1
10
33.553640983308
20
-3.28804594353309
30
0
41
1
10
33.5443418803007
20
-3.29770844959248
30
0
41
1
10
33.5161784020277
20
-3.32598424994791
30
0
41
1
10
33.4969850151025
20
-3.34396704771674
30
0
41
1
10
33.4774133113271
20
-3.36117009319574
30
0
0
SPLINE
5
170
100
AcDbEntity
8
1
62
256
6
ByLayer
370
18
48
1
60
0
100
AcDbSpline
70
4
71
3
72
8
73
4
40
0
40
0
40
0
40
0
40
1
40
1
40
1
40
1
41
1
10
24.0211259481136
20
1.34724942313645
30
1E-16
41
1
10
24.0117204967726
20
1.35331338195073
30
1E-16
41
1
10
24.0023150454315
20
1.35936851186767
30
1E-16
41
1
10
23.9929095940904
20
1.36541468013436
30
1E-16
0
SPLINE
5
171
100
AcDbEntity
8
1
62
256
6
ByLayer
370
18
48
1
60
0
100
AcDbSpline
70
4
71
5
72
12
73
6
40
0
40
0
40
0
40
0
40
0
40
0
40
1
40
1
40
1
40
1
40
1
40
1
41
1
10
21.9573000006889
20
2.28114415128138
30
0
41
1
10
21.9573000006889
20
2.3489114632844
30
-2E-16
41
1
10
21.9573000006889
20
2.41677506561382
30
1E-16
41
1
10
21.9573000006744
20
2.48473363308364
30
0
41
1
10
21.9573000006429
20
2.55278587971654
30
-2E-16
41
1
10
21.9573000005974
20
2.62093055551537
30
1E-16
0
SPLINE
5
172
100
AcDbEntity
8
1
62
256
6
ByLayer
370
18
48
1
60
0
100
AcDbSpline
70
4
71
3
72
12
73
8
40
0
40
0
40
0
40
0
40
0.5
40
0.5
40
0.75
40
0.75
40
1
40
1
40
1
40
1
41
1
10
32.3370461211802
20
-2.27314320747848
30
0
41
1
10
32.4773639110768
20
-2.3563982090937
30
2E-16
41
1
10
32.6176377669311
20
-2.43475674280694
30
-1E-16
41
1
10
32.8284990673175
20
-2.5445099208585
30
2E-16
41
1
10
32.8988826001176
20
-2.57980417169267
30
-2E-16
41
1
10
33.039422957346
20
-2.64750442858892
30
0
41
1
10
33.1096360530731
20
-2.67994100572699
30
1E-16
41
1
10
33.1798345559851
20
-2.71094330230966
30
1E-16
0
SPLINE
5
173
100
AcDbEntity
8
1
62
256
6
ByLayer
370
18
48
1
60
0
100
AcDbSpline
70
4
71
3
72
10
73
6
40
0
40
0
40
0
40
0
40
0.5
40
0.5
40
1
40
1
40
1
40
1
41
1
10
33.1798345559851
20
-2.71094330230969
30
1E-16
41
1
10
33.2361770339575
20
-2.69889316801286
30
1E-16
41
1
10
33.2926794347521
20
-2.68582716236483
30
1E-16
41
1
10
33.4060727382551
20
-2.65814106233662
30
0
41
1
10
33.4629100331198
20
-2.64354203799564
30
0
41
1
10
33.5198379126893
20
-2.62843207686623
30
-1E-16
0
SPLINE
5
174
100
AcDbEntity
8
1
62
256
6
ByLayer
370
18
48
1
60
0
100
AcDbSpline
70
4
71
3
72
8
73
4
40
0
40
0
40
0
40
0
40
1
40
1
40
1
40
1
41
1
10
33.5198379126893
20
-2.62843207686623
30
-1E-16
41
1
10
33.5177834176054
20
-2.62387449884656
30
-1E-16
41
1
10
33.5157397233287
20
-2.61930738749862
30
-1E-16
41
1
10
33.5137068665546
20
-2.61473081096369
30
-1E-16
0
SPLINE
5
175
100
AcDbEntity
8
1
62
256
6
ByLayer
370
18
48
1
60
0
100
AcDbSpline
70
4
71
3
72
16
73
12
40
0
40
0
40
0
40
0
40
0.0510720047149417
40
0.141223883529567
40
0.191062575768094
40
0.281478401553989
40
0.464228331067932
40
0.653549848565451
40
0.84231281977874
40
0.965713255650309
40
1
40
1
40
1
40
1
41
1
10
21.9573000008118
20
2.0660961775026
30
0
41
1
10
22.0734879736889
20
2.00016837804742
30
2E-16
41
1
10
22.3905750384748
20
1.80999493137
30
2E-16
41
1
10
22.8074252103969
20
1.52681451343344
30
0
41
1
10
23.3028324509322
20
1.15925366319959
30
-1E-16
41
1
10
23.9894026094728
20
0.613548381819669
30
-1E-16
41
1
10
24.9619725229809
20
-0.232653424678659
30
1E-16
41
1
10
26.1354329078367
20
-1.27866218402915
30
-1E-16
41
1
10
27.1831263728854
20
-2.14285519583612
30
1E-16
41
1
10
27.9073090728825
20
-2.65230244562665
30
0
41
1
10
28.2368207482055
20
-2.857741045165
30
0
41
1
10
28.3084777626985
20
-2.90110468324207
30
1E-16
0
SPLINE
5
176
100
AcDbEntity
8
1
62
256
6
ByLayer
370
18
48
1
60
0
100
AcDbSpline
70
4
71
5
72
12
73
6
40
0
40
0
40
0
40
0
40
0
40
0
40
1
40
1
40
1
40
1
40
1
40
1
41
1
10
21.9573
20
2.06564517672606
30
0
41
1
10
21.9573
20
2.06573537626133
30
0
41
1
10
21.9573
20
2.06582557607686
30
0
41
1
10
21.9573
20
2.06591577617269
30
0
41
1
10
21.9573
20
2.06600597654878
30
0
41
1
10
21.9573
20
2.06609617720511
30
0
0
SPLINE
5
177
100
AcDbEntity
8
1
62
256
6
ByLayer
370
18
48
1
60
0
100
AcDbSpline
70
4
71
3
72
8
73
4
40
0
40
0
40
0
40
0
40
1
40
1
40
1
40
1
41
1
10
21.9573000000074
20
2.06564517672717
30
0
41
1
10
22.2627065586233
20
1.89235981163912
30
0
41
1
10
22.5633683663818
20
1.69655253602375
30
0
41
1
10
22.8633922922476
20
1.48155798994952
30
1E-16
0
SPLINE
5
178
100
AcDbEntity
8
1
62
256
6
ByLayer
370
18
48
1
60
0
100
AcDbSpline
70
4
71
3
72
34
73
30
40
0
40
0
40
0
40
0
40
0.125000000000005
40
0.125000000000005
40
0.187500000000006
40
0.187500000000006
40
0.250000000000007
40
0.250000000000007
40
0.375000000000012
40
0.375000000000012
40
0.500000000000017
40
0.500000000000017
40
0.531250000000018
40
0.546875000000018
40
0.546875000000018
40
0.562500000000018
40
0.562500000000018
40
0.625000000000013
40
0.625000000000013
40
0.750000000000003
40
0.750000000000003
40
0.874999999999993
40
0.874999999999993
40
0.906249999999992
40
0.921874999999993
40
0.921874999999993
40
0.937499999999994
40
0.937499999999994
40
1
40
1
40
1
40
1
41
1
10
22.8633922922484
20
1.48155798994904
30
1E-16
41
1
10
23.0967006302376
20
1.31437121668799
30
0
41
1
10
23.327827464172
20
1.13770601476759
30
0
41
1
10
23.6739335110677
20
0.861340576470639
30
2E-16
41
1
10
23.7892041095603
20
0.767316656309276
30
0
41
1
10
24.0199905965369
20
0.575910521774546
30
0
41
1
10
24.1346723818127
20
0.479225421561381
30
2E-16
41
1
10
24.4771504429187
20
0.187106327514954
30
0
41
1
10
24.7034534883761
20
-0.0104046539197213
30
0
41
1
10
25.1551262297728
20
-0.407396198719908
30
1E-16
41
1
10
25.3804624689998
20
-0.6069154651546
30
1E-16
41
1
10
25.6633608535612
20
-0.855465712066916
30
-2E-16
41
1
10
25.7483240137254
20
-0.929965529463175
30
0
41
1
10
25.8334862562796
20
-1.00430065786023
30
1E-16
41
1
10
25.8903122326272
20
-1.05381295704049
30
-2E-16
41
1
10
25.918773292876
20
-1.07856639948054
30
-1E-16
41
1
10
26.0608483791264
20
-1.20187686290532
30
2E-16
41
1
10
26.1738695311535
20
-1.29914671395375
30
-1E-16
41
1
10
26.5116829563611
20
-1.58620739508311
30
2E-16
41
1
10
26.7352420349093
20
-1.77129064035105
30
2E-16
41
1
10
27.182382124496
20
-2.12578832367126
30
1E-16
41
1
10
27.4059554974241
20
-2.29516775928678
30
0
41
1
10
27.6874213986828
20
-2.4949144657873
30
1E-16
41
1
10
27.7720104634001
20
-2.55394240287887
30
2E-16
41
1
10
27.8568784421142
20
-2.61156418426023
30
-1E-16
41
1
10
27.9135252405178
20
-2.64965877642999
30
0
41
1
10
27.9418819362447
20
-2.66854520981221
30
0
41
1
10
28.0833928329018
20
-2.76186023323788
30
-2E-16
41
1
10
28.1960939001856
20
-2.83317950658258
30
0
41
1
10
28.3084777626984
20
-2.90110468324187
30
1E-16
0
SPLINE
5
179
100
AcDbEntity
8
1
62
256
6
ByLayer
370
18
48
1
60
0
100
AcDbSpline
70
4
71
3
72
38
73
34
40
0
40
0
40
0
40
0
40
0.0281226765749695
40
0.0565184643499198
40
0.0851875490924155
40
0.114130125865084
40
0.143346399333324
40
0.172836584094946
40
0.202600905033265
40
0.23263959769518
40
0.262952908695824
40
0.293541096151562
40
0.324404430142821
40
0.355543193208866
40
0.386957680876057
40
0.418648202221672
40
0.450615080475216
40
0.482858653659114
40
0.515379275271171
40
0.548177315010628
40
0.581253159550067
40
0.614607213355792
40
0.648239899558349
40
0.682151660876344
40
0.716342960595305
40
0.750814283604595
40
0.785566137494766
40
0.820599053717824
40
0.855913588813407
40
0.891510325703369
40
0.927389875057665
40
0.963552876734331
40
1
40
1
40
1
40
1
41
1
10
28.3084777626985
20
-2.90110468324207
30
1E-16
41
1
10
28.3191039179803
20
-2.90750900666421
30
2E-16
41
1
10
28.3404594236295
20
-2.92037984860042
30
2E-16
41
1
10
28.3726476747411
20
-2.93955892108326
30
-2E-16
41
1
10
28.4051459817009
20
-2.95875607014807
30
-2E-16
41
1
10
28.4379547019011
20
-2.9779491002073
30
-1E-16
41
1
10
28.4710742097515
20
-2.99713584055508
30
-1E-16
41
1
10
28.5045048980145
20
-3.01630852722943
30
0
41
1
10
28.5382471779645
20
-3.03546076389785
30
0
41
1
10
28.5723014798721
20
-3.0545856280637
30
1E-16
41
1
10
28.6066682534054
20
-3.07367618357216
30
1E-16
41
1
10
28.6413479680587
20
-3.09272533924752
30
1E-16
41
1
10
28.6763411135777
20
-3.11172588516268
30
2E-16
41
1
10
28.711648200392
20
-3.13067048063351
30
-2E-16
41
1
10
28.7472697600498
20
-3.1495516553075
30
-2E-16
41
1
10
28.783206345657
20
-3.1683618066767
30
-1E-16
41
1
10
28.8194585323204
20
-3.1870931985425
30
-1E-16
41
1
10
28.8560269175942
20
-3.20573795920387
30
0
41
1
10
28.892912121931
20
-3.22428807969919
30
0
41
1
10
28.9301147891365
20
-3.24273541202197
30
0
41
1
10
28.9676355868282
20
-3.26107166729793
30
1E-16
41
1
10
29.0054752068968
20
-3.27928841405432
30
1E-16
41
1
10
29.0436343659772
20
-3.29737707606367
30
2E-16
41
1
10
29.0821138059002
20
-3.31532893172698
30
2E-16
41
1
10
29.1209142942389
20
-3.33313510756699
30
-2E-16
41
1
10
29.1600366245115
20
-3.35078659390553
30
-1E-16
41
1
10
29.1994816177055
20
-3.36827417665637
30
-1E-16
41
1
10
29.2392501188252
20
-3.38558868594032
30
-1E-16
41
1
10
29.2793430122594
20
-3.40272004785132
30
0
41
1
10
29.3197611660781
20
-3.41966085685016
30
0
41
1
10
29.3605056447787
20
-3.43639287412864
30
1E-16
41
1
10
29.4015769077216
20
-3.45293800817464
30
1E-16
41
1
10
29.4290697710335
20
-3.463714289254
30
-1E-16
41
1
10
29.4428699921301
20
-3.46912351345179
30
-1E-16
0
SPLINE
5
17A
100
AcDbEntity
8
1
62
256
6
ByLayer
370
18
48
1
60
0
100
AcDbSpline
70
4
71
3
72
33
73
29
40
0
40
0
40
0
40
0
40
0.125000000000001
40
0.125000000000001
40
0.187500000000002
40
0.187500000000002
40
0.250000000000004
40
0.250000000000004
40
0.375000000000004
40
0.375000000000004
40
0.500000000000005
40
0.500000000000005
40
0.531250000000006
40
0.546875000000006
40
0.546875000000006
40
0.562500000000006
40
0.562500000000006
40
0.625000000000005
40
0.625000000000005
40
0.750000000000004
40
0.750000000000004
40
0.875000000000002
40
0.875000000000002
40
0.906250000000004
40
0.921875000000005
40
0.937500000000005
40
0.937500000000005
40
1
40
1
40
1
40
1
41
1
10
22.8633922922476
20
3.7012108434173
30
0
41
1
10
23.0967006285455
20
3.71018201581603
30
0
41
1
10
23.3278274408873
20
3.70145016011094
30
0
41
1
10
23.673933425853
20
3.66198261073285
30
1E-16
41
1
10
23.7892039987307
20
3.64441523541762
30
-1E-16
41
1
10
24.0199904241864
20
3.60043355630705
30
0
41
1
10
24.134672342904
20
3.57418840395698
30
1E-16
41
1
10
24.477150515436
20
3.4832469217238
30
1E-16
41
1
10
24.7034535960418
20
3.40639099261909
30
0
41
1
10
25.1551263336706
20
3.22178667998509
30
0
41
1
10
25.3804625339528
20
3.11401279302868
30
-2E-16
41
1
10
25.6633608222793
20
2.9608375397994
30
2E-16
41
1
10
25.7483239499686
20
2.91349549798466
30
-2E-16
41
1
10
25.8334861544868
20
2.86407993238953
30
0
41
1
10
25.8903121042187
20
2.83067612314358
30
0
41
1
10
25.918773154596
20
2.81373047010126
30
1E-16
41
1
10
26.0608483090151
20
2.72808126071203
30
-2E-16
41
1
10
26.1738695052825
20
2.65655738937835
30
0
41
1
10
26.5116830342166
20
2.43366046305837
30
1E-16
41
1
10
26.7352421437745
20
2.2740471855675
30
0
41
1
10
27.1823822231861
20
1.93618034375899
30
-1E-16
41
1
10
27.4059555546844
20
1.75786877075086
30
-1E-16
41
1
10
27.6874213561605
20
1.5249514213875
30
0
41
1
10
27.7720103873262
20
1.45432542943755
30
1E-16
41
1
10
27.8851676413259
20
1.35871325277591
30
-1E-16
41
1
10
27.9418818081127
20
1.31043477549261
30
0
41
1
10
28.0833927715055
20
1.18955240598282
30
-1E-16
41
1
10
28.1960938819947
20
1.09193476962235
30
1E-16
41
1
10
28.3084777781507
20
0.993624832421858
30
-1E-16
0
SPLINE
5
17B
100
AcDbEntity
8
1
62
256
6
ByLayer
370
18
48
1
60
0
100
AcDbSpline
70
4
71
3
72
14
73
10
40
0
40
0
40
0
40
0
40
0.249999999999996
40
0.249999999999996
40
0.374999999999994
40
0.374999999999994
40
0.499999999999992
40
0.499999999999992
40
1
40
1
40
1
40
1
41
1
10
32.3370461282753
20
-2.27314319774993
30
0
41
1
10
32.2151071919276
20
-2.20079269355583
30
-2E-16
41
1
10
32.0935454364061
20
-2.12478682463376
30
1E-16
41
1
10
31.9113855361426
20
-2.0056941001684
30
-2E-16
41
1
10
31.8506577190508
20
-1.96512191891679
30
2E-16
41
1
10
31.7294313959458
20
-1.88248783796254
30
0
41
1
10
31.6689341218164
20
-1.84042776800558
30
-1E-16
41
1
10
31.3668692852723
20
-1.62655276242728
30
-2E-16
41
1
10
31.126536715865
20
-1.44404619212341
30
-2E-16
41
1
10
30.8857319348912
20
-1.25191138734817
30
-2E-16
0
SPLINE
5
17C
100
AcDbEntity
8
1
62
256
6
ByLayer
370
18
48
1
60
0
100
AcDbSpline
70
4
71
3
72
47
73
43
40
0
40
0
40
0
40
0
40
0.0266866587483284
40
0.0532884827282665
40
0.0798053941444323
40
0.10623730638284
40
0.132584124489476
40
0.158845745637654
40
0.185022059584091
40
0.211112949453834
40
0.237118293726259
40
0.263037965203407
40
0.288871830678622
40
0.314619751345496
40
0.340281583197452
40
0.36585717741706
40
0.391346380755018
40
0.41674903589896
40
0.442064981832098
40
0.467294054181672
40
0.492436085557438
40
0.517490905880074
40
0.542458342699769
40
0.56733822150488
40
0.592130366041602
40
0.616834598998524
40
0.641450742219366
40
0.665978616568193
40
0.690418042171785
40
0.714768838669608
40
0.739030825455329
40
0.763203821910176
40
0.787287647628047
40
0.81128212263264
40
0.835187067586513
40
0.859002303992271
40
0.882727654385927
40
0.906362942522554
40
0.929907993554323
40
0.953362634200986
40
0.976726692912813
40
1
40
1
40
1
40
1
41
1
10
30.8857319348927
20
-1.25191138734937
30
-2E-16
41
1
10
30.8728309080506
20
-1.24160129496002
30
-2E-16
41
1
10
30.8470698657059
20
-1.22101388514605
30
2E-16
41
1
10
30.8085048173074
20
-1.18999328073187
30
1E-16
41
1
10
30.770073751474
20
-1.15893861741228
30
1E-16
41
1
10
30.7317777388517
20
-1.12784081831669
30
0
41
1
10
30.6936164935291
20
-1.09670817545114
30
-1E-16
41
1
10
30.655590091327
20
-1.06554428543478
30
-2E-16
41
1
10
30.6176985115367
20
-1.03435393289936
30
2E-16
41
1
10
30.5799417577693
20
-1.00314152141078
30
1E-16
41
1
10
30.542319829674
20
-0.971911484789104
30
1E-16
41
1
10
30.5048327278149
20
-0.940668182316728
30
0
41
1
10
30.4674804517779
20
-0.909415930263634
30
-1E-16
41
1
10
30.4302630013218
20
-0.878158993953292
30
-2E-16
41
1
10
30.3931803761681
20
-0.846901589904405
30
2E-16
41
1
10
30.3562325760571
20
-0.815647885217203
30
1E-16
41
1
10
30.3194196007334
20
-0.784401997704805
30
1E-16
41
1
10
30.2827414499494
20
-0.753167995836748
30
0
41
1
10
30.2461981234642
20
-0.721949898743389
30
-1E-16
41
1
10
30.2097896210441
20
-0.690751676213637
30
-2E-16
41
1
10
30.1735159424617
20
-0.65957724870762
30
2E-16
41
1
10
30.1373770874994
20
-0.628430487365108
30
1E-16
41
1
10
30.1013730559346
20
-0.597315214063372
30
1E-16
41
1
10
30.0655038475854
20
-0.566235201321604
30
0
41
1
10
30.0297694619039
20
-0.535194172613359
30
-1E-16
41
1
10
29.9941698987543
20
-0.504195800226455
30
-2E-16
41
1
10
29.9587051582914
20
-0.473243705922698
30
2E-16
41
1
10
29.9233752403117
20
-0.442341463083267
30
1E-16
41
1
10
29.8881801446509
20
-0.41149259648688
30
1E-16
41
1
10
29.8531198711399
20
-0.380700582474162
30
0
41
1
10
29.8181944196172
20
-0.349968848974129
30
-1E-16
41
1
10
29.7834037899294
20
-0.319300775551227
30
-1E-16
41
1
10
29.7487479819152
20
-0.288699693548523
30
-2E-16
41
1
10
29.7142269954692
20
-0.258168885872323
30
2E-16
41
1
10
29.6798408303041
20
-0.227711588154705
30
1E-16
41
1
10
29.6455894868329
20
-0.197330984833741
30
0
41
1
10
29.6114729628934
20
-0.167030224130059
30
-1E-16
41
1
10
29.577491265904
20
-0.136812362934052
30
-1E-16
41
1
10
29.5436443677566
20
-0.106680571815957
30
-2E-16
41
1
10
29.5099323721915
20
-0.0766373748305114
30
2E-16
41
1
10
29.4763548937594
20
-0.0466874708367868
30
1E-16
41
1
10
29.4540170185817
20
-0.0267418074406294
30
1E-16
41
1
10
29.4428698146224
20
-0.016788381870299
30
0
0
SPLINE
5
17D
100
AcDbEntity
8
1
62
256
6
ByLayer
370
18
48
1
60
0
100
AcDbSpline
70
4
71
3
72
42
73
38
40
0
40
0
40
0
40
0
40
0.02669202916402
40
0.0534953768051538
40
0.0804099810583755
40
0.107435778241653
40
0.134572702959324
40
0.161820688211606
40
0.18917966551052
40
0.216649565002173
40
0.244230315595762
40
0.271921845099282
40
0.299724080362315
40
0.327636947425788
40
0.355660371679132
40
0.383794278024836
40
0.412038591050607
40
0.440393235209322
40
0.468858135005748
40
0.497433215085871
40
0.526118400384141
40
0.554913616542596
40
0.583818790150624
40
0.61283384897029
40
0.641958722170597
40
0.671193340570856
40
0.700537636893428
40
0.729991546025891
40
0.759555005292932
40
0.789227954738094
40
0.819010337415556
40
0.848902099692166
40
0.878903191559866
40
0.909013566958696
40
0.939233184110552
40
0.969562005863033
40
1
40
1
40
1
40
1
41
1
10
29.4428698146224
20
-0.0167883818703274
30
0
41
1
10
29.4327631987344
20
-0.0077603670762869
30
0
41
1
10
29.4125078175556
20
0.0103333136341917
30
0
41
1
10
29.3820658618395
20
0.0375484168503135
30
-1E-16
41
1
10
29.3515005930195
20
0.0648875878000013
30
-2E-16
41
1
10
29.3208123298105
20
0.0923505292791447
30
-2E-16
41
1
10
29.2900009862021
20
0.119935086095524
30
2E-16
41
1
10
29.2590665852996
20
0.147639555935967
30
1E-16
41
1
10
29.2280091207861
20
0.175462065964439
30
0
41
1
10
29.1968285942721
20
0.203400740533425
30
0
41
1
10
29.1655250052266
20
0.231453655609727
30
-1E-16
41
1
10
29.1340983536917
20
0.259618850702935
30
-2E-16
41
1
10
29.10254863955
20
0.287894325293337
30
2E-16
41
1
10
29.0708758627226
20
0.316278039440135
30
1E-16
41
1
10
29.0390800231152
20
0.344767913264746
30
1E-16
41
1
10
29.0071611206323
20
0.373361826737977
30
0
41
1
10
28.9751191551757
20
0.4020576193914
30
-1E-16
41
1
10
28.9429541266356
20
0.430853090034645
30
-1E-16
41
1
10
28.9106660349696
20
0.459745996496565
30
-2E-16
41
1
10
28.8782548801129
20
0.488734055098405
30
2E-16
41
1
10
28.8457206618025
20
0.51781494015745
30
1E-16
41
1
10
28.8130633799229
20
0.546986284326493
30
1E-16
41
1
10
28.780283034348
20
0.576245678310215
30
0
41
1
10
28.7473796249512
20
0.605590670629141
30
-1E-16
41
1
10
28.7143531516
20
0.635018767340114
30
-2E-16
41
1
10
28.6812036141573
20
0.664527431787519
30
2E-16
41
1
10
28.6479310124813
20
0.694114084277174
30
2E-16
41
1
10
28.6145353464234
20
0.723776102038698
30
1E-16
41
1
10
28.5810166158373
20
0.753510818115302
30
0
41
1
10
28.547374820544
20
0.783315524286479
30
-1E-16
41
1
10
28.5136099604607
20
0.813187458863524
30
-1E-16
41
1
10
28.4797220351204
20
0.843123851261595
30
-2E-16
41
1
10
28.4457110454703
20
0.873121753518404
30
2E-16
41
1
10
28.4115769871257
20
0.903178671314265
30
1E-16
41
1
10
28.377319875682
20
0.93329019490011
30
0
41
1
10
28.3429396517558
20
0.963458887513497
30
0
41
1
10
28.3199788196687
20
0.983557481215342
30
-1E-16
41
1
10
28.3084777781508
20
0.993624832421801
30
-1E-16
0
SPLINE
5
17E
100
AcDbEntity
8
1
62
256
6
ByLayer
370
18
48
1
60
0
100
AcDbSpline
70
4
71
3
72
10
73
6
40
0
40
0
40
0
40
0
40
0.5
40
0.5
40
1
40
1
40
1
40
1
41
1
10
33.9738825972644
20
0.393857308015413
30
0
41
1
10
33.9754457831585
20
0.400918967264857
30
-1E-16
41
1
10
33.9721888938124
20
0.408018234728928
30
-1E-16
41
1
10
33.9567616951937
20
0.42228631583373
30
-1E-16
41
1
10
33.9445837195424
20
0.429455189291019
30
-1E-16
41
1
10
33.9278440370889
20
0.436659655065569
30
-1E-16
0
SPLINE
5
17F
100
AcDbEntity
8
1
62
256
6
ByLayer
370
18
48
1
60
0
100
AcDbSpline
70
4
71
3
72
8
73
4
40
0
40
0
40
0
40
0
40
1
40
1
40
1
40
1
41
1
10
33.9738825972563
20
0.39385730809596
30
0
41
1
10
33.9333118934276
20
0.574697337491642
30
0
41
1
10
33.892741189599
20
0.755537366887296
30
0
41
1
10
33.8521704857703
20
0.936377396282978
30
0
0
SPLINE
5
180
100
AcDbEntity
8
1
62
256
6
ByLayer
370
18
48
1
60
0
100
AcDbSpline
70
4
71
3
72
10
73
6
40
0
40
0
40
0
40
0
40
0.5
40
0.5
40
1
40
1
40
1
40
1
41
1
10
33.9738825972644
20
-2.02040766092904
30
1E-16
41
1
10
33.9754457831584
20
-2.0672936070097
30
0
41
1
10
33.9721888938117
20
-2.11352340440351
30
1E-16
41
1
10
33.9567616951924
20
-2.20476963036717
30
1E-16
41
1
10
33.9445837195417
20
-2.24978501533917
30
-1E-16
41
1
10
33.9278440370888
20
-2.29417942287012
30
0
0
SPLINE
5
181
100
AcDbEntity
8
1
62
256
6
ByLayer
370
18
48
1
60
0
100
AcDbSpline
70
4
71
2
72
6
73
3
40
0
40
0
40
0
40
1
40
1
40
1
41
0.500606030225009
10
33.926010564742
20
-0.921849362805616
30
1E-16
41
0.499393969774991
10
33.932074311243
20
-0.935060309728553
30
0
41
0.500606030225009
10
33.9381373223893
20
-0.948269639391716
30
0
0
SPLINE
5
182
100
AcDbEntity
8
1
62
256
6
ByLayer
370
18
48
1
60
0
100
AcDbSpline
70
4
71
3
72
10
73
6
40
0
40
0
40
0
40
0
40
0.5
40
0.5
40
1
40
1
40
1
40
1
41
1
10
33.9738825972644
20
2.45947178477837
30
0
41
1
10
33.9754457831585
20
2.51444699054744
30
0
41
1
10
33.9721888938124
20
2.56879068492697
30
0
41
1
10
33.9567616951936
20
2.67631026489443
30
-1E-16
41
1
10
33.9445837195424
20
2.72948514605918
30
0
41
1
10
33.9278440370889
20
2.78206236646815
30
-1E-16
0
SPLINE
5
183
100
AcDbEntity
8
1
62
256
6
ByLayer
370
18
48
1
60
0
100
AcDbSpline
70
4
71
3
72
16
73
12
40
0
40
0
40
0
40
0
40
0.250000000000007
40
0.250000000000007
40
0.500000000000014
40
0.500000000000014
40
0.625000000000018
40
0.625000000000018
40
0.750000000000021
40
0.750000000000021
40
1
40
1
40
1
40
1
41
1
10
33.5198379126892
20
3.32447622872846
30
0
41
1
10
33.5675632841281
20
3.29117256535508
30
1E-16
41
1
10
33.6116831437505
20
3.25431013756179
30
-1E-16
41
1
10
33.6935184621306
20
3.17431108794693
30
-1E-16
41
1
10
33.731224979931
20
3.13116715973931
30
0
41
1
10
33.7830442390696
20
3.06183030407595
30
-1E-16
41
1
10
33.7995621613605
20
3.03786659338309
30
0
41
1
10
33.8304805297245
20
2.9891674352896
30
1E-16
41
1
10
33.8449474640443
20
2.96435384928049
30
-1E-16
41
1
10
33.8854472803349
20
2.88855663447978
30
-1E-16
41
1
10
33.9085963702061
20
2.83622824221027
30
0
41
1
10
33.9278440370889
20
2.78206236646807
30
-1E-16
0
SPLINE
5
184
100
AcDbEntity
8
1
62
256
6
ByLayer
370
18
48
1
60
0
100
AcDbSpline
70
4
71
3
72
40
73
36
40
0
40
0
40
0
40
0
40
0.0625000000000003
40
0.0625000000000003
40
0.125000000000001
40
0.125000000000001
40
0.156250000000001
40
0.156250000000001
40
0.187500000000001
40
0.187500000000001
40
0.250000000000001
40
0.250000000000001
40
0.375000000000001
40
0.375000000000001
40
0.500000000000001
40
0.500000000000001
40
0.562500000000001
40
0.562500000000001
40
0.593750000000001
40
0.593750000000001
40
0.625000000000001
40
0.625000000000001
40
0.687500000000001
40
0.687500000000001
40
0.75
40
0.75
40
0.8125
40
0.8125
40
0.875
40
0.875
40
0.90625
40
0.90625
40
0.9375
40
0.9375
40
1
40
1
40
1
40
1
41
1
10
33.4218634558587
20
-0.581064745338779
30
0
41
1
10
33.4100193977633
20
-0.572420809239361
30
0
41
1
10
33.400240140043
20
-0.563516697180631
30
0
41
1
10
33.3835520610749
20
-0.545223769862247
30
0
41
1
10
33.3766612158827
20
-0.535834289152092
30
0
41
1
10
33.3680201072895
20
-0.521376949000143
30
0
41
1
10
33.3654181119683
20
-0.516478770398351
30
0
41
1
10
33.3607754910149
20
-0.50664676896065
30
0
41
1
10
33.3587332794277
20
-0.501715389852677
30
0
41
1
10
33.3533381022077
20
-0.486856865070479
30
0
41
1
10
33.3507109682999
20
-0.476865563482278
30
0
41
1
10
33.3451852199574
20
-0.44649196364395
30
0
41
1
10
33.3446044739677
20
-0.425697370688141
30
0
41
1
10
33.3483452912342
20
-0.382211205745108
30
0
41
1
10
33.3526344963298
20
-0.359894972145355
30
0
41
1
10
33.3623652259032
20
-0.324504911667219
30
0
41
1
10
33.3661679390465
20
-0.312384504305527
30
0
41
1
10
33.3727764519091
20
-0.293520732553304
30
0
41
1
10
33.3751308856807
20
-0.287118352316611
30
0
41
1
10
33.3801670050215
20
-0.274043174945433
30
0
41
1
10
33.3828577981885
20
-0.267349086397474
30
0
41
1
10
33.3913874453981
20
-0.246993696766992
30
0
41
1
10
33.3976789543503
20
-0.233047982122713
30
0
41
1
10
33.4116927172313
20
-0.204239973649209
30
0
41
1
10
33.4194179559523
20
-0.189366024837398
30
0
41
1
10
33.4366886546965
20
-0.15864454936937
30
0
41
1
10
33.4459914165745
20
-0.143237081205882
30
0
41
1
10
33.466186213561
20
-0.112554339847264
30
0
41
1
10
33.4770785695698
20
-0.0972797767035729
30
0
41
1
10
33.4948723636685
20
-0.0747236206687489
30
0
41
1
10
33.5010564760208
20
-0.0672581312242926
30
0
41
1
10
33.5137224369881
20
-0.0527595304091051
30
0
41
1
10
33.5202308389247
20
-0.0456912314232056
30
0
41
1
10
33.5403201441152
20
-0.0250668714399751
30
0
41
1
10
33.5544635599015
20
-0.012089699323667
30
0
41
1
10
33.5694727083522
20
1.99E-13
30
0
0
SPLINE
5
185
100
AcDbEntity
8
1
62
256
6
ByLayer
370
18
48
1
60
0
100
AcDbSpline
70
4
71
3
72
8
73
4
40
0
40
0
40
0
40
0
40
1
40
1
40
1
40
1
41
1
10
21.9573000000073
20
3.58009880210469
30
0
41
1
10
22.2627065585994
20
3.64872396819504
30
0
41
1
10
22.5633683663743
20
3.68967431776929
30
0
41
1
10
22.8633922922468
20
3.7012108434173
30
0
0
SPLINE
5
186
100
AcDbEntity
8
1
62
256
6
ByLayer
370
18
48
1
60
0
100
AcDbSpline
70
4
71
3
72
8
73
4
40
0
40
0
40
0
40
0
40
1
40
1
40
1
40
1
41
1
10
21.8101415234683
20
3.57958165194037
30
0
41
1
10
21.8592950438206
20
3.57930604255009
30
0
41
1
10
21.9083523900717
20
3.57947449038903
30
0
41
1
10
21.9573
20
3.58009880210253
30
0
0
SPLINE
5
187
100
AcDbEntity
8
1
62
256
6
ByLayer
370
18
48
1
60
0
100
AcDbSpline
70
4
71
3
72
16
73
12
40
0
40
0
40
0
40
0
40
0.0510720045890707
40
0.141223883181511
40
0.191062575297207
40
0.281478400860267
40
0.464228329923811
40
0.653549846954735
40
0.842312817702804
40
0.965713253270245
40
1
40
1
40
1
40
1
41
1
10
21.9573000008118
20
3.58004127128746
30
0
41
1
10
22.0734879736889
20
3.60616432613489
30
0
41
1
10
22.3905750384748
20
3.66679420025824
30
0
41
1
10
22.8074252103969
20
3.70639761220295
30
0
41
1
10
23.3028324509322
20
3.70488854056154
30
0
41
1
10
23.9894026094727
20
3.63482105494524
30
-1E-16
41
1
10
24.9619725229809
20
3.34809882228649
30
1E-16
41
1
10
26.1354329078367
20
2.71931110859617
30
-2E-16
41
1
10
27.1831263728854
20
1.95097715795075
30
-1E-16
41
1
10
27.9073090780342
20
1.3432152213544
30
0
41
1
10
28.2368207585057
20
1.05638417095875
30
2E-16
41
1
10
28.3084777781509
20
0.993624832421801
30
-1E-16
0
SPLINE
5
188
100
AcDbEntity
8
1
62
256
6
ByLayer
370
18
48
1
60
0
100
AcDbSpline
70
4
71
3
72
8
73
4
40
0
40
0
40
0
40
0
40
1
40
1
40
1
40
1
41
1
10
21.7572650903684
20
3.56976105612094
30
0
41
1
10
21.7751558427228
20
3.57075376092638
30
0
41
1
10
21.7927998162442
20
3.57401033731185
30
0
41
1
10
21.8101415234683
20
3.57958165194037
30
0
0
SPLINE
5
189
100
AcDbEntity
8
1
62
256
6
ByLayer
370
18
48
1
60
0
100
AcDbSpline
70
4
71
3
72
8
73
4
40
0
40
0
40
0
40
0
40
1
40
1
40
1
40
1
41
1
10
21.8104046243527
20
-3.58659880143577
30
0
41
1
10
21.8594576141461
20
-3.58599433181078
30
0
41
1
10
21.9084275566602
20
-3.58583731737707
30
0
41
1
10
21.9573
20
-3.58613802576781
30
0
0
SPLINE
5
18A
100
AcDbEntity
8
1
62
256
6
ByLayer
370
18
48
1
60
0
100
AcDbSpline
70
4
71
3
72
8
73
4
40
0
40
0
40
0
40
0
40
1
40
1
40
1
40
1
41
1
10
21.7572650903687
20
-3.57692536836888
30
0
41
1
10
21.7752405690384
20
-3.57783704507952
30
0
41
1
10
21.7929728030005
20
-3.58104314907095
30
0
41
1
10
21.8104046243521
20
-3.58659880144083
30
0
0
SPLINE
5
18B
100
AcDbEntity
8
1
62
256
6
ByLayer
370
18
48
1
60
0
100
AcDbSpline
70
4
71
3
72
8
73
4
40
0
40
0
40
0
40
0
40
1
40
1
40
1
40
1
41
1
10
33.4919345697621
20
-3.35306593567745
30
0
41
1
10
33.487037316705
20
-3.35582158972832
30
0
41
1
10
33.4821985444141
20
-3.35852183481847
30
0
41
1
10
33.4774133113281
20
-3.36117009319398
30
0
0
SPLINE
5
18C
100
AcDbEntity
8
1
62
256
6
ByLayer
370
18
48
1
60
0
100
AcDbSpline
70
4
71
3
72
59
73
55
40
0
40
0
40
0
40
0
40
0.031249999999994
40
0.031249999999994
40
0.062499999999988
40
0.062499999999988
40
0.124999999999976
40
0.124999999999976
40
0.140624999999973
40
0.140624999999973
40
0.15624999999997
40
0.15624999999997
40
0.187499999999964
40
0.187499999999964
40
0.249999999999952
40
0.249999999999952
40
0.31249999999994
40
0.31249999999994
40
0.32031249999994
40
0.32031249999994
40
0.328124999999939
40
0.328124999999939
40
0.34374999999994
40
0.374999999999943
40
0.374999999999943
40
0.437499999999948
40
0.437499999999948
40
0.499999999999953
40
0.499999999999953
40
0.515624999999954
40
0.515624999999954
40
0.531249999999956
40
0.531249999999956
40
0.56249999999996
40
0.56249999999996
40
0.624999999999964
40
0.624999999999964
40
0.687499999999969
40
0.687499999999969
40
0.749999999999974
40
0.749999999999974
40
0.812499999999979
40
0.812499999999979
40
0.843749999999981
40
0.843749999999981
40
0.859374999999983
40
0.859374999999983
40
0.867187499999983
40
0.867187499999983
40
0.874999999999984
40
0.874999999999984
40
0.937499999999992
40
0.937499999999992
40
1
40
1
40
1
40
1
41
1
10
33.4774133113286
20
-3.36117009319383
30
0
41
1
10
33.3503282182681
20
-3.39320160239495
30
0
41
1
10
33.2240369694311
20
-3.42128918624451
30
0
41
1
10
32.9724558504336
20
-3.46932387071226
30
0
41
1
10
32.8471834245829
20
-3.4892657259019
30
0
41
1
10
32.4722930021157
20
-3.53642950927869
30
0
41
1
10
32.2235825824805
20
-3.55100308884539
30
0
41
1
10
31.9123570458967
20
-3.54671889085165
30
0
41
1
10
31.8500863053494
20
-3.54473799664228
30
0
41
1
10
31.7254914070768
20
-3.53847432779128
30
0
41
1
10
31.6634567446623
20
-3.53420182420021
30
0
41
1
10
31.4780028148314
20
-3.51798024661113
30
0
41
1
10
31.3552138026444
20
-3.50261523869591
30
0
41
1
10
30.9883712100103
20
-3.44341737343953
30
1E-16
41
1
10
30.7459797815545
20
-3.386505510815
30
-1E-16
41
1
10
30.2625266694233
20
-3.23830460392958
30
0
41
1
10
30.0214695657641
20
-3.14693944376526
30
-2E-16
41
1
10
29.7490385444893
20
-3.02498237236102
30
0
41
1
10
29.7187508938642
20
-3.01116453807637
30
-1E-16
41
1
10
29.6581330240808
20
-2.98299419599627
30
-1E-16
41
1
10
29.6277950351378
20
-2.96863746926834
30
-2E-16
41
1
10
29.5370073101623
20
-2.92491200008399
30
2E-16
41
1
10
29.3560421186279
20
-2.83470427366669
30
0
41
1
10
29.1766316290193
20
-2.7364583524481
30
2E-16
41
1
10
28.8191284047219
20
-2.53001566800253
30
2E-16
41
1
10
28.5825362130969
20
-2.37916478238006
30
-2E-16
41
1
10
28.1093092769295
20
-2.05392558116989
30
-1E-16
41
1
10
27.8726572649714
20
-1.8794794613849
30
0
41
1
10
27.5744995221169
20
-1.64846571180024
30
-1E-16
41
1
10
27.5147036490254
20
-1.60156955149614
30
2E-16
41
1
10
27.3956229558804
20
-1.50714217183497
30
0
41
1
10
27.3362450904336
20
-1.45953952292095
30
-1E-16
41
1
10
27.1585171427928
20
-1.31565818687992
30
0
41
1
10
27.0405705179979
20
-1.21831013546347
30
2E-16
41
1
10
26.6876569601918
20
-0.922783580603095
30
-1E-16
41
1
10
26.4536185639308
20
-0.721129186879267
30
-1E-16
41
1
10
25.984379988474
20
-0.312536107695536
30
-2E-16
41
1
10
25.7491539827541
20
-0.105544126063251
30
-2E-16
41
1
10
25.2735653561487
20
0.308967467352801
30
2E-16
41
1
10
25.0380612679324
20
0.512205068192458
30
1E-16
41
1
10
24.5683793752211
20
0.907131854526284
30
1E-16
41
1
10
24.3341988610511
20
1.09884485427767
30
1E-16
41
1
10
23.9811718371126
20
1.37471031758389
30
-1E-16
41
1
10
23.8632008805577
20
1.46470735067061
30
1E-16
41
1
10
23.6854166277399
20
1.59630103752775
30
-2E-16
41
1
10
23.6260166109978
20
1.63959822158984
30
2E-16
41
1
10
23.5366558223029
20
1.70363146698153
30
0
41
1
10
23.5068013375563
20
1.72484059103195
30
0
41
1
10
23.4471485961844
20
1.76683722793706
30
-1E-16
41
1
10
23.4173468548397
20
1.78762759188183
30
-2E-16
41
1
10
23.149314929276
20
1.9728448943292
30
-2E-16
41
1
10
22.9123575457335
20
2.1240539910614
30
-1E-16
41
1
10
22.4369731128533
20
2.39617852505489
30
2E-16
41
1
10
22.1985625026937
20
2.51710640782963
30
-1E-16
41
1
10
21.9573000000001
20
2.62093055266757
30
1E-16
0
SPLINE
5
18D
100
AcDbEntity
8
1
62
256
6
ByLayer
370
18
48
1
60
0
100
AcDbSpline
70
4
71
3
72
13
73
9
40
0
40
0
40
0
40
0
40
0.18017416074167
40
0.358764903108527
40
0.535765962356834
40
0.711170981327045
40
0.884973522728114
40
1
40
1
40
1
40
1
41
1
10
33.4919560859526
20
-3.3530663367379
30
0
41
1
10
33.4956172861104
20
-3.34975319516496
30
0
41
1
10
33.5029075108267
20
-3.34315602878718
30
0
41
1
10
33.513622117855
20
-3.3331258798205
30
0
41
1
10
33.524114829224
20
-3.32306007324081
30
0
41
1
10
33.5343746989321
20
-3.31295201714843
30
0
41
1
10
33.5433063883267
20
-3.30392314677542
30
0
41
1
10
33.548800424815
20
-3.29824906593237
30
0
41
1
10
33.5509783688561
20
-3.29598049429492
30
0
0
SPLINE
5
18E
100
AcDbEntity
8
1
62
256
6
ByLayer
370
18
48
1
60
0
100
AcDbSpline
70
4
71
3
72
18
73
14
40
0
40
0
40
0
40
0
40
0.0303224095503694
40
0.274773619896496
40
0.356130288964776
40
0.437324597070859
40
0.518343038405514
40
0.599172020325292
40
0.679797915397191
40
0.760207117671723
40
0.840386103848369
40
0.92032149338143
40
1
40
1
40
1
40
1
41
1
10
33.7395230598316
20
-3.02931184770387
30
0
41
1
10
33.7412212732862
20
-3.02591151538016
30
0
41
1
10
33.7564342796817
20
-2.99503220974293
30
0
41
1
10
33.7740750549469
20
-2.9542539686569
30
0
41
1
10
33.7912983614257
20
-2.90692673461442
30
0
41
1
10
33.8007227580773
20
-2.8784058427824
30
0
41
1
10
33.8092366720364
20
-2.84977964117155
30
0
41
1
10
33.8168365083047
20
-2.82108090455492
30
0
41
1
10
33.8235175223545
20
-2.79234318165757
30
0
41
1
10
33.8292840000879
20
-2.76359935615798
30
0
41
1
10
33.834113126928
20
-2.73488290339046
30
0
41
1
10
33.8380887856246
20
-2.70622390289037
30
0
41
1
10
33.8399699231479
20
-2.68715174117727
30
0
41
1
10
33.8409089781564
20
-2.67763100770779
30
0
0
SPLINE
5
18F
100
AcDbEntity
8
1
62
256
6
ByLayer
370
18
48
1
60
0
100
AcDbSpline
70
4
71
3
72
22
73
18
40
0
40
0
40
0
40
0
40
0.0279379175179763
40
0.0789755115825028
40
0.107190641168512
40
0.158377663271049
40
0.261837700271856
40
0.369018103883711
40
0.475882298239634
40
0.545742865054322
40
0.666053790243537
40
0.758243950147673
40
0.852710080453458
40
0.882785931071665
40
0.914301518261335
40
0.97856683820974
40
1
40
1
40
1
40
1
41
1
10
21.9573000009574
20
2.28114415149605
30
0
41
1
10
22.0704254329265
20
2.22336243927688
30
1E-16
41
1
10
22.3860179083612
20
2.05173835788631
30
1E-16
41
1
10
22.8017748072087
20
1.79048583687327
30
-2E-16
41
1
10
23.2992022274187
20
1.44308878342645
30
2E-16
41
1
10
23.9877845479506
20
0.920610207242618
30
1E-16
41
1
10
24.9624694443081
20
0.0946611376971873
30
-2E-16
41
1
10
26.1366021395183
20
-0.950651278567761
30
0
41
1
10
27.1838476775952
20
-1.8331044780106
30
-1E-16
41
1
10
28.2787137726556
20
-2.64146219474972
30
0
41
1
10
29.3176915595029
20
-3.24703303911755
30
1E-16
41
1
10
30.4601796611989
20
-3.64483196365626
30
1E-16
41
1
10
31.2813058721667
20
-3.74221130651273
30
0
41
1
10
31.8825835411432
20
-3.71745238441835
30
0
41
1
10
32.3721925908084
20
-3.65981575543577
30
0
41
1
10
32.8330633829474
20
-3.55170445536416
30
0
41
1
10
33.1751148513021
20
-3.43733492510822
30
-1E-16
41
1
10
33.260990792143
20
-3.40654304427665
30
-1E-16
0
SPLINE
5
190
100
AcDbEntity
8
1
62
256
6
ByLayer
370
18
48
1
60
0
100
AcDbSpline
70
4
71
3
72
9
73
5
40
0
40
0
40
0
40
0
40
0.709983287230103
40
1
40
1
40
1
40
1
41
1
10
29.4428699921301
20
-3.46912351345179
30
-1E-16
41
1
10
29.7808521321394
20
-3.60057245738122
30
0
41
1
10
30.2595206337917
20
-3.7362732382023
30
1E-16
41
1
10
30.7444713014534
20
-3.79431064312578
30
0
41
1
10
30.8857318000966
20
-3.80445897602257
30
0
0
SPLINE
5
191
100
AcDbEntity
8
1
62
256
6
ByLayer
370
18
48
1
60
0
100
AcDbSpline
70
4
71
3
72
14
73
10
40
0
40
0
40
0
40
0
40
0.499999999999975
40
0.499999999999975
40
0.624999999999977
40
0.624999999999977
40
0.749999999999979
40
0.749999999999979
40
1
40
1
40
1
40
1
41
1
10
30.8857318000955
20
-3.80445897602249
30
0
41
1
10
31.1265366036821
20
-3.82164334106588
30
0
41
1
10
31.3668691952964
20
-3.8193497168073
30
0
41
1
10
31.6689340596809
20
-3.79221468732948
30
0
41
1
10
31.7294313393825
20
-3.7855739928431
30
0
41
1
10
31.8506576736577
20
-3.76987999670374
30
0
41
1
10
31.911385496405
20
-3.76082561459745
30
0
41
1
10
32.093545413611
20
-3.73013452425113
30
0
41
1
10
32.2151071804277
20
-3.70495185834659
30
0
41
1
10
32.3370461281413
20
-3.67505077573952
30
0
0
SPLINE
5
192
100
AcDbEntity
8
1
62
256
6
ByLayer
370
18
48
1
60
0
100
AcDbSpline
70
4
71
3
72
10
73
6
40
0
40
0
40
0
40
0
40
0.5
40
0.5
40
1
40
1
40
1
40
1
41
1
10
33.9738825972644
20
-2.44316333817326
30
0
41
1
10
33.9754457831585
20
-2.49773924965894
30
0
41
1
10
33.9721888938119
20
-2.55169060564833
30
0
41
1
10
33.9567616951929
20
-2.65843837183985
30
0
41
1
10
33.944583719542
20
-2.71123378869027
30
-1E-16
41
1
10
33.9278440370888
20
-2.76343812781681
30
0
0
SPLINE
5
193
100
AcDbEntity
8
1
62
256
6
ByLayer
370
18
48
1
60
0
100
AcDbSpline
70
4
71
3
72
14
73
10
40
0
40
0
40
0
40
0
40
0.282993140735214
40
0.282993140735214
40
0.46224485555141
40
0.46224485555141
40
0.641496570367607
40
0.641496570367607
40
1
40
1
40
1
40
1
41
1
10
33.6780289238225
20
-3.16897246570554
30
0
41
1
10
33.7092622348663
20
-3.13643353368172
30
0
41
1
10
33.7385013161378
20
-3.10194876498093
30
0
41
1
10
33.7830442390694
20
-3.04249513743088
30
0
41
1
10
33.7995621613605
20
-3.01859100449701
30
0
41
1
10
33.8304805297245
20
-2.9700138693822
30
1E-16
41
1
10
33.8449474640443
20
-2.9452628743191
30
0
41
1
10
33.8854472803349
20
-2.8696580672742
30
1E-16
41
1
10
33.9085963702062
20
-2.81746456324032
30
-1E-16
41
1
10
33.9278440370889
20
-2.76343812781673
30
0
0
SPLINE
5
194
100
AcDbEntity
8
1
62
256
6
ByLayer
370
18
48
1
60
0
100
AcDbSpline
70
4
71
3
72
18
73
14
40
0
40
0
40
0
40
0
40
0.101808596051314
40
0.228626604559495
40
0.355070467918397
40
0.437730895180602
40
0.580085200819598
40
0.689166451581004
40
0.800940676281991
40
0.83652702743442
40
0.873816903845353
40
0.949856922518098
40
1
40
1
40
1
40
1
41
1
10
23.9859792493456
20
3.65115518004959
30
0
41
1
10
24.3079682294748
20
3.6077092287039
30
1E-16
41
1
10
25.0268752132874
20
3.43357757612486
30
1E-16
41
1
10
26.1366021395183
20
2.91187533754444
30
-2E-16
41
1
10
27.1838476775952
20
2.20023974768705
30
2E-16
41
1
10
28.2787137726556
20
1.32522861913495
30
0
41
1
10
29.3176915595029
20
0.408890706245302
30
-1E-16
41
1
10
30.4601796611989
20
-0.59571347494466
30
1E-16
41
1
10
31.2813058721667
20
-1.26144669553014
30
-2E-16
41
1
10
31.8825835411432
20
-1.69502639187081
30
0
41
1
10
32.3721925908084
20
-2.02333862340751
30
-1E-16
41
1
10
32.9154177330382
20
-2.34065461428284
30
2E-16
41
1
10
33.3426189319135
20
-2.54236827840794
30
2E-16
41
1
10
33.5137068665528
20
-2.61473081096293
30
-1E-16
0
SPLINE
5
195
100
AcDbEntity
8
1
62
256
6
ByLayer
370
18
48
1
60
0
100
AcDbSpline
70
4
71
3
72
49
73
45
40
0
40
0
40
0
40
0
40
0.0380351072814286
40
0.0380351072814286
40
0.0760702145628573
40
0.0760702145628573
40
0.152140429125717
40
0.152140429125717
40
0.171157982766432
40
0.171157982766432
40
0.190175536407147
40
0.190175536407147
40
0.22821064368858
40
0.22821064368858
40
0.304280858251442
40
0.304280858251442
40
0.380351072814305
40
0.380351072814305
40
0.389859849634661
40
0.389859849634661
40
0.399368626455018
40
0.399368626455018
40
0.418386180095733
40
0.456421287377164
40
0.456421287377164
40
0.532491501940024
40
0.532491501940024
40
0.608561716502884
40
0.608561716502884
40
0.6275792701436
40
0.6275792701436
40
0.646596823784315
40
0.646596823784315
40
0.684631931065746
40
0.684631931065746
40
0.760702145628606
40
0.760702145628606
40
0.836772360191465
40
0.836772360191465
40
0.912842574754323
40
0.912842574754323
40
0.988912789317182
40
0.988912789317182
40
1
40
1
40
1
40
1
41
1
10
33.4774133113286
20
-2.07643421546061
30
0
41
1
10
33.3503282182681
20
-2.0173877565544
30
-2E-16
41
1
10
33.2240369694311
20
-1.95472634164074
30
1E-16
41
1
10
32.9724558504336
20
-1.82272437089259
30
-2E-16
41
1
10
32.8471834245829
20
-1.75335888470479
30
1E-16
41
1
10
32.4722930021157
20
-1.5356480261535
30
0
41
1
10
32.2235825824805
20
-1.37772091727481
30
1E-16
41
1
10
31.9123570458967
20
-1.16566313893131
30
1E-16
41
1
10
31.8500863053494
20
-1.12251502656861
30
0
41
1
10
31.7254914070768
20
-1.03480621251578
30
2E-16
41
1
10
31.6634567446623
20
-0.990441433133981
30
1E-16
41
1
10
31.4780028148314
20
-0.855979735798059
30
-2E-16
41
1
10
31.3552138026443
20
-0.764536306600434
30
0
41
1
10
30.9883712100103
20
-0.486077679229652
30
-2E-16
41
1
10
30.7459797815546
20
-0.294778594797123
30
-2E-16
41
1
10
30.2625266694234
20
0.095551967511426
30
2E-16
41
1
10
30.0214695657642
20
0.294602464634977
30
2E-16
41
1
10
29.7490385444894
20
0.520544362755203
30
1E-16
41
1
10
29.7187508938642
20
0.545676739757255
30
1E-16
41
1
10
29.6581330240808
20
0.595988342279867
30
-1E-16
41
1
10
29.6277950351379
20
0.621174015514555
30
-1E-16
41
1
10
29.5370073101624
20
0.69653787436016
30
1E-16
41
1
10
29.356042118628
20
0.846738509245995
30
-2E-16
41
1
10
29.1766316290193
20
0.995041285574644
30
-1E-16
41
1
10
28.8191284047219
20
1.28832229790788
30
1E-16
41
1
10
28.5825362130969
20
1.47941302154024
30
1E-16
41
1
10
28.1093092769295
20
1.84865416746703
30
1E-16
41
1
10
27.8726572649715
20
2.0267452341759
30
1E-16
41
1
10
27.574499522117
20
2.23850961302935
30
1E-16
41
1
10
27.5147036490254
20
2.28035420966077
30
0
41
1
10
27.3956229558804
20
2.36234980140998
30
-2E-16
41
1
10
27.3362450904336
20
2.40256790742311
30
1E-16
41
1
10
27.1585171427928
20
2.52082369856169
30
-1E-16
41
1
10
27.0405705179979
20
2.59646798003683
30
1E-16
41
1
10
26.6876569601918
20
2.81336834238087
30
1E-16
41
1
10
26.4536185639308
20
2.94463352156512
30
2E-16
41
1
10
25.984379988474
20
3.17711200679739
30
1E-16
41
1
10
25.749153982754
20
3.27826427966417
30
1E-16
41
1
10
25.2735653561487
20
3.44727368773582
30
-1E-16
41
1
10
25.0380612679324
20
3.51339359627914
30
0
41
1
10
24.5683793752211
20
3.60837624055421
30
0
41
1
10
24.3341988610511
20
3.63731573021238
30
0
41
1
10
24.064545124036
20
3.64865198779333
30
0
41
1
10
24.0302176456495
20
3.64968830481038
30
0
41
1
10
23.9958587208888
20
3.65031556374618
30
0
0
SPLINE
5
196
100
AcDbEntity
8
1
62
256
6
ByLayer
370
18
48
1
60
0
100
AcDbSpline
70
4
71
3
72
21
73
17
40
0
40
0
40
0
40
0
40
0.0673082039481275
40
0.129701264932316
40
0.192094325916504
40
0.254487386900692
40
0.31688044788488
40
0.379273508869068
40
0.441666569853256
40
0.504059630837444
40
0.597649222313727
40
0.691238813790009
40
0.784828405266291
40
0.878417996742573
40
0.940811057726761
40
1
40
1
40
1
40
1
41
1
10
33.6533121470041
20
-1.42336418386549
30
-2E-16
41
1
10
33.5179851813361
20
-1.34474814171571
30
0
41
1
10
33.2572134240014
20
-1.18930415296001
30
1E-16
41
1
10
32.870996875
20
-0.950358847406249
30
0
41
1
10
32.4946625000001
20
-0.710898186546956
30
-1E-16
41
1
10
32.118328125
20
-0.46635316189068
30
2E-16
41
1
10
31.74199375
20
-0.218216712188678
30
1E-16
41
1
10
31.365659375
20
0.0318565872017018
30
-1E-16
41
1
10
30.989325
20
0.281280828074841
30
-2E-16
41
1
10
30.5502682291667
20
0.569768189199692
30
0
41
1
10
30.0484890625
20
0.893166536062551
30
1E-16
41
1
10
29.4839875
20
1.24276666975172
30
2E-16
41
1
10
28.9194859375
20
1.57241571002419
30
-1E-16
41
1
10
28.4177067708333
20
1.84290407926258
30
1E-16
41
1
10
27.985092062592
20
2.05683614259942
30
1E-16
41
1
10
27.7406445418508
20
2.16823679043523
30
0
41
1
10
27.6216418127762
20
2.2200750672464
30
0
0
SPLINE
5
197
100
AcDbEntity
8
1
62
256
6
ByLayer
370
18
48
1
60
0
100
AcDbSpline
70
4
71
3
72
8
73
4
40
0
40
0
40
0
40
0
40
1
40
1
40
1
40
1
41
1
10
32.3370461210458
20
-3.67505077855628
30
0
41
1
10
32.4413110422719
20
-3.64948358939003
30
0
41
1
10
32.5455517056577
20
-3.62055362458952
30
0
41
1
10
32.649909360497
20
-3.58830448298886
30
0
0
SPLINE
5
198
100
AcDbEntity
8
1
62
256
6
ByLayer
370
18
48
1
60
0
100
AcDbSpline
70
4
71
3
72
19
73
15
40
0
40
0
40
0
40
0
40
0.0222206908246324
40
0.0976785703947791
40
0.173136449964926
40
0.248594329535073
40
0.324052209105219
40
0.399510088675366
40
0.512696908030586
40
0.625883727385806
40
0.739070546741027
40
0.852257366096247
40
0.927715245666393
40
1
40
1
40
1
40
1
41
1
10
32.6054847208363
20
-0.270739414031482
30
2E-16
41
1
10
32.5685439805575
20
-0.248869570412467
30
1E-16
41
1
10
32.4061584486121
20
-0.152640740455354
30
-1E-16
41
1
10
32.118328125
20
0.0183684651728981
30
0
41
1
10
31.74199375
20
0.241091318355529
30
-1E-16
41
1
10
31.365659375
20
0.461569953611729
30
-2E-16
41
1
10
30.989325
20
0.679140335343021
30
2E-16
41
1
10
30.5502682291667
20
0.928504083059125
30
0
41
1
10
30.0484890625
20
1.20359675969726
30
-2E-16
41
1
10
29.4839875
20
1.49311091740225
30
1E-16
41
1
10
28.9194859375
20
1.75743712768695
30
1E-16
41
1
10
28.4177067708333
20
1.96663081737705
30
1E-16
41
1
10
27.9839251553118
20
2.12726951271389
30
-1E-16
41
1
10
27.7383107272903
20
2.20884365520297
30
0
41
1
10
27.6181410909354
20
2.2463134934479
30
0
0
SPLINE
5
199
100
AcDbEntity
8
1
62
256
6
ByLayer
370
18
48
1
60
0
100
AcDbSpline
70
4
71
3
72
16
73
12
40
0
40
0
40
0
40
0
40
0.0525598620985963
40
0.157830988532086
40
0.263102114965575
40
0.368373241399064
40
0.473644367832554
40
0.578915494266043
40
0.719276996177362
40
0.859638498088681
40
1
40
1
40
1
40
1
41
1
10
27.3196589071847
20
-2.23122509188298
30
0
41
1
10
27.2257106256231
20
-2.20133315864865
30
0
41
1
10
26.9435951565616
20
-2.10701625340442
30
-1E-16
41
1
10
26.4733125
20
-1.92819954358194
30
1E-16
41
1
10
25.9088109375
20
-1.68343255869786
30
-1E-16
41
1
10
25.344309375
20
-1.41278315082664
30
2E-16
41
1
10
24.7798078125
20
-1.11905266275861
30
0
41
1
10
24.1525838541667
20
-0.770284423377717
30
0
41
1
10
23.4626375
20
-0.36818202647919
30
0
41
1
10
22.70996875
20
0.0788706009844021
30
-2E-16
41
0.999999999999999
10
22.2081895833334
20
0.37473172415227
30
0
41
1
10
21.9573
20
0.520841764737355
30
1E-16
0
SPLINE
5
19A
100
AcDbEntity
8
1
62
256
6
ByLayer
370
18
48
1
60
0
100
AcDbSpline
70
4
71
3
72
8
73
4
40
0
40
0
40
0
40
0
40
1
40
1
40
1
40
1
41
1
10
33.9738825972644
20
2.04930603015802
30
1E-16
41
1
10
33.9745496891512
20
2.06958280740645
30
0
41
1
10
33.974338964254
20
2.08973899350516
30
0
41
1
10
33.9732786628218
20
2.10977846799054
30
0
0
SPLINE
5
19B
100
AcDbEntity
8
1
62
256
6
ByLayer
370
18
48
1
60
0
100
AcDbSpline
70
4
71
3
72
18
73
14
40
0
40
0
40
0
40
0
40
0.0497352338912911
40
0.109126781773086
40
0.198214103595777
40
0.287301425418468
40
0.37638874724116
40
0.465476069063851
40
0.554563390886543
40
0.643650712709234
40
0.762433808472823
40
0.881216904236411
40
1
40
1
40
1
40
1
41
1
10
28.2937971687388
20
-2.89919461463509
30
0
41
1
10
28.1887481124925
20
-2.88681821505207
30
0
41
1
10
27.9582542645796
20
-2.85427193388239
30
0
41
1
10
27.5395932291666
20
-2.77405942684868
30
1E-16
41
1
10
27.0378140625
20
-2.64457318545976
30
0
41
1
10
26.4733125
20
-2.45645206655158
30
0
41
1
10
25.9088109375
20
-2.22907786399989
30
-1E-16
41
1
10
25.344309375
20
-1.96612431808643
30
2E-16
41
1
10
24.7798078125
20
-1.6711879342289
30
-1E-16
41
1
10
24.1525838541667
20
-1.31297398122774
30
0
41
1
10
23.4626375
20
-0.887644159638626
30
-1E-16
41
1
10
22.70996875
20
-0.398732959644832
30
0
41
0.999999999999999
10
22.2081895833334
20
-0.0656392636959709
30
2E-16
41
1
10
21.9573
20
0.100566602937334
30
2E-16
0
SPLINE
5
19C
100
AcDbEntity
8
1
62
256
6
ByLayer
370
18
48
1
60
0
100
AcDbSpline
70
4
71
3
72
16
73
12
40
0
40
0
40
0
40
0
40
0.24624484754527
40
0.24624484754527
40
0.369367271317968
40
0.369367271317968
40
0.492489695090666
40
0.492489695090666
40
0.984979390181459
40
0.984979390181459
40
1
40
1
40
1
40
1
41
1
10
33.5694727083524
20
5.68E-14
30
0
41
1
10
33.5549229999973
20
0.0118383212833919
30
0
41
1
10
33.541167172414
20
0.0245378353528167
30
0
41
1
10
33.5215750053257
20
0.0447358349847775
30
0
41
1
10
33.5152182188652
20
0.0516603500512929
30
0
41
1
10
33.5028308109363
20
0.0658730540212389
30
0
41
1
10
33.4967798860308
20
0.0731894513893963
30
0
41
1
10
33.4677871305406
20
0.109980700559078
30
0
41
1
10
33.4482265000045
20
0.140381292790522
30
0
41
1
10
33.4307147150189
20
0.171630374726135
30
0
41
1
10
33.4301996580044
20
0.172553564350807
30
0
41
1
10
33.4296878025382
20
0.17347508613517
30
0
0
SPLINE
5
19D
100
AcDbEntity
8
1
62
256
6
ByLayer
370
18
48
1
60
0
100
AcDbSpline
70
4
71
3
72
10
73
6
40
0
40
0
40
0
40
0
40
0.0858042142769114
40
0.610618354112761
40
1
40
1
40
1
40
1
41
1
10
32.5561910925078
20
2.18234943055973
30
0
41
1
10
32.5356815616719
20
2.1891018111979
30
0
41
1
10
32.3897272391693
20
2.23664788408598
30
1E-16
41
1
10
32.1507001586377
20
2.30854992062925
30
-1E-16
41
1
10
31.932182608942
20
2.36577182850985
30
-1E-16
41
1
10
31.839109850913
20
2.3885708671686
30
-1E-16
0
SPLINE
5
19E
100
AcDbEntity
8
1
62
256
6
ByLayer
370
18
48
1
60
0
100
AcDbSpline
70
4
71
3
72
9
73
5
40
0
40
0
40
0
40
0
40
0.32307255259453
40
1
40
1
40
1
40
1
41
1
10
23.0691898382461
20
-2.30682700402369
30
0
41
1
10
22.9494494754974
20
-2.27307055087675
30
0
41
1
10
22.5788195294154
20
-2.16092623872049
30
1E-16
41
0.999999999999999
10
22.2081895833334
20
-2.02614501445865
30
1E-16
41
1
10
21.9573
20
-1.92518894296703
30
1E-16
0
SPLINE
5
19F
100
AcDbEntity
8
1
62
256
6
ByLayer
370
18
48
1
60
0
100
AcDbSpline
70
4
71
3
72
12
73
8
40
0
40
0
40
0
40
0
40
0.227593429937543
40
0.440483727268493
40
0.653374024599442
40
0.866264321930392
40
1
40
1
40
1
40
1
41
1
10
33.6496569185884
20
1.49500660735973
30
1E-16
41
1
10
33.5155483623923
20
1.57120460315272
30
-1E-16
41
1
10
33.2559950145295
20
1.71488798322682
30
0
41
1
10
32.870996875
20
1.91456339392482
30
0
41
1
10
32.4946625000001
20
2.09579926588461
30
0
41
1
10
32.16496968099
20
2.24136459215259
30
0
41
1
10
31.9607216536467
20
2.32451213522515
30
0
41
1
10
31.88191841797
20
2.35550793171834
30
0
0
SPLINE
5
1A0
100
AcDbEntity
8
1
62
256
6
ByLayer
370
18
48
1
60
0
100
AcDbSpline
70
4
71
3
72
10
73
6
40
0
40
0
40
0
40
0
40
0.246483145181869
40
0.623241572590934
40
1
40
1
40
1
40
1
41
1
10
23.9550489426741
20
-2.91760187425447
30
0
41
1
10
23.7909117951161
20
-2.9068296650234
30
0
41
1
10
23.3758850642247
20
-2.86456626400709
30
0
41
1
10
22.70996875
20
-2.73665680700532
30
0
41
0.999999999999999
10
22.2081895833334
20
-2.58800322417309
30
1E-16
41
1
10
21.9573
20
-2.50131257060468
30
1E-16
0
SPLINE
5
1A1
100
AcDbEntity
8
1
62
256
6
ByLayer
370
18
48
1
60
0
100
AcDbSpline
70
4
71
3
72
12
73
8
40
0
40
0
40
0
40
0
40
0.250000000000709
40
0.250000000000709
40
0.624999999999163
40
0.624999999999163
40
1
40
1
40
1
40
1
41
1
10
33.9381373223605
20
-0.254087524226463
30
0
41
1
10
33.9371267591436
20
-0.253734588361681
30
0
41
1
10
33.9361161959437
20
-0.253381652448042
30
0
41
1
10
33.9335897879866
20
-0.252499312541857
30
0
41
1
10
33.9320739432508
20
-0.251969908488235
30
0
41
1
10
33.9290422538559
20
-0.250911100161261
30
0
41
1
10
33.9275264091967
20
-0.250381695887882
30
0
41
1
10
33.926010564576
20
-0.249852291504652
30
0
0
SPLINE
5
1A2
100
AcDbEntity
8
1
62
256
6
ByLayer
370
18
48
1
60
0
100
AcDbSpline
70
4
71
3
72
25
73
21
40
0
40
0
40
0
40
0
40
0.190652070222905
40
0.190652070222905
40
0.24123631583397
40
0.266528438639503
40
0.266528438639503
40
0.291820561445036
40
0.291820561445036
40
0.392989052667174
40
0.392989052667174
40
0.595326035111454
40
0.595326035111454
40
0.797663017555734
40
0.797663017555734
40
0.848247263166801
40
0.873539385972331
40
0.89883150877786
40
0.89883150877786
40
1
40
1
40
1
40
1
41
1
10
24.9684111355778
20
3.50398097901285
30
0
41
1
10
25.1811557405756
20
3.5996033323791
30
0
41
1
10
25.3935323273935
20
3.68246511946288
30
0
41
1
10
25.6633608616666
20
3.77013886317573
30
0
41
1
10
25.7483240220875
20
3.79627522858843
30
0
41
1
10
25.8334862648981
20
3.82019703781694
30
-1E-16
41
1
10
25.8903122414165
20
3.83564576569117
30
0
41
1
10
25.9187733017488
20
3.84312612493571
30
0
41
1
10
26.0608483883545
20
3.87916846248666
30
0
41
1
10
26.1738695406584
20
3.90367633676124
30
0
41
1
10
26.5116829667178
20
3.9643023292783
30
0
41
1
10
26.7352420458909
20
3.98764753410902
30
0
41
1
10
27.1823821367449
20
4.00052461831442
30
0
41
1
10
27.4059555102812
20
3.98996475500371
30
0
41
1
10
27.687421412468
20
3.95509695023708
30
-1E-16
41
1
10
27.7720104774744
20
3.9430150014004
30
0
41
1
10
27.8851677840648
20
3.9236382479491
30
0
41
1
10
27.9418819508725
20
3.91285420941696
30
0
41
1
10
28.0833928478786
20
3.88461271430046
30
0
41
1
10
28.1960939154063
20
3.85785048643382
30
1E-16
41
1
10
28.3084777781852
20
3.82707638277671
30
-1E-16
0
SPLINE
5
1A3
100
AcDbEntity
8
1
62
256
6
ByLayer
370
18
48
1
60
0
100
AcDbSpline
70
4
71
3
72
10
73
6
40
0
40
0
40
0
40
0
40
0.232491003577834
40
0.833116514652159
40
1
40
1
40
1
40
1
41
1
10
27.0203528884895
20
3.99542946446414
30
0
41
1
10
27.1201675675225
20
3.99693304233153
30
0
41
1
10
27.4778514615846
20
3.99018385342438
30
0
41
1
10
27.9073090780457
20
3.92939400685557
30
0
41
1
10
28.2368207585287
20
3.84672067646321
30
1E-16
41
1
10
28.3084777781853
20
3.82707638277688
30
-1E-16
0
SPLINE
5
1A4
100
AcDbEntity
8
1
62
256
6
ByLayer
370
18
48
1
60
0
100
AcDbSpline
70
4
71
3
72
27
73
23
40
0
40
0
40
0
40
0
40
0.16112466446512
40
0.16112466446512
40
0.241686996697679
40
0.241686996697679
40
0.322249328930237
40
0.322249328930237
40
0.483373993395355
40
0.483373993395355
40
0.644498657860472
40
0.644498657860472
40
0.684779823976753
40
0.704920407034893
40
0.704920407034893
40
0.725060990093033
40
0.725060990093033
40
0.805623322325589
40
0.805623322325589
40
0.966747986790701
40
0.966747986790701
40
1
40
1
40
1
40
1
41
1
10
22.8633922922476
20
-2.16035613655717
30
2E-16
41
1
10
23.0967006285464
20
-2.33469223502141
30
1E-16
41
1
10
23.327827440889
20
-2.50106383248988
30
1E-16
41
1
10
23.673933425856
20
-2.73603355827728
30
2E-16
41
1
10
23.7892039987341
20
-2.81191671557789
30
-1E-16
41
1
10
24.0199904241907
20
-2.95833792047202
30
-2E-16
41
1
10
24.1346723429087
20
-3.02835162153818
30
0
41
1
10
24.4771505154418
20
-3.22847354006527
30
0
41
1
10
24.7034535960485
20
-3.34872142070589
30
1E-16
41
1
10
25.1551263336789
20
-3.56089132597214
30
-1E-16
41
1
10
25.3804625339619
20
-3.65282667881507
30
-1E-16
41
1
10
25.6633608222896
20
-3.74881575353268
30
-1E-16
41
1
10
25.7483239499791
20
-3.77618611741704
30
0
41
1
10
25.8334861544977
20
-3.80136125801343
30
0
41
1
10
25.8903121042298
20
-3.81764974991375
30
1E-16
41
1
10
25.9187731546073
20
-3.82555243376118
30
1E-16
41
1
10
26.0608483090268
20
-3.86371112593179
30
-1E-16
41
1
10
26.1738695052947
20
-3.8899285451667
30
0
41
1
10
26.5116830342298
20
-3.95571938134719
30
1E-16
41
1
10
26.7352421437885
20
-3.98255565024894
30
0
41
1
10
27.0049513263645
20
-3.99455262576618
30
0
41
1
10
27.0510906094326
20
-3.99588162975075
30
0
41
1
10
27.0972440610145
20
-3.99648408934488
30
0
0
SPLINE
5
1A5
100
AcDbEntity
8
1
62
256
6
ByLayer
370
18
48
1
60
0
100
AcDbSpline
70
4
71
3
72
41
73
37
40
0
40
0
40
0
40
0
40
0.0078678310884144
40
0.0078678310884144
40
0.0309406722258931
40
0.0770863545008504
40
0.0770863545008504
40
0.169377719050765
40
0.169377719050765
40
0.26166908360068
40
0.26166908360068
40
0.284741924738157
40
0.284741924738157
40
0.307814765875634
40
0.307814765875634
40
0.353960448150589
40
0.353960448150589
40
0.4462518127005
40
0.4462518127005
40
0.538543177250413
40
0.538543177250413
40
0.630834541800327
40
0.630834541800327
40
0.72312590635024
40
0.72312590635024
40
0.769271588625197
40
0.769271588625197
40
0.792344429762677
40
0.792344429762677
40
0.803880850331417
40
0.803880850331417
40
0.815417270900157
40
0.815417270900157
40
0.907708635450079
40
0.907708635450079
40
1
40
1
40
1
40
1
41
1
10
29.6595217193067
20
-3.5372116552478
30
1E-16
41
1
10
29.6388456485998
20
-3.54440719459856
30
1E-16
41
1
10
29.6181715159881
20
-3.55148540219855
30
1E-16
41
1
10
29.5370073101623
20
-3.57880980723186
30
-1E-16
41
1
10
29.356042118628
20
-3.63669198123335
30
1E-16
41
1
10
29.1766316290193
20
-3.68475495824569
30
0
41
1
10
28.8191284047219
20
-3.76776964902032
30
-1E-16
41
1
10
28.5825362130969
20
-3.80567872008521
30
0
41
1
10
28.1093092769295
20
-3.84550863190094
30
0
41
1
10
27.8726572649714
20
-3.84731406527007
30
0
41
1
10
27.5744995221169
20
-3.82610910658258
30
0
41
1
10
27.5147036490254
20
-3.82068338134334
30
0
41
1
10
27.3956229558804
20
-3.80754330519778
30
0
41
1
10
27.3362450904336
20
-3.79982399837081
30
0
41
1
10
27.1585171427928
20
-3.77325257004642
30
0
41
1
10
27.040570517998
20
-3.75099594718387
30
0
41
1
10
26.6876569601918
20
-3.67094560608277
30
-1E-16
41
1
10
26.4536185639308
20
-3.59991861237918
30
0
41
1
10
25.984379988474
20
-3.42318004879098
30
0
41
1
10
25.7491539827541
20
-3.31735589113182
30
0
41
1
10
25.2735653561487
20
-3.07255437316496
30
1E-16
41
1
10
25.0380612679324
20
-2.93611438578705
30
2E-16
41
1
10
24.5683793752211
20
-2.63815561505964
30
0
41
1
10
24.3341988610511
20
-2.47668847381681
30
0
41
1
10
23.9811718371126
20
-2.21807888414111
30
-1E-16
41
1
10
23.8632008805577
20
-2.12913466030722
30
1E-16
41
1
10
23.6854166277399
20
-1.99187098948227
30
-2E-16
41
1
10
23.6260166109978
20
-1.94547630169126
30
1E-16
41
1
10
23.5366558223028
20
-1.8749646995943
30
0
41
1
10
23.5068013375563
20
-1.85128831395994
30
-1E-16
41
1
10
23.4471485961844
20
-1.80375734261548
30
-2E-16
41
1
10
23.4173468548396
20
-1.77990026200868
30
2E-16
41
1
10
23.149314929276
20
-1.56440738343531
30
1E-16
41
1
10
22.9123575457335
20
-1.36735092682383
30
1E-16
41
1
10
22.4369731128532
20
-0.966828433411393
30
0
41
1
10
22.1985625026937
20
-0.763343320818791
30
0
41
1
10
21.9573
20
-0.55901153651169
30
0
0
SPLINE
5
1A6
100
AcDbEntity
8
1
62
256
6
ByLayer
370
18
48
1
60
0
100
AcDbSpline
70
4
71
3
72
8
73
4
40
0
40
0
40
0
40
0
40
1
40
1
40
1
40
1
41
1
10
33.9738825972644
20
-0.439064123849192
30
1E-16
41
1
10
33.9753014996723
20
-0.446406737475996
30
2E-16
41
1
10
33.9727490571041
20
-0.453769650217765
30
2E-16
41
1
10
33.9664970192895
20
-0.46115147305045
30
2E-16
0
SPLINE
5
1A7
100
AcDbEntity
8
1
62
256
6
ByLayer
370
18
48
1
60
0
100
AcDbSpline
70
4
71
3
72
8
73
4
40
0
40
0
40
0
40
0
40
1
40
1
40
1
40
1
41
1
10
33.9738825972745
20
-0.439064123827791
30
1E-16
41
1
10
33.9402476105785
20
-0.588132964983174
30
1E-16
41
1
10
33.9066126238824
20
-0.737201806138529
30
1E-16
41
1
10
33.8729776371865
20
-0.886270647293884
30
1E-16
0
SPLINE
5
1A8
100
AcDbEntity
8
1
62
256
6
ByLayer
370
18
48
1
60
0
100
AcDbSpline
70
4
71
3
72
15
73
11
40
0
40
0
40
0
40
0
40
0.0516666405442416
40
0.146052380822775
40
0.19823168005979
40
0.292893763223299
40
0.484226296830187
40
0.682439044191807
40
0.880067013895877
40
1
40
1
40
1
40
1
41
1
10
21.9573000009574
20
-1.15200171446332
30
0
41
1
10
22.0704254329265
20
-1.2413826011537
30
-2E-16
41
1
10
22.3860179083612
20
-1.49144261904607
30
-1E-16
41
1
10
22.8017748072087
20
-1.8181611916628
30
-2E-16
41
1
10
23.2992022274187
20
-2.19652807960611
30
-2E-16
41
1
10
23.9877845479506
20
-2.69505506142417
30
1E-16
41
1
10
24.9624694443081
20
-3.30100615084189
30
2E-16
41
1
10
26.1366021395183
20
-3.79508082581407
30
0
41
1
10
27.1653719899592
20
-3.96831619758615
30
0
41
1
10
27.7983264123351
20
-3.93924481067626
30
0
41
1
10
28.0372382252177
20
-3.90912793127782
30
0
0
SPLINE
5
1A9
100
AcDbEntity
8
1
62
256
6
ByLayer
370
18
48
1
60
0
100
AcDbSpline
70
4
71
3
72
15
73
11
40
0
40
0
40
0
40
0
40
0.0534409404898238
40
0.147774445071615
40
0.199924866831553
40
0.294534561362472
40
0.485761206217807
40
0.683864257126009
40
0.8813828540089
40
1
40
1
40
1
40
1
41
1
10
21.9573000008118
20
-1.46281009459179
30
-1E-16
41
1
10
22.0734879736889
20
-1.55369185372049
30
1E-16
41
1
10
22.3905750384748
20
-1.80141664167519
30
-2E-16
41
1
10
22.8074252103969
20
-2.12062758927178
30
1E-16
41
1
10
23.3028324509322
20
-2.48309770546723
30
0
41
1
10
23.9894026094728
20
-2.95477136634426
30
-2E-16
41
1
10
24.961972522981
20
-3.51165721622922
30
0
41
1
10
26.1354329078367
20
-3.9311468388905
30
0
41
1
10
27.1621481332053
20
-4.03178923939976
30
0
41
1
10
27.7936612478585
20
-3.9568124367286
30
0
41
1
10
28.0305668122269
20
-3.90993604329009
30
0
0
SPLINE
5
1AA
100
AcDbEntity
8
1
62
256
6
ByLayer
370
18
48
1
60
0
100
AcDbSpline
70
4
71
3
72
14
73
10
40
0
40
0
40
0
40
0
40
0.0348214262440189
40
0.0348214262440189
40
0.356547617496013
40
0.356547617496013
40
0.678273808748006
40
0.678273808748006
40
1
40
1
40
1
40
1
41
1
10
19.2778004174928
20
-3.59999967096081
30
0
41
1
10
19.2786841581341
20
-3.60000011562059
30
0
41
1
10
19.2795556110368
20
-3.60000011415519
30
0
41
1
10
19.2883528282163
20
-3.59999528883904
30
0
41
1
10
19.2952521359917
20
-3.59995085866666
30
0
41
1
10
19.3068959537928
20
-3.59974064860222
30
0
41
1
10
19.3114757525781
20
-3.59957780000897
30
0
41
1
10
19.3185538375588
20
-3.59911592939545
30
0
41
1
10
19.3210534005238
20
-3.59881509931864
30
0
41
1
10
19.3226419081984
20
-3.59844324319411
30
0
0
SPLINE
5
1AB
100
AcDbEntity
8
1
62
256
6
ByLayer
370
18
48
1
60
0
100
AcDbSpline
70
4
71
3
72
34
73
30
40
0
40
0
40
0
40
0
40
0.0312500000000078
40
0.0312500000000078
40
0.0625000000000157
40
0.0625000000000157
40
0.125000000000023
40
0.125000000000023
40
0.187500000000031
40
0.187500000000031
40
0.218750000000031
40
0.218750000000031
40
0.25000000000003
40
0.25000000000003
40
0.31250000000003
40
0.31250000000003
40
0.375000000000029
40
0.375000000000029
40
0.500000000000028
40
0.500000000000028
40
0.562500000000028
40
0.562500000000028
40
0.625000000000027
40
0.625000000000027
40
0.750000000000018
40
0.750000000000018
40
0.875000000000009
40
0.875000000000009
40
1
40
1
40
1
40
1
41
1
10
19.3007068765049
20
-3.50990719331287
30
0
41
1
10
19.3253419079177
20
-3.50747789520776
30
0
41
1
10
19.3502448340908
20
-3.50530894778268
30
0
41
1
10
19.4004663904816
20
-3.50140916321223
30
0
41
1
10
19.4257858976165
20
-3.49967881428086
30
0
41
1
10
19.502254784954
20
-3.49506024315423
30
0
41
1
10
19.5539085778566
20
-3.49274074697925
30
0
41
1
10
19.6582030620522
20
-3.4893165934233
30
0
41
1
10
19.7108480843228
20
-3.4882145673262
30
0
41
1
10
19.7904114818001
20
-3.48732404322348
30
0
41
1
10
19.8170461001608
20
-3.48715519140791
30
0
41
1
10
19.870180114987
20
-3.4870513388824
30
0
41
1
10
19.8967207133085
20
-3.48711572486013
30
0
41
1
10
19.9762710677487
20
-3.48762276871454
30
0
41
1
10
20.0292097267484
20
-3.48837831678043
30
0
41
1
10
20.1349274095717
20
-3.49057015546899
30
0
41
1
10
20.1877302923713
20
-3.49200772739783
30
0
41
1
10
20.3457754239225
20
-3.49714696922399
30
0
41
1
10
20.4502306432909
20
-3.50165313073569
30
0
41
1
10
20.6058487169565
20
-3.50937312975734
30
0
41
1
10
20.6575721252476
20
-3.51211011539144
30
0
41
1
10
20.7604936346389
20
-3.51780261998991
30
0
41
1
10
20.8117017233169
20
-3.52075848391829
30
0
41
1
10
20.9646393512533
20
-3.52982353470878
30
1E-16
41
1
10
21.0656846050275
20
-3.53612784970389
30
0
41
1
10
21.2662466747386
20
-3.54862922505038
30
0
41
1
10
21.3656474405166
20
-3.55481924055095
30
0
41
1
10
21.562655324146
20
-3.56650690635462
30
0
41
1
10
21.6603152166741
20
-3.57200828417947
30
0
41
1
10
21.7572650903684
20
-3.57692536836782
30
0
0
SPLINE
5
1AC
100
AcDbEntity
8
1
62
256
6
ByLayer
370
18
48
1
60
0
100
AcDbSpline
70
4
71
3
72
18
73
14
40
0
40
0
40
0
40
0
40
0.25
40
0.25
40
0.5
40
0.5
40
0.625
40
0.625
40
0.75
40
0.75
40
0.875
40
0.875
40
1
40
1
40
1
40
1
41
1
10
19.1148141493375
20
3.59712137908198
30
0
41
1
10
19.1421587754692
20
3.59729626539331
30
0
41
1
10
19.1689181489978
20
3.59756088321438
30
0
41
1
10
19.2202631755716
20
3.59827494886056
30
0
41
1
10
19.2438202555411
20
3.59871707032204
30
0
41
1
10
19.2741910620222
20
3.59934635827028
30
0
41
1
10
19.2830605636891
20
3.59953897237793
30
0
41
1
10
19.2982864892452
20
3.59984020810288
30
0
41
1
10
19.3046597455963
20
3.59994784688155
30
0
41
1
10
19.3145227868854
20
3.6000221787464
30
0
41
1
10
19.3181149724434
20
3.59999123332324
30
0
41
1
10
19.3230475076778
20
3.59976668052946
30
0
41
1
10
19.3243513023343
20
3.59957523230506
30
0
41
1
10
19.3247498692814
20
3.59930133068866
30
0
0
SPLINE
5
1AD
100
AcDbEntity
8
1
62
256
6
ByLayer
370
18
48
1
60
0
100
AcDbSpline
70
4
71
3
72
28
73
24
40
0
40
0
40
0
40
0
40
0.0495747714504022
40
0.0495747714504022
40
0.0835185296128937
40
0.0835185296128937
40
0.117462287775385
40
0.117462287775385
40
0.185349804100359
40
0.185349804100359
40
0.253237320425333
40
0.253237320425333
40
0.321124836750307
40
0.321124836750307
40
0.389012353075281
40
0.389012353075281
40
0.456899869400254
40
0.456899869400254
40
0.592674902050193
40
0.592674902050193
40
0.728449934700132
40
0.728449934700132
40
1
40
1
40
1
40
1
41
1
10
19.5673785755488
20
3.49940609856162
30
0
41
1
10
19.6031258782331
20
3.4971667610321
30
0
41
1
10
19.639339921626
20
3.49529476162496
30
0
41
1
10
19.7009735758031
20
3.49267441948859
30
0
41
1
10
19.7261990603531
20
3.49175888018235
30
0
41
1
10
19.7769632578785
20
3.4902028131763
30
0
41
1
10
19.8025101576458
20
3.4895627199376
30
0
41
1
10
19.8790339861573
20
3.48803208974405
30
0
41
1
10
19.9300850632445
20
3.48752284885995
30
0
41
1
10
20.0322438310181
20
3.48734398934732
30
0
41
1
10
20.0833516244875
20
3.48767525849178
30
0
41
1
10
20.1856152013572
20
3.48903958431848
30
0
41
1
10
20.2366629080546
20
3.4900718967086
30
0
41
1
10
20.3383851176894
20
3.49270629281202
30
0
41
1
10
20.389098846007
20
3.4943091885539
30
0
41
1
10
20.4902671469625
20
3.49797882758025
30
0
41
1
10
20.540757055716
20
3.5000475271261
30
0
41
1
10
20.6914441155321
20
3.50678662912358
30
0
41
1
10
20.7909668767047
20
3.51198898734643
30
0
41
1
10
20.9884855168305
20
3.52313030281457
30
0
41
1
10
21.0865399602397
20
3.52907484472803
30
-1E-16
41
1
10
21.3783529448938
20
3.54710643787016
30
0
41
1
10
21.5691553708335
20
3.55932340549347
30
0
41
1
10
21.7572650903684
20
3.56976105612091
30
0
0
SPLINE
5
1AE
100
AcDbEntity
8
1
62
256
6
ByLayer
370
18
48
1
60
0
100
AcDbSpline
70
4
71
3
72
31
73
27
40
0
40
0
40
0
40
0
40
0.0747971124092248
40
0.0747971124092248
40
0.14959422481845
40
0.14959422481845
40
0.299188449636899
40
0.299188449636899
40
0.336587005841509
40
0.336587005841509
40
0.373985562046119
40
0.373985562046119
40
0.448782674455344
40
0.448782674455344
40
0.598376899273799
40
0.598376899273799
40
0.747971124092254
40
0.747971124092254
40
0.766670402194563
40
0.766670402194563
40
0.785369680296872
40
0.785369680296872
40
0.82276823650149
40
0.89756534891072
40
0.89756534891072
40
1
40
1
40
1
40
1
41
1
10
33.4774133113286
20
1.23806988027877
30
2E-16
41
1
10
33.350328218268
20
1.32792847259506
30
0
41
1
10
33.2240369694311
20
1.41750127200075
30
-2E-16
41
1
10
32.9724558504336
20
1.59528233452841
30
-2E-16
41
1
10
32.847183424583
20
1.68351014226985
30
1E-16
41
1
10
32.4722930021159
20
1.94530436575252
30
-1E-16
41
1
10
32.2235825824806
20
2.11596240475566
30
-1E-16
41
1
10
31.9123570458967
20
2.32173772312143
30
-1E-16
41
1
10
31.8500863053494
20
2.36252048092791
30
-2E-16
41
1
10
31.7254914070768
20
2.44322875723111
30
0
41
1
10
31.6634567446623
20
2.48297034471628
30
0
41
1
10
31.4780028148315
20
2.60021288912353
30
1E-16
41
1
10
31.3552138026444
20
2.67569935460719
30
-1E-16
41
1
10
30.9883712100104
20
2.89340514065634
30
-1E-16
41
1
10
30.7459797815545
20
3.02704822944264
30
0
41
1
10
30.2625266694233
20
3.2682996096639
30
-1E-16
41
1
10
30.0214695657642
20
3.37585213639159
30
1E-16
41
1
10
29.7490385444893
20
3.48005034860924
30
1E-16
41
1
10
29.7187508938642
20
3.49139365718662
30
0
41
1
10
29.6581330240808
20
3.51360265802492
30
0
41
1
10
29.6277950351378
20
3.52447059989584
30
0
41
1
10
29.5370073101623
20
3.55624094953242
30
1E-16
41
1
10
29.356042118628
20
3.61655796696232
30
0
41
1
10
29.1766316290193
20
3.66711797641042
30
1E-16
41
1
10
28.8942636567015
20
3.73668323383919
30
0
41
1
10
28.7318808247703
20
3.76875709718283
30
0
41
1
10
28.5697488466514
20
3.79250701056327
30
0
0
SPLINE
5
1AF
100
AcDbEntity
8
1
62
256
6
ByLayer
370
18
48
1
60
0
100
AcDbSpline
70
4
71
3
72
14
73
10
40
0
40
0
40
0
40
0
40
0.246831746656652
40
0.442482234014636
40
0.642962897594873
40
0.70679134563398
40
0.773675273370343
40
0.910062293212773
40
1
40
1
40
1
40
1
41
1
10
28.1368404419166
20
3.88442377319185
30
0
41
1
10
28.5652439195379
20
3.81434349110694
30
0
41
1
10
29.3325947959854
20
3.57922337092046
30
0
41
1
10
30.4601796611989
20
2.98224216974518
30
1E-16
41
1
10
31.2813058721667
20
2.41848687280304
30
1E-16
41
1
10
31.8825835411432
20
1.96490279874456
30
-2E-16
41
1
10
32.3721925908084
20
1.58333014054091
30
-2E-16
41
1
10
32.9154177330382
20
1.14424495166986
30
0
41
1
10
33.3426189319135
20
0.794501234053939
30
-1E-16
41
1
10
33.5137068665528
20
0.654934499740392
30
-2E-16
0
SPLINE
5
1B0
100
AcDbEntity
8
1
62
256
6
ByLayer
370
18
48
1
60
0
100
AcDbSpline
70
4
71
3
72
22
73
18
40
0
40
0
40
0
40
0
40
0.0593215626253789
40
0.0593215626253789
40
0.294491171969013
40
0.294491171969013
40
0.41207597664083
40
0.41207597664083
40
0.47086837897674
40
0.47086837897674
40
0.500264580144697
40
0.500264580144697
40
0.529660781312654
40
0.529660781312654
40
0.764830390656327
40
0.764830390656327
40
1
40
1
40
1
40
1
41
1
10
24.9810889968484
20
-3.49794906851054
30
0
41
1
10
24.9217398320688
20
-3.51316257927405
30
0
41
1
10
24.8624589789234
20
-3.52719950382038
30
0
41
1
10
24.5683793752212
20
-3.59102030163709
30
0
41
1
10
24.3341988610512
20
-3.62350091712702
30
1E-16
41
1
10
23.9811718371126
20
-3.64370105354283
30
0
41
1
10
23.8632008805577
20
-3.64566708906503
30
0
41
1
10
23.68541662774
20
-3.64125792169759
30
0
41
1
10
23.6260166109978
20
-3.63856252281639
30
0
41
1
10
23.5366558223029
20
-3.63265924075964
30
0
41
1
10
23.5068013375563
20
-3.63037913329185
30
0
41
1
10
23.4471485961845
20
-3.62520868129673
30
0
41
1
10
23.4173468548397
20
-3.62231872522992
30
0
41
1
10
23.149314929276
20
-3.5935873394954
30
0
41
1
10
22.9123575457335
20
-3.5487822688014
30
0
41
1
10
22.4369731128534
20
-3.42178585425521
30
0
41
1
10
22.1985625026937
20
-3.33958793639013
30
1E-16
41
1
10
21.9573
20
-3.2390826175477
30
0
0
SPLINE
5
1B1
100
AcDbEntity
8
1
62
256
6
ByLayer
370
18
48
1
60
0
100
AcDbSpline
70
4
71
3
72
12
73
8
40
0
40
0
40
0
40
0
40
0.499999999999986
40
0.499999999999986
40
0.749999999999993
40
0.749999999999993
40
1
40
1
40
1
40
1
41
1
10
32.3370461211802
20
3.6842974463608
30
0
41
1
10
32.4773639110769
20
3.65188899568045
30
0
41
1
10
32.6176377669312
20
3.61335227042105
30
0
41
1
10
32.8284990673175
20
3.5465038265427
30
0
41
1
10
32.8988826001176
20
3.52270314566133
30
0
41
1
10
33.039422957346
20
3.4722844678021
30
1E-16
41
1
10
33.1096360530731
20
3.44565010463919
30
-1E-16
41
1
10
33.1798345559851
20
3.41762065833984
30
0
0
SPLINE
5
1B2
100
AcDbEntity
8
1
62
256
6
ByLayer
370
18
48
1
60
0
100
AcDbSpline
70
4
71
3
72
12
73
8
40
0
40
0
40
0
40
0
40
0.25
40
0.25
40
0.5
40
0.5
40
1
40
1
40
1
40
1
41
1
10
33.513706866555
20
3.32967089200008
30
0
41
1
10
33.515719766165
20
3.33059437248281
30
0
41
1
10
33.5158421635756
20
3.33244821737179
30
0
41
1
10
33.5143447840233
20
3.33699150200584
30
0
41
1
10
33.5126702084914
20
3.33970737412452
30
-1E-16
41
1
10
33.5060283115002
20
3.34858330154648
30
0
41
1
10
33.4994790141196
20
3.35545197344192
30
0
41
1
10
33.4919667613009
20
3.36263869262584
30
0
0
SPLINE
5
1B3
100
AcDbEntity
8
1
62
256
6
ByLayer
370
18
48
1
60
0
100
AcDbSpline
70
4
71
3
72
8
73
4
40
0
40
0
40
0
40
0
40
1
40
1
40
1
40
1
41
1
10
33.491934569762
20
3.36264737103258
30
0
41
1
10
33.487037316705
20
3.36501145636834
30
0
41
1
10
33.4821985444141
20
3.3673198070687
30
0
41
1
10
33.4774133113281
20
3.36957587047073
30
0
0
SPLINE
5
1B4
100
AcDbEntity
8
1
62
256
6
ByLayer
370
18
48
1
60
0
100
AcDbSpline
70
4
71
3
72
9
73
5
40
0
40
0
40
0
40
0
40
0.368083110793602
40
1
40
1
40
1
40
1
41
1
10
32.7110716260663
20
3.58382683701811
30
0
41
1
10
32.8084452337221
20
3.56064118092516
30
0
41
1
10
33.0739717400679
20
3.48962351739237
30
0
41
1
10
33.3426189319134
20
3.39684405686674
30
0
41
1
10
33.5137068665528
20
3.3296708920009
30
0
0
SPLINE
5
1B5
100
AcDbEntity
8
1
62
256
6
ByLayer
370
18
48
1
60
0
100
AcDbSpline
70
4
71
3
72
8
73
4
40
0
40
0
40
0
40
0
40
1
40
1
40
1
40
1
41
1
10
33.4774133113286
20
3.36957587047058
30
0
41
1
10
33.4147604937541
20
3.38463133244531
30
0
41
1
10
33.3523006184033
20
3.39872011856053
30
0
41
1
10
33.2899985587565
20
3.41182790046443
30
0
0
SPLINE
5
1B6
100
AcDbEntity
8
1
62
256
6
ByLayer
370
18
48
1
60
0
100
AcDbSpline
70
4
71
3
72
12
73
8
40
0
40
0
40
0
40
0
40
0.165392773977517
40
0.467535883034913
40
0.634569755454446
40
0.937597480113583
40
1
40
1
40
1
40
1
41
1
10
21.9573000009574
20
-3.49149620756793
30
0
41
1
10
22.0704254329265
20
-3.52284259029335
30
0
41
1
10
22.3860179083612
20
-3.60036832430961
30
0
41
1
10
22.8017748072087
20
-3.66389148987113
30
0
41
1
10
23.2992022274187
20
-3.69169822928302
30
0
41
1
10
23.6378902197704
20
-3.67721892430143
30
0
41
1
10
23.869273430492
20
-3.649552336315
30
0
41
1
10
23.9087564300032
20
-3.64431481789549
30
0
0
SPLINE
5
1B7
100
AcDbEntity
8
1
62
256
6
ByLayer
370
18
48
1
60
0
100
AcDbSpline
70
4
71
3
72
14
73
10
40
0
40
0
40
0
40
0
40
0.499999999999984
40
0.499999999999984
40
0.624999999999988
40
0.624999999999988
40
0.749999999999992
40
0.749999999999992
40
1
40
1
40
1
40
1
41
1
10
30.88573193492
20
3.7920560999969
30
0
41
1
10
31.1265367158891
20
3.81290550860757
30
-1E-16
41
1
10
31.3668692852916
20
3.81427620429429
30
0
41
1
10
31.6689341218297
20
3.791675532341
30
0
41
1
10
31.7294313959579
20
3.78593936975767
30
0
41
1
10
31.8506577190606
20
3.77204849171451
30
0
41
1
10
31.911385536151
20
3.76389266991603
30
0
41
1
10
32.0935454364109
20
3.73587957147387
30
0
41
1
10
32.2151071919301
20
3.71246100306331
30
0
41
1
10
32.3370461282754
20
3.68429744337772
30
0
0
SPLINE
5
1B8
100
AcDbEntity
8
1
62
256
6
ByLayer
370
18
48
1
60
0
100
AcDbSpline
70
4
71
3
72
9
73
5
40
0
40
0
40
0
40
0
40
0.655785535488111
40
1
40
1
40
1
40
1
41
1
10
29.6680225797683
20
3.52078864329957
30
0
41
1
10
29.9317437133494
20
3.61459242597545
30
0
41
1
10
30.3358777439465
20
3.72463635520739
30
0
41
1
10
30.7444713909441
20
3.77975493823797
30
0
41
1
10
30.8857319349211
20
3.79205609999701
30
0
0
SPLINE
5
1B9
100
AcDbEntity
8
1
62
256
6
ByLayer
370
18
48
1
60
0
100
AcDbSpline
70
4
71
3
72
11
73
7
40
0
40
0
40
0
40
0
40
0.248942063670104
40
0.688372528190022
40
0.931303013604247
40
1
40
1
40
1
40
1
41
1
10
21.9573000008118
20
-3.58609005966522
30
0
41
1
10
22.0734879736889
20
-3.61064087894752
30
0
41
1
10
22.3905750384748
20
-3.66688020963326
30
0
41
1
10
22.8074252103969
20
-3.70044380399563
30
0
41
1
10
23.138728598231
20
-3.69453964454684
30
0
41
1
10
23.2754763058326
20
-3.68596456983028
30
0
41
1
10
23.3055898303976
20
-3.68377741108654
30
0
0
SPLINE
5
1BA
100
AcDbEntity
8
1
62
256
6
ByLayer
370
18
48
1
60
0
100
AcDbSpline
70
4
71
3
72
8
73
4
40
0
40
0
40
0
40
0
40
1
40
1
40
1
40
1
41
1
10
22.8344758242841
20
-3.69362619930735
30
0
41
1
10
22.8441153959891
20
-3.69391619463659
30
0
41
1
10
22.8537541732598
20
-3.69417579342203
30
0
41
1
10
22.8633922922468
20
-3.69440494078466
30
0
0
SPLINE
5
1BB
100
AcDbEntity
8
1
62
256
6
ByLayer
370
18
48
1
60
0
100
AcDbSpline
70
4
71
2
72
6
73
3
40
0
40
0
40
0
40
1
40
1
40
1
41
1
10
33.550903192735
20
-3.29605073280425
30
0
41
1
10
33.6143004916171
20
-3.23267370794989
30
0
41
1
10
33.6776977904993
20
-3.1692966830955
30
1E-16
0
SPLINE
5
1BC
100
AcDbEntity
8
1
62
256
6
ByLayer
370
18
48
1
60
0
100
AcDbSpline
70
4
71
2
72
6
73
3
40
0
40
0
40
0
40
1
40
1
40
1
41
1
10
33.6284358192577
20
3.23721583183735
30
0
41
1
10
33.5644223154928
20
3.29609367079002
30
0
41
1
10
33.5011687645642
20
3.35427274453349
30
0
0
SPLINE
5
1BD
100
AcDbEntity
8
1
62
256
6
ByLayer
370
18
48
1
60
0
100
AcDbSpline
70
4
71
2
72
6
73
3
40
0
40
0
40
0
40
1
40
1
40
1
41
1
10
33.9658957386562
20
0.416357261434285
30
-1E-16
41
1
10
33.9005038254286
20
0.70783545614961
30
1E-16
41
1
10
33.835111912201
20
0.999313650864963
30
-1E-16
0
SPLINE
5
1BE
100
AcDbEntity
8
1
62
256
6
ByLayer
370
18
48
1
60
0
100
AcDbSpline
70
4
71
2
72
6
73
3
40
0
40
0
40
0
40
1
40
1
40
1
41
1
10
31.9582351333708
20
2.35853314407606
30
0
41
1
10
31.8667323765613
20
2.38224695889321
30
1E-16
41
1
10
31.7752467557012
20
2.40910471868634
30
0
0
SPLINE
5
1BF
100
AcDbEntity
8
1
62
256
6
ByLayer
370
18
48
1
60
0
100
AcDbSpline
70
4
71
2
72
6
73
3
40
0
40
0
40
0
40
1
40
1
40
1
41
1
10
22.6606295903726
20
2.35633878409107
30
0
41
1
10
22.4105876948997
20
2.42329292350129
30
1E-16
41
1
10
22.2481450087718
20
2.47894392936237
30
0
0
SPLINE
5
1C0
100
AcDbEntity
8
1
62
256
6
ByLayer
370
18
48
1
60
0
100
AcDbSpline
70
4
71
2
72
6
73
3
40
0
40
0
40
0
40
1
40
1
40
1
41
1
10
27.6234412946767
20
2.24465926582403
30
1E-16
41
1
10
27.5626763543372
20
2.26351020790159
30
0
41
1
10
27.4996233653682
20
2.28469291102735
30
0
0
SPLINE
5
1C1
100
AcDbEntity
8
1
62
256
6
ByLayer
370
18
48
1
60
0
100
AcDbSpline
70
4
71
1
72
4
73
2
40
0
40
0
40
1
40
1
41
1
10
33.3694888213479
20
-3.03372064778705
30
0
41
1
10
33.4519915105989
20
-3.0300233523509
30
0
0
SPLINE
5
1C2
100
AcDbEntity
8
1
62
256
6
ByLayer
370
18
48
1
60
0
100
AcDbSpline
70
4
71
2
72
6
73
3
40
0
40
0
40
0
40
1
40
1
40
1
41
1
10
33.4519915105988
20
-3.0300233523509
30
0
41
1
10
33.5758144272047
20
-3.02597841526182
30
0
41
1
10
33.6997353841583
20
-3.01583246285483
30
0
0
SPLINE
5
1C3
100
AcDbEntity
8
1
62
256
6
ByLayer
370
18
48
1
60
0
100
AcDbSpline
70
4
71
1
72
4
73
2
40
0
40
0
40
1
40
1
41
1
10
28.7189672231196
20
1.36809856128656
30
-1E-16
41
1
10
28.7189717896728
20
1.36808669739517
30
-1E-16
0
SPLINE
5
1C4
100
AcDbEntity
8
1
62
256
6
ByLayer
370
18
48
1
60
0
100
AcDbSpline
70
4
71
2
72
6
73
3
40
0
40
0
40
0
40
1
40
1
40
1
41
1
10
23.9877071369442
20
3.65092170660762
30
0
41
1
10
23.9917026747503
20
3.65034607155815
30
0
41
1
10
23.9957081183573
20
3.65036521755062
30
0
0
SPLINE
5
1C5
100
AcDbEntity
8
1
62
256
6
ByLayer
370
18
48
1
60
0
100
AcDbSpline
70
4
71
2
72
6
73
3
40
0
40
0
40
0
40
1
40
1
40
1
41
1
10
22.9695864346847
20
-2.24581142693552
30
-1E-16
41
1
10
22.9200591443914
20
-2.26132787310965
30
0
41
1
10
22.8718978471113
20
-2.27719530499834
30
0
0
SPLINE
5
1C6
100
AcDbEntity
8
1
62
256
6
ByLayer
370
18
48
1
60
0
100
AcDbSpline
70
4
71
2
72
6
73
3
40
0
40
0
40
0
40
1
40
1
40
1
41
1
10
23.918260169465
20
-3.64357917288245
30
0
41
1
10
23.914460242407
20
-3.64354253925211
30
0
41
1
10
23.9106700706915
20
-3.64406056394196
30
0
0
LINE
5
7D
100
AcDbEntity
8
80
62
256
6
ByLayer
370
18
48
1
60
0
100
AcDbLine
10
0
20
0
30
0
11
-3
21
0
31
0
39
0
210
0
220
0
230
1
0
LINE
5
7E
100
AcDbEntity
8
81
62
256
6
ByLayer
370
18
48
1
60
0
100
AcDbLine
10
34
20
0
30
0
11
37
21
0
31
0
39
0
210
0
220
0
230
1
0
LINE
5
7F
100
AcDbEntity
8
SK4
62
256
6
ByLayer
370
18
48
0.05
60
0
100
AcDbLine
10
-39
20
0
30
0
11
37
21
0
31
0
39
0
210
0
220
0
230
1
0
LINE
5
81
100
AcDbEntity
8
4
62
256
6
ByLayer
370
18
48
0.05
60
0
100
AcDbLine
10
0
20
0
30
0
11
37
21
0
31
0
39
0
210
0
220
0
230
1
0
LINE
5
83
100
AcDbEntity
8
81
62
256
6
ByLayer
370
18
48
1
60
0
100
AcDbLine
10
-36
20
-6.400006
30
0
11
-36
21
-0.861538
31
0
39
0
210
0
220
0
230
1
0
LINE
5
84
100
AcDbEntity
8
81
62
256
6
ByLayer
370
18
48
1
60
0
100
AcDbLine
10
20.31756
20
0
30
0
11
21.165046
21
0
31
0
39
0
210
0
220
0
230
1
0
LINE
5
85
100
AcDbEntity
8
81
62
256
6
ByLayer
370
18
48
1
60
0
100
AcDbLine
10
-36
20
3.50806
30
0
11
-36
21
3.6
31
0
39
0
210
0
220
0
230
1
0
LINE
5
86
100
AcDbEntity
8
81
62
256
6
ByLayer
370
18
48
1
60
0
100
AcDbLine
10
-36
20
-0.861538
30
0
11
-36
21
0
31
0
39
0
210
0
220
0
230
1
0
LINE
5
87
100
AcDbEntity
8
81
62
256
6
ByLayer
370
18
48
1
60
0
100
AcDbLine
10
-36
20
-12.108854
30
0
11
-36
21
-12.334954
31
0
39
0
210
0
220
0
230
1
0
LINE
5
88
100
AcDbEntity
8
81
62
256
6
ByLayer
370
18
48
1
60
0
100
AcDbLine
10
21.165046
20
0
30
0
11
21.665046
21
0
31
0
39
0
210
0
220
0
230
1
0
LINE
5
89
100
AcDbEntity
8
81
62
256
6
ByLayer
370
18
48
1
60
0
100
AcDbLine
10
21.665046
20
0
30
0
11
21.891146
21
0
31
0
39
0
210
0
220
0
230
1
0
LINE
5
8A
100
AcDbEntity
8
81
62
256
6
ByLayer
370
18
48
1
60
0
100
AcDbLine
10
-36
20
3.598712
30
0
11
-36
21
3.984
31
0
39
0
210
0
220
0
230
1
0
LINE
5
8B
100
AcDbEntity
8
81
62
256
6
ByLayer
370
18
48
1
60
0
100
AcDbLine
10
-36
20
-0.000343
30
0
11
-36
21
-0.067959
31
0
39
0
210
0
220
0
230
1
0
LINE
5
8C
100
AcDbEntity
8
81
62
256
6
ByLayer
370
18
48
1
60
0
100
AcDbLine
10
-36
20
-12.834954
30
0
11
-36
21
-13.68244
31
0
39
0
210
0
220
0
230
1
0
LINE
5
8D
100
AcDbEntity
8
81
62
256
6
ByLayer
370
18
48
1
60
0
100
AcDbLine
10
21.891146
20
0
30
0
11
21.916395
21
0
31
0
39
0
210
0
220
0
230
1
0
LINE
5
8E
100
AcDbEntity
8
81
62
256
6
ByLayer
370
18
48
1
60
0
100
AcDbLine
10
34
20
0
30
0
11
33.138462
21
0
31
0
39
0
210
0
220
0
230
1
0
LINE
5
8F
100
AcDbEntity
8
81
62
256
6
ByLayer
370
18
48
1
60
0
100
AcDbLine
10
-36
20
3.57815
30
0
11
-36
21
3.564663
31
0
39
0
210
0
220
0
230
1
0
LINE
5
90
100
AcDbEntity
8
81
62
256
6
ByLayer
370
18
48
1
60
0
100
AcDbLine
10
33.999657
20
0
30
0
11
33.932041
21
0
31
0
39
0
210
0
220
0
230
1
0
LINE
5
91
100
AcDbEntity
8
81
62
256
6
ByLayer
370
18
48
1
60
0
100
AcDbLine
10
27.599994
20
0
30
0
11
21.916395
21
0
31
0
39
0
210
0
220
0
230
1
0
LINE
5
92
100
AcDbEntity
8
81
62
256
6
ByLayer
370
18
48
1
60
0
100
AcDbLine
10
-36
20
3.984
30
0
11
-36
21
3.57815
31
0
39
0
210
0
220
0
230
1
0
LINE
5
93
100
AcDbEntity
8
81
62
256
6
ByLayer
370
13
48
1
60
0
100
AcDbLine
10
34
20
0
30
0
11
33.138462
21
0
31
0
39
0
210
0
220
0
230
1
0
LINE
5
94
100
AcDbEntity
8
81
62
256
6
ByLayer
370
18
48
1
60
0
100
AcDbLine
10
-36
20
-12.083605
30
0
11
-36
21
-12.108854
31
0
39
0
210
0
220
0
230
1
0
LINE
5
95
100
AcDbEntity
8
81
62
256
6
ByLayer
370
18
48
1
60
0
100
AcDbLine
10
-36
20
-6.400006
30
0
11
-36
21
-12.083605
31
0
39
0
210
0
220
0
230
1
0
LINE
5
96
100
AcDbEntity
8
81
62
256
6
ByLayer
370
18
48
1
60
0
100
AcDbLine
10
-36
20
3.598712
30
0
11
-36
21
2.608344
31
0
39
0
210
0
220
0
230
1
0
LINE
5
97
100
AcDbEntity
8
81
62
256
6
ByLayer
370
18
48
1
60
0
100
AcDbLine
10
-36
20
3.564663
30
0
11
-36
21
3.50806
31
0
39
0
210
0
220
0
230
1
0
LINE
5
98
100
AcDbEntity
8
81
62
256
6
ByLayer
370
18
48
1
60
0
100
AcDbLine
10
-36
20
-12.334954
30
0
11
-36
21
-12.834954
31
0
39
0
210
0
220
0
230
1
0
LINE
5
99
100
AcDbEntity
8
81
62
256
6
ByLayer
370
18
48
1
60
0
100
AcDbLine
10
33.138462
20
0
30
0
11
27.599994
21
0
31
0
39
0
210
0
220
0
230
1
0
LINE
5
9A
100
AcDbEntity
8
81
62
256
6
ByLayer
370
18
48
1
60
0
100
AcDbLine
10
-36
20
2.608344
30
0
11
-36
21
0
31
0
39
0
210
0
220
0
230
1
0
LINE
5
9B
100
AcDbEntity
8
1
62
256
6
ByLayer
370
18
48
1
60
0
100
AcDbLine
10
0
20
-3.999175
30
0
11
0
21
3.999175
31
0
39
0
210
0
220
0
230
1
0
LINE
5
9C
100
AcDbEntity
8
1
62
256
6
ByLayer
370
18
48
1
60
0
100
AcDbLine
10
33.83125
20
-0.858279
30
0
11
33.90695
21
-0.425564
31
0
39
0
210
0
220
0
230
1
0
LINE
5
9D
100
AcDbEntity
8
1
62
256
6
ByLayer
370
18
48
1
60
0
100
AcDbLine
10
33.85217
20
-2.564837
30
0
11
33.847237
21
-2.391571
31
0
39
0
210
0
220
0
230
1
0
LINE
5
9E
100
AcDbEntity
8
1
62
256
6
ByLayer
370
18
48
1
60
0
100
AcDbLine
10
33.806463
20
1.081034
30
0
11
33.926011
21
1.171702
31
0
39
0
210
0
220
0
230
1
0
LINE
5
9F
100
AcDbEntity
8
1
62
256
6
ByLayer
370
18
48
1
60
0
100
AcDbLine
10
33.85217
20
-1.592932
30
0
11
33.830264
21
-0.932533
31
0
39
0
210
0
220
0
230
1
0
LINE
5
A0
100
AcDbEntity
8
1
62
256
6
ByLayer
370
18
48
1
60
0
100
AcDbLine
10
33.544316
20
-0.850828
30
0
11
33.830264
21
-0.932533
31
0
39
0
210
0
220
0
230
1
0
LINE
5
A1
100
AcDbEntity
8
1
62
256
6
ByLayer
370
18
48
1
60
0
100
AcDbLine
10
33.830264
20
-0.932533
30
0
11
33.90695
21
-0.930411
31
0
39
0
210
0
220
0
230
1
0
LINE
5
A2
100
AcDbEntity
8
1
62
256
6
ByLayer
370
18
48
1
60
0
100
AcDbLine
10
21.9573
20
0.520842
30
0
11
21.9573
21
0.642835
31
0
39
0
210
0
220
0
230
1
0
LINE
5
A3
100
AcDbEntity
8
1
62
256
6
ByLayer
370
18
48
1
60
0
100
AcDbLine
10
21.9573
20
-2.936543
30
0
11
21.9573
21
-3.239083
31
0
39
0
210
0
220
0
230
1
0
LINE
5
A4
100
AcDbEntity
8
1
62
256
6
ByLayer
370
18
48
1
60
0
100
AcDbLine
10
21.9573
20
-2.936543
30
0
11
21.9573
21
-2.747149
31
0
39
0
210
0
220
0
230
1
0
LINE
5
A5
100
AcDbEntity
8
1
62
256
6
ByLayer
370
18
48
1
60
0
100
AcDbLine
10
21.9573
20
0.100567
30
0
11
21.9573
21
0.520842
31
0
39
0
210
0
220
0
230
1
0
LINE
5
A6
100
AcDbEntity
8
1
62
256
6
ByLayer
370
18
48
1
60
0
100
AcDbLine
10
21.9573
20
-2.747149
30
0
11
21.9573
21
-2.501313
31
0
39
0
210
0
220
0
230
1
0
LINE
5
A7
100
AcDbEntity
8
1
62
256
6
ByLayer
370
18
48
1
60
0
100
AcDbLine
10
21.9573
20
-0.202281
30
0
11
21.9573
21
0.100567
31
0
39
0
210
0
220
0
230
1
0
LINE
5
A8
100
AcDbEntity
8
1
62
256
6
ByLayer
370
18
48
1
60
0
100
AcDbLine
10
19.322642
20
1.890899
30
0
11
21.9573
21
0.100567
31
0
39
0
210
0
220
0
230
1
0
LINE
5
A9
100
AcDbEntity
8
1
62
256
6
ByLayer
370
18
48
1
60
0
100
AcDbLine
10
21.9573
20
-0.394792
30
0
11
21.9573
21
-0.202281
31
0
39
0
210
0
220
0
230
1
0
LINE
5
AA
100
AcDbEntity
8
1
62
256
6
ByLayer
370
18
48
1
60
0
100
AcDbLine
10
19.32475
20
-1.73823
30
0
11
21.9573
21
-2.501313
31
0
39
0
210
0
220
0
230
1
0
LINE
5
AB
100
AcDbEntity
8
1
62
256
6
ByLayer
370
18
48
1
60
0
100
AcDbLine
10
21.9573
20
-2.501313
30
0
11
21.9573
21
-1.925189
31
0
39
0
210
0
220
0
230
1
0
LINE
5
AC
100
AcDbEntity
8
1
62
256
6
ByLayer
370
18
48
1
60
0
100
AcDbLine
10
21.9573
20
-1.925189
30
0
11
21.9573
21
-1.828359
31
0
39
0
210
0
220
0
230
1
0
LINE
5
AD
100
AcDbEntity
8
1
62
256
6
ByLayer
370
18
48
1
60
0
100
AcDbLine
10
21.9573
20
-1.439595
30
0
11
21.9573
21
-1.828359
31
0
39
0
210
0
220
0
230
1
0
LINE
5
AE
100
AcDbEntity
8
1
62
256
6
ByLayer
370
18
48
1
60
0
100
AcDbLine
10
21.9573
20
2.609213
30
0
11
21.9573
21
3.580099
31
0
39
0
210
0
220
0
230
1
0
LINE
5
AF
100
AcDbEntity
8
1
62
256
6
ByLayer
370
18
48
1
60
0
100
AcDbLine
10
21.9573
20
0.642835
30
0
11
21.9573
21
2.065645
31
0
39
0
210
0
220
0
230
1
0
LINE
5
B0
100
AcDbEntity
8
1
62
256
6
ByLayer
370
18
48
1
60
0
100
AcDbLine
10
21.9573
20
-0.394792
30
0
11
21.9573
21
-0.559012
31
0
39
0
210
0
220
0
230
1
0
LINE
5
B1
100
AcDbEntity
8
1
62
256
6
ByLayer
370
18
48
1
60
0
100
AcDbLine
10
33.936388
20
0.224474
30
0
11
33.973883
21
0.393857
31
0
39
0
210
0
220
0
230
1
0
LINE
5
B2
100
AcDbEntity
8
1
62
256
6
ByLayer
370
18
48
1
60
0
100
AcDbLine
10
33.52639
20
0.195686
30
0
11
33.936388
21
0.224474
31
0
39
0
210
0
220
0
230
1
0
LINE
5
B3
100
AcDbEntity
8
1
62
256
6
ByLayer
370
18
48
1
60
0
100
AcDbLine
10
33.926011
20
-0.921849
30
0
11
33.517585
21
-0.647884
31
0
39
0
210
0
220
0
230
1
0
LINE
5
B4
100
AcDbEntity
8
1
62
256
6
ByLayer
370
18
48
1
60
0
100
AcDbLine
10
33.938137
20
-0.94827
30
0
11
33.973883
21
-2.020408
31
0
39
0
210
0
220
0
230
1
0
LINE
5
B5
100
AcDbEntity
8
1
62
256
6
ByLayer
370
18
48
1
60
0
100
AcDbLine
10
33.938137
20
1.202357
30
0
11
33.973883
21
2.459472
31
0
39
0
210
0
220
0
230
1
0
LINE
5
B6
100
AcDbEntity
8
1
62
256
6
ByLayer
370
18
48
1
60
0
100
AcDbLine
10
19.32475
20
3.599301
30
0
11
19.547447
21
3.512723
31
0
39
0
210
0
220
0
230
1
0
LINE
5
B7
100
AcDbEntity
8
1
62
256
6
ByLayer
370
18
48
1
60
0
100
AcDbLine
10
33.963536
20
-2.08192
30
0
11
33.973883
21
-2.443163
31
0
39
0
210
0
220
0
230
1
0
LINE
5
B8
100
AcDbEntity
8
1
62
256
6
ByLayer
370
18
48
1
60
0
100
AcDbLine
10
19.322642
20
-3.598443
30
0
11
19.603727
21
-3.491924
31
0
39
0
210
0
220
0
230
1
0
LINE
5
B9
100
AcDbEntity
8
1
62
256
6
ByLayer
370
18
48
1
60
0
100
AcDbLine
10
33.936388
20
0.909614
30
0
11
33.973883
21
2.049306
31
0
39
0
210
0
220
0
230
1
0
LINE
5
BA
100
AcDbEntity
8
1
62
256
6
ByLayer
370
18
48
1
60
0
100
AcDbLine
10
33.868245
20
0.864704
30
0
11
33.936388
21
0.909614
31
0
39
0
210
0
220
0
230
1
0
LINE
5
BB
100
AcDbEntity
8
1
62
256
6
ByLayer
370
18
48
1
60
0
100
AcDbLine
10
33.517585
20
-0.214056
30
0
11
33.926011
21
-0.249852
31
0
39
0
210
0
220
0
230
1
0
LINE
5
BC
100
AcDbEntity
8
1
62
256
6
ByLayer
370
18
48
1
60
0
100
AcDbLine
10
33.938137
20
-0.254088
30
0
11
33.973883
21
-0.439064
31
0
39
0
210
0
220
0
230
1
0
LINE
5
BD
100
AcDbEntity
8
SK1
62
256
6
ByLayer
370
18
48
1
60
0
100
AcDbLine
10
0
20
-3.999175
30
0
11
0
21
3.999175
31
0
39
0
210
0
220
0
230
1
0
LINE
5
BF
100
AcDbEntity
8
SK1
62
256
6
ByLayer
370
18
48
1
60
0
100
AcDbLine
10
-0.020636
20
-4
30
0
11
-0.020636
21
4
31
0
39
0
210
0
220
0
230
1
0
LINE
5
C0
100
AcDbEntity
8
SK1
62
256
6
ByLayer
370
18
48
1
60
0
100
AcDbLine
10
-35.4
20
4
30
0
11
-35.4
21
-4
31
0
39
0
210
0
220
0
230
1
0
LINE
5
C1
100
AcDbEntity
8
SK1
62
256
6
ByLayer
370
18
48
1
60
0
100
AcDbLine
10
-36
20
3.4
30
0
11
-36
21
-3.4
31
0
39
0
210
0
220
0
230
1
0
LINE
5
C2
100
AcDbEntity
8
1
62
256
6
ByLayer
370
18
48
1
60
0
100
AcDbLine
10
9.959388
20
3.600799
30
0
11
0
21
3.999175
31
0
39
0
210
0
220
0
230
1
0
LINE
5
C3
100
AcDbEntity
8
1
62
256
6
ByLayer
370
18
48
1
60
0
100
AcDbLine
10
0
20
-3.999175
30
0
11
9.959388
21
-3.600799
31
0
39
0
210
0
220
0
230
1
0
LINE
5
C4
100
AcDbEntity
8
1
62
256
6
ByLayer
370
18
48
1
60
0
100
AcDbLine
10
19.310862
20
3.6
30
0
11
9.999356
21
3.6
31
0
39
0
210
0
220
0
230
1
0
LINE
5
C5
100
AcDbEntity
8
1
62
256
6
ByLayer
370
18
48
1
60
0
100
AcDbLine
10
9.999356
20
-3.6
30
0
11
19.275986
21
-3.6
31
0
39
0
210
0
220
0
230
1
0
LINE
5
C6
100
AcDbEntity
8
SK1
62
256
6
ByLayer
370
18
48
1
60
0
100
AcDbLine
10
0
20
3.999175
30
0
11
-0.020636
21
4
31
0
39
0
210
0
220
0
230
1
0
LINE
5
C7
100
AcDbEntity
8
SK1
62
256
6
ByLayer
370
18
48
1
60
0
100
AcDbLine
10
-0.020636
20
-4
30
0
11
0
21
-3.999175
31
0
39
0
210
0
220
0
230
1
0
LINE
5
C8
100
AcDbEntity
8
SK1
62
256
6
ByLayer
370
18
48
1
60
0
100
AcDbLine
10
-0.020636
20
4
30
0
11
-35.4
21
4
31
0
39
0
210
0
220
0
230
1
0
LINE
5
C9
100
AcDbEntity
8
SK1
62
256
6
ByLayer
370
18
48
1
60
0
100
AcDbLine
10
-35.4
20
-4
30
0
11
-0.020636
21
-4
31
0
39
0
210
0
220
0
230
1
0
LINE
5
CA
100
AcDbEntity
8
SK1
62
256
6
ByLayer
370
18
48
1
60
0
100
AcDbLine
10
-36
20
-3.4
30
0
11
-35.4
21
-4
31
0
39
0
210
0
220
0
230
1
0
LINE
5
CB
100
AcDbEntity
8
SK1
62
256
6
ByLayer
370
18
48
1
60
0
100
AcDbLine
10
-35.4
20
4
30
0
11
-36
21
3.4
31
0
39
0
210
0
220
0
230
1
0
LINE
5
CC
100
AcDbEntity
8
SK2
62
256
6
ByLayer
370
13
48
1
60
0
100
AcDbLine
10
-42.5
20
-4
30
0
11
-42.5
21
23.133313
31
0
39
0
210
0
220
0
230
1
0
LINE
5
CE
100
AcDbEntity
8
SK2
62
256
6
ByLayer
370
13
48
1
60
0
100
AcDbLine
10
-37.5875
20
-4
30
0
11
-44.5
21
-4
31
0
39
0
210
0
220
0
230
1
0
LINE
5
CF
100
AcDbEntity
8
SK2
62
256
6
ByLayer
370
13
48
1
60
0
100
AcDbLine
10
-37.5875
20
4
30
0
11
-44.5
21
4
31
0
39
0
210
0
220
0
230
1
0
LINE
5
D0
100
AcDbEntity
8
1
62
256
6
ByLayer
370
18
48
1
60
1
100
AcDbLine
10
-42.5
20
-4
30
0
11
-42.960784
21
-0.500002
31
0
39
0
210
0
220
0
230
1
0
LINE
5
D1
100
AcDbEntity
8
1
62
256
6
ByLayer
370
18
48
1
60
1
100
AcDbLine
10
-42.960784
20
-0.500002
30
0
11
-42.039216
21
-0.499998
31
0
39
0
210
0
220
0
230
1
0
LINE
5
D2
100
AcDbEntity
8
1
62
256
6
ByLayer
370
18
48
1
60
1
100
AcDbLine
10
-42.039216
20
-0.499998
30
0
11
-42.5
21
-4
31
0
39
0
210
0
220
0
230
1
0
LINE
5
D3
100
AcDbEntity
8
1
62
256
6
ByLayer
370
18
48
1
60
1
100
AcDbLine
10
-42.5
20
4
30
0
11
-42.039216
21
0.500002
31
0
39
0
210
0
220
0
230
1
0
LINE
5
D4
100
AcDbEntity
8
1
62
256
6
ByLayer
370
18
48
1
60
1
100
AcDbLine
10
-42.039216
20
0.500002
30
0
11
-42.960784
21
0.499998
31
0
39
0
210
0
220
0
230
1
0
LINE
5
D5
100
AcDbEntity
8
1
62
256
6
ByLayer
370
18
48
1
60
1
100
AcDbLine
10
-42.960784
20
0.499998
30
0
11
-42.5
21
4
31
0
39
0
210
0
220
0
230
1
0
LINE
5
D6
100
AcDbEntity
8
SK2
62
256
6
ByLayer
370
13
48
1
60
0
100
AcDbLine
10
14.5
20
3.6
30
0
11
14.5
21
-33.6
31
0
39
0
210
0
220
0
230
1
0
LINE
5
D7
100
AcDbEntity
8
SK2
62
256
6
ByLayer
370
13
48
1
60
0
100
AcDbLine
10
11.5875
20
-3.6
30
0
11
16.5
21
-3.6
31
0
39
0
210
0
220
0
230
1
0
LINE
5
D8
100
AcDbEntity
8
SK2
62
256
6
ByLayer
370
13
48
1
60
0
100
AcDbLine
10
11.5875
20
3.6
30
0
11
16.5
21
3.6
31
0
39
0
210
0
220
0
230
1
0
LINE
5
D9
100
AcDbEntity
8
1
62
256
6
ByLayer
370
18
48
1
60
1
100
AcDbLine
10
14.5
20
-3.6
30
0
11
14.039216
21
-0.100002
31
0
39
0
210
0
220
0
230
1
0
LINE
5
DA
100
AcDbEntity
8
1
62
256
6
ByLayer
370
18
48
1
60
1
100
AcDbLine
10
14.039216
20
-0.100002
30
0
11
14.960784
21
-0.099998
31
0
39
0
210
0
220
0
230
1
0
LINE
5
DB
100
AcDbEntity
8
1
62
256
6
ByLayer
370
18
48
1
60
1
100
AcDbLine
10
14.960784
20
-0.099998
30
0
11
14.5
21
-3.6
31
0
39
0
210
0
220
0
230
1
0
LINE
5
DC
100
AcDbEntity
8
1
62
256
6
ByLayer
370
18
48
1
60
1
100
AcDbLine
10
14.5
20
3.6
30
0
11
14.960784
21
0.100002
31
0
39
0
210
0
220
0
230
1
0
LINE
5
DD
100
AcDbEntity
8
1
62
256
6
ByLayer
370
18
48
1
60
1
100
AcDbLine
10
14.960784
20
0.100002
30
0
11
14.039216
21
0.099998
31
0
39
0
210
0
220
0
230
1
0
LINE
5
DE
100
AcDbEntity
8
1
62
256
6
ByLayer
370
18
48
1
60
1
100
AcDbLine
10
14.039216
20
0.099998
30
0
11
14.5
21
3.6
31
0
39
0
210
0
220
0
230
1
0
LINE
5
DF
100
AcDbEntity
8
2
62
256
6
ByLayer
370
13
48
1
60
0
100
AcDbLine
10
70.5
20
-4
30
0
11
70.5
21
32.625256
31
0
39
0
210
0
220
0
230
1
0
LINE
5
E1
100
AcDbEntity
8
2
62
256
6
ByLayer
370
13
48
1
60
0
100
AcDbLine
10
35.5875
20
-4
30
0
11
72.5
21
-4
31
0
39
0
210
0
220
0
230
1
0
LINE
5
E2
100
AcDbEntity
8
2
62
256
6
ByLayer
370
13
48
1
60
0
100
AcDbLine
10
35.5875
20
3.48468
30
0
11
72.5
21
3.48468
31
0
39
0
210
0
220
0
230
1
0
LINE
5
E3
100
AcDbEntity
8
1
62
256
6
ByLayer
370
18
48
1
60
1
100
AcDbLine
10
70.5
20
-4
30
0
11
70.039216
21
-0.500002
31
0
39
0
210
0
220
0
230
1
0
LINE
5
E4
100
AcDbEntity
8
1
62
256
6
ByLayer
370
18
48
1
60
1
100
AcDbLine
10
70.039216
20
-0.500002
30
0
11
70.960784
21
-0.499998
31
0
39
0
210
0
220
0
230
1
0
LINE
5
E5
100
AcDbEntity
8
1
62
256
6
ByLayer
370
18
48
1
60
1
100
AcDbLine
10
70.960784
20
-0.499998
30
0
11
70.5
21
-4
31
0
39
0
210
0
220
0
230
1
0
LINE
5
E6
100
AcDbEntity
8
1
62
256
6
ByLayer
370
18
48
1
60
1
100
AcDbLine
10
70.5
20
3.48468
30
0
11
70.960784
21
-0.015319
31
0
39
0
210
0
220
0
230
1
0
LINE
5
E7
100
AcDbEntity
8
1
62
256
6
ByLayer
370
18
48
1
60
1
100
AcDbLine
10
70.960784
20
-0.015319
30
0
11
70.039216
21
-0.015322
31
0
39
0
210
0
220
0
230
1
0
LINE
5
E8
100
AcDbEntity
8
1
62
256
6
ByLayer
370
18
48
1
60
1
100
AcDbLine
10
70.039216
20
-0.015322
30
0
11
70.5
21
3.48468
31
0
39
0
210
0
220
0
230
1
0
LINE
5
E9
100
AcDbEntity
8
SK2
62
256
6
ByLayer
370
13
48
1
60
0
100
AcDbLine
10
-1.606873
20
4.063319
30
0
11
-14.901387
21
4.594004
31
0
39
0
210
0
220
0
230
1
0
LINE
5
EA
100
AcDbEntity
8
SK2
62
256
6
ByLayer
370
13
48
1
60
0
100
AcDbLine
10
-34.4125
20
0
30
0
11
-10.993041
21
0
31
0
39
0
210
0
220
0
230
1
0
LINE
5
EB
100
AcDbEntity
8
1
62
256
6
ByLayer
370
18
48
1
60
1
100
AcDbLine
10
-12.902978
20
4.514232
30
0
11
-13.196608
21
8.032199
31
0
39
0
210
0
220
0
230
1
0
LINE
5
EC
100
AcDbEntity
8
1
62
256
6
ByLayer
370
18
48
1
60
1
100
AcDbLine
10
-13.196608
20
8.032199
30
0
11
-12.276085
21
7.988328
31
0
39
0
210
0
220
0
230
1
0
LINE
5
ED
100
AcDbEntity
8
1
62
256
6
ByLayer
370
18
48
1
60
1
100
AcDbLine
10
-12.276085
20
7.988328
30
0
11
-12.902978
21
4.514232
31
0
39
0
210
0
220
0
230
1
0
LINE
5
EE
100
AcDbEntity
8
1
62
256
6
ByLayer
370
18
48
1
60
1
100
AcDbLine
10
-12.993041
20
0
30
0
11
-12.505214
21
-3.496332
31
0
39
0
210
0
220
0
230
1
0
LINE
5
EF
100
AcDbEntity
8
1
62
256
6
ByLayer
370
18
48
1
60
1
100
AcDbLine
10
-12.505214
20
-3.496332
30
0
11
-13.426754
21
-3.503459
31
0
39
0
210
0
220
0
230
1
0
LINE
5
F0
100
AcDbEntity
8
1
62
256
6
ByLayer
370
18
48
1
60
1
100
AcDbLine
10
-13.426754
20
-3.503459
30
0
11
-12.993041
21
0
31
0
39
0
210
0
220
0
230
1
0
LINE
5
F1
100
AcDbEntity
8
SK2
62
256
6
ByLayer
370
13
48
1
60
0
100
AcDbLine
10
33.907099
20
3.045262
30
0
11
51.738583
21
11.319551
31
0
39
0
210
0
220
0
230
1
0
LINE
5
F2
100
AcDbEntity
8
1
62
256
6
ByLayer
370
18
48
1
60
1
100
AcDbLine
10
33.907099
20
3.045262
30
0
11
36.88799
21
4.936451
31
0
39
0
210
0
220
0
230
1
0
LINE
5
F3
100
AcDbEntity
8
1
62
256
6
ByLayer
370
18
48
1
60
1
100
AcDbLine
10
36.88799
20
4.936451
30
0
11
37.275898
21
4.1005
31
0
39
0
210
0
220
0
230
1
0
LINE
5
F4
100
AcDbEntity
8
1
62
256
6
ByLayer
370
18
48
1
60
1
100
AcDbLine
10
37.275898
20
4.1005
30
0
11
33.907099
21
3.045262
31
0
39
0
210
0
220
0
230
1
0
LINE
5
F5
100
AcDbEntity
8
SK2
62
256
6
ByLayer
370
13
48
1
60
0
100
AcDbLine
10
33.267745
20
3.596422
30
0
11
35.971372
21
22.48468
31
0
39
0
210
0
220
0
230
1
0
LINE
5
F6
100
AcDbEntity
8
SK2
62
256
6
ByLayer
370
13
48
1
60
0
100
AcDbLine
10
35.971372
20
22.48468
30
0
11
42.971372
21
22.48468
31
0
39
0
210
0
220
0
230
1
0
LINE
5
F7
100
AcDbEntity
8
SK2
62
256
6
ByLayer
370
13
48
1
60
0
100
AcDbLine
10
-216.736015
20
53.941823
30
0
11
-216.636085
21
53.941823
31
0
39
0
210
0
220
0
230
1
0
LINE
5
F8
100
AcDbEntity
8
1
62
256
6
ByLayer
370
18
48
1
60
1
100
AcDbLine
10
33.267745
20
3.596422
30
0
11
33.307539
21
7.126397
31
0
39
0
210
0
220
0
230
1
0
LINE
5
F9
100
AcDbEntity
8
1
62
256
6
ByLayer
370
18
48
1
60
1
100
AcDbLine
10
33.307539
20
7.126397
30
0
11
34.219808
21
6.99582
31
0
39
0
210
0
220
0
230
1
0
LINE
5
FA
100
AcDbEntity
8
1
62
256
6
ByLayer
370
18
48
1
60
1
100
AcDbLine
10
34.219808
20
6.99582
30
0
11
33.267745
21
3.596422
31
0
39
0
210
0
220
0
230
1
0
LINE
5
1CB
100
AcDbEntity
8
1
62
256
6
ByLayer
370
18
48
1
60
1
100
AcDbLine
10
-42.5
20
-4
30
0
11
-42.960784
21
-0.500002
31
0
39
0
210
0
220
0
230
1
0
LINE
5
1CC
100
AcDbEntity
8
1
62
256
6
ByLayer
370
18
48
1
60
1
100
AcDbLine
10
-42.960784
20
-0.500002
30
0
11
-42.039216
21
-0.499998
31
0
39
0
210
0
220
0
230
1
0
LINE
5
1CD
100
AcDbEntity
8
1
62
256
6
ByLayer
370
18
48
1
60
1
100
AcDbLine
10
-42.039216
20
-0.499998
30
0
11
-42.5
21
-4
31
0
39
0
210
0
220
0
230
1
0
LINE
5
1CF
100
AcDbEntity
8
1
62
256
6
ByLayer
370
18
48
1
60
1
100
AcDbLine
10
-42.5
20
4
30
0
11
-42.039216
21
0.500002
31
0
39
0
210
0
220
0
230
1
0
LINE
5
1D0
100
AcDbEntity
8
1
62
256
6
ByLayer
370
18
48
1
60
1
100
AcDbLine
10
-42.039216
20
0.500002
30
0
11
-42.960784
21
0.499998
31
0
39
0
210
0
220
0
230
1
0
LINE
5
1D1
100
AcDbEntity
8
1
62
256
6
ByLayer
370
18
48
1
60
1
100
AcDbLine
10
-42.960784
20
0.499998
30
0
11
-42.5
21
4
31
0
39
0
210
0
220
0
230
1
0
LINE
5
1D5
100
AcDbEntity
8
1
62
256
6
ByLayer
370
18
48
1
60
1
100
AcDbLine
10
14.5
20
-3.6
30
0
11
14.039216
21
-0.100002
31
0
39
0
210
0
220
0
230
1
0
LINE
5
1D6
100
AcDbEntity
8
1
62
256
6
ByLayer
370
18
48
1
60
1
100
AcDbLine
10
14.039216
20
-0.100002
30
0
11
14.960784
21
-0.099998
31
0
39
0
210
0
220
0
230
1
0
LINE
5
1D7
100
AcDbEntity
8
1
62
256
6
ByLayer
370
18
48
1
60
1
100
AcDbLine
10
14.960784
20
-0.099998
30
0
11
14.5
21
-3.6
31
0
39
0
210
0
220
0
230
1
0
LINE
5
1D9
100
AcDbEntity
8
1
62
256
6
ByLayer
370
18
48
1
60
1
100
AcDbLine
10
14.5
20
3.6
30
0
11
14.960784
21
0.100002
31
0
39
0
210
0
220
0
230
1
0
LINE
5
1DA
100
AcDbEntity
8
1
62
256
6
ByLayer
370
18
48
1
60
1
100
AcDbLine
10
14.960784
20
0.100002
30
0
11
14.039216
21
0.099998
31
0
39
0
210
0
220
0
230
1
0
LINE
5
1DB
100
AcDbEntity
8
1
62
256
6
ByLayer
370
18
48
1
60
1
100
AcDbLine
10
14.039216
20
0.099998
30
0
11
14.5
21
3.6
31
0
39
0
210
0
220
0
230
1
0
LINE
5
1DF
100
AcDbEntity
8
1
62
256
6
ByLayer
370
18
48
1
60
1
100
AcDbLine
10
70.5
20
-4
30
0
11
70.039216
21
-0.500002
31
0
39
0
210
0
220
0
230
1
0
LINE
5
1E0
100
AcDbEntity
8
1
62
256
6
ByLayer
370
18
48
1
60
1
100
AcDbLine
10
70.039216
20
-0.500002
30
0
11
70.960784
21
-0.499998
31
0
39
0
210
0
220
0
230
1
0
LINE
5
1E1
100
AcDbEntity
8
1
62
256
6
ByLayer
370
18
48
1
60
1
100
AcDbLine
10
70.960784
20
-0.499998
30
0
11
70.5
21
-4
31
0
39
0
210
0
220
0
230
1
0
LINE
5
1E3
100
AcDbEntity
8
1
62
256
6
ByLayer
370
18
48
1
60
1
100
AcDbLine
10
70.5
20
3.48468
30
0
11
70.960784
21
-0.015319
31
0
39
0
210
0
220
0
230
1
0
LINE
5
1E4
100
AcDbEntity
8
1
62
256
6
ByLayer
370
18
48
1
60
1
100
AcDbLine
10
70.960784
20
-0.015319
30
0
11
70.039216
21
-0.015322
31
0
39
0
210
0
220
0
230
1
0
LINE
5
1E5
100
AcDbEntity
8
1
62
256
6
ByLayer
370
18
48
1
60
1
100
AcDbLine
10
70.039216
20
-0.015322
30
0
11
70.5
21
3.48468
31
0
39
0
210
0
220
0
230
1
0
LINE
5
1E8
100
AcDbEntity
8
1
62
256
6
ByLayer
370
18
48
1
60
1
100
AcDbLine
10
-12.902978
20
4.514232
30
0
11
-13.196608
21
8.032199
31
0
39
0
210
0
220
0
230
1
0
LINE
5
1E9
100
AcDbEntity
8
1
62
256
6
ByLayer
370
18
48
1
60
1
100
AcDbLine
10
-13.196608
20
8.032199
30
0
11
-12.276085
21
7.988328
31
0
39
0
210
0
220
0
230
1
0
LINE
5
1EA
100
AcDbEntity
8
1
62
256
6
ByLayer
370
18
48
1
60
1
100
AcDbLine
10
-12.276085
20
7.988328
30
0
11
-12.902978
21
4.514232
31
0
39
0
210
0
220
0
230
1
0
LINE
5
1EC
100
AcDbEntity
8
1
62
256
6
ByLayer
370
18
48
1
60
1
100
AcDbLine
10
-12.993041
20
0
30
0
11
-12.505214
21
-3.496332
31
0
39
0
210
0
220
0
230
1
0
LINE
5
1ED
100
AcDbEntity
8
1
62
256
6
ByLayer
370
18
48
1
60
1
100
AcDbLine
10
-12.505214
20
-3.496332
30
0
11
-13.426754
21
-3.503459
31
0
39
0
210
0
220
0
230
1
0
LINE
5
1EE
100
AcDbEntity
8
1
62
256
6
ByLayer
370
18
48
1
60
1
100
AcDbLine
10
-13.426754
20
-3.503459
30
0
11
-12.993041
21
0
31
0
39
0
210
0
220
0
230
1
0
LINE
5
1F3
100
AcDbEntity
8
1
62
256
6
ByLayer
370
18
48
1
60
1
100
AcDbLine
10
33.907099
20
3.045262
30
0
11
36.88799
21
4.936451
31
0
39
0
210
0
220
0
230
1
0
LINE
5
1F4
100
AcDbEntity
8
1
62
256
6
ByLayer
370
18
48
1
60
1
100
AcDbLine
10
36.88799
20
4.936451
30
0
11
37.275898
21
4.1005
31
0
39
0
210
0
220
0
230
1
0
LINE
5
1F5
100
AcDbEntity
8
1
62
256
6
ByLayer
370
18
48
1
60
1
100
AcDbLine
10
37.275898
20
4.1005
30
0
11
33.907099
21
3.045262
31
0
39
0
210
0
220
0
230
1
0
LINE
5
1F9
100
AcDbEntity
8
1
62
256
6
ByLayer
370
18
48
1
60
1
100
AcDbLine
10
33.267745
20
3.596422
30
0
11
33.307539
21
7.126397
31
0
39
0
210
0
220
0
230
1
0
LINE
5
1FA
100
AcDbEntity
8
1
62
256
6
ByLayer
370
18
48
1
60
1
100
AcDbLine
10
33.307539
20
7.126397
30
0
11
34.219808
21
6.99582
31
0
39
0
210
0
220
0
230
1
0
LINE
5
1FB
100
AcDbEntity
8
1
62
256
6
ByLayer
370
18
48
1
60
1
100
AcDbLine
10
34.219808
20
6.99582
30
0
11
33.267745
21
3.596422
31
0
39
0
210
0
220
0
230
1
0
MTEXT
5
1C7
100
AcDbEntity
8
SK2
62
256
6
ByLayer
370
18
48
1
60
0
100
AcDbMText
10
-43.841114
20
9.658437
30
0
210
0
220
0
230
1
1
%%c
40
3
41
0
44
1.084337
50
90
71
7
72
5
7
iso_b_vert
0
MTEXT
5
1CA
100
AcDbEntity
8
SK2
62
256
6
ByLayer
370
18
48
1
60
0
100
AcDbMText
10
-43.841114
20
15.635
30
0
210
0
220
0
230
1
1
\W0.6903;8 h6
40
3
41
0
44
1.084337
50
90
71
7
72
5
7
iso_b_vert
0
MTEXT
5
1D3
100
AcDbEntity
8
SK2
62
256
6
ByLayer
370
18
48
1
60
0
100
AcDbMText
10
13.158886
20
-31.941562
30
0
210
0
220
0
230
1
1
%%c
40
3
41
0
44
1.084337
50
90
71
7
72
5
7
iso_b_vert
0
MTEXT
5
1D4
100
AcDbEntity
8
SK2
62
256
6
ByLayer
370
18
48
1
60
0
100
AcDbMText
10
13.158886
20
-25.965
30
0
210
0
220
0
230
1
1
\W0.7346;7.20
40
3
41
0
44
1.084337
50
90
71
7
72
5
7
iso_b_vert
0
MTEXT
5
1DD
100
AcDbEntity
8
2
62
256
6
ByLayer
370
18
48
1
60
0
100
AcDbMText
10
69.158886
20
17.658438
30
0
210
0
220
0
230
1
1
%%c
40
3
41
0
44
1.084337
50
90
71
7
72
5
7
iso_b_vert
0
MTEXT
5
1DE
100
AcDbEntity
8
2
62
256
6
ByLayer
370
18
48
1
60
0
100
AcDbMText
10
69.158886
20
23.635
30
0
210
0
220
0
230
1
1
\W0.6563;8 h10
40
3
41
0
44
1.084337
50
90
71
7
72
5
7
iso_b_vert
0
MTEXT
5
1E7
100
AcDbEntity
8
SK2
62
256
6
ByLayer
370
18
48
1
60
0
100
AcDbMText
10
-12.997205
20
12.028696
30
0
210
0
220
0
230
1
1
\W0.7635;(2%%d)
40
3
41
0
44
1.084337
50
82.5817550074337
71
7
72
5
7
iso_b_vert
0
MTEXT
5
1F0
100
AcDbEntity
8
SK2
62
256
6
ByLayer
370
18
48
1
60
0
100
AcDbMText
10
38.235394
20
5.793839
30
0
210
0
220
0
230
1
1
\W0.6380;R
40
2.5
41
0
44
1.084337
50
24.8925682365523
71
7
72
5
7
iso_b_vert
0
MTEXT
5
1F1
100
AcDbEntity
8
SK2
62
256
6
ByLayer
370
18
48
1
60
0
100
AcDbMText
10
43.337564
20
8.161383
30
0
210
0
220
0
230
1
1
\W0.8221;\W0.4110;%%p\W0.8221;0.03
40
2.5
41
0
44
1.084337
50
24.8925682365523
71
7
72
5
7
iso_b_vert
0
MTEXT
5
1F2
100
AcDbEntity
8
SK2
62
256
6
ByLayer
370
18
48
1
60
0
100
AcDbMText
10
40.622359
20
6.901455
30
0
210
0
220
0
230
1
1
\W0.3580;1
40
2.5
41
0
44
1.084337
50
24.8925682365523
71
7
72
5
7
iso_b_vert
0
MTEXT
5
1F7
100
AcDbEntity
8
SK2
62
256
6
ByLayer
370
18
48
1
60
0
100
AcDbMText
10
44.630372
20
20.369794
30
0
210
0
220
0
230
1
1
\W0.6380;R
40
3
41
0
44
1.084337
50
0
71
7
72
5
7
iso_b_vert
0
MTEXT
5
1F8
100
AcDbEntity
8
SK2
62
256
6
ByLayer
370
18
48
1
60
0
100
AcDbMText
10
47.788086
20
20.369794
30
0
210
0
220
0
230
1
1
\W0.7361;40
40
3
41
0
44
1.084337
50
0
71
7
72
5
7
iso_b_vert
0
MTEXT
5
1FD
100
AcDbEntity
8
SK6
62
256
6
ByLayer
370
18
48
1
60
0
100
AcDbMText
10
-28.832996
20
-46.773057
30
0
210
0
220
0
230
1
1
\W0.7996;2A146-0800A040-RCMF R2AH
40
3
41
0
44
1.084337
50
0
71
7
72
5
7
iso_b_vert
0
HATCH
5
1CE
100
AcDbEntity
8
SK2
62
256
6
ByLayer
370
13
48
1
60
0
100
AcDbHatch
10
0
20
0
30
0
210
0
220
0
230
1
2
ANSI31
70
0
71
0
91
1
92
5
93
3
72
1
10
-42.5
20
-4.00000000000003
11
-42.9607837415528
21
-0.500001692553212
72
1
10
-42.9607837415528
20
-0.500001692553212
11
-42.0392162584472
21
-0.499998307446845
72
1
10
-42.0392162584472
20
-0.499998307446845
11
-42.5
21
-4.00000000000003
97
0
75
0
76
1
52
0
41
0.0062
77
0
78
1
53
45
43
0
44
0
45
-0.0139193969876572
46
0.0139193969876572
79
0
47
0
98
1
10
0
20
0
0
HATCH
5
1D2
100
AcDbEntity
8
SK2
62
256
6
ByLayer
370
13
48
1
60
0
100
AcDbHatch
10
0
20
0
30
0
210
0
220
0
230
1
2
ANSI31
70
0
71
0
91
1
92
5
93
3
72
1
10
-42.5
20
3.99999999999997
11
-42.0392162584472
21
0.500001692553155
72
1
10
-42.0392162584472
20
0.500001692553155
11
-42.9607837415528
21
0.499998307446788
72
1
10
-42.9607837415528
20
0.499998307446788
11
-42.5
21
3.99999999999997
97
0
75
0
76
1
52
0
41
0.0062
77
0
78
1
53
45
43
0
44
0
45
-0.0139193969876572
46
0.0139193969876572
79
0
47
0
98
1
10
0
20
0
0
HATCH
5
1D8
100
AcDbEntity
8
SK2
62
256
6
ByLayer
370
13
48
1
60
0
100
AcDbHatch
10
0
20
0
30
0
210
0
220
0
230
1
2
ANSI31
70
0
71
0
91
1
92
5
93
3
72
1
10
14.5
20
-3.59999999999997
11
14.0392162584472
21
-0.10000169255315
72
1
10
14.0392162584472
20
-0.10000169255315
11
14.9607837415528
21
-0.0999983074467821
72
1
10
14.9607837415528
20
-0.0999983074467821
11
14.5
21
-3.59999999999997
97
0
75
0
76
1
52
0
41
0.0062
77
0
78
1
53
45
43
0
44
0
45
-0.0139193969876572
46
0.0139193969876572
79
0
47
0
98
1
10
0
20
0
0
HATCH
5
1DC
100
AcDbEntity
8
SK2
62
256
6
ByLayer
370
13
48
1
60
0
100
AcDbHatch
10
0
20
0
30
0
210
0
220
0
230
1
2
ANSI31
70
0
71
0
91
1
92
5
93
3
72
1
10
14.5
20
3.60000000000002
11
14.9607837415528
21
0.100001692553207
72
1
10
14.9607837415528
20
0.100001692553207
11
14.0392162584472
21
0.0999983074468389
72
1
10
14.0392162584472
20
0.0999983074468389
11
14.5
21
3.60000000000002
97
0
75
0
76
1
52
0
41
0.0062
77
0
78
1
53
45
43
0
44
0
45
-0.0139193969876572
46
0.0139193969876572
79
0
47
0
98
1
10
0
20
0
0
HATCH
5
1E2
100
AcDbEntity
8
2
62
256
6
ByLayer
370
13
48
1
60
0
100
AcDbHatch
10
0
20
0
30
0
210
0
220
0
230
1
2
ANSI31
70
0
71
0
91
1
92
5
93
3
72
1
10
70.5
20
-3.99999999999994
11
70.0392162584472
21
-0.500001692553127
72
1
10
70.0392162584472
20
-0.500001692553127
11
70.9607837415528
21
-0.499998307446759
72
1
10
70.9607837415528
20
-0.499998307446759
11
70.5
21
-3.99999999999994
97
0
75
0
76
1
52
0
41
0.0062
77
0
78
1
53
45
43
0
44
0
45
-0.0139193969876572
46
0.0139193969876572
79
0
47
0
98
1
10
0
20
0
0
HATCH
5
1E6
100
AcDbEntity
8
2
62
256
6
ByLayer
370
13
48
1
60
0
100
AcDbHatch
10
0
20
0
30
0
210
0
220
0
230
1
2
ANSI31
70
0
71
0
91
1
92
5
93
3
72
1
10
70.5
20
3.48467966460063
11
70.9607837415528
21
-0.0153186428461822
72
1
10
70.9607837415528
20
-0.0153186428461822
11
70.0392162584472
21
-0.0153220279525499
72
1
10
70.0392162584472
20
-0.0153220279525499
11
70.5
21
3.48467966460063
97
0
75
0
76
1
52
0
41
0.0062
77
0
78
1
53
45
43
0
44
0
45
-0.0139193969876572
46
0.0139193969876572
79
0
47
0
98
1
10
0
20
0
0
HATCH
5
1EB
100
AcDbEntity
8
SK2
62
256
6
ByLayer
370
13
48
1
60
0
100
AcDbHatch
10
0
20
0
30
0
210
0
220
0
230
1
2
ANSI31
70
0
71
0
91
1
92
5
93
3
72
1
10
-12.9029780315899
20
4.51423249951262
11
-13.1966080005035
21
8.03219941947728
72
1
10
-13.1966080005035
20
8.03219941947728
11
-12.2760853670307
21
7.98832793451098
72
1
10
-12.2760853670307
20
7.98832793451098
11
-12.9029780315899
21
4.51423249951262
97
0
75
0
76
1
52
0
41
0.0062
77
0
78
1
53
45
43
0
44
0
45
-0.0139193969876572
46
0.0139193969876572
79
0
47
0
98
1
10
0
20
0
0
HATCH
5
1EF
100
AcDbEntity
8
SK2
62
256
6
ByLayer
370
13
48
1
60
0
100
AcDbHatch
10
0
20
0
30
0
210
0
220
0
230
1
2
ANSI31
70
0
71
0
91
1
92
5
93
3
72
1
10
-12.9930408900813
20
-2.84E-14
11
-12.5052143929524
21
-3.49633166580477
72
1
10
-12.5052143929524
20
-3.49633166580477
11
-13.4267543131849
21
-3.50345917215751
72
1
10
-13.4267543131849
20
-3.50345917215751
11
-12.9930408900813
21
-2.84E-14
97
0
75
0
76
1
52
0
41
0.0062
77
0
78
1
53
45
43
0
44
0
45
-0.0139193969876572
46
0.0139193969876572
79
0
47
0
98
1
10
0
20
0
0
HATCH
5
1F6
100
AcDbEntity
8
SK2
62
256
6
ByLayer
370
13
48
1
60
0
100
AcDbHatch
10
0
20
0
30
0
210
0
220
0
230
1
2
ANSI31
70
0
71
0
91
1
92
5
93
3
72
1
10
33.9070986186866
20
3.04526202886277
11
36.887990004913
21
4.93645116592194
72
1
10
36.887990004913
20
4.93645116592194
11
37.2758975632657
21
4.10049999982323
72
1
10
37.2758975632657
20
4.10049999982323
11
33.9070986186866
21
3.04526202886277
97
0
75
0
76
1
52
0
41
0.0062
77
0
78
1
53
45
43
0
44
0
45
-0.0139193969876572
46
0.0139193969876572
79
0
47
0
98
1
10
0
20
0
0
HATCH
5
1FC
100
AcDbEntity
8
SK2
62
256
6
ByLayer
370
13
48
1
60
0
100
AcDbHatch
10
0
20
0
30
0
210
0
220
0
230
1
2
ANSI31
70
0
71
0
91
1
92
5
93
3
72
1
10
33.2677452351071
20
3.59642156027726
11
33.3075385120994
21
7.12639695731846
72
1
10
33.3075385120994
20
7.12639695731846
11
34.2198083556801
21
6.99581993628434
72
1
10
34.2198083556801
20
6.99581993628434
11
33.2677452351071
21
3.59642156027726
97
0
75
0
76
1
52
0
41
0.0062
77
0
78
1
53
45
43
0
44
0
45
-0.0139193969876572
46
0.0139193969876572
79
0
47
0
98
1
10
0
20
0
0
DIMENSION
5
200
100
AcDbEntity
8
2
62
256
6
ByLayer
370
18
48
1
60
0
100
AcDbDimension
2
_U0
10
10
20
12.216097
30
0
11
22
21
12.216097
31
0
70
32
71
1
72
1
41
1
210
0
220
0
230
1
3
Standard
100
AcDbAlignedDimension
13
34
23
3.48468
33
0
14
10
24
3.6
34
0
50
0
100
AcDbRotatedDimension
1001
ACAD
1000
DSTYLE
1002
{
1070
   371
1070
    13
1070
   372
1070
    13
1070
     3
1000

1070
   170
1070
     0
1070
   144
1040
1.0
1070
   277
1070
     2
1070
   284
1070
     8
1070
   278
1070
    46
1070
   146
1040
1.166667
1070
   345
1005
16
1070
   347
1005
16
1070
   346
1005
16
1070
   344
1005
0
1070
   343
1005
0
1070
   172
1070
     1
1070
    76
1070
     0
1070
    75
1070
     0
1070
   282
1070
     0
1070
   281
1070
     0
1070
    71
1070
     0
1070
    74
1070
     0
1070
   279
1070
     0
1070
   173
1070
     1
1070
   340
1005
1C8
1070
   271
1070
     2
1070
   272
1070
     2
1070
    77
1070
     1
1070
    73
1070
     1
1070
   171
1070
     3
1070
   274
1070
     4
1070
   177
1070
     2
1070
   176
1070
     2
1070
   178
1070
     2
1070
    78
1070
     8
1070
    48
1040
-0.1
1070
    41
1040
3.5
1070
   147
1040
1.5
1070
    42
1040
1.5875
1070
    44
1040
2.0
1070
   140
1040
3.0
1002
}
1001
ACAD_DSTYLE_DIM_LINETYPE
1070
   380
1005
16
1001
ACAD_DSTYLE_DIM_EXT1_LINETYPE
1070
   381
1005
16
1001
ACAD_DSTYLE_DIM_EXT2_LINETYPE
1070
   382
1005
16
0
DIMENSION
5
219
100
AcDbEntity
8
2
62
256
6
ByLayer
370
18
48
1
60
0
100
AcDbDimension
2
_U1
10
-0.020636
20
22.216097
30
0
11
16.989682
21
22.216097
31
0
70
32
71
1
72
1
41
1
210
0
220
0
230
1
3
Standard
100
AcDbAlignedDimension
13
34
23
3.48468
33
0
14
-0.020636
24
4
34
0
50
0
100
AcDbRotatedDimension
1001
ACAD
1000
DSTYLE
1002
{
1070
   371
1070
    13
1070
   372
1070
    13
1070
     3
1000

1070
   170
1070
     0
1070
   144
1040
1.0
1070
   277
1070
     2
1070
   284
1070
     8
1070
   278
1070
    46
1070
   146
1040
1.166667
1070
   345
1005
16
1070
   347
1005
16
1070
   346
1005
16
1070
   344
1005
0
1070
   343
1005
0
1070
   172
1070
     1
1070
    76
1070
     0
1070
    75
1070
     0
1070
   282
1070
     0
1070
   281
1070
     0
1070
    71
1070
     0
1070
    74
1070
     0
1070
   279
1070
     0
1070
   173
1070
     1
1070
   340
1005
1C8
1070
   271
1070
     2
1070
   272
1070
     2
1070
    77
1070
     1
1070
    73
1070
     1
1070
   171
1070
     3
1070
   274
1070
     4
1070
   177
1070
     2
1070
   176
1070
     2
1070
   178
1070
     2
1070
    78
1070
     8
1070
    48
1040
-0.1
1070
    41
1040
3.5
1070
   147
1040
1.5
1070
    42
1040
1.5875
1070
    44
1040
2.0
1070
   140
1040
3.0
1002
}
1001
ACAD_DSTYLE_DIM_LINETYPE
1070
   380
1005
16
1001
ACAD_DSTYLE_DIM_EXT1_LINETYPE
1070
   381
1005
16
1001
ACAD_DSTYLE_DIM_EXT2_LINETYPE
1070
   382
1005
16
0
DIMENSION
5
231
100
AcDbEntity
8
SK2
62
256
6
ByLayer
370
18
48
1
60
0
100
AcDbDimension
2
_U2
10
-36
20
32.216097
30
0
11
-1
21
32.216097
31
0
70
32
71
1
72
1
41
1
210
0
220
0
230
1
3
Standard
100
AcDbAlignedDimension
13
34
23
3.48468
33
0
14
-36
24
0
34
0
50
0
100
AcDbRotatedDimension
1001
ACAD
1000
DSTYLE
1002
{
1070
   371
1070
    13
1070
   372
1070
    13
1070
     3
1000

1070
   170
1070
     0
1070
   144
1040
1.0
1070
   277
1070
     2
1070
   284
1070
     8
1070
   278
1070
    46
1070
   146
1040
1.166667
1070
   345
1005
16
1070
   347
1005
16
1070
   346
1005
16
1070
   344
1005
0
1070
   343
1005
0
1070
   172
1070
     1
1070
    76
1070
     0
1070
    75
1070
     0
1070
   282
1070
     0
1070
   281
1070
     0
1070
    71
1070
     0
1070
    74
1070
     0
1070
   279
1070
     0
1070
   173
1070
     1
1070
   340
1005
1C8
1070
   271
1070
     2
1070
   272
1070
     2
1070
    77
1070
     1
1070
    73
1070
     1
1070
   171
1070
     3
1070
   274
1070
     4
1070
   177
1070
     2
1070
   176
1070
     2
1070
   178
1070
     2
1070
    78
1070
     8
1070
    48
1040
-0.1
1070
    41
1040
3.5
1070
   147
1040
1.5
1070
    42
1040
1.5875
1070
    44
1040
2.0
1070
   140
1040
3.0
1002
}
1001
ACAD_DSTYLE_DIM_LINETYPE
1070
   380
1005
16
1001
ACAD_DSTYLE_DIM_EXT1_LINETYPE
1070
   381
1005
16
1001
ACAD_DSTYLE_DIM_EXT2_LINETYPE
1070
   382
1005
16
0
DIMENSION
5
249
100
AcDbEntity
8
SK2
62
256
6
ByLayer
370
18
48
1
60
0
100
AcDbDimension
2
_U3
10
-0.020636
20
-23.53244
30
0
11
-18.010318
21
-23.53244
31
0
70
32
71
1
72
1
41
1
210
0
220
0
230
1
3
Standard
100
AcDbAlignedDimension
13
-36
23
0
33
0
14
-0.020636
24
4
34
0
50
0
100
AcDbRotatedDimension
1001
ACAD
1000
DSTYLE
1002
{
1070
   371
1070
    13
1070
   372
1070
    13
1070
     3
1000

1070
   170
1070
     0
1070
   144
1040
1.0
1070
   277
1070
     2
1070
   284
1070
     8
1070
   278
1070
    46
1070
   146
1040
1.166667
1070
   345
1005
16
1070
   347
1005
16
1070
   346
1005
16
1070
   344
1005
0
1070
   343
1005
0
1070
   172
1070
     1
1070
    76
1070
     0
1070
    75
1070
     0
1070
   282
1070
     0
1070
   281
1070
     0
1070
    71
1070
     0
1070
    74
1070
     0
1070
   279
1070
     0
1070
   173
1070
     1
1070
   340
1005
1C8
1070
   271
1070
     2
1070
   272
1070
     2
1070
    77
1070
     1
1070
    73
1070
     1
1070
   171
1070
     3
1070
   274
1070
     4
1070
   177
1070
     2
1070
   176
1070
     2
1070
   178
1070
     2
1070
    78
1070
     8
1070
    48
1040
-0.1
1070
    41
1040
3.5
1070
   147
1040
1.5
1070
    42
1040
1.5875
1070
    44
1040
2.0
1070
   140
1040
3.0
1002
}
1001
ACAD_DSTYLE_DIM_LINETYPE
1070
   380
1005
16
1001
ACAD_DSTYLE_DIM_EXT1_LINETYPE
1070
   381
1005
16
1001
ACAD_DSTYLE_DIM_EXT2_LINETYPE
1070
   382
1005
16
0
ENDSEC
0
SECTION
2
OBJECTS
0
DICTIONARY
5
2d1
330
0
100
AcDbDictionary
280
0
281
1
3
ACAD_GROUP
350
2d2
3
ACAD_MLINESTYLE
350
2d3
0
DICTIONARY
5
2d2
330
0
100
AcDbDictionary
280
0
281
1
0
DICTIONARY
5
2d3
330
0
100
AcDbDictionary
280
0
281
1
3
Standard
350
18
0
MLINESTYLE
5
18
330
2d3
100
AcDbMlineStyle
2
Standard
70
0
3

62
256
51
90
52
90
71
2
49
-0.5
62
256
6
ByLayer
49
0.5
62
256
6
ByLayer
0
RASTERVARIABLES
5
2bf
330

100
AcDbRasterVariables
90
0
70
1
71
1
72
1
0
ENDSEC
0
EOF
