0
SECTION
2
HEADER
9
$ACADVER
1
AC1015
9
$DWGCODEPAGE
3
ANSI_1252
9
$HANDSEED
5
21b
9
$ANGBASE
50
0
9
$ANGDIR
70
0
9
$ATTMODE
70
1
9
$AUNITS
70
0
9
$AUPREC
70
0
9
$CECOLOR
62
256
9
$CELTSCALE
40
1
9
$CELTYPE
6
ByLayer
9
$CELWEIGHT
370
18
9
$CLAYER
8
0
9
$CMLJUST
70
0
9
$CMLSCALE
40
1
9
$CMLSTYLE
2
Standard
9
$DIMSTYLE
2
Standard
9
$TEXTSIZE
40
0.2
9
$TEXTSTYLE
7
Standard
9
$LUNITS
70
2
9
$LUPREC
70
4
9
$EXTNAMES
290
1
9
$INSUNITS
70
4
9
$LTSCALE
40
1
9
$LWDISPLAY
290
1
9
$PDMODE
70
0
9
$PDSIZE
40
0
9
$PLINEGEN
70
0
0
ENDSEC
0
SECTION
2
CLASSES
0
CLASS
1
RASTERVARIABLES
2
AcDbRasterVariables
3
ISM
90
0
280
0
281
0
0
ENDSEC
0
SECTION
2
TABLES
0
TABLE
2
VPORT
5
211
100
AcDbSymbolTable
0
VPORT
5
1
100
AcDbSymbolTableRecord
100
AcDbViewportTableRecord
2
*Active
70
0
10
0
20
0
11
1
21
1
12
-1
22
1
13
0
23
0
14
0.5
24
0.5
15
10
25
10
16
0
26
0
36
1
17
0
27
0
37
0
0
ENDTAB
0
TABLE
2
LTYPE
5
212
100
AcDbSymbolTable
0
LTYPE
5
14
100
AcDbSymbolTableRecord
100
AcDbLinetypeTableRecord
70
0
2
ByBlock
3

72
65
73
0
40
0
0
LTYPE
5
15
100
AcDbSymbolTableRecord
100
AcDbLinetypeTableRecord
70
0
2
ByLayer
3

72
65
73
0
40
0
0
LTYPE
5
16
100
AcDbSymbolTableRecord
100
AcDbLinetypeTableRecord
70
0
2
Continuous
3
Solid line
72
65
73
0
40
0
0
LTYPE
5
6E
100
AcDbSymbolTableRecord
100
AcDbLinetypeTableRecord
70
0
2
CENTER
3
____ _ ____ _ ____ _ ____
72
65
73
4
40
47.5
49
22
74
0
49
-8.5
74
0
49
8.5
74
0
49
-8.5
74
0
0
LTYPE
5
6F
100
AcDbSymbolTableRecord
100
AcDbLinetypeTableRecord
70
0
2
DASHED
3
__ __ __ __ __ __ __ __ __
72
65
73
2
40
25.72
49
12.86
74
0
49
-12.86
74
0
0
ENDTAB
0
TABLE
2
LAYER
5
213
100
AcDbSymbolTable
0
LAYER
5
10
100
AcDbSymbolTableRecord
100
AcDbLayerTableRecord
2
0
70
0
62
7
6
Continuous
290
1
370
-3
390
0
0
LAYER
5
71
100
AcDbSymbolTableRecord
100
AcDbLayerTableRecord
2
80
70
0
62
-6
6
Continuous
290
1
370
-3
390
0
0
LAYER
5
73
100
AcDbSymbolTableRecord
100
AcDbLayerTableRecord
2
81
70
0
62
-3
6
Continuous
290
1
370
-3
390
0
0
LAYER
5
75
100
AcDbSymbolTableRecord
100
AcDbLayerTableRecord
2
1
70
0
62
4
6
Continuous
290
1
370
-3
390
0
0
LAYER
5
8C
100
AcDbSymbolTableRecord
100
AcDbLayerTableRecord
2
4
70
0
62
-2
6
CENTER
290
1
370
-3
390
0
0
LAYER
5
A9
100
AcDbSymbolTableRecord
100
AcDbLayerTableRecord
2
2
70
0
62
7
6
Continuous
290
1
370
-3
390
0
0
LAYER
5
126
100
AcDbSymbolTableRecord
100
AcDbLayerTableRecord
2
Defpoints
70
0
62
7
6
Continuous
290
0
370
-3
390
0
0
LAYER
5
1fd
100
AcDbSymbolTableRecord
100
AcDbLayerTableRecord
2
SK1
70
0
62
4
6
Continuous
290
1
370
-3
390
0
0
LAYER
5
1fe
100
AcDbSymbolTableRecord
100
AcDbLayerTableRecord
2
SK4
70
0
62
2
6
CENTER
290
1
370
-3
390
0
0
LAYER
5
1ff
100
AcDbSymbolTableRecord
100
AcDbLayerTableRecord
2
SK2
70
0
62
7
6
Continuous
290
1
370
-3
390
0
0
LAYER
5
200
100
AcDbSymbolTableRecord
100
AcDbLayerTableRecord
2
SK6
70
0
62
5
6
Continuous
290
1
370
-3
390
0
0
ENDTAB
0
TABLE
2
STYLE
5
214
100
AcDbSymbolTable
0
STYLE
5
11
100
AcDbSymbolTableRecord
100
AcDbTextStyleTableRecord
2
Standard
3
txt
70
0
71
0
40
0
41
1
42
0
50
0
0
STYLE
5
10B
100
AcDbSymbolTableRecord
100
AcDbTextStyleTableRecord
2
iso_b_vert
3
simplex.shx
70
0
71
0
40
0
41
1
42
0
50
0
0
STYLE
5
10C
100
AcDbSymbolTableRecord
100
AcDbTextStyleTableRecord
2
DWGDirectTextStyle
3
simplex
70
0
71
0
40
0
41
1
42
0
50
0
0
ENDTAB
0
TABLE
2
DIMSTYLE
5
215
100
AcDbSymbolTable
100
AcDbDimStyleTable
0
DIMSTYLE
105
27
100
AcDbSymbolTableRecord
100
AcDbDimStyleTableRecord
2
Standard
70
0
3
<>
41
0.18
42
0.0625
44
0.18
140
0.18
147
0.09
73
0
74
0
77
1
271
2
275
0
278
52
280
0
340
11
0
ENDTAB
0
TABLE
2
VIEW
5
216
100
AcDbSymbolTable
0
ENDTAB
0
TABLE
2
UCS
5
217
100
AcDbSymbolTable
0
ENDTAB
0
TABLE
2
APPID
5
218
100
AcDbSymbolTable
0
APPID
5
12
100
AcDbSymbolTableRecord
100
AcDbRegAppTableRecord
2
ACAD
70
0
0
APPID
5
122
100
AcDbSymbolTableRecord
100
AcDbRegAppTableRecord
2
ACAD_DSTYLE_DIMBREAK
70
0
0
APPID
5
1BC
100
AcDbSymbolTableRecord
100
AcDbRegAppTableRecord
2
ACAD_DSTYLE_DIM_LINETYPE
70
0
0
APPID
5
1BD
100
AcDbSymbolTableRecord
100
AcDbRegAppTableRecord
2
ACAD_DSTYLE_DIM_EXT1_LINETYPE
70
0
0
APPID
5
1BE
100
AcDbSymbolTableRecord
100
AcDbRegAppTableRecord
2
ACAD_DSTYLE_DIM_EXT2_LINETYPE
70
0
0
APPID
5
1F9
100
AcDbSymbolTableRecord
100
AcDbRegAppTableRecord
2
ACAD_MLEADERVER
70
0
0
ENDTAB
0
TABLE
2
BLOCK_RECORD
5
219
100
AcDbSymbolTable
0
BLOCK_RECORD
5
1F
100
AcDbSymbolTableRecord
100
AcDbBlockTableRecord
2
*Model_Space
340
0
70
0
0
BLOCK_RECORD
5
1B
100
AcDbSymbolTableRecord
100
AcDbBlockTableRecord
2
*Paper_Space
340
0
70
0
0
BLOCK_RECORD
5
23
100
AcDbSymbolTableRecord
100
AcDbBlockTableRecord
2
*Paper_Space0
340
0
70
0
0
BLOCK_RECORD
5
127
100
AcDbSymbolTableRecord
100
AcDbBlockTableRecord
2
*D1
340
0
70
0
0
BLOCK_RECORD
5
133
100
AcDbSymbolTableRecord
100
AcDbBlockTableRecord
2
_U0
340
0
70
0
0
BLOCK_RECORD
5
13F
100
AcDbSymbolTableRecord
100
AcDbBlockTableRecord
2
*D3
340
0
70
0
0
BLOCK_RECORD
5
14B
100
AcDbSymbolTableRecord
100
AcDbBlockTableRecord
2
_U1
340
0
70
0
0
BLOCK_RECORD
5
157
100
AcDbSymbolTableRecord
100
AcDbBlockTableRecord
2
*D5
340
0
70
0
0
BLOCK_RECORD
5
163
100
AcDbSymbolTableRecord
100
AcDbBlockTableRecord
2
_U2
340
0
70
0
0
BLOCK_RECORD
5
16F
100
AcDbSymbolTableRecord
100
AcDbBlockTableRecord
2
*D7
340
0
70
0
0
BLOCK_RECORD
5
17D
100
AcDbSymbolTableRecord
100
AcDbBlockTableRecord
2
_U3
340
0
70
0
0
BLOCK_RECORD
5
189
100
AcDbSymbolTableRecord
100
AcDbBlockTableRecord
2
*D9
340
0
70
0
0
BLOCK_RECORD
5
195
100
AcDbSymbolTableRecord
100
AcDbBlockTableRecord
2
_U4
340
0
70
0
0
ENDTAB
0
ENDSEC
0
SECTION
2
BLOCKS
0
BLOCK
5
20
100
AcDbEntity
8
0
100
AcDbBlockBegin
2
*Model_Space
70
0
10
0
20
0
30
0
3
*Model_Space
0
ENDBLK
5
21
100
AcDbEntity
8
0
100
AcDbBlockEnd
0
BLOCK
5
1C
100
AcDbEntity
8
0
100
AcDbBlockBegin
2
*Paper_Space
70
0
10
0
20
0
30
0
3
*Paper_Space
0
ENDBLK
5
1D
100
AcDbEntity
8
0
100
AcDbBlockEnd
0
BLOCK
5
24
100
AcDbEntity
8
0
100
AcDbBlockBegin
2
*Paper_Space0
70
0
10
0
20
0
30
0
3
*Paper_Space0
0
ENDBLK
5
25
100
AcDbEntity
8
0
100
AcDbBlockEnd
0
BLOCK
5
128
100
AcDbEntity
8
0
100
AcDbBlockBegin
2
*D1
70
1
10
0
20
0
30
0
3
*D1
0
LINE
5
12A
100
AcDbEntity
8
0
62
256
6
ByLayer
370
-2
48
1
60
0
100
AcDbLine
10
0
20
-1.5875
30
0
11
0
21
-20.745898
31
0
39
0
210
0
220
0
230
1
0
LINE
5
12B
100
AcDbEntity
8
0
62
256
6
ByLayer
370
-2
48
1
60
0
100
AcDbLine
10
195.4513
20
-10.12
30
0
11
195.4513
21
-20.745898
31
0
39
0
210
0
220
0
230
1
0
LINE
5
12C
100
AcDbEntity
8
0
62
256
6
ByLayer
370
-2
48
1
60
0
100
AcDbLine
10
3.5
20
-18.745898
30
0
11
191.9513
21
-18.745898
31
0
39
0
210
0
220
0
230
1
0
SOLID
5
12D
100
AcDbEntity
8
0
62
256
6
ByLayer
370
-1
48
1
60
0
100
AcDbTrace
10
3.5
20
-18.162565
30
0
11
3.5
21
-19.329232
31
0
12
0
22
-18.745898
32
0
13
0
23
-18.745898
33
0
39
0
210
0
220
0
230
1
0
SOLID
5
12E
100
AcDbEntity
8
0
62
256
6
ByLayer
370
-1
48
1
60
0
100
AcDbTrace
10
191.9513
20
-19.329232
30
0
11
191.9513
21
-18.162565
31
0
12
195.4513
22
-18.745898
32
0
13
195.4513
23
-18.745898
33
0
39
0
210
0
220
0
230
1
0
MTEXT
5
12F
100
AcDbEntity
8
0
62
256
6
ByLayer
370
18
48
1
60
0
100
AcDbMText
10
97.72565
20
-11.745898
30
0
210
0
220
0
230
1
1
\A1;195.45
40
3.5
41
0
44
1
50
0
71
5
72
5
7
iso_b_vert
0
POINT
5
130
100
AcDbEntity
8
Defpoints
62
0
6
ByLayer
370
-1
48
1
60
0
100
AcDbPoint
10
0
20
0
30
0
39
0
210
0
220
0
230
1
50
360
0
POINT
5
131
100
AcDbEntity
8
Defpoints
62
0
6
ByLayer
370
-1
48
1
60
0
100
AcDbPoint
10
195.4513
20
-8.5325
30
0
39
0
210
0
220
0
230
1
50
360
0
POINT
5
132
100
AcDbEntity
8
Defpoints
62
0
6
ByLayer
370
-1
48
1
60
0
100
AcDbPoint
10
195.4513
20
-18.745898
30
0
39
0
210
0
220
0
230
1
50
360
0
ENDBLK
5
129
100
AcDbEntity
8
0
100
AcDbBlockEnd
0
BLOCK
5
13A
100
AcDbEntity
8
0
100
AcDbBlockBegin
2
_U0
70
0
10
0
20
0
30
0
3
_U0
0
MTEXT
5
134
100
AcDbEntity
8
SK2
62
256
6
ByLayer
370
13
48
1
60
0
100
AcDbMText
10
91.533785
20
-17.713265
30
0
210
0
220
0
230
1
1
\W0.7145;195,45
40
3.5
41
0
44
1.084337
50
0
71
7
72
5
7
iso_b_vert
0
LINE
5
135
100
AcDbEntity
8
SK2
62
256
6
ByLayer
370
13
48
1
60
0
100
AcDbLine
10
0
20
-1.5875
30
0
11
0
21
-20.745898
31
0
39
0
210
0
220
0
230
1
0
LINE
5
136
100
AcDbEntity
8
SK2
62
256
6
ByLayer
370
13
48
1
60
0
100
AcDbLine
10
195.4513
20
-10.12
30
0
11
195.4513
21
-20.745898
31
0
39
0
210
0
220
0
230
1
0
LINE
5
137
100
AcDbEntity
8
SK2
62
256
6
ByLayer
370
13
48
1
60
0
100
AcDbLine
10
0
20
-18.745898
30
0
11
195.4513
21
-18.745898
31
0
39
0
210
0
220
0
230
1
0
SOLID
5
138
100
AcDbEntity
8
SK2
62
256
6
ByLayer
370
18
48
1
60
0
100
AcDbTrace
10
0
20
-18.745898
30
0
11
3.499998
21
-18.285115
31
0
12
3.500002
22
-19.206682
32
0
13
3.500002
23
-19.206682
33
0
39
0
210
0
220
0
230
1
0
SOLID
5
139
100
AcDbEntity
8
SK2
62
256
6
ByLayer
370
18
48
1
60
0
100
AcDbTrace
10
195.4513
20
-18.745898
30
0
11
191.951302
21
-19.206682
31
0
12
191.951298
22
-18.285115
32
0
13
191.951298
23
-18.285115
33
0
39
0
210
0
220
0
230
1
0
ENDBLK
5
13B
100
AcDbEntity
8
0
100
AcDbBlockEnd
0
BLOCK
5
140
100
AcDbEntity
8
0
100
AcDbBlockBegin
2
*D3
70
1
10
0
20
0
30
0
3
*D3
0
LINE
5
142
100
AcDbEntity
8
0
62
256
6
ByLayer
370
-2
48
1
60
0
100
AcDbLine
10
-48
20
-10.5875
30
0
11
-48
21
-39.692985
31
0
39
0
210
0
220
0
230
1
0
LINE
5
143
100
AcDbEntity
8
0
62
256
6
ByLayer
370
-2
48
1
60
0
100
AcDbLine
10
198
20
-1.5875
30
0
11
198
21
-39.692985
31
0
39
0
210
0
220
0
230
1
0
LINE
5
144
100
AcDbEntity
8
0
62
256
6
ByLayer
370
-2
48
1
60
0
100
AcDbLine
10
-44.5
20
-37.692985
30
0
11
194.5
21
-37.692985
31
0
39
0
210
0
220
0
230
1
0
SOLID
5
145
100
AcDbEntity
8
0
62
256
6
ByLayer
370
-1
48
1
60
0
100
AcDbTrace
10
-44.5
20
-37.109652
30
0
11
-44.5
21
-38.276319
31
0
12
-48
22
-37.692985
32
0
13
-48
23
-37.692985
33
0
39
0
210
0
220
0
230
1
0
SOLID
5
146
100
AcDbEntity
8
0
62
256
6
ByLayer
370
-1
48
1
60
0
100
AcDbTrace
10
194.5
20
-38.276319
30
0
11
194.5
21
-37.109652
31
0
12
198
22
-37.692985
32
0
13
198
23
-37.692985
33
0
39
0
210
0
220
0
230
1
0
MTEXT
5
147
100
AcDbEntity
8
0
62
256
6
ByLayer
370
18
48
1
60
0
100
AcDbMText
10
75
20
-30.692985
30
0
210
0
220
0
230
1
1
\A1;246.00
40
3.5
41
0
44
1
50
0
71
5
72
5
7
iso_b_vert
0
POINT
5
148
100
AcDbEntity
8
Defpoints
62
0
6
ByLayer
370
-1
48
1
60
0
100
AcDbPoint
10
-48
20
-9
30
0
39
0
210
0
220
0
230
1
50
360
0
POINT
5
149
100
AcDbEntity
8
Defpoints
62
0
6
ByLayer
370
-1
48
1
60
0
100
AcDbPoint
10
198
20
0
30
0
39
0
210
0
220
0
230
1
50
360
0
POINT
5
14A
100
AcDbEntity
8
Defpoints
62
0
6
ByLayer
370
-1
48
1
60
0
100
AcDbPoint
10
198
20
-37.692985
30
0
39
0
210
0
220
0
230
1
50
360
0
ENDBLK
5
141
100
AcDbEntity
8
0
100
AcDbBlockEnd
0
BLOCK
5
152
100
AcDbEntity
8
0
100
AcDbBlockBegin
2
_U1
70
0
10
0
20
0
30
0
3
_U1
0
MTEXT
5
14C
100
AcDbEntity
8
SK2
62
256
6
ByLayer
370
13
48
1
60
0
100
AcDbMText
10
68.370701
20
-36.660352
30
0
210
0
220
0
230
1
1
\W0.7636;246,00
40
3.5
41
0
44
1.084337
50
0
71
7
72
5
7
iso_b_vert
0
LINE
5
14D
100
AcDbEntity
8
SK2
62
256
6
ByLayer
370
13
48
1
60
0
100
AcDbLine
10
-48
20
-10.5875
30
0
11
-48
21
-39.692985
31
0
39
0
210
0
220
0
230
1
0
LINE
5
14E
100
AcDbEntity
8
SK2
62
256
6
ByLayer
370
13
48
1
60
0
100
AcDbLine
10
198
20
-1.5875
30
0
11
198
21
-39.692985
31
0
39
0
210
0
220
0
230
1
0
LINE
5
14F
100
AcDbEntity
8
SK2
62
256
6
ByLayer
370
13
48
1
60
0
100
AcDbLine
10
-48
20
-37.692985
30
0
11
198
21
-37.692985
31
0
39
0
210
0
220
0
230
1
0
SOLID
5
150
100
AcDbEntity
8
SK2
62
256
6
ByLayer
370
18
48
1
60
0
100
AcDbTrace
10
-48
20
-37.692985
30
0
11
-44.500002
21
-37.232202
31
0
12
-44.499998
22
-38.153769
32
0
13
-44.499998
23
-38.153769
33
0
39
0
210
0
220
0
230
1
0
SOLID
5
151
100
AcDbEntity
8
SK2
62
256
6
ByLayer
370
18
48
1
60
0
100
AcDbTrace
10
198
20
-37.692985
30
0
11
194.500002
21
-38.153769
31
0
12
194.499998
22
-37.232202
32
0
13
194.499998
23
-37.232202
33
0
39
0
210
0
220
0
230
1
0
ENDBLK
5
153
100
AcDbEntity
8
0
100
AcDbBlockEnd
0
BLOCK
5
158
100
AcDbEntity
8
0
100
AcDbBlockBegin
2
*D5
70
1
10
0
20
0
30
0
3
*D5
0
LINE
5
15A
100
AcDbEntity
8
0
62
256
6
ByLayer
370
-2
48
1
60
0
100
AcDbLine
10
58.93
20
10.12
30
0
11
58.93
21
22.141619
31
0
39
0
210
0
220
0
230
1
0
LINE
5
15B
100
AcDbEntity
8
0
62
256
6
ByLayer
370
-2
48
1
60
0
100
AcDbLine
10
198
20
1.5875
30
0
11
198
21
22.141619
31
0
39
0
210
0
220
0
230
1
0
LINE
5
15C
100
AcDbEntity
8
0
62
256
6
ByLayer
370
-2
48
1
60
0
100
AcDbLine
10
62.43
20
20.141619
30
0
11
194.5
21
20.141619
31
0
39
0
210
0
220
0
230
1
0
SOLID
5
15D
100
AcDbEntity
8
0
62
256
6
ByLayer
370
-1
48
1
60
0
100
AcDbTrace
10
62.43
20
20.724953
30
0
11
62.43
21
19.558286
31
0
12
58.93
22
20.141619
32
0
13
58.93
23
20.141619
33
0
39
0
210
0
220
0
230
1
0
SOLID
5
15E
100
AcDbEntity
8
0
62
256
6
ByLayer
370
-1
48
1
60
0
100
AcDbTrace
10
194.5
20
19.558286
30
0
11
194.5
21
20.724953
31
0
12
198
22
20.141619
32
0
13
198
23
20.141619
33
0
39
0
210
0
220
0
230
1
0
MTEXT
5
15F
100
AcDbEntity
8
0
62
256
6
ByLayer
370
18
48
1
60
0
100
AcDbMText
10
128.465
20
27.141619
30
0
210
0
220
0
230
1
1
\A1;139.07
40
3.5
41
0
44
1
50
0
71
5
72
5
7
iso_b_vert
0
POINT
5
160
100
AcDbEntity
8
Defpoints
62
0
6
ByLayer
370
-1
48
1
60
0
100
AcDbPoint
10
58.93
20
8.5325
30
0
39
0
210
0
220
0
230
1
50
360
0
POINT
5
161
100
AcDbEntity
8
Defpoints
62
0
6
ByLayer
370
-1
48
1
60
0
100
AcDbPoint
10
198
20
0
30
0
39
0
210
0
220
0
230
1
50
360
0
POINT
5
162
100
AcDbEntity
8
Defpoints
62
0
6
ByLayer
370
-1
48
1
60
0
100
AcDbPoint
10
198
20
20.141619
30
0
39
0
210
0
220
0
230
1
50
360
0
ENDBLK
5
159
100
AcDbEntity
8
0
100
AcDbBlockEnd
0
BLOCK
5
16A
100
AcDbEntity
8
0
100
AcDbBlockBegin
2
_U2
70
0
10
0
20
0
30
0
3
_U2
0
MTEXT
5
164
100
AcDbEntity
8
SK2
62
256
6
ByLayer
370
13
48
1
60
0
100
AcDbMText
10
122.457401
20
21.174253
30
0
210
0
220
0
230
1
1
\W0.6930;139,07
40
3.5
41
0
44
1.084337
50
0
71
7
72
5
7
iso_b_vert
0
LINE
5
165
100
AcDbEntity
8
SK2
62
256
6
ByLayer
370
13
48
1
60
0
100
AcDbLine
10
58.93
20
10.12
30
0
11
58.93
21
22.141619
31
0
39
0
210
0
220
0
230
1
0
LINE
5
166
100
AcDbEntity
8
SK2
62
256
6
ByLayer
370
13
48
1
60
0
100
AcDbLine
10
198
20
1.5875
30
0
11
198
21
22.141619
31
0
39
0
210
0
220
0
230
1
0
LINE
5
167
100
AcDbEntity
8
SK2
62
256
6
ByLayer
370
13
48
1
60
0
100
AcDbLine
10
58.93
20
20.141619
30
0
11
198
21
20.141619
31
0
39
0
210
0
220
0
230
1
0
SOLID
5
168
100
AcDbEntity
8
SK2
62
256
6
ByLayer
370
18
48
1
60
0
100
AcDbTrace
10
58.93
20
20.141619
30
0
11
62.429998
21
20.602403
31
0
12
62.430002
22
19.680835
32
0
13
62.430002
23
19.680835
33
0
39
0
210
0
220
0
230
1
0
SOLID
5
169
100
AcDbEntity
8
SK2
62
256
6
ByLayer
370
18
48
1
60
0
100
AcDbTrace
10
198
20
20.141619
30
0
11
194.500002
21
19.680835
31
0
12
194.499998
22
20.602403
32
0
13
194.499998
23
20.602403
33
0
39
0
210
0
220
0
230
1
0
ENDBLK
5
16B
100
AcDbEntity
8
0
100
AcDbBlockEnd
0
BLOCK
5
170
100
AcDbEntity
8
0
100
AcDbBlockBegin
2
*D7
70
1
10
0
20
0
30
0
3
*D7
0
LINE
5
172
100
AcDbEntity
8
0
62
256
6
ByLayer
370
-2
48
1
60
0
100
AcDbLine
10
198
20
-1.5875
30
0
11
198
21
-23.335003
31
0
39
0
210
0
220
0
230
1
0
LINE
5
173
100
AcDbEntity
8
0
62
256
6
ByLayer
370
-2
48
1
60
0
100
AcDbLine
10
195.4513
20
-10.12
30
0
11
195.4513
21
-23.335003
31
0
39
0
210
0
220
0
230
1
0
LINE
5
174
100
AcDbEntity
8
0
62
256
6
ByLayer
370
-2
48
1
60
0
100
AcDbLine
10
198
20
-21.335003
30
0
11
226.166667
21
-21.335003
31
0
39
0
210
0
220
0
230
1
0
LINE
5
175
100
AcDbEntity
8
0
62
256
6
ByLayer
370
-2
48
1
60
0
100
AcDbLine
10
201.5
20
-21.335003
30
0
11
205
21
-21.335003
31
0
39
0
210
0
220
0
230
1
0
LINE
5
176
100
AcDbEntity
8
0
62
256
6
ByLayer
370
-2
48
1
60
0
100
AcDbLine
10
191.9513
20
-21.335003
30
0
11
188.4513
21
-21.335003
31
0
39
0
210
0
220
0
230
1
0
SOLID
5
177
100
AcDbEntity
8
0
62
256
6
ByLayer
370
-1
48
1
60
0
100
AcDbTrace
10
201.5
20
-20.75167
30
0
11
201.5
21
-21.918337
31
0
12
198
22
-21.335003
32
0
13
198
23
-21.335003
33
0
39
0
210
0
220
0
230
1
0
SOLID
5
178
100
AcDbEntity
8
0
62
256
6
ByLayer
370
-1
48
1
60
0
100
AcDbTrace
10
191.9513
20
-21.918337
30
0
11
191.9513
21
-20.75167
31
0
12
195.4513
22
-21.335003
32
0
13
195.4513
23
-21.335003
33
0
39
0
210
0
220
0
230
1
0
MTEXT
5
179
100
AcDbEntity
8
0
62
256
6
ByLayer
370
18
48
1
60
0
100
AcDbMText
10
215.583333
20
-14.335003
30
0
210
0
220
0
230
1
1
\A1;2.55
40
3.5
41
0
44
1
50
0
71
5
72
5
7
iso_b_vert
0
POINT
5
17A
100
AcDbEntity
8
Defpoints
62
0
6
ByLayer
370
-1
48
1
60
0
100
AcDbPoint
10
198
20
0
30
0
39
0
210
0
220
0
230
1
50
360
0
POINT
5
17B
100
AcDbEntity
8
Defpoints
62
0
6
ByLayer
370
-1
48
1
60
0
100
AcDbPoint
10
195.4513
20
-8.5325
30
0
39
0
210
0
220
0
230
1
50
360
0
POINT
5
17C
100
AcDbEntity
8
Defpoints
62
0
6
ByLayer
370
-1
48
1
60
0
100
AcDbPoint
10
195.4513
20
-21.335003
30
0
39
0
210
0
220
0
230
1
50
360
0
ENDBLK
5
171
100
AcDbEntity
8
0
100
AcDbBlockEnd
0
BLOCK
5
184
100
AcDbEntity
8
0
100
AcDbBlockBegin
2
_U3
70
0
10
0
20
0
30
0
3
_U3
0
MTEXT
5
17E
100
AcDbEntity
8
SK2
62
256
6
ByLayer
370
13
48
1
60
0
100
AcDbMText
10
204.15186
20
-20.30237
30
0
210
0
220
0
230
1
1
\W0.7150;2,55
40
3.5
41
0
44
1.084337
50
0
71
7
72
5
7
iso_b_vert
0
LINE
5
17F
100
AcDbEntity
8
SK2
62
256
6
ByLayer
370
13
48
1
60
0
100
AcDbLine
10
198
20
-1.5875
30
0
11
198
21
-23.335003
31
0
39
0
210
0
220
0
230
1
0
LINE
5
180
100
AcDbEntity
8
SK2
62
256
6
ByLayer
370
13
48
1
60
0
100
AcDbLine
10
195.4513
20
-10.12
30
0
11
195.4513
21
-23.335003
31
0
39
0
210
0
220
0
230
1
0
LINE
5
181
100
AcDbEntity
8
SK2
62
256
6
ByLayer
370
13
48
1
60
0
100
AcDbLine
10
186.7013
20
-21.335003
30
0
11
211.996491
21
-21.335003
31
0
39
0
210
0
220
0
230
1
0
SOLID
5
182
100
AcDbEntity
8
SK2
62
256
6
ByLayer
370
18
48
1
60
0
100
AcDbTrace
10
198
20
-21.335003
30
0
11
201.499998
21
-20.874219
31
0
12
201.500002
22
-21.795787
32
0
13
201.500002
23
-21.795787
33
0
39
0
210
0
220
0
230
1
0
SOLID
5
183
100
AcDbEntity
8
SK2
62
256
6
ByLayer
370
18
48
1
60
0
100
AcDbTrace
10
195.4513
20
-21.335003
30
0
11
191.951302
21
-21.795787
31
0
12
191.951298
22
-20.874219
32
0
13
191.951298
23
-20.874219
33
0
39
0
210
0
220
0
230
1
0
ENDBLK
5
185
100
AcDbEntity
8
0
100
AcDbBlockEnd
0
BLOCK
5
18A
100
AcDbEntity
8
0
100
AcDbBlockBegin
2
*D9
70
1
10
0
20
0
30
0
3
*D9
0
LINE
5
18C
100
AcDbEntity
8
0
62
256
6
ByLayer
370
-2
48
1
60
0
100
AcDbLine
10
-48
20
-10.5875
30
0
11
-48
21
-29.343428
31
0
39
0
210
0
220
0
230
1
0
LINE
5
18D
100
AcDbEntity
8
0
62
256
6
ByLayer
370
-2
48
1
60
0
100
AcDbLine
10
195.4513
20
-10.12
30
0
11
195.4513
21
-29.343428
31
0
39
0
210
0
220
0
230
1
0
LINE
5
18E
100
AcDbEntity
8
0
62
256
6
ByLayer
370
-2
48
1
60
0
100
AcDbLine
10
-44.5
20
-27.343428
30
0
11
191.9513
21
-27.343428
31
0
39
0
210
0
220
0
230
1
0
SOLID
5
18F
100
AcDbEntity
8
0
62
256
6
ByLayer
370
-1
48
1
60
0
100
AcDbTrace
10
-44.5
20
-26.760095
30
0
11
-44.5
21
-27.926762
31
0
12
-48
22
-27.343428
32
0
13
-48
23
-27.343428
33
0
39
0
210
0
220
0
230
1
0
SOLID
5
190
100
AcDbEntity
8
0
62
256
6
ByLayer
370
-1
48
1
60
0
100
AcDbTrace
10
191.9513
20
-27.926762
30
0
11
191.9513
21
-26.760095
31
0
12
195.4513
22
-27.343428
32
0
13
195.4513
23
-27.343428
33
0
39
0
210
0
220
0
230
1
0
MTEXT
5
191
100
AcDbEntity
8
0
62
256
6
ByLayer
370
18
48
1
60
0
100
AcDbMText
10
73.72565
20
-20.343428
30
0
210
0
220
0
230
1
1
\A1;243.45
40
3.5
41
0
44
1
50
0
71
5
72
5
7
iso_b_vert
0
POINT
5
192
100
AcDbEntity
8
Defpoints
62
0
6
ByLayer
370
-1
48
1
60
0
100
AcDbPoint
10
-48
20
-9
30
0
39
0
210
0
220
0
230
1
50
360
0
POINT
5
193
100
AcDbEntity
8
Defpoints
62
0
6
ByLayer
370
-1
48
1
60
0
100
AcDbPoint
10
195.4513
20
-8.5325
30
0
39
0
210
0
220
0
230
1
50
360
0
POINT
5
194
100
AcDbEntity
8
Defpoints
62
0
6
ByLayer
370
-1
48
1
60
0
100
AcDbPoint
10
195.4513
20
-27.343428
30
0
39
0
210
0
220
0
230
1
50
360
0
ENDBLK
5
18B
100
AcDbEntity
8
0
100
AcDbBlockEnd
0
BLOCK
5
19C
100
AcDbEntity
8
0
100
AcDbBlockBegin
2
_U4
70
0
10
0
20
0
30
0
3
_U4
0
MTEXT
5
196
100
AcDbEntity
8
SK2
62
256
6
ByLayer
370
13
48
1
60
0
100
AcDbMText
10
66.912085
20
-26.310795
30
0
210
0
220
0
230
1
1
\W0.7820;243,45
40
3.5
41
0
44
1.084337
50
0
71
7
72
5
7
iso_b_vert
0
LINE
5
197
100
AcDbEntity
8
SK2
62
256
6
ByLayer
370
13
48
1
60
0
100
AcDbLine
10
-48
20
-10.5875
30
0
11
-48
21
-29.343428
31
0
39
0
210
0
220
0
230
1
0
LINE
5
198
100
AcDbEntity
8
SK2
62
256
6
ByLayer
370
13
48
1
60
0
100
AcDbLine
10
195.4513
20
-10.12
30
0
11
195.4513
21
-29.343428
31
0
39
0
210
0
220
0
230
1
0
LINE
5
199
100
AcDbEntity
8
SK2
62
256
6
ByLayer
370
13
48
1
60
0
100
AcDbLine
10
-48
20
-27.343428
30
0
11
195.4513
21
-27.343428
31
0
39
0
210
0
220
0
230
1
0
SOLID
5
19A
100
AcDbEntity
8
SK2
62
256
6
ByLayer
370
18
48
1
60
0
100
AcDbTrace
10
-48
20
-27.343428
30
0
11
-44.500002
21
-26.882645
31
0
12
-44.499998
22
-27.804212
32
0
13
-44.499998
23
-27.804212
33
0
39
0
210
0
220
0
230
1
0
SOLID
5
19B
100
AcDbEntity
8
SK2
62
256
6
ByLayer
370
18
48
1
60
0
100
AcDbTrace
10
195.4513
20
-27.343428
30
0
11
191.951302
21
-27.804212
31
0
12
191.951298
22
-26.882645
32
0
13
191.951298
23
-26.882645
33
0
39
0
210
0
220
0
230
1
0
ENDBLK
5
19D
100
AcDbEntity
8
0
100
AcDbBlockEnd
0
ENDSEC
0
SECTION
2
ENTITIES
0
ARC
5
B2
100
AcDbEntity
8
1
62
256
6
ByLayer
370
18
48
1
60
0
100
AcDbCircle
39
0
10
1.239918
20
-9.211239
30
0
40
0.8
210
0
220
0
230
1
100
AcDbArc
50
89.96419
51
140.800368
0
ARC
5
B3
100
AcDbEntity
8
1
62
256
6
ByLayer
370
18
48
1
60
0
100
AcDbCircle
39
0
10
1.239918
20
9.211239
30
0
40
0.8
210
0
220
0
230
1
100
AcDbArc
50
219.199632
51
270.03581
0
ARC
5
B4
100
AcDbEntity
8
1
62
256
6
ByLayer
370
18
48
1
60
0
100
AcDbCircle
39
0
10
0
20
-8.2
30
0
40
0.8
210
0
220
0
230
1
100
AcDbArc
50
270
51
320.800368
0
ARC
5
B5
100
AcDbEntity
8
1
62
256
6
ByLayer
370
18
48
1
60
0
100
AcDbCircle
39
0
10
0
20
8.2
30
0
40
0.8
210
0
220
0
230
1
100
AcDbArc
50
39.199632
51
90
0
ELLIPSE
5
B6
100
AcDbEntity
8
1
62
256
6
ByLayer
370
18
48
1
60
0
100
AcDbEllipse
10
6.25
20
-8.195033
30
0
11
0.25
21
0
31
0
210
0
220
0
230
1
40
0.999992
41
1.57146301066862
42
3.12155226520403
0
ELLIPSE
5
B7
100
AcDbEntity
8
1
62
256
6
ByLayer
370
18
48
1
60
0
100
AcDbEllipse
10
6.25
20
8.195033
30
0
11
0.25
21
0
31
0
210
0
220
0
230
1
40
0.999992
41
-3.12155226520407
42
-1.56869856752683
0
POINT
5
70
100
AcDbEntity
8
80
62
256
6
ByLayer
370
18
48
1
60
0
100
AcDbPoint
10
0
20
0
30
0
39
0
210
0
220
0
230
1
50
360
0
POINT
5
72
100
AcDbEntity
8
81
62
256
6
ByLayer
370
18
48
1
60
0
100
AcDbPoint
10
198
20
0
30
0
39
0
210
0
220
0
230
1
50
360
0
POINT
5
74
100
AcDbEntity
8
1
62
256
6
ByLayer
370
18
48
1
60
1
100
AcDbPoint
10
195.4513
20
-8.5325
30
0
39
0
210
0
220
0
230
1
50
360
0
POINT
5
76
100
AcDbEntity
8
1
62
256
6
ByLayer
370
18
48
1
60
1
100
AcDbPoint
10
-48
20
-9
30
0
39
0
210
0
220
0
230
1
50
360
0
POINT
5
77
100
AcDbEntity
8
1
62
256
6
ByLayer
370
18
48
1
60
1
100
AcDbPoint
10
58.93
20
8.5325
30
0
39
0
210
0
220
0
230
1
50
360
0
POINT
5
78
100
AcDbEntity
8
1
62
256
6
ByLayer
370
18
48
1
60
1
100
AcDbPoint
10
195.4513
20
-8.5325
30
0
39
0
210
0
220
0
230
1
50
360
0
POINT
5
79
100
AcDbEntity
8
1
62
256
6
ByLayer
370
18
48
1
60
1
100
AcDbPoint
10
-48
20
-9
30
0
39
0
210
0
220
0
230
1
50
360
0
POINT
5
7A
100
AcDbEntity
8
1
62
256
6
ByLayer
370
18
48
1
60
1
100
AcDbPoint
10
195.4513
20
-8.5325
30
0
39
0
210
0
220
0
230
1
50
360
0
SPLINE
5
B8
100
AcDbEntity
8
SK1
62
256
6
ByLayer
370
18
48
1
60
0
100
AcDbSpline
70
4
71
3
72
12
73
8
40
0
40
0
40
0
40
0
40
0.249999999999998
40
0.249999999999998
40
0.499999999999995
40
0.499999999999995
40
1
40
1
40
1
40
1
41
1
10
-46.1
20
-7.60833702540242
30
0
41
1
10
-46.1
20
-7.60231330532815
30
0
41
1
10
-46.1041745743607
20
-7.59248338817952
30
0
41
1
10
-46.1170332025337
20
-7.57017743883401
30
0
41
1
10
-46.125516867034
20
-7.55789617469637
30
0
41
1
10
-46.1539367625989
20
-7.5204356426747
30
0
41
1
10
-46.1766247086701
20
-7.49481176609791
30
0
41
1
10
-46.2
20
-7.4714661078128
30
0
0
SPLINE
5
B9
100
AcDbEntity
8
SK1
62
256
6
ByLayer
370
18
48
1
60
0
100
AcDbSpline
70
4
71
3
72
8
73
4
40
0
40
0
40
0
40
0
40
1
40
1
40
1
40
1
41
1
10
-48
20
-6.24269165767939
30
0
41
1
10
-47.4020931632738
20
-6.84704569565594
30
0
41
1
10
-46.8016157124715
20
-7.44897319878609
30
0
41
1
10
-46.2
20
-8.04982623817992
30
0
0
SPLINE
5
BA
100
AcDbEntity
8
SK1
62
256
6
ByLayer
370
18
48
1
60
0
100
AcDbSpline
70
4
71
3
72
12
73
8
40
0
40
0
40
0
40
0
40
0.5
40
0.5
40
0.75
40
0.75
40
1
40
1
40
1
40
1
41
1
10
-46.2
20
-8.04982623817992
30
0
41
1
10
-46.1766202203863
20
-8.07317637905894
30
0
41
1
10
-46.153872809496
20
-8.0958489480123
30
0
41
1
10
-46.12567398283
20
-8.12371673549436
30
0
41
1
10
-46.1170638079665
20
-8.13217433316186
30
0
41
1
10
-46.1042330689809
20
-8.14456455837419
30
0
41
1
10
-46.1
20
-8.1484981377348
30
0
41
1
10
-46.1
20
-8.14813981374505
30
0
0
SPLINE
5
BB
100
AcDbEntity
8
SK1
62
256
6
ByLayer
370
18
48
1
60
0
100
AcDbSpline
70
4
71
3
72
8
73
4
40
0
40
0
40
0
40
0
40
1
40
1
40
1
40
1
41
1
10
-48
20
6.24269165767939
30
0
41
1
10
-47.4911437643698
20
6.75703486612386
30
0
41
1
10
-46.98042561291
20
7.26962051644878
30
0
41
1
10
-46.4687284926029
20
7.78128206772521
30
0
0
SPLINE
5
BC
100
AcDbEntity
8
SK1
62
256
6
ByLayer
370
18
48
1
60
0
100
AcDbSpline
70
4
71
3
72
8
73
4
40
0
40
0
40
0
40
0
40
1
40
1
40
1
40
1
41
1
10
-46.2
20
-7.4714661078128
30
0
41
1
10
-46.8016124732989
20
-6.87061630348526
30
0
41
1
10
-47.4020889927286
20
-6.26868978080486
30
0
41
1
10
-48
20
-5.66433152731227
30
0
0
SPLINE
5
BD
100
AcDbEntity
8
1
62
256
6
ByLayer
370
18
48
1
60
0
100
AcDbSpline
70
4
71
3
72
8
73
4
40
0
40
0
40
0
40
0
40
1
40
1
40
1
40
1
41
1
10
197.797039991371
20
-0.340112207147683
30
0
41
1
10
197.341278649216
20
-1.59230620338002
30
0
41
1
10
196.885517307061
20
-2.84450019961221
30
0
41
1
10
196.429755964906
20
-4.09669419584441
30
0
0
SPLINE
5
BE
100
AcDbEntity
8
1
62
256
6
ByLayer
370
18
48
1
60
0
100
AcDbSpline
70
4
71
3
72
73
73
69
40
0
40
0
40
0
40
0
40
0.0156249999999998
40
0.0156249999999998
40
0.0312499999999996
40
0.0312499999999996
40
0.0624999999999993
40
0.0624999999999993
40
0.0781249999999991
40
0.0781249999999991
40
0.093749999999999
40
0.093749999999999
40
0.124999999999999
40
0.124999999999999
40
0.156249999999998
40
0.156249999999998
40
0.187499999999998
40
0.187499999999998
40
0.218749999999998
40
0.218749999999998
40
0.249999999999998
40
0.249999999999998
40
0.281249999999998
40
0.281249999999998
40
0.312499999999998
40
0.312499999999998
40
0.374999999999997
40
0.374999999999997
40
0.406249999999997
40
0.406249999999997
40
0.437499999999997
40
0.437499999999997
40
0.468749999999997
40
0.468749999999997
40
0.484374999999996
40
0.484374999999996
40
0.499999999999996
40
0.499999999999996
40
0.531249999999996
40
0.531249999999996
40
0.546874999999996
40
0.546874999999996
40
0.562499999999996
40
0.578124999999995
40
0.578124999999995
40
0.593749999999995
40
0.593749999999995
40
0.624999999999995
40
0.624999999999995
40
0.656249999999995
40
0.656249999999995
40
0.687499999999995
40
0.687499999999995
40
0.718749999999995
40
0.718749999999995
40
0.749999999999996
40
0.749999999999996
40
0.781249999999996
40
0.781249999999996
40
0.812499999999996
40
0.812499999999996
40
0.874999999999996
40
0.874999999999996
40
0.937499999999996
40
0.937499999999996
40
0.968749999999998
40
0.968749999999998
40
1
40
1
40
1
40
1
41
1
10
196.429755964903
20
-4.09669419584603
30
0
41
1
10
196.440902330011
20
-4.05201140571782
30
0
41
1
10
196.450691982847
20
-4.00791065635207
30
0
41
1
10
196.467479040605
20
-3.92090705502153
30
0
41
1
10
196.474515620089
20
-3.8776641185685
30
0
41
1
10
196.490830230982
20
-3.75268890844381
30
0
41
1
10
196.495443006387
20
-3.67592687162892
30
0
41
1
10
196.493593450452
20
-3.56996011176875
30
0
41
1
10
196.491487115988
20
-3.53638888585485
30
0
41
1
10
196.4845971082
20
-3.4738050006321
30
0
41
1
10
196.479811320066
20
-3.44457847674175
30
0
41
1
10
196.461699814022
20
-3.3626819939486
30
0
41
1
10
196.44449267136
20
-3.31583452387764
30
0
41
1
10
196.402816751742
20
-3.2392662052971
30
0
41
1
10
196.378227366186
20
-3.20888371616991
30
0
41
1
10
196.32239098173
20
-3.16214174363904
30
0
41
1
10
196.29139695272
20
-3.14613910717694
30
0
41
1
10
196.225417565122
20
-3.12756666300516
30
0
41
1
10
196.190227272852
20
-3.12484380757013
30
0
41
1
10
196.115766345312
20
-3.13156787120985
30
0
41
1
10
196.076288100235
20
-3.1411562555283
30
0
41
1
10
195.995378211065
20
-3.17158889046172
30
0
41
1
10
195.953746582906
20
-3.19240440221302
30
0
41
1
10
195.868193247587
20
-3.2449326605624
30
0
41
1
10
195.82402113289
20
-3.27685839981061
30
0
41
1
10
195.689673595378
20
-3.38835457454624
30
0
41
1
10
195.599057001857
20
-3.48184408778607
30
0
41
1
10
195.461372726087
20
-3.65413294209387
30
0
41
1
10
195.414871718588
20
-3.71753285679625
30
0
41
1
10
195.324292033493
20
-3.85255388717616
30
0
41
1
10
195.27990572892
20
-3.92447781039388
30
0
41
1
10
195.193210276634
20
-4.07847170603924
30
0
41
1
10
195.150797593174
20
-4.16093582283037
30
0
41
1
10
195.091814709781
20
-4.28815581230637
30
0
41
1
10
195.072815167203
20
-4.33134356029899
30
0
41
1
10
195.036247148311
20
-4.41940903632795
30
0
41
1
10
195.018569076471
20
-4.4645897408169
30
0
41
1
10
194.968755394169
20
-4.60069701123126
30
0
41
1
10
194.94014539645
20
-4.69107969857274
30
0
41
1
10
194.90455046216
20
-4.82608791954624
30
0
41
1
10
194.893855851542
20
-4.87128689926752
30
0
41
1
10
194.875407134774
20
-4.96011920811054
30
0
41
1
10
194.860059922375
20
-5.04643519136869
30
0
41
1
10
194.850677140033
20
-5.12791208811583
30
0
41
1
10
194.844259579526
20
-5.20698322859579
30
0
41
1
10
194.842552342296
20
-5.24543852623114
30
0
41
1
10
194.841900682405
20
-5.35415808007997
30
0
41
1
10
194.84726228131
20
-5.41903248541541
30
0
41
1
10
194.868389096422
20
-5.53443685514094
30
0
41
1
10
194.883819067659
20
-5.5832995764932
30
0
41
1
10
194.922936958621
20
-5.66602555774693
30
0
41
1
10
194.946746677277
20
-5.69970856508382
30
0
41
1
10
194.999978170903
20
-5.75146538406929
30
0
41
1
10
195.029586014615
20
-5.76997076148109
30
0
41
1
10
195.094207009725
20
-5.79366192528116
30
0
41
1
10
195.129342519416
20
-5.79872748100266
30
0
41
1
10
195.202697531812
20
-5.79612910055224
30
0
41
1
10
195.241147417883
20
-5.78858329816924
30
0
41
1
10
195.321417370734
20
-5.76161375905812
30
0
41
1
10
195.363415723059
20
-5.74202560907497
30
0
41
1
10
195.491309362562
20
-5.66716480125788
30
0
41
1
10
195.580175827273
20
-5.59583886186573
30
0
41
1
10
195.764101347313
20
-5.40871336372922
30
0
41
1
10
195.855773422431
20
-5.29655974939021
30
0
41
1
10
195.99277174227
20
-5.09572533003418
30
0
41
1
10
196.038389488122
20
-5.02300833155326
30
0
41
1
10
196.12566935224
20
-4.87079347569556
30
0
41
1
10
196.167656768225
20
-4.79091730470191
30
0
41
1
10
196.207735945209
20
-4.70668918662892
30
0
0
SPLINE
5
BF
100
AcDbEntity
8
1
62
256
6
ByLayer
370
18
48
1
60
0
100
AcDbSpline
70
4
71
3
72
40
73
36
40
0
40
0
40
0
40
0
40
0.0796558846801607
40
0.0796558846801607
40
0.119483827020241
40
0.119483827020241
40
0.15931176936032
40
0.15931176936032
40
0.238967654040481
40
0.238967654040481
40
0.318623538720642
40
0.318623538720642
40
0.398279423400802
40
0.398279423400802
40
0.477935308080963
40
0.477935308080963
40
0.557591192761124
40
0.557591192761124
40
0.637247077441284
40
0.637247077441284
40
0.677075019781365
40
0.677075019781365
40
0.716902962121445
40
0.716902962121445
40
0.796558846801606
40
0.796558846801606
40
0.836386789141686
40
0.836386789141686
40
0.876214731481765
40
0.876214731481765
40
0.955870616161922
40
0.955870616161922
40
0.995698558502001
40
0.995698558502001
40
1
40
1
40
1
40
1
41
1
10
10.9466102048231
20
-7.88506497646756
30
0
41
1
10
11.4145906742926
20
-7.91513521535313
30
0
41
1
10
11.8811339621497
20
-7.93486110012719
30
0
41
1
10
12.5781680764448
20
-7.94819893989597
30
0
41
1
10
12.8100823361531
20
-7.94987006023092
30
0
41
1
10
13.2733413106424
20
-7.94784436485318
30
0
41
1
10
13.5049973047749
20
-7.94416239876699
30
0
41
1
10
14.1996226332571
20
-7.92557847523909
30
0
41
1
10
14.6615833591026
20
-7.90318458391044
30
0
41
1
10
15.5841431844116
20
-7.83721980404036
30
0
41
1
10
16.0453570383002
20
-7.79365282455942
30
0
41
1
10
16.9679665314856
20
-7.68638089690648
30
0
41
1
10
17.4291177550899
20
-7.62272238054649
30
0
41
1
10
18.3509139328437
20
-7.47487612583214
30
0
41
1
10
18.8132196308573
20
-7.39160582999105
30
0
41
1
10
19.7375533447128
20
-7.20528514983815
30
0
41
1
10
20.1998601798743
20
-7.10319398108868
30
0
41
1
10
21.1277061987605
20
-6.87926703668549
30
0
41
1
10
21.5930980224474
20
-6.75690339099765
30
0
41
1
10
22.2927548388882
20
-6.55904144738329
30
0
41
1
10
22.5264282261515
20
-6.49054143212354
30
0
41
1
10
22.9934001927734
20
-6.34897617550564
30
0
41
1
10
23.227230340616
20
-6.27668774987686
30
0
41
1
10
23.9277661573508
20
-6.05313133813667
30
0
41
1
10
24.3937872312331
20
-5.89543497174591
30
0
41
1
10
25.0925660101511
20
-5.64795024512168
30
0
41
1
10
25.3256727537651
20
-5.56394615632234
30
0
41
1
10
25.7917332819868
20
-5.39230775994318
30
0
41
1
10
26.0247584191602
20
-5.30483939905469
30
0
41
1
10
26.7242664414467
20
-5.03722845627058
30
0
41
1
10
27.1903471940324
20
-4.8498446010006
30
0
41
1
10
27.8904449863127
20
-4.5591339227596
30
0
41
1
10
28.1245390019819
20
-4.4614181562338
30
0
41
1
10
28.3836959077651
20
-4.35098780851777
30
0
41
1
10
28.4089537198424
20
-4.34020632700833
30
0
41
1
10
28.4342084512065
20
-4.32940742055681
30
0
0
SPLINE
5
C0
100
AcDbEntity
8
1
62
256
6
ByLayer
370
18
48
1
60
0
100
AcDbSpline
70
4
71
3
72
130
73
126
40
0
40
0
40
0
40
0
40
0.0013790460804139
40
0.0013790460804139
40
0.012153973858398
40
0.012153973858398
40
0.0229289016363822
40
0.0229289016363822
40
0.0337038294143662
40
0.0337038294143662
40
0.0552536849703339
40
0.0552536849703339
40
0.0660286127483177
40
0.0660286127483177
40
0.0768035405263013
40
0.0768035405263013
40
0.0983533960822683
40
0.0983533960822683
40
0.119903251638235
40
0.119903251638235
40
0.130678179416219
40
0.130678179416219
40
0.141453107194203
40
0.141453107194203
40
0.16300296275017
40
0.16300296275017
40
0.184552818306136
40
0.184552818306136
40
0.206102673862103
40
0.206102673862103
40
0.216877601640086
40
0.216877601640086
40
0.227652529418069
40
0.227652529418069
40
0.249202384974036
40
0.249202384974036
40
0.270752240530003
40
0.270752240530003
40
0.292302096085969
40
0.292302096085969
40
0.313851951641936
40
0.313851951641936
40
0.335401807197903
40
0.335401807197903
40
0.35695166275387
40
0.35695166275387
40
0.378501518309836
40
0.378501518309836
40
0.400051373865803
40
0.400051373865803
40
0.421601229421769
40
0.421601229421769
40
0.432376157199753
40
0.432376157199753
40
0.443151084977736
40
0.443151084977736
40
0.464700940533702
40
0.464700940533702
40
0.475475868311684
40
0.475475868311684
40
0.486250796089667
40
0.486250796089667
40
0.507800651645633
40
0.507800651645633
40
0.518575579423616
40
0.518575579423616
40
0.5293505072016
40
0.5293505072016
40
0.540125434979583
40
0.540125434979583
40
0.550900362757566
40
0.550900362757566
40
0.56167529053555
40
0.56167529053555
40
0.572450218313533
40
0.572450218313533
40
0.583225146091516
40
0.583225146091516
40
0.5940000738695
40
0.5940000738695
40
0.615549929425467
40
0.615549929425467
40
0.637099784981435
40
0.637099784981435
40
0.647874712759419
40
0.647874712759419
40
0.658649640537403
40
0.658649640537403
40
0.68019949609337
40
0.68019949609337
40
0.690974423871354
40
0.690974423871354
40
0.701749351649338
40
0.701749351649338
40
0.723299207205306
40
0.723299207205306
40
0.734074134983292
40
0.734074134983292
40
0.744849062761277
40
0.744849062761277
40
0.766398918317246
40
0.766398918317246
40
0.787948773873216
40
0.787948773873216
40
0.809498629429186
40
0.809498629429186
40
0.831048484985156
40
0.831048484985156
40
0.852598340541125
40
0.852598340541125
40
0.874148196097095
40
0.874148196097095
40
0.895698051653065
40
0.895698051653065
40
0.917247907209035
40
0.917247907209035
40
0.938797762765004
40
0.938797762765004
40
0.949572690542989
40
0.949572690542989
40
0.960347618320974
40
0.960347618320974
40
0.981897473876944
40
0.981897473876944
40
1
40
1
40
1
40
1
41
1
10
61.7712974214705
20
7.97876050170308
30
0
41
1
10
61.8011678197412
20
7.97888805727214
30
0
41
1
10
61.8310373464192
20
7.97897170212912
30
0
41
1
10
62.0942652408125
20
7.97932570659648
30
0
41
1
10
62.3276849571936
20
7.97696260161382
30
0
41
1
10
62.7946354462487
20
7.96710169679807
30
0
41
1
10
63.0281724991543
20
7.95958162506821
30
0
41
1
10
63.4949439408661
20
7.93945301046418
30
0
41
1
10
63.7283556550883
20
7.92686595122265
30
0
41
1
10
64.4278932521292
20
7.88047665826738
30
0
41
1
10
64.8942212963052
20
7.83829740958791
30
0
41
1
10
65.5926006943969
20
7.75976334336417
30
0
41
1
10
65.8250106114625
20
7.73092527586283
30
0
41
1
10
66.2909794454872
20
7.66866126490817
30
0
41
1
10
66.5240852503468
20
7.63502606355658
30
0
41
1
10
67.2232453390087
20
7.525964743309
30
0
41
1
10
67.68901396649
20
7.44202061746708
30
0
41
1
10
68.6229009380808
20
7.25577936295954
30
0
41
1
10
69.0903645188115
20
7.15362722033672
30
0
41
1
10
69.7884149331406
20
6.98621608871937
30
0
41
1
10
70.020647045942
20
6.92787716162329
30
0
41
1
10
70.484350692398
20
6.80642257137478
30
0
41
1
10
70.7157024342363
20
6.74320585289587
30
0
41
1
10
71.410591495157
20
6.54910078837497
30
0
41
1
10
71.8727953413504
20
6.41162242215671
30
0
41
1
10
72.7952820252833
20
6.11811077758512
30
0
41
1
10
73.2562428392072
20
5.96317489949334
30
0
41
1
10
74.1780442386818
20
5.63938449687876
30
0
41
1
10
74.6390431884042
20
5.4713976836259
30
0
41
1
10
75.3298805457079
20
5.20597334169011
30
0
41
1
10
75.5601132746874
20
5.11535421184558
30
0
41
1
10
76.0215924130792
20
4.93207290873579
30
0
41
1
10
76.2524025885168
20
4.83872107701183
30
0
41
1
10
76.9449754098111
20
4.55358729333202
30
0
41
1
10
77.406511390213
20
4.35649304539868
30
0
41
1
10
78.3328520425392
20
3.95212322261048
30
0
41
1
10
78.7972745814188
20
3.74379610006761
30
0
41
1
10
79.728428749629
20
3.31645288595394
30
0
41
1
10
80.1952162186979
20
3.09585936050493
30
0
41
1
10
81.1289232023046
20
2.65129973961089
30
0
41
1
10
81.5948183467783
20
2.42462148610736
30
0
41
1
10
82.525528511625
20
1.96471582881426
30
0
41
1
10
82.990954743729
20
1.73269283854373
30
0
41
1
10
83.9222945771219
20
1.26515386672153
30
0
41
1
10
84.3881522231227
20
1.02916507411271
30
0
41
1
10
85.3197268612275
20
0.552240752119843
30
0
41
1
10
85.7875137795073
20
0.314244897087235
30
0
41
1
10
86.7207148634497
20
-0.164382591961043
30
0
41
1
10
87.1861732455077
20
-0.404211231468963
30
0
41
1
10
88.1176555233469
20
-0.879544483721389
30
0
41
1
10
88.5833771622984
20
-1.11571260716667
30
0
41
1
10
89.281432100373
20
-1.46883999948238
30
0
41
1
10
89.5140088085793
20
-1.58638500691774
30
0
41
1
10
89.9791519596154
20
-1.82059514524465
30
0
41
1
10
90.2122942208547
20
-1.93616803497906
30
0
41
1
10
90.9116687779338
20
-2.28180468679281
30
0
41
1
10
91.3783781539821
20
-2.51075266865217
30
0
41
1
10
92.0780116089999
20
-2.84918938856063
30
0
41
1
10
92.31126076469
20
-2.9607107017689
30
0
41
1
10
92.7773759254424
20
-3.18151234538175
30
0
41
1
10
93.0102929980675
20
-3.29066088147596
30
0
41
1
10
93.7091383797438
20
-3.61397645307852
30
0
41
1
10
94.1742814737005
20
-3.82572050208134
30
0
41
1
10
94.8717430019207
20
-4.13632035580986
30
0
41
1
10
95.1048053416467
20
-4.23764259349315
30
0
41
1
10
95.5704867975045
20
-4.43827642191542
30
0
41
1
10
95.8033341027796
20
-4.53714609770159
30
0
41
1
10
96.2690459347679
20
-4.73213240756525
30
0
41
1
10
96.501894525249
20
-4.82831395902605
30
0
41
1
10
96.9681382974537
20
-5.017251502481
30
0
41
1
10
97.2018020781739
20
-5.10987646663102
30
0
41
1
10
97.6683812293687
20
-5.29222171314976
30
0
41
1
10
97.901389885304
20
-5.38163607808491
30
0
41
1
10
98.366710571947
20
-5.55582309964385
30
0
41
1
10
98.5989248781631
20
-5.64082207004958
30
0
41
1
10
99.0625633609178
20
-5.80718035383379
30
0
41
1
10
99.2937734584274
20
-5.88872936709834
30
0
41
1
10
99.7566068182335
20
-6.04662698773419
30
0
41
1
10
99.9880174302339
20
-6.12338234585835
30
0
41
1
10
100.681172719651
20
-6.34874947271661
30
0
41
1
10
101.141870785117
20
-6.49155280638129
30
0
41
1
10
102.063276227225
20
-6.75733519837513
30
0
41
1
10
102.523913543025
20
-6.88039695421907
30
0
41
1
10
103.214838132603
20
-7.05300746532839
30
0
41
1
10
103.44502344454
20
-7.10862855691698
30
0
41
1
10
103.905271733501
20
-7.21496538015043
30
0
41
1
10
104.135106380334
20
-7.26589114506803
30
0
41
1
10
104.826579412802
20
-7.40992944779748
30
0
41
1
10
105.287988122471
20
-7.4961335446549
30
0
41
1
10
105.980363308618
20
-7.6119734625598
30
0
41
1
10
106.211209803705
20
-7.64838814956417
30
0
41
1
10
106.673787304722
20
-7.71581164645275
30
0
41
1
10
106.905414537166
20
-7.74683255897921
30
0
41
1
10
107.600984715541
20
-7.83213961444599
30
0
41
1
10
108.066253836616
20
-7.87849317648266
30
0
41
1
10
108.765262663901
20
-7.93339368498829
30
0
41
1
10
108.998418543657
20
-7.94926111786978
30
0
41
1
10
109.465048357172
20
-7.9753105172592
30
0
41
1
10
109.698162416998
20
-7.98555906934752
30
0
41
1
10
110.396884922847
20
-8.00789984757333
30
0
41
1
10
110.86153607983
20
-8.01177275780603
30
0
41
1
10
111.791934130189
20
-7.99926382266398
30
0
41
1
10
112.257178738246
20
-7.98300146464956
30
0
41
1
10
113.188123020794
20
-7.92771670452117
30
0
41
1
10
113.653019360874
20
-7.88865480023847
30
0
41
1
10
114.58621927021
20
-7.79113718682342
30
0
41
1
10
115.053090177723
20
-7.73228584891143
30
0
41
1
10
115.984059239117
20
-7.59270920812085
30
0
41
1
10
116.449331372022
20
-7.51235677421732
30
0
41
1
10
117.379947761919
20
-7.3332001233286
30
0
41
1
10
117.845198289753
20
-7.23436408219584
30
0
41
1
10
118.774947491053
20
-7.01558697420577
30
0
41
1
10
119.241013916633
20
-6.89696008767288
30
0
41
1
10
120.173318854386
20
-6.64058037822812
30
0
41
1
10
120.639688872942
20
-6.50291839706787
30
0
41
1
10
121.571494706011
20
-6.21253112856215
30
0
41
1
10
122.037071250727
20
-6.05876118896234
30
0
41
1
10
122.734736836903
20
-5.81608864716466
30
0
41
1
10
122.967134705513
20
-5.73318151898843
30
0
41
1
10
123.431741814327
20
-5.56338306701272
30
0
41
1
10
123.664420744124
20
-5.47712199131141
30
0
41
1
10
124.36253002084
20
-5.2125539156896
30
0
41
1
10
124.827811464305
20
-5.02787628029785
30
0
41
1
10
125.684824337803
20
-4.67556643459841
30
0
41
1
10
126.077056686971
20
-4.51068611731091
30
0
41
1
10
126.468249948108
20
-4.34224960827777
30
0
0
SPLINE
5
C1
100
AcDbEntity
8
1
62
256
6
ByLayer
370
18
48
1
60
0
100
AcDbSpline
70
4
71
3
72
64
73
60
40
0
40
0
40
0
40
0
40
0.0069039856819723
40
0.0069039856819723
40
0.0541942720780683
40
0.0541942720780683
40
0.101484558474165
40
0.101484558474165
40
0.148774844870261
40
0.148774844870261
40
0.196065131266357
40
0.196065131266357
40
0.219710274464406
40
0.219710274464406
40
0.243355417662455
40
0.243355417662455
40
0.290645704058553
40
0.290645704058553
40
0.337935990454652
40
0.337935990454652
40
0.361581133652701
40
0.361581133652701
40
0.38522627685075
40
0.38522627685075
40
0.408871420048799
40
0.408871420048799
40
0.432516563246848
40
0.432516563246848
40
0.456161706444897
40
0.456161706444897
40
0.479806849642946
40
0.479806849642946
40
0.527097136039044
40
0.527097136039044
40
0.550742279237092
40
0.550742279237092
40
0.57438742243514
40
0.57438742243514
40
0.621677708831236
40
0.621677708831236
40
0.668967995227332
40
0.668967995227332
40
0.692613138425379
40
0.692613138425379
40
0.716258281623428
40
0.716258281623428
40
0.763548568019523
40
0.763548568019523
40
0.810838854415618
40
0.810838854415618
40
0.858129140811713
40
0.858129140811713
40
0.881774284009761
40
0.881774284009761
40
0.905419427207809
40
0.905419427207809
40
0.952709713603905
40
0.952709713603905
40
1
40
1
40
1
40
1
41
1
10
159.905937847176
20
8.03835280924574
30
0
41
1
10
159.973984444364
20
8.03831912057183
30
0
41
1
10
160.042049208303
20
8.03806954560673
30
0
41
1
10
160.576480328642
20
8.03446028140945
30
0
41
1
10
161.042164002596
20
8.02163927908489
30
0
41
1
10
161.971283950424
20
7.97258241833012
30
0
41
1
10
162.436627893321
20
7.93679718245869
30
0
41
1
10
163.365547291725
20
7.84507827537951
30
0
41
1
10
163.829610424531
20
7.78973220354393
30
0
41
1
10
164.759454596421
20
7.65701128203676
30
0
41
1
10
165.225103978995
20
7.57968842142333
30
0
41
1
10
165.923992101098
20
7.44863738418172
30
0
41
1
10
166.156893331556
20
7.40263029167448
30
0
41
1
10
166.622024121477
20
7.30586158626201
30
0
41
1
10
166.85500606297
20
7.25550397276754
30
0
41
1
10
167.552847422054
20
7.09623621344628
30
0
41
1
10
168.01712126395
20
6.97940977516839
30
0
41
1
10
168.945743469802
20
6.72794210901591
30
0
41
1
10
169.410368037661
20
6.59466788323769
30
0
41
1
10
170.107921894878
20
6.38092036926395
30
0
41
1
10
170.340463813462
20
6.30731352010744
30
0
41
1
10
170.805570670064
20
6.15535868744539
30
0
41
1
10
171.038017488928
20
6.07682511277594
30
0
41
1
10
171.503738560314
20
5.9162507055226
30
0
41
1
10
171.737204090517
20
5.83459625289822
30
0
41
1
10
172.202589116629
20
5.66756664365408
30
0
41
1
10
172.434853707804
20
5.5822412917318
30
0
41
1
10
172.898491003166
20
5.40749980743993
30
0
41
1
10
173.129861931203
20
5.31812266008089
30
0
41
1
10
173.592363369593
20
5.13645550715043
30
0
41
1
10
173.823523892556
20
5.04421596952187
30
0
41
1
10
174.516061955333
20
4.7623888636075
30
0
41
1
10
174.977366609835
20
4.56951172911664
30
0
41
1
10
175.667599121688
20
4.2702917291995
30
0
41
1
10
175.897208339885
20
4.16852797818689
30
0
41
1
10
176.357281691969
20
3.96407137221377
30
0
41
1
10
176.587387157847
20
3.86077820190448
30
0
41
1
10
177.277180712398
20
3.54652053639754
30
0
41
1
10
177.736277912923
20
3.33113383938902
30
0
41
1
10
178.655793843035
20
2.89348468543309
30
0
41
1
10
179.116093411702
20
2.67082223026614
30
0
41
1
10
179.807530778847
20
2.33166635103925
30
0
41
1
10
180.038063570244
20
2.2175386388742
30
0
41
1
10
180.499301615802
20
1.98730189237676
30
0
41
1
10
180.729780363422
20
1.87076138895139
30
0
41
1
10
181.423636862287
20
1.52233276124451
30
0
41
1
10
181.88720683557
20
1.28706584195802
30
0
41
1
10
182.81625514522
20
0.810365030441517
30
0
41
1
10
183.282825803775
20
0.570023357619249
30
0
41
1
10
184.213630744196
20
0.0901065042552602
30
0
41
1
10
184.678833997268
20
-0.149203121499681
30
0
41
1
10
185.375285645366
20
-0.509275825686331
30
0
41
1
10
185.607193005534
20
-0.629521484571541
30
0
41
1
10
186.071961029686
20
-0.867687506694125
30
0
41
1
10
186.304312251706
20
-0.986596531590749
30
0
41
1
10
187.001229680859
20
-1.34284884979371
30
0
41
1
10
187.465340443662
20
-1.58031007544895
30
0
41
1
10
188.396048850549
20
-2.0484312525094
30
0
41
1
10
188.862676116433
20
-2.28049094987102
30
0
41
1
10
189.327937420823
20
-2.50896279066478
30
0
0
SPLINE
5
C2
100
AcDbEntity
8
1
62
256
6
ByLayer
370
18
48
1
60
0
100
AcDbSpline
70
4
71
3
72
10
73
6
40
0
40
0
40
0
40
0
40
0.5
40
0.5
40
1
40
1
40
1
40
1
41
1
10
197.952667236941
20
-0.245632403694771
30
0
41
1
10
197.956004644534
20
-0.218731422094464
30
0
41
1
10
197.962209294819
20
-0.187577069888363
30
0
41
1
10
197.978504893938
20
-0.119807767472139
30
0
41
1
10
197.988374413542
20
-0.0842494314396731
30
0
41
1
10
197.999967493669
20
-0.0472221000044328
30
0
0
SPLINE
5
C3
100
AcDbEntity
8
1
62
256
6
ByLayer
370
18
48
1
60
0
100
AcDbSpline
70
4
71
3
72
8
73
4
40
0
40
0
40
0
40
0
40
1
40
1
40
1
40
1
41
1
10
194.977210041888
20
8.50619416137758
30
0
41
1
10
194.569192354126
20
8.52341625964826
30
0
41
1
10
194.16071492982
20
8.53186802473448
30
0
41
1
10
193.752666766883
20
8.53155708770245
30
0
0
SPLINE
5
C4
100
AcDbEntity
8
1
62
256
6
ByLayer
370
18
48
1
60
0
100
AcDbSpline
70
4
71
3
72
64
73
60
40
0
40
0
40
0
40
0
40
0.0392967708595181
40
0.0392967708595181
40
0.066510655950637
40
0.066510655950637
40
0.0937245410417561
40
0.0937245410417561
40
0.120938426132875
40
0.120938426132875
40
0.148152311223994
40
0.148152311223994
40
0.202580081406232
40
0.202580081406232
40
0.229793966497351
40
0.229793966497351
40
0.25700785158847
40
0.25700785158847
40
0.311435621770708
40
0.311435621770708
40
0.338649506861827
40
0.338649506861827
40
0.365863391952946
40
0.365863391952946
40
0.420291162135184
40
0.420291162135184
40
0.447505047226304
40
0.447505047226304
40
0.474718932317423
40
0.474718932317423
40
0.501932817408543
40
0.501932817408543
40
0.529146702499662
40
0.529146702499662
40
0.583574472681903
40
0.583574472681903
40
0.610788357773022
40
0.610788357773022
40
0.638002242864142
40
0.638002242864142
40
0.692430013046382
40
0.692430013046382
40
0.719643898137502
40
0.719643898137502
40
0.746857783228623
40
0.746857783228623
40
0.801285553410862
40
0.801285553410862
40
0.828499438501981
40
0.828499438501981
40
0.855713323593101
40
0.855713323593101
40
0.910141093775341
40
0.910141093775341
40
0.964568863957582
40
0.964568863957582
40
0.991782749048702
40
0.991782749048702
40
1
40
1
40
1
40
1
41
1
10
149.948886208018
20
-8.03720855477894
30
0
41
1
10
149.240073742588
20
-8.16309159000244
30
0
41
1
10
148.531191576633
20
-8.26405324458906
30
0
41
1
10
147.32884680057
20
-8.39130239453891
30
0
41
1
10
146.836298250302
20
-8.43092865297831
30
0
41
1
10
145.853398280362
20
-8.48479455081508
30
0
41
1
10
145.362485266693
20
-8.49910275389175
30
0
41
1
10
144.380676668629
20
-8.50244890225574
30
0
41
1
10
143.889768832524
20
-8.49149028300565
30
0
41
1
10
142.907014727619
20
-8.44431911903331
30
0
41
1
10
142.414702865992
20
-8.40804966944415
30
0
41
1
10
140.938183101921
20
-8.26177085599903
30
0
41
1
10
139.956943036562
20
-8.11464876334514
30
0
41
1
10
138.483857778304
20
-7.82303874180886
30
0
41
1
10
137.992593650214
20
-7.71403580013882
30
0
41
1
10
137.008604014525
20
-7.47305906034495
30
0
41
1
10
136.515865063335
20
-7.34103763190473
30
0
41
1
10
135.041109630086
20
-6.91366749564716
30
0
41
1
10
134.060100368399
20
-6.58655553488163
30
0
41
1
10
132.585880917067
20
-6.03937321438079
30
0
41
1
10
132.093659317216
20
-5.8473882100165
30
0
41
1
10
131.108967252607
20
-5.44650027753403
30
0
41
1
10
130.617418857312
20
-5.2379873774764
30
0
41
1
10
129.14370362591
20
-4.59050553399697
30
0
41
1
10
128.162522410618
20
-4.12949541551055
30
0
41
1
10
126.686516453865
20
-3.40357384704757
30
0
41
1
10
126.19366018218
20
-3.1556763845652
30
0
41
1
10
125.210203057669
20
-2.65246391681805
30
0
41
1
10
124.719015337688
20
-2.39690386704308
30
0
41
1
10
123.736810353292
20
-1.87951314105399
30
0
41
1
10
123.245813003178
20
-1.61764564794259
30
0
41
1
10
122.262939378535
20
-1.08952147873725
30
0
41
1
10
121.770803455977
20
-0.823156974341344
30
0
41
1
10
120.293209602446
20
-0.0209382246013661
30
0
41
1
10
119.311558526143
20
0.515367029245311
30
0
41
1
10
117.837963912508
20
1.31059379331123
30
0
41
1
10
117.346645833721
20
1.57425313157975
30
0
41
1
10
116.362674914682
20
2.09672735873454
30
0
41
1
10
115.869650403357
20
2.35564534739785
30
0
41
1
10
114.393920274413
20
3.11884314817254
30
0
41
1
10
113.412676170741
20
3.6110114804186
30
0
41
1
10
111.938088405585
20
4.31325081562034
30
0
41
1
10
111.446100070277
20
4.54149960844586
30
0
41
1
10
110.460748236019
20
4.98447744917846
30
0
41
1
10
109.968938530774
20
5.1984194711936
30
0
41
1
10
108.494444844839
20
5.81536094183588
30
0
41
1
10
107.513045167542
20
6.19395095943528
30
0
41
1
10
106.03690341657
20
6.70422822901295
30
0
41
1
10
105.543782281047
20
6.86490132283728
30
0
41
1
10
104.559738491463
20
7.16462116403812
30
0
41
1
10
104.068332559562
20
7.30378771780821
30
0
41
1
10
102.594449872962
20
7.68792698109024
30
0
41
1
10
101.612420069848
20
7.89961855612819
30
0
41
1
10
99.6412563866056
20
8.22741706960596
30
0
41
1
10
98.658873004085
20
8.34245328094016
30
0
41
1
10
97.1848727756856
20
8.43984968131011
30
0
41
1
10
96.6934596109472
20
8.45981082474896
30
0
41
1
10
96.0528684299097
20
8.46934674509228
30
0
41
1
10
95.9041959507237
20
8.47040299915648
30
0
41
1
10
95.7554767849691
20
8.47030509525763
30
0
0
SPLINE
5
C5
100
AcDbEntity
8
1
62
256
6
ByLayer
370
18
48
1
60
0
100
AcDbSpline
70
4
71
3
72
54
73
50
40
0
40
0
40
0
40
0
40
0.0308817967750854
40
0.0308817967750854
40
0.0631857368825836
40
0.0631857368825836
40
0.0954896769900813
40
0.0954896769900813
40
0.160097557205077
40
0.160097557205077
40
0.192401497312574
40
0.192401497312574
40
0.224705437420072
40
0.224705437420072
40
0.289313317635066
40
0.289313317635066
40
0.321617257742563
40
0.321617257742563
40
0.35392119785006
40
0.35392119785006
40
0.386225137957557
40
0.386225137957557
40
0.418529078065054
40
0.418529078065054
40
0.483136958280048
40
0.483136958280048
40
0.515440898387546
40
0.515440898387546
40
0.547744838495043
40
0.547744838495043
40
0.612352718710038
40
0.612352718710038
40
0.644656658817535
40
0.644656658817535
40
0.676960598925033
40
0.676960598925033
40
0.741568479140027
40
0.741568479140027
40
0.773872419247524
40
0.773872419247524
40
0.806176359355021
40
0.806176359355021
40
0.870784239570014
40
0.870784239570014
40
0.903088179677511
40
0.903088179677511
40
0.935392119785007
40
0.935392119785007
40
1
40
1
40
1
40
1
41
1
10
51.8534471670894
20
-7.99596571346868
30
0
41
1
10
51.3832865664357
20
-8.07738542457881
30
0
41
1
10
50.9133521710759
20
-8.1478656540699
30
0
41
1
10
49.9514637643304
20
-8.26924996308415
30
0
41
1
10
49.4594248609296
20
-8.31907033318873
30
0
41
1
10
48.4738128687405
20
-8.3937847533945
30
0
41
1
10
47.9804509698838
20
-8.41865196785599
30
0
41
1
10
46.5036515072272
20
-8.4552351536729
30
0
41
1
10
45.5210918106704
20
-8.42916598207873
30
0
41
1
10
44.044591809131
20
-8.31497122961082
30
0
41
1
10
43.5514801874745
20
-8.26434162554938
30
0
41
1
10
42.5654020926718
20
-8.13850135154456
30
0
41
1
10
42.0732066357555
20
-8.0633705493797
30
0
41
1
10
40.5974019747214
20
-7.80248076736257
30
0
41
1
10
39.6146407235894
20
-7.58120049010498
30
0
41
1
10
38.1363118399559
20
-7.18243858016928
30
0
41
1
10
37.6427239136691
20
-7.03836430564454
30
0
41
1
10
36.6578574931365
20
-6.73026403472244
30
0
41
1
10
36.1660164448074
20
-6.56606020436146
30
0
41
1
10
35.1823377200979
20
-6.21877672726635
30
0
41
1
10
34.6905562478959
20
-6.03563359595151
30
0
41
1
10
33.7061391192328
20
-5.65153621606572
30
0
41
1
10
33.2131459217323
20
-5.45045639645318
30
0
41
1
10
31.7336310527251
20
-4.8233840550291
30
0
41
1
10
30.7505897265114
20
-4.37527496431736
30
0
41
1
10
29.2748212628904
20
-3.66795515417374
30
0
41
1
10
28.7826864216553
20
-3.42634440510054
30
0
41
1
10
27.7970418091002
20
-2.93300525134597
30
0
41
1
10
27.3032938174742
20
-2.68114940507957
30
0
41
1
10
25.8255091715108
20
-1.91638333508271
30
0
41
1
10
24.8428245785855
20
-1.39296157242404
30
0
41
1
10
23.366064142332
20
-0.599329033349534
30
0
41
1
10
22.8731599721003
20
-0.333244496560099
30
0
41
1
10
21.886358949319
20
0.199560664143093
30
0
41
1
10
21.3937854775573
20
0.465556220265512
30
0
41
1
10
19.9171736771773
20
1.25979528365357
30
0
41
1
10
18.9343353567972
20
1.78445150820937
30
0
41
1
10
17.4559625085144
20
2.55229336437682
30
0
41
1
10
16.9621208344386
20
2.80525886235918
30
0
41
1
10
15.9767801391533
20
3.30078340418675
30
0
41
1
10
15.4847634405648
20
3.54360807977969
30
0
41
1
10
14.0092091399064
20
4.25486483154276
30
0
41
1
10
13.0261611904817
20
4.7060629977413
30
0
41
1
10
11.5466244365401
20
5.33872823238903
30
0
41
1
10
11.0531420376675
20
5.54206110579
30
0
41
1
10
10.0684321824072
20
5.93060091979541
30
0
41
1
10
9.57663532263589
20
6.11603683339635
30
0
41
1
10
8.10136402580088
20
6.64395561033174
30
0
41
1
10
7.1179687609652
20
6.95804117207547
30
0
41
1
10
6.13123871104858
20
7.23000731967352
30
0
0
SPLINE
5
C6
100
AcDbEntity
8
1
62
256
6
ByLayer
370
18
48
1
60
0
100
AcDbSpline
70
4
71
3
72
136
73
132
40
0
40
0
40
0
40
0
40
0.018860508164166
40
0.018860508164166
40
0.0409971532903862
40
0.0409971532903862
40
0.0520654758534965
40
0.0520654758534965
40
0.0631337984166069
40
0.0631337984166069
40
0.0742021209797172
40
0.0742021209797172
40
0.0852704435428276
40
0.0852704435428276
40
0.107407088669048
40
0.107407088669048
40
0.129543733795269
40
0.129543733795269
40
0.135077895076824
40
0.135077895076824
40
0.140612056358379
40
0.140612056358379
40
0.15168037892149
40
0.15168037892149
40
0.1627487014846
40
0.1627487014846
40
0.17381702404771
40
0.17381702404771
40
0.195953669173931
40
0.195953669173931
40
0.207021991737041
40
0.207021991737041
40
0.218090314300151
40
0.218090314300151
40
0.240226959426371
40
0.240226959426371
40
0.262363604552591
40
0.262363604552591
40
0.273431927115702
40
0.273431927115702
40
0.284500249678812
40
0.284500249678812
40
0.306636894805032
40
0.306636894805032
40
0.317705217368142
40
0.317705217368142
40
0.328773539931252
40
0.328773539931252
40
0.350910185057472
40
0.350910185057472
40
0.361978507620582
40
0.361978507620582
40
0.373046830183692
40
0.373046830183692
40
0.384115152746802
40
0.384115152746802
40
0.395183475309912
40
0.395183475309912
40
0.417320120436131
40
0.417320120436131
40
0.428388442999241
40
0.428388442999241
40
0.439456765562351
40
0.439456765562351
40
0.46159341068857
40
0.46159341068857
40
0.483730055814789
40
0.483730055814789
40
0.505866700941008
40
0.505866700941008
40
0.528003346067227
40
0.528003346067227
40
0.550139991193446
40
0.550139991193446
40
0.572276636319666
40
0.572276636319666
40
0.583344958882775
40
0.583344958882775
40
0.594413281445885
40
0.594413281445885
40
0.605481604008994
40
0.605481604008994
40
0.616549926572104
40
0.616549926572104
40
0.638686571698322
40
0.638686571698322
40
0.649754894261432
40
0.649754894261432
40
0.660823216824541
40
0.660823216824541
40
0.68295986195076
40
0.68295986195076
40
0.705096507076979
40
0.705096507076979
40
0.727233152203197
40
0.727233152203197
40
0.749369797329416
40
0.749369797329416
40
0.771506442455635
40
0.771506442455635
40
0.793643087581853
40
0.793643087581853
40
0.804711410144963
40
0.804711410144963
40
0.815779732708073
40
0.815779732708073
40
0.826848055271183
40
0.826848055271183
40
0.837916377834293
40
0.837916377834293
40
0.860053022960513
40
0.860053022960513
40
0.871121345523624
40
0.871121345523624
40
0.882189668086735
40
0.882189668086735
40
0.904326313212955
40
0.904326313212955
40
0.926462958339176
40
0.926462958339176
40
0.937531280902287
40
0.937531280902287
40
0.943065442183842
40
0.943065442183842
40
0.948599603465398
40
0.948599603465398
40
0.97073624859162
40
0.97073624859162
40
0.992872893717843
40
0.992872893717843
40
1
40
1
40
1
40
1
41
1
10
28.4643611479505
20
4.3311232214582
30
0
41
1
10
28.8758256200954
20
4.52190772750245
30
0
41
1
10
29.2875032740183
20
4.70697992531433
30
0
41
1
10
30.1807472223255
20
5.10024534264886
30
0
41
1
10
30.6621367960855
20
5.30659452742282
30
0
41
1
10
31.3855216722102
20
5.60315347959437
30
0
41
1
10
31.6268955769206
20
5.69981940674035
30
0
41
1
10
32.1099346924909
20
5.8890749454421
30
0
41
1
10
32.3517556778021
20
5.98146616729306
30
0
41
1
10
32.8343453496304
20
6.16387649407358
30
0
41
1
10
33.0762227856642
20
6.25276600983949
30
0
41
1
10
33.5592917625812
20
6.42509095433405
30
0
41
1
10
33.8006258249041
20
6.50855336395657
30
0
41
1
10
34.5235499746267
20
6.75161506399121
30
0
41
1
10
35.0031677064581
20
6.90489321536481
30
0
41
1
10
35.960951944177
20
7.19024915348623
30
0
41
1
10
36.4392937562895
20
7.32222810892495
30
0
41
1
10
37.0366514216667
20
7.47398351949545
30
0
41
1
10
37.1561352044693
20
7.5036395424429
30
0
41
1
10
37.3946365344814
20
7.56197144643684
30
0
41
1
10
37.5137069168605
20
7.59059503196559
30
0
41
1
10
37.8712597897445
20
7.67410269574913
30
0
41
1
10
38.1097659348584
20
7.72689863826346
30
0
41
1
10
38.587063105332
20
7.8268257292975
30
0
41
1
10
38.8258936628739
20
7.87393643368151
30
0
41
1
10
39.3032909645359
20
7.96289009871495
30
0
41
1
10
39.5417502847941
20
8.004787026564
30
0
41
1
10
40.2572647849478
20
8.1220820939844
30
0
41
1
10
40.7347708430064
20
8.18890828735994
30
0
41
1
10
41.4530129434533
20
8.27157782762069
30
0
41
1
10
41.6927048539258
20
8.29623866314938
30
0
41
1
10
42.1723427719063
20
8.33982835012898
30
0
41
1
10
42.4117585190558
20
8.35888945175699
30
0
41
1
10
43.132469672687
20
8.4067113653027
30
0
41
1
10
43.6153924632098
20
8.426570902001
30
0
41
1
10
44.582800015391
20
8.44236604442472
30
0
41
1
10
45.0649551889894
20
8.43805085314816
30
0
41
1
10
45.7884501250125
20
8.41346819627287
30
0
41
1
10
46.0296876560297
20
8.40228240250897
30
0
41
1
10
46.5120680239755
20
8.37394483236315
30
0
41
1
10
46.7532858262705
20
8.35682287104081
30
0
41
1
10
47.4751350537963
20
8.29592669888717
30
0
41
1
10
47.957504325219
20
8.24362681545281
30
0
41
1
10
48.6820078611456
20
8.14773949881464
30
0
41
1
10
48.9234830600792
20
8.11277442282693
30
0
41
1
10
49.4063536219583
20
8.03670156110911
30
0
41
1
10
49.6481724841372
20
7.99566372634973
30
0
41
1
10
50.3722945999091
20
7.86430143927265
30
0
41
1
10
50.8538501434531
20
7.76590791377745
30
0
41
1
10
51.5743225647894
20
7.60244170375989
30
0
41
1
10
51.8136724594013
20
7.54487651239165
30
0
41
1
10
52.2922515303822
20
7.42483413334034
30
0
41
1
10
52.5315013647046
20
7.3623930533366
30
0
41
1
10
53.0099368871422
20
7.23278495281164
30
0
41
1
10
53.2491443560199
20
7.16564639318028
30
0
41
1
10
53.7268805608897
20
7.02605632893929
30
0
41
1
10
53.9653205648721
20
6.95349781878087
30
0
41
1
10
54.6804427190424
20
6.72861474369739
30
0
41
1
10
55.1570513284491
20
6.56923263109792
30
0
41
1
10
55.8728856138368
20
6.31748243622053
30
0
41
1
10
56.1116396779956
20
6.2314512365565
30
0
41
1
10
56.5888101957281
20
6.05433150779669
30
0
41
1
10
56.8269092222259
20
5.96279736008481
30
0
41
1
10
57.5432042666098
20
5.68383851714646
30
0
41
1
10
58.0224409684269
20
5.49094470421406
30
0
41
1
10
58.9810197238945
20
5.086405910991
30
0
41
1
10
59.4608310880717
20
4.87531626672947
30
0
41
1
10
60.4246474173641
20
4.44016778073364
30
0
41
1
10
60.9096967978928
20
4.21649497094506
30
0
41
1
10
61.8738188501241
20
3.7533566573251
30
0
41
1
10
62.3563163248253
20
3.51815031515562
30
0
41
1
10
63.3210123891943
20
3.03874788774942
30
0
41
1
10
63.8021683370189
20
2.7927183024743
30
0
41
1
10
64.7657091687597
20
2.29416970606656
30
0
41
1
10
65.2483095162847
20
2.04207350179084
30
0
41
1
10
65.9731473789759
20
1.65915993573205
30
0
41
1
10
66.2145873321296
20
1.52958868572458
30
0
41
1
10
66.6970384433632
20
1.27099138790939
30
0
41
1
10
66.9380421606084
20
1.14179838138858
30
0
41
1
10
67.4196299394479
20
0.883643659312611
30
0
41
1
10
67.6602140955483
20
0.754680431206992
30
0
41
1
10
68.1403145958711
20
0.49571781952011
30
0
41
1
10
68.3797604024622
20
0.365585729334469
30
0
41
1
10
69.0975307521739
20
-0.0243535393923935
30
0
41
1
10
69.575246775973
20
-0.283788180590562
30
0
41
1
10
70.2916877447443
20
-0.670195598008235
30
0
41
1
10
70.5305528165302
20
-0.798405416004016
30
0
41
1
10
71.0071470576358
20
-1.05596133323155
30
0
41
1
10
71.2450564209691
20
-1.18496252988115
30
0
41
1
10
71.9600090941048
20
-1.56818273151194
30
0
41
1
10
72.437647242803
20
-1.81982583937833
30
0
41
1
10
73.3914584799277
20
-2.32183756495377
30
0
41
1
10
73.8683164707239
20
-2.57092024530223
30
0
41
1
10
74.824835967665
20
-3.05995207164861
30
0
41
1
10
75.3047028820479
20
-3.2995634735407
30
0
41
1
10
76.2641171411892
20
-3.77517775858422
30
0
41
1
10
76.7461963062601
20
-4.0067065681871
30
0
41
1
10
77.7137453203942
20
-4.4594542981757
30
0
41
1
10
78.195620778054
20
-4.68095817986037
30
0
41
1
10
79.1592608639306
20
-5.10833974660767
30
0
41
1
10
79.6412528861452
20
-5.31395302727034
30
0
41
1
10
80.364036137615
20
-5.61106121825995
30
0
41
1
10
80.6043529423023
20
-5.70899792147591
30
0
41
1
10
81.0858255813515
20
-5.89978284570387
30
0
41
1
10
81.3268392751054
20
-5.99284199179391
30
0
41
1
10
81.809425409281
20
-6.17433823222862
30
0
41
1
10
82.0509805891283
20
-6.26280396453754
30
0
41
1
10
82.5339500526609
20
-6.43597690006285
30
0
41
1
10
82.7754498665462
20
-6.52078660614927
30
0
41
1
10
83.4994527501087
20
-6.76746005936712
30
0
41
1
10
83.9815264049862
20
-6.92186913605335
30
0
41
1
10
84.7047769412916
20
-7.13760692872262
30
0
41
1
10
84.946013324127
20
-7.2067674763689
30
0
41
1
10
85.4270195298488
20
-7.3412270177983
30
0
41
1
10
85.6675113712806
20
-7.40581227244596
30
0
41
1
10
86.3899755662389
20
-7.59080476016945
30
0
41
1
10
86.8727886214408
20
-7.70271689566101
30
0
41
1
10
87.837200503995
20
-7.90634972882205
30
0
41
1
10
88.3205522535839
20
-7.99733337533209
30
0
41
1
10
89.0434084767826
20
-8.11533190728684
30
0
41
1
10
89.2841078951773
20
-8.15164378220499
30
0
41
1
10
89.6445808400096
20
-8.2017467987834
30
0
41
1
10
89.7646817344297
20
-8.21770176689253
30
0
41
1
10
90.0044628638884
20
-8.24825631690715
30
0
41
1
10
90.1240431781653
20
-8.26289273111814
30
0
41
1
10
90.722323062118
20
-8.33202657886326
30
0
41
1
10
91.2009522083842
20
-8.37504187158115
30
0
41
1
10
92.1564707934762
20
-8.43775946211207
30
0
41
1
10
92.6326241195225
20
-8.45746747438523
30
0
41
1
10
93.2624046259372
20
-8.46766846019295
30
0
41
1
10
93.4158336007192
20
-8.46892268777256
30
0
41
1
10
93.569293982938
20
-8.46894898458009
30
0
0
SPLINE
5
C7
100
AcDbEntity
8
1
62
256
6
ByLayer
370
18
48
1
60
0
100
AcDbSpline
70
4
71
3
72
144
73
140
40
0
40
0
40
0
40
0
40
0.0183810950220903
40
0.0183810950220903
40
0.0294274145801473
40
0.0294274145801473
40
0.0404737341382046
40
0.0404737341382046
40
0.0625663732543201
40
0.0625663732543201
40
0.0846590123704357
40
0.0846590123704357
40
0.095705331928494
40
0.095705331928494
40
0.101228491707524
40
0.101228491707524
40
0.106751651486553
40
0.106751651486553
40
0.128844290602674
40
0.128844290602674
40
0.150936929718794
40
0.150936929718794
40
0.173029568834915
40
0.173029568834915
40
0.184075888392975
40
0.184075888392975
40
0.195122207951035
40
0.195122207951035
40
0.206168527509094
40
0.206168527509094
40
0.217214847067154
40
0.217214847067154
40
0.239307486183274
40
0.239307486183274
40
0.250353805741333
40
0.250353805741333
40
0.261400125299393
40
0.261400125299393
40
0.283492764415513
40
0.283492764415513
40
0.305585403531632
40
0.305585403531632
40
0.316631723089693
40
0.316631723089693
40
0.327678042647753
40
0.327678042647753
40
0.349770681763873
40
0.349770681763873
40
0.371863320879994
40
0.371863320879994
40
0.393955959996114
40
0.393955959996114
40
0.405002279554174
40
0.405002279554174
40
0.416048599112234
40
0.416048599112234
40
0.427094918670294
40
0.427094918670294
40
0.438141238228353
40
0.438141238228353
40
0.460233877344472
40
0.460233877344472
40
0.471280196902531
40
0.471280196902531
40
0.48232651646059
40
0.48232651646059
40
0.504419155576709
40
0.504419155576709
40
0.515465475134769
40
0.515465475134769
40
0.526511794692828
40
0.526511794692828
40
0.537558114250888
40
0.537558114250888
40
0.548604433808948
40
0.548604433808948
40
0.570697072925067
40
0.570697072925067
40
0.592789712041187
40
0.592789712041187
40
0.603836031599247
40
0.603836031599247
40
0.614882351157307
40
0.614882351157307
40
0.625928670715367
40
0.625928670715367
40
0.636974990273426
40
0.636974990273426
40
0.648021309831486
40
0.648021309831486
40
0.659067629389546
40
0.659067629389546
40
0.681160268505665
40
0.681160268505665
40
0.692206588063725
40
0.692206588063725
40
0.703252907621785
40
0.703252907621785
40
0.725345546737906
40
0.725345546737906
40
0.747438185854026
40
0.747438185854026
40
0.758484505412086
40
0.758484505412086
40
0.769530824970146
40
0.769530824970146
40
0.791623464086267
40
0.791623464086267
40
0.813716103202387
40
0.813716103202387
40
0.824762422760447
40
0.824762422760447
40
0.835808742318508
40
0.835808742318508
40
0.846855061876568
40
0.846855061876568
40
0.857901381434628
40
0.857901381434628
40
0.868947700992688
40
0.868947700992688
40
0.879994020550748
40
0.879994020550748
40
0.902086659666869
40
0.902086659666869
40
0.91313297922493
40
0.91313297922493
40
0.924179298782991
40
0.924179298782991
40
0.935225618341052
40
0.935225618341052
40
0.946271937899112
40
0.946271937899112
40
0.968364577015235
40
0.968364577015235
40
0.979410896573297
40
0.979410896573297
40
0.990457216131358
40
0.990457216131358
40
1
40
1
40
1
40
1
41
1
10
126.446578542271
20
4.34786546101864
30
0
41
1
10
126.842646589323
20
4.53340909959138
30
0
41
1
10
127.238805874032
20
4.714459883882
30
0
41
1
10
127.873725148619
20
4.99633607052377
30
0
41
1
10
128.112221516723
20
5.10034335563722
30
0
41
1
10
128.588214288539
20
5.30668079958912
30
0
41
1
10
128.826560106001
20
5.40773481616034
30
0
41
1
10
129.54266891387
20
5.7045827612809
30
0
41
1
10
130.021658500987
20
5.89389929848562
30
0
41
1
10
130.979636670125
20
6.25954470024169
30
0
41
1
10
131.459670693386
20
6.43437369624709
30
0
41
1
10
132.183057030046
20
6.68224212383177
30
0
41
1
10
132.42483478768
20
6.76254041762022
30
0
41
1
10
132.786804190696
20
6.87926150165509
30
0
41
1
10
132.90745919302
20
6.91749583917735
30
0
41
1
10
133.148192458681
20
6.99322231249201
30
0
41
1
10
133.268425913744
20
7.03054234407475
30
0
41
1
10
133.870002009066
20
7.21331251505688
30
0
41
1
10
134.351904765812
20
7.3480825133442
30
0
41
1
10
135.314708871175
20
7.59731167888449
30
0
41
1
10
135.79510354787
20
7.71206065124352
30
0
41
1
10
136.757736333945
20
7.91848163729711
30
0
41
1
10
137.240335740095
20
8.01004859390616
30
0
41
1
10
137.964408582859
20
8.13097167270774
30
0
41
1
10
138.205011273101
20
8.16863715292487
30
0
41
1
10
138.686893957727
20
8.23745977998755
30
0
41
1
10
138.927882842348
20
8.26880631500501
30
0
41
1
10
139.409846130554
20
8.32551728213127
30
0
41
1
10
139.650748542241
20
8.35091651444793
30
0
41
1
10
140.131843862454
20
8.39593795601482
30
0
41
1
10
140.372120241589
20
8.41551398094771
30
0
41
1
10
141.093435391965
20
8.46505964468096
30
0
41
1
10
141.574610387062
20
8.48596645350321
30
0
41
1
10
142.297583178163
20
8.49916982412083
30
0
41
1
10
142.538614947086
20
8.50056438657026
30
0
41
1
10
143.020243581024
20
8.49719619390279
30
0
41
1
10
143.261666954444
20
8.49243274950769
30
0
41
1
10
143.984766153374
20
8.46914091919592
30
0
41
1
10
144.465855768224
20
8.44172712003322
30
0
41
1
10
145.423408705639
20
8.36274915842407
30
0
41
1
10
145.900964025415
20
8.31137221382619
30
0
41
1
10
146.617026637095
20
8.21745765443657
30
0
41
1
10
146.855633132608
20
8.1833411107169
30
0
41
1
10
147.332412295639
20
8.10937179644893
30
0
41
1
10
147.57011834727
20
8.06924021734565
30
0
41
1
10
148.283799040762
20
7.94083132738226
30
0
41
1
10
148.760446136644
20
7.84478356527686
30
0
41
1
10
149.712993548776
20
7.63037036413618
30
0
41
1
10
150.188560805577
20
7.5115832107833
30
0
41
1
10
151.141969769934
20
7.25372034112823
30
0
41
1
10
151.620203314965
20
7.11518404909947
30
0
41
1
10
152.337838372561
20
6.89074517241207
30
0
41
1
10
152.576829748898
20
6.81281231355069
30
0
41
1
10
153.056450029862
20
6.6530409638988
30
0
41
1
10
153.296793387755
20
6.57089456560647
30
0
41
1
10
153.778427249805
20
6.401957041309
30
0
41
1
10
154.019772239347
20
6.31503454129259
30
0
41
1
10
154.50222124617
20
6.13579367719029
30
0
41
1
10
154.743014750958
20
6.04373681718297
30
0
41
1
10
155.465360572592
20
5.76190421267475
30
0
41
1
10
155.946547252088
20
5.56605190626169
30
0
41
1
10
156.66849800176
20
5.26152148285897
30
0
41
1
10
156.908990591256
20
5.15795760794535
30
0
41
1
10
157.389265285802
20
4.9460712799299
30
0
41
1
10
157.629648649624
20
4.8386369511762
30
0
41
1
10
158.351549823103
20
4.51196667664868
30
0
41
1
10
158.833803092979
20
4.28839929106789
30
0
41
1
10
159.556617635004
20
3.94093415378902
30
0
41
1
10
159.797923179055
20
3.8235203846512
30
0
41
1
10
160.27940932729
20
3.58672810115735
30
0
41
1
10
160.519793466418
20
3.46729635276881
30
0
41
1
10
161.000161431993
20
3.2269428397903
30
0
41
1
10
161.240088238862
20
3.10592009552789
30
0
41
1
10
161.719160165631
20
2.86170846059696
30
0
41
1
10
161.957816116067
20
2.7376342559088
30
0
41
1
10
162.674010778306
20
2.3646808837056
30
0
41
1
10
163.15166698468
20
2.11489883960681
30
0
41
1
10
164.104770779137
20
1.60836960230205
30
0
41
1
10
164.579995216917
20
1.35119084721737
30
0
41
1
10
165.293569288596
20
0.964577086369871
30
0
41
1
10
165.531566303115
20
0.83559746492341
30
0
41
1
10
166.007785431288
20
0.577329401331525
30
0
41
1
10
166.246105489151
20
0.448225570036385
30
0
41
1
10
166.722061854497
20
0.188000728446156
30
0
41
1
10
166.959771937333
20
0.0570130693393196
30
0
41
1
10
167.436412607252
20
-0.203407000341684
30
0
41
1
10
167.675100555199
20
-0.333293924041357
30
0
41
1
10
168.153068501238
20
-0.592686816190934
30
0
41
1
10
168.39227434904
20
-0.722332859971232
30
0
41
1
10
168.870642411948
20
-0.982466181371109
30
0
41
1
10
169.109908367178
20
-1.11275779693912
30
0
41
1
10
169.829131161825
20
-1.50206148554889
30
0
41
1
10
170.310633161525
20
-1.76031845530449
30
0
41
1
10
171.034578797049
20
-2.14337386216545
30
0
41
1
10
171.275546024334
20
-2.27047942496293
30
0
41
1
10
171.756476131588
20
-2.52404658159253
30
0
41
1
10
171.997012722046
20
-2.64948590326779
30
0
41
1
10
172.718857014782
20
-3.02180789699321
30
0
41
1
10
173.20037051746
20
-3.26478249565648
30
0
41
1
10
174.16127357158
20
-3.74477563543775
30
0
41
1
10
174.641815103628
20
-3.97980814215285
30
0
41
1
10
175.364306203989
20
-4.3224261555898
30
0
41
1
10
175.605372766844
20
-4.43505275847633
30
0
41
1
10
176.087694866775
20
-4.65758749172417
30
0
41
1
10
176.328515469656
20
-4.76831394418272
30
0
41
1
10
177.050099124396
20
-5.09276282284719
30
0
41
1
10
177.530656518236
20
-5.29960962981548
30
0
41
1
10
178.488151940365
20
-5.69898849284803
30
0
41
1
10
178.964940975529
20
-5.89158570056017
30
0
41
1
10
179.679888671804
20
-6.16615933682848
30
0
41
1
10
179.91818614439
20
-6.25528764013384
30
0
41
1
10
180.394655119167
20
-6.42892685540349
30
0
41
1
10
180.632977591137
20
-6.51326403653479
30
0
41
1
10
181.108358987075
20
-6.67866164053137
30
0
41
1
10
181.345781988191
20
-6.75925966831707
30
0
41
1
10
181.821384321787
20
-6.91480859878985
30
0
41
1
10
182.059391634627
20
-6.98996809020281
30
0
41
1
10
182.535645064394
20
-7.13529804302081
30
0
41
1
10
182.773812344829
20
-7.20555433953629
30
0
41
1
10
183.249769383095
20
-7.3416397642778
30
0
41
1
10
183.487681942986
20
-7.40733496071169
30
0
41
1
10
184.202329916965
20
-7.59629496400882
30
0
41
1
10
184.679691619658
20
-7.71172121852416
30
0
41
1
10
185.397783399771
20
-7.86848806868187
30
0
41
1
10
185.637288248393
20
-7.91817322163854
30
0
41
1
10
186.116332143813
20
-8.01244122072049
30
0
41
1
10
186.356413335845
20
-8.05664534813653
30
0
41
1
10
186.837701034678
20
-8.13922840876864
30
0
41
1
10
187.079177789065
20
-8.17761457750848
30
0
41
1
10
187.561636169882
20
-8.2485904913043
30
0
41
1
10
187.802437711
20
-8.2812324491222
30
0
41
1
10
188.523897785095
20
-8.37035906739402
30
0
41
1
10
189.004263089829
20
-8.41774922478001
30
0
41
1
10
189.725442635384
20
-8.4705804984616
30
0
41
1
10
189.96589727886
20
-8.48517285655274
30
0
41
1
10
190.446644564027
20
-8.50837671900922
30
0
41
1
10
190.686423589449
20
-8.51703753836418
30
0
41
1
10
191.134145366856
20
-8.52740095491191
30
0
41
1
10
191.34194108115
20
-8.52993321335546
30
0
41
1
10
191.549905792196
20
-8.53019608699188
30
0
0
SPLINE
5
C8
100
AcDbEntity
8
1
62
256
6
ByLayer
370
18
48
1
60
0
100
AcDbSpline
70
4
71
3
72
14
73
10
40
0
40
0
40
0
40
0
40
0.25
40
0.25
40
0.5
40
0.5
40
0.75
40
0.75
40
1
40
1
40
1
40
1
41
1
10
195.141224872267
20
-8.04050723864486
30
0
41
1
10
195.143752527255
20
-8.0394653519634
30
0
41
1
10
195.145590071376
20
-8.04023261471249
30
0
41
1
10
195.147489959543
20
-8.04640795281443
30
0
41
1
10
195.147491939874
20
-8.05194107956356
30
0
41
1
10
195.144805320886
20
-8.06854322709319
30
0
41
1
10
195.142087821495
20
-8.07957411021573
30
0
41
1
10
195.134465112357
20
-8.10441094838382
30
0
41
1
10
195.129602662845
20
-8.1181076366619
30
0
41
1
10
195.124435526025
20
-8.13130178913212
30
0
0
SPLINE
5
C9
100
AcDbEntity
8
1
62
256
6
ByLayer
370
18
48
1
60
0
100
AcDbSpline
70
4
71
3
72
8
73
4
40
0
40
0
40
0
40
0
40
1
40
1
40
1
40
1
41
1
10
197.688303514044
20
-2.09701171630343
30
0
41
1
10
197.787969730715
20
-1.47979487441916
30
0
41
1
10
197.876116123848
20
-0.86266823992591
30
0
41
1
10
197.952667236941
20
-0.245632403695026
30
0
0
SPLINE
5
CA
100
AcDbEntity
8
1
62
256
6
ByLayer
370
18
48
1
60
0
100
AcDbSpline
70
4
71
3
72
12
73
8
40
0
40
0
40
0
40
0
40
0.249999999999999
40
0.249999999999999
40
0.499999999999998
40
0.499999999999998
40
1
40
1
40
1
40
1
41
1
10
195.257918263172
20
8.29512596037631
30
0
41
1
10
195.46284093582
20
7.78092930563628
30
0
41
1
10
195.667622183553
20
7.26633626827785
30
0
41
1
10
196.07607831631
20
6.23587764522358
30
0
41
1
10
196.279783040203
20
5.72003928878638
30
0
41
1
10
196.888488499026
20
4.17034565721164
30
0
41
1
10
197.291146083661
20
3.13440856879561
30
0
41
1
10
197.688303514044
20
2.09701171630343
30
0
0
SPLINE
5
CB
100
AcDbEntity
8
1
62
256
6
ByLayer
370
18
48
1
60
0
100
AcDbSpline
70
4
71
3
72
16
73
12
40
0
40
0
40
0
40
0
40
0.125
40
0.125
40
0.25
40
0.25
40
0.5
40
0.5
40
0.75
40
0.75
40
1
40
1
40
1
40
1
41
1
10
194.988266585103
20
2.12216902236972
30
0
41
1
10
195.100910327948
20
2.12006248104942
30
0
41
1
10
195.213543459099
20
2.11805212278392
30
0
41
1
10
195.438677952125
20
2.11522574636129
30
0
41
1
10
195.551238209126
20
2.11387591020497
30
0
41
1
10
195.888919058766
20
2.10982568898348
30
0
41
1
10
196.114030552328
20
2.10721188326531
30
0
41
1
10
196.564219737168
20
2.10227398993919
30
0
41
1
10
196.789300580463
20
2.09987514020691
30
0
41
1
10
197.239116015228
20
2.09684273060302
30
0
41
1
10
197.463804567949
20
2.09644388931727
30
0
41
1
10
197.688303514044
20
2.0970117163034
30
0
0
SPLINE
5
CC
100
AcDbEntity
8
1
62
256
6
ByLayer
370
18
48
1
60
0
100
AcDbSpline
70
4
71
3
72
8
73
4
40
0
40
0
40
0
40
0
40
1
40
1
40
1
40
1
41
1
10
197.688303514044
20
2.09701171630337
30
0
41
1
10
197.787971053628
20
1.47978668183057
30
0
41
1
10
197.87611714213
20
0.862660032114718
30
0
41
1
10
197.952667236941
20
0.245632403695169
30
0
0
SPLINE
5
CD
100
AcDbEntity
8
1
62
256
6
ByLayer
370
18
48
1
60
0
100
AcDbSpline
70
4
71
3
72
8
73
4
40
0
40
0
40
0
40
0
40
1
40
1
40
1
40
1
41
1
10
197.999967493669
20
0.0472221000042623
30
0
41
1
10
197.992060905496
20
0.0270740185311524
30
0
41
1
10
197.983474624306
20
0.0083119853568121
30
0
41
1
10
197.974886544714
20
-0.0076601387293636
30
0
0
SPLINE
5
CE
100
AcDbEntity
8
1
62
256
6
ByLayer
370
18
48
1
60
0
100
AcDbSpline
70
4
71
3
72
38
73
34
40
0
40
0
40
0
40
0
40
0.105654149710045
40
0.105654149710045
40
0.205861652380894
40
0.205861652380894
40
0.255965403716318
40
0.255965403716318
40
0.306069155051742
40
0.306069155051742
40
0.50648416039344
40
0.50648416039344
40
0.519010098227296
40
0.519010098227296
40
0.525273067144224
40
0.525273067144224
40
0.531536036061152
40
0.531536036061152
40
0.53779900497808
40
0.53779900497808
40
0.544061973895008
40
0.544061973895008
40
0.556587911728865
40
0.556587911728865
40
0.606691663064289
40
0.606691663064289
40
0.706899165735138
40
0.706899165735138
40
0.807106668405987
40
0.807106668405987
40
0.907314171076836
40
0.907314171076836
40
1
40
1
40
1
40
1
41
1
10
10.9466102048231
20
4.63750346097294
30
0
41
1
10
10.9466102048231
20
4.3050606208019
30
0
41
1
10
10.9466102048231
20
3.96071818200724
30
0
41
1
10
10.9466102048231
20
3.26709069038313
30
0
41
1
10
10.9466102048231
20
2.91893099496238
30
0
41
1
10
10.9466102048231
20
2.38086311078234
30
0
41
1
10
10.9466102048231
20
2.19881462393184
30
0
41
1
10
10.9466102048231
20
1.83096309799973
30
0
41
1
10
10.9466102048231
20
1.64497659239313
30
0
41
1
10
10.9466102048231
20
0.704826690029535
30
0
41
1
10
10.9466102048231
20
-0.0798497394375488
30
0
41
1
10
10.9466102048231
20
-0.948190573138902
30
0
41
1
10
10.9466102048231
20
-0.999415156748114
30
0
41
1
10
10.9466102048231
20
-1.07633599272887
30
0
41
1
10
10.9466102048231
20
-1.10199311271538
30
0
41
1
10
10.9466102048231
20
-1.15334095061047
30
0
41
1
10
10.9466102048231
20
-1.17944858440947
30
0
41
1
10
10.9466102048231
20
-1.23324245857606
30
0
41
1
10
10.9466102048231
20
-1.26081024367991
30
0
41
1
10
10.9466102048231
20
-1.31764279342488
30
0
41
1
10
10.9466102048232
20
-1.34716781414065
30
0
41
1
10
10.9466102048232
20
-1.43499256407685
30
0
41
1
10
10.9466102048231
20
-1.49360202040071
30
0
41
1
10
10.9466102048231
20
-1.78694970710251
30
0
41
1
10
10.9466102048231
20
-2.02277733748872
30
0
41
1
10
10.9466102048231
20
-2.73144268972223
30
0
41
1
10
10.9466102048231
20
-3.20556782864426
30
0
41
1
10
10.9466102048231
20
-4.15734469639511
30
0
41
1
10
10.9466102048231
20
-4.63499578761176
30
0
41
1
10
10.9466102048231
20
-5.59405290853874
30
0
41
1
10
10.9466102048231
20
-6.07619569129844
30
0
41
1
10
10.9466102048231
20
-7.00027220672862
30
0
41
1
10
10.9466102048231
20
-7.443235750984
30
0
41
1
10
10.9466102048231
20
-7.8850649764677
30
0
0
SPLINE
5
CF
100
AcDbEntity
8
1
62
256
6
ByLayer
370
18
48
1
60
0
100
AcDbSpline
70
4
71
3
72
80
73
76
40
0
40
0
40
0
40
0
40
0.0429001392025437
40
0.0429001392025437
40
0.0643502088038156
40
0.0643502088038156
40
0.0858002784050874
40
0.0858002784050874
40
0.128700417607632
40
0.128700417607632
40
0.171600556810176
40
0.171600556810176
40
0.193050626411448
40
0.193050626411448
40
0.21450069601272
40
0.21450069601272
40
0.235950765613992
40
0.235950765613992
40
0.257400835215264
40
0.257400835215264
40
0.278850904816536
40
0.278850904816536
40
0.300300974417808
40
0.300300974417808
40
0.321751044019081
40
0.321751044019081
40
0.343201113620352
40
0.343201113620352
40
0.364651183221625
40
0.364651183221625
40
0.386101252822897
40
0.386101252822897
40
0.429001392025441
40
0.429001392025441
40
0.471901531227985
40
0.471901531227985
40
0.493351600829258
40
0.493351600829258
40
0.51480167043053
40
0.51480167043053
40
0.557701809633076
40
0.557701809633076
40
0.600601948835622
40
0.600601948835622
40
0.622052018436895
40
0.622052018436895
40
0.643502088038168
40
0.643502088038168
40
0.664952157639441
40
0.664952157639441
40
0.686402227240714
40
0.686402227240714
40
0.72930236644326
40
0.72930236644326
40
0.772202505645805
40
0.772202505645805
40
0.782927540446441
40
0.782927540446441
40
0.793652575247077
40
0.793652575247077
40
0.81510264484835
40
0.81510264484835
40
0.836552714449624
40
0.836552714449624
40
0.858002784050897
40
0.858002784050897
40
0.900902923253444
40
0.900902923253444
40
0.922352992854717
40
0.922352992854717
40
0.94380306245599
40
0.94380306245599
40
0.986703201658536
40
0.986703201658536
40
1
40
1
40
1
40
1
41
1
10
10.9466102048231
20
4.63750346096555
30
0
41
1
10
11.4296073168573
20
4.41804303228667
30
0
41
1
10
11.9115988539589
20
4.19390081951084
30
0
41
1
10
12.6336463062654
20
3.85185879701302
30
0
41
1
10
12.8741044133313
20
3.73675768079801
30
0
41
1
10
13.3541387254068
20
3.50363354323167
30
0
41
1
10
13.5932345001324
20
3.38476173816963
30
0
41
1
10
14.3109521746597
20
3.02681908750918
30
0
41
1
10
14.7897314248716
20
2.78598987350699
30
0
41
1
10
15.745217163542
20
2.29524358428807
30
0
41
1
10
16.2217511970627
20
2.04497272584274
30
0
41
1
10
16.9374479536591
20
1.66715562992422
30
0
41
1
10
17.176182787135
20
1.54085684973359
30
0
41
1
10
17.6539104097377
20
1.28740102683409
30
0
41
1
10
17.8930453313078
20
1.16051387369077
30
0
41
1
10
18.3704700725615
20
0.903790980248829
30
0
41
1
10
18.6090739465357
20
0.774539010779307
30
0
41
1
10
19.0874360169099
20
0.516861084994048
30
0
41
1
10
19.327010391547
20
0.388089537965783
30
0
41
1
10
19.8067686288849
20
0.130350740653739
30
0
41
1
10
20.0468715649876
20
0.0012283873671208
30
0
41
1
10
20.5270839748422
20
-0.258406389642772
30
0
41
1
10
20.7673265783197
20
-0.388663324284636
30
0
41
1
10
21.2487882729243
20
-0.64869069080811
30
0
41
1
10
21.4898546415897
20
-0.778761328890823
30
0
41
1
10
21.9731242683288
20
-1.0380985806359
30
0
41
1
10
22.2154151693025
20
-1.16741170753684
30
0
41
1
10
22.6991261948917
20
-1.42484590840394
30
0
41
1
10
22.940565164214
20
-1.55342833747835
30
0
41
1
10
23.4227316845658
20
-1.81007067726134
30
0
41
1
10
23.6639075565152
20
-1.93730917610887
30
0
41
1
10
24.3877321081441
20
-2.31579430866086
30
0
41
1
10
24.8705415236806
20
-2.56408249275566
30
0
41
1
10
25.8343574016565
20
-3.05664686829738
30
0
41
1
10
26.316498684188
20
-3.29889387787605
30
0
41
1
10
27.0414898510624
20
-3.65377851111251
30
0
41
1
10
27.2833979641057
20
-3.77075188701383
30
0
41
1
10
27.7674189432051
20
-4.00252431534292
30
0
41
1
10
28.0085587608837
20
-4.11802369969467
30
0
41
1
10
28.7327833875859
20
-4.45748703891576
30
0
41
1
10
29.216122963916
20
-4.67555356357403
30
0
41
1
10
30.1807472223255
20
-5.1002453426488
30
0
41
1
10
30.6621367960854
20
-5.30659452742279
30
0
41
1
10
31.3855216722101
20
-5.60315347959437
30
0
41
1
10
31.6268955769205
20
-5.69981940674035
30
0
41
1
10
32.1099346924908
20
-5.88907494544208
30
0
41
1
10
32.351755677802
20
-5.98146616729304
30
0
41
1
10
32.8343453496303
20
-6.16387649407358
30
0
41
1
10
33.0762227856641
20
-6.25276600983946
30
0
41
1
10
33.5592917625811
20
-6.42509095433402
30
0
41
1
10
33.8006258249041
20
-6.50855336395657
30
0
41
1
10
34.5235499746266
20
-6.75161506399115
30
0
41
1
10
35.003167706458
20
-6.90489321536478
30
0
41
1
10
35.9609519441769
20
-7.19024915348623
30
0
41
1
10
36.4392937562895
20
-7.32222810892492
30
0
41
1
10
37.0366514216666
20
-7.47398351949542
30
0
41
1
10
37.1561352044692
20
-7.5036395424429
30
0
41
1
10
37.3946365344813
20
-7.56197144643681
30
0
41
1
10
37.5137069168604
20
-7.59059503196556
30
0
41
1
10
37.8712597897444
20
-7.6741026957491
30
0
41
1
10
38.1097659348583
20
-7.72689863826344
30
0
41
1
10
38.5870631053319
20
-7.82682572929747
30
0
41
1
10
38.8258936628738
20
-7.87393643368148
30
0
41
1
10
39.3032909645358
20
-7.96289009871495
30
0
41
1
10
39.541750284794
20
-8.004787026564
30
0
41
1
10
40.2572647849476
20
-8.12208209398437
30
0
41
1
10
40.7347708430063
20
-8.18890828735994
30
0
41
1
10
41.4530129434531
20
-8.27157782762069
30
0
41
1
10
41.6927048539256
20
-8.29623866314935
30
0
41
1
10
42.1723427719062
20
-8.33982835012898
30
0
41
1
10
42.4117585190556
20
-8.35888945175699
30
0
41
1
10
43.1324696726869
20
-8.4067113653027
30
0
41
1
10
43.6153924632097
20
-8.426570902001
30
0
41
1
10
44.2490190993944
20
-8.43691630703677
30
0
41
1
10
44.3987931890251
20
-8.43819089056333
30
0
41
1
10
44.5484698235979
20
-8.43829637800479
30
0
0
SPLINE
5
D0
100
AcDbEntity
8
1
62
256
6
ByLayer
370
18
48
1
60
0
100
AcDbSpline
70
4
71
3
72
132
73
128
40
0
40
0
40
0
40
0
40
0.0189295717920098
40
0.0189295717920098
40
0.0410436517851804
40
0.0410436517851804
40
0.0521006917817663
40
0.0521006917817663
40
0.0631577317783521
40
0.0631577317783521
40
0.074214771774938
40
0.074214771774938
40
0.0852718117715238
40
0.0852718117715238
40
0.107385891764696
40
0.107385891764696
40
0.118442931761281
40
0.118442931761281
40
0.129499971757867
40
0.129499971757867
40
0.151614051751037
40
0.151614051751037
40
0.173728131744208
40
0.173728131744208
40
0.184785171740794
40
0.184785171740794
40
0.190313691739086
40
0.190313691739086
40
0.195842211737378
40
0.195842211737378
40
0.217956291730547
40
0.217956291730547
40
0.240070371723716
40
0.240070371723716
40
0.262184451716885
40
0.262184451716885
40
0.273241491713469
40
0.273241491713469
40
0.284298531710054
40
0.284298531710054
40
0.295355571706638
40
0.295355571706638
40
0.306412611703222
40
0.306412611703222
40
0.328526691696392
40
0.328526691696392
40
0.339583731692977
40
0.339583731692977
40
0.350640771689561
40
0.350640771689561
40
0.37275485168273
40
0.37275485168273
40
0.394868931675899
40
0.394868931675899
40
0.405925971672483
40
0.405925971672483
40
0.411454491670775
40
0.411454491670775
40
0.416983011669067
40
0.416983011669067
40
0.439097091662236
40
0.439097091662236
40
0.461211171655404
40
0.461211171655404
40
0.483325251648573
40
0.483325251648573
40
0.571781571621251
40
0.571781571621251
40
0.582838611617835
40
0.582838611617835
40
0.593895651614419
40
0.593895651614419
40
0.616009731607587
40
0.616009731607587
40
0.627066771604171
40
0.627066771604171
40
0.632595291602464
40
0.632595291602464
40
0.638123811600756
40
0.638123811600756
40
0.660237891593926
40
0.660237891593926
40
0.682351971587097
40
0.682351971587097
40
0.704466051580267
40
0.704466051580267
40
0.715523091576852
40
0.715523091576852
40
0.726580131573437
40
0.726580131573437
40
0.737637171570022
40
0.737637171570022
40
0.748694211566607
40
0.748694211566607
40
0.770808291559777
40
0.770808291559777
40
0.781865331556361
40
0.781865331556361
40
0.792922371552945
40
0.792922371552945
40
0.815036451546114
40
0.815036451546114
40
0.837150531539283
40
0.837150531539283
40
0.848207571535867
40
0.848207571535867
40
0.85373609153416
40
0.85373609153416
40
0.859264611532452
40
0.859264611532452
40
0.881378691525625
40
0.881378691525625
40
0.903492771518797
40
0.903492771518797
40
0.925606851511969
40
0.925606851511969
40
0.936663891508555
40
0.936663891508555
40
0.947720931505142
40
0.947720931505142
40
0.958777971501728
40
0.958777971501728
40
0.969835011498314
40
0.969835011498314
40
0.991949091491485
40
0.991949091491485
40
1
40
1
40
1
40
1
41
1
10
77.4388540588933
20
4.33056466456526
30
0
41
1
10
77.8525278192604
20
4.52308701177677
30
0
41
1
10
78.2650046221339
20
4.71173043230655
30
0
41
1
10
79.1592608639304
20
5.10833974660758
30
0
41
1
10
79.6412528861451
20
5.31395302727029
30
0
41
1
10
80.3640361376149
20
5.61106121825986
30
0
41
1
10
80.6043529423021
20
5.70899792147588
30
0
41
1
10
81.0858255813514
20
5.89978284570384
30
0
41
1
10
81.3268392751052
20
5.99284199179385
30
0
41
1
10
81.8094254092808
20
6.17433823222859
30
0
41
1
10
82.0509805891281
20
6.26280396453745
30
0
41
1
10
82.5339500526607
20
6.4359769000628
30
0
41
1
10
82.775449866546
20
6.52078660614927
30
0
41
1
10
83.4994527501086
20
6.76746005936707
30
0
41
1
10
83.981526404986
20
6.92186913605329
30
0
41
1
10
84.7047769412914
20
7.13760692872256
30
0
41
1
10
84.9460133241269
20
7.20676747636887
30
0
41
1
10
85.4270195298485
20
7.34122701779827
30
0
41
1
10
85.6675113712804
20
7.40581227244593
30
0
41
1
10
86.3899755662387
20
7.59080476016945
30
0
41
1
10
86.8727886214406
20
7.70271689566098
30
0
41
1
10
87.8372005039948
20
7.90634972882202
30
0
41
1
10
88.3205522535837
20
7.99733337533206
30
0
41
1
10
89.0434084767824
20
8.11533190728682
30
0
41
1
10
89.284107895177
20
8.15164378220499
30
0
41
1
10
89.6445808400094
20
8.20174679878338
30
0
41
1
10
89.7646817344295
20
8.2177017668925
30
0
41
1
10
90.0044628638881
20
8.24825631690715
30
0
41
1
10
90.1240431781652
20
8.26289273111811
30
0
41
1
10
90.7223230621178
20
8.33202657886326
30
0
41
1
10
91.2009522083839
20
8.37504187158115
30
0
41
1
10
92.156470793476
20
8.43775946211207
30
0
41
1
10
92.6326241195223
20
8.45746747438523
30
0
41
1
10
93.5854225070813
20
8.47290060184807
30
0
41
1
10
94.062281502733
20
8.46874934654784
30
0
41
1
10
94.7775291216948
20
8.44482247946061
30
0
41
1
10
95.0153513586306
20
8.43378201441277
30
0
41
1
10
95.4921183221061
20
8.40587442498207
30
0
41
1
10
95.7308233437262
20
8.38899152319689
30
0
41
1
10
96.2088652342275
20
8.34943021199845
30
0
41
1
10
96.4481670159655
20
8.32675052837499
30
0
41
1
10
96.9267185930172
20
8.27531203515275
30
0
41
1
10
97.1659320235792
20
8.24651619655111
30
0
41
1
10
97.8847863688134
20
8.15135962127397
30
0
41
1
10
98.3653923677929
20
8.07614840076292
30
0
41
1
10
99.0893279788057
20
7.94613144581189
30
0
41
1
10
99.3314317275965
20
7.8999872699647
30
0
41
1
10
99.8134532074983
20
7.80114991591083
30
0
41
1
10
100.054383150473
20
7.74900010050442
30
0
41
1
10
100.777490658183
20
7.58492577942044
30
0
41
1
10
101.26000156429
20
7.46550963435573
30
0
41
1
10
102.222406115742
20
7.20359130533635
30
0
41
1
10
102.703306343262
20
7.06187263167041
30
0
41
1
10
103.426155083391
20
6.83519859031213
30
0
41
1
10
103.667339722628
20
6.75729080436102
30
0
41
1
10
104.029255966722
20
6.63666657504538
30
0
41
1
10
104.149973521185
20
6.59589689283487
30
0
41
1
10
104.391126158123
20
6.51270083315984
30
0
41
1
10
104.511559014873
20
6.47026471562066
30
0
41
1
10
105.114719100401
20
6.25593697210292
30
0
41
1
10
105.597074855117
20
6.07709047073877
30
0
41
1
10
106.557998687107
20
5.70308577908696
30
0
41
1
10
107.036201174752
20
5.50688478496642
30
0
41
1
10
107.991800841039
20
5.10148389549883
30
0
41
1
10
108.469437703513
20
4.89271290177197
30
0
41
1
10
110.853571541207
20
3.81395965547301
30
0
41
1
10
112.752462009596
20
2.84546824430362
30
0
41
1
10
114.915512414948
20
1.69741314938517
30
0
41
1
10
115.156418808618
20
1.56942276845589
30
0
41
1
10
115.63905346505
20
1.31197905298984
30
0
41
1
10
115.88083662837
20
1.18223248871928
30
0
41
1
10
116.60428430883
20
0.790967165290368
30
0
41
1
10
117.085615130556
20
0.528658889366938
30
0
41
1
10
117.808056726889
20
0.13650514615685
30
0
41
1
10
118.048925030517
20
0.0059682804183581
30
0
41
1
10
118.410095637662
20
-0.189960592122048
30
0
41
1
10
118.530528868175
20
-0.25517077919659
30
0
41
1
10
118.770945988803
20
-0.386380558455642
30
0
41
1
10
118.891020477402
20
-0.452212658051536
30
0
41
1
10
119.492093645486
20
-0.779978231994505
30
0
41
1
10
119.974284656012
20
-1.03940987263772
30
0
41
1
10
120.939133423997
20
-1.55677007090188
30
0
41
1
10
121.421993204197
20
-1.81611610542049
30
0
41
1
10
122.384476603655
20
-2.32482717019863
30
0
41
1
10
122.864943311823
20
-2.57397701014653
30
0
41
1
10
123.583130289349
20
-2.94260492657486
30
0
41
1
10
123.82164030041
20
-3.06544815959524
30
0
41
1
10
124.29926683551
20
-3.3068233486249
30
0
41
1
10
124.538068982992
20
-3.42592926411689
30
0
41
1
10
125.01558088581
20
-3.66115751569978
30
0
41
1
10
125.25422877421
20
-3.77738976310414
30
0
41
1
10
125.73074953589
20
-4.00801452456815
30
0
41
1
10
125.968655099261
20
-4.12234119331609
30
0
41
1
10
126.682677597917
20
-4.46008968716919
30
0
41
1
10
127.158726433911
20
-4.67890814035619
30
0
41
1
10
127.873725148619
20
-4.99633607052368
30
0
41
1
10
128.112221516722
20
-5.10034335563716
30
0
41
1
10
128.588214288539
20
-5.30668079958903
30
0
41
1
10
128.826560106001
20
-5.40773481616029
30
0
41
1
10
129.542668913869
20
-5.70458276128085
30
0
41
1
10
130.021658500987
20
-5.89389929848551
30
0
41
1
10
130.979636670125
20
-6.25954470024166
30
0
41
1
10
131.459670693386
20
-6.43437369624704
30
0
41
1
10
132.183057030046
20
-6.68224212383171
30
0
41
1
10
132.42483478768
20
-6.76254041762019
30
0
41
1
10
132.786804190696
20
-6.87926150165504
30
0
41
1
10
132.907459193019
20
-6.91749583917726
30
0
41
1
10
133.148192458681
20
-6.99322231249198
30
0
41
1
10
133.268425913743
20
-7.03054234407472
30
0
41
1
10
133.870002009066
20
-7.21331251505683
30
0
41
1
10
134.351904765812
20
-7.34808251334411
30
0
41
1
10
135.314708871175
20
-7.59731167888447
30
0
41
1
10
135.79510354787
20
-7.71206065124346
30
0
41
1
10
136.757736333945
20
-7.91848163729705
30
0
41
1
10
137.240335740095
20
-8.01004859390602
30
0
41
1
10
137.964408582858
20
-8.13097167270774
30
0
41
1
10
138.205011273101
20
-8.16863715292484
30
0
41
1
10
138.686893957727
20
-8.23745977998752
30
0
41
1
10
138.927882842348
20
-8.26880631500501
30
0
41
1
10
139.409846130553
20
-8.32551728213124
30
0
41
1
10
139.650748542241
20
-8.35091651444787
30
0
41
1
10
140.131843862453
20
-8.39593795601479
30
0
41
1
10
140.372120241589
20
-8.41551398094768
30
0
41
1
10
141.093435391964
20
-8.46505964468093
30
0
41
1
10
141.574610387062
20
-8.48596645350321
30
0
41
1
10
142.232063796453
20
-8.49797326916053
30
0
41
1
10
142.407556996332
20
-8.49958386072643
30
0
41
1
10
142.582972140241
20
-8.49957264360054
30
0
0
SPLINE
5
D1
100
AcDbEntity
8
1
62
256
6
ByLayer
370
18
48
1
60
0
100
AcDbSpline
70
4
71
3
72
52
73
48
40
0
40
0
40
0
40
0
40
0.019465433107087
40
0.019465433107087
40
0.055781528177193
40
0.055781528177193
40
0.128413718317406
40
0.128413718317406
40
0.201045908457619
40
0.201045908457619
40
0.237362003527728
40
0.237362003527728
40
0.273678098597837
40
0.273678098597837
40
0.309994193667946
40
0.309994193667946
40
0.346310288738054
40
0.346310288738054
40
0.382626383808162
40
0.382626383808162
40
0.418942478878271
40
0.418942478878271
40
0.491574669018491
40
0.491574669018491
40
0.5278907640886
40
0.5278907640886
40
0.56420685915871
40
0.56420685915871
40
0.600522954228819
40
0.600522954228819
40
0.636839049298929
40
0.636839049298929
40
0.709471239439147
40
0.709471239439147
40
0.745787334509257
40
0.745787334509257
40
0.782103429579365
40
0.782103429579365
40
0.854735619719578
40
0.854735619719578
40
0.891051714789684
40
0.891051714789684
40
0.927367809859789
40
0.927367809859789
40
0.963683904929895
40
0.963683904929895
40
1
40
1
40
1
40
1
41
1
10
175.458849985189
20
4.36619672944539
30
0
41
1
10
175.588036235359
20
4.42665096700881
30
0
41
1
10
175.717271453191
20
4.48668079774851
30
0
41
1
10
176.087694866775
20
4.65758749172406
30
0
41
1
10
176.328515469656
20
4.76831394418264
30
0
41
1
10
177.050099124396
20
5.09276282284711
30
0
41
1
10
177.530656518235
20
5.29960962981539
30
0
41
1
10
178.488151940365
20
5.69898849284795
30
0
41
1
10
178.964940975528
20
5.89158570056011
30
0
41
1
10
179.679888671804
20
6.1661593368284
30
0
41
1
10
179.91818614439
20
6.25528764013376
30
0
41
1
10
180.394655119167
20
6.4289268554034
30
0
41
1
10
180.632977591137
20
6.51326403653471
30
0
41
1
10
181.108358987075
20
6.67866164053129
30
0
41
1
10
181.345781988191
20
6.75925966831701
30
0
41
1
10
181.821384321787
20
6.91480859878976
30
0
41
1
10
182.059391634626
20
6.98996809020275
30
0
41
1
10
182.535645064393
20
7.13529804302075
30
0
41
1
10
182.773812344829
20
7.20555433953621
30
0
41
1
10
183.249769383095
20
7.3416397642778
30
0
41
1
10
183.487681942986
20
7.40733496071164
30
0
41
1
10
184.202329916965
20
7.59629496400879
30
0
41
1
10
184.679691619658
20
7.71172121852413
30
0
41
1
10
185.397783399771
20
7.86848806868184
30
0
41
1
10
185.637288248393
20
7.91817322163851
30
0
41
1
10
186.116332143813
20
8.01244122072046
30
0
41
1
10
186.356413335845
20
8.0566453481365
30
0
41
1
10
186.837701034678
20
8.13922840876864
30
0
41
1
10
187.079177789065
20
8.17761457750845
30
0
41
1
10
187.561636169882
20
8.24859049130427
30
0
41
1
10
187.802437711
20
8.28123244912217
30
0
41
1
10
188.523897785095
20
8.37035906739402
30
0
41
1
10
189.004263089829
20
8.41774922478001
30
0
41
1
10
189.725442635384
20
8.47058049846157
30
0
41
1
10
189.96589727886
20
8.48517285655274
30
0
41
1
10
190.446644564027
20
8.50837671900922
30
0
41
1
10
190.686423589449
20
8.51703753836418
30
0
41
1
10
191.407049115074
20
8.53371785831692
30
0
41
1
10
191.888979970747
20
8.53266578990474
30
0
41
1
10
192.612035428807
20
8.5128602854559
30
0
41
1
10
192.85302062963
20
8.50316085773014
30
0
41
1
10
193.334469593529
20
8.47769379804583
30
0
41
1
10
193.575039684016
20
8.46192961362138
30
0
41
1
10
194.055994140571
20
8.42441778476143
30
0
41
1
10
194.296492200601
20
8.40270373556086
30
0
41
1
10
194.777411897702
20
8.35339120989295
30
0
41
1
10
195.01801867603
20
8.32587905206094
30
0
41
1
10
195.257918263172
20
8.29512596037625
30
0
0
SPLINE
5
D2
100
AcDbEntity
8
1
62
256
6
ByLayer
370
18
48
1
60
0
100
AcDbSpline
70
4
71
3
72
8
73
4
40
0
40
0
40
0
40
0
40
1
40
1
40
1
40
1
41
1
10
197.974886544714
20
-0.0076601387294488
30
0
41
1
10
197.915399428966
20
-0.118294371223584
30
0
41
1
10
197.856117141468
20
-0.229111635306538
30
0
41
1
10
197.797039991362
20
-0.340112207166413
30
0
0
SPLINE
5
D3
100
AcDbEntity
8
1
62
256
6
ByLayer
370
18
48
1
60
0
100
AcDbSpline
70
4
71
3
72
57
73
53
40
0
40
0
40
0
40
0
40
0.0293410009552586
40
0.0293410009552586
40
0.0586820019105172
40
0.0586820019105172
40
0.117364003821036
40
0.117364003821036
40
0.146705004776295
40
0.146705004776295
40
0.176046005731554
40
0.205387006686814
40
0.205387006686814
40
0.234728007642073
40
0.234728007642073
40
0.293410009552591
40
0.293410009552591
40
0.32275101050785
40
0.32275101050785
40
0.35209201146311
40
0.35209201146311
40
0.410774013373628
40
0.410774013373628
40
0.440115014328888
40
0.440115014328888
40
0.469456015284148
40
0.469456015284148
40
0.528138017194669
40
0.528138017194669
40
0.557479018149929
40
0.557479018149929
40
0.58682001910519
40
0.58682001910519
40
0.645502021015711
40
0.645502021015711
40
0.704184022926232
40
0.704184022926232
40
0.733525023881492
40
0.733525023881492
40
0.762866024836753
40
0.762866024836753
40
0.821548026747275
40
0.821548026747275
40
0.880230028657797
40
0.880230028657797
40
0.93891203056832
40
0.93891203056832
40
0.96825303152358
40
0.96825303152358
40
0.997594032478841
40
0.997594032478841
40
1
40
1
40
1
40
1
41
1
10
194.977210041888
20
-8.50619416137758
30
0
41
1
10
194.485687150817
20
-8.52694094708369
30
0
41
1
10
193.99359939862
20
-8.53496610780397
30
0
41
1
10
193.010212525681
20
-8.52555866234462
30
0
41
1
10
192.519253429144
20
-8.50815224452106
30
0
41
1
10
191.047233735166
20
-8.41824045192692
30
0
41
1
10
190.066946089646
20
-8.30804443476347
30
0
41
1
10
188.592172205371
20
-8.06915314684167
30
0
41
1
10
188.099955099357
20
-7.97724550792225
30
0
41
1
10
187.117741989364
20
-7.77043396616605
30
0
41
1
10
186.136563608861
20
-7.54046203034986
30
0
41
1
10
185.155484713001
20
-7.26589398246199
30
0
41
1
10
184.173459155004
20
-6.96991007801674
30
0
41
1
10
183.681516778807
20
-6.81106254120371
30
0
41
1
10
182.205960983828
20
-6.3047923835156
30
0
41
1
10
181.225415327013
20
-5.92883245774524
30
0
41
1
10
179.753352625837
20
-5.31530691301606
30
0
41
1
10
179.262463826256
20
-5.10252598516482
30
0
41
1
10
178.279246377528
20
-4.66184314734934
30
0
41
1
10
177.786825020163
20
-4.43389633895833
30
0
41
1
10
176.313050102526
20
-3.73286219384823
30
0
41
1
10
175.332731727482
20
-3.2417050755989
30
0
41
1
10
173.859599528049
20
-2.4793206682082
30
0
41
1
10
173.367789727065
20
-2.22071266001746
30
0
41
1
10
172.38373179609
20
-1.6975192136276
30
0
41
1
10
171.892513909718
20
-1.43348532005967
30
0
41
1
10
170.419831225415
20
-0.636753802720136
30
0
41
1
10
169.439331685481
20
-0.0994355601360155
30
0
41
1
10
167.964470220719
20
0.704691807791704
30
0
41
1
10
167.471928897494
20
0.972578241842598
30
0
41
1
10
166.489108005705
20
1.50332427170647
30
0
41
1
10
165.998274599117
20
1.766498403995
30
0
41
1
10
164.526041689691
20
2.54681655329003
30
0
41
1
10
163.544473862581
20
3.0549077044611
30
0
41
1
10
161.575642905229
20
4.031366346374
30
0
41
1
10
160.594612659147
20
4.49660129842525
30
0
41
1
10
159.122152734078
20
5.15076880339584
30
0
41
1
10
158.631182144219
20
5.36154724544667
30
0
41
1
10
157.647913093014
20
5.76699391318465
30
0
41
1
10
157.155244065768
20
5.9617990812404
30
0
41
1
10
155.68056003514
20
6.51733620059869
30
0
41
1
10
154.699875022589
20
6.85004514504726
30
0
41
1
10
152.735373260365
20
7.43128137825966
30
0
41
1
10
151.749775960273
20
7.67998592140529
30
0
41
1
10
149.785280882659
20
8.08161096897331
30
0
41
1
10
148.804430541507
20
8.23512291816166
30
0
41
1
10
147.329539604227
20
8.39123522380964
30
0
41
1
10
146.836777328314
20
8.43089882927686
30
0
41
1
10
145.853336717529
20
8.48480149190436
30
0
41
1
10
145.362272148746
20
8.49910771289115
30
0
41
1
10
144.831077197676
20
8.5009135226594
30
0
41
1
10
144.790821077675
20
8.50096540616809
30
0
41
1
10
144.750565566994
20
8.50093233375389
30
0
0
SPLINE
5
D4
100
AcDbEntity
8
1
62
256
6
ByLayer
370
18
48
1
60
0
100
AcDbSpline
70
4
71
3
72
66
73
62
40
0
40
0
40
0
40
0
40
0.0042016922802576
40
0.0042016922802576
40
0.0314853351195222
40
0.0314853351195222
40
0.0587689779587863
40
0.0587689779587863
40
0.0860526207980509
40
0.0860526207980509
40
0.113336263637315
40
0.113336263637315
40
0.167903549315845
40
0.167903549315845
40
0.195187192155109
40
0.195187192155109
40
0.222470834994375
40
0.222470834994375
40
0.277038120672905
40
0.277038120672905
40
0.304321763512171
40
0.304321763512171
40
0.331605406351436
40
0.331605406351436
40
0.386172692029967
40
0.386172692029967
40
0.413456334869232
40
0.413456334869232
40
0.440739977708497
40
0.440739977708497
40
0.468023620547762
40
0.468023620547762
40
0.495307263387028
40
0.495307263387028
40
0.549874549065558
40
0.549874549065558
40
0.577158191904824
40
0.577158191904824
40
0.604441834744089
40
0.604441834744089
40
0.65900912042262
40
0.65900912042262
40
0.686292763261885
40
0.686292763261885
40
0.71357640610115
40
0.71357640610115
40
0.76814369177968
40
0.76814369177968
40
0.795427334618945
40
0.795427334618945
40
0.82271097745821
40
0.82271097745821
40
0.877278263136739
40
0.877278263136739
40
0.931845548815268
40
0.931845548815268
40
0.959129191654532
40
0.959129191654532
40
0.986412834493797
40
0.986412834493797
40
1
40
1
40
1
40
1
41
1
10
100.85546480493
20
-8.02463146673068
30
0
41
1
10
100.779669211984
20
-8.03781006712882
30
0
41
1
10
100.703857258359
20
-8.05070676980884
30
0
41
1
10
100.135624574746
20
-8.14522453614504
30
0
41
1
10
99.642740271633
20
-8.21512259151748
30
0
41
1
10
98.6591329553355
20
-8.32991317121926
30
0
41
1
10
98.1678145402667
20
-8.37489545892606
30
0
41
1
10
97.1852009224997
20
-8.43983311688649
30
0
41
1
10
96.6939320407697
20
-8.45979119202457
30
0
41
1
10
95.7104094905051
20
-8.47445721289279
30
0
41
1
10
95.2176317679681
20
-8.46914502068361
30
0
41
1
10
93.7400200728563
20
-8.41523392319556
30
0
41
1
10
92.7580749288528
20
-8.32882729679639
30
0
41
1
10
91.2837244385732
20
-8.12587104076601
30
0
41
1
10
90.7920707096694
20
-8.04598220183374
30
0
41
1
10
89.8073143803732
20
-7.86215813336614
30
0
41
1
10
89.3142235478955
20
-7.75822001556395
30
0
41
1
10
87.8383470838454
20
-7.41288806552339
30
0
41
1
10
86.8565769969588
20
-7.13757751826327
30
0
41
1
10
85.3811537785786
20
-6.66275525918508
30
0
41
1
10
84.8884945999854
20
-6.4939930553391
30
0
41
1
10
83.9030981210995
20
-6.13761130652085
30
0
41
1
10
83.4111670564013
20
-5.95031638973478
30
0
41
1
10
81.9363016467632
20
-5.36309033526052
30
0
41
1
10
80.9543395792521
20
-4.93773284303785
30
0
41
1
10
79.4771133363406
20
-4.25780063770154
30
0
41
1
10
78.9838575684543
20
-4.02408768277866
30
0
41
1
10
77.9996679040713
20
-3.54640692651861
30
0
41
1
10
77.5081454455052
20
-3.30219360811853
30
0
41
1
10
76.5251861109964
20
-2.80485641428376
30
0
41
1
10
76.0337557289173
20
-2.55172236207923
30
0
41
1
10
75.0500389744718
20
-2.03818571796563
30
0
41
1
10
74.5574918118111
20
-1.77756323560999
30
0
41
1
10
73.0788834323527
20
-0.988623111335812
30
0
41
1
10
72.0964043586291
20
-0.455549709871121
30
0
41
1
10
70.6216775451761
20
0.343802931811439
30
0
41
1
10
70.129912792651
20
0.61017168039271
30
0
41
1
10
69.1450901947023
20
1.1410497693868
30
0
41
1
10
68.6517477549168
20
1.40571764465105
30
0
41
1
10
67.1750049386857
20
2.1901627006508
30
0
41
1
10
66.1927882820588
20
2.70166416083933
30
0
41
1
10
64.7171817906327
20
3.44166179242825
30
0
41
1
10
64.2247648080942
20
3.68381128385843
30
0
41
1
10
63.2386444769415
20
4.15678074770781
30
0
41
1
10
62.7464289156668
20
4.38694151197325
30
0
41
1
10
61.2709085272398
20
5.05635144589613
30
0
41
1
10
60.288569311894
20
5.47427739061618
30
0
41
1
10
58.8113282724576
20
6.05016204667172
30
0
41
1
10
58.3178655709392
20
6.23372406984643
30
0
41
1
10
57.3330349077844
20
6.58073452088797
30
0
41
1
10
56.8412364310353
20
6.74442932730904
30
0
41
1
10
55.3662141276186
20
7.20453510561768
30
0
41
1
10
54.3833538253458
20
7.46994472581613
30
0
41
1
10
52.410591862365
20
7.90995107950766
30
0
41
1
10
51.4274940417583
20
8.08295432752939
30
0
41
1
10
49.9524475780094
20
8.26914070842719
30
0
41
1
10
49.4606132903308
20
8.31895464747274
30
0
41
1
10
48.4756475578096
20
8.39367119285581
30
0
41
1
10
47.9821082828923
20
8.41858724217627
30
0
41
1
10
47.244285416683
20
8.43689995408172
30
0
41
1
10
46.9991538724022
20
8.43985528009114
30
0
41
1
10
46.7541160833667
20
8.43968637645432
30
0
0
SPLINE
5
D5
100
AcDbEntity
8
1
62
256
6
ByLayer
370
18
48
1
60
0
100
AcDbSpline
70
4
71
3
72
18
73
14
40
0
40
0
40
0
40
0
40
0.216912389677454
40
0.216912389677454
40
0.327020192979262
40
0.327020192979262
40
0.382074094630166
40
0.382074094630166
40
0.43712799628107
40
0.43712799628107
40
0.877559209488315
40
0.877559209488315
40
1
40
1
40
1
40
1
41
1
10
71.2463731991338
20
0.0049657155770717
30
0
41
1
10
72.2102616651304
20
-0.494687673542273
30
0
41
1
10
73.174594214864
20
-0.994589468240292
30
0
41
1
10
74.6341464280886
20
-1.73867531400296
30
0
41
1
10
75.1265753894842
20
-1.98753031074807
30
0
41
1
10
75.8674504950971
20
-2.35683931871662
30
0
41
1
10
76.1147709330351
20
-2.47929994231734
30
0
41
1
10
76.610258340115
20
-2.72269424661218
30
0
41
1
10
76.8585456939668
20
-2.8436828264376
30
0
41
1
10
79.0871749626003
20
-3.91961857360869
30
0
41
1
10
81.0435374665674
20
-4.79242457749316
30
0
41
1
10
83.5501881417934
20
-5.74196298744036
30
0
41
1
10
84.0958030066095
20
-5.93857144568054
30
0
41
1
10
84.6424167047102
20
-6.12426680615758
30
0
0
SPLINE
5
D6
100
AcDbEntity
8
1
62
256
6
ByLayer
370
13
48
1
60
0
100
AcDbSpline
70
4
71
3
72
18
73
14
40
0
40
0
40
0
40
0
40
0.0971322354840036
40
0.0971322354840036
40
0.206516405194775
40
0.206516405194775
40
0.315900574905545
40
0.315900574905545
40
0.753437253748637
40
0.753437253748637
40
0.972205593170186
40
0.972205593170186
40
1
40
1
40
1
40
1
41
1
10
84.6424167044533
20
-6.12426680607035
30
0
41
1
10
85.0789138357788
20
-6.27255341584956
30
0
41
1
10
85.516047901602
20
-6.41388097795473
30
0
41
1
10
86.4475151119265
20
-6.69851689547829
30
0
41
1
10
86.94242574327
20
-6.83988230494555
30
0
41
1
10
87.9343355458038
20
-7.10215687188276
30
0
41
1
10
88.4286096851797
20
-7.22232145991444
30
0
41
1
10
90.8941646916924
20
-7.76661595061043
30
0
41
1
10
92.8475268172643
20
-8.02194457111563
30
0
41
1
10
95.7932730906707
20
-8.11637125709956
30
0
41
1
10
96.7776602731295
20
-8.09982491191568
30
0
41
1
10
97.8943367875319
20
-8.0259331282428
30
0
41
1
10
98.0202751342826
20
-8.01681130346995
30
0
41
1
10
98.146246045533
20
-8.00690286345304
30
0
0
SPLINE
5
D7
100
AcDbEntity
8
1
62
256
6
ByLayer
370
18
48
1
60
0
100
AcDbSpline
70
4
71
3
72
18
73
14
40
0
40
0
40
0
40
0
40
0.182719234343193
40
0.182719234343193
40
0.41879077366374
40
0.41879077366374
40
0.536826543324012
40
0.536826543324012
40
0.595844428154147
40
0.595844428154147
40
0.654862312984283
40
0.654862312984283
40
1
40
1
40
1
40
1
41
1
10
169.222664278844
20
0.0174568101285217
30
0
41
1
10
169.979479037152
20
-0.377852132595876
30
0
41
1
10
170.735223640691
20
-0.772744710069759
30
0
41
1
10
172.468852437648
20
-1.66920811250174
30
0
41
1
10
173.447081947603
20
-2.16843246550843
30
0
41
1
10
174.921541526323
20
-2.8971363144127
30
0
41
1
10
175.414228429846
20
-3.13665448299813
30
0
41
1
10
176.155701237189
20
-3.48960996270122
30
0
41
1
10
176.403558357833
20
-3.60633444812777
30
0
41
1
10
176.898337558705
20
-3.8365448585723
30
0
41
1
10
177.145321955497
20
-3.9500645189471
30
0
41
1
10
178.834359329613
20
-4.71595330862837
30
0
41
1
10
180.265111522197
20
-5.31255698993118
30
0
41
1
10
181.695753712214
20
-5.83566340017674
30
0
0
SPLINE
5
D8
100
AcDbEntity
8
1
62
256
6
ByLayer
370
13
48
1
60
0
100
AcDbSpline
70
4
71
3
72
20
73
16
40
0
40
0
40
0
40
0
40
0.118553526892757
40
0.118553526892757
40
0.338915145169568
40
0.338915145169568
40
0.449095954307973
40
0.449095954307973
40
0.559276763446378
40
0.559276763446378
40
0.77963838172319
40
0.77963838172319
40
0.889819190861595
40
0.889819190861595
40
1
40
1
40
1
40
1
41
1
10
181.695753714641
20
-5.83566340106392
30
0
41
1
10
182.222208165069
20
-6.02815856134856
30
0
41
1
10
182.748647719748
20
-6.21070125431334
30
0
41
1
10
184.255207648102
20
-6.70180714482191
30
0
41
1
10
185.2367231112
20
-6.9840787162783
30
0
41
1
10
186.717448671432
20
-7.34448973819289
30
0
41
1
10
187.213204855712
20
-7.45426147571547
30
0
41
1
10
188.202491114999
20
-7.65051009342298
30
0
41
1
10
188.696477214868
20
-7.73711779617486
30
0
41
1
10
190.177977107401
20
-7.96153729337758
30
0
41
1
10
191.16504365938
20
-8.06413217887859
30
0
41
1
10
192.65032689171
20
-8.14482077423349
30
0
41
1
10
193.145460987964
20
-8.15944541435485
30
0
41
1
10
194.134933266263
20
-8.16393819591184
30
0
41
1
10
194.629538693953
20
-8.15382363641629
30
0
41
1
10
195.124435522153
20
-8.13130178930834
30
0
0
SPLINE
5
D9
100
AcDbEntity
8
1
62
256
6
ByLayer
370
18
48
1
60
0
100
AcDbSpline
70
4
71
3
72
8
73
4
40
0
40
0
40
0
40
0
40
1
40
1
40
1
40
1
41
1
10
6.00000031440095
20
-5.37083269508867
30
0
41
1
10
6.00000031440095
20
-5.28108694321821
30
0
41
1
10
6.00000031440095
20
-5.19127361146388
30
0
41
1
10
6.00000031440095
20
-5.10139527045911
30
0
0
SPLINE
5
DA
100
AcDbEntity
8
1
62
256
6
ByLayer
370
18
48
1
60
0
100
AcDbSpline
70
4
71
3
72
8
73
4
40
0
40
0
40
0
40
0
40
1
40
1
40
1
40
1
41
1
10
195.124435525368
20
-8.13130179080878
30
0
41
1
10
195.075424642794
20
-8.25644983311102
30
0
41
1
10
195.026345712735
20
-8.38141209937595
30
0
41
1
10
194.977210041888
20
-8.50619416137758
30
0
0
SPLINE
5
DB
100
AcDbEntity
8
1
62
256
6
ByLayer
370
18
48
1
60
0
100
AcDbSpline
70
4
71
3
72
10
73
6
40
0
40
0
40
0
40
0
40
0.5
40
0.5
40
1
40
1
40
1
40
1
41
1
10
196.429755964917
20
-4.09669419581186
30
0
41
1
10
196.397746033347
20
-4.19863970151394
30
0
41
1
10
196.362875647985
20
-4.30068975444377
30
0
41
1
10
196.288300998976
20
-4.50503565499457
30
0
41
1
10
196.24842537076
20
-4.60761310491918
30
0
41
1
10
196.207735945187
20
-4.70668918668267
30
0
0
SPLINE
5
DC
100
AcDbEntity
8
1
62
256
6
ByLayer
370
18
48
1
60
0
100
AcDbSpline
70
4
71
3
72
14
73
10
40
0
40
0
40
0
40
0
40
0.25
40
0.25
40
0.5
40
0.5
40
0.75
40
0.75
40
1
40
1
40
1
40
1
41
1
10
195.257918263172
20
-8.29512596037631
30
0
41
1
10
195.462859077287
20
-7.7808837846508
30
0
41
1
10
195.667660061994
20
-7.26624108234955
30
0
41
1
10
196.076159378838
20
-6.23567276516576
30
0
41
1
10
196.279887479463
20
-5.71977456980633
30
0
41
1
10
196.685741267495
20
-4.68651546569217
30
0
41
1
10
196.887924300804
20
-4.16901040180306
30
0
41
1
10
197.289938993101
20
-3.13351453973962
30
0
41
1
10
197.489818909576
20
-2.61546432021049
30
0
41
1
10
197.688303514044
20
-2.09701171630343
30
0
0
SPLINE
5
DD
100
AcDbEntity
8
1
62
256
6
ByLayer
370
18
48
1
60
0
100
AcDbSpline
70
4
71
3
72
22
73
18
40
0
40
0
40
0
40
0
40
0.250000000000006
40
0.250000000000006
40
0.312500000000008
40
0.312500000000008
40
0.37500000000001
40
0.37500000000001
40
0.500000000000009
40
0.500000000000009
40
0.750000000000004
40
0.750000000000004
40
0.812500000000004
40
0.812500000000004
40
0.875000000000003
40
0.875000000000003
40
1
40
1
40
1
40
1
41
1
10
194.988919203249
20
-8.05536066361969
30
0
41
1
10
194.812609942662
20
-8.0356205943327
30
0
41
1
10
194.649219183992
20
-7.97836984204068
30
0
41
1
10
194.462653934139
20
-7.85548979001666
30
0
41
1
10
194.426145105932
20
-7.82825274801007
30
0
41
1
10
194.355416606868
20
-7.76879148052842
30
0
41
1
10
194.321255428732
20
-7.73663585585047
30
0
41
1
10
194.222364075915
20
-7.63292834103444
30
0
41
1
10
194.161219249423
20
-7.55414958398114
30
0
41
1
10
193.992242540144
20
-7.28867126702104
30
0
41
1
10
193.89873466937
20
-7.07309927323132
30
0
41
1
10
193.80793555932
20
-6.75105414713431
30
0
41
1
10
193.791052893355
20
-6.68380271430394
30
0
41
1
10
193.760283434407
20
-6.5450758274402
30
0
41
1
10
193.746373578648
20
-6.47356389780228
30
0
41
1
10
193.709045962319
20
-6.25261567452387
30
0
41
1
10
193.690021194333
20
-6.09677999639908
30
0
41
1
10
193.6769039432
20
-5.93233868760709
30
0
0
SPLINE
5
DE
100
AcDbEntity
8
1
62
256
6
ByLayer
370
18
48
1
60
0
100
AcDbSpline
70
4
71
3
72
18
73
14
40
0
40
0
40
0
40
0
40
0.124999999999994
40
0.124999999999994
40
0.249999999999988
40
0.249999999999988
40
0.374999999999983
40
0.374999999999983
40
0.499999999999977
40
0.499999999999977
40
0.749999999999988
40
0.749999999999988
40
1
40
1
40
1
40
1
41
1
10
6.00000031440095
20
-5.10139527045911
30
0
41
1
10
6.00000031440095
20
-5.07964536478931
30
0
41
1
10
6.00180062493698
20
-5.05831863175291
30
0
41
1
10
6.01097928249163
20
-5.02063258673914
30
0
41
1
10
6.01867752389239
20
-5.00428562788267
30
0
41
1
10
6.03917139897359
20
-4.98319552280108
30
0
41
1
10
6.05198265790585
20
-4.97830879809408
30
0
41
1
10
6.07798752386844
20
-4.97755949186399
30
0
41
1
10
6.09133531625457
20
-4.98126351966627
30
0
41
1
10
6.1307804285901
20
-4.99904898506705
30
0
41
1
10
6.15608422485317
20
-5.01927197878163
30
0
41
1
10
6.20469609942057
20
-5.06624457369483
30
0
41
1
10
6.22785481478832
20
-5.09314696782712
30
0
41
1
10
6.25025500353649
20
-5.12230556752812
30
0
0
SPLINE
5
DF
100
AcDbEntity
8
1
62
256
6
ByLayer
370
18
48
1
60
0
100
AcDbSpline
70
4
71
3
72
8
73
4
40
0
40
0
40
0
40
0
40
1
40
1
40
1
40
1
41
1
10
194.988919203251
20
-8.0553606636193
30
0
41
1
10
195.006031869781
20
-8.06078584663902
30
0
41
1
10
195.024138718492
20
-8.06333653029523
30
0
41
1
10
195.043258619225
20
-8.06303738158135
30
0
0
SPLINE
5
E0
100
AcDbEntity
8
1
62
256
6
ByLayer
370
18
48
1
60
0
100
AcDbSpline
70
4
71
3
72
8
73
4
40
0
40
0
40
0
40
0
40
1
40
1
40
1
40
1
41
1
10
195.113975177866
20
-8.0505113238822
30
0
41
1
10
195.122880366329
20
-8.04766015327294
30
0
41
1
10
195.131963150688
20
-8.04432487372708
30
0
41
1
10
195.141224872267
20
-8.04050723864486
30
0
0
SPLINE
5
E1
100
AcDbEntity
8
1
62
256
6
ByLayer
370
18
48
1
60
0
100
AcDbSpline
70
4
71
3
72
14
73
10
40
0
40
0
40
0
40
0
40
0.25
40
0.25
40
0.5
40
0.5
40
0.75
40
0.75
40
1
40
1
40
1
40
1
41
1
10
189.327937420823
20
-2.5089627906647
30
0
41
1
10
189.643961933504
20
-2.8762605502952
30
0
41
1
10
189.979259526766
20
-3.22164135105612
30
0
41
1
10
190.680546922455
20
-3.87469330853779
30
0
41
1
10
191.039744081502
20
-4.17641152635792
30
0
41
1
10
191.77180834992
20
-4.74020075353192
30
0
41
1
10
192.144710031658
20
-5.00217149201228
30
0
41
1
10
192.902266279427
20
-5.4920258623892
30
0
41
1
10
193.286931208114
20
-5.71987943928343
30
0
41
1
10
193.676903943201
20
-5.93233868760714
30
0
0
SPLINE
5
E2
100
AcDbEntity
8
1
62
256
6
ByLayer
370
18
48
1
60
0
100
AcDbSpline
70
4
71
3
72
140
73
136
40
0
40
0
40
0
40
0
40
0.0008627882651625
40
0.0008627882651625
40
0.0224321904305712
40
0.0224321904305712
40
0.033216891513276
40
0.033216891513276
40
0.0440015925959808
40
0.0440015925959808
40
0.0547862936786857
40
0.0547862936786857
40
0.0655709947613905
40
0.0655709947613905
40
0.0871403969268002
40
0.0871403969268002
40
0.10870979909221
40
0.10870979909221
40
0.13027920125762
40
0.13027920125762
40
0.141063902340325
40
0.141063902340325
40
0.151848603423029
40
0.151848603423029
40
0.17341800558844
40
0.17341800558844
40
0.194987407753851
40
0.194987407753851
40
0.216556809919261
40
0.216556809919261
40
0.238126212084672
40
0.238126212084672
40
0.259695614250083
40
0.259695614250083
40
0.281265016415493
40
0.281265016415493
40
0.292049717498199
40
0.292049717498199
40
0.302834418580905
40
0.302834418580905
40
0.313619119663611
40
0.313619119663611
40
0.324403820746317
40
0.324403820746317
40
0.345973222911728
40
0.345973222911728
40
0.356757923994435
40
0.356757923994435
40
0.367542625077141
40
0.367542625077141
40
0.389112027242554
40
0.389112027242554
40
0.39989672832526
40
0.39989672832526
40
0.410681429407966
40
0.410681429407966
40
0.432250831573377
40
0.432250831573377
40
0.443035532656083
40
0.443035532656083
40
0.453820233738788
40
0.453820233738788
40
0.475389635904199
40
0.475389635904199
40
0.486174336986904
40
0.486174336986904
40
0.496959038069609
40
0.496959038069609
40
0.507743739152315
40
0.507743739152315
40
0.51852844023502
40
0.51852844023502
40
0.540097842400431
40
0.540097842400431
40
0.550882543483136
40
0.550882543483136
40
0.56166724456584
40
0.56166724456584
40
0.572451945648545
40
0.572451945648545
40
0.58323664673125
40
0.58323664673125
40
0.594021347813955
40
0.594021347813955
40
0.60480604889666
40
0.60480604889666
40
0.626375451062069
40
0.626375451062069
40
0.647944853227479
40
0.647944853227479
40
0.658729554310184
40
0.658729554310184
40
0.669514255392888
40
0.669514255392888
40
0.691083657558298
40
0.691083657558298
40
0.712653059723707
40
0.712653059723707
40
0.723437760806412
40
0.723437760806412
40
0.734222461889117
40
0.734222461889117
40
0.755791864054527
40
0.755791864054527
40
0.777361266219936
40
0.777361266219936
40
0.798930668385346
40
0.798930668385346
40
0.80971536946805
40
0.80971536946805
40
0.820500070550754
40
0.820500070550754
40
0.831284771633458
40
0.831284771633458
40
0.842069472716163
40
0.842069472716163
40
0.863638874881571
40
0.863638874881571
40
0.874423575964276
40
0.874423575964276
40
0.879815926505627
40
0.879815926505627
40
0.885208277046979
40
0.885208277046979
40
0.906777679212384
40
0.906777679212384
40
0.928347081377788
40
0.928347081377788
40
0.949916483543193
40
0.949916483543193
40
0.971485885708597
40
0.971485885708597
40
0.993055287874002
40
0.993055287874002
40
1
40
1
40
1
40
1
41
1
10
175.446751302914
20
-4.3660224733444
30
0
41
1
10
175.428311857239
20
-4.37402433860774
30
0
41
1
10
175.409872155758
20
-4.38201335967941
30
0
41
1
10
174.930430648908
20
-4.58937492985638
30
0
41
1
10
174.469551010627
20
-4.78172908518792
30
0
41
1
10
173.779347521212
20
-5.06195560228727
30
0
41
1
10
173.549278214072
20
-5.15353474277751
30
0
41
1
10
173.089667631483
20
-5.33372422628804
30
0
41
1
10
172.860038295432
20
-5.42219395683654
30
0
41
1
10
172.400555570109
20
-5.59493179170022
30
0
41
1
10
172.170710535498
20
-5.67915564027513
30
0
41
1
10
171.71076372315
20
-5.84391828107155
30
0
41
1
10
171.480461475841
20
-5.92431345476186
30
0
41
1
10
170.79077093467
20
-6.1619933719241
30
0
41
1
10
170.330691402137
20
-6.3127373893654
30
0
41
1
10
169.407840557653
20
-6.59536227610801
30
0
41
1
10
168.945681056326
20
-6.72794242575514
30
0
41
1
10
168.020100514271
20
-6.97861953695667
30
0
41
1
10
167.556296689303
20
-7.09540732423986
30
0
41
1
10
166.857476437658
20
-7.25496080704878
30
0
41
1
10
166.623911106126
20
-7.30545705000813
30
0
41
1
10
166.158681482075
20
-7.40227013576495
30
0
41
1
10
165.926152543154
20
-7.44821443777016
30
0
41
1
10
165.228454832873
20
-7.57909546636591
30
0
41
1
10
164.76332519114
20
-7.65639433714782
30
0
41
1
10
163.833930580664
20
-7.78917947929921
30
0
41
1
10
163.369786211602
20
-7.84460423784199
30
0
41
1
10
162.440226910338
20
-7.93649685795472
30
0
41
1
10
161.974298417764
20
-7.97238814459357
30
0
41
1
10
161.043405485843
20
-8.02160868155136
30
0
41
1
10
160.576981092367
20
-8.03444002320873
30
0
41
1
10
159.645729720891
20
-8.0407629091508
30
0
41
1
10
159.180705359597
20
-8.03409836280716
30
0
41
1
10
158.25177949624
20
-7.99740249064698
30
0
41
1
10
157.787213126338
20
-7.96746896154451
30
0
41
1
10
157.089385102107
20
-7.90813896181433
30
0
41
1
10
156.856822557944
20
-7.88597228617482
30
0
41
1
10
156.391877665812
20
-7.83620801314601
30
0
41
1
10
156.159191173462
20
-7.80871745140888
30
0
41
1
10
155.693253199267
20
-7.74839886416004
30
0
41
1
10
155.459814771134
20
-7.71549060438744
30
0
41
1
10
154.993555288395
20
-7.64386533131008
30
0
41
1
10
154.760709306014
20
-7.60550347891751
30
0
41
1
10
154.062282538548
20
-7.4836954627323
30
0
41
1
10
153.59778675993
20
-7.39283644626724
30
0
41
1
10
152.900419649265
20
-7.24185984278341
30
0
41
1
10
152.667907432435
20
-7.18911324712249
30
0
41
1
10
152.202792667214
20
-7.07834466766121
30
0
41
1
10
151.970520976338
20
-7.02022812492808
30
0
41
1
10
151.273479792846
20
-6.83992124190439
30
0
41
1
10
150.80783077273
20
-6.7117643268343
30
0
41
1
10
150.108821009208
20
-6.50548368645858
30
0
41
1
10
149.875567913336
20
-6.43425303268918
30
0
41
1
10
149.40925585256
20
-6.28695823746017
30
0
41
1
10
149.176519877937
20
-6.21075216109003
30
0
41
1
10
148.478475384519
20
-5.97718408844622
30
0
41
1
10
148.013184668737
20
-5.81467280283096
30
0
41
1
10
147.315250744323
20
-5.55978653366807
30
0
41
1
10
147.083140951095
20
-5.47215722308155
30
0
41
1
10
146.618512121354
20
-5.29349638770972
30
0
41
1
10
146.386077113036
20
-5.20246216595658
30
0
41
1
10
145.688216024779
20
-4.92536856056768
30
0
41
1
10
145.222700075928
20
-4.73440093160838
30
0
41
1
10
144.523872888633
20
-4.43783653967517
30
0
41
1
10
144.290917998278
20
-4.33694434752579
30
0
41
1
10
143.824730883372
20
-4.13210042298829
30
0
41
1
10
143.591766937764
20
-4.02832986763255
30
0
41
1
10
143.125855279213
20
-3.81899329163073
30
0
41
1
10
142.892904990885
20
-3.7134141793984
30
0
41
1
10
142.427268508964
20
-3.49991250980281
30
0
41
1
10
142.195116000649
20
-3.39104294413735
30
0
41
1
10
141.497758304379
20
-3.06303515252242
30
0
41
1
10
141.032416017663
20
-2.84088085959385
30
0
41
1
10
140.334726926025
20
-2.50099746256379
30
0
41
1
10
140.101998380253
20
-2.38712215775052
30
0
41
1
10
139.636695253029
20
-2.15722191466972
30
0
41
1
10
139.404111993182
20
-2.04120242085193
30
0
41
1
10
138.938413487184
20
-1.8081817673058
30
0
41
1
10
138.705314083765
20
-1.69116406023048
30
0
41
1
10
138.238546517052
20
-1.4560325262911
30
0
41
1
10
138.005132327555
20
-1.33844162700711
30
0
41
1
10
137.539426891252
20
-1.10103508455248
30
0
41
1
10
137.306960013343
20
-0.981543305904353
30
0
41
1
10
136.841661973224
20
-0.743201634535467
30
0
41
1
10
136.60896937454
20
-0.624080744388635
30
0
41
1
10
135.910843036302
20
-0.266703722014029
30
0
41
1
10
135.445713392829
20
-0.027743357855087
30
0
41
1
10
134.515978597366
20
0.451531340064634
30
0
41
1
10
134.050974424468
20
0.691043799000198
30
0
41
1
10
133.351867451528
20
1.04739255070206
30
0
41
1
10
133.118440062395
20
1.16544464539351
30
0
41
1
10
132.652368343939
20
1.40316113008001
30
0
41
1
10
132.419406587259
20
1.52138010645251
30
0
41
1
10
131.721726933684
20
1.87272792984851
30
0
41
1
10
131.257541954526
20
2.10313144001066
30
0
41
1
10
130.331564391493
20
2.55832249373586
30
0
41
1
10
129.869988809308
20
2.78336252915793
30
0
41
1
10
129.178342371723
20
3.11321616398129
30
0
41
1
10
128.947865712348
20
3.22178438191926
30
0
41
1
10
128.48697975349
20
3.43657516124398
30
0
41
1
10
128.25651247764
20
3.54271461860569
30
0
41
1
10
127.566629737759
20
3.85993767114374
30
0
41
1
10
127.106458762695
20
4.06572793294222
30
0
41
1
10
126.185602722163
20
4.46512327168321
30
0
41
1
10
125.72518599393
20
4.65920839010298
30
0
41
1
10
124.804202955321
20
5.03733219103168
30
0
41
1
10
124.343085122757
20
5.22010171106925
30
0
41
1
10
123.649540442449
20
5.48266715690579
30
0
41
1
10
123.418131298081
20
5.56842913496823
30
0
41
1
10
122.955442771238
20
5.73737861430121
30
0
41
1
10
122.723744393857
20
5.81997414664369
30
0
41
1
10
122.259531624849
20
5.98131685318458
30
0
41
1
10
122.026971794895
20
6.059978848128
30
0
41
1
10
121.561227316032
20
6.21349933721785
30
0
41
1
10
121.327924142055
20
6.28850481703401
30
0
41
1
10
120.628134914644
20
6.50637911769562
30
0
41
1
10
120.162940391225
20
6.64356252846298
30
0
41
1
10
119.464861657593
20
6.83533689021999
30
0
41
1
10
119.232151286679
20
6.89691749270639
30
0
41
1
10
118.88308767502
20
6.98569344155879
30
0
41
1
10
118.766679491891
20
7.01463610796597
30
0
41
1
10
118.534152783853
20
7.07157095594209
30
0
41
1
10
118.418072351236
20
7.09959194459103
30
0
41
1
10
117.837191305579
20
7.23612473673691
30
0
41
1
10
117.371797383866
20
7.33487823475019
30
0
41
1
10
116.440372808994
20
7.51397035065639
30
0
41
1
10
115.974287339217
20
7.59433897277404
30
0
41
1
10
115.041581852956
20
7.73384274701124
30
0
41
1
10
114.575708752581
20
7.79237461567763
30
0
41
1
10
113.644116912104
20
7.88944306009501
30
0
41
1
10
113.179760631736
20
7.92834322139802
30
0
41
1
10
112.249239335986
20
7.98334074491166
30
0
41
1
10
111.783898015953
20
7.99949397621239
30
0
41
1
10
111.168428792681
20
8.00760588662476
30
0
41
1
10
111.018556004311
20
8.00853020138067
30
0
41
1
10
110.868652292668
20
8.00837172514892
30
0
0
SPLINE
5
E3
100
AcDbEntity
8
1
62
256
6
ByLayer
370
18
48
1
60
0
100
AcDbSpline
70
4
71
3
72
144
73
140
40
0
40
0
40
0
40
0
40
0.014739920801023
40
0.014739920801023
40
0.0255460549266115
40
0.0255460549266115
40
0.0363521890522001
40
0.0363521890522001
40
0.0471583231777886
40
0.0471583231777886
40
0.0579644573033772
40
0.0579644573033772
40
0.0795767255545543
40
0.0795767255545543
40
0.101188993805731
40
0.101188993805731
40
0.11199512793132
40
0.11199512793132
40
0.122801262056908
40
0.122801262056908
40
0.144413530308085
40
0.144413530308085
40
0.166025798559261
40
0.166025798559261
40
0.17683193268485
40
0.17683193268485
40
0.187638066810438
40
0.187638066810438
40
0.209250335061615
40
0.209250335061615
40
0.220056469187204
40
0.220056469187204
40
0.230862603312792
40
0.230862603312792
40
0.241668737438381
40
0.241668737438381
40
0.25247487156397
40
0.25247487156397
40
0.263281005689558
40
0.263281005689558
40
0.274087139815147
40
0.274087139815147
40
0.295699408066323
40
0.295699408066323
40
0.3173116763175
40
0.3173116763175
40
0.328117810443089
40
0.328117810443089
40
0.338923944568676
40
0.338923944568676
40
0.360536212819852
40
0.360536212819852
40
0.382148481071028
40
0.382148481071028
40
0.403760749322203
40
0.403760749322203
40
0.425373017573379
40
0.425373017573379
40
0.446985285824554
40
0.446985285824554
40
0.46859755407573
40
0.46859755407573
40
0.474000621138524
40
0.474000621138524
40
0.479403688201318
40
0.479403688201318
40
0.490209822326905
40
0.490209822326905
40
0.51182209057808
40
0.51182209057808
40
0.533434358829254
40
0.533434358829254
40
0.544240492954841
40
0.544240492954841
40
0.555046627080428
40
0.555046627080428
40
0.565852761206015
40
0.565852761206015
40
0.576658895331602
40
0.576658895331602
40
0.598271163582776
40
0.598271163582776
40
0.61988343183395
40
0.61988343183395
40
0.630689565959537
40
0.630689565959537
40
0.641495700085124
40
0.641495700085124
40
0.65230183421071
40
0.65230183421071
40
0.663107968336297
40
0.663107968336297
40
0.684720236587471
40
0.684720236587471
40
0.695526370713058
40
0.695526370713058
40
0.706332504838644
40
0.706332504838644
40
0.727944773089818
40
0.727944773089818
40
0.738750907215405
40
0.738750907215405
40
0.749557041340991
40
0.749557041340991
40
0.760363175466578
40
0.760363175466578
40
0.771169309592165
40
0.771169309592165
40
0.781975443717752
40
0.781975443717752
40
0.792781577843338
40
0.792781577843338
40
0.814393846094512
40
0.814393846094512
40
0.836006114345686
40
0.836006114345686
40
0.846812248471274
40
0.846812248471274
40
0.857618382596861
40
0.857618382596861
40
0.879230650848035
40
0.879230650848035
40
0.890036784973622
40
0.890036784973622
40
0.900842919099209
40
0.900842919099209
40
0.911649053224796
40
0.911649053224796
40
0.922455187350383
40
0.922455187350383
40
0.944067455601558
40
0.944067455601558
40
0.965679723852732
40
0.965679723852732
40
0.987291992103907
40
0.987291992103907
40
0.998098126229495
40
0.998098126229495
40
1
40
1
40
1
40
1
41
1
10
77.4230088965476
20
-4.347839054639
30
0
41
1
10
77.1057183317856
20
-4.48421713461968
30
0
41
1
10
76.7884164203938
20
-4.61812587724819
30
0
41
1
10
76.2375293767931
20
-4.8447807090524
30
0
41
1
10
76.0042841983096
20
-4.93904141328636
30
0
41
1
10
75.5373887659852
20
-5.12427667239774
30
0
41
1
10
75.3041392689805
20
-5.21602903330887
30
0
41
1
10
74.838545130936
20
-5.3945605900029
30
0
41
1
10
74.6060848309839
20
-5.48143190081291
30
0
41
1
10
74.1415002365189
20
-5.65106040426372
30
0
41
1
10
73.9093692843655
20
-5.73393025651913
30
0
41
1
10
73.2141717310619
20
-5.97756221010346
30
0
41
1
10
72.7517931009718
20
-6.13248969020239
30
0
41
1
10
71.8289683141631
20
-6.42497149670655
30
0
41
1
10
71.3678847626776
20
-6.56149531006443
30
0
41
1
10
70.6763937518368
20
-6.75392107090846
30
0
41
1
10
70.4465273218411
20
-6.81656322329289
30
0
41
1
10
69.9862722888696
20
-6.93660708529251
30
0
41
1
10
69.7560774536604
20
-6.99417602968163
30
0
41
1
10
69.0651251715339
20
-7.15922842683233
30
0
41
1
10
68.6044273613505
20
-7.2596137340492
30
0
41
1
10
67.6826125407377
20
-7.44314285452478
30
0
41
1
10
67.221782219434
20
-7.52615713829701
30
0
41
1
10
66.5283266620681
20
-7.63438223189698
30
0
41
1
10
66.2968507000259
20
-7.66783021059291
30
0
41
1
10
65.8335524182149
20
-7.72982899620825
30
0
41
1
10
65.6021927821519
20
-7.75860687016549
30
0
41
1
10
64.9062327953586
20
-7.83709722559655
30
0
41
1
10
64.440404703613
20
-7.87944713069027
30
0
41
1
10
63.7401053370925
20
-7.92618289621973
30
0
41
1
10
63.5067824674507
20
-7.93885196682555
30
0
41
1
10
63.0407743460725
20
-7.95912409893242
30
0
41
1
10
62.8080577338589
20
-7.96671148095231
30
0
41
1
10
62.3425587015445
20
-7.97674897287283
30
0
41
1
10
62.1097884775824
20
-7.97921958297701
30
0
41
1
10
61.644198301858
20
-7.97883894455515
30
0
41
1
10
61.411185030874
20
-7.97600762297
30
0
41
1
10
60.9461064428827
20
-7.9646603567459
30
0
41
1
10
60.7137754327156
20
-7.95608647233735
30
0
41
1
10
60.248526921338
20
-7.9337661763274
30
0
41
1
10
60.0157172640097
20
-7.92006038430694
30
0
41
1
10
59.3168147443065
20
-7.8714243813188
30
0
41
1
10
58.8505799846805
20
-7.82896094368837
30
0
41
1
10
57.9174461041605
20
-7.72150616791708
30
0
41
1
10
57.4512993786382
20
-7.65654456605742
30
0
41
1
10
56.7522234198985
20
-7.5455883663148
30
0
41
1
10
56.519069412182
20
-7.50633836036909
30
0
41
1
10
56.054023664474
20
-7.42208852671672
30
0
41
1
10
55.8214775316197
20
-7.3775216295347
30
0
41
1
10
55.1235322478313
20
-7.23654324326756
30
0
41
1
10
54.6578638238756
20
-7.13264457383329
30
0
41
1
10
53.7263830044617
20
-6.90625173022966
30
0
41
1
10
53.2608007336164
20
-6.78362220190354
30
0
41
1
10
52.3275309518534
20
-6.52026768962398
30
0
41
1
10
51.8600660030012
20
-6.37985509408878
30
0
41
1
10
50.9290428497866
20
-6.08085565223334
30
0
41
1
10
50.4633755116694
20
-5.92433604210567
30
0
41
1
10
49.5320995510228
20
-5.59610943393866
30
0
41
1
10
49.0667367765797
20
-5.42366756417081
30
0
41
1
10
48.1360940917109
20
-5.06357257936145
30
0
41
1
10
47.670195333884
20
-4.87716157165659
30
0
41
1
10
47.0865789184388
20
-4.63656419289646
30
0
41
1
10
46.9697471512268
20
-4.58813917348968
30
0
41
1
10
46.7362725141257
20
-4.4899863132247
30
0
41
1
10
46.619774609585
20
-4.44025905749402
30
0
41
1
10
46.2703512004466
20
-4.29050895388667
30
0
41
1
10
46.0377110018936
20
-4.1894162928495
30
0
41
1
10
45.3403380983111
20
-3.88332862620626
30
0
41
1
10
44.8763647765309
20
-3.67525970774685
30
0
41
1
10
43.9506704263678
20
-3.24988744570862
30
0
41
1
10
43.4894919904483
20
-3.03142627101002
30
0
41
1
10
42.7975782713972
20
-2.70030746142373
30
0
41
1
10
42.5669553487735
20
-2.58935195306097
30
0
41
1
10
42.105795045157
20
-2.36613786191595
30
0
41
1
10
41.8756118258981
20
-2.25320067267879
30
0
41
1
10
41.4152885967844
20
-2.02604071928903
30
0
41
1
10
41.185069277629
20
-1.91198169274881
30
0
41
1
10
40.7244125749909
20
-1.68298233920044
30
0
41
1
10
40.4939511371811
20
-1.56802912993967
30
0
41
1
10
39.8027984020111
20
-1.22096982351673
30
0
41
1
10
39.3419049227647
20
-0.987722339911784
30
0
41
1
10
38.4195582702591
20
-0.517527049823258
30
0
41
1
10
37.9574631694201
20
-0.281803552234891
30
0
41
1
10
37.2624745218212
20
0.072079436122749
30
0
41
1
10
37.0309886782199
20
0.190982601799021
30
0
41
1
10
36.5672092694309
20
0.428285145268177
30
0
41
1
10
36.334935215162
20
0.54676010321765
30
0
41
1
10
35.8695362387772
20
0.783116465600955
30
0
41
1
10
35.6364208932587
20
0.900999143170623
30
0
41
1
10
35.1696938349145
20
1.13716324259806
30
0
41
1
10
34.936060792562
20
1.25497930413326
30
0
41
1
10
34.2364224563554
20
1.60656333842465
30
0
41
1
10
33.7711160734106
20
1.840021964366
30
0
41
1
10
33.0724966518425
20
2.18400173127535
30
0
41
1
10
32.8396060196593
20
2.29777089596524
30
0
41
1
10
32.3738686749282
20
2.52354110281988
30
0
41
1
10
32.1416156700323
20
2.63662318988423
30
0
41
1
10
31.4437801615784
20
2.97117752353682
30
0
41
1
10
30.9776989431583
20
3.18925535952451
30
0
41
1
10
30.2784634584134
20
3.51127744752569
30
0
41
1
10
30.0451650513541
20
3.61740073386494
30
0
41
1
10
29.5785178932063
20
3.82788939007898
30
0
41
1
10
29.345118844721
20
3.93235808115477
30
0
41
1
10
28.8786238357285
20
4.13796432741762
30
0
41
1
10
28.6454424004382
20
4.23918159699426
30
0
41
1
10
28.1791598980899
20
4.43835943133541
30
0
41
1
10
27.9459320476985
20
4.53611837649771
30
0
41
1
10
27.4802332846968
20
4.7294484691844
30
0
41
1
10
27.2478469089317
20
4.82515110705901
30
0
41
1
10
26.7825208762783
20
5.01211882634269
30
0
41
1
10
26.5497739817254
20
5.1036185367735
30
0
41
1
10
25.851250002027
20
5.37182699721959
30
0
41
1
10
25.3854866901985
20
5.54362476634876
30
0
41
1
10
24.4538308338302
20
5.87468084837587
30
0
41
1
10
23.9872973469527
20
6.03335746420382
30
0
41
1
10
23.2867544244788
20
6.25801063035686
30
0
41
1
10
23.0531666472513
20
6.33045832701092
30
0
41
1
10
22.5874867684648
20
6.47233458715988
30
0
41
1
10
22.3547810927833
20
6.5410136463191
30
0
41
1
10
21.6565710538699
20
6.73975405507488
30
0
41
1
10
21.1910610353711
20
6.86294774345524
30
0
41
1
10
20.4933862023793
20
7.03277206733679
30
0
41
1
10
20.2608111683956
20
7.08664102817048
30
0
41
1
10
19.7959688796172
20
7.19026425164265
30
0
41
1
10
19.5635313236152
20
7.23993116116316
30
0
41
1
10
19.0982258031714
20
7.33449629713394
30
0
41
1
10
18.8653674001545
20
7.37939702647049
30
0
41
1
10
18.3992730954684
20
7.46426191011344
30
0
41
1
10
18.165988736616
20
7.50418515510043
30
0
41
1
10
17.4668988919352
20
7.61727584244113
30
0
41
1
10
16.999519082361
20
7.68231540414442
30
0
41
1
10
16.0669124652326
20
7.79152147484695
30
0
41
1
10
15.6014067570821
20
7.83577111818897
30
0
41
1
10
14.6717376831593
20
7.90266660963241
30
0
41
1
10
14.206931019355
20
7.92530776358697
30
0
41
1
10
13.5089794394688
20
7.9440928395766
30
0
41
1
10
13.2763745809964
20
7.94781341404956
30
0
41
1
10
13.0030844908479
20
7.94902913022173
30
0
41
1
10
12.9621805310336
20
7.94912737295275
30
0
41
1
10
12.9212722726166
20
7.94914148209571
30
0
0
SPLINE
5
E4
100
AcDbEntity
8
1
62
256
6
ByLayer
370
18
48
1
60
0
100
AcDbSpline
70
4
71
3
72
58
73
54
40
0
40
0
40
0
40
0
40
0.0624999999999998
40
0.0624999999999998
40
0.125
40
0.125
40
0.15625
40
0.15625
40
0.1875
40
0.1875
40
0.25
40
0.25
40
0.28125
40
0.28125
40
0.3125
40
0.3125
40
0.375000000000001
40
0.375000000000001
40
0.406250000000001
40
0.406250000000001
40
0.421875000000001
40
0.421875000000001
40
0.437500000000001
40
0.437500000000001
40
0.500000000000001
40
0.500000000000001
40
0.515625000000001
40
0.515625000000001
40
0.531250000000001
40
0.531250000000001
40
0.562500000000001
40
0.562500000000001
40
0.625000000000001
40
0.625000000000001
40
0.687500000000001
40
0.687500000000001
40
0.718750000000001
40
0.718750000000001
40
0.722656250000001
40
0.722656250000001
40
0.7265625
40
0.7265625
40
0.73046875
40
0.73046875
40
0.734375
40
0.734375
40
0.75
40
0.75
40
0.812499999999999
40
0.812499999999999
40
0.874999999999999
40
0.874999999999999
40
1
40
1
40
1
40
1
41
1
10
6.00000031440928
20
-5.37083269509142
30
0
41
1
10
5.82366639675578
20
-5.13691523122634
30
0
41
1
10
5.65487019641432
20
-4.89154542286815
30
0
41
1
10
5.33301958749192
20
-4.37687975000213
30
0
41
1
10
5.17994790739309
20
-4.10760310792608
30
0
41
1
10
4.96387408734662
20
-3.68387815357792
30
0
41
1
10
4.89411941526978
20
-3.53932163642284
30
0
41
1
10
4.75965855386929
20
-3.24305844567255
30
0
41
1
10
4.6947693130478
20
-3.09084861094934
30
0
41
1
10
4.51105184083406
20
-2.62855865233783
30
0
41
1
10
4.40244408511165
20
-2.31172855481827
30
0
41
1
10
4.26446571359207
20
-1.82190977384155
30
0
41
1
10
4.22265302405259
20
-1.65619670552817
30
0
41
1
10
4.14844985045636
20
-1.31945100483205
30
0
41
1
10
4.11594860622512
20
-1.14767728377944
30
0
41
1
10
4.03549284640772
20
-0.628989789430705
30
0
41
1
10
4.00472372114223
20
-0.281680882065245
30
0
41
1
10
3.99839783805316
20
0.241816102293001
30
0
41
1
10
4.00295761211038
20
0.416739120383681
30
0
41
1
10
4.02075157689097
20
0.679807283436787
30
0
41
1
10
4.02853928388666
20
0.76779588439743
30
0
41
1
10
4.04770685003072
20
0.941950933292645
30
0
41
1
10
4.05909378306944
20
1.02833694101974
30
0
41
1
10
4.12505953079437
20
1.45685278600632
30
0
41
1
10
4.20667692228619
20
1.78876680691582
30
0
41
1
10
4.34563548811639
20
2.19042476943284
30
0
41
1
10
4.37527713445843
20
2.27009309276084
30
0
41
1
10
4.43829272818658
20
2.42810750533573
30
0
41
1
10
4.47171795653315
20
2.50654821677563
30
0
41
1
10
4.57647283048999
20
2.73741269934163
30
0
41
1
10
4.65260214203883
20
2.88620624894997
30
0
41
1
10
4.89870219213157
20
3.31854414309123
30
0
41
1
10
5.08653728003131
20
3.58827335736916
30
0
41
1
10
5.50475812961193
20
4.09447153685761
30
0
41
1
10
5.73260746131385
20
4.32785461665483
30
0
41
1
10
6.09629584617028
20
4.65135323485143
30
0
41
1
10
6.22108697252054
20
4.75468042375971
30
0
41
1
10
6.36518658101159
20
4.86631881252583
30
0
41
1
10
6.38124601522361
20
4.87865654449641
30
0
41
1
10
6.41346074308314
20
4.90320069028806
30
0
41
1
10
6.42911598325358
20
4.91626310859209
30
0
41
1
10
6.46617725991902
20
4.93523710432129
30
0
41
1
10
6.48697611175754
20
4.94180939461202
30
0
41
1
10
6.52971784616739
20
4.9490540640129
30
0
41
1
10
6.5514337555195
20
4.95005455178168
30
0
41
1
10
6.659563061678
20
4.95847622022529
30
0
41
1
10
6.74619211957602
20
4.96442388911117
30
0
41
1
10
7.17953661630281
20
4.99026501223372
30
0
41
1
10
7.52705953471133
20
4.99846361155474
30
0
41
1
10
8.22188990284349
20
4.99064082513848
30
0
41
1
10
8.5672225523451
20
4.97472212440198
30
0
41
1
10
9.59719980402204
20
4.89172145684734
30
0
41
1
10
10.2758640346434
20
4.789876275295
30
0
41
1
10
10.9466102048231
20
4.63750346096555
30
0
0
SPLINE
5
E5
100
AcDbEntity
8
1
62
256
6
ByLayer
370
18
48
1
60
0
100
AcDbSpline
70
4
71
3
72
18
73
14
40
0
40
0
40
0
40
0
40
0.153926739763879
40
0.153926739763879
40
0.677487036962486
40
0.677487036962486
40
0.742932074112313
40
0.742932074112313
40
0.808377111262139
40
0.808377111262139
40
0.939267185561789
40
0.939267185561789
40
1
40
1
40
1
40
1
41
1
10
22.2698401372809
20
-0.0070006572159969
30
0
41
1
10
22.8469364984519
20
-0.304925197465963
30
0
41
1
10
23.4230294556635
20
-0.602400342495258
30
0
41
1
10
25.9573442591713
20
-1.90355544920837
30
0
41
1
10
27.9131029561252
20
-2.88649988195343
30
0
41
1
10
30.1424839258432
20
-3.90379826718524
30
0
41
1
10
30.3908955845195
20
-4.01573860466408
30
0
41
1
10
30.8867800383189
20
-4.23608969475291
30
0
41
1
10
31.1342897764178
20
-4.34451943680753
30
0
41
1
10
31.8757398735025
20
-4.66427718458877
30
0
41
1
10
32.3686126443574
20
-4.87005897510386
30
0
41
1
10
33.088614052005
20
-5.15977658255943
30
0
41
1
10
33.3165926093531
20
-5.24988066098541
30
0
41
1
10
33.5443980167245
20
-5.33820941497359
30
0
0
SPLINE
5
E6
100
AcDbEntity
8
1
62
256
6
ByLayer
370
13
48
1
60
0
100
AcDbSpline
70
4
71
3
72
20
73
16
40
0
40
0
40
0
40
0
40
0.144523428443106
40
0.144523428443106
40
0.520886186335325
40
0.520886186335325
40
0.567931531071851
40
0.567931531071851
40
0.614976875808378
40
0.614976875808378
40
0.709067565281429
40
0.709067565281429
40
0.897248944227531
40
0.897248944227531
40
1
40
1
40
1
40
1
41
1
10
33.5443980168415
20
-5.33820941501892
30
0
41
1
10
34.2985153796014
20
-5.63060917752492
30
0
41
1
10
35.0507352839752
20
-5.90355410492464
30
0
41
1
10
37.7609040118082
20
-6.80978402056382
30
0
41
1
10
39.7170776653806
20
-7.31858827818948
30
0
41
1
10
41.9483423993356
20
-7.68755120056863
30
0
41
1
10
42.1967213449909
20
-7.72570845037029
30
0
41
1
10
42.6920663715326
20
-7.79592857731677
30
0
41
1
10
42.9393420426661
20
-7.82804474875357
30
0
41
1
10
43.6801256938111
20
-7.91542111777406
30
0
41
1
10
44.1725283436342
20
-7.96172945795828
30
0
41
1
10
45.6467945955243
20
-8.06469286044643
30
0
41
1
10
46.6259669073809
20
-8.0853922493377
30
0
41
1
10
48.1392072814592
20
-8.04372368194998
30
0
41
1
10
48.6735970753377
20
-8.01479314854495
30
0
41
1
10
49.208521242506
20
-7.97175927543105
30
0
0
SPLINE
5
E7
100
AcDbEntity
8
1
62
256
6
ByLayer
370
18
48
1
60
0
100
AcDbSpline
70
4
71
3
72
18
73
14
40
0
40
0
40
0
40
0
40
0.0865191023209241
40
0.0865191023209241
40
0.310082706364883
40
0.310082706364883
40
0.75720991445281
40
0.75720991445281
40
0.86899171647479
40
0.86899171647479
40
0.980773518496769
40
0.980773518496769
40
1
40
1
40
1
40
1
41
1
10
120.285187802528
20
-0.0151491853257539
30
0
41
1
10
120.666600174943
20
-0.213622248318529
30
0
41
1
10
121.047212273496
20
-0.411658731337042
30
0
41
1
10
122.409193223419
20
-1.11840868759509
30
0
41
1
10
123.387131066717
20
-1.62249254558344
30
0
41
1
10
126.320204721432
20
-3.09678909850965
30
0
41
1
10
128.27403710436
20
-4.02999298883677
30
0
41
1
10
130.751634861356
20
-5.06478733737319
30
0
41
1
10
131.246321316159
20
-5.26407892406928
30
0
41
1
10
132.231967101178
20
-5.64484898883504
30
0
41
1
10
132.72341680285
20
-5.82656735481106
30
0
41
1
10
133.29833261757
20
-6.02875318063641
30
0
41
1
10
133.382679096955
20
-6.05815268941106
30
0
41
1
10
133.467001010411
20
-6.08727696714905
30
0
0
SPLINE
5
E8
100
AcDbEntity
8
1
62
256
6
ByLayer
370
13
48
1
60
0
100
AcDbSpline
70
4
71
3
72
18
73
14
40
0
40
0
40
0
40
0
40
0.20070296788866
40
0.20070296788866
40
0.420290472563649
40
0.420290472563649
40
0.53008422490114
40
0.53008422490114
40
0.584981101069887
40
0.584981101069887
40
0.639877977238631
40
0.639877977238631
40
1
40
1
40
1
40
1
41
1
10
133.467001010871
20
-6.08727696730793
30
0
41
1
10
134.363165873735
20
-6.39680687827143
30
0
41
1
10
135.25655595949
20
-6.67524882214133
30
0
41
1
10
137.127389898933
20
-7.18719246284127
30
0
41
1
10
138.104894339667
20
-7.41388405992365
30
0
41
1
10
139.576475697081
20
-7.68741155671654
30
0
41
1
10
140.067903032234
20
-7.76748888725868
30
0
41
1
10
140.807171117305
20
-7.87029867093048
30
0
41
1
10
141.053945912187
20
-7.90168505297856
30
0
41
1
10
141.548288217352
20
-7.95860085713147
30
0
41
1
10
141.796118006461
20
-7.9841489212989
30
0
41
1
10
143.668374199031
20
-8.15414005221734
30
0
41
1
10
145.274163114116
20
-8.16946719218697
30
0
41
1
10
146.877264204691
20
-8.05713818175624
30
0
0
SPLINE
5
E9
100
AcDbEntity
8
1
62
256
6
ByLayer
370
18
48
1
60
0
100
AcDbSpline
70
4
71
3
72
18
73
14
40
0
40
0
40
0
40
0
40
0.132520607672769
40
0.132520607672769
40
0.265041215345539
40
0.265041215345539
40
0.530082430691084
40
0.530082430691084
40
0.662603038363856
40
0.662603038363856
40
0.795123646036629
40
0.795123646036629
40
1
40
1
40
1
40
1
41
1
10
195.141224872267
20
-8.04050723864486
30
0
41
1
10
194.646440589699
20
-8.05947599573028
30
0
41
1
10
194.15194258781
20
-8.06619679454496
30
0
41
1
10
193.162696933834
20
-8.05523859032277
30
0
41
1
10
192.667657418269
20
-8.03753934143336
30
0
41
1
10
191.182899030705
20
-7.94816809031173
30
0
41
1
10
190.196088803902
20
-7.84047951429747
30
0
41
1
10
188.714908640164
20
-7.60959319212847
30
0
41
1
10
188.221026713121
20
-7.52102334069912
30
0
41
1
10
187.231957216171
20
-7.32125065982768
30
0
41
1
10
186.736386576755
20
-7.20993227914204
30
0
41
1
10
185.480158590053
20
-6.90066363457782
30
0
41
1
10
184.720627397413
20
-6.68825986905779
30
0
41
1
10
183.96270886071
20
-6.45354465575605
30
0
0
SPLINE
5
EA
100
AcDbEntity
8
1
62
256
6
ByLayer
370
13
48
1
60
0
100
AcDbSpline
70
4
71
3
72
22
73
18
40
0
40
0
40
0
40
0
40
0.0363493703703417
40
0.0363493703703417
40
0.356605534729656
40
0.356605534729656
40
0.39663755527457
40
0.39663755527457
40
0.436669575819483
40
0.436669575819483
40
0.51673361690931
40
0.51673361690931
40
0.676861699088964
40
0.676861699088964
40
0.997117863448275
40
0.997117863448275
40
1
40
1
40
1
40
1
41
1
10
183.962708682745
20
-6.4535446006432
30
0
41
1
10
183.740135161454
20
-6.38461715027731
30
0
41
1
10
183.517700713417
20
-6.31376559084998
30
0
41
1
10
181.336456551674
20
-5.60037032454642
30
0
41
1
10
179.385003328624
20
-4.81437150680165
30
0
41
1
10
177.165444425357
20
-3.81311707217634
30
0
41
1
10
176.918493730923
20
-3.70024171014782
30
0
41
1
10
176.423793371814
20
-3.47143142005345
30
0
41
1
10
176.176039300297
20
-3.3554904304313
30
0
41
1
10
175.4348376502
20
-3.00501785029064
30
0
41
1
10
174.942287308716
20
-2.7673405567829
30
0
41
1
10
173.468163524623
20
-2.04463692224871
30
0
41
1
10
172.4900181854
20
-1.55013043805124
30
0
41
1
10
169.558432256523
20
-0.0501124309760144
30
0
41
1
10
167.608089525947
20
0.972417814381373
30
0
41
1
10
165.615124697495
20
1.96909240669982
30
0
41
1
10
165.597346068786
20
1.97797958781783
30
0
41
1
10
165.579564695759
20
1.98686424063476
30
0
0
SPLINE
5
EB
100
AcDbEntity
8
1
62
256
6
ByLayer
370
18
48
1
60
0
100
AcDbSpline
70
4
71
3
72
14
73
10
40
0
40
0
40
0
40
0
40
0.120013589068347
40
0.120013589068347
40
0.768724207494555
40
0.768724207494555
40
0.930901862101102
40
0.930901862101102
40
1
40
1
40
1
40
1
41
1
10
95.933899261808
20
-8.00086499911532
30
0
41
1
10
95.569778185169
20
-8.00017471379309
30
0
41
1
10
95.2061816627025
20
-7.99294614148889
30
0
41
1
10
92.8793365852762
20
-7.90508672546031
30
0
41
1
10
90.9259667212336
20
-7.64117349912178
30
0
41
1
10
88.4607590129895
20
-7.09009644005954
30
0
41
1
10
87.9665784958214
20
-6.96877738569739
30
0
41
1
10
87.2594898942421
20
-6.78041875763131
30
0
41
1
10
87.048437708362
20
-6.72233007920218
30
0
41
1
10
86.8376157993619
20
-6.66248858776339
30
0
0
SPLINE
5
EC
100
AcDbEntity
8
1
62
256
6
ByLayer
370
13
48
1
60
0
100
AcDbSpline
70
4
71
3
72
22
73
18
40
0
40
0
40
0
40
0
40
0.0437519673352211
40
0.0437519673352211
40
0.196214973055409
40
0.196214973055409
40
0.501140984495783
40
0.501140984495783
40
0.539256735925828
40
0.539256735925828
40
0.577372487355874
40
0.577372487355874
40
0.653603990215968
40
0.653603990215968
40
0.806066995936152
40
0.806066995936152
40
1
40
1
40
1
40
1
41
1
10
86.8376157996901
20
-6.66248858785653
30
0
41
1
10
86.5536254924925
20
-6.58187835328965
30
0
41
1
10
86.2700530405697
20
-6.49808750345125
30
0
41
1
10
85.0004712466569
20
-6.10870396928055
30
0
41
1
10
84.0187910964693
20
-5.76913936671124
30
0
41
1
10
81.07697305991
20
-4.65638476447376
30
0
41
1
10
79.120635646034
20
-3.7879004723537
30
0
41
1
10
76.8924971496727
20
-2.72060801832873
30
0
41
1
10
76.6442857530974
20
-2.60063714578021
30
0
41
1
10
76.1489686546418
20
-2.35937241272103
30
0
41
1
10
75.901724614641
20
-2.23801504099816
30
0
41
1
10
75.1610539930306
20
-1.87213333399734
30
0
41
1
10
74.6687181112808
20
-1.62573855962617
30
0
41
1
10
73.1946455599904
20
-0.881933963249395
30
0
41
1
10
72.2157544068122
20
-0.3800903410567
30
0
41
1
10
69.9925690899844
20
0.758031753730137
30
0
41
1
10
68.7484509395194
20
1.39362694563999
30
0
41
1
10
67.4975375766342
20
2.01297233196203
30
0
0
SPLINE
5
ED
100
AcDbEntity
8
1
62
256
6
ByLayer
370
18
48
1
60
0
100
AcDbSpline
70
4
71
3
72
49
73
45
40
0
40
0
40
0
40
0
40
0.0625000000000103
40
0.0625000000000103
40
0.0937500000000124
40
0.0937500000000124
40
0.125000000000014
40
0.125000000000014
40
0.187500000000018
40
0.187500000000018
40
0.250000000000022
40
0.250000000000022
40
0.312500000000026
40
0.312500000000026
40
0.343750000000028
40
0.343750000000028
40
0.37500000000003
40
0.37500000000003
40
0.437500000000029
40
0.437500000000029
40
0.500000000000027
40
0.500000000000027
40
0.562500000000025
40
0.562500000000025
40
0.625000000000023
40
0.625000000000023
40
0.687500000000022
40
0.687500000000022
40
0.75000000000002
40
0.75000000000002
40
0.812500000000018
40
0.812500000000018
40
0.828125000000016
40
0.828125000000016
40
0.835937500000016
40
0.835937500000016
40
0.843750000000015
40
0.843750000000015
40
0.851562500000014
40
0.851562500000014
40
0.859375000000014
40
0.875000000000012
40
0.875000000000012
40
1
40
1
40
1
40
1
41
1
10
189.327937420823
20
-2.50896279066473
30
0
41
1
10
189.512767021118
20
-2.55738661066789
30
0
41
1
10
189.69786604183
20
-2.60053123540928
30
0
41
1
10
189.975965293844
20
-2.65641645914107
30
0
41
1
10
190.068740336188
20
-2.67356955405481
30
0
41
1
10
190.254451208303
20
-2.70472517261493
30
0
41
1
10
190.347510317934
20
-2.71889559435098
30
0
41
1
10
190.625168053878
20
-2.75457746518225
30
0
41
1
10
190.808810682362
20
-2.77025631609666
30
0
41
1
10
191.173465777422
20
-2.78703095580491
30
0
41
1
10
191.354403356013
20
-2.78771152447618
30
0
41
1
10
191.713204440267
20
-2.77202831319869
30
0
41
1
10
191.891075657066
20
-2.75570728801867
30
0
41
1
10
192.155172660102
20
-2.71620100792632
30
0
41
1
10
192.242752805407
20
-2.70052506350544
30
0
41
1
10
192.416908163841
20
-2.66360127877294
30
0
41
1
10
192.503471618544
20
-2.64230832237931
30
0
41
1
10
192.758515103825
20
-2.56999458984686
30
0
41
1
10
192.92341261977
20
-2.51057168842101
30
0
41
1
10
193.242686455802
20
-2.36873404800335
30
0
41
1
10
193.397034789295
20
-2.28625815026081
30
0
41
1
10
193.693862066623
20
-2.09536832618528
30
0
41
1
10
193.837237818901
20
-1.98621725966629
30
0
41
1
10
194.104997221624
20
-1.74719756735175
30
0
41
1
10
194.230039485909
20
-1.61715629608534
30
0
41
1
10
194.463162873491
20
-1.33686144714221
30
0
41
1
10
194.571236040647
20
-1.18659838826594
30
0
41
1
10
194.771163376657
20
-0.866744363058416
30
0
41
1
10
194.863197358308
20
-0.696609572072646
30
0
41
1
10
195.029547413041
20
-0.343755546787662
30
0
41
1
10
195.104403338318
20
-0.160336119104272
30
0
41
1
10
195.188224265515
20
0.0758239141375157
30
0
41
1
10
195.20417123129
20
0.123611655190643
30
0
41
1
10
195.228476816859
20
0.195031361876857
30
0
41
1
10
195.236123709056
20
0.219572285322869
30
0
41
1
10
195.242118173082
20
0.271838250773328
30
0
41
1
10
195.241773102855
20
0.299245016892854
30
0
41
1
10
195.235925068408
20
0.35477895500847
30
0
41
1
10
195.230395231186
20
0.382326311899874
30
0
41
1
10
195.217232768859
20
0.437243807838257
30
0
41
1
10
195.197466775488
20
0.519618101250671
30
0
41
1
10
195.177638302693
20
0.601987413511779
30
0
41
1
10
195.058461995562
20
1.09618316433199
30
0
41
1
10
194.951391215328
20
1.53533422043591
30
0
41
1
10
194.843760718233
20
1.97441750904909
30
0
0
SPLINE
5
EE
100
AcDbEntity
8
1
62
256
6
ByLayer
370
18
48
1
60
0
100
AcDbSpline
70
4
71
3
72
10
73
6
40
0
40
0
40
0
40
0
40
0.5
40
0.5
40
1
40
1
40
1
40
1
41
1
10
197.952667236941
20
0.24563240369514
30
0
41
1
10
197.956004644533
20
0.218731422094777
30
0
41
1
10
197.962209294819
20
0.187577069888675
30
0
41
1
10
197.978504893938
20
0.119807767472253
30
0
41
1
10
197.988374413542
20
0.0842494314395879
30
0
41
1
10
197.999967493669
20
0.0472221000042623
30
0
0
SPLINE
5
EF
100
AcDbEntity
8
1
62
256
6
ByLayer
370
18
48
1
60
0
100
AcDbSpline
70
4
71
3
72
20
73
16
40
0
40
0
40
0
40
0
40
0.249999999999996
40
0.249999999999996
40
0.374999999999995
40
0.374999999999995
40
0.437499999999995
40
0.437499999999995
40
0.499999999999994
40
0.499999999999994
40
0.749999999999996
40
0.749999999999996
40
0.874999999999998
40
0.874999999999998
40
1
40
1
40
1
40
1
41
1
10
6.25025501212534
20
-5.12230557870834
30
0
41
1
10
6.57048639115865
20
-5.53915468062374
30
0
41
1
10
6.90941456583536
20
-5.90548055820395
30
0
41
1
10
7.44655160598646
20
-6.38788759754206
30
0
41
1
10
7.63047659003246
20
-6.53738506364283
30
0
41
1
10
7.91442838332645
20
-6.74497140153369
30
0
41
1
10
8.01020711997501
20
-6.81121266704037
30
0
41
1
10
8.20303567809231
20
-6.93723554215447
30
0
41
1
10
8.3002471312775
20
-6.99713652959929
30
0
41
1
10
8.79058788096654
20
-7.28163862070934
30
0
41
1
10
9.19647839337858
20
-7.46140585764533
30
0
41
1
10
9.83272351746464
20
-7.66709552874556
30
0
41
1
10
10.0498092266775
20
-7.72505240701545
30
0
41
1
10
10.4922245521006
20
-7.82020483287599
30
0
41
1
10
10.7172326556183
20
-7.85738008118474
30
0
41
1
10
10.9466102048231
20
-7.88506497646756
30
0
0
SPLINE
5
F0
100
AcDbEntity
8
1
62
256
6
ByLayer
370
18
48
1
60
0
100
AcDbSpline
70
4
71
3
72
8
73
4
40
0
40
0
40
0
40
0
40
1
40
1
40
1
40
1
41
1
10
195.257918263172
20
8.29512596037628
30
0
41
1
10
195.151208474527
20
8.40025175137828
30
0
41
1
10
195.057939013357
20
8.47087145955811
30
0
41
1
10
194.977210041888
20
8.50619416137758
30
0
0
SPLINE
5
F1
100
AcDbEntity
8
1
62
256
6
ByLayer
370
18
48
1
60
0
100
AcDbSpline
70
4
71
3
72
16
73
12
40
0
40
0
40
0
40
0
40
0.28327290798505
40
0.28327290798505
40
0.427949333504399
40
0.427949333504399
40
0.572625759023747
40
0.572625759023747
40
0.861978610062442
40
0.861978610062442
40
1
40
1
40
1
40
1
41
1
10
144.960378334378
20
-8.03145006271785
30
0
41
1
10
144.000584497675
20
-8.03046952510016
30
0
41
1
10
143.03755564683
20
-7.98389667379774
30
0
41
1
10
141.572725180672
20
-7.84337019223662
30
0
41
1
10
141.078107236466
20
-7.78394099894825
30
0
41
1
10
140.092673785738
20
-7.64257145148753
30
0
41
1
10
139.601346500458
20
-7.56054315989832
30
0
41
1
10
138.129997016719
20
-7.28172089230122
30
0
41
1
10
137.152529778332
20
-7.05228507757445
30
0
41
1
10
135.708886395623
20
-6.6543309167665
30
0
41
1
10
135.24264741275
20
-6.5167447348596
30
0
41
1
10
134.776015128048
20
-6.37050318401543
30
0
0
SPLINE
5
F2
100
AcDbEntity
8
1
62
256
6
ByLayer
370
13
48
1
60
0
100
AcDbSpline
70
4
71
3
72
24
73
20
40
0
40
0
40
0
40
0
40
0.084847407816334
40
0.084847407816334
40
0.165963519348705
40
0.165963519348705
40
0.247079630881076
40
0.247079630881076
40
0.571544077010559
40
0.571544077010559
40
0.733776300075299
40
0.733776300075299
40
0.814892411607671
40
0.814892411607671
40
0.855450467373855
40
0.855450467373855
40
0.896008523140039
40
0.896008523140039
40
1
40
1
40
1
40
1
41
1
10
134.7760151281
20
-6.37050318403163
30
0
41
1
10
134.264383231947
20
-6.21015885208715
30
0
41
1
10
133.752278520384
20
-6.03940930075026
30
0
41
1
10
132.748680183347
20
-5.68612519829364
30
0
41
1
10
132.257259424157
20
-5.50446636291642
30
0
41
1
10
131.271714452311
20
-5.1242637256583
30
0
41
1
10
130.77704203632
20
-4.92544586761923
30
0
41
1
10
128.300423146923
20
-3.89444879471378
30
0
41
1
10
126.346680998138
20
-2.96743618414882
30
0
41
1
10
123.413686352433
20
-1.50654832693834
30
0
41
1
10
122.435747509388
20
-1.00765344651504
30
0
41
1
10
120.962892592846
20
-0.252102445555067
30
0
41
1
10
120.470958874086
20
0.0009708049227015
30
0
41
1
10
119.730945153434
20
0.381145151048969
30
0
41
1
10
119.483914432858
20
0.507950529223649
30
0
41
1
10
118.989008957205
20
0.761477833438988
30
0
41
1
10
118.74094064149
20
0.888298005022421
30
0
41
1
10
117.859145838032
20
1.337636305617
30
0
41
1
10
117.22748429518
20
1.65696685214476
30
0
41
1
10
116.597568042174
20
1.97060633279869
30
0
0
SPLINE
5
F3
100
AcDbEntity
8
1
62
256
6
ByLayer
370
18
48
1
60
0
100
AcDbSpline
70
4
71
3
72
16
73
12
40
0
40
0
40
0
40
0
40
0.235727653559537
40
0.235727653559537
40
0.389195528104643
40
0.389195528104643
40
0.465929465377192
40
0.465929465377192
40
0.542663402649743
40
0.542663402649743
40
1
40
1
40
1
40
1
41
1
10
46.9614138719715
20
-7.97046566731905
30
0
41
1
10
46.2094575729568
20
-7.96969329412548
30
0
41
1
10
45.4568316464933
20
-7.94110927632744
30
0
41
1
10
44.2107207024987
20
-7.84788899872956
30
0
41
1
10
43.7183858159355
20
-7.799304558996
30
0
41
1
10
42.9777348729232
20
-7.70877924553344
30
0
41
1
10
42.7305104841774
20
-7.67565968019872
30
0
41
1
10
42.2352876166498
20
-7.60352994724747
30
0
41
1
10
41.9869870370192
20
-7.56446490020309
30
0
41
1
10
40.2620572850718
20
-7.27316296061397
30
0
41
1
10
38.7996934564386
20
-6.92507893846366
30
0
41
1
10
37.3402684416294
20
-6.49277084851883
30
0
0
SPLINE
5
F4
100
AcDbEntity
8
1
62
256
6
ByLayer
370
13
48
1
60
0
100
AcDbSpline
70
4
71
3
72
24
73
20
40
0
40
0
40
0
40
0
40
0.08022523727852
40
0.08022523727852
40
0.237531966321505
40
0.237531966321505
40
0.316185330842998
40
0.316185330842998
40
0.355512013103743
40
0.355512013103743
40
0.394838695364488
40
0.394838695364488
40
0.709452153450454
40
0.709452153450454
40
0.866758882493436
40
0.866758882493436
40
0.945412247014927
40
0.945412247014927
40
1
40
1
40
1
40
1
41
1
10
37.3402684458507
20
-6.49277084976922
30
0
41
1
10
36.8407436933375
20
-6.34480258187884
30
0
41
1
10
36.3415632293355
20
-6.18696727900948
30
0
41
1
10
34.8632021813983
20
-5.69214292247059
30
0
41
1
10
33.8836788241636
20
-5.3288179348792
30
0
41
1
10
32.4084507826935
20
-4.7371486205877
30
0
41
1
10
31.9156478332151
20
-4.5322595610325
30
0
41
1
10
31.174348184354
20
-4.21416993684977
30
0
41
1
10
30.9268964793264
20
-4.10635018070988
30
0
41
1
10
30.4311467401241
20
-3.88732512566025
30
0
41
1
10
30.1828255549423
20
-3.77610673329173
30
0
41
1
10
27.9541395633789
20
-2.76565572759506
30
0
41
1
10
25.9984421961308
20
-1.7915839376316
30
0
41
1
10
23.0608558989613
20
-0.300155625534302
30
0
41
1
10
22.0808402996696
20
0.201752203319217
30
0
41
1
10
20.6043863262565
20
0.951410192706675
30
0
41
1
10
20.1111956113868
20
1.20081886025113
30
0
41
1
10
19.2732128043843
20
1.62103172846656
30
0
41
1
10
18.9288134299952
20
1.79269011837789
30
0
41
1
10
18.5844811044653
20
1.9628470714124
30
0
0
SPLINE
5
F5
100
AcDbEntity
8
1
62
256
6
ByLayer
370
18
48
1
60
0
100
AcDbSpline
70
4
71
3
72
8
73
4
40
0
40
0
40
0
40
0
40
1
40
1
40
1
40
1
41
1
10
197.999967493669
20
0.0472221000043191
30
0
41
1
10
198.000010835441
20
0.0157407000014302
30
0
41
1
10
198.000010835441
20
-0.0157407000015723
30
0
41
1
10
197.999967493669
20
-0.0472221000044897
30
0
0
SPLINE
5
F6
100
AcDbEntity
8
1
62
256
6
ByLayer
370
13
48
1
60
0
100
AcDbSpline
70
4
71
3
72
19
73
15
40
0
40
0
40
0
40
0
40
0.195050055761026
40
0.195050055761026
40
0.396287541820769
40
0.396287541820769
40
0.597525027880513
40
0.597525027880513
40
0.698143770910385
40
0.698143770910385
40
0.798762513940256
40
0.899381256970128
40
0.899381256970128
40
1
40
1
40
1
40
1
41
1
10
6.25017943194368
20
-7.94509956175017
30
0
41
1
10
6.25017331332546
20
-7.9448324138416
30
0
41
1
10
6.25016799257673
20
-7.90728960182488
30
0
41
1
10
6.25016120449538
20
-7.75209264513245
30
0
41
1
10
6.25015995699769
20
-7.63370561088055
30
0
41
1
10
6.25016343652655
20
-7.31778146041103
30
0
41
1
10
6.25016813961699
20
-7.12269933751591
30
0
41
1
10
6.25017995234924
20
-6.77454843488619
30
0
41
1
10
6.25018464825445
20
-6.65010508300924
30
0
41
1
10
6.25019540973577
20
-6.38612331574421
30
0
41
1
10
6.25020755327017
20
-6.10667886081333
30
0
41
1
10
6.25022217460699
20
-5.79666572197274
30
0
41
1
10
6.25023785342631
20
-5.47119757588473
30
0
41
1
10
6.25024623516976
20
-5.30046670020155
30
0
41
1
10
6.25025500353652
20
-5.12230556752823
30
0
0
SPLINE
5
F7
100
AcDbEntity
8
1
62
256
6
ByLayer
370
18
48
1
60
0
100
AcDbSpline
70
4
71
3
72
8
73
4
40
0
40
0
40
0
40
0
40
1
40
1
40
1
40
1
41
1
10
195.257918263172
20
-8.29512596037628
30
0
41
1
10
195.151208474526
20
-8.40025175137831
30
0
41
1
10
195.057939013357
20
-8.47087145955811
30
0
41
1
10
194.977210041888
20
-8.50619416137758
30
0
0
SPLINE
5
F8
100
AcDbEntity
8
1
62
256
6
ByLayer
370
18
48
1
60
0
100
AcDbSpline
70
4
71
3
72
12
73
8
40
0
40
0
40
0
40
0
40
0.25000000000001
40
0.25000000000001
40
0.50000000000002
40
0.50000000000002
40
1
40
1
40
1
40
1
41
1
10
6.13123871104847
20
7.23000731967355
30
0
41
1
10
6.11133679936222
20
7.23549275740962
30
0
41
1
10
6.09331822381856
20
7.24219423965283
30
0
41
1
10
6.06094416808014
20
7.25790429406192
30
0
41
1
10
6.04678840911708
20
7.26688679605454
30
0
41
1
10
6.01248226031632
20
7.29572053802232
30
0
41
1
10
6.00000031440095
20
7.31788645683332
30
0
41
1
10
6.00000031440084
20
7.34000165737518
30
0
0
SPLINE
5
F9
100
AcDbEntity
8
1
62
256
6
ByLayer
370
18
48
1
60
0
100
AcDbSpline
70
4
71
3
72
14
73
10
40
0
40
0
40
0
40
0
40
0.25
40
0.25
40
0.5
40
0.5
40
0.75
40
0.75
40
1
40
1
40
1
40
1
41
1
10
194.843760718234
20
1.97441750904915
30
0
41
1
10
194.838880582601
20
1.99432623436505
30
0
41
1
10
194.837602292193
20
2.01529295741082
30
0
41
1
10
194.846673529567
20
2.05491090283556
30
0
41
1
10
194.857594380486
20
2.07355015239713
30
0
41
1
10
194.888479223808
20
2.10106784893333
30
0
41
1
10
194.907607329522
20
2.11001854674205
30
0
41
1
10
194.947078148604
20
2.12066376388813
30
0
41
1
10
194.967741418596
20
2.1225528618113
30
0
41
1
10
194.988266585103
20
2.12216902236972
30
0
0
SPLINE
5
FA
100
AcDbEntity
8
1
62
256
6
ByLayer
370
13
48
1
60
0
100
AcDbSpline
70
4
71
3
72
18
73
14
40
0
40
0
40
0
40
0
40
0.188780342911155
40
0.188780342911155
40
0.388668061035385
40
0.388668061035385
40
0.588555779159614
40
0.588555779159614
40
0.788443497283843
40
0.788443497283843
40
0.988331215408072
40
0.988331215408072
40
1
40
1
40
1
40
1
41
1
10
6.25021724670762
20
7.1953794461451
30
0
41
1
10
6.25021720182622
20
7.28835084214302
30
0
41
1
10
6.25021639614152
20
7.37305026718559
30
0
41
1
10
6.25021352579174
20
7.53044674831133
30
0
41
1
10
6.25021138738538
20
7.60189415692483
30
0
41
1
10
6.25020625303205
20
7.72464019306253
30
0
41
1
10
6.25020325349209
20
7.77614603403751
30
0
41
1
10
6.25019680774042
20
7.85927866405197
30
0
41
1
10
6.25019338133689
20
7.89060899452156
30
0
41
1
10
6.25018658073276
20
7.93288559551672
30
0
41
1
10
6.25018319846112
20
7.94393114985149
30
0
41
1
10
6.25017983085789
20
7.94507562953032
30
0
41
1
10
6.25017964580118
20
7.94510499636274
30
0
41
1
10
6.2501794614663
20
7.94510056133134
30
0
0
SPLINE
5
FB
100
AcDbEntity
8
1
62
256
6
ByLayer
370
18
48
1
60
0
100
AcDbSpline
70
4
71
3
72
8
73
4
40
0
40
0
40
0
40
0
40
1
40
1
40
1
40
1
41
1
10
196.207735945209
20
-4.70668918662733
30
0
41
1
10
195.801463697889
20
-5.82291301229139
30
0
41
1
10
195.395191450569
20
-6.93913683795549
30
0
41
1
10
194.988919203249
20
-8.05536066361958
30
0
0
SPLINE
5
FC
100
AcDbEntity
8
1
62
256
6
ByLayer
370
18
48
1
60
0
100
AcDbSpline
70
4
71
3
72
18
73
14
40
0
40
0
40
0
40
0
40
0.0848049384304498
40
0.171350408341026
40
0.225546964898541
40
0.280533873267528
40
0.345539383058806
40
0.482820493546475
40
0.607524983504914
40
0.741899527628263
40
0.865888335959932
40
0.999417280780542
40
1
40
1
40
1
40
1
41
1
10
6.25017770871699
20
-7.94510869601331
30
0
41
1
10
6.4385367967771
20
-7.94524455981346
30
0
41
1
10
6.81912137595791
20
-7.94551814376874
30
0
41
1
10
7.32008220138727
20
-7.94590841380395
30
0
41
1
10
7.75481621471346
20
-7.94619926922428
30
0
41
1
10
8.14170649265253
20
-7.94641739031471
30
0
41
1
10
8.71312888783683
20
-7.94669126206333
30
0
41
1
10
9.43941124700589
20
-7.94697670095115
30
0
41
1
10
10.3197670853794
20
-7.94737705112334
30
0
41
1
10
11.1705936167733
20
-7.94783209965908
30
0
41
1
10
12.0410282184893
20
-7.94876127879721
30
0
41
1
10
12.6142962155846
20
-7.94913016104522
30
0
41
1
10
12.9121719843029
20
-7.94914312212384
30
0
41
1
10
12.913466263486
20
-7.94914317612987
30
0
0
SPLINE
5
FD
100
AcDbEntity
8
1
62
256
6
ByLayer
370
18
48
1
60
0
100
AcDbSpline
70
4
71
3
72
20
73
16
40
0
40
0
40
0
40
0
40
0.0509966400124924
40
0.123235055439032
40
0.207480935483796
40
0.280086483493115
40
0.337902270117676
40
0.405210231963343
40
0.5190053660681
40
0.617361821491801
40
0.721065526829232
40
0.839464129207819
40
0.92922488270721
40
0.972912205281008
40
1
40
1
40
1
40
1
41
1
10
61.7749505491586
20
7.97873950246154
30
0
41
1
10
61.6063067666071
20
7.97887420569242
30
0
41
1
10
61.1985779936527
20
7.97901748734517
30
0
41
1
10
60.509726531075
20
7.97807710515377
30
0
41
1
10
59.7518335531693
20
7.9770521447715
30
0
41
1
10
59.03892615392
20
7.97694447088898
30
0
41
1
10
58.3855675010993
20
7.97738563685326
30
0
41
1
10
57.5934048435314
20
7.97643575623997
30
0
41
1
10
56.6667208471436
20
7.97574274019283
30
0
41
1
10
55.6193163993358
20
7.97574442916479
30
0
41
1
10
54.5568994435289
20
7.97462951733118
30
0
41
1
10
53.5226858412408
20
7.97412158267409
30
0
41
1
10
52.6875663952248
20
7.97406474787618
30
0
41
1
10
52.1552300134175
20
7.97366622372812
30
0
41
1
10
51.9205493351763
20
7.97344123190572
30
0
41
1
10
51.8307299852594
20
7.97335592875902
30
0
0
SPLINE
5
FE
100
AcDbEntity
8
1
62
256
6
ByLayer
370
18
48
1
60
0
100
AcDbSpline
70
4
71
3
72
22
73
18
40
0
40
0
40
0
40
0
40
0.0057925293826038
40
0.100620500601767
40
0.194251281605949
40
0.272688093008011
40
0.355595298431654
40
0.435695934673949
40
0.508909775484731
40
0.566669568792112
40
0.626286276223093
40
0.701848661356111
40
0.781543295538082
40
0.847663182682435
40
0.901752024632296
40
0.973041843792083
40
1
40
1
40
1
40
1
41
1
10
159.894683072266
20
8.03841791763878
30
0
41
1
10
159.875409014183
20
8.03840493488786
30
0
41
1
10
159.540604431799
20
8.03818572926164
30
0
41
1
10
158.894252997053
20
8.0391328396899
30
0
41
1
10
158.006184451906
20
8.03781554006952
30
0
41
1
10
157.157786327284
20
8.03668871016183
30
0
41
1
10
156.35440715814
20
8.0372720727037
30
0
41
1
10
155.568401861255
20
8.03750599505599
30
0
41
1
10
154.866075283286
20
8.03605882332394
30
0
41
1
10
154.231904682001
20
8.03568443332296
30
0
41
1
10
153.589930208469
20
8.0357650356207
30
0
41
1
10
152.874954942189
20
8.03572777407814
30
0
41
1
10
152.138351635093
20
8.03460683195027
30
0
41
1
10
151.4731910613
20
8.03425363385341
30
0
41
1
10
150.836004434841
20
8.03425109800065
30
0
41
1
10
150.329119316925
20
8.03434340390234
30
0
41
1
10
150.002209260729
20
8.03415537722123
30
0
41
1
10
149.91250887666
20
8.03409189918258
30
0
0
SPLINE
5
FF
100
AcDbEntity
8
1
62
256
6
ByLayer
370
18
48
1
60
0
100
AcDbSpline
70
4
71
3
72
18
73
14
40
0
40
0
40
0
40
0
40
0.0681221616482121
40
0.160512302597646
40
0.274869727529663
40
0.394460503395513
40
0.497965647782618
40
0.557986208488046
40
0.62222192111784
40
0.69312987089969
40
0.7779383430247
40
0.892351165510131
40
1
40
1
40
1
40
1
41
1
10
12.9150058670694
20
7.94912726898974
30
0
41
1
10
12.7636645886909
20
7.94913103854293
30
0
41
1
10
12.4070682092378
20
7.94906510146674
30
0
41
1
10
11.7964132894917
20
7.94845274959812
30
0
41
1
10
11.0714213431629
20
7.94778891231999
30
0
41
1
10
10.3217282398242
20
7.947376769811
30
0
41
1
10
9.6927521616027
20
7.94709222465164
30
0
41
1
10
9.18675806673309
20
7.94688266386362
30
0
41
1
10
8.75317705159983
20
7.94670304629116
30
0
41
1
10
8.26452759885038
20
7.94648158731931
30
0
41
1
10
7.66440675290141
20
7.94615828830601
30
0
41
1
10
6.98265648238871
20
7.94564144032532
30
0
41
1
10
6.4893286895626
20
7.94528758859266
30
0
41
1
10
6.25017933261614
20
7.9451095372853
30
0
0
SPLINE
5
100
100
AcDbEntity
8
1
62
256
6
ByLayer
370
18
48
1
60
0
100
AcDbSpline
70
4
71
3
72
28
73
24
40
0
40
0
40
0
40
0
40
0.0607839869839707
40
0.118933491032349
40
0.169821191859336
40
0.213763970754884
40
0.251337653144014
40
0.290780412377898
40
0.337513914485888
40
0.382494891902725
40
0.422825599919283
40
0.460217930798041
40
0.511680951440083
40
0.57235506391934
40
0.620549997730401
40
0.660500515486909
40
0.705671544422988
40
0.755325675782185
40
0.813102834767365
40
0.867239762436008
40
0.928054088836144
40
0.988512893772879
40
1
40
1
40
1
40
1
41
1
10
95.9548674968073
20
-8.00082025488786
30
0
41
1
10
96.2552328998742
20
-8.00057116353665
30
0
41
1
10
96.8433321328078
20
-8.00044405936785
30
0
41
1
10
97.6965037555336
20
-8.00106567580534
30
0
41
1
10
98.4450744613912
20
-8.00280064294094
30
0
41
1
10
99.1049002882765
20
-8.00220188623092
30
0
41
1
10
99.7080033555443
20
-8.00278122509306
30
0
41
1
10
100.323547747703
20
-8.00325192305925
30
0
41
1
10
100.978294575157
20
-8.00388933606297
30
0
41
1
10
101.636848185638
20
-8.00426563282886
30
0
41
1
10
102.248966484842
20
-8.00436142632174
30
0
41
1
10
102.893387021076
20
-8.00432145609096
30
0
41
1
10
103.639276752968
20
-8.00539830186565
30
0
41
1
10
104.439068364491
20
-8.00581638470203
30
0
41
1
10
105.181430003908
20
-8.0058066078177
30
0
41
1
10
105.846450211682
20
-8.00586287267066
30
0
41
1
10
106.518760396326
20
-8.00671360943426
30
0
41
1
10
107.279990724786
20
-8.00700120241967
30
0
41
1
10
108.085949928545
20
-8.00686420748528
30
0
41
1
10
108.947573132502
20
-8.00747097315221
30
0
41
1
10
109.822580183118
20
-8.00871303368206
30
0
41
1
10
110.484834179868
20
-8.00824546319362
30
0
41
1
10
110.843724882838
20
-8.0084210468043
30
0
41
1
10
110.901026471889
20
-8.00844975526653
30
0
0
SPLINE
5
101
100
AcDbEntity
8
1
62
256
6
ByLayer
370
18
48
1
60
0
100
AcDbSpline
70
4
71
3
72
28
73
24
40
0
40
0
40
0
40
0
40
0.0574523916877702
40
0.109429800773764
40
0.14988573395143
40
0.185623902937017
40
0.221096185016417
40
0.255163245734929
40
0.287248157166321
40
0.317414293326045
40
0.353938291465106
40
0.395195708182553
40
0.446445296618201
40
0.497581377496002
40
0.542348746649609
40
0.585024931023215
40
0.636997167800543
40
0.692698535009723
40
0.75244249993893
40
0.824828129387178
40
0.911398115907687
40
0.97148872665838
40
1
40
1
40
1
40
1
41
1
10
144.96380971047
20
-8.03146731823699
30
0
41
1
10
145.248864979544
20
-8.03147559918497
30
0
41
1
10
145.7923561612
20
-8.03159108929484
30
0
41
1
10
146.538995948696
20
-8.03135709096361
30
0
41
1
10
147.177281582395
20
-8.03233690989438
30
0
41
1
10
147.729517761462
20
-8.03286243164487
30
0
41
1
10
148.251413660156
20
-8.03288681517225
30
0
41
1
10
148.755464250246
20
-8.03246638469346
30
0
41
1
10
149.236306745962
20
-8.03313035476995
30
0
41
1
10
149.723949622267
20
-8.03409611800029
30
0
41
1
10
150.26276491814
20
-8.03430227922235
30
0
41
1
10
150.905143816519
20
-8.03427176577574
30
0
41
1
10
151.620828655283
20
-8.03416029282482
30
0
41
1
10
152.353801258791
20
-8.03505811650345
30
0
41
1
10
153.044144524347
20
-8.03572592082625
30
0
41
1
10
153.738615987429
20
-8.03577990822987
30
0
41
1
10
154.487584673926
20
-8.03557609274654
30
0
41
1
10
155.321543336939
20
-8.03710928849762
30
0
41
1
10
156.257217590939
20
-8.03748143479473
30
0
41
1
10
157.346656235879
20
-8.03638190952941
30
0
41
1
10
158.437807624405
20
-8.03892646569398
30
0
41
1
10
159.310417991259
20
-8.03846261341212
30
0
41
1
10
159.751782474825
20
-8.03860667588137
30
0
41
1
10
159.893809591044
20
-8.03864444749286
30
0
0
SPLINE
5
102
100
AcDbEntity
8
1
62
256
6
ByLayer
370
18
48
1
60
0
100
AcDbSpline
70
4
71
1
72
4
73
2
40
0
40
0
40
1
40
1
41
1
10
193.984364727352
20
-8.06257894201502
30
0
41
1
10
195.048050013088
20
-8.06305100896819
30
0
0
SPLINE
5
103
100
AcDbEntity
8
1
62
256
6
ByLayer
370
18
48
1
60
0
100
AcDbSpline
70
4
71
3
72
22
73
18
40
0
40
0
40
0
40
0
40
0.0795164641006016
40
0.181438823897955
40
0.271828466931043
40
0.366355350370425
40
0.440543495806544
40
0.508058928509108
40
0.567742157963555
40
0.639598749574106
40
0.730137769897474
40
0.79357528580916
40
0.839056479821398
40
0.884465049082083
40
0.93410816936468
40
0.988259492967785
40
1
40
1
40
1
40
1
41
1
10
110.901143453711
20
8.00842091688838
30
0
41
1
10
110.636224467214
20
8.0085043911443
30
0
41
1
10
110.031738681289
20
8.00852974124757
30
0
41
1
10
109.126106519024
20
8.00783042991179
30
0
41
1
10
108.170471734798
20
8.00680527797439
30
0
41
1
10
107.307231386443
20
8.00701834675192
30
0
41
1
10
106.520202504615
20
8.00671353215557
30
0
41
1
10
105.849254564582
20
8.00586533163946
30
0
41
1
10
105.186085140736
20
8.00580705247327
30
0
41
1
10
104.446203923757
20
8.00581168365366
30
0
41
1
10
103.693810356147
20
8.00545206626626
30
0
41
1
10
103.029309013124
20
8.00448111318934
30
0
41
1
10
102.51514555835
20
8.00433490859527
30
0
41
1
10
102.046948157954
20
8.00434402348472
30
0
41
1
10
101.549839629928
20
8.00421570165284
30
0
41
1
10
101.164986283031
20
8.00399029296517
30
0
41
1
10
100.945392005863
20
8.00381716060591
30
0
41
1
10
100.90626420485
20
8.00378525060478
30
0
0
SPLINE
5
104
100
AcDbEntity
8
1
62
256
6
ByLayer
370
18
48
1
60
0
100
AcDbSpline
70
4
71
2
72
6
73
3
40
0
40
0
40
0
40
1
40
1
40
1
41
1
10
169.260075782894
20
-0.0021028447626179
30
0
41
1
10
169.260063973935
20
-0.0020969027845581
30
0
41
1
10
169.260052165015
20
-0.0020906892196138
30
0
0
SPLINE
5
105
100
AcDbEntity
8
1
62
256
6
ByLayer
370
18
48
1
60
0
100
AcDbSpline
70
4
71
2
72
6
73
3
40
0
40
0
40
0
40
1
40
1
40
1
41
1
10
71.2557362503283
20
-0.0001172049041145
30
0
41
1
10
71.2557186623856
20
-0.0001239285418819
30
0
41
1
10
71.2557010743932
20
-0.0001301771382884
30
0
0
SPLINE
5
106
100
AcDbEntity
8
1
62
256
6
ByLayer
370
18
48
1
60
0
100
AcDbSpline
70
4
71
3
72
31
73
27
40
0
40
0
40
0
40
0
40
0.0496168749827649
40
0.0867432364697537
40
0.121791705108141
40
0.154743663936115
40
0.185657348534734
40
0.215936025644761
40
0.253442956060917
40
0.296694575765057
40
0.342239221611943
40
0.376417286513893
40
0.403811922259073
40
0.431354422728434
40
0.480527272224996
40
0.538289398677537
40
0.583847501683996
40
0.626549285645767
40
0.67684194890794
40
0.728962963565396
40
0.777391696700377
40
0.820410660079859
40
0.876047659749516
40
0.935745155829121
40
0.983965276604643
40
1
40
1
40
1
40
1
41
1
10
46.9330796481159
20
-7.97013393762768
30
0
41
1
10
47.163016505117
20
-7.9686944792216
30
0
41
1
10
47.5721673846973
20
-7.96734707220361
30
0
41
1
10
48.189389027541
20
-7.96646372353496
30
0
41
1
10
48.6925349481071
20
-7.97088575006063
30
0
41
1
10
49.1776207976649
20
-7.97174432825605
30
0
41
1
10
49.643436421709
20
-7.97215526441011
30
0
41
1
10
50.1343789710907
20
-7.97236855811221
30
0
41
1
10
50.686107088836
20
-7.97260200561416
30
0
41
1
10
51.3139066467326
20
-7.97286759563002
30
0
41
1
10
51.9250593155563
20
-7.97345562278298
30
0
41
1
10
52.4574362396987
20
-7.97391262295352
30
0
41
1
10
52.9003545209
20
-7.97407233281785
30
0
41
1
10
53.4177960721769
20
-7.97416760254936
30
0
41
1
10
54.0861523925665
20
-7.97429064365076
30
0
41
1
10
54.8441261755607
20
-7.97501567982005
30
0
41
1
10
55.5696794625372
20
-7.97561117796633
30
0
41
1
10
56.2582482693723
20
-7.97577107832333
30
0
41
1
10
56.9794585686853
20
-7.97588964506778
30
0
41
1
10
57.7292801133843
20
-7.97662414495204
30
0
41
1
10
58.4423867093035
20
-7.97740758046029
30
0
41
1
10
59.1716457854242
20
-7.97687070453992
30
0
41
1
10
59.95915759038
20
-7.97720648447967
30
0
41
1
10
60.7711915357655
20
-7.97861248891755
30
0
41
1
10
61.3869434572599
20
-7.97891774521946
30
0
41
1
10
61.7061363465137
20
-7.97884320585737
30
0
41
1
10
61.7857932718632
20
-7.97881005799314
30
0
0
SPLINE
5
107
100
AcDbEntity
8
1
62
256
6
ByLayer
370
18
48
1
60
0
100
AcDbSpline
70
4
71
2
72
6
73
3
40
0
40
0
40
0
40
1
40
1
40
1
41
1
10
71.2557010743856
20
0.0001301771407611
30
0
41
1
10
71.2557186631329
20
0.00012392827594
30
0
41
1
10
71.2557362518306
20
0.0001172043289444
30
0
0
SPLINE
5
108
100
AcDbEntity
8
1
62
256
6
ByLayer
370
18
48
1
60
0
100
AcDbSpline
70
4
71
2
72
6
73
3
40
0
40
0
40
0
40
1
40
1
40
1
41
1
10
120.257488875011
20
-0.0007409318420173
30
0
41
1
10
120.257500898672
20
-0.0007449973809344
30
0
41
1
10
120.257512922405
20
-0.0007493841203541
30
0
0
SPLINE
5
109
100
AcDbEntity
8
1
62
256
6
ByLayer
370
18
48
1
60
0
100
AcDbSpline
70
4
71
1
72
4
73
2
40
0
40
0
40
1
40
1
41
1
10
22.2486874766363
20
0.003928157606083
30
0
41
1
10
22.2487049240738
20
0.0039189609726407
30
0
0
LINE
5
7B
100
AcDbEntity
8
SK1
62
256
6
ByLayer
370
18
48
1
60
0
100
AcDbLine
10
-45.25
20
9
30
0
11
-45.25
21
-9
31
0
39
0
210
0
220
0
230
1
0
LINE
5
7D
100
AcDbEntity
8
SK1
62
256
6
ByLayer
370
18
48
1
60
0
100
AcDbLine
10
-48
20
-5.664205
30
0
11
-48
21
-6.242692
31
0
39
0
210
0
220
0
230
1
0
LINE
5
7E
100
AcDbEntity
8
SK1
62
256
6
ByLayer
370
18
48
1
60
0
100
AcDbLine
10
0
20
-9
30
0
11
0
21
9
31
0
39
0
210
0
220
0
230
1
0
LINE
5
7F
100
AcDbEntity
8
SK1
62
256
6
ByLayer
370
18
48
1
60
0
100
AcDbLine
10
-48
20
6.242692
30
0
11
-48
21
-5.664332
31
0
39
0
210
0
220
0
230
1
0
LINE
5
80
100
AcDbEntity
8
SK1
62
256
6
ByLayer
370
13
48
1
60
0
100
AcDbLine
10
-46.2
20
-7.471416
30
0
11
-46.2
21
-8.049826
31
0
39
0
210
0
220
0
230
1
0
LINE
5
81
100
AcDbEntity
8
SK1
62
256
6
ByLayer
370
18
48
1
60
0
100
AcDbLine
10
-46.1
20
-8.14814
30
0
11
-46.1
21
-7.608337
31
0
39
0
210
0
220
0
230
1
0
LINE
5
82
100
AcDbEntity
8
1
62
256
6
ByLayer
370
13
48
1
60
0
100
AcDbLine
10
1.240418
20
8.411239
30
0
11
1.240418
21
-8.411239
31
0
39
0
210
0
220
0
230
1
0
LINE
5
83
100
AcDbEntity
8
1
62
256
6
ByLayer
370
18
48
1
60
0
100
AcDbLine
10
6
20
-8.414214
30
0
11
6
21
-5.370833
31
0
39
0
210
0
220
0
230
1
0
LINE
5
84
100
AcDbEntity
8
1
62
256
6
ByLayer
370
18
48
1
60
0
100
AcDbLine
10
193.676904
20
-5.932339
30
0
11
197.79704
21
-0.340112
31
0
39
0
210
0
220
0
230
1
0
LINE
5
85
100
AcDbEntity
8
1
62
256
6
ByLayer
370
13
48
1
60
0
100
AcDbLine
10
194.843761
20
1.974418
30
0
11
197.974887
21
-0.00766
31
0
39
0
210
0
220
0
230
1
0
LINE
5
86
100
AcDbEntity
8
1
62
256
6
ByLayer
370
13
48
1
60
0
100
AcDbLine
10
194.988267
20
2.122169
30
0
11
197.952667
21
0.245632
31
0
39
0
210
0
220
0
230
1
0
LINE
5
87
100
AcDbEntity
8
1
62
256
6
ByLayer
370
18
48
1
60
0
100
AcDbLine
10
0
20
-9
30
0
11
0
21
9
31
0
39
0
210
0
220
0
230
1
0
LINE
5
88
100
AcDbEntity
8
1
62
256
6
ByLayer
370
13
48
1
60
0
100
AcDbLine
10
0.619959
20
8.705619
30
0
11
0.619959
21
-8.705619
31
0
39
0
210
0
220
0
230
1
0
LINE
5
89
100
AcDbEntity
8
1
62
256
6
ByLayer
370
18
48
1
60
0
100
AcDbLine
10
6
20
8.414214
30
0
11
6
21
7.340002
31
0
39
0
210
0
220
0
230
1
0
LINE
5
8A
100
AcDbEntity
8
80
62
256
6
ByLayer
370
18
48
1
60
0
100
AcDbLine
10
0
20
0
30
0
11
-5
21
0
31
0
39
0
210
0
220
0
230
1
0
LINE
5
8B
100
AcDbEntity
8
4
62
256
6
ByLayer
370
18
48
0.05
60
0
100
AcDbLine
10
198
20
0
30
0
11
0
21
0
31
0
39
0
210
0
220
0
230
1
0
LINE
5
8D
100
AcDbEntity
8
SK4
62
256
6
ByLayer
370
18
48
0.05
60
0
100
AcDbLine
10
203
20
0
30
0
11
-53
21
0
31
0
39
0
210
0
220
0
230
1
0
LINE
5
8F
100
AcDbEntity
8
SK1
62
256
6
ByLayer
370
18
48
1
60
0
100
AcDbLine
10
-45.25
20
-9
30
0
11
0
21
-9
31
0
39
0
210
0
220
0
230
1
0
LINE
5
90
100
AcDbEntity
8
SK1
62
256
6
ByLayer
370
18
48
1
60
0
100
AcDbLine
10
0
20
9
30
0
11
-45.25
21
9
31
0
39
0
210
0
220
0
230
1
0
LINE
5
91
100
AcDbEntity
8
SK1
62
256
6
ByLayer
370
18
48
1
60
0
100
AcDbLine
10
-46.468699
20
-7.781301
30
0
11
-45.25
21
-9
31
0
39
0
210
0
220
0
230
1
0
LINE
5
92
100
AcDbEntity
8
SK1
62
256
6
ByLayer
370
18
48
1
60
0
100
AcDbLine
10
-45.25
20
9
30
0
11
-46.468699
21
7.781301
31
0
39
0
210
0
220
0
230
1
0
LINE
5
93
100
AcDbEntity
8
1
62
256
6
ByLayer
370
18
48
1
60
0
100
AcDbLine
10
1.240418
20
-8.411239
30
0
11
6
21
-8.414214
31
0
39
0
210
0
220
0
230
1
0
LINE
5
94
100
AcDbEntity
8
1
62
256
6
ByLayer
370
18
48
1
60
0
100
AcDbLine
10
44.551236
20
-8.438308
30
0
11
46.755279
21
-8.439686
31
0
39
0
210
0
220
0
230
1
0
LINE
5
95
100
AcDbEntity
8
1
62
256
6
ByLayer
370
18
48
1
60
0
100
AcDbLine
10
93.555647
20
-8.468936
30
0
11
95.755295
21
-8.470311
31
0
39
0
210
0
220
0
230
1
0
LINE
5
96
100
AcDbEntity
8
1
62
256
6
ByLayer
370
18
48
1
60
0
100
AcDbLine
10
142.562084
20
-8.499565
30
0
11
144.756272
21
-8.500936
31
0
39
0
210
0
220
0
230
1
0
LINE
5
97
100
AcDbEntity
8
1
62
256
6
ByLayer
370
18
48
1
60
0
100
AcDbLine
10
191.567515
20
-8.530194
30
0
11
193.75703
21
-8.531562
31
0
39
0
210
0
220
0
230
1
0
LINE
5
98
100
AcDbEntity
8
1
62
256
6
ByLayer
370
18
48
1
60
0
100
AcDbLine
10
193.757244
20
8.531562
30
0
11
191.567515
21
8.530194
31
0
39
0
210
0
220
0
230
1
0
LINE
5
99
100
AcDbEntity
8
1
62
256
6
ByLayer
370
18
48
1
60
0
100
AcDbLine
10
144.755648
20
8.500936
30
0
11
142.562084
21
8.499565
31
0
39
0
210
0
220
0
230
1
0
LINE
5
9A
100
AcDbEntity
8
1
62
256
6
ByLayer
370
18
48
1
60
0
100
AcDbLine
10
95.755388
20
8.470311
30
0
11
93.555647
21
8.468936
31
0
39
0
210
0
220
0
230
1
0
LINE
5
9B
100
AcDbEntity
8
1
62
256
6
ByLayer
370
18
48
1
60
0
100
AcDbLine
10
46.755564
20
8.439686
30
0
11
44.551236
21
8.438308
31
0
39
0
210
0
220
0
230
1
0
LINE
5
9C
100
AcDbEntity
8
1
62
256
6
ByLayer
370
18
48
1
60
0
100
AcDbLine
10
6
20
8.414214
30
0
11
1.240418
21
8.411239
31
0
39
0
210
0
220
0
230
1
0
LINE
5
9D
100
AcDbEntity
8
81
62
256
6
ByLayer
370
18
48
1
60
0
100
AcDbLine
10
198
20
0
30
0
11
203
21
0
31
0
39
0
210
0
220
0
230
1
0
LINE
5
9E
100
AcDbEntity
8
SK2
62
256
6
ByLayer
370
13
48
1
60
0
100
AcDbLine
10
-56.625163
20
-9
30
0
11
-56.625163
21
39.857173
31
0
39
0
210
0
220
0
230
1
0
LINE
5
A0
100
AcDbEntity
8
SK2
62
256
6
ByLayer
370
13
48
1
60
0
100
AcDbLine
10
-49.5875
20
9
30
0
11
-58.625163
21
9
31
0
39
0
210
0
220
0
230
1
0
LINE
5
A1
100
AcDbEntity
8
SK2
62
256
6
ByLayer
370
13
48
1
60
0
100
AcDbLine
10
-49.5875
20
-9
30
0
11
-58.625163
21
-9
31
0
39
0
210
0
220
0
230
1
0
LINE
5
A2
100
AcDbEntity
8
1
62
256
6
ByLayer
370
18
48
1
60
1
100
AcDbLine
10
-56.625163
20
9
30
0
11
-56.164379
21
5.500002
31
0
39
0
210
0
220
0
230
1
0
LINE
5
A3
100
AcDbEntity
8
1
62
256
6
ByLayer
370
18
48
1
60
1
100
AcDbLine
10
-56.164379
20
5.500002
30
0
11
-57.085946
21
5.499998
31
0
39
0
210
0
220
0
230
1
0
LINE
5
A4
100
AcDbEntity
8
1
62
256
6
ByLayer
370
18
48
1
60
1
100
AcDbLine
10
-57.085946
20
5.499998
30
0
11
-56.625163
21
9
31
0
39
0
210
0
220
0
230
1
0
LINE
5
A5
100
AcDbEntity
8
1
62
256
6
ByLayer
370
18
48
1
60
1
100
AcDbLine
10
-56.625163
20
-9
30
0
11
-57.085946
21
-5.500002
31
0
39
0
210
0
220
0
230
1
0
LINE
5
A6
100
AcDbEntity
8
1
62
256
6
ByLayer
370
18
48
1
60
1
100
AcDbLine
10
-57.085946
20
-5.500002
30
0
11
-56.164379
21
-5.499998
31
0
39
0
210
0
220
0
230
1
0
LINE
5
A7
100
AcDbEntity
8
1
62
256
6
ByLayer
370
18
48
1
60
1
100
AcDbLine
10
-56.164379
20
-5.499998
30
0
11
-56.625163
21
-9
31
0
39
0
210
0
220
0
230
1
0
LINE
5
A8
100
AcDbEntity
8
2
62
256
6
ByLayer
370
13
48
1
60
0
100
AcDbLine
10
210.083343
20
-8.5325
30
0
11
210.083343
21
37.982759
31
0
39
0
210
0
220
0
230
1
0
LINE
5
AA
100
AcDbEntity
8
2
62
256
6
ByLayer
370
13
48
1
60
0
100
AcDbLine
10
197.0388
20
8.5325
30
0
11
212.083343
21
8.5325
31
0
39
0
210
0
220
0
230
1
0
LINE
5
AB
100
AcDbEntity
8
2
62
256
6
ByLayer
370
13
48
1
60
0
100
AcDbLine
10
197.0388
20
-8.5325
30
0
11
212.083343
21
-8.5325
31
0
39
0
210
0
220
0
230
1
0
LINE
5
AC
100
AcDbEntity
8
1
62
256
6
ByLayer
370
18
48
1
60
1
100
AcDbLine
10
210.083343
20
8.5325
30
0
11
210.544126
21
5.032502
31
0
39
0
210
0
220
0
230
1
0
LINE
5
AD
100
AcDbEntity
8
1
62
256
6
ByLayer
370
18
48
1
60
1
100
AcDbLine
10
210.544126
20
5.032502
30
0
11
209.622559
21
5.032498
31
0
39
0
210
0
220
0
230
1
0
LINE
5
AE
100
AcDbEntity
8
1
62
256
6
ByLayer
370
18
48
1
60
1
100
AcDbLine
10
209.622559
20
5.032498
30
0
11
210.083343
21
8.5325
31
0
39
0
210
0
220
0
230
1
0
LINE
5
AF
100
AcDbEntity
8
1
62
256
6
ByLayer
370
18
48
1
60
1
100
AcDbLine
10
210.083343
20
-8.5325
30
0
11
209.622559
21
-5.032502
31
0
39
0
210
0
220
0
230
1
0
LINE
5
B0
100
AcDbEntity
8
1
62
256
6
ByLayer
370
18
48
1
60
1
100
AcDbLine
10
209.622559
20
-5.032502
30
0
11
210.544126
21
-5.032498
31
0
39
0
210
0
220
0
230
1
0
LINE
5
B1
100
AcDbEntity
8
1
62
256
6
ByLayer
370
18
48
1
60
1
100
AcDbLine
10
210.544126
20
-5.032498
30
0
11
210.083343
21
-8.5325
31
0
39
0
210
0
220
0
230
1
0
LINE
5
110
100
AcDbEntity
8
1
62
256
6
ByLayer
370
18
48
1
60
1
100
AcDbLine
10
-56.625163
20
9
30
0
11
-56.164379
21
5.500002
31
0
39
0
210
0
220
0
230
1
0
LINE
5
111
100
AcDbEntity
8
1
62
256
6
ByLayer
370
18
48
1
60
1
100
AcDbLine
10
-56.164379
20
5.500002
30
0
11
-57.085946
21
5.499998
31
0
39
0
210
0
220
0
230
1
0
LINE
5
112
100
AcDbEntity
8
1
62
256
6
ByLayer
370
18
48
1
60
1
100
AcDbLine
10
-57.085946
20
5.499998
30
0
11
-56.625163
21
9
31
0
39
0
210
0
220
0
230
1
0
LINE
5
114
100
AcDbEntity
8
1
62
256
6
ByLayer
370
18
48
1
60
1
100
AcDbLine
10
-56.625163
20
-9
30
0
11
-57.085946
21
-5.500002
31
0
39
0
210
0
220
0
230
1
0
LINE
5
115
100
AcDbEntity
8
1
62
256
6
ByLayer
370
18
48
1
60
1
100
AcDbLine
10
-57.085946
20
-5.500002
30
0
11
-56.164379
21
-5.499998
31
0
39
0
210
0
220
0
230
1
0
LINE
5
116
100
AcDbEntity
8
1
62
256
6
ByLayer
370
18
48
1
60
1
100
AcDbLine
10
-56.164379
20
-5.499998
30
0
11
-56.625163
21
-9
31
0
39
0
210
0
220
0
230
1
0
LINE
5
11A
100
AcDbEntity
8
1
62
256
6
ByLayer
370
18
48
1
60
1
100
AcDbLine
10
210.083343
20
8.5325
30
0
11
210.544126
21
5.032502
31
0
39
0
210
0
220
0
230
1
0
LINE
5
11B
100
AcDbEntity
8
1
62
256
6
ByLayer
370
18
48
1
60
1
100
AcDbLine
10
210.544126
20
5.032502
30
0
11
209.622559
21
5.032498
31
0
39
0
210
0
220
0
230
1
0
LINE
5
11C
100
AcDbEntity
8
1
62
256
6
ByLayer
370
18
48
1
60
1
100
AcDbLine
10
209.622559
20
5.032498
30
0
11
210.083343
21
8.5325
31
0
39
0
210
0
220
0
230
1
0
LINE
5
11E
100
AcDbEntity
8
1
62
256
6
ByLayer
370
18
48
1
60
1
100
AcDbLine
10
210.083343
20
-8.5325
30
0
11
209.622559
21
-5.032502
31
0
39
0
210
0
220
0
230
1
0
LINE
5
11F
100
AcDbEntity
8
1
62
256
6
ByLayer
370
18
48
1
60
1
100
AcDbLine
10
209.622559
20
-5.032502
30
0
11
210.544126
21
-5.032498
31
0
39
0
210
0
220
0
230
1
0
LINE
5
120
100
AcDbEntity
8
1
62
256
6
ByLayer
370
18
48
1
60
1
100
AcDbLine
10
210.544126
20
-5.032498
30
0
11
210.083343
21
-8.5325
31
0
39
0
210
0
220
0
230
1
0
MTEXT
5
10A
100
AcDbEntity
8
SK6
62
256
6
ByLayer
370
13
48
1
60
0
100
AcDbMText
10
46.729673
20
41.072828
30
0
210
0
220
0
230
1
1
\W0.7456;462.1-1707-128A1-XM X2BM
40
3.5
41
0
44
1.084337
50
0
71
7
72
5
7
iso_b_vert
0
MTEXT
5
10E
100
AcDbEntity
8
SK2
62
256
6
ByLayer
370
18
48
1
60
0
100
AcDbMText
10
-58.189796
20
22.409024
30
0
210
0
220
0
230
1
1
%%c
40
3.5
41
0
44
1.084337
50
90
71
7
72
5
7
iso_b_vert
0
MTEXT
5
10F
100
AcDbEntity
8
SK2
62
256
6
ByLayer
370
18
48
1
60
0
100
AcDbMText
10
-58.189796
20
27.63168
30
0
210
0
220
0
230
1
1
\W0.6930;18,000
40
3.5
41
0
44
1.084337
50
90
71
7
72
5
7
iso_b_vert
0
MTEXT
5
118
100
AcDbEntity
8
2
62
256
6
ByLayer
370
18
48
1
60
0
100
AcDbMText
10
208.518709
20
20.53461
30
0
210
0
220
0
230
1
1
%%c
40
3.5
41
0
44
1.084337
50
90
71
7
72
5
7
iso_b_vert
0
MTEXT
5
119
100
AcDbEntity
8
2
62
256
6
ByLayer
370
18
48
1
60
0
100
AcDbMText
10
208.518709
20
25.757266
30
0
210
0
220
0
230
1
1
\W0.6930;17,065
40
3.5
41
0
44
1.084337
50
90
71
7
72
5
7
iso_b_vert
0
HATCH
5
113
100
AcDbEntity
8
SK2
62
256
6
ByLayer
370
13
48
1
60
0
100
AcDbHatch
10
0
20
0
30
0
210
0
220
0
230
1
2
ANSI31
70
0
71
0
91
1
92
5
93
3
72
1
10
-56.6251625675374
20
9
11
-56.1643788259847
21
5.50000169255318
72
1
10
-56.1643788259847
20
5.50000169255318
11
-57.0859463090902
21
5.49999830744682
72
1
10
-57.0859463090902
20
5.49999830744682
11
-56.6251625675374
21
9
97
0
75
0
76
1
52
0
41
0.0062
77
0
78
1
53
45
43
0
44
0
45
-0.0139193969876572
46
0.0139193969876572
79
0
47
0
98
1
10
0
20
0
0
HATCH
5
117
100
AcDbEntity
8
SK2
62
256
6
ByLayer
370
13
48
1
60
0
100
AcDbHatch
10
0
20
0
30
0
210
0
220
0
230
1
2
ANSI31
70
0
71
0
91
1
92
5
93
3
72
1
10
-56.6251625675374
20
-9
11
-57.0859463090902
21
-5.50000169255318
72
1
10
-57.0859463090902
20
-5.50000169255318
11
-56.1643788259847
21
-5.49999830744682
72
1
10
-56.1643788259847
20
-5.49999830744682
11
-56.6251625675374
21
-9
97
0
75
0
76
1
52
0
41
0.0062
77
0
78
1
53
45
43
0
44
0
45
-0.0139193969876572
46
0.0139193969876572
79
0
47
0
98
1
10
0
20
0
0
HATCH
5
11D
100
AcDbEntity
8
2
62
256
6
ByLayer
370
13
48
1
60
0
100
AcDbHatch
10
0
20
0
30
0
210
0
220
0
230
1
2
ANSI31
70
0
71
0
91
1
92
5
93
3
72
1
10
210.083342615295
20
8.5325
11
210.544126356848
21
5.03250169255318
72
1
10
210.544126356848
20
5.03250169255318
11
209.622558873742
21
5.03249830744682
72
1
10
209.622558873742
20
5.03249830744682
11
210.083342615295
21
8.5325
97
0
75
0
76
1
52
0
41
0.0062
77
0
78
1
53
45
43
0
44
0
45
-0.0139193969876572
46
0.0139193969876572
79
0
47
0
98
1
10
0
20
0
0
HATCH
5
121
100
AcDbEntity
8
2
62
256
6
ByLayer
370
13
48
1
60
0
100
AcDbHatch
10
0
20
0
30
0
210
0
220
0
230
1
2
ANSI31
70
0
71
0
91
1
92
5
93
3
72
1
10
210.083342615295
20
-8.5325
11
209.622558873742
21
-5.03250169255318
72
1
10
209.622558873742
20
-5.03250169255318
11
210.544126356848
21
-5.03249830744682
72
1
10
210.544126356848
20
-5.03249830744682
11
210.083342615295
21
-8.5325
97
0
75
0
76
1
52
0
41
0.0062
77
0
78
1
53
45
43
0
44
0
45
-0.0139193969876572
46
0.0139193969876572
79
0
47
0
98
1
10
0
20
0
0
DIMENSION
5
123
100
AcDbEntity
8
SK2
62
256
6
ByLayer
370
13
48
1
60
0
100
AcDbDimension
2
_U0
10
195.4513
20
-18.745898
30
0
11
97.72565
21
-18.745898
31
0
70
32
71
1
72
1
41
1
210
0
220
0
230
1
3
Standard
100
AcDbAlignedDimension
13
0
23
0
33
0
14
195.4513
24
-8.5325
34
0
50
0
100
AcDbRotatedDimension
1001
ACAD
1000
DSTYLE
1002
{
1070
   371
1070
    13
1070
   372
1070
    13
1070
   170
1070
     0
1070
   144
1040
1.0
1070
   277
1070
     2
1070
   278
1070
    44
1070
   146
1040
1.0
1070
   345
1005
16
1070
   347
1005
16
1070
   346
1005
16
1070
   344
1005
0
1070
   343
1005
0
1070
   172
1070
     1
1070
    76
1070
     0
1070
    75
1070
     0
1070
   282
1070
     0
1070
   281
1070
     0
1070
    71
1070
     0
1070
    74
1070
     0
1070
   279
1070
     0
1070
   173
1070
     1
1070
   340
1005
10B
1070
   271
1070
     2
1070
   272
1070
     2
1070
    77
1070
     1
1070
    73
1070
     1
1070
   171
1070
     3
1070
   274
1070
     4
1070
   177
1070
    35
1070
   176
1070
    35
1070
   178
1070
    35
1070
    48
1040
-0.1
1070
    41
1040
3.5
1070
   147
1040
1.75
1070
    42
1040
1.5875
1070
    44
1040
2.0
1070
   140
1040
3.5
1002
}
1001
ACAD_DSTYLE_DIM_LINETYPE
1070
   380
1005
16
1001
ACAD_DSTYLE_DIM_EXT1_LINETYPE
1070
   381
1005
16
1001
ACAD_DSTYLE_DIM_EXT2_LINETYPE
1070
   382
1005
16
0
DIMENSION
5
13C
100
AcDbEntity
8
SK2
62
256
6
ByLayer
370
13
48
1
60
0
100
AcDbDimension
2
_U1
10
198
20
-37.692985
30
0
11
75
21
-37.692985
31
0
70
32
71
1
72
1
41
1
210
0
220
0
230
1
3
Standard
100
AcDbAlignedDimension
13
-48
23
-9
33
0
14
198
24
0
34
0
50
0
100
AcDbRotatedDimension
1001
ACAD
1000
DSTYLE
1002
{
1070
   371
1070
    13
1070
   372
1070
    13
1070
   170
1070
     0
1070
   144
1040
1.0
1070
   277
1070
     2
1070
   278
1070
    44
1070
   146
1040
1.0
1070
   345
1005
16
1070
   347
1005
16
1070
   346
1005
16
1070
   344
1005
0
1070
   343
1005
0
1070
   172
1070
     1
1070
    76
1070
     0
1070
    75
1070
     0
1070
   282
1070
     0
1070
   281
1070
     0
1070
    71
1070
     0
1070
    74
1070
     0
1070
   279
1070
     0
1070
   173
1070
     1
1070
   340
1005
10B
1070
   271
1070
     2
1070
   272
1070
     2
1070
    77
1070
     1
1070
    73
1070
     1
1070
   171
1070
     3
1070
   274
1070
     4
1070
   177
1070
    35
1070
   176
1070
    35
1070
   178
1070
    35
1070
    48
1040
-0.1
1070
    41
1040
3.5
1070
   147
1040
1.75
1070
    42
1040
1.5875
1070
    44
1040
2.0
1070
   140
1040
3.5
1002
}
1001
ACAD_DSTYLE_DIM_LINETYPE
1070
   380
1005
16
1001
ACAD_DSTYLE_DIM_EXT1_LINETYPE
1070
   381
1005
16
1001
ACAD_DSTYLE_DIM_EXT2_LINETYPE
1070
   382
1005
16
0
DIMENSION
5
154
100
AcDbEntity
8
SK2
62
256
6
ByLayer
370
13
48
1
60
0
100
AcDbDimension
2
_U2
10
198
20
20.141619
30
0
11
128.465
21
20.141619
31
0
70
32
71
1
72
1
41
1
210
0
220
0
230
1
3
Standard
100
AcDbAlignedDimension
13
58.93
23
8.5325
33
0
14
198
24
0
34
0
50
0
100
AcDbRotatedDimension
1001
ACAD
1000
DSTYLE
1002
{
1070
   371
1070
    13
1070
   372
1070
    13
1070
   170
1070
     0
1070
   144
1040
1.0
1070
   277
1070
     2
1070
   278
1070
    44
1070
   146
1040
1.0
1070
   345
1005
16
1070
   347
1005
16
1070
   346
1005
16
1070
   344
1005
0
1070
   343
1005
0
1070
   172
1070
     1
1070
    76
1070
     0
1070
    75
1070
     0
1070
   282
1070
     0
1070
   281
1070
     0
1070
    71
1070
     0
1070
    74
1070
     0
1070
   279
1070
     0
1070
   173
1070
     1
1070
   340
1005
10B
1070
   271
1070
     2
1070
   272
1070
     2
1070
    77
1070
     1
1070
    73
1070
     1
1070
   171
1070
     3
1070
   274
1070
     4
1070
   177
1070
    35
1070
   176
1070
    35
1070
   178
1070
    35
1070
    48
1040
-0.1
1070
    41
1040
3.5
1070
   147
1040
1.75
1070
    42
1040
1.5875
1070
    44
1040
2.0
1070
   140
1040
3.5
1002
}
1001
ACAD_DSTYLE_DIM_LINETYPE
1070
   380
1005
16
1001
ACAD_DSTYLE_DIM_EXT1_LINETYPE
1070
   381
1005
16
1001
ACAD_DSTYLE_DIM_EXT2_LINETYPE
1070
   382
1005
16
0
DIMENSION
5
16C
100
AcDbEntity
8
SK2
62
256
6
ByLayer
370
13
48
1
60
0
100
AcDbDimension
2
_U3
10
195.4513
20
-21.335003
30
0
11
215.583333
21
-21.335003
31
0
70
32
71
1
72
1
41
1
210
0
220
0
230
1
3
Standard
100
AcDbAlignedDimension
13
198
23
0
33
0
14
195.4513
24
-8.5325
34
0
50
0
100
AcDbRotatedDimension
1001
ACAD
1000
DSTYLE
1002
{
1070
   371
1070
    13
1070
   372
1070
    13
1070
   170
1070
     0
1070
   144
1040
1.0
1070
   277
1070
     2
1070
   278
1070
    44
1070
   146
1040
1.0
1070
   345
1005
16
1070
   347
1005
16
1070
   346
1005
16
1070
   344
1005
0
1070
   343
1005
0
1070
   172
1070
     1
1070
    76
1070
     0
1070
    75
1070
     0
1070
   282
1070
     0
1070
   281
1070
     0
1070
    71
1070
     0
1070
    74
1070
     0
1070
   279
1070
     0
1070
   173
1070
     1
1070
   340
1005
10B
1070
   271
1070
     2
1070
   272
1070
     2
1070
    77
1070
     1
1070
    73
1070
     1
1070
   171
1070
     3
1070
   274
1070
     4
1070
   177
1070
    35
1070
   176
1070
    35
1070
   178
1070
    35
1070
    48
1040
-0.1
1070
    41
1040
3.5
1070
   147
1040
1.75
1070
    42
1040
1.5875
1070
    44
1040
2.0
1070
   140
1040
3.5
1002
}
1001
ACAD_DSTYLE_DIM_LINETYPE
1070
   380
1005
16
1001
ACAD_DSTYLE_DIM_EXT1_LINETYPE
1070
   381
1005
16
1001
ACAD_DSTYLE_DIM_EXT2_LINETYPE
1070
   382
1005
16
0
DIMENSION
5
186
100
AcDbEntity
8
SK2
62
256
6
ByLayer
370
13
48
1
60
0
100
AcDbDimension
2
_U4
10
195.4513
20
-27.343428
30
0
11
73.72565
21
-27.343428
31
0
70
32
71
1
72
1
41
1
210
0
220
0
230
1
3
Standard
100
AcDbAlignedDimension
13
-48
23
-9
33
0
14
195.4513
24
-8.5325
34
0
50
0
100
AcDbRotatedDimension
1001
ACAD
1000
DSTYLE
1002
{
1070
   371
1070
    13
1070
   372
1070
    13
1070
   170
1070
     0
1070
   144
1040
1.0
1070
   277
1070
     2
1070
   278
1070
    44
1070
   146
1040
1.0
1070
   345
1005
16
1070
   347
1005
16
1070
   346
1005
16
1070
   344
1005
0
1070
   343
1005
0
1070
   172
1070
     1
1070
    76
1070
     0
1070
    75
1070
     0
1070
   282
1070
     0
1070
   281
1070
     0
1070
    71
1070
     0
1070
    74
1070
     0
1070
   279
1070
     0
1070
   173
1070
     1
1070
   340
1005
10B
1070
   271
1070
     2
1070
   272
1070
     2
1070
    77
1070
     1
1070
    73
1070
     1
1070
   171
1070
     3
1070
   274
1070
     4
1070
   177
1070
    35
1070
   176
1070
    35
1070
   178
1070
    35
1070
    48
1040
-0.1
1070
    41
1040
3.5
1070
   147
1040
1.75
1070
    42
1040
1.5875
1070
    44
1040
2.0
1070
   140
1040
3.5
1002
}
1001
ACAD_DSTYLE_DIM_LINETYPE
1070
   380
1005
16
1001
ACAD_DSTYLE_DIM_EXT1_LINETYPE
1070
   381
1005
16
1001
ACAD_DSTYLE_DIM_EXT2_LINETYPE
1070
   382
1005
16
0
ENDSEC
0
SECTION
2
OBJECTS
0
DICTIONARY
5
20e
330
0
100
AcDbDictionary
280
0
281
1
3
ACAD_GROUP
350
20f
3
ACAD_MLINESTYLE
350
210
0
DICTIONARY
5
20f
330
0
100
AcDbDictionary
280
0
281
1
0
DICTIONARY
5
210
330
0
100
AcDbDictionary
280
0
281
1
3
Standard
350
18
0
MLINESTYLE
5
18
330
210
100
AcDbMlineStyle
2
Standard
70
0
3

62
256
51
90
52
90
71
2
49
-0.5
62
256
6
ByLayer
49
0.5
62
256
6
ByLayer
0
RASTERVARIABLES
5
1fc
330

100
AcDbRasterVariables
90
0
70
1
71
1
72
1
0
ENDSEC
0
EOF
