0
SECTION
2
HEADER
9
$ACADVER
1
AC1015
9
$DWGCODEPAGE
3
ANSI_1252
9
$HANDSEED
5
219
9
$ANGBASE
50
0
9
$ANGDIR
70
0
9
$ATTMODE
70
1
9
$AUNITS
70
0
9
$AUPREC
70
0
9
$CECOLOR
62
256
9
$CELTSCALE
40
1
9
$CELTYPE
6
ByLayer
9
$CELWEIGHT
370
18
9
$CLAYER
8
0
9
$CMLJUST
70
0
9
$CMLSCALE
40
1
9
$CMLSTYLE
2
Standard
9
$DIMSTYLE
2
Standard
9
$TEXTSIZE
40
0.2
9
$TEXTSTYLE
7
Standard
9
$LUNITS
70
2
9
$LUPREC
70
4
9
$EXTNAMES
290
1
9
$INSUNITS
70
4
9
$LTSCALE
40
1
9
$LWDISPLAY
290
1
9
$PDMODE
70
0
9
$PDSIZE
40
0
9
$PLINEGEN
70
0
0
ENDSEC
0
SECTION
2
CLASSES
0
CLASS
1
RASTERVARIABLES
2
AcDbRasterVariables
3
ISM
90
0
280
0
281
0
0
ENDSEC
0
SECTION
2
TABLES
0
TABLE
2
VPORT
5
20f
100
AcDbSymbolTable
0
VPORT
5
1
100
AcDbSymbolTableRecord
100
AcDbViewportTableRecord
2
*Active
70
0
10
0
20
0
11
1
21
1
12
-1
22
1
13
0
23
0
14
0.5
24
0.5
15
10
25
10
16
0
26
0
36
1
17
0
27
0
37
0
0
ENDTAB
0
TABLE
2
LTYPE
5
210
100
AcDbSymbolTable
0
LTYPE
5
14
100
AcDbSymbolTableRecord
100
AcDbLinetypeTableRecord
70
0
2
ByBlock
3

72
65
73
0
40
0
0
LTYPE
5
15
100
AcDbSymbolTableRecord
100
AcDbLinetypeTableRecord
70
0
2
ByLayer
3

72
65
73
0
40
0
0
LTYPE
5
16
100
AcDbSymbolTableRecord
100
AcDbLinetypeTableRecord
70
0
2
Continuous
3
Solid line
72
65
73
0
40
0
0
LTYPE
5
6E
100
AcDbSymbolTableRecord
100
AcDbLinetypeTableRecord
70
0
2
CENTER
3
____ _ ____ _ ____ _ ____
72
65
73
4
40
47.5
49
22
74
0
49
-8.5
74
0
49
8.5
74
0
49
-8.5
74
0
0
LTYPE
5
6F
100
AcDbSymbolTableRecord
100
AcDbLinetypeTableRecord
70
0
2
DASHED
3
__ __ __ __ __ __ __ __ __
72
65
73
2
40
25.72
49
12.86
74
0
49
-12.86
74
0
0
ENDTAB
0
TABLE
2
LAYER
5
211
100
AcDbSymbolTable
0
LAYER
5
10
100
AcDbSymbolTableRecord
100
AcDbLayerTableRecord
2
0
70
0
62
7
6
Continuous
290
1
370
-3
390
0
0
LAYER
5
71
100
AcDbSymbolTableRecord
100
AcDbLayerTableRecord
2
80
70
0
62
-6
6
Continuous
290
1
370
-3
390
0
0
LAYER
5
73
100
AcDbSymbolTableRecord
100
AcDbLayerTableRecord
2
81
70
0
62
-3
6
Continuous
290
1
370
-3
390
0
0
LAYER
5
75
100
AcDbSymbolTableRecord
100
AcDbLayerTableRecord
2
1
70
0
62
4
6
Continuous
290
1
370
-3
390
0
0
LAYER
5
8B
100
AcDbSymbolTableRecord
100
AcDbLayerTableRecord
2
4
70
0
62
-2
6
CENTER
290
1
370
-3
390
0
0
LAYER
5
A8
100
AcDbSymbolTableRecord
100
AcDbLayerTableRecord
2
2
70
0
62
7
6
Continuous
290
1
370
-3
390
0
0
LAYER
5
124
100
AcDbSymbolTableRecord
100
AcDbLayerTableRecord
2
Defpoints
70
0
62
7
6
Continuous
290
0
370
-3
390
0
0
LAYER
5
1fb
100
AcDbSymbolTableRecord
100
AcDbLayerTableRecord
2
SK1
70
0
62
4
6
Continuous
290
1
370
-3
390
0
0
LAYER
5
1fc
100
AcDbSymbolTableRecord
100
AcDbLayerTableRecord
2
SK4
70
0
62
2
6
CENTER
290
1
370
-3
390
0
0
LAYER
5
1fd
100
AcDbSymbolTableRecord
100
AcDbLayerTableRecord
2
SK2
70
0
62
7
6
Continuous
290
1
370
-3
390
0
0
LAYER
5
1fe
100
AcDbSymbolTableRecord
100
AcDbLayerTableRecord
2
SK6
70
0
62
5
6
Continuous
290
1
370
-3
390
0
0
ENDTAB
0
TABLE
2
STYLE
5
212
100
AcDbSymbolTable
0
STYLE
5
11
100
AcDbSymbolTableRecord
100
AcDbTextStyleTableRecord
2
Standard
3
txt
70
0
71
0
40
0
41
1
42
0
50
0
0
STYLE
5
109
100
AcDbSymbolTableRecord
100
AcDbTextStyleTableRecord
2
iso_b_vert
3
simplex.shx
70
0
71
0
40
0
41
1
42
0
50
0
0
STYLE
5
10A
100
AcDbSymbolTableRecord
100
AcDbTextStyleTableRecord
2
DWGDirectTextStyle
3
simplex
70
0
71
0
40
0
41
1
42
0
50
0
0
ENDTAB
0
TABLE
2
DIMSTYLE
5
213
100
AcDbSymbolTable
100
AcDbDimStyleTable
0
DIMSTYLE
105
27
100
AcDbSymbolTableRecord
100
AcDbDimStyleTableRecord
2
Standard
70
0
3
<>
41
0.18
42
0.0625
44
0.18
140
0.18
147
0.09
73
0
74
0
77
1
271
2
275
0
278
52
280
0
340
11
0
ENDTAB
0
TABLE
2
VIEW
5
214
100
AcDbSymbolTable
0
ENDTAB
0
TABLE
2
UCS
5
215
100
AcDbSymbolTable
0
ENDTAB
0
TABLE
2
APPID
5
216
100
AcDbSymbolTable
0
APPID
5
12
100
AcDbSymbolTableRecord
100
AcDbRegAppTableRecord
2
ACAD
70
0
0
APPID
5
120
100
AcDbSymbolTableRecord
100
AcDbRegAppTableRecord
2
ACAD_DSTYLE_DIMBREAK
70
0
0
APPID
5
1BA
100
AcDbSymbolTableRecord
100
AcDbRegAppTableRecord
2
ACAD_DSTYLE_DIM_LINETYPE
70
0
0
APPID
5
1BB
100
AcDbSymbolTableRecord
100
AcDbRegAppTableRecord
2
ACAD_DSTYLE_DIM_EXT1_LINETYPE
70
0
0
APPID
5
1BC
100
AcDbSymbolTableRecord
100
AcDbRegAppTableRecord
2
ACAD_DSTYLE_DIM_EXT2_LINETYPE
70
0
0
APPID
5
1F7
100
AcDbSymbolTableRecord
100
AcDbRegAppTableRecord
2
ACAD_MLEADERVER
70
0
0
ENDTAB
0
TABLE
2
BLOCK_RECORD
5
217
100
AcDbSymbolTable
0
BLOCK_RECORD
5
1F
100
AcDbSymbolTableRecord
100
AcDbBlockTableRecord
2
*Model_Space
340
0
70
0
0
BLOCK_RECORD
5
1B
100
AcDbSymbolTableRecord
100
AcDbBlockTableRecord
2
*Paper_Space
340
0
70
0
0
BLOCK_RECORD
5
23
100
AcDbSymbolTableRecord
100
AcDbBlockTableRecord
2
*Paper_Space0
340
0
70
0
0
BLOCK_RECORD
5
125
100
AcDbSymbolTableRecord
100
AcDbBlockTableRecord
2
*D1
340
0
70
0
0
BLOCK_RECORD
5
131
100
AcDbSymbolTableRecord
100
AcDbBlockTableRecord
2
_U0
340
0
70
0
0
BLOCK_RECORD
5
13D
100
AcDbSymbolTableRecord
100
AcDbBlockTableRecord
2
*D3
340
0
70
0
0
BLOCK_RECORD
5
149
100
AcDbSymbolTableRecord
100
AcDbBlockTableRecord
2
_U1
340
0
70
0
0
BLOCK_RECORD
5
155
100
AcDbSymbolTableRecord
100
AcDbBlockTableRecord
2
*D5
340
0
70
0
0
BLOCK_RECORD
5
161
100
AcDbSymbolTableRecord
100
AcDbBlockTableRecord
2
_U2
340
0
70
0
0
BLOCK_RECORD
5
16D
100
AcDbSymbolTableRecord
100
AcDbBlockTableRecord
2
*D7
340
0
70
0
0
BLOCK_RECORD
5
17B
100
AcDbSymbolTableRecord
100
AcDbBlockTableRecord
2
_U3
340
0
70
0
0
BLOCK_RECORD
5
187
100
AcDbSymbolTableRecord
100
AcDbBlockTableRecord
2
*D9
340
0
70
0
0
BLOCK_RECORD
5
193
100
AcDbSymbolTableRecord
100
AcDbBlockTableRecord
2
_U4
340
0
70
0
0
ENDTAB
0
ENDSEC
0
SECTION
2
BLOCKS
0
BLOCK
5
20
100
AcDbEntity
8
0
100
AcDbBlockBegin
2
*Model_Space
70
0
10
0
20
0
30
0
3
*Model_Space
0
ENDBLK
5
21
100
AcDbEntity
8
0
100
AcDbBlockEnd
0
BLOCK
5
1C
100
AcDbEntity
8
0
100
AcDbBlockBegin
2
*Paper_Space
70
0
10
0
20
0
30
0
3
*Paper_Space
0
ENDBLK
5
1D
100
AcDbEntity
8
0
100
AcDbBlockEnd
0
BLOCK
5
24
100
AcDbEntity
8
0
100
AcDbBlockBegin
2
*Paper_Space0
70
0
10
0
20
0
30
0
3
*Paper_Space0
0
ENDBLK
5
25
100
AcDbEntity
8
0
100
AcDbBlockEnd
0
BLOCK
5
126
100
AcDbEntity
8
0
100
AcDbBlockBegin
2
*D1
70
1
10
0
20
0
30
0
3
*D1
0
LINE
5
128
100
AcDbEntity
8
0
62
256
6
ByLayer
370
-2
48
1
60
0
100
AcDbLine
10
0
20
-1.5875
30
0
11
0
21
-14.792898
31
0
39
0
210
0
220
0
230
1
0
LINE
5
129
100
AcDbEntity
8
0
62
256
6
ByLayer
370
-2
48
1
60
0
100
AcDbLine
10
67.2455
20
-4.167
30
0
11
67.2455
21
-14.792898
31
0
39
0
210
0
220
0
230
1
0
LINE
5
12A
100
AcDbEntity
8
0
62
256
6
ByLayer
370
-2
48
1
60
0
100
AcDbLine
10
3.5
20
-12.792898
30
0
11
63.7455
21
-12.792898
31
0
39
0
210
0
220
0
230
1
0
SOLID
5
12B
100
AcDbEntity
8
0
62
256
6
ByLayer
370
-1
48
1
60
0
100
AcDbTrace
10
3.5
20
-12.209565
30
0
11
3.5
21
-13.376232
31
0
12
0
22
-12.792898
32
0
13
0
23
-12.792898
33
0
39
0
210
0
220
0
230
1
0
SOLID
5
12C
100
AcDbEntity
8
0
62
256
6
ByLayer
370
-1
48
1
60
0
100
AcDbTrace
10
63.7455
20
-13.376232
30
0
11
63.7455
21
-12.209565
31
0
12
67.2455
22
-12.792898
32
0
13
67.2455
23
-12.792898
33
0
39
0
210
0
220
0
230
1
0
MTEXT
5
12D
100
AcDbEntity
8
0
62
256
6
ByLayer
370
18
48
1
60
0
100
AcDbMText
10
33.62275
20
-5.792898
30
0
210
0
220
0
230
1
1
\A1;67.25
40
3.5
41
0
44
1
50
0
71
5
72
5
7
iso_b_vert
0
POINT
5
12E
100
AcDbEntity
8
Defpoints
62
0
6
ByLayer
370
-1
48
1
60
0
100
AcDbPoint
10
0
20
0
30
0
39
0
210
0
220
0
230
1
50
360
0
POINT
5
12F
100
AcDbEntity
8
Defpoints
62
0
6
ByLayer
370
-1
48
1
60
0
100
AcDbPoint
10
67.2455
20
-2.5795
30
0
39
0
210
0
220
0
230
1
50
360
0
POINT
5
130
100
AcDbEntity
8
Defpoints
62
0
6
ByLayer
370
-1
48
1
60
0
100
AcDbPoint
10
67.2455
20
-12.792898
30
0
39
0
210
0
220
0
230
1
50
360
0
ENDBLK
5
127
100
AcDbEntity
8
0
100
AcDbBlockEnd
0
BLOCK
5
138
100
AcDbEntity
8
0
100
AcDbBlockBegin
2
_U0
70
0
10
0
20
0
30
0
3
_U0
0
MTEXT
5
132
100
AcDbEntity
8
SK2
62
256
6
ByLayer
370
13
48
1
60
0
100
AcDbMText
10
28.485451
20
-11.760265
30
0
210
0
220
0
230
1
1
\W0.7317;67,25
40
3.5
41
0
44
1.084337
50
0
71
7
72
5
7
iso_b_vert
0
LINE
5
133
100
AcDbEntity
8
SK2
62
256
6
ByLayer
370
13
48
1
60
0
100
AcDbLine
10
0
20
-1.5875
30
0
11
0
21
-14.792898
31
0
39
0
210
0
220
0
230
1
0
LINE
5
134
100
AcDbEntity
8
SK2
62
256
6
ByLayer
370
13
48
1
60
0
100
AcDbLine
10
67.2455
20
-4.167
30
0
11
67.2455
21
-14.792898
31
0
39
0
210
0
220
0
230
1
0
LINE
5
135
100
AcDbEntity
8
SK2
62
256
6
ByLayer
370
13
48
1
60
0
100
AcDbLine
10
0
20
-12.792898
30
0
11
67.2455
21
-12.792898
31
0
39
0
210
0
220
0
230
1
0
SOLID
5
136
100
AcDbEntity
8
SK2
62
256
6
ByLayer
370
18
48
1
60
0
100
AcDbTrace
10
0
20
-12.792898
30
0
11
3.499998
21
-12.332115
31
0
12
3.500002
22
-13.253682
32
0
13
3.500002
23
-13.253682
33
0
39
0
210
0
220
0
230
1
0
SOLID
5
137
100
AcDbEntity
8
SK2
62
256
6
ByLayer
370
18
48
1
60
0
100
AcDbTrace
10
67.2455
20
-12.792898
30
0
11
63.745502
21
-13.253682
31
0
12
63.745498
22
-12.332115
32
0
13
63.745498
23
-12.332115
33
0
39
0
210
0
220
0
230
1
0
ENDBLK
5
139
100
AcDbEntity
8
0
100
AcDbBlockEnd
0
BLOCK
5
13E
100
AcDbEntity
8
0
100
AcDbBlockBegin
2
*D3
70
1
10
0
20
0
30
0
3
*D3
0
LINE
5
140
100
AcDbEntity
8
0
62
256
6
ByLayer
370
-2
48
1
60
0
100
AcDbLine
10
-36
20
-4.5875
30
0
11
-36
21
-33.692985
31
0
39
0
210
0
220
0
230
1
0
LINE
5
141
100
AcDbEntity
8
0
62
256
6
ByLayer
370
-2
48
1
60
0
100
AcDbLine
10
68
20
-1.5875
30
0
11
68
21
-33.692985
31
0
39
0
210
0
220
0
230
1
0
LINE
5
142
100
AcDbEntity
8
0
62
256
6
ByLayer
370
-2
48
1
60
0
100
AcDbLine
10
-32.5
20
-31.692985
30
0
11
64.5
21
-31.692985
31
0
39
0
210
0
220
0
230
1
0
SOLID
5
143
100
AcDbEntity
8
0
62
256
6
ByLayer
370
-1
48
1
60
0
100
AcDbTrace
10
-32.5
20
-31.109652
30
0
11
-32.5
21
-32.276319
31
0
12
-36
22
-31.692985
32
0
13
-36
23
-31.692985
33
0
39
0
210
0
220
0
230
1
0
SOLID
5
144
100
AcDbEntity
8
0
62
256
6
ByLayer
370
-1
48
1
60
0
100
AcDbTrace
10
64.5
20
-32.276319
30
0
11
64.5
21
-31.109652
31
0
12
68
22
-31.692985
32
0
13
68
23
-31.692985
33
0
39
0
210
0
220
0
230
1
0
MTEXT
5
145
100
AcDbEntity
8
0
62
256
6
ByLayer
370
18
48
1
60
0
100
AcDbMText
10
16
20
-24.692985
30
0
210
0
220
0
230
1
1
\A1;104.00
40
3.5
41
0
44
1
50
0
71
5
72
5
7
iso_b_vert
0
POINT
5
146
100
AcDbEntity
8
Defpoints
62
0
6
ByLayer
370
-1
48
1
60
0
100
AcDbPoint
10
-36
20
-3
30
0
39
0
210
0
220
0
230
1
50
360
0
POINT
5
147
100
AcDbEntity
8
Defpoints
62
0
6
ByLayer
370
-1
48
1
60
0
100
AcDbPoint
10
68
20
0
30
0
39
0
210
0
220
0
230
1
50
360
0
POINT
5
148
100
AcDbEntity
8
Defpoints
62
0
6
ByLayer
370
-1
48
1
60
0
100
AcDbPoint
10
68
20
-31.692985
30
0
39
0
210
0
220
0
230
1
50
360
0
ENDBLK
5
13F
100
AcDbEntity
8
0
100
AcDbBlockEnd
0
BLOCK
5
150
100
AcDbEntity
8
0
100
AcDbBlockBegin
2
_U1
70
0
10
0
20
0
30
0
3
_U1
0
MTEXT
5
14A
100
AcDbEntity
8
SK2
62
256
6
ByLayer
370
13
48
1
60
0
100
AcDbMText
10
9.808135
20
-30.660352
30
0
210
0
220
0
230
1
1
\W0.7145;104,00
40
3.5
41
0
44
1.084337
50
0
71
7
72
5
7
iso_b_vert
0
LINE
5
14B
100
AcDbEntity
8
SK2
62
256
6
ByLayer
370
13
48
1
60
0
100
AcDbLine
10
-36
20
-4.5875
30
0
11
-36
21
-33.692985
31
0
39
0
210
0
220
0
230
1
0
LINE
5
14C
100
AcDbEntity
8
SK2
62
256
6
ByLayer
370
13
48
1
60
0
100
AcDbLine
10
68
20
-1.5875
30
0
11
68
21
-33.692985
31
0
39
0
210
0
220
0
230
1
0
LINE
5
14D
100
AcDbEntity
8
SK2
62
256
6
ByLayer
370
13
48
1
60
0
100
AcDbLine
10
-36
20
-31.692985
30
0
11
68
21
-31.692985
31
0
39
0
210
0
220
0
230
1
0
SOLID
5
14E
100
AcDbEntity
8
SK2
62
256
6
ByLayer
370
18
48
1
60
0
100
AcDbTrace
10
-36
20
-31.692985
30
0
11
-32.500002
21
-31.232202
31
0
12
-32.499998
22
-32.153769
32
0
13
-32.499998
23
-32.153769
33
0
39
0
210
0
220
0
230
1
0
SOLID
5
14F
100
AcDbEntity
8
SK2
62
256
6
ByLayer
370
18
48
1
60
0
100
AcDbTrace
10
68
20
-31.692985
30
0
11
64.500002
21
-32.153769
31
0
12
64.499998
22
-31.232202
32
0
13
64.499998
23
-31.232202
33
0
39
0
210
0
220
0
230
1
0
ENDBLK
5
151
100
AcDbEntity
8
0
100
AcDbBlockEnd
0
BLOCK
5
156
100
AcDbEntity
8
0
100
AcDbBlockBegin
2
*D5
70
1
10
0
20
0
30
0
3
*D5
0
LINE
5
158
100
AcDbEntity
8
0
62
256
6
ByLayer
370
-2
48
1
60
0
100
AcDbLine
10
25.97
20
4.167
30
0
11
25.97
21
16.188619
31
0
39
0
210
0
220
0
230
1
0
LINE
5
159
100
AcDbEntity
8
0
62
256
6
ByLayer
370
-2
48
1
60
0
100
AcDbLine
10
68
20
1.5875
30
0
11
68
21
16.188619
31
0
39
0
210
0
220
0
230
1
0
LINE
5
15A
100
AcDbEntity
8
0
62
256
6
ByLayer
370
-2
48
1
60
0
100
AcDbLine
10
29.47
20
14.188619
30
0
11
64.5
21
14.188619
31
0
39
0
210
0
220
0
230
1
0
SOLID
5
15B
100
AcDbEntity
8
0
62
256
6
ByLayer
370
-1
48
1
60
0
100
AcDbTrace
10
29.47
20
14.771953
30
0
11
29.47
21
13.605286
31
0
12
25.97
22
14.188619
32
0
13
25.97
23
14.188619
33
0
39
0
210
0
220
0
230
1
0
SOLID
5
15C
100
AcDbEntity
8
0
62
256
6
ByLayer
370
-1
48
1
60
0
100
AcDbTrace
10
64.5
20
13.605286
30
0
11
64.5
21
14.771953
31
0
12
68
22
14.188619
32
0
13
68
23
14.188619
33
0
39
0
210
0
220
0
230
1
0
MTEXT
5
15D
100
AcDbEntity
8
0
62
256
6
ByLayer
370
18
48
1
60
0
100
AcDbMText
10
46.985
20
21.188619
30
0
210
0
220
0
230
1
1
\A1;42.03
40
3.5
41
0
44
1
50
0
71
5
72
5
7
iso_b_vert
0
POINT
5
15E
100
AcDbEntity
8
Defpoints
62
0
6
ByLayer
370
-1
48
1
60
0
100
AcDbPoint
10
25.97
20
2.5795
30
0
39
0
210
0
220
0
230
1
50
360
0
POINT
5
15F
100
AcDbEntity
8
Defpoints
62
0
6
ByLayer
370
-1
48
1
60
0
100
AcDbPoint
10
68
20
0
30
0
39
0
210
0
220
0
230
1
50
360
0
POINT
5
160
100
AcDbEntity
8
Defpoints
62
0
6
ByLayer
370
-1
48
1
60
0
100
AcDbPoint
10
68
20
14.188619
30
0
39
0
210
0
220
0
230
1
50
360
0
ENDBLK
5
157
100
AcDbEntity
8
0
100
AcDbBlockEnd
0
BLOCK
5
168
100
AcDbEntity
8
0
100
AcDbBlockBegin
2
_U2
70
0
10
0
20
0
30
0
3
_U2
0
MTEXT
5
162
100
AcDbEntity
8
SK2
62
256
6
ByLayer
370
13
48
1
60
0
100
AcDbMText
10
41.663435
20
15.221253
30
0
210
0
220
0
230
1
1
\W0.7581;42,03
40
3.5
41
0
44
1.084337
50
0
71
7
72
5
7
iso_b_vert
0
LINE
5
163
100
AcDbEntity
8
SK2
62
256
6
ByLayer
370
13
48
1
60
0
100
AcDbLine
10
25.97
20
4.167
30
0
11
25.97
21
16.188619
31
0
39
0
210
0
220
0
230
1
0
LINE
5
164
100
AcDbEntity
8
SK2
62
256
6
ByLayer
370
13
48
1
60
0
100
AcDbLine
10
68
20
1.5875
30
0
11
68
21
16.188619
31
0
39
0
210
0
220
0
230
1
0
LINE
5
165
100
AcDbEntity
8
SK2
62
256
6
ByLayer
370
13
48
1
60
0
100
AcDbLine
10
25.97
20
14.188619
30
0
11
68
21
14.188619
31
0
39
0
210
0
220
0
230
1
0
SOLID
5
166
100
AcDbEntity
8
SK2
62
256
6
ByLayer
370
18
48
1
60
0
100
AcDbTrace
10
25.97
20
14.188619
30
0
11
29.469998
21
14.649403
31
0
12
29.470002
22
13.727835
32
0
13
29.470002
23
13.727835
33
0
39
0
210
0
220
0
230
1
0
SOLID
5
167
100
AcDbEntity
8
SK2
62
256
6
ByLayer
370
18
48
1
60
0
100
AcDbTrace
10
68
20
14.188619
30
0
11
64.500002
21
13.727835
31
0
12
64.499998
22
14.649403
32
0
13
64.499998
23
14.649403
33
0
39
0
210
0
220
0
230
1
0
ENDBLK
5
169
100
AcDbEntity
8
0
100
AcDbBlockEnd
0
BLOCK
5
16E
100
AcDbEntity
8
0
100
AcDbBlockBegin
2
*D7
70
1
10
0
20
0
30
0
3
*D7
0
LINE
5
170
100
AcDbEntity
8
0
62
256
6
ByLayer
370
-2
48
1
60
0
100
AcDbLine
10
68
20
-1.5875
30
0
11
68
21
-17.382003
31
0
39
0
210
0
220
0
230
1
0
LINE
5
171
100
AcDbEntity
8
0
62
256
6
ByLayer
370
-2
48
1
60
0
100
AcDbLine
10
67.2455
20
-4.167
30
0
11
67.2455
21
-17.382003
31
0
39
0
210
0
220
0
230
1
0
LINE
5
172
100
AcDbEntity
8
0
62
256
6
ByLayer
370
-2
48
1
60
0
100
AcDbLine
10
68
20
-15.382003
30
0
11
96.166667
21
-15.382003
31
0
39
0
210
0
220
0
230
1
0
LINE
5
173
100
AcDbEntity
8
0
62
256
6
ByLayer
370
-2
48
1
60
0
100
AcDbLine
10
71.5
20
-15.382003
30
0
11
75
21
-15.382003
31
0
39
0
210
0
220
0
230
1
0
LINE
5
174
100
AcDbEntity
8
0
62
256
6
ByLayer
370
-2
48
1
60
0
100
AcDbLine
10
63.7455
20
-15.382003
30
0
11
60.2455
21
-15.382003
31
0
39
0
210
0
220
0
230
1
0
SOLID
5
175
100
AcDbEntity
8
0
62
256
6
ByLayer
370
-1
48
1
60
0
100
AcDbTrace
10
71.5
20
-14.79867
30
0
11
71.5
21
-15.965337
31
0
12
68
22
-15.382003
32
0
13
68
23
-15.382003
33
0
39
0
210
0
220
0
230
1
0
SOLID
5
176
100
AcDbEntity
8
0
62
256
6
ByLayer
370
-1
48
1
60
0
100
AcDbTrace
10
63.7455
20
-15.965337
30
0
11
63.7455
21
-14.79867
31
0
12
67.2455
22
-15.382003
32
0
13
67.2455
23
-15.382003
33
0
39
0
210
0
220
0
230
1
0
MTEXT
5
177
100
AcDbEntity
8
0
62
256
6
ByLayer
370
18
48
1
60
0
100
AcDbMText
10
85.583333
20
-8.382003
30
0
210
0
220
0
230
1
1
\A1;0.75
40
3.5
41
0
44
1
50
0
71
5
72
5
7
iso_b_vert
0
POINT
5
178
100
AcDbEntity
8
Defpoints
62
0
6
ByLayer
370
-1
48
1
60
0
100
AcDbPoint
10
68
20
0
30
0
39
0
210
0
220
0
230
1
50
360
0
POINT
5
179
100
AcDbEntity
8
Defpoints
62
0
6
ByLayer
370
-1
48
1
60
0
100
AcDbPoint
10
67.2455
20
-2.5795
30
0
39
0
210
0
220
0
230
1
50
360
0
POINT
5
17A
100
AcDbEntity
8
Defpoints
62
0
6
ByLayer
370
-1
48
1
60
0
100
AcDbPoint
10
67.2455
20
-15.382003
30
0
39
0
210
0
220
0
230
1
50
360
0
ENDBLK
5
16F
100
AcDbEntity
8
0
100
AcDbBlockEnd
0
BLOCK
5
182
100
AcDbEntity
8
0
100
AcDbBlockBegin
2
_U3
70
0
10
0
20
0
30
0
3
_U3
0
MTEXT
5
17C
100
AcDbEntity
8
SK2
62
256
6
ByLayer
370
13
48
1
60
0
100
AcDbMText
10
74.15186
20
-14.34937
30
0
210
0
220
0
230
1
1
\W0.7150;0,75
40
3.5
41
0
44
1.084337
50
0
71
7
72
5
7
iso_b_vert
0
LINE
5
17D
100
AcDbEntity
8
SK2
62
256
6
ByLayer
370
13
48
1
60
0
100
AcDbLine
10
68
20
-1.5875
30
0
11
68
21
-17.382003
31
0
39
0
210
0
220
0
230
1
0
LINE
5
17E
100
AcDbEntity
8
SK2
62
256
6
ByLayer
370
13
48
1
60
0
100
AcDbLine
10
67.2455
20
-4.167
30
0
11
67.2455
21
-17.382003
31
0
39
0
210
0
220
0
230
1
0
LINE
5
17F
100
AcDbEntity
8
SK2
62
256
6
ByLayer
370
13
48
1
60
0
100
AcDbLine
10
58.4955
20
-15.382003
30
0
11
81.996491
21
-15.382003
31
0
39
0
210
0
220
0
230
1
0
SOLID
5
180
100
AcDbEntity
8
SK2
62
256
6
ByLayer
370
18
48
1
60
0
100
AcDbTrace
10
68
20
-15.382003
30
0
11
71.499998
21
-14.921219
31
0
12
71.500002
22
-15.842787
32
0
13
71.500002
23
-15.842787
33
0
39
0
210
0
220
0
230
1
0
SOLID
5
181
100
AcDbEntity
8
SK2
62
256
6
ByLayer
370
18
48
1
60
0
100
AcDbTrace
10
67.2455
20
-15.382003
30
0
11
63.745502
21
-15.842787
31
0
12
63.745498
22
-14.921219
32
0
13
63.745498
23
-14.921219
33
0
39
0
210
0
220
0
230
1
0
ENDBLK
5
183
100
AcDbEntity
8
0
100
AcDbBlockEnd
0
BLOCK
5
188
100
AcDbEntity
8
0
100
AcDbBlockBegin
2
*D9
70
1
10
0
20
0
30
0
3
*D9
0
LINE
5
18A
100
AcDbEntity
8
0
62
256
6
ByLayer
370
-2
48
1
60
0
100
AcDbLine
10
-36
20
-4.5875
30
0
11
-36
21
-23.343428
31
0
39
0
210
0
220
0
230
1
0
LINE
5
18B
100
AcDbEntity
8
0
62
256
6
ByLayer
370
-2
48
1
60
0
100
AcDbLine
10
67.2455
20
-4.167
30
0
11
67.2455
21
-23.343428
31
0
39
0
210
0
220
0
230
1
0
LINE
5
18C
100
AcDbEntity
8
0
62
256
6
ByLayer
370
-2
48
1
60
0
100
AcDbLine
10
-32.5
20
-21.343428
30
0
11
63.7455
21
-21.343428
31
0
39
0
210
0
220
0
230
1
0
SOLID
5
18D
100
AcDbEntity
8
0
62
256
6
ByLayer
370
-1
48
1
60
0
100
AcDbTrace
10
-32.5
20
-20.760095
30
0
11
-32.5
21
-21.926762
31
0
12
-36
22
-21.343428
32
0
13
-36
23
-21.343428
33
0
39
0
210
0
220
0
230
1
0
SOLID
5
18E
100
AcDbEntity
8
0
62
256
6
ByLayer
370
-1
48
1
60
0
100
AcDbTrace
10
63.7455
20
-21.926762
30
0
11
63.7455
21
-20.760095
31
0
12
67.2455
22
-21.343428
32
0
13
67.2455
23
-21.343428
33
0
39
0
210
0
220
0
230
1
0
MTEXT
5
18F
100
AcDbEntity
8
0
62
256
6
ByLayer
370
18
48
1
60
0
100
AcDbMText
10
15.62275
20
-14.343428
30
0
210
0
220
0
230
1
1
\A1;103.25
40
3.5
41
0
44
1
50
0
71
5
72
5
7
iso_b_vert
0
POINT
5
190
100
AcDbEntity
8
Defpoints
62
0
6
ByLayer
370
-1
48
1
60
0
100
AcDbPoint
10
-36
20
-3
30
0
39
0
210
0
220
0
230
1
50
360
0
POINT
5
191
100
AcDbEntity
8
Defpoints
62
0
6
ByLayer
370
-1
48
1
60
0
100
AcDbPoint
10
67.2455
20
-2.5795
30
0
39
0
210
0
220
0
230
1
50
360
0
POINT
5
192
100
AcDbEntity
8
Defpoints
62
0
6
ByLayer
370
-1
48
1
60
0
100
AcDbPoint
10
67.2455
20
-21.343428
30
0
39
0
210
0
220
0
230
1
50
360
0
ENDBLK
5
189
100
AcDbEntity
8
0
100
AcDbBlockEnd
0
BLOCK
5
19A
100
AcDbEntity
8
0
100
AcDbBlockBegin
2
_U4
70
0
10
0
20
0
30
0
3
_U4
0
MTEXT
5
194
100
AcDbEntity
8
SK2
62
256
6
ByLayer
370
13
48
1
60
0
100
AcDbMText
10
9.615151
20
-20.310795
30
0
210
0
220
0
230
1
1
\W0.6930;103,25
40
3.5
41
0
44
1.084337
50
0
71
7
72
5
7
iso_b_vert
0
LINE
5
195
100
AcDbEntity
8
SK2
62
256
6
ByLayer
370
13
48
1
60
0
100
AcDbLine
10
-36
20
-4.5875
30
0
11
-36
21
-23.343428
31
0
39
0
210
0
220
0
230
1
0
LINE
5
196
100
AcDbEntity
8
SK2
62
256
6
ByLayer
370
13
48
1
60
0
100
AcDbLine
10
67.2455
20
-4.167
30
0
11
67.2455
21
-23.343428
31
0
39
0
210
0
220
0
230
1
0
LINE
5
197
100
AcDbEntity
8
SK2
62
256
6
ByLayer
370
13
48
1
60
0
100
AcDbLine
10
-36
20
-21.343428
30
0
11
67.2455
21
-21.343428
31
0
39
0
210
0
220
0
230
1
0
SOLID
5
198
100
AcDbEntity
8
SK2
62
256
6
ByLayer
370
18
48
1
60
0
100
AcDbTrace
10
-36
20
-21.343428
30
0
11
-32.500002
21
-20.882645
31
0
12
-32.499998
22
-21.804212
32
0
13
-32.499998
23
-21.804212
33
0
39
0
210
0
220
0
230
1
0
SOLID
5
199
100
AcDbEntity
8
SK2
62
256
6
ByLayer
370
18
48
1
60
0
100
AcDbTrace
10
67.2455
20
-21.343428
30
0
11
63.745502
21
-21.804212
31
0
12
63.745498
22
-20.882645
32
0
13
63.745498
23
-20.882645
33
0
39
0
210
0
220
0
230
1
0
ENDBLK
5
19B
100
AcDbEntity
8
0
100
AcDbBlockEnd
0
ENDSEC
0
SECTION
2
ENTITIES
0
ARC
5
B1
100
AcDbEntity
8
1
62
256
6
ByLayer
370
18
48
1
60
0
100
AcDbCircle
39
0
10
1.124492
20
-3.338208
30
0
40
0.799999999999998
210
0
220
0
230
1
100
AcDbArc
50
89.96419
51
134.652684
0
ARC
5
B2
100
AcDbEntity
8
1
62
256
6
ByLayer
370
18
48
1
60
0
100
AcDbCircle
39
0
10
1.124492
20
3.338208
30
0
40
0.799999999999998
210
0
220
0
230
1
100
AcDbArc
50
225.347316
51
270.03581
0
ARC
5
B3
100
AcDbEntity
8
1
62
256
6
ByLayer
370
18
48
1
60
0
100
AcDbCircle
39
0
10
0
20
-2.2
30
0
40
0.799999999999998
210
0
220
0
230
1
100
AcDbArc
50
270
51
314.652684
0
ARC
5
B4
100
AcDbEntity
8
1
62
256
6
ByLayer
370
18
48
1
60
0
100
AcDbCircle
39
0
10
0
20
2.2
30
0
40
0.799999999999998
210
0
220
0
230
1
100
AcDbArc
50
45.347316
51
90
0
ELLIPSE
5
B5
100
AcDbEntity
8
1
62
256
6
ByLayer
370
13
48
1
60
0
100
AcDbEllipse
10
8.250205
20
0.580798
30
0
11
0.0423127839248726
21
0.0906069992689695
31
0
210
0
220
0
230
1
40
0.10164
41
2.96258495077471
42
-1.78194734262976
0
ELLIPSE
5
B6
100
AcDbEntity
8
1
62
256
6
ByLayer
370
13
48
1
60
0
100
AcDbEllipse
10
8.184751
20
0.614463
30
0
11
-0.0495089675899277
21
-0.0868841880216389
31
0
210
0
220
0
230
1
40
0.294582
41
-1.1524827415542
42
0.123885382778868
0
POINT
5
70
100
AcDbEntity
8
80
62
256
6
ByLayer
370
18
48
1
60
0
100
AcDbPoint
10
0
20
0
30
0
39
0
210
0
220
0
230
1
50
360
0
POINT
5
72
100
AcDbEntity
8
81
62
256
6
ByLayer
370
18
48
1
60
0
100
AcDbPoint
10
68
20
0
30
0
39
0
210
0
220
0
230
1
50
360
0
POINT
5
74
100
AcDbEntity
8
1
62
256
6
ByLayer
370
18
48
1
60
1
100
AcDbPoint
10
67.2455
20
-2.5795
30
0
39
0
210
0
220
0
230
1
50
360
0
POINT
5
76
100
AcDbEntity
8
1
62
256
6
ByLayer
370
18
48
1
60
1
100
AcDbPoint
10
-36
20
-3
30
0
39
0
210
0
220
0
230
1
50
360
0
POINT
5
77
100
AcDbEntity
8
1
62
256
6
ByLayer
370
18
48
1
60
1
100
AcDbPoint
10
25.97
20
2.5795
30
0
39
0
210
0
220
0
230
1
50
360
0
POINT
5
78
100
AcDbEntity
8
1
62
256
6
ByLayer
370
18
48
1
60
1
100
AcDbPoint
10
67.2455
20
-2.5795
30
0
39
0
210
0
220
0
230
1
50
360
0
POINT
5
79
100
AcDbEntity
8
1
62
256
6
ByLayer
370
18
48
1
60
1
100
AcDbPoint
10
-36
20
-3
30
0
39
0
210
0
220
0
230
1
50
360
0
POINT
5
7A
100
AcDbEntity
8
1
62
256
6
ByLayer
370
18
48
1
60
1
100
AcDbPoint
10
67.2455
20
-2.5795
30
0
39
0
210
0
220
0
230
1
50
360
0
SPLINE
5
B7
100
AcDbEntity
8
SK1
62
256
6
ByLayer
370
18
48
1
60
0
100
AcDbSpline
70
4
71
3
72
8
73
4
40
0
40
0
40
0
40
0
40
1
40
1
40
1
40
1
41
1
10
-35.75
20
0.319668233172564
30
0
41
1
10
-35.833657003038
20
0.336489757817986
30
0
41
1
10
-35.9170320765623
20
0.353359743628374
30
0
41
1
10
-36
20
0.370299714901535
30
0
0
SPLINE
5
B8
100
AcDbEntity
8
SK1
62
256
6
ByLayer
370
18
48
1
60
0
100
AcDbSpline
70
4
71
3
72
12
73
8
40
0
40
0
40
0
40
0
40
0.25
40
0.25
40
0.5
40
0.5
40
1
40
1
40
1
40
1
41
1
10
-35.65
20
0.1956723955889
30
0
41
1
10
-35.65
20
0.21319249223572
30
0
41
1
10
-35.6543403470552
20
0.230067229605623
30
0
41
1
10
-35.6670034572333
20
0.258734610603995
30
0
41
1
10
-35.6754069618006
20
0.271028939431716
30
0
41
1
10
-35.7033744297257
20
0.30173754872169
30
0
41
1
10
-35.7260009806424
20
0.314842575057611
30
0
41
1
10
-35.7500000000001
20
0.319668233172649
30
0
0
SPLINE
5
B9
100
AcDbEntity
8
SK1
62
256
6
ByLayer
370
18
48
1
60
0
100
AcDbSpline
70
4
71
3
72
12
73
8
40
0
40
0
40
0
40
0
40
0.5
40
0.5
40
0.75
40
0.75
40
1
40
1
40
1
40
1
41
1
10
-35.75
20
-1.15294039889375
30
0
41
1
10
-35.7259913046562
20
-1.15776800263001
30
0
41
1
10
-35.7033433879313
20
-1.15478782821648
30
0
41
1
10
-35.6754686754417
20
-1.13826011482075
30
0
41
1
10
-35.667025596347
20
-1.13052075184834
30
0
41
1
10
-35.6543350076412
20
-1.10974273264665
30
0
41
1
10
-35.65
20
-1.09628511473991
30
0
41
1
10
-35.65
20
-1.08058841886847
30
0
0
SPLINE
5
BA
100
AcDbEntity
8
SK1
62
256
6
ByLayer
370
18
48
1
60
0
100
AcDbSpline
70
4
71
3
72
8
73
4
40
0
40
0
40
0
40
0
40
1
40
1
40
1
40
1
41
1
10
-35.75
20
-0.319668233172564
30
0
41
1
10
-35.833657003038
20
-0.336489757817986
30
0
41
1
10
-35.9170320765623
20
-0.353359743628346
30
0
41
1
10
-36
20
-0.370299714901535
30
0
0
SPLINE
5
BB
100
AcDbEntity
8
SK1
62
256
6
ByLayer
370
18
48
1
60
0
100
AcDbSpline
70
4
71
3
72
12
73
8
40
0
40
0
40
0
40
0
40
0.25
40
0.25
40
0.5
40
0.5
40
1
40
1
40
1
40
1
41
1
10
-35.65
20
-0.1956723955889
30
0
41
1
10
-35.65
20
-0.21319249223572
30
0
41
1
10
-35.6543403470552
20
-0.230067229605623
30
0
41
1
10
-35.6670034572333
20
-0.258734610603995
30
0
41
1
10
-35.6754069618006
20
-0.271028939431716
30
0
41
1
10
-35.7033744297257
20
-0.301737548721661
30
0
41
1
10
-35.7260009806424
20
-0.314842575057611
30
0
41
1
10
-35.7500000000001
20
-0.319668233172649
30
0
0
SPLINE
5
BC
100
AcDbEntity
8
SK1
62
256
6
ByLayer
370
18
48
1
60
0
100
AcDbSpline
70
4
71
3
72
8
73
4
40
0
40
0
40
0
40
0
40
1
40
1
40
1
40
1
41
1
10
-36
20
-1.10230891716466
30
0
41
1
10
-35.9170415379567
20
-1.11924695665812
30
0
41
1
10
-35.8336593506545
20
-1.13611840219579
30
0
41
1
10
-35.7499999999999
20
-1.15294039889363
30
0
0
SPLINE
5
BD
100
AcDbEntity
8
1
62
256
6
ByLayer
370
18
48
1
60
0
100
AcDbSpline
70
4
71
3
72
18
73
14
40
0
40
0
40
0
40
0
40
0.180929964830493
40
0.180929964830493
40
0.361859929660987
40
0.361859929660987
40
0.723719859321973
40
0.723719859321973
40
0.904649824152467
40
0.904649824152467
40
0.995114806567712
40
0.995114806567712
40
1
40
1
40
1
40
1
41
1
10
8.20692838095869
20
0.492404790152847
30
0
41
1
10
8.51670979030945
20
0.346671643844843
30
0
41
1
10
8.82683066349199
20
0.19830658745559
30
0
41
1
10
9.4456588311123
20
-0.0987000022918778
30
0
41
1
10
9.75316383209221
20
-0.246731922732977
30
0
41
1
10
10.6727855497408
20
-0.683536111302146
30
0
41
1
10
11.2823060133142
20
-0.964300243172687
30
0
41
1
10
12.2009408199106
20
-1.35014632442514
30
0
41
1
10
12.5079600627562
20
-1.47277473528189
30
0
41
1
10
12.9710974680271
20
-1.64496774148449
30
0
41
1
10
13.1262202723079
20
-1.70054641345033
30
0
41
1
10
13.2891574554655
20
-1.75649050242126
30
0
41
1
10
13.2975040735788
20
-1.75934957691498
30
0
41
1
10
13.3058493666092
20
-1.76220145284265
30
0
0
SPLINE
5
BE
100
AcDbEntity
8
1
62
256
6
ByLayer
370
13
48
1
60
0
100
AcDbSpline
70
4
71
3
72
18
73
14
40
0
40
0
40
0
40
0
40
0.0794157930418649
40
0.0794157930418649
40
0.415211816265001
40
0.415211816265001
40
0.583109827876568
40
0.583109827876568
40
0.667058833682352
40
0.667058833682352
40
0.751007839488135
40
0.751007839488135
40
1
40
1
40
1
40
1
41
1
10
13.3058487488829
20
-1.76220124174415
30
0
41
1
10
13.4520434570237
20
-1.81216104735489
30
0
41
1
10
13.5978315127983
20
-1.85991169850811
30
0
41
1
10
14.3584653673244
20
-2.0974444341675
30
0
41
1
10
14.9684200361642
20
-2.247706689214
30
0
41
1
10
15.8852327772322
20
-2.40054931512333
30
0
41
1
10
16.1912162184732
20
-2.43948852453585
30
0
41
1
10
16.6523285537273
20
-2.47854018781635
30
0
41
1
10
16.8063387472972
20
-2.48834508333377
30
0
41
1
10
17.1151946520665
20
-2.5014266506135
30
0
41
1
10
17.2703162280163
20
-2.50469258108714
30
0
41
1
10
17.8829313689416
20
-2.5044867841649
30
0
41
1
10
18.3372427602604
20
-2.4751643734929
30
0
41
1
10
18.7906824143853
20
-2.41842586907822
30
0
0
SPLINE
5
BF
100
AcDbEntity
8
1
62
256
6
ByLayer
370
18
48
1
60
0
100
AcDbSpline
70
4
71
3
72
22
73
18
40
0
40
0
40
0
40
0
40
0.0760321412221159
40
0.0760321412221159
40
0.184630875401582
40
0.184630875401582
40
0.401828343760514
40
0.401828343760514
40
0.51042707793998
40
0.51042707793998
40
0.619025812119447
40
0.619025812119447
40
0.836223280478382
40
0.836223280478382
40
0.94482201465785
40
0.94482201465785
40
1
40
1
40
1
40
1
41
1
10
37.9813230198437
20
1.73535557430191
30
0
41
1
10
38.1981146595992
20
1.65945738812701
30
0
41
1
10
38.4148092607543
20
1.57909385718662
30
0
41
1
10
38.93873170193
20
1.37535844865948
30
0
41
1
10
39.2452561948994
20
1.24826412232991
30
0
41
1
10
40.1626839955681
20
0.850488623527383
30
0
41
1
10
40.7714307252853
20
0.563277820132583
30
0
41
1
10
41.6906534148044
20
0.120753056004162
30
0
41
1
10
41.9980800855056
20
-0.0286923539033523
30
0
41
1
10
42.616934690421
20
-0.327519743897341
30
0
41
1
10
42.9248960129339
20
-0.475336519250703
30
0
41
1
10
43.8445114216606
20
-0.907435026753745
30
0
41
1
10
44.4532795494878
20
-1.18021621770094
30
0
41
1
10
45.3700146408835
20
-1.54739270001849
30
0
41
1
10
45.6762214349384
20
-1.66274605966851
30
0
41
1
10
46.1404616016552
20
-1.82326579322867
30
0
41
1
10
46.2974996777051
20
-1.87513325357634
30
0
41
1
10
46.4545081895986
20
-1.92439993996152
30
0
0
SPLINE
5
C0
100
AcDbEntity
8
1
62
256
6
ByLayer
370
13
48
1
60
0
100
AcDbSpline
70
4
71
3
72
18
73
14
40
0
40
0
40
0
40
0
40
0.0882994649011141
40
0.0882994649011141
40
0.447306417058512
40
0.447306417058512
40
0.626809893137215
40
0.626809893137215
40
0.716561631176567
40
0.716561631176567
40
0.806313369215916
40
0.806313369215916
40
1
40
1
40
1
40
1
41
1
10
46.4545081893151
20
-1.92439993987262
30
0
41
1
10
46.606516499013
20
-1.97209764512428
30
0
41
1
10
46.7584970976119
20
-2.01735759078807
30
0
41
1
10
47.5252216251694
20
-2.23250409865861
30
0
41
1
10
48.1344038801406
20
-2.36029173398757
30
0
41
1
10
49.0500565218467
20
-2.47619722204584
30
0
41
1
10
49.3555431365596
20
-2.50234805881937
30
0
41
1
10
49.8154462982149
20
-2.52211338573605
30
0
41
1
10
49.9690261296346
20
-2.52543790533409
30
0
41
1
10
50.2769752541646
20
-2.52538116549354
30
0
41
1
10
50.4316646708071
20
-2.52202677476532
30
0
41
1
10
50.9197914006952
20
-2.50086949511385
30
0
41
1
10
51.2510427709095
20
-2.47094416087503
30
0
41
1
10
51.5812108840437
20
-2.42654113476726
30
0
0
SPLINE
5
C1
100
AcDbEntity
8
1
62
256
6
ByLayer
370
18
48
1
60
0
100
AcDbSpline
70
4
71
3
72
28
73
24
40
0
40
0
40
0
40
0
40
0.0037526745336207
40
0.0037526745336207
40
0.0606161329095663
40
0.0606161329095663
40
0.174343049661457
40
0.174343049661457
40
0.231206508037402
40
0.231206508037402
40
0.288069966413346
40
0.288069966413346
40
0.401796883165233
40
0.401796883165233
40
0.629250716669007
40
0.629250716669007
40
0.686114175044947
40
0.686114175044947
40
0.742977633420888
40
0.742977633420888
40
0.856704550172768
40
0.856704550172768
40
1
40
1
40
1
40
1
41
1
10
21.5387947460246
20
1.76025454553843
30
0
41
1
10
21.5490018208238
20
1.7567569539691
30
0
41
1
10
21.5592073076876
20
1.75324975032149
30
0
41
1
10
21.7240245822064
20
1.69644570871193
30
0
41
1
10
21.878462435654
20
1.64090935038678
30
0
41
1
10
22.341602787307
20
1.46810149909459
30
0
41
1
10
22.6501004965895
20
1.34458285474645
30
0
41
1
10
23.1138781513173
20
1.1491419070116
30
0
41
1
10
23.2689013336868
20
1.08221309893497
30
0
41
1
10
23.5780823015026
20
0.945957362282911
30
0
41
1
10
23.7322011101788
20
0.876665249816853
30
0
41
1
10
24.1935457740771
20
0.66614790650948
30
0
41
1
10
24.4997410431364
20
0.522243736327937
30
0
41
1
10
25.4166751072585
20
0.0850395103642541
30
0
41
1
10
26.0261608066367
20
-0.212918748909345
30
0
41
1
10
26.7939258585931
20
-0.576102059018154
30
0
41
1
10
26.9477856213974
20
-0.648251922326523
30
0
41
1
10
27.2564182880783
20
-0.790935433745972
30
0
41
1
10
27.4114972451758
20
-0.861624595400542
30
0
41
1
10
27.8749662555396
20
-1.06931526249781
30
0
41
1
10
28.1821202065094
20
-1.20217600661545
30
0
41
1
10
28.8741247437314
20
-1.48619504954513
30
0
41
1
10
29.2586528735021
20
-1.63278509786463
30
0
41
1
10
29.643464904688
20
-1.76510613740135
30
0
0
SPLINE
5
C2
100
AcDbEntity
8
1
62
256
6
ByLayer
370
13
48
1
60
0
100
AcDbSpline
70
4
71
3
72
20
73
16
40
0
40
0
40
0
40
0
40
0.123831636322879
40
0.123831636322879
40
0.291170993655064
40
0.291170993655064
40
0.374840672321156
40
0.374840672321156
40
0.458510350987248
40
0.458510350987248
40
0.793189065651623
40
0.793189065651623
40
0.960528422983813
40
0.960528422983813
40
1
40
1
40
1
40
1
41
1
10
29.6434658503844
20
-1.76510646258745
30
0
41
1
10
29.8694682354618
20
-1.84281937899357
30
0
41
1
10
30.0955685465982
20
-1.91561051051656
30
0
41
1
10
30.6281833474106
20
-2.07399808249062
30
0
41
1
10
30.9352774598249
20
-2.15479102259604
30
0
41
1
10
31.3984692969054
20
-2.25912313395614
30
0
41
1
10
31.5535209245867
20
-2.29112116975202
30
0
41
1
10
31.8622222765712
20
-2.34873524334907
30
0
41
1
10
32.0161384383384
20
-2.37441689687969
30
0
41
1
10
32.7841457408455
20
-2.48686661949932
30
0
41
1
10
33.3934771002513
20
-2.52559799365753
30
0
41
1
10
34.3102957610903
20
-2.50574580343104
30
0
41
1
10
34.6163945546799
20
-2.48623594887334
30
0
41
1
10
34.9964161399049
20
-2.4458885537816
30
0
41
1
10
35.0690819918163
20
-2.43744756781442
30
0
41
1
10
35.1418388095188
20
-2.42828083816133
30
0
0
SPLINE
5
C3
100
AcDbEntity
8
1
62
256
6
ByLayer
370
18
48
1
60
0
100
AcDbSpline
70
4
71
3
72
24
73
20
40
0
40
0
40
0
40
0
40
0.013929585889352
40
0.013929585889352
40
0.0700967270665114
40
0.0700967270665114
40
0.126263868243671
40
0.126263868243671
40
0.238598150597994
40
0.238598150597994
40
0.463266715306635
40
0.463266715306635
40
0.575600997660958
40
0.575600997660958
40
0.687935280015281
40
0.687935280015281
40
0.912603844723931
40
0.912603844723931
40
1
40
1
40
1
40
1
41
1
10
54.1465524944608
20
1.80642452354073
30
0
41
1
10
54.184718249699
20
1.79348315986383
30
0
41
1
10
54.2229088121874
20
1.78038842915225
30
0
41
1
10
54.4152261158394
20
1.71373078722093
30
0
41
1
10
54.570074103356
20
1.65768455745737
30
0
41
1
10
54.8788266386115
20
1.54163458551719
30
0
41
1
10
55.0326983307648
20
1.48164762343197
30
0
41
1
10
55.4931793840161
20
1.29654701636147
30
0
41
1
10
55.7987326329363
20
1.16644756210195
30
0
41
1
10
56.713492336423
20
0.760665143144365
30
0
41
1
10
57.3210383025129
20
0.470050901524758
30
0
41
1
10
58.2390601950343
20
0.024621214536495
30
0
41
1
10
58.5463036562913
20
-0.125172921256933
30
0
41
1
10
59.1648656759812
20
-0.42414518010608
30
0
41
1
10
59.4723195969988
20
-0.571450821605481
30
0
41
1
10
60.390557440978
20
-1.00040783570776
30
0
41
1
10
60.9980744370473
20
-1.26895613969595
30
0
41
1
10
61.8449049741162
20
-1.60030293734673
30
0
41
1
10
62.0823860960008
20
-1.68858505962066
30
0
41
1
10
62.3206176972722
20
-1.77156743892314
30
0
0
SPLINE
5
C4
100
AcDbEntity
8
1
62
256
6
ByLayer
370
13
48
1
60
0
100
AcDbSpline
70
4
71
3
72
16
73
12
40
0
40
0
40
0
40
0
40
0.0425124994014042
40
0.0425124994014042
40
0.138261249461266
40
0.138261249461266
40
0.234009999521127
40
0.234009999521127
40
0.617004999760564
40
0.617004999760564
40
1
40
1
40
1
40
1
41
1
10
62.3206167527442
20
-1.77156710991903
30
0
41
1
10
62.3885954572349
20
-1.79524589816395
30
0
41
1
10
62.4566352679531
20
-1.81849316558583
30
0
41
1
10
62.6781489878547
20
-1.89263630043305
30
0
41
1
10
62.8319050404655
20
-1.94171798848137
30
0
41
1
10
63.1403525600447
20
-2.03498019118379
30
0
41
1
10
63.2951860028146
20
-2.07916502857282
30
0
41
1
10
64.0655243935818
20
-2.28493535486024
30
0
41
1
10
64.6745680483489
20
-2.40288016849999
30
0
41
1
10
65.8926962624773
20
-2.53699790909704
30
0
41
1
10
66.5017424285049
20
-2.55362662065315
30
0
41
1
10
67.1173296220699
20
-2.51609700063818
30
0
0
SPLINE
5
C5
100
AcDbEntity
8
1
62
256
6
ByLayer
370
18
48
1
60
0
100
AcDbSpline
70
4
71
3
72
8
73
4
40
0
40
0
40
0
40
0
40
1
40
1
40
1
40
1
41
1
10
67.1001327411317
20
2.56022044134846
30
0
41
1
10
66.8871767476217
20
2.57299246045633
30
0
41
1
10
66.6742886037827
20
2.57926410298796
30
0
41
1
10
66.4611869249555
20
2.57904323136552
30
0
0
SPLINE
5
C6
100
AcDbEntity
8
1
62
256
6
ByLayer
370
18
48
1
60
0
100
AcDbSpline
70
4
71
3
72
40
73
36
40
0
40
0
40
0
40
0
40
0.0723025730652869
40
0.0723025730652869
40
0.0977790810236018
40
0.0977790810236018
40
0.123255588981917
40
0.123255588981917
40
0.174208604898548
40
0.174208604898548
40
0.27611463673181
40
0.27611463673181
40
0.32706765264844
40
0.32706765264844
40
0.352544160606755
40
0.352544160606755
40
0.378020668565069
40
0.378020668565069
40
0.479926700398329
40
0.479926700398329
40
0.530879716314958
40
0.530879716314958
40
0.581832732231588
40
0.581832732231588
40
0.683738764064847
40
0.683738764064847
40
0.734691779981477
40
0.734691779981477
40
0.785644795898107
40
0.785644795898107
40
0.887550827731366
40
0.887550827731366
40
0.989456859564625
40
0.989456859564625
40
1
40
1
40
1
40
1
41
1
10
51.83562739812
20
-2.43055970060891
30
0
41
1
10
51.4023854758829
20
-2.49977087702805
30
0
41
1
10
50.9693414247261
20
-2.54373377890963
30
0
41
1
10
50.3801462655166
20
-2.56675309825405
30
0
41
1
10
50.2263499296072
20
-2.56943000963574
30
0
41
1
10
49.9179494955906
20
-2.56800160709048
30
0
41
1
10
49.7629678838446
20
-2.56387723317772
30
0
41
1
10
49.2992801961109
20
-2.54137102835784
30
0
41
1
10
48.9919826946332
20
-2.51294340177318
30
0
41
1
10
48.0729294824845
20
-2.3895154675908
30
0
41
1
10
47.4641161630842
20
-2.25612181342336
30
0
41
1
10
46.5452786261124
20
-1.98986675018446
30
0
41
1
10
46.2380918978637
20
-1.89009730604548
30
0
41
1
10
45.7746056968334
20
-1.72532528781636
30
0
41
1
10
45.6195177901419
20
-1.66779784483978
30
0
41
1
10
45.3108677218018
20
-1.54901440578254
30
0
41
1
10
45.1569810714809
20
-1.48766690123696
30
0
41
1
10
44.3890815213966
20
-1.17239517642594
30
0
41
1
10
43.77966421108
20
-0.892867011360238
30
0
41
1
10
42.8623492446978
20
-0.453179752041223
30
0
41
1
10
42.5559878303371
20
-0.303340703985498
30
0
41
1
10
41.9403035254933
20
-0.0006857605703487
30
0
41
1
10
41.6297763439529
20
0.152860061967459
30
0
41
1
10
40.7048296442918
20
0.605163640872377
30
0
41
1
10
40.0945775189298
20
0.896791878250639
30
0
41
1
10
39.1779338947659
20
1.29852851460254
30
0
41
1
10
38.8721795843555
20
1.42650413321903
30
0
41
1
10
38.2583537894087
20
1.66705977047602
30
0
41
1
10
37.9499028244135
20
1.77975354486841
30
0
41
1
10
37.0208136107064
20
2.08928438394633
30
0
41
1
10
36.4092707463865
20
2.25272884861749
30
0
41
1
10
35.187009629328
20
2.48104088431782
30
0
41
1
10
34.576309618645
20
2.54597313141304
30
0
41
1
10
33.8949927105856
20
2.55807538583866
30
0
41
1
10
33.8309837422836
20
2.55863038187454
30
0
41
1
10
33.7669324523998
20
2.55860521382039
30
0
0
SPLINE
5
C7
100
AcDbEntity
8
1
62
256
6
ByLayer
370
18
48
1
60
0
100
AcDbSpline
70
4
71
3
72
28
73
24
40
0
40
0
40
0
40
0
40
0.0728249412199695
40
0.0728249412199695
40
0.114969262073608
40
0.114969262073608
40
0.157113582927247
40
0.157113582927247
40
0.325690866341798
40
0.325690866341798
40
0.494268149756349
40
0.494268149756349
40
0.536412470609987
40
0.536412470609987
40
0.578556791463625
40
0.578556791463625
40
0.6628454331709
40
0.6628454331709
40
0.83142271658545
40
0.83142271658545
40
0.915711358292725
40
0.915711358292725
40
1
40
1
40
1
40
1
41
1
10
19.0906895448031
20
-2.41825920803652
30
0
41
1
10
18.8262834386851
20
-2.45908191396396
30
0
41
1
10
18.5616243726043
20
-2.49063871556174
30
0
41
1
10
18.1423348159095
20
-2.52502702759418
30
0
41
1
10
17.9883310555617
20
-2.53436718820529
30
0
41
1
10
17.6794739455018
20
-2.54636367323945
30
0
41
1
10
17.5243032545138
20
-2.54901649151273
30
0
41
1
10
16.750287796165
20
-2.54526727520752
30
0
41
1
10
16.1383480721778
20
-2.48814244416872
30
0
41
1
10
14.9152065866434
20
-2.27481243606928
30
0
41
1
10
14.3035124102187
20
-2.11899448277612
30
0
41
1
10
13.530261307293
20
-1.87010489789029
30
0
41
1
10
13.3749178958619
20
-1.81755519068625
30
0
41
1
10
13.0656249742201
20
-1.70828976611159
30
0
41
1
10
12.9114130707702
20
-1.65149727029822
30
0
41
1
10
12.449744085982
20
-1.47526548190933
30
0
41
1
10
12.1433494432761
20
-1.34980158284443
30
0
41
1
10
11.2252826165662
20
-0.955091197240677
30
0
41
1
10
10.614589144061
20
-0.667805026333724
30
0
41
1
10
9.69036806991889
20
-0.220448729612627
30
0
41
1
10
9.37994236924956
20
-0.0683309039072242
30
0
41
1
10
8.7600279124236
20
0.234201795692087
30
0
41
1
10
8.45037158681862
20
0.384681529380714
30
0
41
1
10
8.14024862570818
20
0.532804617373841
30
0
0
SPLINE
5
C8
100
AcDbEntity
8
1
62
256
6
ByLayer
370
13
48
1
60
0
100
AcDbSpline
70
4
71
3
72
20
73
16
40
0
40
0
40
0
40
0
40
0.125
40
0.125
40
0.25
40
0.25
40
0.5
40
0.5
40
0.625
40
0.625
40
0.75
40
0.75
40
0.875
40
0.875
40
1
40
1
40
1
40
1
41
1
10
8.25034141220033
20
0.557603147020359
30
0
41
1
10
8.2503677164041
20
0.666565071872753
30
0
41
1
10
8.25038925481292
20
0.772803799478964
30
0
41
1
10
8.2504254480053
20
0.979948541280947
30
0
41
1
10
8.25044016894043
20
1.0814889946196
30
0
41
1
10
8.25047702770553
20
1.37256871520637
30
0
41
1
10
8.25049215312862
20
1.54826144624707
30
0
41
1
10
8.2505153802997
20
1.78405463002352
30
0
41
1
10
8.25052311950651
20
1.85726717039228
30
0
41
1
10
8.25054032670138
20
1.99093583534338
30
0
41
1
10
8.25054984783131
20
2.05163468601614
30
0
41
1
10
8.25057157235085
20
2.15825146767355
30
0
41
1
10
8.25058381882161
20
2.20459288454649
30
0
41
1
10
8.2506117435546
20
2.28338894932466
30
0
41
1
10
8.25062749555883
20
2.31593929858229
30
0
41
1
10
8.25064485759714
20
2.34092126875501
30
0
0
SPLINE
5
C9
100
AcDbEntity
8
1
62
256
6
ByLayer
370
13
48
1
60
0
100
AcDbSpline
70
4
71
3
72
10
73
6
40
0
40
0
40
0
40
0
40
0.5
40
0.5
40
1
40
1
40
1
40
1
41
1
10
8.02476539801904
20
0.685145908998948
30
0
41
1
10
8.03646893362222
20
0.665624294229161
30
0
41
1
10
8.05193863287283
20
0.64779474916989
30
0
41
1
10
8.09153476329175
20
0.615852297806015
30
0
41
1
10
8.11459888239759
20
0.602605709236258
30
0
41
1
10
8.1412518989581
20
0.592495494656305
30
0
0
SPLINE
5
CA
100
AcDbEntity
8
1
62
256
6
ByLayer
370
18
48
1
60
0
100
AcDbSpline
70
4
71
3
72
28
73
24
40
0
40
0
40
0
40
0
40
0.097918993301691
40
0.097918993301691
40
0.371664009198856
40
0.371664009198856
40
0.508536517147439
40
0.508536517147439
40
0.542754644134585
40
0.542754644134585
40
0.551309175881371
40
0.551309175881371
40
0.559863707628158
40
0.559863707628158
40
0.568418239374944
40
0.568418239374944
40
0.57697277112173
40
0.57697277112173
40
0.645409025096022
40
0.645409025096022
40
0.919154040993187
40
0.919154040993187
40
1
40
1
40
1
40
1
41
1
10
8.24951025801744
20
0.121624015924482
30
0
41
1
10
8.24951025801744
20
0.0938496568406322
30
0
41
1
10
8.24951025801744
20
0.0621395239582228
30
0
41
1
10
8.24951025801744
20
-0.072244145543749
30
0
41
1
10
8.24951025801747
20
-0.198452299373343
30
0
41
1
10
8.24951025801747
20
-0.424820124053241
30
0
41
1
10
8.24951025801747
20
-0.506651655793945
30
0
41
1
10
8.24951025801747
20
-0.616358659469313
30
0
41
1
10
8.24951025801744
20
-0.638666927764206
30
0
41
1
10
8.24951025801744
20
-0.667011016699263
30
0
41
1
10
8.24951025801749
20
-0.672519959355895
30
0
41
1
10
8.24951025801749
20
-0.686828358484973
30
0
41
1
10
8.24951025801747
20
-0.695400968303517
30
0
41
1
10
8.24951025801747
20
-0.714636328371455
30
0
41
1
10
8.24951025801747
20
-0.725285171538587
30
0
41
1
10
8.24951025801747
20
-0.745799422778788
30
0
41
1
10
8.24951025801747
20
-0.756064112126779
30
0
41
1
10
8.24951025801747
20
-0.848514593808687
30
0
41
1
10
8.24951025801744
20
-0.93115661223905
30
0
41
1
10
8.24951025801744
20
-1.34662216657557
30
0
41
1
10
8.24951025801744
20
-1.68627018018589
30
0
41
1
10
8.24951025801744
20
-2.13482682182192
30
0
41
1
10
8.24951025801744
20
-2.23764728656528
30
0
41
1
10
8.24951025801744
20
-2.3410372415064
30
0
0
SPLINE
5
CB
100
AcDbEntity
8
1
62
256
6
ByLayer
370
18
48
1
60
0
100
AcDbSpline
70
4
71
3
72
16
73
12
40
0
40
0
40
0
40
0
40
0.253228627841701
40
0.253228627841701
40
0.506457255683403
40
0.506457255683403
40
0.759685883525104
40
0.759685883525104
40
0.886300197445955
40
0.886300197445955
40
1
40
1
40
1
40
1
41
1
10
8.25064485759708
20
-2.34092126875495
30
0
41
1
10
8.55031415739188
20
-2.3109079466563
30
0
41
1
10
8.84832582596164
20
-2.26924992595474
30
0
41
1
10
9.44151739975717
20
-2.16343135313935
30
0
41
1
10
9.73675498991005
20
-2.09918840996059
30
0
41
1
10
10.3278306148469
20
-1.95285512744763
30
0
41
1
10
10.6231568958653
20
-1.8707367810259
30
0
41
1
10
11.066417282362
20
-1.73350698892742
30
0
41
1
10
11.2141013702235
20
-1.68509969996543
30
0
41
1
10
11.4951899340859
20
-1.58974296456645
30
0
41
1
10
11.6284935943073
20
-1.5431397387278
30
0
41
1
10
11.7620144883506
20
-1.49496159187362
30
0
0
SPLINE
5
CC
100
AcDbEntity
8
1
62
256
6
ByLayer
370
18
48
1
60
0
100
AcDbSpline
70
4
71
3
72
84
73
80
40
0
40
0
40
0
40
0
40
0.018725027074119
40
0.018725027074119
40
0.0398595309049885
40
0.0398595309049885
40
0.0609940347358581
40
0.0609940347358581
40
0.0821285385667276
40
0.0821285385667276
40
0.124397546228466
40
0.124397546228466
40
0.145532050059335
40
0.145532050059335
40
0.166666553890203
40
0.166666553890203
40
0.208935561551942
40
0.208935561551942
40
0.230070065382811
40
0.230070065382811
40
0.25120456921368
40
0.25120456921368
40
0.272339073044549
40
0.272339073044549
40
0.293473576875418
40
0.293473576875418
40
0.314608080706287
40
0.314608080706287
40
0.335742584537157
40
0.335742584537157
40
0.378011592198894
40
0.378011592198894
40
0.42028059986063
40
0.42028059986063
40
0.441415103691499
40
0.441415103691499
40
0.462549607522367
40
0.462549607522367
40
0.483684111353235
40
0.483684111353235
40
0.504818615184103
40
0.504818615184103
40
0.525953119014972
40
0.525953119014972
40
0.54708762284584
40
0.54708762284584
40
0.589356630507577
40
0.589356630507577
40
0.610491134338445
40
0.610491134338445
40
0.631625638169313
40
0.631625638169313
40
0.67389464583105
40
0.67389464583105
40
0.695029149661918
40
0.695029149661918
40
0.716163653492787
40
0.716163653492787
40
0.737298157323655
40
0.737298157323655
40
0.758432661154524
40
0.758432661154524
40
0.800701668816259
40
0.800701668816259
40
0.821836172647127
40
0.821836172647127
40
0.842970676477994
40
0.842970676477994
40
0.885239684139729
40
0.885239684139729
40
0.906374187970597
40
0.906374187970597
40
0.927508691801464
40
0.927508691801464
40
0.969777699463197
40
0.969777699463197
40
0.990912203294064
40
0.990912203294064
40
1
40
1
40
1
40
1
41
1
10
23.4230884818784
20
2.41141015914002
30
0
41
1
10
23.5537043573071
20
2.41157073261601
30
0
41
1
10
23.6843046198338
20
2.40918665763971
30
0
41
1
10
23.963083580139
20
2.39920347815135
30
0
41
1
10
24.1111493816993
20
2.39097680621089
30
0
41
1
10
24.4077735557667
20
2.3688373796013
30
0
41
1
10
24.5563500452949
20
2.35491533284258
30
0
41
1
10
24.8540051363649
20
2.32186281284803
30
0
41
1
10
25.0031415514412
20
2.30283619598563
30
0
41
1
10
25.4509678689872
20
2.23623129208744
30
0
41
1
10
25.7481666218408
20
2.1794180310356
30
0
41
1
10
26.192307015274
20
2.07983393394858
30
0
41
1
10
26.3401040792556
20
2.04422825722537
30
0
41
1
10
26.6351623101811
20
1.96855481326784
30
0
41
1
10
26.7823276172794
20
1.92846927739078
30
0
41
1
10
27.2243775900306
20
1.80192635812324
30
0
41
1
10
27.5191014105128
20
1.70736806482159
30
0
41
1
10
27.9616360058617
20
1.55393845977255
30
0
41
1
10
28.1091929814071
20
1.50078206868085
30
0
41
1
10
28.4044383155541
20
1.39078609193456
30
0
41
1
10
28.552358879258
20
1.33454252853639
30
0
41
1
10
28.8488714967385
20
1.21854474464107
30
0
41
1
10
28.9974942636007
20
1.15867140432203
30
0
41
1
10
29.2956637811771
20
1.03557697295093
30
0
41
1
10
29.44542077503
20
0.972315643457165
30
0
41
1
10
29.7435321058327
20
0.843752918401009
30
0
41
1
10
29.8920574391736
20
0.778220346107275
30
0
41
1
10
30.1890388574019
20
0.646851226452839
30
0
41
1
10
30.3372897329718
20
0.58057989980739
30
0
41
1
10
30.781272801154
20
0.379762599048121
30
0
41
1
10
31.0764271287445
20
0.24362643688886
30
0
41
1
10
31.6659216760464
20
-0.0311137571413269
30
0
41
1
10
31.9613133293539
20
-0.167388163950335
30
0
41
1
10
32.4046986033529
20
-0.371609428151771
30
0
41
1
10
32.5526575078763
20
-0.439412755030247
30
0
41
1
10
32.8489241590668
20
-0.574427805849979
30
0
41
1
10
32.9971725358798
20
-0.641770151642163
30
0
41
1
10
33.2948231704775
20
-0.774058199799981
30
0
41
1
10
33.4442633677734
20
-0.839479246760305
30
0
41
1
10
33.7432862210658
20
-0.967721985914949
30
0
41
1
10
33.8923522971765
20
-1.03035636111372
30
0
41
1
10
34.1897498561964
20
-1.15314933268772
30
0
41
1
10
34.3380454545878
20
-1.21329599686803
30
0
41
1
10
34.6339720516274
20
-1.3309221308206
30
0
41
1
10
34.781953906948
20
-1.38806096322693
30
0
41
1
10
35.2252097089344
20
-1.55481294468009
30
0
41
1
10
35.520147213312
20
-1.65715946481038
30
0
41
1
10
35.9624191228127
20
-1.79816275602707
30
0
41
1
10
36.1097740248503
20
-1.843153195611
30
0
41
1
10
36.40514610594
20
-1.92860854915759
30
0
41
1
10
36.5529636835024
20
-1.96936098080567
30
0
41
1
10
36.9968711248428
20
-2.08518223665232
30
0
41
1
10
37.2937403569036
20
-2.15230497770983
30
0
41
1
10
37.7405789646481
20
-2.23898880451833
30
0
41
1
10
37.8903722307909
20
-2.26473782781184
30
0
41
1
10
38.1890939792496
20
-2.3096293985746
30
0
41
1
10
38.3382907352807
20
-2.32909243679882
30
0
41
1
10
38.6365253123646
20
-2.36209815522867
30
0
41
1
10
38.7855647042711
20
-2.37558546629646
30
0
41
1
10
39.0834095377193
20
-2.39771463505582
30
0
41
1
10
39.2321985880623
20
-2.40653183805455
30
0
41
1
10
39.67950412609
20
-2.42407784965582
30
0
41
1
10
39.979285532678
20
-2.42247215411155
30
0
41
1
10
40.4256356610887
20
-2.40344269858701
30
0
41
1
10
40.5739091484808
20
-2.39382762427712
30
0
41
1
10
40.8698986626769
20
-2.36835715477056
30
0
41
1
10
41.0179195522757
20
-2.35266397588995
30
0
41
1
10
41.4612374842215
20
-2.29747688318739
30
0
41
1
10
41.7561972698236
20
-2.24991158817215
30
0
41
1
10
42.197835851884
20
-2.16424228238853
30
0
41
1
10
42.3449719681077
20
-2.13288163778404
30
0
41
1
10
42.639975953345
20
-2.06453853957649
30
0
41
1
10
42.7876586338666
20
-2.02759215197659
30
0
41
1
10
43.2312603511602
20
-1.90937827375652
30
0
41
1
10
43.5275913649378
20
-1.82100817376346
30
0
41
1
10
43.9737539588469
20
-1.67514760478053
30
0
41
1
10
44.1234578827772
20
-1.62453155534084
30
0
41
1
10
44.3368454628521
20
-1.54914700755071
30
0
41
1
10
44.4009312492
20
-1.52613092903854
30
0
41
1
10
44.4649451567643
20
-1.50278862403738
30
0
0
SPLINE
5
CD
100
AcDbEntity
8
1
62
256
6
ByLayer
370
18
48
1
60
0
100
AcDbSpline
70
4
71
3
72
42
73
38
40
0
40
0
40
0
40
0
40
0.0158406476432966
40
0.0158406476432966
40
0.0650486152611299
40
0.0650486152611299
40
0.114256582878963
40
0.114256582878963
40
0.212672518114633
40
0.212672518114633
40
0.26188048573247
40
0.26188048573247
40
0.311088453350307
40
0.311088453350307
40
0.360296420968144
40
0.360296420968144
40
0.409504388585981
40
0.409504388585981
40
0.458712356203818
40
0.458712356203818
40
0.507920323821654
40
0.507920323821654
40
0.606336259057324
40
0.606336259057324
40
0.65554422667516
40
0.65554422667516
40
0.704752194292995
40
0.704752194292995
40
0.753960161910829
40
0.753960161910829
40
0.803168129528664
40
0.803168129528664
40
0.901584064764334
40
0.901584064764334
40
0.950792032382167
40
0.950792032382167
40
1
40
1
40
1
40
1
41
1
10
56.1291159074393
20
2.42955598048604
30
0
41
1
10
56.1765426706968
20
2.42956766577478
30
0
41
1
10
56.2239653311524
20
2.42929407537633
30
0
41
1
10
56.4187624325843
20
2.4270753145662
30
0
41
1
10
56.5660980256769
20
2.42263535577342
30
0
41
1
10
56.8607926765684
20
2.40685483808818
30
0
41
1
10
57.0081600847812
20
2.39580177248558
30
0
41
1
10
57.4504375547413
20
2.35431344084114
30
0
41
1
10
57.7451975038776
20
2.31505580727637
30
0
41
1
10
58.1894318766212
20
2.24156780610124
30
0
41
1
10
58.3377906246987
20
2.21427317007854
30
0
41
1
10
58.6353275118572
20
2.15355359086058
30
0
41
1
10
58.784794371387
20
2.12019151317241
30
0
41
1
10
59.0830254299498
20
2.04812787479798
30
0
41
1
10
59.2314976540607
20
2.00929244214845
30
0
41
1
10
59.5283355337032
20
1.92786358646816
30
0
41
1
10
59.6765158268506
20
1.88506303736995
30
0
41
1
10
59.9723646617459
20
1.79544110863932
30
0
41
1
10
60.1200373520725
20
1.74857419787943
30
0
41
1
10
60.4150363034238
20
1.6502401133402
30
0
41
1
10
60.5623446718863
20
1.59886025448807
30
0
41
1
10
61.0037939820412
20
1.43899080423776
30
0
41
1
10
61.2984485435923
20
1.32550185520671
30
0
41
1
10
61.741162605366
20
1.14603622713216
30
0
41
1
10
61.8888722299061
20
1.08473312629877
30
0
41
1
10
62.1845273158867
20
0.959201869808396
30
0
41
1
10
62.3323343305614
20
0.89469729390575
30
0
41
1
10
62.6290304696253
20
0.764549312010416
30
0
41
1
10
62.7777418069662
20
0.698446768428397
30
0
41
1
10
63.0761614493681
20
0.564039654437408
30
0
41
1
10
63.2256210697275
20
0.495903897017314
30
0
41
1
10
63.6718824292503
20
0.290694969215622
30
0
41
1
10
63.967506981293
20
0.15159978984525
30
0
41
1
10
64.4105705404077
20
-0.0553421879561427
30
0
41
1
10
64.558063738161
20
-0.124320414954127
30
0
41
1
10
64.8528312065114
20
-0.261675765837651
30
0
41
1
10
65.0001333670452
20
-0.329987320103754
30
0
41
1
10
65.1473671782967
20
-0.397959711669216
30
0
0
SPLINE
5
CE
100
AcDbEntity
8
1
62
256
6
ByLayer
370
18
48
1
60
0
100
AcDbSpline
70
4
71
3
72
38
73
34
40
0
40
0
40
0
40
0
40
0.109445052219749
40
0.109445052219749
40
0.164167578329623
40
0.164167578329623
40
0.218890104439497
40
0.218890104439497
40
0.328335156659246
40
0.328335156659246
40
0.38305768276912
40
0.38305768276912
40
0.437780208878995
40
0.437780208878995
40
0.492502734988869
40
0.492502734988869
40
0.547225261098744
40
0.547225261098744
40
0.601947787208618
40
0.601947787208618
40
0.656670313318492
40
0.656670313318492
40
0.711392839428367
40
0.711392839428367
40
0.766115365538241
40
0.766115365538241
40
0.87556041775799
40
0.87556041775799
40
0.930282943867865
40
0.930282943867865
40
0.98500546997774
40
0.98500546997774
40
1
40
1
40
1
40
1
41
1
10
8.24951025801744
20
0.121624015918883
30
0
41
1
10
8.55799445830664
20
-0.0319209273611705
30
0
41
1
10
8.86621917210425
20
-0.181209394162238
30
0
41
1
10
9.32670739640196
20
-0.40262290457062
30
0
41
1
10
9.47989553343965
20
-0.475990892939563
30
0
41
1
10
9.78535925340071
20
-0.622426494438713
30
0
41
1
10
9.93748582688454
20
-0.695776385310865
30
0
41
1
10
10.3952686706554
20
-0.909711368720252
30
0
41
1
10
10.7013601197781
20
-1.04627016671788
30
0
41
1
10
11.1603576129639
20
-1.24493317398338
30
0
41
1
10
11.3131439603209
20
-1.3104533841464
30
0
41
1
10
11.6194051765926
20
-1.43794450712298
30
0
41
1
10
11.7731949587858
20
-1.49935754309101
30
0
41
1
10
12.0818721240293
20
-1.61797791939199
30
0
41
1
10
12.237013726385
20
-1.6754274251085
30
0
41
1
10
12.5461991502598
20
-1.78590211107908
30
0
41
1
10
12.7002746485245
20
-1.83883085953778
30
0
41
1
10
13.0069600226856
20
-1.94058927016326
30
0
41
1
10
13.1599246322086
20
-1.98885850192494
30
0
41
1
10
13.4662402169499
20
-2.07888947598579
30
0
41
1
10
13.6193963954361
20
-2.12094431880266
30
0
41
1
10
13.9252670880678
20
-2.19975380057508
30
0
41
1
10
14.0780444387566
20
-2.23643041690585
30
0
41
1
10
14.383130370973
20
-2.30436261343456
30
0
41
1
10
14.5351581710337
20
-2.33582099918445
30
0
41
1
10
14.9929200349387
20
-2.41981942264772
30
0
41
1
10
15.2997144809996
20
-2.46289024272957
30
0
41
1
10
15.7607452233024
20
-2.50908191668537
30
0
41
1
10
15.9144804565041
20
-2.5213852852159
30
0
41
1
10
16.2225531340675
20
-2.53929629535304
30
0
41
1
10
16.3774554342429
20
-2.5447722938143
30
0
41
1
10
16.5740521233432
20
-2.54748622030692
30
0
41
1
10
16.6163113840753
20
-2.54782374252747
30
0
41
1
10
16.6585445061333
20
-2.54791439221572
30
0
0
SPLINE
5
CF
100
AcDbEntity
8
1
62
256
6
ByLayer
370
18
48
1
60
0
100
AcDbSpline
70
4
71
3
72
84
73
80
40
0
40
0
40
0
40
0
40
0.0197002234090545
40
0.0197002234090545
40
0.0629976665644744
40
0.0629976665644744
40
0.0846463881421853
40
0.0846463881421853
40
0.106295109719896
40
0.106295109719896
40
0.127943831297607
40
0.127943831297607
40
0.149592552875318
40
0.149592552875318
40
0.171241274453028
40
0.171241274453028
40
0.192889996030739
40
0.192889996030739
40
0.21453871760845
40
0.21453871760845
40
0.236187439186161
40
0.236187439186161
40
0.279484882341582
40
0.279484882341582
40
0.301133603919292
40
0.301133603919292
40
0.322782325497002
40
0.322782325497002
40
0.344431047074712
40
0.344431047074712
40
0.366079768652422
40
0.366079768652422
40
0.387728490230132
40
0.387728490230132
40
0.409377211807842
40
0.409377211807842
40
0.431025933385552
40
0.431025933385552
40
0.452674654963262
40
0.452674654963262
40
0.495972098118682
40
0.495972098118682
40
0.517620819696392
40
0.517620819696392
40
0.539269541274102
40
0.539269541274102
40
0.58256698442952
40
0.58256698442952
40
0.60421570600723
40
0.60421570600723
40
0.625864427584939
40
0.625864427584939
40
0.669161870740356
40
0.669161870740356
40
0.690810592318064
40
0.690810592318064
40
0.712459313895772
40
0.712459313895772
40
0.734108035473481
40
0.734108035473481
40
0.755756757051189
40
0.755756757051189
40
0.799054200206607
40
0.799054200206607
40
0.820702921784317
40
0.820702921784317
40
0.842351643362026
40
0.842351643362026
40
0.885649086517443
40
0.885649086517443
40
0.907297808095151
40
0.907297808095151
40
0.928946529672859
40
0.928946529672859
40
0.950595251250568
40
0.950595251250568
40
0.972243972828276
40
0.972243972828276
40
1
40
1
40
1
40
1
41
1
10
28.122152547479
20
1.50113734905767
30
0
41
1
10
28.2623400224776
20
1.55701419202143
30
0
41
1
10
28.4021530621382
20
1.61183579986277
30
0
41
1
10
28.8501634728737
20
1.78025360140737
30
0
41
1
10
29.1605242304804
20
1.88541738939298
30
0
41
1
10
29.6239474254571
20
2.02889388509271
30
0
41
1
10
29.7781384009642
20
2.07423478029429
30
0
41
1
10
30.0855754677889
20
2.16018754058254
30
0
41
1
10
30.2394913173997
20
2.20001173795634
30
0
41
1
10
30.548039860796
20
2.27326245786856
30
0
41
1
10
30.7025547054428
20
2.30682382553854
30
0
41
1
10
31.0116923163538
20
2.36815644968132
30
0
41
1
10
31.1666201905378
20
2.39588850461368
30
0
41
1
10
31.4747669947705
20
2.44514794455952
30
0
41
1
10
31.6279867612956
20
2.4667161277797
30
0
41
1
10
31.9347894754227
20
2.50264180231608
30
0
41
1
10
32.0881683530843
20
2.51718688749514
30
0
41
1
10
32.3944175729199
20
2.53985303107945
30
0
41
1
10
32.5472882021315
20
2.54795862488183
30
0
41
1
10
32.8525159518228
20
2.55764561081506
30
0
41
1
10
33.0045765301688
20
2.55922251914183
30
0
41
1
10
33.4612266337186
20
2.55383066983154
30
0
41
1
10
33.7671637868281
20
2.5371831651174
30
0
41
1
10
34.226517755354
20
2.49267752366023
30
0
41
1
10
34.3797980574221
20
2.47458161149586
30
0
41
1
10
34.6862849457462
20
2.43130818621981
30
0
41
1
10
34.8399211124261
20
2.40634941126294
30
0
41
1
10
35.1489045241191
20
2.35059546603247
30
0
41
1
10
35.3037741178621
20
2.31973654073298
30
0
41
1
10
35.6119115188882
20
2.2521762083739
30
0
41
1
10
35.76553135798
20
2.21548530602556
30
0
41
1
10
36.0716854545655
20
2.13602805625533
30
0
41
1
10
36.2239757942196
20
2.09293281999319
30
0
41
1
10
36.5291540798844
20
2.00265042463636
30
0
41
1
10
36.681891350328
20
1.95533063231744
30
0
41
1
10
36.9872426784843
20
1.85592894557209
30
0
41
1
10
37.1398199108001
20
1.80378594405758
30
0
41
1
10
37.4447924335362
20
1.69457495073249
30
0
41
1
10
37.5969945603847
20
1.63719767307478
30
0
41
1
10
38.0538105453489
20
1.4581642783543
30
0
41
1
10
38.3605277416947
20
1.33296691762507
30
0
41
1
10
38.8220474754797
20
1.13344362411951
30
0
41
1
10
38.9762253916579
20
1.0651106820938
30
0
41
1
10
39.2848462312878
20
0.923866485141247
30
0
41
1
10
39.4384718736265
20
0.851777295503211
30
0
41
1
10
39.8996120390874
20
0.635917223172413
30
0
41
1
10
40.2062920682751
20
0.490282698450955
30
0
41
1
10
40.6639553528555
20
0.26667541731976
30
0
41
1
10
40.8158336002577
20
0.190689941833369
30
0
41
1
10
41.1202692687536
20
0.0400441473875617
30
0
41
1
10
41.2727875307847
20
-0.0346967064236026
30
0
41
1
10
41.7307105840006
20
-0.258278816948803
30
0
41
1
10
42.036310867648
20
-0.40683830807032
30
0
41
1
10
42.4945008956819
20
-0.630387130973332
30
0
41
1
10
42.6478654958885
20
-0.703623717947522
30
0
41
1
10
42.9558463721712
20
-0.847571103636255
30
0
41
1
10
43.1106856435731
20
-0.918578003889763
30
0
41
1
10
43.4196597116043
20
-1.05831561430517
30
0
41
1
10
43.5736296559906
20
-1.12678482949715
30
0
41
1
10
43.8802206165316
20
-1.26147683914056
30
0
41
1
10
44.0328090643241
20
-1.32771101197096
30
0
41
1
10
44.4913895093877
20
-1.51785337994977
30
0
41
1
10
44.7970655728542
20
-1.63551508915577
30
0
41
1
10
45.2541418774016
20
-1.80077978058759
30
0
41
1
10
45.4059973208973
20
-1.85433147318986
30
0
41
1
10
45.7103469180464
20
-1.95585284906193
30
0
41
1
10
45.8629731570065
20
-2.00367862191052
30
0
41
1
10
46.3217864966365
20
-2.13913342636593
30
0
41
1
10
46.6287179395904
20
-2.21908397831044
30
0
41
1
10
47.0896639408435
20
-2.32358377215437
30
0
41
1
10
47.2440731479372
20
-2.35532583282424
30
0
41
1
10
47.553176391334
20
-2.41189500214239
30
0
41
1
10
47.7078538539145
20
-2.43690893348386
30
0
41
1
10
48.0170511670406
20
-2.48070963732138
30
0
41
1
10
48.1717755900774
20
-2.49945671084691
30
0
41
1
10
48.480231659573
20
-2.53047359912679
30
0
41
1
10
48.6337789785036
20
-2.54275001743847
30
0
41
1
10
48.9851956734444
20
-2.56265365802329
30
0
41
1
10
49.1829218512141
20
-2.568285883415
30
0
41
1
10
49.3806746576085
20
-2.56840438223026
30
0
0
SPLINE
5
D0
100
AcDbEntity
8
1
62
256
6
ByLayer
370
18
48
1
60
0
100
AcDbSpline
70
4
71
3
72
30
73
26
40
0
40
0
40
0
40
0
40
0.0625903310654072
40
0.0625903310654072
40
0.134698767137303
40
0.134698767137303
40
0.2068072032092
40
0.2068072032092
40
0.278915639281095
40
0.278915639281095
40
0.423132511424881
40
0.423132511424881
40
0.49524094749677
40
0.49524094749677
40
0.56734938356866
40
0.56734938356866
40
0.71156625571244
40
0.71156625571244
40
0.78367469178433
40
0.78367469178433
40
0.85578312785622
40
0.85578312785622
40
0.927891563928109
40
0.927891563928109
40
1
40
1
40
1
40
1
41
1
10
60.8403306673769
20
1.51837943948095
30
0
41
1
10
60.9727950381054
20
1.5719096572403
30
0
41
1
10
61.1049362586498
20
1.62403804821864
30
0
41
1
10
61.3898495271549
20
1.73127063896106
30
0
41
1
10
61.5424753731389
20
1.78603519814891
30
0
41
1
10
61.8474456521906
20
1.89112705019275
30
0
41
1
10
61.9998267843179
20
1.94139128346313
30
0
41
1
10
62.3043190432045
20
2.03735022774151
30
0
41
1
10
62.4561065560701
20
2.08342750751134
30
0
41
1
10
62.9128998782197
20
2.2122908136682
30
0
41
1
10
63.2194220989926
20
2.28594348910411
30
0
41
1
10
63.6804798639342
20
2.37987784743552
30
0
41
1
10
63.8345915154012
20
2.40837255436804
30
0
41
1
10
64.142432897123
20
2.45943765194224
30
0
41
1
10
64.296087970467
20
2.48140397146278
30
0
41
1
10
64.7566310741322
20
2.53705600623073
30
0
41
1
10
65.0626021297816
20
2.56095672854485
30
0
41
1
10
65.5188492509063
20
2.5773403802925
30
0
41
1
10
65.6703379599775
20
2.57947059235161
30
0
41
1
10
65.9742328479575
20
2.57703826986034
30
0
41
1
10
66.1264323032711
20
2.57254637297134
30
0
41
1
10
66.4308672270406
20
2.55710204235251
30
0
41
1
10
66.5830941837653
20
2.54613349948102
30
0
41
1
10
66.8875780187839
20
2.51757384982804
30
0
41
1
10
67.039561270506
20
2.49983510168121
30
0
41
1
10
67.1919165654831
20
2.47882371096077
30
0
0
SPLINE
5
D1
100
AcDbEntity
8
1
62
256
6
ByLayer
370
18
48
1
60
0
100
AcDbSpline
70
4
71
3
72
8
73
4
40
0
40
0
40
0
40
0
40
1
40
1
40
1
40
1
41
1
10
67.4370965862827
20
-1.42226965646086
30
0
41
1
10
67.314926471281
20
-1.75792928875967
30
0
41
1
10
67.1927563562793
20
-2.09358892105848
30
0
41
1
10
67.0705862412777
20
-2.4292485533573
30
0
0
SPLINE
5
D2
100
AcDbEntity
8
1
62
256
6
ByLayer
370
18
48
1
60
0
100
AcDbSpline
70
4
71
3
72
8
73
4
40
0
40
0
40
0
40
0
40
1
40
1
40
1
40
1
41
1
10
67.9794118906985
20
0.121741656285934
30
0
41
1
10
67.9825556512816
20
0.0975853601009362
30
0
41
1
10
67.9900989691503
20
0.0665689080121297
30
0
41
1
10
67.9999440757196
20
0.0339267434625299
30
0
0
SPLINE
5
D3
100
AcDbEntity
8
1
62
256
6
ByLayer
370
18
48
1
60
0
100
AcDbSpline
70
4
71
3
72
12
73
8
40
0
40
0
40
0
40
0
40
0.465115729257587
40
0.465115729257587
40
0.930231458515174
40
0.930231458515174
40
1
40
1
40
1
40
1
41
1
10
67.1332846539108
20
-2.42887616515549
30
0
41
1
10
66.517926583075
20
-2.45311718834921
30
0
41
1
10
65.9087287207792
20
-2.42546011848032
30
0
41
1
10
64.6903283316425
20
-2.27396672918431
30
0
41
1
10
64.0810258680787
20
-2.1496988172724
30
0
41
1
10
63.3726232311651
20
-1.95662942408489
30
0
41
1
10
63.2799757707751
20
-1.93042652737742
30
0
41
1
10
63.1873677745425
20
-1.90333337418241
30
0
0
SPLINE
5
D4
100
AcDbEntity
8
1
62
256
6
ByLayer
370
13
48
1
60
0
100
AcDbSpline
70
4
71
3
72
24
73
20
40
0
40
0
40
0
40
0
40
0.0229036627415112
40
0.0229036627415112
40
0.0801643463993152
40
0.0801643463993152
40
0.194685713714919
40
0.194685713714919
40
0.423728448346126
40
0.423728448346126
40
0.538249815661729
40
0.538249815661729
40
0.652771182977333
40
0.652771182977333
40
0.881813917608535
40
0.881813917608535
40
0.996335284924135
40
0.996335284924135
40
1
40
1
40
1
40
1
41
1
10
63.1873675432132
20
-1.90333330650529
30
0
41
1
10
63.1256315713244
20
-1.88527199101651
30
0
41
1
10
63.0639131376369
20
-1.86681504053254
30
0
41
1
10
62.848251640181
20
-1.80096381354721
30
0
41
1
10
62.6946304745119
20
-1.75166332909853
30
0
41
1
10
62.2347428632003
20
-1.59750341881573
30
0
41
1
10
61.9294936429761
20
-1.48630732978415
30
0
41
1
10
61.0151721575636
20
-1.13236874550947
30
0
41
1
10
60.4075239637662
20
-0.869143436067759
30
0
41
1
10
59.4893709531174
20
-0.452400261605845
30
0
41
1
10
59.1818356153556
20
-0.309713827910997
30
0
41
1
10
58.5641222223289
20
-0.021688909144217
30
0
41
1
10
58.2571372029883
20
0.122112384113336
30
0
41
1
10
57.3395661651018
20
0.548386498225085
30
0
41
1
10
56.7319952140069
20
0.824776630110676
30
0
41
1
10
55.8172204497346
20
1.2073726300232
30
0
41
1
10
55.5116651948086
20
1.32943974957999
30
0
41
1
10
55.1949411473419
20
1.44835253329273
30
0
41
1
10
55.1851187133852
20
1.45203261622734
30
0
41
1
10
55.1752947953165
20
1.4557054683375
30
0
0
SPLINE
5
D5
100
AcDbEntity
8
1
62
256
6
ByLayer
370
18
48
1
60
0
100
AcDbSpline
70
4
71
3
72
14
73
10
40
0
40
0
40
0
40
0
40
0.614518708336356
40
0.614518708336356
40
0.770964373561444
40
0.770964373561444
40
0.927410038786534
40
0.927410038786534
40
1
40
1
40
1
40
1
41
1
10
34.0010303561754
20
-2.41663774311172
30
0
41
1
10
33.401045279204
20
-2.41668418696986
30
0
41
1
10
32.8025715236774
20
-2.36841838041516
30
0
41
1
10
32.0459045084765
20
-2.24916447955078
30
0
41
1
10
31.8920686964922
20
-2.22194509537644
30
0
41
1
10
31.5835870600654
20
-2.16160386940623
30
0
41
1
10
31.4287176911143
20
-2.12842297844858
30
0
41
1
10
31.2029211013794
20
-2.07603686680346
30
0
41
1
10
31.1314433127179
20
-2.05886238855956
30
0
41
1
10
31.0600421035335
20
-2.04113116364059
30
0
0
SPLINE
5
D6
100
AcDbEntity
8
1
62
256
6
ByLayer
370
13
48
1
60
0
100
AcDbSpline
70
4
71
3
72
24
73
20
40
0
40
0
40
0
40
0
40
0.0804696760253786
40
0.0804696760253786
40
0.290025402265964
40
0.290025402265964
40
0.394803265386259
40
0.394803265386259
40
0.447192196946406
40
0.447192196946406
40
0.499581128506553
40
0.499581128506553
40
0.709136854747152
40
0.709136854747152
40
0.813914717867452
40
0.813914717867452
40
0.918692580987751
40
0.918692580987751
40
1
40
1
40
1
40
1
41
1
10
31.0600421040679
20
-2.04113116377329
30
0
41
1
10
30.82367597219
20
-1.98243382384371
30
0
41
1
10
30.5881490524558
20
-1.91763525956318
30
0
41
1
10
29.7411180289253
20
-1.66401180959417
30
0
41
1
10
29.1320472891063
20
-1.44368194820319
30
0
41
1
10
28.2136330173152
20
-1.07328556669205
30
0
41
1
10
27.9066261379615
20
-0.943312706166807
30
0
41
1
10
27.4435409209953
20
-0.740995512559465
30
0
41
1
10
27.2886630995715
20
-0.672292540684367
30
0
41
1
10
26.9803359424713
20
-0.533862488100283
30
0
41
1
10
26.8265855499037
20
-0.46400261816828
30
0
41
1
10
26.0592558616811
20
-0.1129071410557
30
0
41
1
10
25.4498787928603
20
0.173576263254176
30
0
41
1
10
24.5330740431772
20
0.590728811543698
30
0
41
1
10
24.2269814370548
20
0.727622489638463
30
0
41
1
10
23.6122104146301
20
0.993570577354575
30
0
41
1
10
23.3025716057063
20
1.12291645410261
30
0
41
1
10
22.7539970298163
20
1.34019037803179
30
0
41
1
10
22.5146844318888
20
1.43096908383174
30
0
41
1
10
22.2753414313555
20
1.51693593165669
30
0
0
SPLINE
5
D7
100
AcDbEntity
8
1
62
256
6
ByLayer
370
18
48
1
60
0
100
AcDbSpline
70
4
71
3
72
38
73
34
40
0
40
0
40
0
40
0
40
0.0541829239155689
40
0.0541829239155689
40
0.0812743858733543
40
0.0812743858733543
40
0.10836584783114
40
0.10836584783114
40
0.216731695662285
40
0.216731695662285
40
0.325097543493431
40
0.325097543493431
40
0.433463391324577
40
0.433463391324577
40
0.541829239155722
40
0.541829239155722
40
0.56892070111351
40
0.56892070111351
40
0.596012163071297
40
0.596012163071297
40
0.650195086986872
40
0.650195086986872
40
0.758560934818021
40
0.758560934818021
40
0.785652396775809
40
0.785652396775809
40
0.812743858733597
40
0.812743858733597
40
0.866926782649173
40
0.866926782649173
40
0.975292630480326
40
0.975292630480326
40
1
40
1
40
1
40
1
41
1
10
67.1001327411319
20
-2.56022044134846
30
0
41
1
10
66.7917172435185
20
-2.57871763677252
30
0
41
1
10
66.4836983444238
20
-2.583565419537
30
0
41
1
10
66.020982976692
20
-2.57049940328162
30
0
41
1
10
65.8666282618138
20
-2.56275393400878
30
0
41
1
10
65.5574787951664
20
-2.54049398897703
30
0
41
1
10
65.4025743549021
20
-2.52595494950953
30
0
41
1
10
64.6314459964253
20
-2.43706249642517
30
0
41
1
10
64.0214856452299
20
-2.3138353121245
30
0
41
1
10
62.8004653107669
20
-1.97844842390705
30
0
41
1
10
62.1895832029795
20
-1.76604255544646
30
0
41
1
10
60.9515983688514
20
-1.27082901485505
30
0
41
1
10
60.3399567151178
20
-0.994223818162197
30
0
41
1
10
59.1191187481173
20
-0.41256703304748
30
0
41
1
10
58.5091999977759
20
-0.108090918091563
30
0
41
1
10
57.7387560760903
20
0.271940132457928
30
0
41
1
10
57.5839376155176
20
0.348027049037341
30
0
41
1
10
57.2747702311329
20
0.498764692321032
30
0
41
1
10
57.1206503266433
20
0.573303129964557
30
0
41
1
10
56.6593580997087
20
0.793831216803227
30
0
41
1
10
56.3533079260453
20
0.936840353764779
30
0
41
1
10
55.4366866774227
20
1.34841863427812
30
0
41
1
10
54.8277269276625
20
1.59961685977814
30
0
41
1
10
54.0596423310122
20
1.86794317542134
30
0
41
1
10
53.9056963994569
20
1.91935532227961
30
0
41
1
10
53.5969744347157
20
2.01735671543051
30
0
41
1
10
53.4419296748308
20
2.06396887409903
30
0
41
1
10
52.9789081216153
20
2.19477333598664
30
0
41
1
10
52.6719670465786
20
2.27026694980964
30
0
41
1
10
51.7535210696043
20
2.45976075862242
30
0
41
1
10
51.1448879204006
20
2.5369715601899
30
0
41
1
10
50.3922573143412
20
2.56625783091843
30
0
41
1
10
50.2523416945615
20
2.56893593309175
30
0
41
1
10
50.1121394266426
20
2.56881856624653
30
0
0
SPLINE
5
D8
100
AcDbEntity
8
1
62
256
6
ByLayer
370
18
48
1
60
0
100
AcDbSpline
70
4
71
3
72
40
73
36
40
0
40
0
40
0
40
0
40
0.0850918645914183
40
0.0850918645914183
40
0.110583872169438
40
0.110583872169438
40
0.136075879747458
40
0.136075879747458
40
0.187059894903497
40
0.187059894903497
40
0.289027925215575
40
0.289027925215575
40
0.340011940371613
40
0.340011940371613
40
0.390995955527653
40
0.390995955527653
40
0.492963985839732
40
0.492963985839732
40
0.543948000995772
40
0.543948000995772
40
0.569440008573793
40
0.569440008573793
40
0.594932016151813
40
0.594932016151813
40
0.696900046463894
40
0.696900046463894
40
0.747884061619935
40
0.747884061619935
40
0.773376069197954
40
0.773376069197954
40
0.798868076775974
40
0.798868076775974
40
0.900836107088054
40
0.900836107088054
40
1
40
1
40
1
40
1
41
1
10
35.4919347441238
20
-2.41994108732922
30
0
41
1
10
34.9819488320042
20
-2.50136352474584
30
0
41
1
10
34.4721058714541
20
-2.54785363968139
30
0
41
1
10
33.8043255105343
20
-2.55967703973727
30
0
41
1
10
33.6500321578263
20
-2.55904913433255
30
0
41
1
10
33.3404347902916
20
-2.55098604686299
30
0
41
1
10
33.1855007198033
20
-2.5435521169079
30
0
41
1
10
32.7227724974829
20
-2.51133748743001
30
0
41
1
10
32.4159110169597
20
-2.4766283165437
30
0
41
1
10
31.4974400919041
20
-2.33499456601558
30
0
41
1
10
30.8877928640146
20
-2.19066409354173
30
0
41
1
10
29.9670556584788
20
-1.90878470389754
30
0
41
1
10
29.6586995921022
20
-1.80405528013182
30
0
41
1
10
29.0387967796238
20
-1.57561706419293
30
0
41
1
10
28.7308869317056
20
-1.45307991948431
30
0
41
1
10
27.8104503057127
20
-1.06585020596501
30
0
41
1
10
27.2007334300159
20
-0.782433459395975
30
0
41
1
10
26.2818830785326
20
-0.339383509938358
30
0
41
1
10
25.9747721500485
20
-0.188950710785377
30
0
41
1
10
25.5115415957244
20
0.0381308969153906
30
0
41
1
10
25.3563702392542
20
0.114223714411423
30
0
41
1
10
25.0468550402734
20
0.265601779256599
30
0
41
1
10
24.8925919740321
20
0.340859286142717
30
0
41
1
10
24.1229839191272
20
0.713425781570095
30
0
41
1
10
23.5127628784448
20
0.999565449528887
30
0
41
1
10
22.595031251451
20
1.39061530051367
30
0
41
1
10
22.2886991015351
20
1.51457117298173
30
0
41
1
10
21.8271897623557
20
1.68837332848145
30
0
41
1
10
21.6730214891038
20
1.74429165771625
30
0
41
1
10
21.3637821584125
20
1.85166511198253
30
0
41
1
10
21.2084867059842
20
1.90318141638923
30
0
41
1
10
20.4356012944359
20
2.1466173116635
30
0
41
1
10
19.8244806138305
20
2.29771350341071
30
0
41
1
10
18.6178718284659
20
2.49701268198734
30
0
41
1
10
18.023003733887
20
2.54837270872429
30
0
41
1
10
17.4210817941212
20
2.54839079576189
30
0
0
SPLINE
5
D9
100
AcDbEntity
8
1
62
256
6
ByLayer
370
18
48
1
60
0
100
AcDbSpline
70
4
71
3
72
8
73
4
40
0
40
0
40
0
40
0
40
1
40
1
40
1
40
1
41
1
10
67.9999440757196
20
0.0339267434625299
30
0
41
1
10
68.0000186414259
20
0.0113089144874152
30
0
41
1
10
68.0000186414259
20
-0.0113089144876994
30
0
41
1
10
67.9999440757197
20
-0.0339267434628141
30
0
0
SPLINE
5
DA
100
AcDbEntity
8
1
62
256
6
ByLayer
370
18
48
1
60
0
100
AcDbSpline
70
4
71
3
72
10
73
6
40
0
40
0
40
0
40
0
40
0.5
40
0.5
40
1
40
1
40
1
40
1
41
1
10
67.1919165654799
20
2.47882371096861
30
0
41
1
10
67.3082803423986
20
2.18905627577092
30
0
41
1
10
67.4246681603467
20
1.8991877888966
30
0
41
1
10
67.6565164943979
20
1.31876697468772
30
0
41
1
10
67.7720044100261
20
1.02823320610418
30
0
41
1
10
67.8866539281017
20
0.737203039683408
30
0
0
SPLINE
5
DB
100
AcDbEntity
8
1
62
256
6
ByLayer
370
18
48
1
60
0
100
AcDbSpline
70
4
71
3
72
8
73
4
40
0
40
0
40
0
40
0
40
1
40
1
40
1
40
1
41
1
10
67.0705862412771
20
-2.42924855335846
30
0
41
1
10
67.0794070599904
20
-2.43514528263384
30
0
41
1
10
67.089308187495
20
-2.4378912321676
30
0
41
1
10
67.100328976681
20
-2.4375364457857
30
0
0
SPLINE
5
DC
100
AcDbEntity
8
1
62
256
6
ByLayer
370
18
48
1
60
0
100
AcDbSpline
70
4
71
3
72
8
73
4
40
0
40
0
40
0
40
0
40
1
40
1
40
1
40
1
41
1
10
8.07329330006749
20
0.579415615995543
30
0
41
1
10
8.09277140994405
20
0.558051100343221
30
0
41
1
10
8.11526565531409
20
0.540203910725666
30
0
41
1
10
8.1412518989581
20
0.526407771260352
30
0
0
SPLINE
5
DD
100
AcDbEntity
8
1
62
256
6
ByLayer
370
18
48
1
60
0
100
AcDbSpline
70
4
71
3
72
8
73
4
40
0
40
0
40
0
40
0
40
1
40
1
40
1
40
1
41
1
10
8.14024862570901
20
0.532804617373444
30
0
41
1
10
8.11526003525557
20
0.544739841935041
30
0
41
1
10
8.09294432383908
20
0.560295893356937
30
0
41
1
10
8.07329330006792
20
0.579415615993213
30
0
0
SPLINE
5
DE
100
AcDbEntity
8
1
62
256
6
ByLayer
370
18
48
1
60
0
100
AcDbSpline
70
4
71
3
72
8
73
4
40
0
40
0
40
0
40
0
40
1
40
1
40
1
40
1
41
1
10
8.024945529701
20
2.51229123310066
30
0
41
1
10
7.88975638983092
20
2.53172158102498
30
0
41
1
10
7.75762509379047
20
2.5421297308111
30
0
41
1
10
7.6283491801548
20
2.54232607106951
30
0
0
SPLINE
5
DF
100
AcDbEntity
8
1
62
256
6
ByLayer
370
18
48
1
60
0
100
AcDbSpline
70
4
71
3
72
12
73
8
40
0
40
0
40
0
40
0
40
0.2295945989149
40
0.2295945989149
40
0.541629012277822
40
0.541629012277822
40
1
40
1
40
1
40
1
41
1
10
50.3622350950788
20
-2.42711796643596
30
0
41
1
10
50.1353439439386
20
-2.42732298566295
30
0
41
1
10
49.90905921211
20
-2.42058875490019
30
0
41
1
10
49.3771683417984
20
-2.38879818441774
30
0
41
1
10
49.0717877280617
20
-2.35814623259935
30
0
41
1
10
48.3183664297413
20
-2.25303627341879
30
0
41
1
10
47.8706368402948
20
-2.16458135159152
30
0
41
1
10
47.4207619597194
20
-2.05266796747281
30
0
0
SPLINE
5
E0
100
AcDbEntity
8
1
62
256
6
ByLayer
370
13
48
1
60
0
100
AcDbSpline
70
4
71
3
72
22
73
18
40
0
40
0
40
0
40
0
40
0.0573274128319028
40
0.0573274128319028
40
0.165283498160807
40
0.165283498160807
40
0.273239583489712
40
0.273239583489712
40
0.489151754147525
40
0.489151754147525
40
0.59710783947643
40
0.59710783947643
40
0.705063924805334
40
0.705063924805334
40
0.920976095463144
40
0.920976095463144
40
1
40
1
40
1
40
1
41
1
10
47.4207629303004
20
-2.05266820891993
30
0
41
1
10
47.2581360509511
20
-2.01221225140765
30
0
41
1
10
47.095228830342
20
-1.96869079794087
30
0
41
1
10
46.6243694766117
20
-1.83470854217487
30
0
41
1
10
46.3144728834218
20
-1.73645977552098
30
0
41
1
10
45.6993745020048
20
-1.524213381538
30
0
41
1
10
45.3932908124352
20
-1.40993034683228
30
0
41
1
10
44.4768349508914
20
-1.0479735263923
30
0
41
1
10
43.8680205290958
20
-0.781319264940436
30
0
41
1
10
42.9486810073313
20
-0.362353222243428
30
0
41
1
10
42.6407658734387
20
-0.219470701915554
30
0
41
1
10
42.0226779580044
20
0.0678933897725074
30
0
41
1
10
41.7154655928911
20
0.211107671287834
30
0
41
1
10
40.7967026029177
20
0.634072604594479
30
0
41
1
10
40.1879534120996
20
0.906757190367074
30
0
41
1
10
39.3525856286713
20
1.24770231470586
30
0
41
1
10
39.1283879325894
20
1.33597504969174
30
0
41
1
10
38.9034944011677
20
1.42054279892193
30
0
0
SPLINE
5
E1
100
AcDbEntity
8
1
62
256
6
ByLayer
370
18
48
1
60
0
100
AcDbSpline
70
4
71
3
72
16
73
12
40
0
40
0
40
0
40
0
40
0.0548485872853156
40
0.0548485872853156
40
0.193352999048176
40
0.193352999048176
40
0.331857410811036
40
0.331857410811036
40
0.608866234336759
40
0.608866234336759
40
1
40
1
40
1
40
1
41
1
10
17.645714521354
20
-2.40639409047614
30
0
41
1
10
17.5847179028526
20
-2.40636305183924
30
0
41
1
10
17.5236644583202
20
-2.40583756101097
30
0
41
1
10
17.3082151628963
20
-2.40223153033779
30
0
41
1
10
17.1532899120886
20
-2.39646984798009
30
0
41
1
10
16.8447504097048
20
-2.37869869926624
30
0
41
1
10
16.6908718405426
20
-2.36669385610014
30
0
41
1
10
16.2300952219389
20
-2.32143987245541
30
0
41
1
10
15.9241717502866
20
-2.27899091917794
30
0
41
1
10
15.1872512008011
20
-2.14927354074777
30
0
41
1
10
14.7564354923032
20
-2.0505088075065
30
0
41
1
10
14.3240757241594
20
-1.93133568558005
30
0
0
SPLINE
5
E2
100
AcDbEntity
8
1
62
256
6
ByLayer
370
13
48
1
60
0
100
AcDbSpline
70
4
71
3
72
20
73
16
40
0
40
0
40
0
40
0
40
0.0892545306565734
40
0.0892545306565734
40
0.165149986435194
40
0.165149986435194
40
0.241045442213815
40
0.241045442213815
40
0.392836353771053
40
0.392836353771053
40
0.696418176885528
40
0.696418176885528
40
0.848209088442764
40
0.848209088442764
40
1
40
1
40
1
40
1
41
1
10
14.3240757175533
20
-1.93133568375916
30
0
41
1
10
14.1440236675514
20
-1.88170718794245
30
0
41
1
10
13.9637038427726
20
-1.82853941713725
30
0
41
1
10
13.6292739237449
20
-1.723936169436
30
0
41
1
10
13.4752685060763
20
-1.67346251971733
30
0
41
1
10
13.1663951779765
20
-1.56797097290229
30
0
41
1
10
13.0114702841809
20
-1.51292156974728
30
0
41
1
10
12.548774332197
20
-1.34279484402214
30
0
41
1
10
12.2419125019479
20
-1.22223752154108
30
0
41
1
10
11.3236513639517
20
-0.844382287623574
30
0
41
1
10
10.7141594167563
20
-0.571452505299987
30
0
41
1
10
9.79495692098982
20
-0.149854888398835
30
0
41
1
10
9.48766188731844
20
-0.007446871557022
30
0
41
1
10
8.86948467911489
20
0.277219943911973
30
0
41
1
10
8.55974592149647
20
0.418914425279581
30
0
41
1
10
8.25034141220024
20
0.557603147020387
30
0
0
SPLINE
5
E3
100
AcDbEntity
8
1
62
256
6
ByLayer
370
18
48
1
60
0
100
AcDbSpline
70
4
71
3
72
8
73
4
40
0
40
0
40
0
40
0
40
1
40
1
40
1
40
1
41
1
10
67.1919165654818
20
-2.47882371096219
30
0
41
1
10
67.1573183481024
20
-2.51637606058475
30
0
41
1
10
67.126812662212
20
-2.54358048420997
30
0
41
1
10
67.1001327411317
20
-2.56022044134846
30
0
0
SPLINE
5
E4
100
AcDbEntity
8
1
62
256
6
ByLayer
370
18
48
1
60
0
100
AcDbSpline
70
4
71
3
72
8
73
4
40
0
40
0
40
0
40
0
40
1
40
1
40
1
40
1
41
1
10
8.24951025801744
20
-2.34103724150688
30
0
41
1
10
8.24988852384197
20
-2.34099779791765
30
0
41
1
10
8.25026672534338
20
-2.34095914051937
30
0
41
1
10
8.25064485759708
20
-2.34092126875495
30
0
0
SPLINE
5
E5
100
AcDbEntity
8
1
62
256
6
ByLayer
370
18
48
1
60
0
100
AcDbSpline
70
4
71
3
72
49
73
45
40
0
40
0
40
0
40
0
40
0.125000000000005
40
0.125000000000005
40
0.187500000000007
40
0.187500000000007
40
0.25000000000001
40
0.25000000000001
40
0.312500000000012
40
0.312500000000012
40
0.343750000000013
40
0.343750000000013
40
0.375000000000014
40
0.375000000000014
40
0.437500000000018
40
0.437500000000018
40
0.500000000000021
40
0.500000000000021
40
0.531250000000023
40
0.531250000000023
40
0.562500000000025
40
0.593750000000027
40
0.593750000000027
40
0.625000000000029
40
0.625000000000029
40
0.656250000000031
40
0.656250000000031
40
0.687500000000033
40
0.687500000000033
40
0.750000000000039
40
0.750000000000039
40
0.765625000000041
40
0.765625000000041
40
0.769531250000041
40
0.769531250000041
40
0.773437500000041
40
0.773437500000041
40
0.781250000000038
40
0.781250000000038
40
0.812500000000032
40
0.812500000000032
40
0.87500000000002
40
0.87500000000002
40
1
40
1
40
1
40
1
41
1
10
8.024945529701
20
-2.51229123310066
30
0
41
1
10
7.80627030148943
20
-2.54372079741819
30
0
41
1
10
7.59559582637695
20
-2.5515440614351
30
0
41
1
10
7.29029993628038
20
-2.52031737238335
30
0
41
1
10
7.19033888152765
20
-2.50269946951883
30
0
41
1
10
6.99414882222757
20
-2.45058274424508
30
0
41
1
10
6.89920909700248
20
-2.41636337731794
30
0
41
1
10
6.71792485413633
20
-2.33041363803136
30
0
41
1
10
6.63126775795175
20
-2.27864231656059
30
0
41
1
10
6.50828579930993
20
-2.18533450145489
30
0
41
1
10
6.46831433817727
20
-2.15144624230118
30
0
41
1
10
6.39210748931362
20
-2.07881216152157
30
0
41
1
10
6.35580898983682
20
-2.04005333764522
30
0
41
1
10
6.25279944380011
20
-1.91591060380549
30
0
41
1
10
6.19180836723501
20
-1.82273429928415
30
0
41
1
10
6.09027153945598
20
-1.6105714528868
30
0
41
1
10
6.05152283242609
20
-1.49527595376901
30
0
41
1
10
6.01531991671973
20
-1.30654040316756
30
0
41
1
10
6.00694084014424
20
-1.24040614618278
30
0
41
1
10
5.99884777056371
20
-1.10624186684743
30
0
41
1
10
5.99920103260865
20
-0.969822803734644
30
0
41
1
10
6.01687407986142
20
-0.829051075056498
30
0
41
1
10
6.04364194152828
20
-0.686133179193547
30
0
41
1
10
6.06155174615691
20
-0.614109038806561
30
0
41
1
10
6.10511215720445
20
-0.472696494451469
30
0
41
1
10
6.13085862660188
20
-0.402759909243429
30
0
41
1
10
6.18985240846294
20
-0.264399788366006
30
0
41
1
10
6.22325593311857
20
-0.195734071999453
30
0
41
1
10
6.33245554253236
20
0.0048357249025059
30
0
41
1
10
6.41770730315287
20
0.132399706906057
30
0
41
1
10
6.5346524860914
20
0.282374971217337
30
0
41
1
10
6.5588461337201
20
0.311697935167587
30
0
41
1
10
6.58881342956033
20
0.348497073498606
30
0
41
1
10
6.59570508753589
20
0.355300934310037
30
0
41
1
10
6.61287266192795
20
0.363369989970181
30
0
41
1
10
6.62250403754379
20
0.364708860223857
30
0
41
1
10
6.65102266905626
20
0.366123620053685
30
0
41
1
10
6.67004715815901
20
0.366836090790912
30
0
41
1
10
6.76519214060875
20
0.369967660883134
30
0
41
1
10
6.84130466966468
20
0.370287234017042
30
0
41
1
10
7.0696070337525
20
0.364907278723052
30
0
41
1
10
7.22099945961762
20
0.352888997644357
30
0
41
1
10
7.66949925534021
20
0.293485977892942
30
0
41
1
10
7.96236945870731
20
0.222567825713981
30
0
41
1
10
8.24951025801744
20
0.121624015918854
30
0
0
SPLINE
5
E6
100
AcDbEntity
8
1
62
256
6
ByLayer
370
18
48
1
60
0
100
AcDbSpline
70
4
71
3
72
8
73
4
40
0
40
0
40
0
40
0
40
1
40
1
40
1
40
1
41
1
10
67.1173296220708
20
-2.51609700063847
30
0
41
1
10
67.1116017866948
20
-2.53081001455905
30
0
41
1
10
67.1058693703919
20
-2.54551795939651
30
0
41
1
10
67.1001327411318
20
-2.56022044134849
30
0
0
SPLINE
5
E7
100
AcDbEntity
8
1
62
256
6
ByLayer
370
18
48
1
60
0
100
AcDbSpline
70
4
71
3
72
8
73
4
40
0
40
0
40
0
40
0
40
1
40
1
40
1
40
1
41
1
10
67.8902959570483
20
-0.177114618770815
30
0
41
1
10
67.7902496352962
20
-0.451989628684004
30
0
41
1
10
67.690203313544
20
-0.726864638597249
30
0
41
1
10
67.5901569917918
20
-1.00173964851049
30
0
0
SPLINE
5
E8
100
AcDbEntity
8
1
62
256
6
ByLayer
370
18
48
1
60
0
100
AcDbSpline
70
4
71
3
72
12
73
8
40
0
40
0
40
0
40
0
40
0.250000000000011
40
0.250000000000011
40
0.500000000000023
40
0.500000000000023
40
1
40
1
40
1
40
1
41
1
10
8.02494552969418
20
-2.51229123311501
30
0
41
1
10
8.0368329735403
20
-2.48725301327482
30
0
41
1
10
8.05247899115406
20
-2.46424606346403
30
0
41
1
10
8.08749111427034
20
-2.42457196965674
30
0
41
1
10
8.10644545620661
20
-2.40808939532422
30
0
41
1
10
8.16649765264532
20
-2.36604619829563
30
0
41
1
10
8.20815110969625
20
-2.3493843722465
30
0
41
1
10
8.24951025801744
20
-2.34103724150688
30
0
0
SPLINE
5
E9
100
AcDbEntity
8
1
62
256
6
ByLayer
370
18
48
1
60
0
100
AcDbSpline
70
4
71
3
72
12
73
8
40
0
40
0
40
0
40
0
40
0.25
40
0.25
40
0.5
40
0.5
40
1
40
1
40
1
40
1
41
1
10
66.9251241566426
20
0.669518168703121
30
0
41
1
10
66.923044942945
20
0.679454986350606
30
0
41
1
10
66.922908268763
20
0.689867778759066
30
0
41
1
10
66.9284291452302
20
0.709281682799173
30
0
41
1
10
66.934318217642
20
0.718251069969085
30
0
41
1
10
66.9578943427251
20
0.738075579442096
30
0
41
1
10
66.9792509949326
20
0.742217666328514
30
0
41
1
10
66.9996422251007
20
0.741959322959019
30
0
0
SPLINE
5
EA
100
AcDbEntity
8
1
62
256
6
ByLayer
370
18
48
1
60
0
100
AcDbSpline
70
4
71
3
72
10
73
6
40
0
40
0
40
0
40
0
40
0.5
40
0.5
40
1
40
1
40
1
40
1
41
1
10
66.999642225101
20
0.741959322956859
30
0
41
1
10
67.1476739314809
20
0.74008385936358
30
0
41
1
10
67.295527385684
20
0.739207645529746
30
0
41
1
10
67.5912472754723
20
0.73735439102839
30
0
41
1
10
67.7390587349514
20
0.736691198298047
30
0
41
1
10
67.8866539281016
20
0.737203039684118
30
0
0
SPLINE
5
EB
100
AcDbEntity
8
1
62
256
6
ByLayer
370
18
48
1
60
0
100
AcDbSpline
70
4
71
3
72
8
73
4
40
0
40
0
40
0
40
0
40
1
40
1
40
1
40
1
41
1
10
67.8866539281015
20
-0.737203039684147
30
0
41
1
10
67.9217857007515
20
-0.532027065882119
30
0
41
1
10
67.9527155583367
20
-0.326873215938264
30
0
41
1
10
67.9794118906985
20
-0.121741656285906
30
0
0
SPLINE
5
EC
100
AcDbEntity
8
1
62
256
6
ByLayer
370
18
48
1
60
0
100
AcDbSpline
70
4
71
3
72
18
73
14
40
0
40
0
40
0
40
0
40
0.250000000000002
40
0.250000000000002
40
0.375000000000004
40
0.375000000000004
40
0.500000000000005
40
0.500000000000005
40
0.750000000000001
40
0.750000000000001
40
0.875000000000001
40
0.875000000000001
40
1
40
1
40
1
40
1
41
1
10
67.0705862412777
20
-2.42924855335718
30
0
41
1
10
67.0214862105419
20
-2.41845995214081
30
0
41
1
10
66.9761517710551
20
-2.39722755457171
30
0
41
1
10
66.9142946797262
20
-2.34833711495998
30
0
41
1
10
66.8946542512298
20
-2.32908630453559
30
0
41
1
10
66.858284315635
20
-2.28540961012664
30
0
41
1
10
66.8414575741641
20
-2.26093173587577
30
0
41
1
10
66.7950667580998
20
-2.17955090748731
30
0
41
1
10
66.7695590356137
20
-2.11476498798808
30
0
41
1
10
66.7400292609512
20
-2.00061703243114
30
0
41
1
10
66.7316366283969
20
-1.95954390382664
30
0
41
1
10
66.7182005133003
20
-1.87303885651875
30
0
41
1
10
66.7131077141899
20
-1.82747814510321
30
0
41
1
10
66.7096453567132
20
-1.77960188476496
30
0
0
SPLINE
5
ED
100
AcDbEntity
8
1
62
256
6
ByLayer
370
18
48
1
60
0
100
AcDbSpline
70
4
71
3
72
34
73
30
40
0
40
0
40
0
40
0
40
0.125000000000016
40
0.125000000000016
40
0.250000000000033
40
0.250000000000033
40
0.500000000000055
40
0.500000000000055
40
0.562500000000059
40
0.562500000000059
40
0.625000000000062
40
0.625000000000062
40
0.750000000000061
40
0.750000000000061
40
0.781250000000061
40
0.781250000000061
40
0.81250000000006
40
0.81250000000006
40
0.820312500000059
40
0.820312500000059
40
0.828125000000057
40
0.828125000000057
40
0.835937500000055
40
0.835937500000055
40
0.843750000000053
40
0.843750000000053
40
0.875000000000042
40
0.875000000000042
40
1
40
1
40
1
40
1
41
1
10
65.1473671782967
20
-0.397959711669245
30
0
41
1
10
65.2542546616201
20
-0.422241042204661
30
0
41
1
10
65.3611220176681
20
-0.441074003972119
30
0
41
1
10
65.5748081951575
20
-0.465601813587455
30
0
41
1
10
65.6816040597327
20
-0.470437500730697
30
0
41
1
10
65.9939702173901
20
-0.462210157218521
30
0
41
1
10
66.194212880023
20
-0.426706495824703
30
0
41
1
10
66.4314472423654
20
-0.333296481336788
30
0
41
1
10
66.4782882379041
20
-0.312076205025875
30
0
41
1
10
66.5692499719767
20
-0.264997921185255
30
0
41
1
10
66.6135334173892
20
-0.239085128644206
30
0
41
1
10
66.7427209053535
20
-0.154085881579988
30
0
41
1
10
66.8234701531771
20
-0.087958597534282
30
0
41
1
10
66.9165923426347
20
0.0052998534193591
30
0
41
1
10
66.9348397420122
20
0.0244881504768273
30
0
41
1
10
66.9705342434239
20
0.0638580022057909
30
0
41
1
10
66.9876037385301
20
0.0845064309697818
30
0
41
1
10
67.0095696852954
20
0.109557595696941
30
0
41
1
10
67.0139559566065
20
0.114659929393213
30
0
41
1
10
67.0208623299776
20
0.126526967652239
30
0
41
1
10
67.0231545241354
20
0.1336569911021
30
0
41
1
10
67.0253433895439
20
0.148706503001904
30
0
41
1
10
67.0252948887963
20
0.156798570053667
30
0
41
1
10
67.0234564293265
20
0.172841345398894
30
0
41
1
10
67.0218484849461
20
0.180854730859267
30
0
41
1
10
67.0144075753765
20
0.220928615793611
30
0
41
1
10
67.0083705348343
20
0.252987682719265
30
0
41
1
10
66.9777471456486
20
0.413266779155919
30
0
41
1
10
66.9519280686715
20
0.541418980835175
30
0
41
1
10
66.9251241566425
20
0.669518168703121
30
0
0
SPLINE
5
EE
100
AcDbEntity
8
1
62
256
6
ByLayer
370
18
48
1
60
0
100
AcDbSpline
70
4
71
3
72
84
73
80
40
0
40
0
40
0
40
0
40
0.0046459927783925
40
0.0046459927783925
40
0.02576711397579
40
0.02576711397579
40
0.0468882351731875
40
0.0468882351731875
40
0.068009356370585
40
0.068009356370585
40
0.0891304775679825
40
0.0891304775679825
40
0.131372719962777
40
0.131372719962777
40
0.173614962357573
40
0.173614962357573
40
0.194736083554971
40
0.194736083554971
40
0.215857204752369
40
0.215857204752369
40
0.236978325949768
40
0.236978325949768
40
0.258099447147166
40
0.258099447147166
40
0.279220568344564
40
0.279220568344564
40
0.300341689541962
40
0.300341689541962
40
0.321462810739361
40
0.321462810739361
40
0.342583931936759
40
0.342583931936759
40
0.363705053134158
40
0.363705053134158
40
0.384826174331556
40
0.384826174331556
40
0.405947295528954
40
0.405947295528954
40
0.427068416726352
40
0.427068416726352
40
0.469310659121149
40
0.469310659121149
40
0.490431780318547
40
0.490431780318547
40
0.511552901515944
40
0.511552901515944
40
0.553795143910739
40
0.553795143910739
40
0.574916265108137
40
0.574916265108137
40
0.596037386305534
40
0.596037386305534
40
0.638279628700329
40
0.638279628700329
40
0.659400749897726
40
0.659400749897726
40
0.680521871095123
40
0.680521871095123
40
0.701642992292519
40
0.701642992292519
40
0.722764113489916
40
0.722764113489916
40
0.76500635588471
40
0.76500635588471
40
0.807248598279503
40
0.807248598279503
40
0.849490840674297
40
0.849490840674297
40
0.870611961871694
40
0.870611961871694
40
0.891733083069092
40
0.891733083069092
40
0.933975325463887
40
0.933975325463887
40
0.955096446661284
40
0.955096446661284
40
0.976217567858682
40
0.976217567858682
40
1
40
1
40
1
40
1
41
1
10
60.8002672910401
20
-1.51248852155567
30
0
41
1
10
60.7678687493921
20
-1.52437262809394
30
0
41
1
10
60.7354717835435
20
-1.53617465129818
30
0
41
1
10
60.5558025371894
20
-1.60116850198861
30
0
41
1
10
60.4083215064804
20
-1.65254979866165
30
0
41
1
10
60.112869264934
20
-1.750888756438
30
0
41
1
10
59.9649111264541
20
-1.79777077609188
30
0
41
1
10
59.6683946215811
20
-1.88744757887051
30
0
41
1
10
59.5198301017269
20
-1.93027443089289
30
0
41
1
10
59.2221435563291
20
-2.01177600491928
30
0
41
1
10
59.0730924417209
20
-2.05065143382794
30
0
41
1
10
58.624402524735
20
-2.15868803735569
30
0
41
1
10
58.3269517873271
20
-2.21906401912665
30
0
41
1
10
57.7343247888599
20
-2.31659977309298
30
0
41
1
10
57.4393187306876
20
-2.35564701519945
30
0
41
1
10
56.9965170054256
20
-2.39674005157101
30
0
41
1
10
56.8489523426238
20
-2.40766165849271
30
0
41
1
10
56.5538104665528
20
-2.42310584582978
30
0
41
1
10
56.4062102353562
20
-2.42736786926508
30
0
41
1
10
56.1109629335714
20
-2.43041800282322
30
0
41
1
10
55.9634274201449
20
-2.42935886967348
30
0
41
1
10
55.6674810620835
20
-2.42089692926081
30
0
41
1
10
55.5191976036478
20
-2.41335358244101
30
0
41
1
10
55.2219883996037
20
-2.39290514484918
30
0
41
1
10
55.0730521923002
20
-2.38004752973333
30
0
41
1
10
54.7744407567135
20
-2.34860893651273
30
0
41
1
10
54.6247618235613
20
-2.32992006022656
30
0
41
1
10
54.3268015793423
20
-2.28685756804916
30
0
41
1
10
54.178117579252
20
-2.26262984054
30
0
41
1
10
53.8813613210647
20
-2.20829563301555
30
0
41
1
10
53.7333743306899
20
-2.17771793445368
30
0
41
1
10
53.4375942272355
20
-2.11248941394049
30
0
41
1
10
53.2897487981833
20
-2.07804121009966
30
0
41
1
10
52.9946944216045
20
-2.00359631748364
30
0
41
1
10
52.847438913893
20
-1.96370233770048
30
0
41
1
10
52.5525701922875
20
-1.87974820434269
30
0
41
1
10
52.4050735828822
20
-1.83561033657526
30
0
41
1
10
52.1099373587994
20
-1.7427429804778
30
0
41
1
10
51.9623054268153
20
-1.69316632296761
30
0
41
1
10
51.5188364121038
20
-1.53989280825439
30
0
41
1
10
51.2229765974793
20
-1.43022149485037
30
0
41
1
10
50.7763719587857
20
-1.25606671069343
30
0
41
1
10
50.6269561222946
20
-1.19624124334044
30
0
41
1
10
50.3279505424751
20
-1.07355429211796
30
0
41
1
10
50.1790800633727
20
-1.01046744840559
30
0
41
1
10
49.7339899770695
20
-0.817176758423017
30
0
41
1
10
49.4379912569208
20
-0.685907455007225
30
0
41
1
10
48.994773453264
20
-0.485717724129046
30
0
41
1
10
48.8471713796488
20
-0.418435506134642
30
0
41
1
10
48.5522314930781
20
-0.282724518074559
30
0
41
1
10
48.4050561270149
20
-0.213926315425937
30
0
41
1
10
47.9632966786109
20
-0.0072242268657874
30
0
41
1
10
47.668204314626
20
0.130296881085087
30
0
41
1
10
47.2242776593066
20
0.335283150766031
30
0
41
1
10
47.0759963333459
20
0.403160792415264
30
0
41
1
10
46.7793555142547
20
0.539253213255193
30
0
41
1
10
46.6307776172572
20
0.606982055349789
30
0
41
1
10
46.3325321177964
20
0.74054018365149
30
0
41
1
10
46.1828162181877
20
0.806605090980895
30
0
41
1
10
45.8849002609069
20
0.935812821968909
30
0
41
1
10
45.7364161558976
20
0.998972329412851
30
0
41
1
10
45.2919130705869
20
1.18423013323448
30
0
41
1
10
44.996995807007
20
1.30336207067165
30
0
41
1
10
44.4070032358894
20
1.52619629209653
30
0
41
1
10
44.1121411652938
20
1.63000282378326
30
0
41
1
10
43.5232826461558
20
1.82231727427137
30
0
41
1
10
43.2281912561727
20
1.91027265509339
30
0
41
1
10
42.7838753214271
20
2.02856140852737
30
0
41
1
10
42.6354985862887
20
2.06564524189739
30
0
41
1
10
42.3380770761268
20
2.13440682235847
30
0
41
1
10
42.1890617627406
20
2.16606323209726
30
0
41
1
10
41.7410584288239
20
2.25259677879305
30
0
41
1
10
41.4433324646383
20
2.30015578080241
30
0
41
1
10
40.9983039436851
20
2.35485851203157
30
0
41
1
10
40.8501222359627
20
2.37030454796974
30
0
41
1
10
40.5547377930872
20
2.39519729426189
30
0
41
1
10
40.4071707251142
20
2.40445696721542
30
0
41
1
10
40.0933822719182
20
2.41732210539271
30
0
41
1
10
39.9271601616279
20
2.42070252822859
30
0
41
1
10
39.7608587194268
20
2.42024784503062
30
0
0
SPLINE
5
EF
100
AcDbEntity
8
1
62
256
6
ByLayer
370
18
48
1
60
0
100
AcDbSpline
70
4
71
3
72
74
73
70
40
0
40
0
40
0
40
0
40
0.0142486095767727
40
0.0142486095767727
40
0.0590554909596452
40
0.0590554909596452
40
0.0814589316510823
40
0.0814589316510823
40
0.103862372342519
40
0.103862372342519
40
0.148669253725393
40
0.148669253725393
40
0.193476135108268
40
0.193476135108268
40
0.215879575799706
40
0.215879575799706
40
0.238283016491143
40
0.238283016491143
40
0.260686457182581
40
0.260686457182581
40
0.283089897874018
40
0.283089897874018
40
0.327896779256893
40
0.327896779256893
40
0.372703660639767
40
0.372703660639767
40
0.395107101331204
40
0.395107101331204
40
0.417510542022641
40
0.417510542022641
40
0.439913982714078
40
0.439913982714078
40
0.462317423405515
40
0.462317423405515
40
0.484720864096952
40
0.484720864096952
40
0.507124304788389
40
0.507124304788389
40
0.529527745479826
40
0.529527745479826
40
0.551931186171263
40
0.551931186171263
40
0.5743346268627
40
0.5743346268627
40
0.596738067554138
40
0.596738067554138
40
0.619141508245574
40
0.619141508245574
40
0.641544948937011
40
0.641544948937011
40
0.686351830319886
40
0.686351830319886
40
0.708755271011323
40
0.708755271011323
40
0.73115871170276
40
0.73115871170276
40
0.775965593085634
40
0.775965593085634
40
0.820772474468507
40
0.820772474468507
40
0.843175915159944
40
0.843175915159944
40
0.86557935585138
40
0.86557935585138
40
0.910386237234253
40
0.910386237234253
40
0.955193118617127
40
0.955193118617127
40
1
40
1
40
1
40
1
41
1
10
28.0867948571479
20
-1.50831299376767
30
0
41
1
10
27.992462850304
20
-1.54254801822378
30
0
41
1
10
27.8979761948417
20
-1.57606799061034
30
0
41
1
10
27.5056634003932
20
-1.71182928162048
30
0
41
1
10
27.2059000545313
20
-1.80764372959027
30
0
41
1
10
26.760790578662
20
-1.93439756150193
30
0
41
1
10
26.6130260345141
20
-1.97444816462399
30
0
41
1
10
26.31738425506
20
-2.04980368699114
30
0
41
1
10
26.1696484202234
20
-2.08514338384882
30
0
41
1
10
25.7268531767551
20
-2.1836830653875
30
0
41
1
10
25.4320859240904
20
-2.23944391644193
30
0
41
1
10
24.843630171679
20
-2.32613533609947
30
0
41
1
10
24.5487403137518
20
-2.35847812034481
30
0
41
1
10
24.1051080655039
20
-2.39134391788141
30
0
41
1
10
23.9570007499182
20
-2.39950735951393
30
0
41
1
10
23.6602962174352
20
-2.40995642836609
30
0
41
1
10
23.5119021376346
20
-2.41223480512417
30
0
41
1
10
23.2138358701123
20
-2.41007528936052
30
0
41
1
10
23.0642329951695
20
-2.40568686974464
30
0
41
1
10
22.7657083038249
20
-2.39162566176697
30
0
41
1
10
22.6165469031447
20
-2.38194001356874
30
0
41
1
10
22.1693886120368
20
-2.34329031054486
30
0
41
1
10
21.8720370739932
20
-2.30574019421877
30
0
41
1
10
21.2753403597833
20
-2.2106470887949
30
0
41
1
10
20.9755581998028
20
-2.15210577756747
30
0
41
1
10
20.5299656876657
20
-2.04602503590144
30
0
41
1
10
20.3821276196795
20
-2.0072863793518
30
0
41
1
10
20.0860601346598
20
-1.92800635116024
30
0
41
1
10
19.9381419623521
20
-1.88644041557961
30
0
41
1
10
19.642617999924
20
-1.79907667536054
30
0
41
1
10
19.4949854723211
20
-1.75334357175359
30
0
41
1
10
19.1999131562376
20
-1.65780483932505
30
0
41
1
10
19.052574275975
20
-1.60792263649529
30
0
41
1
10
18.7580860886313
20
-1.50283096478492
30
0
41
1
10
18.6107336044998
20
-1.44818198873981
30
0
41
1
10
18.3156083906465
20
-1.33655951639278
30
0
41
1
10
18.1678901470876
20
-1.27926497686067
30
0
41
1
10
17.8720189748525
20
-1.16097609894797
30
0
41
1
10
17.7238289362777
20
-1.10024290435376
30
0
41
1
10
17.4270547254325
20
-0.976261261769423
30
0
41
1
10
17.2786138444736
20
-0.912561968720098
30
0
41
1
10
16.980522621074
20
-0.783658958696577
30
0
41
1
10
16.83084950517
20
-0.718118053152722
30
0
41
1
10
16.5328336729396
20
-0.58595905458364
30
0
41
1
10
16.3841570877247
20
-0.519370489501227
30
0
41
1
10
16.087833204028
20
-0.384593156589062
30
0
41
1
10
15.9402275360241
20
-0.316288494120329
30
0
41
1
10
15.6451357395265
20
-0.179760546644047
30
0
41
1
10
15.4976222749963
20
-0.111645159980469
30
0
41
1
10
15.0552585713331
20
0.0923649946352327
30
0
41
1
10
14.760606143059
20
0.227949114583197
30
0
41
1
10
14.3188485673778
20
0.43010336492523
30
0
41
1
10
14.1717263194753
20
0.497513515875596
30
0
41
1
10
13.8767052741909
20
0.630170597239868
30
0
41
1
10
13.7289510186927
20
0.695725057974386
30
0
41
1
10
13.2849422995563
20
0.889980209650361
30
0
41
1
10
12.9879393770037
20
1.01628407281987
30
0
41
1
10
12.3909229953183
20
1.25998973557103
30
0
41
1
10
12.093514247487
20
1.37471852483708
30
0
41
1
10
11.6491852208387
20
1.53593569047021
30
0
41
1
10
11.5012942963594
20
1.58771387721833
30
0
41
1
10
11.2062837492445
20
1.68770750742834
30
0
41
1
10
11.0591301527864
20
1.73583551944458
30
0
41
1
10
10.6174182356253
20
1.87236331386291
30
0
41
1
10
10.3230222269557
20
1.95412822343215
30
0
41
1
10
9.73363708382888
20
2.09987651648851
30
0
41
1
10
9.43914911979999
20
2.16389731815371
30
0
41
1
10
8.8472714821194
20
2.26939426555666
30
0
41
1
10
8.54983028236032
20
2.31095640906878
30
0
41
1
10
8.25064485759714
20
2.34092126875501
30
0
0
SPLINE
5
F0
100
AcDbEntity
8
1
62
256
6
ByLayer
370
18
48
1
60
0
100
AcDbSpline
70
4
71
3
72
12
73
8
40
0
40
0
40
0
40
0
40
0.25
40
0.25
40
0.5
40
0.5
40
1
40
1
40
1
40
1
41
1
10
67.5901569917885
20
-1.00173964851953
30
0
41
1
10
67.5832750213219
20
-1.03335079133791
30
0
41
1
10
67.5741861864338
20
-1.06751959529012
30
0
41
1
10
67.5518826447031
20
-1.14074130208141
30
0
41
1
10
67.5392678002459
20
-1.1778249491089
30
0
41
1
10
67.4977110949645
20
-1.2901592457074
30
0
41
1
10
67.4670042565061
20
-1.36122177928553
30
0
41
1
10
67.4370965862989
20
-1.42226965642018
30
0
0
SPLINE
5
F1
100
AcDbEntity
8
1
62
256
6
ByLayer
370
18
48
1
60
0
100
AcDbSpline
70
4
71
3
72
8
73
4
40
0
40
0
40
0
40
0
40
1
40
1
40
1
40
1
41
1
10
67.9844744810718
20
-0.0010759611976141
30
0
41
1
10
67.9528919168947
20
-0.059585656604952
30
0
41
1
10
67.9214989071633
20
-0.118265058400709
30
0
41
1
10
67.8902959570373
20
-0.177114618790711
30
0
0
SPLINE
5
F2
100
AcDbEntity
8
1
62
256
6
ByLayer
370
18
48
1
60
0
100
AcDbSpline
70
4
71
3
72
8
73
4
40
0
40
0
40
0
40
0
40
1
40
1
40
1
40
1
41
1
10
8.25064485759714
20
2.34092126875501
30
0
41
1
10
8.25026672534344
20
2.34095914051943
30
0
41
1
10
8.249888523842
20
2.34099779791771
30
0
41
1
10
8.24951025801744
20
2.34103724150694
30
0
0
SPLINE
5
F3
100
AcDbEntity
8
1
62
256
6
ByLayer
370
18
48
1
60
0
100
AcDbSpline
70
4
71
3
72
14
73
10
40
0
40
0
40
0
40
0
40
0.25
40
0.25
40
0.5
40
0.5
40
0.75
40
0.75
40
1
40
1
40
1
40
1
41
1
10
8.24951025801744
20
2.34103724150694
30
0
41
1
10
8.22882128775092
20
2.34521270320508
30
0
41
1
10
8.20816529341582
20
2.35153978769731
30
0
41
1
10
8.16695281173654
20
2.36898350516245
30
0
41
1
10
8.1461990341873
20
2.38024751832097
30
0
41
1
10
8.10654419822296
20
2.40803027483497
30
0
41
1
10
8.08719901454091
20
2.42486942669314
30
0
41
1
10
8.05242527606367
20
2.46434080254272
30
0
41
1
10
8.03677808415347
20
2.48736862539442
30
0
41
1
10
8.02494552970103
20
2.51229123310066
30
0
0
SPLINE
5
F4
100
AcDbEntity
8
1
62
256
6
ByLayer
370
18
48
1
60
0
100
AcDbSpline
70
4
71
3
72
22
73
18
40
0
40
0
40
0
40
0
40
0.125
40
0.125
40
0.25
40
0.25
40
0.375
40
0.375
40
0.5
40
0.5
40
0.625000000000001
40
0.625000000000001
40
0.687500000000001
40
0.687500000000001
40
0.750000000000001
40
0.750000000000001
40
1
40
1
40
1
40
1
41
1
10
8.0247653980191
20
0.68514590899909
30
0
41
1
10
8.02478047790072
20
0.802416696425922
30
0
41
1
10
8.02479304860506
20
0.916940244790197
30
0
41
1
10
8.02481448404831
20
1.14043576794839
30
0
41
1
10
8.02482316556478
20
1.24742848761107
30
0
41
1
10
8.02483798652355
20
1.45175751912743
30
0
41
1
10
8.02484412978097
20
1.5491857502972
30
0
41
1
10
8.02485525236713
20
1.73439623760802
30
0
41
1
10
8.024860239399
20
1.82226128870784
30
0
41
1
10
8.02487000523502
20
1.98265905400129
30
0
41
1
10
8.02487482871348
20
2.05598093185586
30
0
41
1
10
8.02488274067389
20
2.15568873109984
30
0
41
1
10
8.02488548861604
20
2.18720575970522
30
0
41
1
10
8.02489131098781
20
2.24672900451932
30
0
41
1
10
8.02489439619606
20
2.2747999639966
30
0
41
1
10
8.02491060545304
20
2.40415858756373
30
0
41
1
10
8.02492641314035
20
2.47479907561177
30
0
41
1
10
8.02494552970086
20
2.51229123310066
30
0
0
SPLINE
5
F5
100
AcDbEntity
8
1
62
256
6
ByLayer
370
18
48
1
60
0
100
AcDbSpline
70
4
71
3
72
86
73
82
40
0
40
0
40
0
40
0
40
0.0079768304984537
40
0.0079768304984537
40
0.0296527763362161
40
0.0296527763362161
40
0.0513287221739785
40
0.0513287221739785
40
0.0730046680117409
40
0.0730046680117409
40
0.0946806138495033
40
0.0946806138495033
40
0.116356559687266
40
0.116356559687266
40
0.138032505525028
40
0.138032505525028
40
0.181384397200553
40
0.181384397200553
40
0.203060343038316
40
0.203060343038316
40
0.224736288876078
40
0.224736288876078
40
0.268088180551604
40
0.268088180551604
40
0.289764126389366
40
0.289764126389366
40
0.311440072227129
40
0.311440072227129
40
0.333116018064891
40
0.333116018064891
40
0.354791963902654
40
0.354791963902654
40
0.398143855578178
40
0.398143855578178
40
0.419819801415941
40
0.419819801415941
40
0.441495747253703
40
0.441495747253703
40
0.484847638929227
40
0.484847638929227
40
0.506523584766989
40
0.506523584766989
40
0.528199530604751
40
0.528199530604751
40
0.549875476442513
40
0.549875476442513
40
0.571551422280275
40
0.571551422280275
40
0.614903313955799
40
0.614903313955799
40
0.636579259793562
40
0.636579259793562
40
0.658255205631324
40
0.658255205631324
40
0.701607097306849
40
0.701607097306849
40
0.723283043144611
40
0.723283043144611
40
0.744958988982374
40
0.744958988982374
40
0.766634934820136
40
0.766634934820136
40
0.788310880657899
40
0.788310880657899
40
0.831662772333423
40
0.831662772333423
40
0.853338718171185
40
0.853338718171185
40
0.875014664008946
40
0.875014664008946
40
0.896690609846708
40
0.896690609846708
40
0.918366555684469
40
0.918366555684469
40
0.940042501522231
40
0.940042501522231
40
0.961718447359993
40
0.961718447359993
40
0.983394393197754
40
0.983394393197754
40
1
40
1
40
1
40
1
41
1
10
11.7573704530283
20
1.49232281445609
30
0
41
1
10
11.8140134930333
20
1.51473019971988
30
0
41
1
10
11.8707363560777
20
1.53684135645494
30
0
41
1
10
12.0818721240292
20
1.61797791939196
30
0
41
1
10
12.237013726385
20
1.6754274251085
30
0
41
1
10
12.5461991502598
20
1.78590211107905
30
0
41
1
10
12.7002746485245
20
1.83883085953778
30
0
41
1
10
13.0069600226856
20
1.94058927016326
30
0
41
1
10
13.1599246322086
20
1.98885850192494
30
0
41
1
10
13.4662402169499
20
2.07888947598579
30
0
41
1
10
13.619396395436
20
2.12094431880266
30
0
41
1
10
13.9252670880678
20
2.19975380057505
30
0
41
1
10
14.0780444387566
20
2.23643041690585
30
0
41
1
10
14.3831303709729
20
2.30436261343456
30
0
41
1
10
14.5351581710337
20
2.33582099918445
30
0
41
1
10
14.9929200349387
20
2.41981942264772
30
0
41
1
10
15.2997144809996
20
2.46289024272957
30
0
41
1
10
15.7607452233024
20
2.50908191668537
30
0
41
1
10
15.9144804565041
20
2.5213852852159
30
0
41
1
10
16.2225531340674
20
2.53929629535304
30
0
41
1
10
16.3774554342429
20
2.5447722938143
30
0
41
1
10
16.8403952677326
20
2.55116296440164
30
0
41
1
10
17.1477351943171
20
2.54230803903184
30
0
41
1
10
17.6056554898666
20
2.50894908172964
30
0
41
1
10
17.7578728249463
20
2.49442079053122
30
0
41
1
10
18.0631288856677
20
2.45940744747469
30
0
41
1
10
18.2159411371816
20
2.43887338770452
30
0
41
1
10
18.5214472357857
20
2.39156996373927
30
0
41
1
10
18.6741831064665
20
2.36481684695002
30
0
41
1
10
18.979548906552
20
2.30491026614646
30
0
41
1
10
19.131860122257
20
2.27142724253059
30
0
41
1
10
19.5905624661646
20
2.16287577857744
30
0
41
1
10
19.8986509846181
20
2.08007975673056
30
0
41
1
10
20.3625592521286
20
1.93814046647989
30
0
41
1
10
20.5172035921409
20
1.8879472519171
30
0
41
1
10
20.8250712366623
20
1.78180275868817
30
0
41
1
10
20.979186221778
20
1.72679622810193
30
0
41
1
10
21.4421233731302
20
1.55637102535968
30
0
41
1
10
21.7511107186233
20
1.43499755685971
30
0
41
1
10
22.2139380654152
20
1.23885727592781
30
0
41
1
10
22.3681480418627
20
1.17094948611813
30
0
41
1
10
22.677307809858
20
1.03430420245942
30
0
41
1
10
22.8321273396816
20
0.965117308179714
30
0
41
1
10
23.1417249654421
20
0.824082584427657
30
0
41
1
10
23.2966537392259
20
0.752224305131307
30
0
41
1
10
23.6056665903482
20
0.606185615105403
30
0
41
1
10
23.7594459715328
20
0.531311705658538
30
0
41
1
10
24.2214238985833
20
0.306784193803253
30
0
41
1
10
24.5304573341796
20
0.157672100167531
30
0
41
1
10
24.9937755642709
20
-0.0687658663767934
30
0
41
1
10
25.1483381381586
20
-0.144666234226463
30
0
41
1
10
25.4567153928815
20
-0.29752548781417
30
0
41
1
10
25.6109680602997
20
-0.37291551245562
30
0
41
1
10
26.0741551795267
20
-0.59562077952063
30
0
41
1
10
26.3830226529317
20
-0.740524154551366
30
0
41
1
10
26.8452265665965
20
-0.954778701164827
30
0
41
1
10
26.9990277716732
20
-1.02581358944815
30
0
41
1
10
27.3081936148754
20
-1.16313283776935
30
0
41
1
10
27.4630061433791
20
-1.22973509501784
30
0
41
1
10
27.7720602798628
20
-1.35962330568569
30
0
41
1
10
27.9264026282577
20
-1.42290650128467
30
0
41
1
10
28.2346857265527
20
-1.5461485825486
30
0
41
1
10
28.3882962399341
20
-1.60662668981513
30
0
41
1
10
28.8501634728737
20
-1.78025360140737
30
0
41
1
10
29.1605242304804
20
-1.88541738939298
30
0
41
1
10
29.6239474254571
20
-2.02889388509269
30
0
41
1
10
29.7781384009641
20
-2.07423478029429
30
0
41
1
10
30.085575467789
20
-2.16018754058251
30
0
41
1
10
30.2394913173997
20
-2.20001173795632
30
0
41
1
10
30.548039860796
20
-2.27326245786853
30
0
41
1
10
30.7025547054427
20
-2.30682382553851
30
0
41
1
10
31.0116923163538
20
-2.36815644968129
30
0
41
1
10
31.1666201905377
20
-2.39588850461365
30
0
41
1
10
31.4747669947704
20
-2.44514794455952
30
0
41
1
10
31.6279867612955
20
-2.46671612777968
30
0
41
1
10
31.9347894754227
20
-2.50264180231608
30
0
41
1
10
32.0881683530843
20
-2.51718688749511
30
0
41
1
10
32.3944175729198
20
-2.53985303107942
30
0
41
1
10
32.5472882021314
20
-2.54795862488183
30
0
41
1
10
32.8168172057203
20
-2.55651264288642
30
0
41
1
10
32.933407612766
20
-2.55830605673629
30
0
41
1
10
33.0499922558214
20
-2.55813397896435
30
0
0
SPLINE
5
F6
100
AcDbEntity
8
1
62
256
6
ByLayer
370
18
48
1
60
0
100
AcDbSpline
70
4
71
3
72
84
73
80
40
0
40
0
40
0
40
0
40
0.0302425756390061
40
0.0302425756390061
40
0.0518754430980418
40
0.0518754430980418
40
0.0735083105570774
40
0.0735083105570774
40
0.116774045475149
40
0.116774045475149
40
0.138406912934184
40
0.138406912934184
40
0.16003978039322
40
0.16003978039322
40
0.181672647852256
40
0.181672647852256
40
0.203305515311291
40
0.203305515311291
40
0.246571250229362
40
0.246571250229362
40
0.268204117688398
40
0.268204117688398
40
0.289836985147433
40
0.289836985147433
40
0.333102720065503
40
0.333102720065503
40
0.354735587524537
40
0.354735587524537
40
0.376368454983573
40
0.376368454983573
40
0.398001322442608
40
0.398001322442608
40
0.419634189901642
40
0.419634189901642
40
0.462899924819714
40
0.462899924819714
40
0.484532792278749
40
0.484532792278749
40
0.506165659737785
40
0.506165659737785
40
0.527798527196821
40
0.527798527196821
40
0.549431394655857
40
0.549431394655857
40
0.571064262114892
40
0.571064262114892
40
0.592697129573928
40
0.592697129573928
40
0.614329997032963
40
0.614329997032963
40
0.635962864491999
40
0.635962864491999
40
0.679228599410069
40
0.679228599410069
40
0.700861466869104
40
0.700861466869104
40
0.722494334328139
40
0.722494334328139
40
0.744127201787174
40
0.744127201787174
40
0.765760069246209
40
0.765760069246209
40
0.787392936705244
40
0.787392936705244
40
0.809025804164279
40
0.809025804164279
40
0.830658671623314
40
0.830658671623314
40
0.852291539082349
40
0.852291539082349
40
0.895557274000417
40
0.895557274000417
40
0.917190141459451
40
0.917190141459451
40
0.938823008918484
40
0.938823008918484
40
0.982088743836551
40
0.982088743836551
40
1
40
1
40
1
40
1
41
1
10
44.461701351714
20
1.5031296243852
30
0
41
1
10
44.6753220992625
20
1.58800848121484
30
0
41
1
10
44.8887867702108
20
1.66867864462361
30
0
41
1
10
45.2541418774015
20
1.80077978058753
30
0
41
1
10
45.4059973208972
20
1.8543314731898
30
0
41
1
10
45.7103469180463
20
1.9558528490619
30
0
41
1
10
45.8629731570064
20
2.00367862191047
30
0
41
1
10
46.3217864966364
20
2.1391334263659
30
0
41
1
10
46.6287179395903
20
2.21908397831038
30
0
41
1
10
47.0896639408434
20
2.32358377215437
30
0
41
1
10
47.2440731479371
20
2.35532583282421
30
0
41
1
10
47.5531763913339
20
2.41189500214236
30
0
41
1
10
47.7078538539143
20
2.43690893348384
30
0
41
1
10
48.0170511670404
20
2.48070963732135
30
0
41
1
10
48.1717755900773
20
2.49945671084691
30
0
41
1
10
48.4802316595728
20
2.53047359912679
30
0
41
1
10
48.6337789785035
20
2.54275001743847
30
0
41
1
10
49.0957419909123
20
2.56891481238091
30
0
41
1
10
49.4044404201554
20
2.57285319688012
30
0
41
1
10
49.8670323663878
20
2.55870904824093
30
0
41
1
10
50.0210194026976
20
2.55052285426854
30
0
41
1
10
50.3293486019788
20
2.52732087771227
30
0
41
1
10
50.4836429194078
20
2.51246213678166
30
0
41
1
10
50.9465627071561
20
2.45842903595596
30
0
41
1
10
51.2550030403324
20
2.40982798867776
30
0
41
1
10
51.7161631484619
20
2.31633556919286
30
0
41
1
10
51.8700653753634
20
2.28202976398879
30
0
41
1
10
52.1791378704114
20
2.20816120658898
30
0
41
1
10
52.3338290672176
20
2.16851764047652
30
0
41
1
10
52.6425039889165
20
2.0835722189303
30
0
41
1
10
52.7966537467693
20
2.03832798819585
30
0
41
1
10
53.1043673219808
20
1.94192767566733
30
0
41
1
10
53.257699787468
20
1.8904157834892
30
0
41
1
10
53.7195120768129
20
1.73055591279999
30
0
41
1
10
54.0295502650292
20
1.61564910512374
30
0
41
1
10
54.4922904523794
20
1.42991309848648
30
0
41
1
10
54.6459545847775
20
1.36540565058542
30
0
41
1
10
54.9532445046011
20
1.23305052225669
30
0
41
1
10
55.1072130068782
20
1.16582535513723
30
0
41
1
10
55.415578610144
20
1.02901934792482
30
0
41
1
10
55.5698982705925
20
0.95929501264672
30
0
41
1
10
55.8786322453212
20
0.816833695120152
30
0
41
1
10
56.0333326174139
20
0.744120868302588
30
0
41
1
10
56.3407883393452
20
0.595822809710199
30
0
41
1
10
56.4940306590922
20
0.520922554433099
30
0
41
1
10
56.8007051613963
20
0.372045367647388
30
0
41
1
10
56.9539424077697
20
0.297654434949976
30
0
41
1
10
57.2597842943382
20
0.148050415268187
30
0
41
1
10
57.4124512405213
20
0.0729682482970304
30
0
41
1
10
57.7171229477346
20
-0.0780690354200715
30
0
41
1
10
57.8688438879685
20
-0.154608014185271
30
0
41
1
10
58.3254104230193
20
-0.380562078382866
30
0
41
1
10
58.6310537948495
20
-0.527599324654574
30
0
41
1
10
59.0897997794612
20
-0.746081414895258
30
0
41
1
10
59.2426971222341
20
-0.81869025498483
30
0
41
1
10
59.5488256476986
20
-0.962694871717758
30
0
41
1
10
59.7026169762726
20
-1.03296044984256
30
0
41
1
10
60.0114976871833
20
-1.17034810172359
30
0
41
1
10
60.1661048860641
20
-1.23741760321644
30
0
41
1
10
60.4737629638481
20
-1.36812185004749
30
0
41
1
10
60.627138019065
20
-1.4317265541668
30
0
41
1
10
60.9326113963085
20
-1.55600213430657
30
0
41
1
10
61.0848036734375
20
-1.6164607623941
30
0
41
1
10
61.3898495271549
20
-1.73127063896101
30
0
41
1
10
61.5424753731388
20
-1.78603519814885
30
0
41
1
10
61.8474456521905
20
-1.89112705019272
30
0
41
1
10
61.9998267843178
20
-1.94139128346311
30
0
41
1
10
62.3043190432044
20
-2.03735022774148
30
0
41
1
10
62.45610655607
20
-2.08342750751129
30
0
41
1
10
62.9128998782196
20
-2.21229081366815
30
0
41
1
10
63.2194220989926
20
-2.28594348910408
30
0
41
1
10
63.6804798639341
20
-2.3798778474355
30
0
41
1
10
63.8345915154011
20
-2.40837255436802
30
0
41
1
10
64.1424328971229
20
-2.45943765194224
30
0
41
1
10
64.2960879704668
20
-2.48140397146278
30
0
41
1
10
64.7566310741321
20
-2.53705600623073
30
0
41
1
10
65.0626021297815
20
-2.56095672854485
30
0
41
1
10
65.492685753121
20
-2.57640085954515
30
0
41
1
10
65.6181976565185
20
-2.57863906548602
30
0
41
1
10
65.7438999204108
20
-2.57858505805496
30
0
0
SPLINE
5
F7
100
AcDbEntity
8
1
62
256
6
ByLayer
370
18
48
1
60
0
100
AcDbSpline
70
4
71
3
72
8
73
4
40
0
40
0
40
0
40
0
40
1
40
1
40
1
40
1
41
1
10
8.07329330006766
20
0.579415615996453
30
0
41
1
10
8.04417234473868
20
0.607749233382293
30
0
41
1
10
8.02476028103263
20
0.645352938072392
30
0
41
1
10
8.0247653980191
20
0.68514590899261
30
0
0
SPLINE
5
F8
100
AcDbEntity
8
1
62
256
6
ByLayer
370
13
48
1
60
0
100
AcDbSpline
70
4
71
3
72
8
73
4
40
0
40
0
40
0
40
0
40
1
40
1
40
1
40
1
41
1
10
8.25034141220027
20
0.557603147020359
30
0
41
1
10
8.2125153528151
20
0.567772708797804
30
0
41
1
10
8.17560115938551
20
0.579465885314505
30
0
41
1
10
8.1412518989581
20
0.592495494656305
30
0
0
SPLINE
5
F9
100
AcDbEntity
8
1
62
256
6
ByLayer
370
18
48
1
60
0
100
AcDbSpline
70
4
71
3
72
8
73
4
40
0
40
0
40
0
40
0
40
1
40
1
40
1
40
1
41
1
10
67.9999440757196
20
0.0339267434625299
30
0
41
1
10
67.9953251553761
20
0.0212930877525821
30
0
41
1
10
67.9898601230556
20
0.0089014513480379
30
0
41
1
10
67.9844744810718
20
-0.0010759611975857
30
0
0
SPLINE
5
FA
100
AcDbEntity
8
1
62
256
6
ByLayer
370
18
48
1
60
0
100
AcDbSpline
70
4
71
3
72
18
73
14
40
0
40
0
40
0
40
0
40
0.125000000000003
40
0.125000000000003
40
0.250000000000007
40
0.250000000000007
40
0.37500000000001
40
0.37500000000001
40
0.500000000000013
40
0.500000000000013
40
0.750000000000007
40
0.750000000000007
40
1
40
1
40
1
40
1
41
1
10
65.1473671782967
20
-0.397959711669273
30
0
41
1
10
65.198563741033
20
-0.476040613694579
30
0
41
1
10
65.2529958359355
20
-0.551303949559042
30
0
41
1
10
65.3658586082243
20
-0.695236664773688
30
0
41
1
10
65.4245181196288
20
-0.764242047936079
30
0
41
1
10
65.5456448224909
20
-0.897192756132853
30
0
41
1
10
65.6081152574892
20
-0.961133770798511
30
0
41
1
10
65.7364282740876
20
-1.08453452607819
30
0
41
1
10
65.8024853109778
20
-1.14416891514639
30
0
41
1
10
66.0035911979228
20
-1.315563378635
30
0
41
1
10
66.1410607029288
20
-1.41961316514332
30
0
41
1
10
66.4214139758281
20
-1.61144374879916
30
0
41
1
10
66.5643210267979
20
-1.6991545840462
30
0
41
1
10
66.7096453567119
20
-1.77960188476439
30
0
0
SPLINE
5
FB
100
AcDbEntity
8
1
62
256
6
ByLayer
370
18
48
1
60
0
100
AcDbSpline
70
4
71
3
72
14
73
10
40
0
40
0
40
0
40
0
40
0.25
40
0.25
40
0.5
40
0.5
40
0.75
40
0.75
40
1
40
1
40
1
40
1
41
1
10
67.1332846538916
20
-2.42887616515625
30
0
41
1
10
67.1358025301884
20
-2.42772906310566
30
0
41
1
10
67.1376502444027
20
-2.42835820936787
30
0
41
1
10
67.1395701119882
20
-2.43427968981789
30
0
41
1
10
67.1395635355001
20
-2.43959089677381
30
0
41
1
10
67.1370070784712
20
-2.45539843195709
30
0
41
1
10
67.1344071739021
20
-2.4659555145987
30
0
41
1
10
67.1270382277676
20
-2.48996685958869
30
0
41
1
10
67.1223585464672
20
-2.50317926997889
30
0
41
1
10
67.117329622071
20
-2.51609700063813
30
0
0
SPLINE
5
FC
100
AcDbEntity
8
1
62
256
6
ByLayer
370
18
48
1
60
0
100
AcDbSpline
70
4
71
3
72
8
73
4
40
0
40
0
40
0
40
0
40
1
40
1
40
1
40
1
41
1
10
67.1919165654824
20
2.47882371096145
30
0
41
1
10
67.1573183481028
20
2.51637606058441
30
0
41
1
10
67.1268126622123
20
2.54358048420985
30
0
41
1
10
67.1001327411318
20
2.56022044134846
30
0
0
SPLINE
5
FD
100
AcDbEntity
8
1
62
256
6
ByLayer
370
18
48
1
60
0
100
AcDbSpline
70
4
71
3
72
8
73
4
40
0
40
0
40
0
40
0
40
1
40
1
40
1
40
1
41
1
10
67.8866539281016
20
0.737203039683834
30
0
41
1
10
67.9217866914665
20
0.532021279925061
30
0
41
1
10
67.952716313013
20
0.326867417091847
30
0
41
1
10
67.9794118906985
20
0.121741656285934
30
0
0
SPLINE
5
FE
100
AcDbEntity
8
1
62
256
6
ByLayer
370
18
48
1
60
0
100
AcDbSpline
70
4
71
3
72
8
73
4
40
0
40
0
40
0
40
0
40
1
40
1
40
1
40
1
41
1
10
67.9794118906985
20
-0.121741656285764
30
0
41
1
10
67.9825556512816
20
-0.0975853601009078
30
0
41
1
10
67.9900989691503
20
-0.0665689080123286
30
0
41
1
10
67.9999440757196
20
-0.0339267434629846
30
0
0
SPLINE
5
FF
100
AcDbEntity
8
1
62
256
6
ByLayer
370
18
48
1
60
0
100
AcDbSpline
70
4
71
3
72
10
73
6
40
0
40
0
40
0
40
0
40
0.5
40
0.5
40
1
40
1
40
1
40
1
41
1
10
67.1919165654764
20
-2.47882371097742
30
0
41
1
10
67.308236411642
20
-2.18916567152107
30
0
41
1
10
67.4246039799362
20
-1.89934804805853
30
0
41
1
10
67.656479896032
20
-1.31885901001874
30
0
41
1
10
67.7720211851884
20
-1.02819062347189
30
0
41
1
10
67.8866539281015
20
-0.737203039684175
30
0
0
SPLINE
5
100
100
AcDbEntity
8
1
62
256
6
ByLayer
370
18
48
1
60
0
100
AcDbSpline
70
4
71
3
72
40
73
36
40
0
40
0
40
0
40
0
40
0.0625000000000014
40
0.0625000000000014
40
0.125000000000003
40
0.125000000000003
40
0.25
40
0.25
40
0.312500000000003
40
0.312500000000003
40
0.375000000000005
40
0.375000000000005
40
0.437500000000008
40
0.437500000000008
40
0.468750000000005
40
0.468750000000005
40
0.500000000000003
40
0.500000000000003
40
0.53125
40
0.53125
40
0.562499999999997
40
0.562499999999997
40
0.624999999999995
40
0.624999999999995
40
0.656249999999994
40
0.656249999999994
40
0.687499999999992
40
0.687499999999992
40
0.74999999999999
40
0.74999999999999
40
0.874999999999991
40
0.874999999999991
40
0.937499999999996
40
0.937499999999996
40
1
40
1
40
1
40
1
41
1
10
67.5901569917919
20
-1.00173964851072
30
0
41
1
10
67.5919981982267
20
-0.963846667322343
30
0
41
1
10
67.5885873913428
20
-0.931589263197793
30
0
41
1
10
67.5734937995882
20
-0.882094045811726
30
0
41
1
10
67.5619347250434
20
-0.864563526849963
30
0
41
1
10
67.5189936350363
20
-0.831733138764804
30
0
41
1
10
67.4802868720255
20
-0.836059645706968
30
0
41
1
10
67.4166154217333
20
-0.87227781438645
30
0
41
1
10
67.3941591414601
20
-0.889601168828733
30
0
41
1
10
67.3490193674255
20
-0.933071515985631
30
0
41
1
10
67.3257808326826
20
-0.959718643993909
30
0
41
1
10
67.2798651066483
20
-1.02188465516724
30
0
41
1
10
67.2573435901092
20
-1.05709233452714
30
0
41
1
10
67.2250585681826
20
-1.11649308743716
30
0
41
1
10
67.2147678903814
20
-1.13700175532645
30
0
41
1
10
67.1952143383932
20
-1.1795649921327
30
0
41
1
10
67.185849272831
20
-1.20189616730065
30
0
41
1
10
67.1689040040141
20
-1.24688419605855
30
0
41
1
10
67.1613389426494
20
-1.26943306713804
30
0
41
1
10
67.148141879777
20
-1.31464764979444
30
0
41
1
10
67.1424624740785
20
-1.33762230665863
30
0
41
1
10
67.1294271686285
20
-1.40328795203735
30
0
41
1
10
67.125801004679
20
-1.44419875255503
30
0
41
1
10
67.1279388613528
20
-1.49529256465905
30
0
41
1
10
67.1298981417979
20
-1.51090781445646
30
0
41
1
10
67.1359429988725
20
-1.53829119868345
30
0
41
1
10
67.1400057122202
20
-1.55014592649252
30
0
41
1
10
67.1550100282608
20
-1.58073722679143
30
0
41
1
10
67.1684403415603
20
-1.59392226292653
30
0
41
1
10
67.2162783869541
20
-1.61474873383293
30
0
41
1
10
67.2568757182776
20
-1.60338708047149
30
0
41
1
10
67.3224642099864
20
-1.55702645821057
30
0
41
1
10
67.3454438903341
20
-1.53630018049549
30
0
41
1
10
67.3911056221586
20
-1.48630778643732
30
0
41
1
10
67.4142448853517
20
-1.45665179419638
30
0
41
1
10
67.4370965862768
20
-1.42226965645685
30
0
0
SPLINE
5
101
100
AcDbEntity
8
1
62
256
6
ByLayer
370
18
48
1
60
0
100
AcDbSpline
70
4
71
3
72
21
73
17
40
0
40
0
40
0
40
0
40
0.0830035215026165
40
0.160073664581539
40
0.244763458354487
40
0.295675240802487
40
0.353205966339635
40
0.417684928883884
40
0.489431537868646
40
0.566415371779636
40
0.63272543250791
40
0.685268267370267
40
0.794817005240553
40
0.916390156798766
40
0.984813466691354
40
1
40
1
40
1
40
1
41
1
10
39.7722709898972
20
2.42007994932777
30
0
41
1
10
39.6527209599776
20
2.41993672751164
30
0
41
1
10
39.4221557300297
20
2.41962746756354
30
0
41
1
10
39.0695978579017
20
2.41783276621464
30
0
41
1
10
38.763191882992
20
2.41842060992457
30
0
41
1
10
38.4851100245127
20
2.41926390975235
30
0
41
1
10
38.2360046407101
20
2.41975322415024
30
0
41
1
10
37.9568988301655
20
2.42019075834529
30
0
41
1
10
37.6497675659604
20
2.41967526698295
30
0
41
1
10
37.3400004950308
20
2.41868606021634
30
0
41
1
10
37.0578940412479
20
2.41861179549181
30
0
41
1
10
36.7288787769848
20
2.41795655933902
30
0
41
1
10
36.3202551219281
20
2.41727218461057
30
0
41
1
10
35.8887553209898
20
2.41789775049614
30
0
41
1
10
35.5931866599219
20
2.41805994989934
30
0
41
1
10
35.4727455892204
20
2.41804248893911
30
0
41
1
10
35.4508691962772
20
2.41803658143004
30
0
0
SPLINE
5
102
100
AcDbEntity
8
1
62
256
6
ByLayer
370
18
48
1
60
0
100
AcDbSpline
70
4
71
3
72
17
73
13
40
0
40
0
40
0
40
0
40
0.112117803473553
40
0.195916108127251
40
0.254431200777551
40
0.331941451831595
40
0.421485981945681
40
0.565551079314277
40
0.67899692977117
40
0.77273326572229
40
0.899217077082665
40
1
40
1
40
1
40
1
41
1
10
23.4273457945905
20
2.41134398355717
30
0
41
1
10
23.2660336090251
20
2.41092589758583
30
0
41
1
10
22.9841501452669
20
2.41030267555368
30
0
41
1
10
22.6179862808248
20
2.41011793309295
30
0
41
1
10
22.3017372974346
20
2.409552145493
30
0
41
1
10
21.9771252649099
20
2.40890412587689
30
0
41
1
10
21.5294303565201
20
2.40953475799921
30
0
41
1
10
21.0300150272128
20
2.41043912313
30
0
41
1
10
20.5245717906172
20
2.40839974697732
30
0
41
1
10
20.0444332614871
20
2.40747454118977
30
0
41
1
10
19.5825080655119
20
2.40802909976611
30
0
41
1
10
19.2554728002696
20
2.4081234235266
30
0
41
1
10
19.1104461462697
20
2.40805879997762
30
0
0
SPLINE
5
103
100
AcDbEntity
8
1
62
256
6
ByLayer
370
18
48
1
60
0
100
AcDbSpline
70
4
71
3
72
17
73
13
40
0
40
0
40
0
40
0
40
0.127308844986659
40
0.219843299557521
40
0.31647247466307
40
0.427786777993858
40
0.512366441300632
40
0.584427799121358
40
0.656246145910069
40
0.766151190505196
40
0.898877381654542
40
1
40
1
40
1
40
1
41
1
10
56.1240079051959
20
2.42954332728905
30
0
41
1
10
55.9406725616829
20
2.42930118273728
30
0
41
1
10
55.6240471006354
20
2.42895945995389
30
0
41
1
10
55.168111256138
20
2.42798033781929
30
0
41
1
10
54.7352690499457
20
2.42852027096785
30
0
41
1
10
54.3137679547033
20
2.4289756827574
30
0
41
1
10
53.9276975671652
20
2.42901586601837
30
0
41
1
10
53.5985287781383
20
2.42762706300772
30
0
41
1
10
53.2328700404855
20
2.42780556304905
30
0
41
1
10
52.7798060784253
20
2.42811494054826
30
0
41
1
10
52.2845181986089
20
2.42830182228261
30
0
41
1
10
51.9475841278659
20
2.42745616120917
30
0
41
1
10
51.8018844923006
20
2.42727160824617
30
0
0
SPLINE
5
104
100
AcDbEntity
8
1
62
256
6
ByLayer
370
18
48
1
60
0
100
AcDbSpline
70
4
71
3
72
22
73
18
40
0
40
0
40
0
40
0
40
0.0821486579296935
40
0.137807650498345
40
0.173900359273852
40
0.211182799211354
40
0.251225729682126
40
0.296030675382557
40
0.413687489092273
40
0.51176974790412
40
0.564148532122483
40
0.616652110479491
40
0.67743372783024
40
0.757979757212913
40
0.833215850091066
40
0.903023718216711
40
1
40
1
40
1
40
1
41
1
10
50.3143542572636
20
-2.42709032872955
30
0
41
1
10
50.4734422865717
20
-2.42724313610793
30
0
41
1
10
50.740323963655
20
-2.42739944451199
30
0
41
1
10
51.0771203175398
20
-2.42736917488034
30
0
41
1
10
51.3270217540365
20
-2.42726137728792
30
0
41
1
10
51.5466792301817
20
-2.42716573963432
30
0
41
1
10
51.7832103607589
20
-2.42712445624991
30
0
41
1
10
52.175402026876
20
-2.42805084426945
30
0
41
1
10
52.6800011502236
20
-2.4282232290044
30
0
41
1
10
53.1992642517661
20
-2.42782286434954
30
0
41
1
10
53.592347788952
20
-2.4276216691882
30
0
41
1
10
53.9131897190266
20
-2.4289592401374
30
0
41
1
10
54.2885808112291
20
-2.42900542053081
30
0
41
1
10
54.7080193377719
20
-2.42855487393646
30
0
41
1
10
55.1448577622355
20
-2.42797746048893
30
0
41
1
10
55.6135046882561
20
-2.42891468344206
30
0
41
1
10
55.9363945717451
20
-2.42927646844427
30
0
41
1
10
56.1241208705518
20
-2.42954217299132
30
0
0
SPLINE
5
105
100
AcDbEntity
8
1
62
256
6
ByLayer
370
18
48
1
60
0
100
AcDbSpline
70
4
71
3
72
21
73
17
40
0
40
0
40
0
40
0
40
0.0966497381017154
40
0.156764637508798
40
0.224288122956892
40
0.301454092895631
40
0.380396884989788
40
0.443657668173867
40
0.49585153738698
40
0.5661579754006
40
0.651332543679695
40
0.758261226970627
40
0.813772033464468
40
0.856237809441217
40
0.91815071384807
40
1
40
1
40
1
40
1
41
1
10
17.6131999299423
20
-2.40638387880065
30
0
41
1
10
17.8005073650944
20
-2.40655200726718
30
0
41
1
10
18.1043101038739
20
-2.4068706260432
30
0
41
1
10
18.538873230954
20
-2.40731515312609
30
0
41
1
10
18.9358274806824
20
-2.40802884270039
30
0
41
1
10
19.3692958140576
20
-2.40812435256419
30
0
41
1
10
19.7944970007552
20
-2.40785995203834
30
0
41
1
10
20.1712923005327
20
-2.40754730530753
30
0
41
1
10
20.5313467985684
20
-2.40849591356471
30
0
41
1
10
20.9338783178481
20
-2.41021431110264
30
0
41
1
10
21.4425064070834
20
-2.40974372664746
30
0
41
1
10
21.9224455336275
20
-2.40875861493245
30
0
41
1
10
22.3196281008025
20
-2.4096034500808
30
0
41
1
10
22.6294656105529
20
-2.41011620911064
30
0
41
1
10
22.9904656374217
20
-2.41032531544826
30
0
41
1
10
23.2690794346536
20
-2.41093497646679
30
0
41
1
10
23.4277024788835
20
-2.41134337115906
30
0
0
SPLINE
5
106
100
AcDbEntity
8
1
62
256
6
ByLayer
370
18
48
1
60
0
100
AcDbSpline
70
4
71
3
72
23
73
19
40
0
40
0
40
0
40
0
40
0.065803318750545
40
0.118745090302482
40
0.186292708437023
40
0.231832836447594
40
0.277556431398392
40
0.325953923154519
40
0.377578605182938
40
0.43267618873894
40
0.491027495697611
40
0.591908733913732
40
0.681472295898849
40
0.712131164825502
40
0.743410894159071
40
0.784362608693104
40
0.878108536554469
40
1
40
1
40
1
40
1
41
1
10
33.9641825533825
20
-2.41662292384288
30
0
41
1
10
34.0915634797976
20
-2.41665060821842
30
0
41
1
10
34.3214740666278
20
-2.41675769443344
30
0
41
1
10
34.6823240818151
20
-2.41689124757914
30
0
41
1
10
35.0039891883002
20
-2.41755445708211
30
0
41
1
10
35.3112175730146
20
-2.4180422339569
30
0
41
1
10
35.5813515921048
20
-2.41801631954783
30
0
41
1
10
35.8638647510558
20
-2.41781279757788
30
0
41
1
10
36.1639477643026
20
-2.41754323386806
30
0
41
1
10
36.4836758375903
20
-2.41747325191784
30
0
41
1
10
36.8988523122146
20
-2.4183982763347
30
0
41
1
10
37.3807708823062
20
-2.41857697324713
30
0
41
1
10
37.8090623494916
20
-2.42022426091523
30
0
41
1
10
38.1025299743078
20
-2.41993330612573
30
0
41
1
10
38.3018337350616
20
-2.41965277942296
30
0
41
1
10
38.6233401528797
20
-2.41888835900121
30
0
41
1
10
39.1203667142039
20
-2.41772459454427
30
0
41
1
10
39.5380667453822
20
-2.41890134699335
30
0
41
1
10
39.7741762810918
20
-2.42004873630799
30
0
0
SPLINE
5
107
100
AcDbEntity
8
1
62
256
6
ByLayer
370
18
48
1
60
0
100
AcDbSpline
70
4
71
2
72
6
73
3
40
0
40
0
40
0
40
1
40
1
40
1
41
1
10
66.6694755012358
20
-2.43741143700126
30
0
41
1
10
66.8863402983781
20
-2.43482202433586
30
0
41
1
10
67.1032741239085
20
-2.437630508457
30
0
0
LINE
5
7B
100
AcDbEntity
8
SK1
62
256
6
ByLayer
370
18
48
1
60
0
100
AcDbLine
10
-36
20
-2.065
30
0
11
-36
21
-1.102309
31
0
39
0
210
0
220
0
230
1
0
LINE
5
7D
100
AcDbEntity
8
SK1
62
256
6
ByLayer
370
18
48
1
60
0
100
AcDbLine
10
-36
20
-0.3703
30
0
11
-36
21
-1.102309
31
0
39
0
210
0
220
0
230
1
0
LINE
5
7E
100
AcDbEntity
8
SK1
62
256
6
ByLayer
370
13
48
1
60
0
100
AcDbLine
10
-35.75
20
-0.319668
30
0
11
-35.75
21
-1.15294
31
0
39
0
210
0
220
0
230
1
0
LINE
5
7F
100
AcDbEntity
8
SK1
62
256
6
ByLayer
370
18
48
1
60
0
100
AcDbLine
10
0
20
-3
30
0
11
0
21
3
31
0
39
0
210
0
220
0
230
1
0
LINE
5
80
100
AcDbEntity
8
SK1
62
256
6
ByLayer
370
18
48
1
60
0
100
AcDbLine
10
-35.065
20
3
30
0
11
-35.065
21
-3
31
0
39
0
210
0
220
0
230
1
0
LINE
5
81
100
AcDbEntity
8
SK1
62
256
6
ByLayer
370
18
48
1
60
0
100
AcDbLine
10
-35.65
20
-1.080588
30
0
11
-35.65
21
0.195672
31
0
39
0
210
0
220
0
230
1
0
LINE
5
82
100
AcDbEntity
8
SK1
62
256
6
ByLayer
370
18
48
1
60
0
100
AcDbLine
10
-36
20
2.065
30
0
11
-36
21
0.3703
31
0
39
0
210
0
220
0
230
1
0
LINE
5
83
100
AcDbEntity
8
1
62
256
6
ByLayer
370
13
48
1
60
0
100
AcDbLine
10
0.562246
20
2.769104
30
0
11
0.562246
21
-2.769104
31
0
39
0
210
0
220
0
230
1
0
LINE
5
84
100
AcDbEntity
8
1
62
256
6
ByLayer
370
13
48
1
60
0
100
AcDbLine
10
1.124992
20
2.538208
30
0
11
1.124992
21
-2.538208
31
0
39
0
210
0
220
0
230
1
0
LINE
5
85
100
AcDbEntity
8
1
62
256
6
ByLayer
370
13
48
1
60
0
100
AcDbLine
10
66.925124
20
0.669518
30
0
11
67.984474
21
-0.001076
31
0
39
0
210
0
220
0
230
1
0
LINE
5
86
100
AcDbEntity
8
1
62
256
6
ByLayer
370
18
48
1
60
0
100
AcDbLine
10
0
20
-3
30
0
11
0
21
3
31
0
39
0
210
0
220
0
230
1
0
LINE
5
87
100
AcDbEntity
8
1
62
256
6
ByLayer
370
13
48
1
60
0
100
AcDbLine
10
66.999642
20
0.741959
30
0
11
67.979412
21
0.121742
31
0
39
0
210
0
220
0
230
1
0
LINE
5
88
100
AcDbEntity
8
1
62
256
6
ByLayer
370
18
48
1
60
0
100
AcDbLine
10
66.709645
20
-1.779602
30
0
11
67.890296
21
-0.177115
31
0
39
0
210
0
220
0
230
1
0
LINE
5
89
100
AcDbEntity
8
80
62
256
6
ByLayer
370
18
48
1
60
0
100
AcDbLine
10
0
20
0
30
0
11
-5
21
0
31
0
39
0
210
0
220
0
230
1
0
LINE
5
8A
100
AcDbEntity
8
4
62
256
6
ByLayer
370
18
48
0.05
60
0
100
AcDbLine
10
68
20
0
30
0
11
0
21
0
31
0
39
0
210
0
220
0
230
1
0
LINE
5
8C
100
AcDbEntity
8
SK4
62
256
6
ByLayer
370
18
48
0.05
60
0
100
AcDbLine
10
73
20
0
30
0
11
-41
21
0
31
0
39
0
210
0
220
0
230
1
0
LINE
5
8E
100
AcDbEntity
8
SK1
62
256
6
ByLayer
370
18
48
1
60
0
100
AcDbLine
10
-36
20
-2.065
30
0
11
-35.065
21
-3
31
0
39
0
210
0
220
0
230
1
0
LINE
5
8F
100
AcDbEntity
8
SK1
62
256
6
ByLayer
370
18
48
1
60
0
100
AcDbLine
10
-35.065
20
3
30
0
11
-36
21
2.065
31
0
39
0
210
0
220
0
230
1
0
LINE
5
90
100
AcDbEntity
8
SK1
62
256
6
ByLayer
370
18
48
1
60
0
100
AcDbLine
10
-35.065
20
-3
30
0
11
0
21
-3
31
0
39
0
210
0
220
0
230
1
0
LINE
5
91
100
AcDbEntity
8
SK1
62
256
6
ByLayer
370
18
48
1
60
0
100
AcDbLine
10
0
20
3
30
0
11
-35.065
21
3
31
0
39
0
210
0
220
0
230
1
0
LINE
5
92
100
AcDbEntity
8
1
62
256
6
ByLayer
370
18
48
1
60
0
100
AcDbLine
10
33.02737
20
-2.558147
30
0
11
33.76405
21
-2.558608
31
0
39
0
210
0
220
0
230
1
0
LINE
5
93
100
AcDbEntity
8
1
62
256
6
ByLayer
370
18
48
1
60
0
100
AcDbLine
10
33.764098
20
2.558608
30
0
11
33.02737
21
2.558147
31
0
39
0
210
0
220
0
230
1
0
LINE
5
94
100
AcDbEntity
8
1
62
256
6
ByLayer
370
18
48
1
60
0
100
AcDbLine
10
1.124992
20
-2.538208
30
0
11
7.626416
21
-2.542272
31
0
39
0
210
0
220
0
230
1
0
LINE
5
95
100
AcDbEntity
8
1
62
256
6
ByLayer
370
18
48
1
60
0
100
AcDbLine
10
16.674162
20
-2.547927
30
0
11
17.414401
21
-2.548389
31
0
39
0
210
0
220
0
230
1
0
LINE
5
96
100
AcDbEntity
8
1
62
256
6
ByLayer
370
18
48
1
60
0
100
AcDbLine
10
49.379675
20
-2.568368
30
0
11
50.114245
21
-2.568827
31
0
39
0
210
0
220
0
230
1
0
LINE
5
97
100
AcDbEntity
8
1
62
256
6
ByLayer
370
18
48
1
60
0
100
AcDbLine
10
65.732726
20
-2.578588
30
0
11
66.465035
21
-2.579046
31
0
39
0
210
0
220
0
230
1
0
LINE
5
98
100
AcDbEntity
8
1
62
256
6
ByLayer
370
18
48
1
60
0
100
AcDbLine
10
66.46474
20
2.579046
30
0
11
65.732726
21
2.578588
31
0
39
0
210
0
220
0
230
1
0
LINE
5
99
100
AcDbEntity
8
1
62
256
6
ByLayer
370
18
48
1
60
0
100
AcDbLine
10
50.114497
20
2.568827
30
0
11
49.379675
21
2.568368
31
0
39
0
210
0
220
0
230
1
0
LINE
5
9A
100
AcDbEntity
8
1
62
256
6
ByLayer
370
18
48
1
60
0
100
AcDbLine
10
17.413966
20
2.548389
30
0
11
16.674162
21
2.547927
31
0
39
0
210
0
220
0
230
1
0
LINE
5
9B
100
AcDbEntity
8
1
62
256
6
ByLayer
370
18
48
1
60
0
100
AcDbLine
10
7.626168
20
2.542272
30
0
11
1.124992
21
2.538208
31
0
39
0
210
0
220
0
230
1
0
LINE
5
9C
100
AcDbEntity
8
81
62
256
6
ByLayer
370
18
48
1
60
0
100
AcDbLine
10
68
20
0
30
0
11
73
21
0
31
0
39
0
210
0
220
0
230
1
0
LINE
5
9D
100
AcDbEntity
8
SK2
62
256
6
ByLayer
370
13
48
1
60
0
100
AcDbLine
10
-44.625163
20
32.117107
30
0
11
-44.625163
21
-11.75
31
0
39
0
210
0
220
0
230
1
0
LINE
5
9F
100
AcDbEntity
8
SK2
62
256
6
ByLayer
370
13
48
1
60
0
100
AcDbLine
10
-37.5875
20
3
30
0
11
-46.625163
21
3
31
0
39
0
210
0
220
0
230
1
0
LINE
5
A0
100
AcDbEntity
8
SK2
62
256
6
ByLayer
370
13
48
1
60
0
100
AcDbLine
10
-37.5875
20
-3
30
0
11
-46.625163
21
-3
31
0
39
0
210
0
220
0
230
1
0
LINE
5
A1
100
AcDbEntity
8
1
62
256
6
ByLayer
370
18
48
1
60
1
100
AcDbLine
10
-44.625163
20
3
30
0
11
-45.085946
21
6.499998
31
0
39
0
210
0
220
0
230
1
0
LINE
5
A2
100
AcDbEntity
8
1
62
256
6
ByLayer
370
18
48
1
60
1
100
AcDbLine
10
-45.085946
20
6.499998
30
0
11
-44.164379
21
6.500002
31
0
39
0
210
0
220
0
230
1
0
LINE
5
A3
100
AcDbEntity
8
1
62
256
6
ByLayer
370
18
48
1
60
1
100
AcDbLine
10
-44.164379
20
6.500002
30
0
11
-44.625163
21
3
31
0
39
0
210
0
220
0
230
1
0
LINE
5
A4
100
AcDbEntity
8
1
62
256
6
ByLayer
370
18
48
1
60
1
100
AcDbLine
10
-44.625163
20
-3
30
0
11
-44.164379
21
-6.499998
31
0
39
0
210
0
220
0
230
1
0
LINE
5
A5
100
AcDbEntity
8
1
62
256
6
ByLayer
370
18
48
1
60
1
100
AcDbLine
10
-44.164379
20
-6.499998
30
0
11
-45.085946
21
-6.500002
31
0
39
0
210
0
220
0
230
1
0
LINE
5
A6
100
AcDbEntity
8
1
62
256
6
ByLayer
370
18
48
1
60
1
100
AcDbLine
10
-45.085946
20
-6.500002
30
0
11
-44.625163
21
-3
31
0
39
0
210
0
220
0
230
1
0
LINE
5
A7
100
AcDbEntity
8
2
62
256
6
ByLayer
370
13
48
1
60
0
100
AcDbLine
10
80.083343
20
29.414827
30
0
11
80.083343
21
-11.3295
31
0
39
0
210
0
220
0
230
1
0
LINE
5
A9
100
AcDbEntity
8
2
62
256
6
ByLayer
370
13
48
1
60
0
100
AcDbLine
10
68.833
20
2.5795
30
0
11
82.083343
21
2.5795
31
0
39
0
210
0
220
0
230
1
0
LINE
5
AA
100
AcDbEntity
8
2
62
256
6
ByLayer
370
13
48
1
60
0
100
AcDbLine
10
68.833
20
-2.5795
30
0
11
82.083343
21
-2.5795
31
0
39
0
210
0
220
0
230
1
0
LINE
5
AB
100
AcDbEntity
8
1
62
256
6
ByLayer
370
18
48
1
60
1
100
AcDbLine
10
80.083343
20
2.5795
30
0
11
79.622559
21
6.079498
31
0
39
0
210
0
220
0
230
1
0
LINE
5
AC
100
AcDbEntity
8
1
62
256
6
ByLayer
370
18
48
1
60
1
100
AcDbLine
10
79.622559
20
6.079498
30
0
11
80.544126
21
6.079502
31
0
39
0
210
0
220
0
230
1
0
LINE
5
AD
100
AcDbEntity
8
1
62
256
6
ByLayer
370
18
48
1
60
1
100
AcDbLine
10
80.544126
20
6.079502
30
0
11
80.083343
21
2.5795
31
0
39
0
210
0
220
0
230
1
0
LINE
5
AE
100
AcDbEntity
8
1
62
256
6
ByLayer
370
18
48
1
60
1
100
AcDbLine
10
80.083343
20
-2.5795
30
0
11
80.544126
21
-6.079498
31
0
39
0
210
0
220
0
230
1
0
LINE
5
AF
100
AcDbEntity
8
1
62
256
6
ByLayer
370
18
48
1
60
1
100
AcDbLine
10
80.544126
20
-6.079498
30
0
11
79.622559
21
-6.079502
31
0
39
0
210
0
220
0
230
1
0
LINE
5
B0
100
AcDbEntity
8
1
62
256
6
ByLayer
370
18
48
1
60
1
100
AcDbLine
10
79.622559
20
-6.079502
30
0
11
80.083343
21
-2.5795
31
0
39
0
210
0
220
0
230
1
0
LINE
5
10E
100
AcDbEntity
8
1
62
256
6
ByLayer
370
18
48
1
60
1
100
AcDbLine
10
-44.625163
20
3
30
0
11
-45.085946
21
6.499998
31
0
39
0
210
0
220
0
230
1
0
LINE
5
10F
100
AcDbEntity
8
1
62
256
6
ByLayer
370
18
48
1
60
1
100
AcDbLine
10
-45.085946
20
6.499998
30
0
11
-44.164379
21
6.500002
31
0
39
0
210
0
220
0
230
1
0
LINE
5
110
100
AcDbEntity
8
1
62
256
6
ByLayer
370
18
48
1
60
1
100
AcDbLine
10
-44.164379
20
6.500002
30
0
11
-44.625163
21
3
31
0
39
0
210
0
220
0
230
1
0
LINE
5
112
100
AcDbEntity
8
1
62
256
6
ByLayer
370
18
48
1
60
1
100
AcDbLine
10
-44.625163
20
-3
30
0
11
-44.164379
21
-6.499998
31
0
39
0
210
0
220
0
230
1
0
LINE
5
113
100
AcDbEntity
8
1
62
256
6
ByLayer
370
18
48
1
60
1
100
AcDbLine
10
-44.164379
20
-6.499998
30
0
11
-45.085946
21
-6.500002
31
0
39
0
210
0
220
0
230
1
0
LINE
5
114
100
AcDbEntity
8
1
62
256
6
ByLayer
370
18
48
1
60
1
100
AcDbLine
10
-45.085946
20
-6.500002
30
0
11
-44.625163
21
-3
31
0
39
0
210
0
220
0
230
1
0
LINE
5
118
100
AcDbEntity
8
1
62
256
6
ByLayer
370
18
48
1
60
1
100
AcDbLine
10
80.083343
20
2.5795
30
0
11
79.622559
21
6.079498
31
0
39
0
210
0
220
0
230
1
0
LINE
5
119
100
AcDbEntity
8
1
62
256
6
ByLayer
370
18
48
1
60
1
100
AcDbLine
10
79.622559
20
6.079498
30
0
11
80.544126
21
6.079502
31
0
39
0
210
0
220
0
230
1
0
LINE
5
11A
100
AcDbEntity
8
1
62
256
6
ByLayer
370
18
48
1
60
1
100
AcDbLine
10
80.544126
20
6.079502
30
0
11
80.083343
21
2.5795
31
0
39
0
210
0
220
0
230
1
0
LINE
5
11C
100
AcDbEntity
8
1
62
256
6
ByLayer
370
18
48
1
60
1
100
AcDbLine
10
80.083343
20
-2.5795
30
0
11
80.544126
21
-6.079498
31
0
39
0
210
0
220
0
230
1
0
LINE
5
11D
100
AcDbEntity
8
1
62
256
6
ByLayer
370
18
48
1
60
1
100
AcDbLine
10
80.544126
20
-6.079498
30
0
11
79.622559
21
-6.079502
31
0
39
0
210
0
220
0
230
1
0
LINE
5
11E
100
AcDbEntity
8
1
62
256
6
ByLayer
370
18
48
1
60
1
100
AcDbLine
10
79.622559
20
-6.079502
30
0
11
80.083343
21
-2.5795
31
0
39
0
210
0
220
0
230
1
0
MTEXT
5
108
100
AcDbEntity
8
SK6
62
256
6
ByLayer
370
13
48
1
60
0
100
AcDbMText
10
-12.70776
20
35.119828
30
0
210
0
220
0
230
1
1
\W0.7563;462.1-0516-039A1-XM X2BM
40
3.5
41
0
44
1.084337
50
0
71
7
72
5
7
iso_b_vert
0
MTEXT
5
10C
100
AcDbEntity
8
SK2
62
256
6
ByLayer
370
18
48
1
60
0
100
AcDbMText
10
-46.189796
20
16.409024
30
0
210
0
220
0
230
1
1
%%c
40
3.5
41
0
44
1.084337
50
90
71
7
72
5
7
iso_b_vert
0
MTEXT
5
10D
100
AcDbEntity
8
SK2
62
256
6
ByLayer
370
18
48
1
60
0
100
AcDbMText
10
-46.189796
20
21.63168
30
0
210
0
220
0
230
1
1
\W0.7317;6,000
40
3.5
41
0
44
1.084337
50
90
71
7
72
5
7
iso_b_vert
0
MTEXT
5
116
100
AcDbEntity
8
2
62
256
6
ByLayer
370
18
48
1
60
0
100
AcDbMText
10
78.518709
20
14.58161
30
0
210
0
220
0
230
1
1
%%c
40
3.5
41
0
44
1.084337
50
90
71
7
72
5
7
iso_b_vert
0
MTEXT
5
117
100
AcDbEntity
8
2
62
256
6
ByLayer
370
18
48
1
60
0
100
AcDbMText
10
78.518709
20
19.804266
30
0
210
0
220
0
230
1
1
\W0.6791;5,159
40
3.5
41
0
44
1.084337
50
90
71
7
72
5
7
iso_b_vert
0
HATCH
5
111
100
AcDbEntity
8
SK2
62
256
6
ByLayer
370
13
48
1
60
0
100
AcDbHatch
10
0
20
0
30
0
210
0
220
0
230
1
2
ANSI31
70
0
71
0
91
1
92
5
93
3
72
1
10
-44.6251625675374
20
3
11
-45.0859463090902
21
6.49999830744682
72
1
10
-45.0859463090902
20
6.49999830744682
11
-44.1643788259847
21
6.50000169255318
72
1
10
-44.1643788259847
20
6.50000169255318
11
-44.6251625675374
21
3
97
0
75
0
76
1
52
0
41
0.0062
77
0
78
1
53
45
43
0
44
0
45
-0.0139193969876572
46
0.0139193969876572
79
0
47
0
98
1
10
0
20
0
0
HATCH
5
115
100
AcDbEntity
8
SK2
62
256
6
ByLayer
370
13
48
1
60
0
100
AcDbHatch
10
0
20
0
30
0
210
0
220
0
230
1
2
ANSI31
70
0
71
0
91
1
92
5
93
3
72
1
10
-44.6251625675374
20
-3
11
-44.1643788259847
21
-6.49999830744682
72
1
10
-44.1643788259847
20
-6.49999830744682
11
-45.0859463090902
21
-6.50000169255318
72
1
10
-45.0859463090902
20
-6.50000169255318
11
-44.6251625675374
21
-3
97
0
75
0
76
1
52
0
41
0.0062
77
0
78
1
53
45
43
0
44
0
45
-0.0139193969876572
46
0.0139193969876572
79
0
47
0
98
1
10
0
20
0
0
HATCH
5
11B
100
AcDbEntity
8
2
62
256
6
ByLayer
370
13
48
1
60
0
100
AcDbHatch
10
0
20
0
30
0
210
0
220
0
230
1
2
ANSI31
70
0
71
0
91
1
92
5
93
3
72
1
10
80.083342615295
20
2.57950000000002
11
79.6225588737422
21
6.07949830744684
72
1
10
79.6225588737422
20
6.07949830744684
11
80.5441263568477
21
6.07950169255321
72
1
10
80.5441263568477
20
6.07950169255321
11
80.083342615295
21
2.57950000000002
97
0
75
0
76
1
52
0
41
0.0062
77
0
78
1
53
45
43
0
44
0
45
-0.0139193969876572
46
0.0139193969876572
79
0
47
0
98
1
10
0
20
0
0
HATCH
5
11F
100
AcDbEntity
8
2
62
256
6
ByLayer
370
13
48
1
60
0
100
AcDbHatch
10
0
20
0
30
0
210
0
220
0
230
1
2
ANSI31
70
0
71
0
91
1
92
5
93
3
72
1
10
80.083342615295
20
-2.5795
11
80.5441263568477
21
-6.07949830744681
72
1
10
80.5441263568477
20
-6.07949830744681
11
79.6225588737422
21
-6.07950169255318
72
1
10
79.6225588737422
20
-6.07950169255318
11
80.083342615295
21
-2.5795
97
0
75
0
76
1
52
0
41
0.0062
77
0
78
1
53
45
43
0
44
0
45
-0.0139193969876572
46
0.0139193969876572
79
0
47
0
98
1
10
0
20
0
0
DIMENSION
5
121
100
AcDbEntity
8
SK2
62
256
6
ByLayer
370
13
48
1
60
0
100
AcDbDimension
2
_U0
10
67.2455
20
-12.792898
30
0
11
33.62275
21
-12.792898
31
0
70
32
71
1
72
1
41
1
210
0
220
0
230
1
3
Standard
100
AcDbAlignedDimension
13
0
23
0
33
0
14
67.2455
24
-2.5795
34
0
50
0
100
AcDbRotatedDimension
1001
ACAD
1000
DSTYLE
1002
{
1070
   371
1070
    13
1070
   372
1070
    13
1070
   170
1070
     0
1070
   144
1040
1.0
1070
   277
1070
     2
1070
   278
1070
    44
1070
   146
1040
1.0
1070
   345
1005
16
1070
   347
1005
16
1070
   346
1005
16
1070
   344
1005
0
1070
   343
1005
0
1070
   172
1070
     1
1070
    76
1070
     0
1070
    75
1070
     0
1070
   282
1070
     0
1070
   281
1070
     0
1070
    71
1070
     0
1070
    74
1070
     0
1070
   279
1070
     0
1070
   173
1070
     1
1070
   340
1005
109
1070
   271
1070
     2
1070
   272
1070
     2
1070
    77
1070
     1
1070
    73
1070
     1
1070
   171
1070
     3
1070
   274
1070
     4
1070
   177
1070
    35
1070
   176
1070
    35
1070
   178
1070
    35
1070
    48
1040
-0.1
1070
    41
1040
3.5
1070
   147
1040
1.75
1070
    42
1040
1.5875
1070
    44
1040
2.0
1070
   140
1040
3.5
1002
}
1001
ACAD_DSTYLE_DIM_LINETYPE
1070
   380
1005
16
1001
ACAD_DSTYLE_DIM_EXT1_LINETYPE
1070
   381
1005
16
1001
ACAD_DSTYLE_DIM_EXT2_LINETYPE
1070
   382
1005
16
0
DIMENSION
5
13A
100
AcDbEntity
8
SK2
62
256
6
ByLayer
370
13
48
1
60
0
100
AcDbDimension
2
_U1
10
68
20
-31.692985
30
0
11
16
21
-31.692985
31
0
70
32
71
1
72
1
41
1
210
0
220
0
230
1
3
Standard
100
AcDbAlignedDimension
13
-36
23
-3
33
0
14
68
24
0
34
0
50
0
100
AcDbRotatedDimension
1001
ACAD
1000
DSTYLE
1002
{
1070
   371
1070
    13
1070
   372
1070
    13
1070
   170
1070
     0
1070
   144
1040
1.0
1070
   277
1070
     2
1070
   278
1070
    44
1070
   146
1040
1.0
1070
   345
1005
16
1070
   347
1005
16
1070
   346
1005
16
1070
   344
1005
0
1070
   343
1005
0
1070
   172
1070
     1
1070
    76
1070
     0
1070
    75
1070
     0
1070
   282
1070
     0
1070
   281
1070
     0
1070
    71
1070
     0
1070
    74
1070
     0
1070
   279
1070
     0
1070
   173
1070
     1
1070
   340
1005
109
1070
   271
1070
     2
1070
   272
1070
     2
1070
    77
1070
     1
1070
    73
1070
     1
1070
   171
1070
     3
1070
   274
1070
     4
1070
   177
1070
    35
1070
   176
1070
    35
1070
   178
1070
    35
1070
    48
1040
-0.1
1070
    41
1040
3.5
1070
   147
1040
1.75
1070
    42
1040
1.5875
1070
    44
1040
2.0
1070
   140
1040
3.5
1002
}
1001
ACAD_DSTYLE_DIM_LINETYPE
1070
   380
1005
16
1001
ACAD_DSTYLE_DIM_EXT1_LINETYPE
1070
   381
1005
16
1001
ACAD_DSTYLE_DIM_EXT2_LINETYPE
1070
   382
1005
16
0
DIMENSION
5
152
100
AcDbEntity
8
SK2
62
256
6
ByLayer
370
13
48
1
60
0
100
AcDbDimension
2
_U2
10
68
20
14.188619
30
0
11
46.985
21
14.188619
31
0
70
32
71
1
72
1
41
1
210
0
220
0
230
1
3
Standard
100
AcDbAlignedDimension
13
25.97
23
2.5795
33
0
14
68
24
0
34
0
50
0
100
AcDbRotatedDimension
1001
ACAD
1000
DSTYLE
1002
{
1070
   371
1070
    13
1070
   372
1070
    13
1070
   170
1070
     0
1070
   144
1040
1.0
1070
   277
1070
     2
1070
   278
1070
    44
1070
   146
1040
1.0
1070
   345
1005
16
1070
   347
1005
16
1070
   346
1005
16
1070
   344
1005
0
1070
   343
1005
0
1070
   172
1070
     1
1070
    76
1070
     0
1070
    75
1070
     0
1070
   282
1070
     0
1070
   281
1070
     0
1070
    71
1070
     0
1070
    74
1070
     0
1070
   279
1070
     0
1070
   173
1070
     1
1070
   340
1005
109
1070
   271
1070
     2
1070
   272
1070
     2
1070
    77
1070
     1
1070
    73
1070
     1
1070
   171
1070
     3
1070
   274
1070
     4
1070
   177
1070
    35
1070
   176
1070
    35
1070
   178
1070
    35
1070
    48
1040
-0.1
1070
    41
1040
3.5
1070
   147
1040
1.75
1070
    42
1040
1.5875
1070
    44
1040
2.0
1070
   140
1040
3.5
1002
}
1001
ACAD_DSTYLE_DIM_LINETYPE
1070
   380
1005
16
1001
ACAD_DSTYLE_DIM_EXT1_LINETYPE
1070
   381
1005
16
1001
ACAD_DSTYLE_DIM_EXT2_LINETYPE
1070
   382
1005
16
0
DIMENSION
5
16A
100
AcDbEntity
8
SK2
62
256
6
ByLayer
370
13
48
1
60
0
100
AcDbDimension
2
_U3
10
67.2455
20
-15.382003
30
0
11
85.583333
21
-15.382003
31
0
70
32
71
1
72
1
41
1
210
0
220
0
230
1
3
Standard
100
AcDbAlignedDimension
13
68
23
0
33
0
14
67.2455
24
-2.5795
34
0
50
0
100
AcDbRotatedDimension
1001
ACAD
1000
DSTYLE
1002
{
1070
   371
1070
    13
1070
   372
1070
    13
1070
   170
1070
     0
1070
   144
1040
1.0
1070
   277
1070
     2
1070
   278
1070
    44
1070
   146
1040
1.0
1070
   345
1005
16
1070
   347
1005
16
1070
   346
1005
16
1070
   344
1005
0
1070
   343
1005
0
1070
   172
1070
     1
1070
    76
1070
     0
1070
    75
1070
     0
1070
   282
1070
     0
1070
   281
1070
     0
1070
    71
1070
     0
1070
    74
1070
     0
1070
   279
1070
     0
1070
   173
1070
     1
1070
   340
1005
109
1070
   271
1070
     2
1070
   272
1070
     2
1070
    77
1070
     1
1070
    73
1070
     1
1070
   171
1070
     3
1070
   274
1070
     4
1070
   177
1070
    35
1070
   176
1070
    35
1070
   178
1070
    35
1070
    48
1040
-0.1
1070
    41
1040
3.5
1070
   147
1040
1.75
1070
    42
1040
1.5875
1070
    44
1040
2.0
1070
   140
1040
3.5
1002
}
1001
ACAD_DSTYLE_DIM_LINETYPE
1070
   380
1005
16
1001
ACAD_DSTYLE_DIM_EXT1_LINETYPE
1070
   381
1005
16
1001
ACAD_DSTYLE_DIM_EXT2_LINETYPE
1070
   382
1005
16
0
DIMENSION
5
184
100
AcDbEntity
8
SK2
62
256
6
ByLayer
370
13
48
1
60
0
100
AcDbDimension
2
_U4
10
67.2455
20
-21.343428
30
0
11
15.62275
21
-21.343428
31
0
70
32
71
1
72
1
41
1
210
0
220
0
230
1
3
Standard
100
AcDbAlignedDimension
13
-36
23
-3
33
0
14
67.2455
24
-2.5795
34
0
50
0
100
AcDbRotatedDimension
1001
ACAD
1000
DSTYLE
1002
{
1070
   371
1070
    13
1070
   372
1070
    13
1070
   170
1070
     0
1070
   144
1040
1.0
1070
   277
1070
     2
1070
   278
1070
    44
1070
   146
1040
1.0
1070
   345
1005
16
1070
   347
1005
16
1070
   346
1005
16
1070
   344
1005
0
1070
   343
1005
0
1070
   172
1070
     1
1070
    76
1070
     0
1070
    75
1070
     0
1070
   282
1070
     0
1070
   281
1070
     0
1070
    71
1070
     0
1070
    74
1070
     0
1070
   279
1070
     0
1070
   173
1070
     1
1070
   340
1005
109
1070
   271
1070
     2
1070
   272
1070
     2
1070
    77
1070
     1
1070
    73
1070
     1
1070
   171
1070
     3
1070
   274
1070
     4
1070
   177
1070
    35
1070
   176
1070
    35
1070
   178
1070
    35
1070
    48
1040
-0.1
1070
    41
1040
3.5
1070
   147
1040
1.75
1070
    42
1040
1.5875
1070
    44
1040
2.0
1070
   140
1040
3.5
1002
}
1001
ACAD_DSTYLE_DIM_LINETYPE
1070
   380
1005
16
1001
ACAD_DSTYLE_DIM_EXT1_LINETYPE
1070
   381
1005
16
1001
ACAD_DSTYLE_DIM_EXT2_LINETYPE
1070
   382
1005
16
0
ENDSEC
0
SECTION
2
OBJECTS
0
DICTIONARY
5
20c
330
0
100
AcDbDictionary
280
0
281
1
3
ACAD_GROUP
350
20d
3
ACAD_MLINESTYLE
350
20e
0
DICTIONARY
5
20d
330
0
100
AcDbDictionary
280
0
281
1
0
DICTIONARY
5
20e
330
0
100
AcDbDictionary
280
0
281
1
3
Standard
350
18
0
MLINESTYLE
5
18
330
20e
100
AcDbMlineStyle
2
Standard
70
0
3

62
256
51
90
52
90
71
2
49
-0.5
62
256
6
ByLayer
49
0.5
62
256
6
ByLayer
0
RASTERVARIABLES
5
1fa
330

100
AcDbRasterVariables
90
0
70
1
71
1
72
1
0
ENDSEC
0
EOF
