0
SECTION
2
HEADER
9
$ACADVER
1
AC1015
9
$DWGCODEPAGE
3
ANSI_1252
9
$HANDSEED
5
1f3
9
$ANGBASE
50
0
9
$ANGDIR
70
0
9
$ATTMODE
70
1
9
$AUNITS
70
0
9
$AUPREC
70
0
9
$CECOLOR
62
256
9
$CELTSCALE
40
1
9
$CELTYPE
6
ByLayer
9
$CELWEIGHT
370
18
9
$CLAYER
8
0
9
$CMLJUST
70
0
9
$CMLSCALE
40
1
9
$CMLSTYLE
2
Standard
9
$DIMSTYLE
2
Standard
9
$TEXTSIZE
40
0.2
9
$TEXTSTYLE
7
Standard
9
$LUNITS
70
2
9
$LUPREC
70
4
9
$EXTNAMES
290
1
9
$INSUNITS
70
4
9
$LTSCALE
40
1
9
$LWDISPLAY
290
1
9
$PDMODE
70
0
9
$PDSIZE
40
0
9
$PLINEGEN
70
0
0
ENDSEC
0
SECTION
2
CLASSES
0
CLASS
1
RASTERVARIABLES
2
AcDbRasterVariables
3
ISM
90
0
280
0
281
0
0
ENDSEC
0
SECTION
2
TABLES
0
TABLE
2
VPORT
5
1e9
100
AcDbSymbolTable
0
VPORT
5
1
100
AcDbSymbolTableRecord
100
AcDbViewportTableRecord
2
*Active
70
0
10
0
20
0
11
1
21
1
12
-1
22
1
13
0
23
0
14
0.5
24
0.5
15
10
25
10
16
0
26
0
36
1
17
0
27
0
37
0
0
ENDTAB
0
TABLE
2
LTYPE
5
1ea
100
AcDbSymbolTable
0
LTYPE
5
14
100
AcDbSymbolTableRecord
100
AcDbLinetypeTableRecord
70
0
2
ByBlock
3

72
65
73
0
40
0
0
LTYPE
5
15
100
AcDbSymbolTableRecord
100
AcDbLinetypeTableRecord
70
0
2
ByLayer
3

72
65
73
0
40
0
0
LTYPE
5
16
100
AcDbSymbolTableRecord
100
AcDbLinetypeTableRecord
70
0
2
Continuous
3
Solid line
72
65
73
0
40
0
0
LTYPE
5
6E
100
AcDbSymbolTableRecord
100
AcDbLinetypeTableRecord
70
0
2
CENTER
3
____ _ ____ _ ____ _ ____
72
65
73
4
40
47.5
49
22
74
0
49
-8.5
74
0
49
8.5
74
0
49
-8.5
74
0
0
LTYPE
5
6F
100
AcDbSymbolTableRecord
100
AcDbLinetypeTableRecord
70
0
2
DASHED
3
__ __ __ __ __ __ __ __ __
72
65
73
2
40
25.72
49
12.86
74
0
49
-12.86
74
0
0
ENDTAB
0
TABLE
2
LAYER
5
1eb
100
AcDbSymbolTable
0
LAYER
5
10
100
AcDbSymbolTableRecord
100
AcDbLayerTableRecord
2
0
70
0
62
7
6
Continuous
290
1
370
-3
390
0
0
LAYER
5
71
100
AcDbSymbolTableRecord
100
AcDbLayerTableRecord
2
80
70
0
62
-6
6
Continuous
290
1
370
-3
390
0
0
LAYER
5
73
100
AcDbSymbolTableRecord
100
AcDbLayerTableRecord
2
81
70
0
62
-3
6
Continuous
290
1
370
-3
390
0
0
LAYER
5
75
100
AcDbSymbolTableRecord
100
AcDbLayerTableRecord
2
1
70
0
62
4
6
Continuous
290
1
370
-3
390
0
0
LAYER
5
88
100
AcDbSymbolTableRecord
100
AcDbLayerTableRecord
2
4
70
0
62
-2
6
CENTER
290
1
370
-3
390
0
0
LAYER
5
A1
100
AcDbSymbolTableRecord
100
AcDbLayerTableRecord
2
2
70
0
62
7
6
Continuous
290
1
370
-3
390
0
0
LAYER
5
FE
100
AcDbSymbolTableRecord
100
AcDbLayerTableRecord
2
Defpoints
70
0
62
7
6
Continuous
290
0
370
-3
390
0
0
LAYER
5
1d5
100
AcDbSymbolTableRecord
100
AcDbLayerTableRecord
2
SK1
70
0
62
4
6
Continuous
290
1
370
-3
390
0
0
LAYER
5
1d6
100
AcDbSymbolTableRecord
100
AcDbLayerTableRecord
2
SK4
70
0
62
2
6
CENTER
290
1
370
-3
390
0
0
LAYER
5
1d7
100
AcDbSymbolTableRecord
100
AcDbLayerTableRecord
2
SK2
70
0
62
7
6
Continuous
290
1
370
-3
390
0
0
LAYER
5
1d8
100
AcDbSymbolTableRecord
100
AcDbLayerTableRecord
2
SK6
70
0
62
5
6
Continuous
290
1
370
-3
390
0
0
ENDTAB
0
TABLE
2
STYLE
5
1ec
100
AcDbSymbolTable
0
STYLE
5
11
100
AcDbSymbolTableRecord
100
AcDbTextStyleTableRecord
2
Standard
3
txt
70
0
71
0
40
0
41
1
42
0
50
0
0
STYLE
5
E3
100
AcDbSymbolTableRecord
100
AcDbTextStyleTableRecord
2
iso_b_vert
3
simplex.shx
70
0
71
0
40
0
41
1
42
0
50
0
0
STYLE
5
E4
100
AcDbSymbolTableRecord
100
AcDbTextStyleTableRecord
2
DWGDirectTextStyle
3
simplex
70
0
71
0
40
0
41
1
42
0
50
0
0
ENDTAB
0
TABLE
2
DIMSTYLE
5
1ed
100
AcDbSymbolTable
100
AcDbDimStyleTable
0
DIMSTYLE
105
27
100
AcDbSymbolTableRecord
100
AcDbDimStyleTableRecord
2
Standard
70
0
3
<>
41
0.18
42
0.0625
44
0.18
140
0.18
147
0.09
73
0
74
0
77
1
271
2
275
0
278
52
280
0
340
11
0
ENDTAB
0
TABLE
2
VIEW
5
1ee
100
AcDbSymbolTable
0
ENDTAB
0
TABLE
2
UCS
5
1ef
100
AcDbSymbolTable
0
ENDTAB
0
TABLE
2
APPID
5
1f0
100
AcDbSymbolTable
0
APPID
5
12
100
AcDbSymbolTableRecord
100
AcDbRegAppTableRecord
2
ACAD
70
0
0
APPID
5
FA
100
AcDbSymbolTableRecord
100
AcDbRegAppTableRecord
2
ACAD_DSTYLE_DIMBREAK
70
0
0
APPID
5
194
100
AcDbSymbolTableRecord
100
AcDbRegAppTableRecord
2
ACAD_DSTYLE_DIM_LINETYPE
70
0
0
APPID
5
195
100
AcDbSymbolTableRecord
100
AcDbRegAppTableRecord
2
ACAD_DSTYLE_DIM_EXT1_LINETYPE
70
0
0
APPID
5
196
100
AcDbSymbolTableRecord
100
AcDbRegAppTableRecord
2
ACAD_DSTYLE_DIM_EXT2_LINETYPE
70
0
0
APPID
5
1D1
100
AcDbSymbolTableRecord
100
AcDbRegAppTableRecord
2
ACAD_MLEADERVER
70
0
0
ENDTAB
0
TABLE
2
BLOCK_RECORD
5
1f1
100
AcDbSymbolTable
0
BLOCK_RECORD
5
1F
100
AcDbSymbolTableRecord
100
AcDbBlockTableRecord
2
*Model_Space
340
0
70
0
0
BLOCK_RECORD
5
1B
100
AcDbSymbolTableRecord
100
AcDbBlockTableRecord
2
*Paper_Space
340
0
70
0
0
BLOCK_RECORD
5
23
100
AcDbSymbolTableRecord
100
AcDbBlockTableRecord
2
*Paper_Space0
340
0
70
0
0
BLOCK_RECORD
5
FF
100
AcDbSymbolTableRecord
100
AcDbBlockTableRecord
2
*D1
340
0
70
0
0
BLOCK_RECORD
5
10B
100
AcDbSymbolTableRecord
100
AcDbBlockTableRecord
2
_U0
340
0
70
0
0
BLOCK_RECORD
5
117
100
AcDbSymbolTableRecord
100
AcDbBlockTableRecord
2
*D3
340
0
70
0
0
BLOCK_RECORD
5
123
100
AcDbSymbolTableRecord
100
AcDbBlockTableRecord
2
_U1
340
0
70
0
0
BLOCK_RECORD
5
12F
100
AcDbSymbolTableRecord
100
AcDbBlockTableRecord
2
*D5
340
0
70
0
0
BLOCK_RECORD
5
13B
100
AcDbSymbolTableRecord
100
AcDbBlockTableRecord
2
_U2
340
0
70
0
0
BLOCK_RECORD
5
147
100
AcDbSymbolTableRecord
100
AcDbBlockTableRecord
2
*D7
340
0
70
0
0
BLOCK_RECORD
5
155
100
AcDbSymbolTableRecord
100
AcDbBlockTableRecord
2
_U3
340
0
70
0
0
BLOCK_RECORD
5
161
100
AcDbSymbolTableRecord
100
AcDbBlockTableRecord
2
*D9
340
0
70
0
0
BLOCK_RECORD
5
16D
100
AcDbSymbolTableRecord
100
AcDbBlockTableRecord
2
_U4
340
0
70
0
0
ENDTAB
0
ENDSEC
0
SECTION
2
BLOCKS
0
BLOCK
5
20
100
AcDbEntity
8
0
100
AcDbBlockBegin
2
*Model_Space
70
0
10
0
20
0
30
0
3
*Model_Space
0
ENDBLK
5
21
100
AcDbEntity
8
0
100
AcDbBlockEnd
0
BLOCK
5
1C
100
AcDbEntity
8
0
100
AcDbBlockBegin
2
*Paper_Space
70
0
10
0
20
0
30
0
3
*Paper_Space
0
ENDBLK
5
1D
100
AcDbEntity
8
0
100
AcDbBlockEnd
0
BLOCK
5
24
100
AcDbEntity
8
0
100
AcDbBlockBegin
2
*Paper_Space0
70
0
10
0
20
0
30
0
3
*Paper_Space0
0
ENDBLK
5
25
100
AcDbEntity
8
0
100
AcDbBlockEnd
0
BLOCK
5
100
100
AcDbEntity
8
0
100
AcDbBlockBegin
2
*D1
70
1
10
0
20
0
30
0
3
*D1
0
LINE
5
102
100
AcDbEntity
8
0
62
256
6
ByLayer
370
-2
48
1
60
0
100
AcDbLine
10
0
20
-1.5875
30
0
11
0
21
-20.944898
31
0
39
0
210
0
220
0
230
1
0
LINE
5
103
100
AcDbEntity
8
0
62
256
6
ByLayer
370
-2
48
1
60
0
100
AcDbLine
10
92.3913
20
-10.319
30
0
11
92.3913
21
-20.944898
31
0
39
0
210
0
220
0
230
1
0
LINE
5
104
100
AcDbEntity
8
0
62
256
6
ByLayer
370
-2
48
1
60
0
100
AcDbLine
10
3.5
20
-18.944898
30
0
11
88.8913
21
-18.944898
31
0
39
0
210
0
220
0
230
1
0
SOLID
5
105
100
AcDbEntity
8
0
62
256
6
ByLayer
370
-1
48
1
60
0
100
AcDbTrace
10
3.5
20
-18.361565
30
0
11
3.5
21
-19.528232
31
0
12
0
22
-18.944898
32
0
13
0
23
-18.944898
33
0
39
0
210
0
220
0
230
1
0
SOLID
5
106
100
AcDbEntity
8
0
62
256
6
ByLayer
370
-1
48
1
60
0
100
AcDbTrace
10
88.8913
20
-19.528232
30
0
11
88.8913
21
-18.361565
31
0
12
92.3913
22
-18.944898
32
0
13
92.3913
23
-18.944898
33
0
39
0
210
0
220
0
230
1
0
MTEXT
5
107
100
AcDbEntity
8
0
62
256
6
ByLayer
370
18
48
1
60
0
100
AcDbMText
10
46.19565
20
-11.944898
30
0
210
0
220
0
230
1
1
\A1;92.39
40
3.5
41
0
44
1
50
0
71
5
72
5
7
iso_b_vert
0
POINT
5
108
100
AcDbEntity
8
Defpoints
62
0
6
ByLayer
370
-1
48
1
60
0
100
AcDbPoint
10
0
20
0
30
0
39
0
210
0
220
0
230
1
50
360
0
POINT
5
109
100
AcDbEntity
8
Defpoints
62
0
6
ByLayer
370
-1
48
1
60
0
100
AcDbPoint
10
92.3913
20
-8.7315
30
0
39
0
210
0
220
0
230
1
50
360
0
POINT
5
10A
100
AcDbEntity
8
Defpoints
62
0
6
ByLayer
370
-1
48
1
60
0
100
AcDbPoint
10
92.3913
20
-18.944898
30
0
39
0
210
0
220
0
230
1
50
360
0
ENDBLK
5
101
100
AcDbEntity
8
0
100
AcDbBlockEnd
0
BLOCK
5
112
100
AcDbEntity
8
0
100
AcDbBlockBegin
2
_U0
70
0
10
0
20
0
30
0
3
_U0
0
MTEXT
5
10C
100
AcDbEntity
8
SK2
62
256
6
ByLayer
370
13
48
1
60
0
100
AcDbMText
10
41.058351
20
-17.912265
30
0
210
0
220
0
230
1
1
\W0.7402;92,39
40
3.5
41
0
44
1.084337
50
0
71
7
72
5
7
iso_b_vert
0
LINE
5
10D
100
AcDbEntity
8
SK2
62
256
6
ByLayer
370
13
48
1
60
0
100
AcDbLine
10
0
20
-1.5875
30
0
11
0
21
-20.944898
31
0
39
0
210
0
220
0
230
1
0
LINE
5
10E
100
AcDbEntity
8
SK2
62
256
6
ByLayer
370
13
48
1
60
0
100
AcDbLine
10
92.3913
20
-10.319
30
0
11
92.3913
21
-20.944898
31
0
39
0
210
0
220
0
230
1
0
LINE
5
10F
100
AcDbEntity
8
SK2
62
256
6
ByLayer
370
13
48
1
60
0
100
AcDbLine
10
0
20
-18.944898
30
0
11
92.3913
21
-18.944898
31
0
39
0
210
0
220
0
230
1
0
SOLID
5
110
100
AcDbEntity
8
SK2
62
256
6
ByLayer
370
18
48
1
60
0
100
AcDbTrace
10
0
20
-18.944898
30
0
11
3.499998
21
-18.484115
31
0
12
3.500002
22
-19.405682
32
0
13
3.500002
23
-19.405682
33
0
39
0
210
0
220
0
230
1
0
SOLID
5
111
100
AcDbEntity
8
SK2
62
256
6
ByLayer
370
18
48
1
60
0
100
AcDbTrace
10
92.3913
20
-18.944898
30
0
11
88.891302
21
-19.405682
31
0
12
88.891298
22
-18.484115
32
0
13
88.891298
23
-18.484115
33
0
39
0
210
0
220
0
230
1
0
ENDBLK
5
113
100
AcDbEntity
8
0
100
AcDbBlockEnd
0
BLOCK
5
118
100
AcDbEntity
8
0
100
AcDbBlockBegin
2
*D3
70
1
10
0
20
0
30
0
3
*D3
0
LINE
5
11A
100
AcDbEntity
8
0
62
256
6
ByLayer
370
-2
48
1
60
0
100
AcDbLine
10
-48
20
-10.5875
30
0
11
-48
21
-39.692985
31
0
39
0
210
0
220
0
230
1
0
LINE
5
11B
100
AcDbEntity
8
0
62
256
6
ByLayer
370
-2
48
1
60
0
100
AcDbLine
10
95
20
-1.5875
30
0
11
95
21
-39.692985
31
0
39
0
210
0
220
0
230
1
0
LINE
5
11C
100
AcDbEntity
8
0
62
256
6
ByLayer
370
-2
48
1
60
0
100
AcDbLine
10
-44.5
20
-37.692985
30
0
11
91.5
21
-37.692985
31
0
39
0
210
0
220
0
230
1
0
SOLID
5
11D
100
AcDbEntity
8
0
62
256
6
ByLayer
370
-1
48
1
60
0
100
AcDbTrace
10
-44.5
20
-37.109652
30
0
11
-44.5
21
-38.276319
31
0
12
-48
22
-37.692985
32
0
13
-48
23
-37.692985
33
0
39
0
210
0
220
0
230
1
0
SOLID
5
11E
100
AcDbEntity
8
0
62
256
6
ByLayer
370
-1
48
1
60
0
100
AcDbTrace
10
91.5
20
-38.276319
30
0
11
91.5
21
-37.109652
31
0
12
95
22
-37.692985
32
0
13
95
23
-37.692985
33
0
39
0
210
0
220
0
230
1
0
MTEXT
5
11F
100
AcDbEntity
8
0
62
256
6
ByLayer
370
18
48
1
60
0
100
AcDbMText
10
23.5
20
-30.692985
30
0
210
0
220
0
230
1
1
\A1;143.00
40
3.5
41
0
44
1
50
0
71
5
72
5
7
iso_b_vert
0
POINT
5
120
100
AcDbEntity
8
Defpoints
62
0
6
ByLayer
370
-1
48
1
60
0
100
AcDbPoint
10
-48
20
-9
30
0
39
0
210
0
220
0
230
1
50
360
0
POINT
5
121
100
AcDbEntity
8
Defpoints
62
0
6
ByLayer
370
-1
48
1
60
0
100
AcDbPoint
10
95
20
0
30
0
39
0
210
0
220
0
230
1
50
360
0
POINT
5
122
100
AcDbEntity
8
Defpoints
62
0
6
ByLayer
370
-1
48
1
60
0
100
AcDbPoint
10
95
20
-37.692985
30
0
39
0
210
0
220
0
230
1
50
360
0
ENDBLK
5
119
100
AcDbEntity
8
0
100
AcDbBlockEnd
0
BLOCK
5
12A
100
AcDbEntity
8
0
100
AcDbBlockBegin
2
_U1
70
0
10
0
20
0
30
0
3
_U1
0
MTEXT
5
124
100
AcDbEntity
8
SK2
62
256
6
ByLayer
370
13
48
1
60
0
100
AcDbMText
10
17.308135
20
-36.660352
30
0
210
0
220
0
230
1
1
\W0.7145;143,00
40
3.5
41
0
44
1.084337
50
0
71
7
72
5
7
iso_b_vert
0
LINE
5
125
100
AcDbEntity
8
SK2
62
256
6
ByLayer
370
13
48
1
60
0
100
AcDbLine
10
-48
20
-10.5875
30
0
11
-48
21
-39.692985
31
0
39
0
210
0
220
0
230
1
0
LINE
5
126
100
AcDbEntity
8
SK2
62
256
6
ByLayer
370
13
48
1
60
0
100
AcDbLine
10
95
20
-1.5875
30
0
11
95
21
-39.692985
31
0
39
0
210
0
220
0
230
1
0
LINE
5
127
100
AcDbEntity
8
SK2
62
256
6
ByLayer
370
13
48
1
60
0
100
AcDbLine
10
-48
20
-37.692985
30
0
11
95
21
-37.692985
31
0
39
0
210
0
220
0
230
1
0
SOLID
5
128
100
AcDbEntity
8
SK2
62
256
6
ByLayer
370
18
48
1
60
0
100
AcDbTrace
10
-48
20
-37.692985
30
0
11
-44.500002
21
-37.232202
31
0
12
-44.499998
22
-38.153769
32
0
13
-44.499998
23
-38.153769
33
0
39
0
210
0
220
0
230
1
0
SOLID
5
129
100
AcDbEntity
8
SK2
62
256
6
ByLayer
370
18
48
1
60
0
100
AcDbTrace
10
95
20
-37.692985
30
0
11
91.500002
21
-38.153769
31
0
12
91.499998
22
-37.232202
32
0
13
91.499998
23
-37.232202
33
0
39
0
210
0
220
0
230
1
0
ENDBLK
5
12B
100
AcDbEntity
8
0
100
AcDbBlockEnd
0
BLOCK
5
130
100
AcDbEntity
8
0
100
AcDbBlockBegin
2
*D5
70
1
10
0
20
0
30
0
3
*D5
0
LINE
5
132
100
AcDbEntity
8
0
62
256
6
ByLayer
370
-2
48
1
60
0
100
AcDbLine
10
19.46
20
10.319
30
0
11
19.46
21
22.340619
31
0
39
0
210
0
220
0
230
1
0
LINE
5
133
100
AcDbEntity
8
0
62
256
6
ByLayer
370
-2
48
1
60
0
100
AcDbLine
10
95
20
1.5875
30
0
11
95
21
22.340619
31
0
39
0
210
0
220
0
230
1
0
LINE
5
134
100
AcDbEntity
8
0
62
256
6
ByLayer
370
-2
48
1
60
0
100
AcDbLine
10
22.96
20
20.340619
30
0
11
91.5
21
20.340619
31
0
39
0
210
0
220
0
230
1
0
SOLID
5
135
100
AcDbEntity
8
0
62
256
6
ByLayer
370
-1
48
1
60
0
100
AcDbTrace
10
22.96
20
20.923953
30
0
11
22.96
21
19.757286
31
0
12
19.46
22
20.340619
32
0
13
19.46
23
20.340619
33
0
39
0
210
0
220
0
230
1
0
SOLID
5
136
100
AcDbEntity
8
0
62
256
6
ByLayer
370
-1
48
1
60
0
100
AcDbTrace
10
91.5
20
19.757286
30
0
11
91.5
21
20.923953
31
0
12
95
22
20.340619
32
0
13
95
23
20.340619
33
0
39
0
210
0
220
0
230
1
0
MTEXT
5
137
100
AcDbEntity
8
0
62
256
6
ByLayer
370
18
48
1
60
0
100
AcDbMText
10
57.23
20
27.340619
30
0
210
0
220
0
230
1
1
\A1;75.54
40
3.5
41
0
44
1
50
0
71
5
72
5
7
iso_b_vert
0
POINT
5
138
100
AcDbEntity
8
Defpoints
62
0
6
ByLayer
370
-1
48
1
60
0
100
AcDbPoint
10
19.46
20
8.7315
30
0
39
0
210
0
220
0
230
1
50
360
0
POINT
5
139
100
AcDbEntity
8
Defpoints
62
0
6
ByLayer
370
-1
48
1
60
0
100
AcDbPoint
10
95
20
0
30
0
39
0
210
0
220
0
230
1
50
360
0
POINT
5
13A
100
AcDbEntity
8
Defpoints
62
0
6
ByLayer
370
-1
48
1
60
0
100
AcDbPoint
10
95
20
20.340619
30
0
39
0
210
0
220
0
230
1
50
360
0
ENDBLK
5
131
100
AcDbEntity
8
0
100
AcDbBlockEnd
0
BLOCK
5
142
100
AcDbEntity
8
0
100
AcDbBlockBegin
2
_U2
70
0
10
0
20
0
30
0
3
_U2
0
MTEXT
5
13C
100
AcDbEntity
8
SK2
62
256
6
ByLayer
370
13
48
1
60
0
100
AcDbMText
10
51.908435
20
21.373253
30
0
210
0
220
0
230
1
1
\W0.7495;75,54
40
3.5
41
0
44
1.084337
50
0
71
7
72
5
7
iso_b_vert
0
LINE
5
13D
100
AcDbEntity
8
SK2
62
256
6
ByLayer
370
13
48
1
60
0
100
AcDbLine
10
19.46
20
10.319
30
0
11
19.46
21
22.340619
31
0
39
0
210
0
220
0
230
1
0
LINE
5
13E
100
AcDbEntity
8
SK2
62
256
6
ByLayer
370
13
48
1
60
0
100
AcDbLine
10
95
20
1.5875
30
0
11
95
21
22.340619
31
0
39
0
210
0
220
0
230
1
0
LINE
5
13F
100
AcDbEntity
8
SK2
62
256
6
ByLayer
370
13
48
1
60
0
100
AcDbLine
10
19.46
20
20.340619
30
0
11
95
21
20.340619
31
0
39
0
210
0
220
0
230
1
0
SOLID
5
140
100
AcDbEntity
8
SK2
62
256
6
ByLayer
370
18
48
1
60
0
100
AcDbTrace
10
19.46
20
20.340619
30
0
11
22.959998
21
20.801403
31
0
12
22.960002
22
19.879835
32
0
13
22.960002
23
19.879835
33
0
39
0
210
0
220
0
230
1
0
SOLID
5
141
100
AcDbEntity
8
SK2
62
256
6
ByLayer
370
18
48
1
60
0
100
AcDbTrace
10
95
20
20.340619
30
0
11
91.500002
21
19.879835
31
0
12
91.499998
22
20.801403
32
0
13
91.499998
23
20.801403
33
0
39
0
210
0
220
0
230
1
0
ENDBLK
5
143
100
AcDbEntity
8
0
100
AcDbBlockEnd
0
BLOCK
5
148
100
AcDbEntity
8
0
100
AcDbBlockBegin
2
*D7
70
1
10
0
20
0
30
0
3
*D7
0
LINE
5
14A
100
AcDbEntity
8
0
62
256
6
ByLayer
370
-2
48
1
60
0
100
AcDbLine
10
95
20
-1.5875
30
0
11
95
21
-23.534003
31
0
39
0
210
0
220
0
230
1
0
LINE
5
14B
100
AcDbEntity
8
0
62
256
6
ByLayer
370
-2
48
1
60
0
100
AcDbLine
10
92.3913
20
-10.319
30
0
11
92.3913
21
-23.534003
31
0
39
0
210
0
220
0
230
1
0
LINE
5
14C
100
AcDbEntity
8
0
62
256
6
ByLayer
370
-2
48
1
60
0
100
AcDbLine
10
95
20
-21.534003
30
0
11
122.166667
21
-21.534003
31
0
39
0
210
0
220
0
230
1
0
LINE
5
14D
100
AcDbEntity
8
0
62
256
6
ByLayer
370
-2
48
1
60
0
100
AcDbLine
10
98.5
20
-21.534003
30
0
11
102
21
-21.534003
31
0
39
0
210
0
220
0
230
1
0
LINE
5
14E
100
AcDbEntity
8
0
62
256
6
ByLayer
370
-2
48
1
60
0
100
AcDbLine
10
88.8913
20
-21.534003
30
0
11
85.3913
21
-21.534003
31
0
39
0
210
0
220
0
230
1
0
SOLID
5
14F
100
AcDbEntity
8
0
62
256
6
ByLayer
370
-1
48
1
60
0
100
AcDbTrace
10
98.5
20
-20.95067
30
0
11
98.5
21
-22.117337
31
0
12
95
22
-21.534003
32
0
13
95
23
-21.534003
33
0
39
0
210
0
220
0
230
1
0
SOLID
5
150
100
AcDbEntity
8
0
62
256
6
ByLayer
370
-1
48
1
60
0
100
AcDbTrace
10
88.8913
20
-22.117337
30
0
11
88.8913
21
-20.95067
31
0
12
92.3913
22
-21.534003
32
0
13
92.3913
23
-21.534003
33
0
39
0
210
0
220
0
230
1
0
MTEXT
5
151
100
AcDbEntity
8
0
62
256
6
ByLayer
370
18
48
1
60
0
100
AcDbMText
10
112.083333
20
-14.534003
30
0
210
0
220
0
230
1
1
\A1;2.61
40
3.5
41
0
44
1
50
0
71
5
72
5
7
iso_b_vert
0
POINT
5
152
100
AcDbEntity
8
Defpoints
62
0
6
ByLayer
370
-1
48
1
60
0
100
AcDbPoint
10
95
20
0
30
0
39
0
210
0
220
0
230
1
50
360
0
POINT
5
153
100
AcDbEntity
8
Defpoints
62
0
6
ByLayer
370
-1
48
1
60
0
100
AcDbPoint
10
92.3913
20
-8.7315
30
0
39
0
210
0
220
0
230
1
50
360
0
POINT
5
154
100
AcDbEntity
8
Defpoints
62
0
6
ByLayer
370
-1
48
1
60
0
100
AcDbPoint
10
92.3913
20
-21.534003
30
0
39
0
210
0
220
0
230
1
50
360
0
ENDBLK
5
149
100
AcDbEntity
8
0
100
AcDbBlockEnd
0
BLOCK
5
15C
100
AcDbEntity
8
0
100
AcDbBlockBegin
2
_U3
70
0
10
0
20
0
30
0
3
_U3
0
MTEXT
5
156
100
AcDbEntity
8
SK2
62
256
6
ByLayer
370
13
48
1
60
0
100
AcDbMText
10
101.589293
20
-20.50137
30
0
210
0
220
0
230
1
1
\W0.6993;2,61
40
3.5
41
0
44
1.084337
50
0
71
7
72
5
7
iso_b_vert
0
LINE
5
157
100
AcDbEntity
8
SK2
62
256
6
ByLayer
370
13
48
1
60
0
100
AcDbLine
10
95
20
-1.5875
30
0
11
95
21
-23.534003
31
0
39
0
210
0
220
0
230
1
0
LINE
5
158
100
AcDbEntity
8
SK2
62
256
6
ByLayer
370
13
48
1
60
0
100
AcDbLine
10
92.3913
20
-10.319
30
0
11
92.3913
21
-23.534003
31
0
39
0
210
0
220
0
230
1
0
LINE
5
159
100
AcDbEntity
8
SK2
62
256
6
ByLayer
370
13
48
1
60
0
100
AcDbLine
10
83.6413
20
-21.534003
30
0
11
108.559058
21
-21.534003
31
0
39
0
210
0
220
0
230
1
0
SOLID
5
15A
100
AcDbEntity
8
SK2
62
256
6
ByLayer
370
18
48
1
60
0
100
AcDbTrace
10
95
20
-21.534003
30
0
11
98.499998
21
-21.073219
31
0
12
98.500002
22
-21.994787
32
0
13
98.500002
23
-21.994787
33
0
39
0
210
0
220
0
230
1
0
SOLID
5
15B
100
AcDbEntity
8
SK2
62
256
6
ByLayer
370
18
48
1
60
0
100
AcDbTrace
10
92.3913
20
-21.534003
30
0
11
88.891302
21
-21.994787
31
0
12
88.891298
22
-21.073219
32
0
13
88.891298
23
-21.073219
33
0
39
0
210
0
220
0
230
1
0
ENDBLK
5
15D
100
AcDbEntity
8
0
100
AcDbBlockEnd
0
BLOCK
5
162
100
AcDbEntity
8
0
100
AcDbBlockBegin
2
*D9
70
1
10
0
20
0
30
0
3
*D9
0
LINE
5
164
100
AcDbEntity
8
0
62
256
6
ByLayer
370
-2
48
1
60
0
100
AcDbLine
10
-48
20
-10.5875
30
0
11
-48
21
-29.343428
31
0
39
0
210
0
220
0
230
1
0
LINE
5
165
100
AcDbEntity
8
0
62
256
6
ByLayer
370
-2
48
1
60
0
100
AcDbLine
10
92.3913
20
-10.319
30
0
11
92.3913
21
-29.343428
31
0
39
0
210
0
220
0
230
1
0
LINE
5
166
100
AcDbEntity
8
0
62
256
6
ByLayer
370
-2
48
1
60
0
100
AcDbLine
10
-44.5
20
-27.343428
30
0
11
88.8913
21
-27.343428
31
0
39
0
210
0
220
0
230
1
0
SOLID
5
167
100
AcDbEntity
8
0
62
256
6
ByLayer
370
-1
48
1
60
0
100
AcDbTrace
10
-44.5
20
-26.760095
30
0
11
-44.5
21
-27.926762
31
0
12
-48
22
-27.343428
32
0
13
-48
23
-27.343428
33
0
39
0
210
0
220
0
230
1
0
SOLID
5
168
100
AcDbEntity
8
0
62
256
6
ByLayer
370
-1
48
1
60
0
100
AcDbTrace
10
88.8913
20
-27.926762
30
0
11
88.8913
21
-26.760095
31
0
12
92.3913
22
-27.343428
32
0
13
92.3913
23
-27.343428
33
0
39
0
210
0
220
0
230
1
0
MTEXT
5
169
100
AcDbEntity
8
0
62
256
6
ByLayer
370
18
48
1
60
0
100
AcDbMText
10
22.19565
20
-20.343428
30
0
210
0
220
0
230
1
1
\A1;140.39
40
3.5
41
0
44
1
50
0
71
5
72
5
7
iso_b_vert
0
POINT
5
16A
100
AcDbEntity
8
Defpoints
62
0
6
ByLayer
370
-1
48
1
60
0
100
AcDbPoint
10
-48
20
-9
30
0
39
0
210
0
220
0
230
1
50
360
0
POINT
5
16B
100
AcDbEntity
8
Defpoints
62
0
6
ByLayer
370
-1
48
1
60
0
100
AcDbPoint
10
92.3913
20
-8.7315
30
0
39
0
210
0
220
0
230
1
50
360
0
POINT
5
16C
100
AcDbEntity
8
Defpoints
62
0
6
ByLayer
370
-1
48
1
60
0
100
AcDbPoint
10
92.3913
20
-27.343428
30
0
39
0
210
0
220
0
230
1
50
360
0
ENDBLK
5
163
100
AcDbEntity
8
0
100
AcDbBlockEnd
0
BLOCK
5
174
100
AcDbEntity
8
0
100
AcDbBlockBegin
2
_U4
70
0
10
0
20
0
30
0
3
_U4
0
MTEXT
5
16E
100
AcDbEntity
8
SK2
62
256
6
ByLayer
370
13
48
1
60
0
100
AcDbMText
10
16.003785
20
-26.310795
30
0
210
0
220
0
230
1
1
\W0.7213;140,39
40
3.5
41
0
44
1.084337
50
0
71
7
72
5
7
iso_b_vert
0
LINE
5
16F
100
AcDbEntity
8
SK2
62
256
6
ByLayer
370
13
48
1
60
0
100
AcDbLine
10
-48
20
-10.5875
30
0
11
-48
21
-29.343428
31
0
39
0
210
0
220
0
230
1
0
LINE
5
170
100
AcDbEntity
8
SK2
62
256
6
ByLayer
370
13
48
1
60
0
100
AcDbLine
10
92.3913
20
-10.319
30
0
11
92.3913
21
-29.343428
31
0
39
0
210
0
220
0
230
1
0
LINE
5
171
100
AcDbEntity
8
SK2
62
256
6
ByLayer
370
13
48
1
60
0
100
AcDbLine
10
-48
20
-27.343428
30
0
11
92.3913
21
-27.343428
31
0
39
0
210
0
220
0
230
1
0
SOLID
5
172
100
AcDbEntity
8
SK2
62
256
6
ByLayer
370
18
48
1
60
0
100
AcDbTrace
10
-48
20
-27.343428
30
0
11
-44.500002
21
-26.882645
31
0
12
-44.499998
22
-27.804212
32
0
13
-44.499998
23
-27.804212
33
0
39
0
210
0
220
0
230
1
0
SOLID
5
173
100
AcDbEntity
8
SK2
62
256
6
ByLayer
370
18
48
1
60
0
100
AcDbTrace
10
92.3913
20
-27.343428
30
0
11
88.891302
21
-27.804212
31
0
12
88.891298
22
-26.882645
32
0
13
88.891298
23
-26.882645
33
0
39
0
210
0
220
0
230
1
0
ENDBLK
5
175
100
AcDbEntity
8
0
100
AcDbBlockEnd
0
ENDSEC
0
SECTION
2
ENTITIES
0
ARC
5
AA
100
AcDbEntity
8
1
62
256
6
ByLayer
370
18
48
1
60
0
100
AcDbCircle
39
0
10
0.967463
20
-9.474368
30
0
40
0.799999999999997
210
0
220
0
230
1
100
AcDbArc
50
89.96419
51
127.204702
0
ARC
5
AB
100
AcDbEntity
8
1
62
256
6
ByLayer
370
18
48
1
60
0
100
AcDbCircle
39
0
10
0.967463
20
9.474368
30
0
40
0.799999999999997
210
0
220
0
230
1
100
AcDbArc
50
232.795298
51
270.03581
0
ARC
5
AC
100
AcDbEntity
8
1
62
256
6
ByLayer
370
18
48
1
60
0
100
AcDbCircle
39
0
10
0
20
-8.2
30
0
40
0.800000000000002
210
0
220
0
230
1
100
AcDbArc
50
270
51
307.204702
0
ARC
5
AD
100
AcDbEntity
8
1
62
256
6
ByLayer
370
18
48
1
60
0
100
AcDbCircle
39
0
10
0
20
8.2
30
0
40
0.800000000000002
210
0
220
0
230
1
100
AcDbArc
50
52.795298
51
90
0
ELLIPSE
5
AE
100
AcDbEntity
8
1
62
256
6
ByLayer
370
18
48
1
60
0
100
AcDbEllipse
10
4.25
20
8.490478
30
0
11
0.25
21
0
31
0
210
0
220
0
230
1
40
1
41
-3.10515021245434
42
-1.56633196574694
0
ELLIPSE
5
AF
100
AcDbEntity
8
1
62
256
6
ByLayer
370
18
48
1
60
0
100
AcDbEllipse
10
4.25
20
-8.490478
30
0
11
0.25
21
0
31
0
210
0
220
0
230
1
40
1
41
1.56935173637328
42
3.10515021245434
0
POINT
5
70
100
AcDbEntity
8
80
62
256
6
ByLayer
370
18
48
1
60
0
100
AcDbPoint
10
0
20
0
30
0
39
0
210
0
220
0
230
1
50
360
0
POINT
5
72
100
AcDbEntity
8
81
62
256
6
ByLayer
370
18
48
1
60
0
100
AcDbPoint
10
95
20
0
30
0
39
0
210
0
220
0
230
1
50
360
0
POINT
5
74
100
AcDbEntity
8
1
62
256
6
ByLayer
370
18
48
1
60
1
100
AcDbPoint
10
92.3913
20
-8.7315
30
0
39
0
210
0
220
0
230
1
50
360
0
POINT
5
76
100
AcDbEntity
8
1
62
256
6
ByLayer
370
18
48
1
60
1
100
AcDbPoint
10
-48
20
-9
30
0
39
0
210
0
220
0
230
1
50
360
0
POINT
5
77
100
AcDbEntity
8
1
62
256
6
ByLayer
370
18
48
1
60
1
100
AcDbPoint
10
19.46
20
8.7315
30
0
39
0
210
0
220
0
230
1
50
360
0
POINT
5
78
100
AcDbEntity
8
1
62
256
6
ByLayer
370
18
48
1
60
1
100
AcDbPoint
10
92.3913
20
-8.7315
30
0
39
0
210
0
220
0
230
1
50
360
0
POINT
5
79
100
AcDbEntity
8
1
62
256
6
ByLayer
370
18
48
1
60
1
100
AcDbPoint
10
-48
20
-9
30
0
39
0
210
0
220
0
230
1
50
360
0
POINT
5
7A
100
AcDbEntity
8
1
62
256
6
ByLayer
370
18
48
1
60
1
100
AcDbPoint
10
92.3913
20
-8.7315
30
0
39
0
210
0
220
0
230
1
50
360
0
SPLINE
5
B0
100
AcDbEntity
8
1
62
256
6
ByLayer
370
18
48
1
60
0
100
AcDbSpline
70
4
71
3
72
112
73
108
40
0
40
0
40
0
40
0
40
0.0016813871632807
40
0.0016813871632807
40
0.019195748791995
40
0.019195748791995
40
0.0367101104207093
40
0.0367101104207093
40
0.0542244720494236
40
0.0542244720494236
40
0.0717388336781379
40
0.0717388336781379
40
0.0892531953068522
40
0.0892531953068522
40
0.106767556935566
40
0.106767556935566
40
0.124281918564281
40
0.124281918564281
40
0.141796280192995
40
0.141796280192995
40
0.15931064182171
40
0.15931064182171
40
0.176825003450424
40
0.176825003450424
40
0.194339365079138
40
0.194339365079138
40
0.211853726707852
40
0.211853726707852
40
0.229368088336567
40
0.229368088336567
40
0.246882449965281
40
0.246882449965281
40
0.264396811593995
40
0.264396811593995
40
0.28191117322271
40
0.28191117322271
40
0.299425534851424
40
0.299425534851424
40
0.316939896480138
40
0.316939896480138
40
0.334454258108853
40
0.334454258108853
40
0.351968619737567
40
0.351968619737567
40
0.369482981366281
40
0.369482981366281
40
0.386997342994996
40
0.386997342994996
40
0.40451170462371
40
0.40451170462371
40
0.422026066252424
40
0.422026066252424
40
0.439540427881139
40
0.439540427881139
40
0.457054789509853
40
0.457054789509853
40
0.474569151138567
40
0.474569151138567
40
0.492083512767282
40
0.492083512767282
40
0.509597874395996
40
0.509597874395996
40
0.52711223602471
40
0.52711223602471
40
0.544626597653424
40
0.544626597653424
40
0.579655320910853
40
0.579655320910853
40
0.597169682539567
40
0.597169682539567
40
0.614684044168282
40
0.614684044168282
40
0.632198405796996
40
0.632198405796996
40
0.64971276742571
40
0.64971276742571
40
0.667227129054424
40
0.667227129054424
40
0.684741490683139
40
0.684741490683139
40
0.702255852311853
40
0.702255852311853
40
0.719770213940568
40
0.719770213940568
40
0.737284575569282
40
0.737284575569282
40
0.754798937197996
40
0.754798937197996
40
0.772313298826711
40
0.772313298826711
40
0.789827660455425
40
0.789827660455425
40
0.824856383712854
40
0.824856383712854
40
0.842370745341569
40
0.842370745341569
40
0.859885106970283
40
0.859885106970283
40
0.877399468598998
40
0.877399468598998
40
0.894913830227712
40
0.894913830227712
40
0.929942553485142
40
0.929942553485142
40
0.964971276742571
40
0.964971276742571
40
1
40
1
40
1
40
1
41
1
10
76.7829832618083
20
-6.31849913620786
30
0
41
1
10
76.7502830625783
20
-6.32975216970186
30
0
41
1
10
76.7175832344393
20
-6.34096740846144
30
0
41
1
10
76.3442663267952
20
-6.46857393858045
30
0
41
1
10
76.0038361141682
20
-6.58103674760309
30
0
41
1
10
75.3218840663209
20
-6.79593163081569
30
0
41
1
10
74.9801379799678
20
-6.89856463370378
30
0
41
1
10
74.2970977322677
20
-7.09234092717654
30
0
41
1
10
73.9559090926798
20
-7.18329014300988
30
0
41
1
10
73.2741591897629
20
-7.35447858654189
30
0
41
1
10
72.9338065490001
20
-7.43560429439074
30
0
41
1
10
72.2530022810064
20
-7.58769410669365
30
0
41
1
10
71.9125189727123
20
-7.6585363429148
30
0
41
1
10
71.2311978903467
20
-7.78851525973235
30
0
41
1
10
70.8903463078598
20
-7.84761674486239
30
0
41
1
10
70.2084258111888
20
-7.95550375372221
30
0
41
1
10
69.8674918809829
20
-8.004266199103
30
0
41
1
10
69.1847746408455
20
-8.09005513278805
30
0
41
1
10
68.8433915615151
20
-8.12680781387587
30
0
41
1
10
68.1612539862861
20
-8.18754150549745
30
0
41
1
10
67.8203729033919
20
-8.21191251526622
30
0
41
1
10
67.1390455551464
20
-8.24984916451643
30
0
41
1
10
66.7986580961412
20
-8.26340122560759
30
0
41
1
10
66.1181682249033
20
-8.27824873195681
30
0
41
1
10
65.7776666996682
20
-8.27927796284268
30
0
41
1
10
65.0960262803816
20
-8.26947852769553
30
0
41
1
10
64.754937102372
20
-8.25893946004314
30
0
41
1
10
64.0722332792901
20
-8.22653372925146
30
0
41
1
10
63.73040542519
20
-8.20453785917789
30
0
41
1
10
63.0484510511334
20
-8.1478454891251
30
0
41
1
10
62.7077364714026
20
-8.11313934679791
30
0
41
1
10
62.0263165307358
20
-8.03318579165108
30
0
41
1
10
61.6856883628673
20
-7.98782352817253
30
0
41
1
10
61.0045501028354
20
-7.88580423813991
30
0
41
1
10
60.6640288171245
20
-7.82905909978177
30
0
41
1
10
59.9830624981342
20
-7.70345757333584
30
0
41
1
10
59.6425773185929
20
-7.63493946748875
30
0
41
1
10
58.9605539058083
20
-7.48797349414787
30
0
41
1
10
58.6189311400595
20
-7.40930947535017
30
0
41
1
10
57.9357678504256
20
-7.24104832325895
30
0
41
1
10
57.594579438575
20
-7.15130655325871
30
0
41
1
10
56.9130396244179
20
-6.96182289850884
30
0
41
1
10
56.5728025970701
20
-6.86239380005705
30
0
41
1
10
55.8919246256095
20
-6.65417983859933
30
0
41
1
10
55.5514170859661
20
-6.54535691137175
30
0
41
1
10
54.8701351009813
20
-6.31801113071487
30
0
41
1
10
54.5293228529028
20
-6.19939322208066
30
0
41
1
10
53.8477289854968
20
-5.95411629526254
30
0
41
1
10
53.5070588736411
20
-5.82688419098207
30
0
41
1
10
52.8243639997669
20
-5.56406252086865
30
0
41
1
10
52.4826965444229
20
-5.42855425435988
30
0
41
1
10
51.8003550207602
20
-5.15028931534781
30
0
41
1
10
51.4594394452564
20
-5.00774138394999
30
0
41
1
10
50.7782103211313
20
-4.715861213392
30
0
41
1
10
50.4380507368202
20
-4.56607257645146
30
0
41
1
10
49.7573608963833
20
-4.26019331573147
30
0
41
1
10
49.4167279383377
20
-4.10403163248739
30
0
41
1
10
48.7351027327832
20
-3.7867362049189
30
0
41
1
10
48.3941180639457
20
-3.62550682743864
30
0
41
1
10
47.7116674144502
20
-3.29733365753384
30
0
41
1
10
47.3700528354585
20
-3.13005506833497
30
0
41
1
10
46.6878190801929
20
-2.79137873337035
30
0
41
1
10
46.3468648964612
20
-2.62045331394304
30
0
41
1
10
45.6652250131354
20
-2.27578560369764
30
0
41
1
10
45.3245457450408
20
-2.10197920742317
30
0
41
1
10
44.3028287577617
20
-1.57603827343357
30
0
41
1
10
43.6225155911685
20
-1.21837870285475
30
0
41
1
10
42.5994994969877
20
-0.679659354848241
30
0
41
1
10
42.2580774717327
20
-0.499424582092559
30
0
41
1
10
41.574550506802
20
-0.13822765521229
30
0
41
1
10
41.2332183962279
20
0.0423505413065186
30
0
41
1
10
40.5516437689091
20
0.404177155839989
30
0
41
1
10
40.2111002485112
20
0.584800053523537
30
0
41
1
10
39.5298337001542
20
0.944092051614575
30
0
41
1
10
39.1891574231436
20
1.12279081750816
30
0
41
1
10
38.5076468621829
20
1.47822376309333
30
0
41
1
10
38.1668855565233
20
1.6552046363085
30
0
41
1
10
37.4854444122285
20
2.00780495344799
30
0
41
1
10
37.1447222334969
20
2.18334059287079
30
0
41
1
10
36.4618369660007
20
2.53000177221233
30
0
41
1
10
36.1197873585286
20
2.70104867241366
30
0
41
1
10
35.4369609398447
20
3.03903511581646
30
0
41
1
10
35.0958780668364
20
3.20614418077832
30
0
41
1
10
34.4144303956588
20
3.53610822703618
30
0
41
1
10
34.0741615236318
20
3.69915534962632
30
0
41
1
10
33.3929198496931
20
4.01769357624769
30
0
41
1
10
33.0520870735736
20
4.17363010176305
30
0
41
1
10
32.3702167314018
20
4.48040389996632
30
0
41
1
10
32.0291468051218
20
4.63099447834622
30
0
41
1
10
31.3466602130103
20
4.92591724590605
30
0
41
1
10
31.0050648072776
20
5.07041955177723
30
0
41
1
10
29.9805119808434
20
5.49020664400504
30
0
41
1
10
29.2983113275337
20
5.75506601000214
30
0
41
1
10
28.2760569375801
20
6.12651454984874
30
0
41
1
10
27.9355678753375
20
6.24545766794873
30
0
41
1
10
27.2541936176912
20
6.4748177657107
30
0
41
1
10
26.9132904677308
20
6.58535723623251
30
0
41
1
10
26.2308834253778
20
6.79701566122316
30
0
41
1
10
25.8893936465343
20
6.89820276596154
30
0
41
1
10
25.2055376912405
20
7.0895727109818
30
0
41
1
10
24.8641500955603
20
7.17982310420447
30
0
41
1
10
23.8415842486966
20
7.43645322884512
30
0
41
1
10
23.1606896756453
20
7.58575296653834
30
0
41
1
10
21.7999689102029
20
7.84026608304276
30
0
41
1
10
21.1208301998801
20
7.94699722417099
30
0
41
1
10
19.7592799261066
20
8.11173499687433
30
0
41
1
10
19.077006292588
20
8.17146012507061
30
0
41
1
10
18.3932331282953
20
8.20804061480129
30
0
0
SPLINE
5
B1
100
AcDbEntity
8
1
62
256
6
ByLayer
370
18
48
1
60
0
100
AcDbSpline
70
4
71
3
72
16
73
12
40
0
40
0
40
0
40
0
40
0.124393578564755
40
0.124393578564755
40
0.24878715712951
40
0.24878715712951
40
0.497574314259026
40
0.497574314259026
40
0.995148628518053
40
0.995148628518053
40
1
40
1
40
1
40
1
41
1
10
92.0645813117427
20
-8.28732665147993
30
0
41
1
10
91.6039437632538
20
-8.29749016162654
30
0
41
1
10
91.1429608386707
20
-8.29672476089692
30
0
41
1
10
90.2244076339767
20
-8.27360204859312
30
0
41
1
10
89.7663548306271
20
-8.25127464877079
30
0
41
1
10
88.394762978891
20
-8.15272390362588
30
0
41
1
10
87.4836968847601
20
-8.04496952493599
30
0
41
1
10
84.7516743934414
20
-7.60073888131214
30
0
41
1
10
82.9315203055925
20
-7.14313582282429
30
0
41
1
10
81.0702244802351
20
-6.53463732650675
30
0
41
1
10
81.0522542039047
20
-6.52874945029964
30
0
41
1
10
81.0342861118411
20
-6.52284933429823
30
0
0
SPLINE
5
B2
100
AcDbEntity
8
1
62
256
6
ByLayer
370
13
48
1
60
0
100
AcDbSpline
70
4
71
3
72
18
73
14
40
0
40
0
40
0
40
0
40
0.298672938138596
40
0.298672938138596
40
0.449479763889528
40
0.449479763889528
40
0.524883176764994
40
0.524883176764994
40
0.600286589640461
40
0.600286589640461
40
0.901900241142326
40
0.901900241142326
40
1
40
1
40
1
40
1
41
1
10
81.0342867171904
20
-6.52284953307458
30
0
41
1
10
79.2093816911129
20
-5.92361224197762
30
0
41
1
10
77.4070077628133
20
-5.19811932530368
30
0
41
1
10
74.6919342183332
20
-3.97404954494499
30
0
41
1
10
73.7806484545555
20
-3.54083931111006
30
0
41
1
10
72.4087775753433
20
-2.86432583753699
30
0
41
1
10
71.9506422022941
20
-2.6344141663138
30
0
41
1
10
71.0317789925023
20
-2.16731913629735
30
0
41
1
10
70.5701805333109
20
-1.92961911873351
30
0
41
1
10
68.2721403793031
20
-0.734939398679586
30
0
41
1
10
66.4557690937717
20
0.24358251107671
30
0
41
1
10
64.0458477605607
20
1.5092091072022
30
0
41
1
10
63.4540979539623
20
1.81719687753594
30
0
41
1
10
62.8613053372334
20
2.12113175562365
30
0
0
SPLINE
5
B3
100
AcDbEntity
8
1
62
256
6
ByLayer
370
18
48
1
60
0
100
AcDbSpline
70
4
71
3
72
8
73
4
40
0
40
0
40
0
40
0
40
1
40
1
40
1
40
1
41
1
10
92.055935865159
20
-8.38147789532763
30
0
41
1
10
92.0098258499174
20
-8.49514332840911
30
0
41
1
10
91.9636127828167
20
-8.60857820879332
30
0
41
1
10
91.9173056025743
20
-8.72178704564621
30
0
0
SPLINE
5
B4
100
AcDbEntity
8
1
62
256
6
ByLayer
370
18
48
1
60
0
100
AcDbSpline
70
4
71
3
72
8
73
4
40
0
40
0
40
0
40
0
40
1
40
1
40
1
40
1
41
1
10
94.9999554563269
20
0.0642663272206789
30
0
41
1
10
95.0000148500791
20
0.021420530148049
30
0
41
1
10
95.0000148448958
20
-0.0214242693051858
30
0
41
1
10
94.9999554563269
20
-0.0642663272207074
30
0
0
SPLINE
5
B5
100
AcDbEntity
8
1
62
256
6
ByLayer
370
18
48
1
60
0
100
AcDbSpline
70
4
71
3
72
98
73
94
40
0
40
0
40
0
40
0
40
0.0161057341549313
40
0.0161057341549313
40
0.0350983664150977
40
0.0350983664150977
40
0.0540909986752642
40
0.0540909986752642
40
0.0730836309354306
40
0.0730836309354306
40
0.0920762631955971
40
0.0920762631955971
40
0.111068895455763
40
0.111068895455763
40
0.149054159976096
40
0.149054159976096
40
0.168046792236262
40
0.168046792236262
40
0.187039424496429
40
0.187039424496429
40
0.206032056756595
40
0.206032056756595
40
0.225024689016762
40
0.225024689016762
40
0.263009953537095
40
0.263009953537095
40
0.282002585797261
40
0.282002585797261
40
0.300995218057428
40
0.300995218057428
40
0.319987850317594
40
0.319987850317594
40
0.33898048257776
40
0.33898048257776
40
0.357973114837927
40
0.357973114837927
40
0.376965747098093
40
0.376965747098093
40
0.414951011618426
40
0.414951011618426
40
0.433943643878593
40
0.433943643878593
40
0.45293627613876
40
0.45293627613876
40
0.471928908398926
40
0.471928908398926
40
0.490921540659093
40
0.490921540659093
40
0.528906805179427
40
0.528906805179427
40
0.547899437439593
40
0.547899437439593
40
0.56689206969976
40
0.56689206969976
40
0.585884701959927
40
0.585884701959927
40
0.604877334220094
40
0.604877334220094
40
0.623869966480261
40
0.623869966480261
40
0.642862598740429
40
0.642862598740429
40
0.680847863260762
40
0.680847863260762
40
0.699840495520929
40
0.699840495520929
40
0.718833127781096
40
0.718833127781096
40
0.737825760041263
40
0.737825760041263
40
0.75681839230143
40
0.75681839230143
40
0.794803656821764
40
0.794803656821764
40
0.81379628908193
40
0.81379628908193
40
0.832788921342098
40
0.832788921342098
40
0.851781553602265
40
0.851781553602265
40
0.870774185862432
40
0.870774185862432
40
0.889766818122599
40
0.889766818122599
40
0.908759450382767
40
0.908759450382767
40
0.9467447149031
40
0.9467447149031
40
0.965737347163266
40
0.965737347163266
40
0.984729979423432
40
0.984729979423432
40
1
40
1
40
1
40
1
41
1
10
27.8224214858936
20
6.29241573335736
30
0
41
1
10
28.1490510160371
20
6.41855643109767
30
0
41
1
10
28.4755927697358
20
6.5409957682935
30
0
41
1
10
29.189272955849
20
6.79699211838252
30
0
41
1
10
29.5761355193543
20
6.92902496092017
30
0
41
1
10
30.348110810536
20
7.1800371730701
30
0
41
1
10
30.7336463342803
20
7.29907418580402
30
0
41
1
10
31.5031712380601
20
7.52466193896132
30
0
41
1
10
31.8877459144704
20
7.63061278228474
30
0
41
1
10
32.6583586686937
20
7.82740324949472
30
0
41
1
10
33.0440457292554
20
7.91857746378324
30
0
41
1
10
33.815715800061
20
8.08680818019977
30
0
41
1
10
34.2018728183354
20
8.16396792950377
30
0
41
1
10
35.3590207285081
20
8.37329129912189
30
0
41
1
10
36.1306907924485
20
8.48078216960121
30
0
41
1
10
37.286254334514
20
8.59615189478217
30
0
41
1
10
37.6706773490371
20
8.62698365350843
30
0
41
1
10
38.4405060759906
20
8.67256035155108
30
0
41
1
10
38.8261916963906
20
8.68731871524813
30
0
41
1
10
39.5986040713519
20
8.70100115783742
30
0
41
1
10
39.9855521351315
20
8.69990425057435
30
0
41
1
10
40.7571250924497
20
8.68170713929632
30
0
41
1
10
41.141673488517
20
8.66450426097416
30
0
41
1
10
42.2969016611351
20
8.58943055480466
30
0
41
1
10
43.0681041601176
20
8.50848366989268
30
0
41
1
10
44.2235028969904
20
8.33939965558477
30
0
41
1
10
44.6085033343537
20
8.275001350114
30
0
41
1
10
45.3811736671659
20
8.13174703358408
30
0
41
1
10
45.7675793522919
20
8.05285538548682
30
0
41
1
10
46.5390581172056
20
7.88052661809164
30
0
41
1
10
46.9243136395304
20
7.78708284147871
30
0
41
1
10
47.6933835651355
20
7.58504366989573
30
0
41
1
10
48.0780789205893
20
7.47716748885256
30
0
41
1
10
48.8486732492184
20
7.24873857456046
30
0
41
1
10
49.2343320837351
20
7.12797973272083
30
0
41
1
10
50.0059649275245
20
6.87288253901934
30
0
41
1
10
50.3920631696359
20
6.73808176465371
30
0
41
1
10
51.5485904821035
20
6.31528433997215
30
0
41
1
10
52.3199967481598
20
6.01276909661539
30
0
41
1
10
53.4750570104619
20
5.52530343727233
30
0
41
1
10
53.8592751487819
20
5.35647888667461
30
0
41
1
10
54.6292433206114
20
5.01047178368506
30
0
41
1
10
55.0150085377262
20
4.83336521916232
30
0
41
1
10
55.7875391916841
20
4.47018313246144
30
0
41
1
10
56.1742240197196
20
4.28415902018122
30
0
41
1
10
56.9451203804753
20
3.90388245640523
30
0
41
1
10
57.3294671402
20
3.7090308089667
30
0
41
1
10
58.4844396103084
20
3.11889251097884
30
0
41
1
10
59.2554787154332
20
2.71574705301799
30
0
41
1
10
60.4105675554499
20
2.09105423021666
30
0
41
1
10
60.7959810608057
20
1.88010578568642
30
0
41
1
10
61.5685166041344
20
1.45728169183448
30
0
41
1
10
61.9545166897633
20
1.24514599360543
30
0
41
1
10
62.7255032998954
20
0.818574557785354
30
0
41
1
10
63.1104386388905
20
0.604046676707867
30
0
41
1
10
63.8791596806505
20
0.172437939382291
30
0
41
1
10
64.2639699795854
20
-0.0428005944815482
30
0
41
1
10
65.0345484211163
20
-0.472032130885282
30
0
41
1
10
65.4201901244551
20
-0.686252718114872
30
0
41
1
10
66.1918222762724
20
-1.11455010018057
30
0
41
1
10
66.5777201397296
20
-1.32951325945243
30
0
41
1
10
67.7337405406519
20
-1.96797265860096
30
0
41
1
10
68.5048355423037
20
-2.3830347894519
30
0
41
1
10
69.6593901838379
20
-2.99470212934233
30
0
41
1
10
70.0434729785672
20
-3.19744074425483
30
0
41
1
10
70.8135838899463
20
-3.59472697274561
30
0
41
1
10
71.1994294170888
20
-3.7896059091494
30
0
41
1
10
71.9721042673893
20
-4.17283623797522
30
0
41
1
10
72.3583292564159
20
-4.36079349078284
30
0
41
1
10
73.1285661278729
20
-4.7294266162983
30
0
41
1
10
73.5127940271362
20
-4.91018452731029
30
0
41
1
10
74.6675394157816
20
-5.43483077333681
30
0
41
1
10
75.4383738654612
20
-5.76399165427648
30
0
41
1
10
76.5932464411101
20
-6.23028504991308
30
0
41
1
10
76.9791041993366
20
-6.3802305254975
30
0
41
1
10
77.7511522986244
20
-6.66661394492522
30
0
41
1
10
78.1368998498621
20
-6.80338904382791
30
0
41
1
10
78.9074135879204
20
-7.06467821884959
30
0
41
1
10
79.2919910866145
20
-7.1893758826829
30
0
41
1
10
80.0605670265469
20
-7.42586084188062
30
0
41
1
10
80.445445231317
20
-7.53680597216456
30
0
41
1
10
81.2160252781239
20
-7.74466466802372
30
0
41
1
10
81.60166335297
20
-7.84163327083294
30
0
41
1
10
82.3733151383776
20
-8.02176577125675
30
0
41
1
10
82.7588635055076
20
-8.10520364765839
30
0
41
1
10
83.9143610672834
20
-8.33146662364905
30
0
41
1
10
84.6851549197378
20
-8.45088813044347
30
0
41
1
10
85.8392442568891
20
-8.58471428739543
30
0
41
1
10
86.2232777136211
20
-8.62173884280381
30
0
41
1
10
86.9935636104287
20
-8.67949330282491
30
0
41
1
10
87.3796392581096
20
-8.70039394530676
30
0
41
1
10
88.0764689354575
20
-8.72379850839431
30
0
41
1
10
88.3865291369743
20
-8.72908241063971
30
0
41
1
10
88.69593485553
20
-8.72919966367689
30
0
0
SPLINE
5
B6
100
AcDbEntity
8
1
62
256
6
ByLayer
370
18
48
1
60
0
100
AcDbSpline
70
4
71
3
72
10
73
6
40
0
40
0
40
0
40
0
40
0.5
40
0.5
40
1
40
1
40
1
40
1
41
1
10
94.9696576699282
20
0.23260397323341
30
0
41
1
10
94.970350821205
20
0.209764632893609
30
0
41
1
10
94.9738564789581
20
0.182936629017092
30
0
41
1
10
94.9844146660069
20
0.125636918119966
30
0
41
1
10
94.9913915174972
20
0.0955976927140796
30
0
41
1
10
94.9999554563269
20
0.0642663272206221
30
0
0
SPLINE
5
B7
100
AcDbEntity
8
1
62
256
6
ByLayer
370
18
48
1
60
0
100
AcDbSpline
70
4
71
3
72
8
73
4
40
0
40
0
40
0
40
0
40
1
40
1
40
1
40
1
41
1
10
94.9675065857225
20
-0.0052615273267804
30
0
41
1
10
93.6838662514152
20
-2.1027829075596
30
0
41
1
10
92.4822880514456
20
-4.2747431322409
30
0
41
1
10
91.3656831076155
20
-6.52378288997465
30
0
0
SPLINE
5
B8
100
AcDbEntity
8
1
62
256
6
ByLayer
370
13
48
1
60
0
100
AcDbSpline
70
4
71
3
72
20
73
16
40
0
40
0
40
0
40
0
40
0.0844342444790292
40
0.0844342444790292
40
0.249023133582719
40
0.249023133582719
40
0.413612022686409
40
0.413612022686409
40
0.495906467238253
40
0.495906467238253
40
0.578200911790099
40
0.578200911790099
40
0.907378689997478
40
0.907378689997478
40
1
40
1
40
1
40
1
41
1
10
4.25031028369105
20
6.5915039184282
30
0
41
1
10
4.25032615968567
20
6.68127358772713
30
0
41
1
10
4.25034158459212
20
6.76767013747605
30
0
41
1
10
4.25038589389783
20
7.01260384655404
30
0
41
1
10
4.25041371842548
20
7.16209443754246
30
0
41
1
10
4.25046669764546
20
7.43355764495257
30
0
41
1
10
4.25049176177612
20
7.55509358594082
30
0
41
1
10
4.25052779696514
20
7.71618204148569
30
0
41
1
10
4.25053957061138
20
7.76642511948143
30
0
41
1
10
4.25056257150428
20
7.85929384828785
30
0
41
1
10
4.25057377985399
20
7.90185484089676
30
0
41
1
10
4.25062861689358
20
8.0956928701323
30
0
41
1
10
4.25066870832038
20
8.19069293247517
30
0
41
1
10
4.25071852151819
20
8.23539224410803
30
0
41
1
10
4.25072938456407
20
8.24036821908274
30
0
41
1
10
4.25074014846044
20
8.24045077406782
30
0
0
SPLINE
5
B9
100
AcDbEntity
8
1
62
256
6
ByLayer
370
18
48
1
60
0
100
AcDbSpline
70
4
71
3
72
14
73
10
40
0
40
0
40
0
40
0
40
0.25
40
0.25
40
0.5
40
0.5
40
0.75
40
0.75
40
1
40
1
40
1
40
1
41
1
10
91.925078824366
20
1.92066812065076
30
0
41
1
10
91.9239019205054
20
1.94079131578275
30
0
41
1
10
91.9280980978596
20
1.96119072365317
30
0
41
1
10
91.9481522252766
20
1.99662081162813
30
0
41
1
10
91.9639887068657
20
2.01144670222959
30
0
41
1
10
91.9996734709522
20
2.0324940847419
30
0
41
1
10
92.019803501229
20
2.03930196865522
30
0
41
1
10
92.0603055341624
20
2.04730680630104
30
0
41
1
10
92.0811009342673
20
2.0486426359748
30
0
41
1
10
92.1018457109371
20
2.04799763575457
30
0
0
SPLINE
5
BA
100
AcDbEntity
8
1
62
256
6
ByLayer
370
18
48
1
60
0
100
AcDbSpline
70
4
71
3
72
14
73
10
40
0
40
0
40
0
40
0
40
0.25
40
0.25
40
0.5
40
0.5
40
0.75
40
0.75
40
1
40
1
40
1
40
1
41
1
10
92.3780550765091
20
8.48818991866747
30
0
41
1
10
92.5702469116355
20
7.94167302875755
30
0
41
1
10
92.767641141899
20
7.39561260532278
30
0
41
1
10
93.1710987596541
20
6.30460379164953
30
0
41
1
10
93.3772274534304
20
5.75966187908517
30
0
41
1
10
93.797253237782
20
4.67105357196166
30
0
41
1
10
94.0110212669239
20
4.12781676489067
30
0
41
1
10
94.4438956164145
20
3.04687097611901
30
0
41
1
10
94.6632396830437
20
2.50857485606633
30
0
41
1
10
94.8852910690663
20
1.97214179832818
30
0
0
SPLINE
5
BB
100
AcDbEntity
8
1
62
256
6
ByLayer
370
18
48
1
60
0
100
AcDbSpline
70
4
71
3
72
8
73
4
40
0
40
0
40
0
40
0
40
1
40
1
40
1
40
1
41
1
10
94.8852910690652
20
-1.972141798331
30
0
41
1
10
94.9239486196482
20
-1.39175917869966
30
0
41
1
10
94.9520762179562
20
-0.811912962021609
30
0
41
1
10
94.9696576699281
20
-0.232603973233381
30
0
0
SPLINE
5
BC
100
AcDbEntity
8
1
62
256
6
ByLayer
370
18
48
1
60
0
100
AcDbSpline
70
4
71
3
72
51
73
47
40
0
40
0
40
0
40
0
40
0.0424103654736365
40
0.0424103654736365
40
0.101426511445531
40
0.101426511445531
40
0.219458803389322
40
0.219458803389322
40
0.278474949361217
40
0.278474949361217
40
0.337491095333112
40
0.337491095333112
40
0.455523387276902
40
0.455523387276902
40
0.514539533248797
40
0.514539533248797
40
0.544047606234745
40
0.558801642727719
40
0.558801642727719
40
0.566178660974206
40
0.566178660974206
40
0.569867170097449
40
0.569867170097449
40
0.573555679220693
40
0.573555679220693
40
0.577244188343936
40
0.577244188343936
40
0.58093269746718
40
0.58093269746718
40
0.588309715713667
40
0.588309715713667
40
0.603063752206641
40
0.603063752206641
40
0.632571825192588
40
0.632571825192588
40
0.691587971164483
40
0.691587971164483
40
0.809620263108274
40
0.809620263108274
40
0.868636409080169
40
0.868636409080169
40
0.898144482066116
40
0.898144482066116
40
0.927652555052064
40
0.927652555052064
40
1
40
1
40
1
40
1
41
1
10
18.3932331282953
20
-1.76226614168064
30
0
41
1
10
18.3932331282953
20
-1.70397821844114
30
0
41
1
10
18.3932331282954
20
-1.65110460885623
30
0
41
1
10
18.3932331282953
20
-1.53770021374808
30
0
41
1
10
18.3932331282953
20
-1.4832107098847
30
0
41
1
10
18.3932331282953
20
-1.35216358451603
30
0
41
1
10
18.3932331282953
20
-1.30783534770356
30
0
41
1
10
18.3932331282953
20
-1.30191281895497
30
0
41
1
10
18.3932331282953
20
-1.31008550986564
30
0
41
1
10
18.3932331282953
20
-1.34662717786816
30
0
41
1
10
18.3932331282953
20
-1.37515287211355
30
0
41
1
10
18.3932331282953
20
-1.48989187312438
30
0
41
1
10
18.3932331282953
20
-1.60491568377694
30
0
41
1
10
18.3932331282953
20
-1.83270711607608
30
0
41
1
10
18.3932331282953
20
-1.91792307614645
30
0
41
1
10
18.3932331282953
20
-2.05953645265402
30
0
41
1
10
18.3932331282953
20
-2.13365102702281
30
0
41
1
10
18.3932331282953
20
-2.21269112729652
30
0
41
1
10
18.3932331282953
20
-2.25303060564534
30
0
41
1
10
18.3932331282953
20
-2.26661330751099
30
0
41
1
10
18.3932331282953
20
-2.28717965490111
30
0
41
1
10
18.3932331282953
20
-2.29349771537312
30
0
41
1
10
18.3932331282953
20
-2.30935158382127
30
0
41
1
10
18.3932331282953
20
-2.31901043542166
30
0
41
1
10
18.3932331282953
20
-2.34199271106655
30
0
41
1
10
18.3932331282953
20
-2.35528095369042
30
0
41
1
10
18.3932331282953
20
-2.38355441701026
30
0
41
1
10
18.3932331282953
20
-2.39915422932288
30
0
41
1
10
18.3932331282953
20
-2.44603538744985
30
0
41
1
10
18.3932331282954
20
-2.47737894737773
30
0
41
1
10
18.3932331282954
20
-2.57165586360054
30
0
41
1
10
18.3932331282953
20
-2.63480449391631
30
0
41
1
10
18.3932331282953
20
-2.82514726248357
30
0
41
1
10
18.3932331282953
20
-2.95323585615563
30
0
41
1
10
18.3932331282953
20
-3.34066329643289
30
0
41
1
10
18.3932331282953
20
-3.60381303685091
30
0
41
1
10
18.3932331282953
20
-4.39983296674123
30
0
41
1
10
18.3932331282953
20
-4.94085138143626
30
0
41
1
10
18.3932331282953
20
-5.76857337845647
30
0
41
1
10
18.3932331282953
20
-6.04719295002008
30
0
41
1
10
18.3932331282953
20
-6.4694181578592
30
0
41
1
10
18.3932331282953
20
-6.6111005054004
30
0
41
1
10
18.3932331282953
20
-6.89359881533349
30
0
41
1
10
18.3932331282953
20
-7.03465334907705
30
0
41
1
10
18.3932331282953
20
-7.52086960575249
30
0
41
1
10
18.3932331282953
20
-7.86506257290213
30
0
41
1
10
18.3932331282953
20
-8.20804061480388
30
0
0
SPLINE
5
BD
100
AcDbEntity
8
1
62
256
6
ByLayer
370
18
48
1
60
0
100
AcDbSpline
70
4
71
3
72
16
73
12
40
0
40
0
40
0
40
0
40
0.239220947191494
40
0.239220947191494
40
0.458087459137794
40
0.458087459137794
40
0.567520715110943
40
0.567520715110943
40
0.676953971084093
40
0.676953971084093
40
1
40
1
40
1
40
1
41
1
10
17.6950629827903
20
-0.0013427713302008
30
0
41
1
10
18.6910142433025
20
-0.534385680622421
30
0
41
1
10
19.6847603567204
20
-1.06642309595708
30
0
41
1
10
21.5912396271164
20
-2.06853475170917
30
0
41
1
10
22.5036253237459
20
-2.54012297867752
30
0
41
1
10
23.8791320429313
20
-3.22783256830698
30
0
41
1
10
24.3387616513384
20
-3.45383948991471
30
0
41
1
10
25.261174673178
20
-3.89770914371098
30
0
41
1
10
25.7219734371905
20
-4.11455798275742
30
0
41
1
10
27.5366105065536
20
-4.94643155922495
30
0
41
1
10
28.8822615698183
20
-5.51443973118356
30
0
41
1
10
30.2281560616489
20
-6.01549825763149
30
0
0
SPLINE
5
BE
100
AcDbEntity
8
1
62
256
6
ByLayer
370
13
48
1
60
0
100
AcDbSpline
70
4
71
3
72
20
73
16
40
0
40
0
40
0
40
0
40
0.102675433332214
40
0.102675433332214
40
0.298619434243391
40
0.298619434243391
40
0.347605434471185
40
0.347605434471185
40
0.396591434698979
40
0.396591434698979
40
0.494563435154566
40
0.494563435154566
40
0.886451436976909
40
0.886451436976909
40
1
40
1
40
1
40
1
41
1
10
30.2281569988293
20
-6.01549860653125
30
0
41
1
10
30.7059727900874
20
-6.19338302679176
30
0
41
1
10
31.18381926271
20
-6.36282929653643
30
0
41
1
10
32.5749778812173
20
-6.8293353636931
30
0
41
1
10
33.4895320912588
20
-7.10254313832272
30
0
41
1
10
34.6387869460269
20
-7.39791283406816
30
0
41
1
10
34.8689375101944
20
-7.45467367794998
30
0
41
1
10
35.3299512588875
20
-7.56344820369898
30
0
41
1
10
35.5607458559597
20
-7.61543896661564
30
0
41
1
10
36.251415853038
20
-7.7635018090765
30
0
41
1
10
36.7105460383435
20
-7.85192261750487
30
0
41
1
10
39.0012800441458
20
-8.2419961019701
30
0
41
1
10
40.818804236813
20
-8.38701100992319
30
0
41
1
10
43.1754196914234
20
-8.35174634292787
30
0
41
1
10
43.7056648579518
20
-8.32937496695291
30
0
41
1
10
44.237337311105
20
-8.29244487349291
30
0
0
SPLINE
5
BF
100
AcDbEntity
8
1
62
256
6
ByLayer
370
18
48
1
60
0
100
AcDbSpline
70
4
71
3
72
8
73
4
40
0
40
0
40
0
40
0
40
1
40
1
40
1
40
1
41
1
10
94.8852910690651
20
1.97214179833102
30
0
41
1
10
94.9239523389613
20
1.39170333903326
30
0
41
1
10
94.9520779100408
20
0.811857207824573
30
0
41
1
10
94.9696576699282
20
0.232603973233438
30
0
0
SPLINE
5
C0
100
AcDbEntity
8
1
62
256
6
ByLayer
370
13
48
1
60
0
100
AcDbSpline
70
4
71
3
72
26
73
22
40
0
40
0
40
0
40
0
40
0.0459795686171313
40
0.0459795686171313
40
0.151981838770783
40
0.151981838770783
40
0.204982973847609
40
0.204982973847609
40
0.257984108924436
40
0.257984108924436
40
0.363986379078088
40
0.363986379078088
40
0.575990919385392
40
0.575990919385392
40
0.681993189539044
40
0.681993189539044
40
0.73499432461587
40
0.73499432461587
40
0.787995459692696
40
0.787995459692696
40
1
40
1
40
1
40
1
41
1
10
4.2507403490803
20
-8.2404517461255
30
0
41
1
10
4.25074864489568
20
-8.24046850810709
30
0
41
1
10
4.25075688171557
20
-8.23757776201509
30
0
41
1
10
4.25078387669384
20
-8.21833029243589
30
0
41
1
10
4.25080237444593
20
-8.18950042904044
30
0
41
1
10
4.25082990713494
20
-8.12308686791246
30
0
41
1
10
4.25083905939044
20
-8.09703259241596
30
0
41
1
10
4.25085721518781
20
-8.03746510007153
30
0
41
1
10
4.25086622921143
20
-8.00393666124228
30
0
41
1
10
4.25089311633846
20
-7.89218779787072
30
0
41
1
10
4.25091084657114
20
-7.80279539007364
30
0
41
1
10
4.25096349109015
20
-7.48972814367588
30
0
41
1
10
4.25099702485176
20
-7.22716004281296
30
0
41
1
10
4.25104409382041
20
-6.75563300467908
30
0
41
1
10
4.25105922351909
20
-6.58540188040533
30
0
41
1
10
4.25108075814501
20
-6.30986189136141
30
0
41
1
10
4.25108774338349
20
-6.21456527193826
30
0
41
1
10
4.25110109516723
20
-6.01948928999832
30
0
41
1
10
4.25110748384847
20
-5.91944092213703
30
0
41
1
10
4.25113784801795
20
-5.40686215499434
30
0
41
1
10
4.25115720032528
20
-4.95772903218224
30
0
41
1
10
4.25116892082076
20
-4.46894810713147
30
0
0
SPLINE
5
C1
100
AcDbEntity
8
1
62
256
6
ByLayer
370
18
48
1
60
0
100
AcDbSpline
70
4
71
3
72
12
73
8
40
0
40
0
40
0
40
0
40
0.250000000000011
40
0.250000000000011
40
0.500000000000023
40
0.500000000000023
40
1
40
1
40
1
40
1
41
1
10
4.12840862823688
20
6.62944174502528
30
0
41
1
10
4.10888234929979
20
6.63644425373275
30
0
41
1
10
4.09122581310001
20
6.64493468843693
30
0
41
1
10
4.05954594851428
20
6.66475812185436
30
0
41
1
10
4.04569303497087
20
6.67607576608816
30
0
41
1
10
4.01217303207687
20
6.71235895730311
30
0
41
1
10
3.99999991744576
20
6.74023358877076
30
0
41
1
10
3.99999991744576
20
6.76819822877644
30
0
0
SPLINE
5
C2
100
AcDbEntity
8
1
62
256
6
ByLayer
370
18
48
1
60
0
100
AcDbSpline
70
4
71
3
72
8
73
4
40
0
40
0
40
0
40
0
40
1
40
1
40
1
40
1
41
1
10
18.3932331282953
20
8.20804061480129
30
0
41
1
10
17.9458050523751
20
8.23096757654889
30
0
41
1
10
17.5018789079727
20
8.24457249828302
30
0
41
1
10
17.0604673009764
20
8.2483322314572
30
0
0
SPLINE
5
C3
100
AcDbEntity
8
1
62
256
6
ByLayer
370
18
48
1
60
0
100
AcDbSpline
70
4
71
3
72
28
73
24
40
0
40
0
40
0
40
0
40
0.0625
40
0.0625
40
0.125
40
0.125
40
0.1875
40
0.1875
40
0.25
40
0.25
40
0.375
40
0.375
40
0.5
40
0.5
40
0.625
40
0.625
40
0.6875
40
0.6875
40
0.75
40
0.75
40
0.875
40
0.875
40
1
40
1
40
1
40
1
41
1
10
4.25116892299596
20
-4.46894810427989
30
0
41
1
10
4.49624930914308
20
-4.68403667113685
30
0
41
1
10
4.75230153754021
20
-4.88089521669946
30
0
41
1
10
5.27923797399228
20
-5.24863592700663
30
0
41
1
10
5.5502129043665
20
-5.41938446911289
30
0
41
1
10
6.10319286891792
20
-5.74045973619607
30
0
41
1
10
6.38529150068638
20
-5.89078046798315
30
0
41
1
10
6.95782719708342
20
-6.17438005704258
30
0
41
1
10
7.24605250719964
20
-6.30657305176305
30
0
41
1
10
8.1149960890213
20
-6.67916963419833
30
0
41
1
10
8.69989082559869
20
-6.89559148146793
30
0
41
1
10
9.87659783440787
20
-7.28056449313343
30
0
41
1
10
10.4686488554854
20
-7.44659349024462
30
0
41
1
10
11.6594940969324
20
-7.73109591194276
30
0
41
1
10
12.2581932036978
20
-7.85087058490814
30
0
41
1
10
13.1628231477287
20
-7.99448523218447
30
0
41
1
10
13.46547859312
20
-8.0363943273681
30
0
41
1
10
14.0733669728282
20
-8.10908869912222
30
0
41
1
10
14.3788187651311
20
-8.13995430658105
30
0
41
1
10
15.2956066373759
20
-8.21538480638714
30
0
41
1
10
15.9085117183038
20
-8.24199491076931
30
0
41
1
10
17.1429834439558
20
-8.25405533965693
30
0
41
1
10
17.7645627133375
20
-8.24025473664858
30
0
41
1
10
18.3932331282954
20
-8.20804061480126
30
0
0
SPLINE
5
C4
100
AcDbEntity
8
1
62
256
6
ByLayer
370
18
48
1
60
0
100
AcDbSpline
70
4
71
3
72
8
73
4
40
0
40
0
40
0
40
0
40
1
40
1
40
1
40
1
41
1
10
3.99999991744582
20
-4.91936435951928
30
0
41
1
10
3.99999991744582
20
-4.82842550653692
30
0
41
1
10
3.99999991744579
20
-4.73713389617311
30
0
41
1
10
3.99999991744579
20
-4.64549113192544
30
0
0
SPLINE
5
C5
100
AcDbEntity
8
1
62
256
6
ByLayer
370
18
48
1
60
0
100
AcDbSpline
70
4
71
3
72
64
73
60
40
0
40
0
40
0
40
0
40
0.0312500000000008
40
0.0312500000000008
40
0.0625000000000016
40
0.0625000000000016
40
0.0937500000000024
40
0.0937500000000024
40
0.109375000000003
40
0.109375000000003
40
0.125000000000004
40
0.125000000000004
40
0.140625000000004
40
0.140625000000004
40
0.156250000000005
40
0.156250000000005
40
0.187500000000006
40
0.187500000000006
40
0.195312500000007
40
0.195312500000007
40
0.203125000000007
40
0.203125000000007
40
0.218750000000008
40
0.218750000000008
40
0.234375000000009
40
0.234375000000009
40
0.250000000000009
40
0.250000000000009
40
0.281250000000011
40
0.281250000000011
40
0.312500000000012
40
0.312500000000012
40
0.343750000000014
40
0.343750000000014
40
0.347656250000014
40
0.347656250000014
40
0.349609375000014
40
0.349609375000014
40
0.351562500000014
40
0.351562500000014
40
0.355468750000014
40
0.355468750000014
40
0.359375000000014
40
0.359375000000014
40
0.375000000000014
40
0.375000000000014
40
0.437500000000012
40
0.437500000000012
40
0.500000000000011
40
0.500000000000011
40
0.56250000000001
40
0.56250000000001
40
0.625000000000009
40
0.625000000000009
40
0.750000000000007
40
0.750000000000007
40
0.875000000000003
40
0.875000000000003
40
1
40
1
40
1
40
1
41
1
10
3.99999991744579
20
-4.91936435951925
30
0
41
1
10
3.8290822668969
20
-4.78637160662788
30
0
41
1
10
3.66164619233805
20
-4.64674275211507
30
0
41
1
10
3.33605380852816
20
-4.35034502459717
30
0
41
1
10
3.17972384321359
20
-4.19520240282779
30
0
41
1
10
2.88478300840706
20
-3.86824614038107
30
0
41
1
10
2.74598239652178
20
-3.69635850283305
30
0
41
1
10
2.55558437449554
20
-3.42159679619959
30
0
41
1
10
2.49491595751806
20
-3.32682619334614
30
0
41
1
10
2.38173371807375
20
-3.1321840353416
30
0
41
1
10
2.32939051039935
20
-3.03266397715802
30
0
41
1
10
2.23437825558619
20
-2.82865782504371
30
0
41
1
10
2.19170858878698
20
-2.72417244945427
30
0
41
1
10
2.11763960642753
20
-2.50947350451142
30
0
41
1
10
2.086106118743
20
-2.39864033701298
30
0
41
1
10
2.01243168577591
20
-2.06053715804444
30
0
41
1
10
1.99154665893479
20
-1.83100695789207
30
0
41
1
10
2.0059823904715
20
-1.53839852954957
30
0
41
1
10
2.01094104659853
20
-1.47935896161349
30
0
41
1
10
2.02486433015457
20
-1.36234417752746
30
0
41
1
10
2.03381664368158
20
-1.30427340834763
30
0
41
1
10
2.06644378480883
20
-1.1313309508642
30
0
41
1
10
2.09587721661776
20
-1.01772636837424
30
0
41
1
10
2.16933733116915
20
-0.793756089891701
30
0
41
1
10
2.21368280973078
20
-0.682742876357253
30
0
41
1
10
2.31477767702592
20
-0.467040639142539
30
0
41
1
10
2.37112710139576
20
-0.36293325653682
30
0
41
1
10
2.55511369976929
20
-0.0602556263226859
30
0
41
1
10
2.69758177159028
20
0.128827457547118
30
0
41
1
10
3.01327425669203
20
0.4867566684417
30
0
41
1
10
3.18362477763245
20
0.652430934780114
30
0
41
1
10
3.54329953181644
20
0.963689893365682
30
0
41
1
10
3.73220019306387
20
1.10878562546495
30
0
41
1
10
3.95147639738519
20
1.26181963902829
30
0
41
1
10
3.97591754446754
20
1.27869312926649
30
0
41
1
10
4.01273971973754
20
1.30373727141196
30
0
41
1
10
4.02511821847406
20
1.31191727221079
30
0
41
1
10
4.05123351490059
20
1.32611488276572
30
0
41
1
10
4.06502555139383
20
1.33204484869421
30
0
41
1
10
4.10782737172141
20
1.34756683484295
30
0
41
1
10
4.13705786908571
20
1.35435232631156
30
0
41
1
10
4.19600175782506
20
1.36287055299493
30
0
41
1
10
4.22588251414336
20
1.36412891861784
30
0
41
1
10
4.37548448576706
20
1.36896688408976
30
0
41
1
10
4.49504136803526
20
1.37330779797054
30
0
41
1
10
5.09323095415743
20
1.38778856960624
30
0
41
1
10
5.57220514887982
20
1.38594678407148
30
0
41
1
10
6.52758817677952
20
1.35634779234098
30
0
41
1
10
7.00437225708066
20
1.32860307839562
30
0
41
1
10
7.95617943131333
20
1.24787685926731
30
0
41
1
10
8.43129282368793
20
1.19483161235459
30
0
41
1
10
9.3794144503872
20
1.0638578086326
30
0
41
1
10
9.8498071282614
20
0.986313973592075
30
0
41
1
10
11.2505123983711
20
0.719362667081526
30
0
41
1
10
12.1702783696292
20
0.495388593138529
30
0
41
1
10
13.9850391627658
20
-0.0330209301693856
30
0
41
1
10
14.8799557511332
20
-0.337707560968681
30
0
41
1
10
16.6498683708666
20
-1.0108382920383
30
0
41
1
10
17.5248478975871
20
-1.37933112404639
30
0
41
1
10
18.3932331282953
20
-1.76831436477099
30
0
0
SPLINE
5
C6
100
AcDbEntity
8
1
62
256
6
ByLayer
370
18
48
1
60
0
100
AcDbSpline
70
4
71
3
72
34
73
30
40
0
40
0
40
0
40
0
40
0.0624999999999999
40
0.0624999999999999
40
0.0937499999999999
40
0.0937499999999999
40
0.125
40
0.125
40
0.1875
40
0.1875
40
0.21875
40
0.21875
40
0.25
40
0.25
40
0.3125
40
0.3125
40
0.375
40
0.375
40
0.499999999999997
40
0.499999999999997
40
0.562499999999997
40
0.562499999999997
40
0.624999999999998
40
0.624999999999998
40
0.749999999999998
40
0.749999999999998
40
0.874999999999999
40
0.874999999999999
40
1
40
1
40
1
40
1
41
1
10
83.8424392551379
20
3.34455015995692
30
0
41
1
10
83.8087911398122
20
3.08204904083394
30
0
41
1
10
83.7951139730573
20
2.81247087366907
30
0
41
1
10
83.8058405474411
20
2.39703236955813
30
0
41
1
10
83.814733089349
20
2.25599584664721
30
0
41
1
10
83.8426779369715
20
1.975300476684
30
0
41
1
10
83.8616821123321
20
1.83531353063282
30
0
41
1
10
83.93301821149
20
1.41637958547665
30
0
41
1
10
83.9996257972952
20
1.13845604450407
30
0
41
1
10
84.1260190782535
20
0.723469287256165
30
0
41
1
10
84.17279372609
20
0.584893802992326
30
0
41
1
10
84.2738102960748
20
0.311452446992689
30
0
41
1
10
84.3279423119853
20
0.176750977737726
30
0
41
1
10
84.500304502466
20
-0.221800114108561
30
0
41
1
10
84.6284795632749
20
-0.480108265295343
30
0
41
1
10
84.9078099483633
20
-0.983919547095468
30
0
41
1
10
85.0592840232442
20
-1.22988791232564
30
0
41
1
10
85.5422982562706
20
-1.94779899770091
30
0
41
1
10
85.8936421121793
20
-2.38838289508232
30
0
41
1
10
86.4525418652299
20
-3.00793042935714
30
0
41
1
10
86.6442380469775
20
-3.20745158401044
30
0
41
1
10
87.0373803031193
20
-3.59385598738658
30
0
41
1
10
87.2393720649919
20
-3.78110757700475
30
0
41
1
10
87.8561119812236
20
-4.32151517008668
30
0
41
1
10
88.2772822610052
20
-4.65089108079187
30
0
41
1
10
89.135052496559
20
-5.26202087640465
30
0
41
1
10
89.571790594883
20
-5.54334839927077
30
0
41
1
10
90.4588372450498
20
-6.06411970823919
30
0
41
1
10
90.9091393459428
20
-6.30358340450064
30
0
41
1
10
91.3656831076156
20
-6.52378288997463
30
0
0
SPLINE
5
C7
100
AcDbEntity
8
1
62
256
6
ByLayer
370
18
48
1
60
0
100
AcDbSpline
70
4
71
3
72
10
73
6
40
0
40
0
40
0
40
0
40
0.5
40
0.5
40
1
40
1
40
1
40
1
41
1
10
92.378055076509
20
8.4881899186675
30
0
41
1
10
92.2930937736888
20
8.55204998351147
30
0
41
1
10
92.2118169650561
20
8.60414289669995
30
0
41
1
10
92.0570098291636
20
8.6829075198782
30
0
41
1
10
91.9847551536952
20
8.70893903962906
30
0
41
1
10
91.9173056025743
20
8.72178704564618
30
0
0
SPLINE
5
C8
100
AcDbEntity
8
1
62
256
6
ByLayer
370
18
48
1
60
0
100
AcDbSpline
70
4
71
3
72
38
73
34
40
0
40
0
40
0
40
0
40
0.108589440613483
40
0.108589440613483
40
0.162884160920225
40
0.162884160920225
40
0.217178881226966
40
0.217178881226966
40
0.271473601533708
40
0.271473601533708
40
0.325768321840449
40
0.325768321840449
40
0.434357762453932
40
0.434357762453932
40
0.488652482760673
40
0.488652482760673
40
0.542947203067414
40
0.542947203067414
40
0.597241923374154
40
0.597241923374154
40
0.651536643680895
40
0.651536643680895
40
0.705831363987636
40
0.705831363987636
40
0.760126084294377
40
0.760126084294377
40
0.868715524907858
40
0.868715524907858
40
0.923010245214598
40
0.923010245214598
40
0.977304965521338
40
0.977304965521338
40
1
40
1
40
1
40
1
41
1
10
18.3932331282953
20
-1.76831436477101
30
0
41
1
10
19.164521196198
20
-2.1930421756031
30
0
41
1
10
19.9367365258174
20
-2.60417366904622
30
0
41
1
10
21.0930002078949
20
-3.20715434418736
30
0
41
1
10
21.4776949906274
20
-3.40646466678902
30
0
41
1
10
22.2474184426183
20
-3.79863675336358
30
0
41
1
10
22.6330377720126
20
-3.99054557603836
30
0
41
1
10
23.4053621210778
20
-4.36678165414492
30
0
41
1
10
23.7923977905457
20
-4.55135866022374
30
0
41
1
10
24.5646219217171
20
-4.91231833745837
30
0
41
1
10
24.9494325052607
20
-5.08943917427428
30
0
41
1
10
26.1048915599287
20
-5.60340845289204
30
0
41
1
10
26.876259159183
20
-5.92369997625715
30
0
41
1
10
28.0320184647239
20
-6.37450310320406
30
0
41
1
10
28.4168914058982
20
-6.51993964934829
30
0
41
1
10
29.189272955849
20
-6.79699211838252
30
0
41
1
10
29.5761355193543
20
-6.92902496092017
30
0
41
1
10
30.348110810536
20
-7.18003717307013
30
0
41
1
10
30.7336463342803
20
-7.29907418580402
30
0
41
1
10
31.5031712380601
20
-7.52466193896132
30
0
41
1
10
31.8877459144703
20
-7.63061278228474
30
0
41
1
10
32.6583586686937
20
-7.82740324949472
30
0
41
1
10
33.0440457292555
20
-7.91857746378327
30
0
41
1
10
33.815715800061
20
-8.08680818019977
30
0
41
1
10
34.2018728183354
20
-8.16396792950377
30
0
41
1
10
35.359020728508
20
-8.37329129912192
30
0
41
1
10
36.1306907924485
20
-8.48078216960121
30
0
41
1
10
37.286254334514
20
-8.59615189478217
30
0
41
1
10
37.670677349037
20
-8.62698365350843
30
0
41
1
10
38.4405060759906
20
-8.67256035155108
30
0
41
1
10
38.8261916963905
20
-8.68731871524813
30
0
41
1
10
39.3738309420255
20
-8.69701954705886
30
0
41
1
10
39.5353936219624
20
-8.69849219538716
30
0
41
1
10
39.6969469079923
20
-8.69857324247832
30
0
0
SPLINE
5
C9
100
AcDbEntity
8
1
62
256
6
ByLayer
370
18
48
1
60
0
100
AcDbSpline
70
4
71
3
72
30
73
26
40
0
40
0
40
0
40
0
40
0.0354024104676277
40
0.0354024104676277
40
0.10960222504704
40
0.10960222504704
40
0.183802039626452
40
0.183802039626452
40
0.258001854205864
40
0.258001854205864
40
0.332201668785277
40
0.332201668785277
40
0.406401483364689
40
0.406401483364689
40
0.554801112523518
40
0.554801112523518
40
0.629000927102932
40
0.629000927102932
40
0.703200741682347
40
0.703200741682347
40
0.777400556261761
40
0.777400556261761
40
0.851600370841175
40
0.851600370841175
40
1
40
1
40
1
40
1
41
1
10
76.8127791066676
20
6.31398755344043
30
0
41
1
10
76.9968044871231
20
6.38524475796163
30
0
41
1
10
77.1809474402637
20
6.45510223048376
30
0
41
1
10
77.7511522986243
20
6.66661394492519
30
0
41
1
10
78.1368998498619
20
6.80338904382788
30
0
41
1
10
78.9074135879202
20
7.06467821884959
30
0
41
1
10
79.2919910866144
20
7.18937588268287
30
0
41
1
10
80.0605670265468
20
7.42586084188062
30
0
41
1
10
80.4454452313169
20
7.53680597216453
30
0
41
1
10
81.2160252781238
20
7.74466466802372
30
0
41
1
10
81.6016633529699
20
7.84163327083292
30
0
41
1
10
82.3733151383775
20
8.02176577125672
30
0
41
1
10
82.7588635055077
20
8.10520364765839
30
0
41
1
10
83.9143610672833
20
8.33146662364905
30
0
41
1
10
84.6851549197378
20
8.45088813044347
30
0
41
1
10
85.8392442568892
20
8.58471428739543
30
0
41
1
10
86.223277713621
20
8.62173884280381
30
0
41
1
10
86.9935636104286
20
8.67949330282491
30
0
41
1
10
87.3796392581096
20
8.70039394530676
30
0
41
1
10
88.1521789603272
20
8.72634139672275
30
0
41
1
10
88.537675890637
20
8.7313527998339
30
0
41
1
10
89.306527971873
20
8.72537509559569
30
0
41
1
10
89.6901617809768
20
8.71432368734645
30
0
41
1
10
90.84252962777
20
8.65773351634613
30
0
41
1
10
91.6110028494628
20
8.58897742386486
30
0
41
1
10
92.378055076509
20
8.4881899186675
30
0
0
SPLINE
5
CA
100
AcDbEntity
8
1
62
256
6
ByLayer
370
18
48
1
60
0
100
AcDbSpline
70
4
71
3
72
18
73
14
40
0
40
0
40
0
40
0
40
0.284864348124297
40
0.284864348124297
40
0.39935950210505
40
0.39935950210505
40
0.513854656085801
40
0.513854656085801
40
0.742844964047306
40
0.742844964047306
40
0.97183527200881
40
0.97183527200881
40
1
40
1
40
1
40
1
41
1
10
66.679983117369
20
0.0064909406146683
30
0
41
1
10
67.8126500833276
20
-0.601976612285796
30
0
41
1
10
68.9481386505757
20
-1.21204445564686
30
0
41
1
10
70.5523024327069
20
-2.05376168652762
30
0
41
1
10
71.0141551419059
20
-2.29367343429581
30
0
41
1
10
71.9333763543281
20
-2.76475631574562
30
0
41
1
10
72.3916779112915
20
-2.99647596784763
30
0
41
1
10
73.7640118196396
20
-3.67787108752722
30
0
41
1
10
74.6755650018885
20
-4.11361130455128
30
0
41
1
10
76.498100098541
20
-4.9385528801694
30
0
41
1
10
77.4089366827192
20
-5.32800954361247
30
0
41
1
10
78.4348927884427
20
-5.73373012782096
30
0
41
1
10
78.5473063363882
20
-5.77774213486566
30
0
41
1
10
78.6597706346739
20
-5.82132032083905
30
0
0
SPLINE
5
CB
100
AcDbEntity
8
1
62
256
6
ByLayer
370
13
48
1
60
0
100
AcDbSpline
70
4
71
3
72
16
73
12
40
0
40
0
40
0
40
0
40
0.179824398052944
40
0.179824398052944
40
0.589912199026467
40
0.589912199026467
40
0.794956099513231
40
0.794956099513231
40
0.897478049756615
40
0.897478049756615
40
1
40
1
40
1
40
1
41
1
10
78.6597715662567
20
-5.82132068181309
30
0
41
1
10
79.4616859055895
20
-6.13205013763729
30
0
41
1
10
80.26618051794
20
-6.42072305935875
30
0
41
1
10
82.9189402233844
20
-7.28398510169492
30
0
41
1
10
84.7395377612586
20
-7.73594707804082
30
0
41
1
10
87.472519863294
20
-8.16771261182123
30
0
41
1
10
88.3839653757185
20
-8.27063390744325
30
0
41
1
10
89.7562875146816
20
-8.36099270763532
30
0
41
1
10
90.2146099882053
20
-8.38042877405479
30
0
41
1
10
91.1337638143971
20
-8.39744913354187
30
0
41
1
10
91.5950542368372
20
-8.39499903908057
30
0
41
1
10
92.0559358651558
20
-8.38147789532601
30
0
0
SPLINE
5
CC
100
AcDbEntity
8
1
62
256
6
ByLayer
370
18
48
1
60
0
100
AcDbSpline
70
4
71
3
72
16
73
12
40
0
40
0
40
0
40
0
40
0.523120909167535
40
0.523120909167535
40
0.661990316946157
40
0.661990316946157
40
0.731425020835467
40
0.731425020835467
40
0.800859724724778
40
0.800859724724778
40
1
40
1
40
1
40
1
41
1
10
42.35683299198
20
-8.26343737263497
30
0
41
1
10
40.6377722352623
20
-8.25959069123292
30
0
41
1
10
38.9257683310295
20
-8.10512925390222
30
0
41
1
10
36.7426833694341
20
-7.72516175380571
30
0
41
1
10
36.2837450866486
20
-7.63521937410999
30
0
41
1
10
35.5934021517994
20
-7.48514618811598
30
0
41
1
10
35.3627257379844
20
-7.43253007089788
30
0
41
1
10
34.9020037336535
20
-7.32260944526442
30
0
41
1
10
34.6719919723211
20
-7.26531956849109
30
0
41
1
10
33.783434157659
20
-7.03494270209831
30
0
41
1
10
33.1270189788981
20
-6.8455303716861
30
0
41
1
10
32.4719155285427
20
-6.63898194587159
30
0
0
SPLINE
5
CD
100
AcDbEntity
8
1
62
256
6
ByLayer
370
13
48
1
60
0
100
AcDbSpline
70
4
71
3
72
22
73
18
40
0
40
0
40
0
40
0
40
0.0410401783956984
40
0.0410401783956984
40
0.331082117522112
40
0.331082117522112
40
0.403592602303715
40
0.403592602303715
40
0.476103087085318
40
0.476103087085318
40
0.621124056648524
40
0.621124056648524
40
0.911165995774936
40
0.911165995774936
40
0.983676480556539
40
0.983676480556539
40
1
40
1
40
1
40
1
41
1
10
32.4719164826275
20
-6.63898224668623
30
0
41
1
10
32.213353827269
20
-6.55745969478394
30
0
41
1
10
31.9549955131036
20
-6.47326768107015
30
0
41
1
10
29.871846658456
20
-5.77325642212128
30
0
41
1
10
28.0536937438332
20
-5.03114602371272
30
0
41
1
10
25.7588963355456
20
-3.98463611917575
30
0
41
1
10
25.2982986765452
20
-3.76917228256497
30
0
41
1
10
24.3764522998077
20
-3.328496897158
30
0
41
1
10
23.9170753227228
20
-3.10423160424494
30
0
41
1
10
22.5422508593756
20
-2.42218105374195
30
0
41
1
10
21.6302196190782
20
-1.95494230567067
30
0
41
1
10
18.8985202973918
20
-0.533207555249987
30
0
41
1
10
17.0834221815038
20
0.441664928518406
30
0
41
1
10
14.7916601175397
20
1.63542399285154
30
0
41
1
10
14.3321555898789
20
1.87291844326953
30
0
41
1
10
13.7673691046458
20
2.16150852685271
30
0
41
1
10
13.6636025623349
20
2.21439150187021
30
0
41
1
10
13.5598646188127
20
2.26710998742431
30
0
0
SPLINE
5
CE
100
AcDbEntity
8
1
62
256
6
ByLayer
370
18
48
1
60
0
100
AcDbSpline
70
4
71
3
72
46
73
42
40
0
40
0
40
0
40
0
40
0.124999999999992
40
0.124999999999992
40
0.187499999999988
40
0.187499999999988
40
0.249999999999985
40
0.249999999999985
40
0.374999999999977
40
0.374999999999977
40
0.499999999999969
40
0.499999999999969
40
0.562499999999962
40
0.562499999999962
40
0.624999999999955
40
0.624999999999955
40
0.749999999999942
40
0.749999999999942
40
0.812499999999935
40
0.812499999999935
40
0.843749999999932
40
0.843749999999932
40
0.859374999999931
40
0.859374999999931
40
0.86328124999993
40
0.86328124999993
40
0.86718749999993
40
0.86718749999993
40
0.874999999999934
40
0.874999999999934
40
0.878906249999936
40
0.878906249999936
40
0.882812499999938
40
0.882812499999938
40
0.890624999999942
40
0.890624999999942
40
0.906249999999951
40
0.906249999999951
40
0.937499999999967
40
0.937499999999967
40
1
40
1
40
1
40
1
41
1
10
83.8424392551381
20
3.3445501599569
30
0
41
1
10
84.1837247793305
20
3.02080053489962
30
0
41
1
10
84.5360536773089
20
2.71770526878225
30
0
41
1
10
85.0809481749604
20
2.29373734808823
30
0
41
1
10
85.2653155301027
20
2.15753156357334
30
0
41
1
10
85.6396759014306
20
1.89564163627318
30
0
41
1
10
85.8303378503268
20
1.76946653787346
30
0
41
1
10
86.4051183066789
20
1.41229642434675
30
0
41
1
10
86.7920481453029
20
1.20159668702121
30
0
41
1
10
87.5733593407443
20
0.834773940295094
30
0
41
1
10
87.9677427237615
20
0.678665771274638
30
0
41
1
10
88.565505541801
20
0.489824053163659
30
0
41
1
10
88.765797357695
20
0.434476032131982
30
0
41
1
10
89.168703884909
20
0.34079343999818
30
0
41
1
10
89.3721165993521
20
0.302772503928679
30
0
41
1
10
89.9772941164237
20
0.218460718825497
30
0
41
1
10
90.3758625106603
20
0.200629292243889
30
0
41
1
10
90.9648925124883
20
0.243216539610302
30
0
41
1
10
91.158838612216
20
0.269099389227364
30
0
41
1
10
91.4442255404385
20
0.327072604856227
30
0
41
1
10
91.5383485730946
20
0.34956839800256
30
0
41
1
10
91.6779467873808
20
0.388313246468925
30
0
41
1
10
91.7241954068461
20
0.402057894375815
30
0
41
1
10
91.7816168213367
20
0.420296923581958
30
0
41
1
10
91.7931001436003
20
0.423947097559221
30
0
41
1
10
91.8159286551404
20
0.431587968047978
30
0
41
1
10
91.8272412609677
20
0.435658988592707
30
0
41
1
10
91.8592672810972
20
0.452584972842175
30
0
41
1
10
91.8779815107533
20
0.470511015187697
30
0
41
1
10
91.8947275337657
20
0.506489745869459
30
0
41
1
10
91.8981452465865
20
0.520415138726236
30
0
41
1
10
91.9018289390296
20
0.549281346307453
30
0
41
1
10
91.9029334594603
20
0.563992071175534
30
0
41
1
10
91.9074449550105
20
0.607673194421437
30
0
41
1
10
91.9102601539639
20
0.63686641090618
30
0
41
1
10
91.9181429738681
20
0.724657959559863
30
0
41
1
10
91.9226449876586
20
0.783439036315798
30
0
41
1
10
91.9340032476164
20
0.960354537103456
30
0
41
1
10
91.9387204225491
20
1.07912153415984
30
0
41
1
10
91.945174323418
20
1.43764238076875
30
0
41
1
10
91.939193412232
20
1.67933098569461
30
0
41
1
10
91.9250788243658
20
1.92066812065073
30
0
0
SPLINE
5
CF
100
AcDbEntity
8
1
62
256
6
ByLayer
370
18
48
1
60
0
100
AcDbSpline
70
4
71
3
72
16
73
12
40
0
40
0
40
0
40
0
40
0.249999999999976
40
0.249999999999976
40
0.499999999999952
40
0.499999999999952
40
0.624999999999954
40
0.624999999999954
40
0.749999999999956
40
0.749999999999956
40
1
40
1
40
1
40
1
41
1
10
3.99999991744579
20
-4.64549113192547
30
0
41
1
10
3.99999991744582
20
-4.60618677756685
30
0
41
1
10
4.0036565814849
20
-4.56775698924312
30
0
41
1
10
4.02339491901293
20
-4.49395797621267
30
0
41
1
10
4.03986337991904
20
-4.4587750805583
30
0
41
1
10
4.07891979543808
20
-4.42462735890572
30
0
41
1
10
4.09432849620706
20
-4.41673027904906
30
0
41
1
10
4.12710727386525
20
-4.41019625474917
30
0
41
1
10
4.14411918166292
20
-4.41147012302758
30
0
41
1
10
4.19320273103043
20
-4.42456406462944
30
0
41
1
10
4.22360404925496
20
-4.44475649398362
30
0
41
1
10
4.25116892081496
20
-4.4689481023658
30
0
0
SPLINE
5
D0
100
AcDbEntity
8
1
62
256
6
ByLayer
370
18
48
1
60
0
100
AcDbSpline
70
4
71
3
72
22
73
18
40
0
40
0
40
0
40
0
40
0.216731975214023
40
0.216731975214023
40
0.433463950428046
40
0.433463950428046
40
0.541829938035058
40
0.541829938035058
40
0.65019592564207
40
0.65019592564207
40
0.758561913249081
40
0.758561913249081
40
0.866927900856093
40
0.866927900856093
40
0.975293888463104
40
0.975293888463104
40
1
40
1
40
1
40
1
41
1
10
18.3932331282953
20
-8.20804061480126
30
0
41
1
10
19.0767118200442
20
-8.17147587875974
30
0
41
1
10
19.7591588579195
20
-8.11176135765385
30
0
41
1
10
21.1219626115319
20
-7.94684848942495
30
0
41
1
10
21.802215873709
20
-7.83992472465644
30
0
41
1
10
22.8251132272165
20
-7.64848035599459
30
0
41
1
10
23.1663481160274
20
-7.57932249443013
30
0
41
1
10
23.8493623900303
20
-7.42950847300406
30
0
41
1
10
24.1913046139416
20
-7.34877638942848
30
0
41
1
10
24.8736925846265
20
-7.17733437936877
30
0
41
1
10
25.2146549673493
20
-7.08710889384415
30
0
41
1
10
25.8964780354341
20
-6.89613061175282
30
0
41
1
10
26.2372170021243
20
-6.79510509788571
30
0
41
1
10
26.9185785504602
20
-6.58366224647491
30
0
41
1
10
27.2591896164304
20
-6.47317604263765
30
0
41
1
10
27.6774433427121
20
-6.33233651694798
30
0
41
1
10
27.7550971367705
20
-6.30596268781821
30
0
41
1
10
27.8327580638568
20
-6.27935566970939
30
0
0
SPLINE
5
D1
100
AcDbEntity
8
1
62
256
6
ByLayer
370
18
48
1
60
0
100
AcDbSpline
70
4
71
3
72
40
73
36
40
0
40
0
40
0
40
0
40
0.0275707819263687
40
0.0275707819263687
40
0.0847725006365816
40
0.0847725006365816
40
0.141974219346795
40
0.141974219346795
40
0.199175938057008
40
0.199175938057008
40
0.256377656767221
40
0.256377656767221
40
0.313579375477434
40
0.313579375477434
40
0.370781094187647
40
0.370781094187647
40
0.42798281289786
40
0.42798281289786
40
0.485184531608073
40
0.485184531608073
40
0.542386250318286
40
0.542386250318286
40
0.599587969028499
40
0.599587969028499
40
0.656789687738714
40
0.656789687738714
40
0.713991406448929
40
0.713991406448929
40
0.771193125159144
40
0.771193125159144
40
0.885596562579574
40
0.885596562579574
40
0.942798281289787
40
0.942798281289787
40
1
40
1
40
1
40
1
41
1
10
65.9788001790063
20
8.27710112312479
30
0
41
1
10
66.1428681714429
20
8.27636773977201
30
0
41
1
10
66.3069133931833
20
8.27420057861383
30
0
41
1
10
66.8112662770267
20
8.2629722401191
30
0
41
1
10
67.1519329047703
20
8.24927201608958
30
0
41
1
10
67.8341328347705
20
8.2110003357586
30
0
41
1
10
68.1758632175846
20
8.18641696139241
30
0
41
1
10
68.8588655813335
20
8.12524598383237
30
0
41
1
10
69.1997991231113
20
8.08833052430296
30
0
41
1
10
69.8807847872107
20
8.00242556124084
30
0
41
1
10
70.2210483460674
20
7.95363038084798
30
0
41
1
10
70.9019400725623
20
7.84565436655012
30
0
41
1
10
71.2424358050244
20
7.78649642186238
30
0
41
1
10
71.9234067563935
20
7.65633002262538
30
0
41
1
10
72.2638955896143
20
7.58537150023065
30
0
41
1
10
72.9450367607609
20
7.43298090345255
30
0
41
1
10
73.2857273913695
20
7.35168447105011
30
0
41
1
10
73.968456991527
20
7.18002469478992
30
0
41
1
10
74.3100601939742
20
7.08879591123903
30
0
41
1
10
74.9918359649121
20
6.89510868377332
30
0
41
1
10
75.3323015344928
20
6.79274209878116
30
0
41
1
10
76.0126443001246
20
6.57816527207683
30
0
41
1
10
76.3524437902033
20
6.4658398926538
30
0
41
1
10
77.0327426088895
20
6.23317762183203
30
0
41
1
10
77.3730934924307
20
6.11268420980716
30
0
41
1
10
78.0541464337296
20
5.86375899214329
30
0
41
1
10
78.3948565534917
20
5.73546295608728
30
0
41
1
10
79.0765905215699
20
5.47062265018175
30
0
41
1
10
79.4177774441569
20
5.33339254304357
30
0
41
1
10
80.4405180745321
20
4.91068017215818
30
0
41
1
10
81.1213359634002
20
4.61447002059253
30
0
41
1
10
82.1415816006044
20
4.15116989311093
30
0
41
1
10
82.4813508863818
20
3.99324556156938
30
0
41
1
10
83.1613936458955
20
3.67234278624255
30
0
41
1
10
83.5017649436656
20
3.50955979710696
30
0
41
1
10
83.8424392551379
20
3.34455015995692
30
0
0
SPLINE
5
D2
100
AcDbEntity
8
1
62
256
6
ByLayer
370
18
48
1
60
0
100
AcDbSpline
70
4
71
3
72
10
73
6
40
0
40
0
40
0
40
0
40
0.5
40
0.5
40
1
40
1
40
1
40
1
41
1
10
94.9696576699282
20
-0.232603973233239
30
0
41
1
10
94.970350821205
20
-0.209764632893467
30
0
41
1
10
94.9738564789581
20
-0.182936629017007
30
0
41
1
10
94.984414666007
20
-0.125636918119966
30
0
41
1
10
94.9913915174972
20
-0.0955976927141649
30
0
41
1
10
94.9999554563269
20
-0.0642663272207358
30
0
0
SPLINE
5
D3
100
AcDbEntity
8
1
62
256
6
ByLayer
370
18
48
1
60
0
100
AcDbSpline
70
4
71
3
72
12
73
8
40
0
40
0
40
0
40
0
40
0.249999999999993
40
0.249999999999993
40
0.499999999999985
40
0.499999999999985
40
1
40
1
40
1
40
1
41
1
10
92.1018457109371
20
2.0479976357546
30
0
41
1
10
92.333900151209
20
2.04078255855882
30
0
41
1
10
92.5658720269499
20
2.03430056648338
30
0
41
1
10
93.0298258867699
20
2.02124683105276
30
0
41
1
10
93.2618054780522
20
2.01469633318439
30
0
41
1
10
93.95772660509
20
1.9952015244549
30
0
41
1
10
94.421621938132
20
1.98266744449168
30
0
41
1
10
94.8852910690721
20
1.97214179833063
30
0
0
SPLINE
5
D4
100
AcDbEntity
8
1
62
256
6
ByLayer
370
18
48
1
60
0
100
AcDbSpline
70
4
71
3
72
8
73
4
40
0
40
0
40
0
40
0
40
1
40
1
40
1
40
1
41
1
10
91.9173056025743
20
8.72178704564618
30
0
41
1
10
91.6750780859919
20
8.72793916662167
30
0
41
1
10
91.4327662969367
20
8.73091721684546
30
0
41
1
10
91.1904413804688
20
8.73073504414353
30
0
0
SPLINE
5
D5
100
AcDbEntity
8
1
62
256
6
ByLayer
370
18
48
1
60
0
100
AcDbSpline
70
4
71
3
72
50
73
46
40
0
40
0
40
0
40
0
40
0.0421453821760645
40
0.0421453821760645
40
0.0740738694368628
40
0.0740738694368628
40
0.106002356697661
40
0.106002356697661
40
0.169859331219257
40
0.169859331219257
40
0.201787818480054
40
0.201787818480054
40
0.233716305740852
40
0.233716305740852
40
0.297573280262446
40
0.297573280262446
40
0.329501767523243
40
0.329501767523243
40
0.36143025478404
40
0.36143025478404
40
0.425287229305635
40
0.425287229305635
40
0.457215716566432
40
0.457215716566432
40
0.48914420382723
40
0.48914420382723
40
0.553001178348826
40
0.553001178348826
40
0.584929665609624
40
0.584929665609624
40
0.616858152870422
40
0.616858152870422
40
0.680715127392018
40
0.680715127392018
40
0.712643614652816
40
0.712643614652816
40
0.744572101913614
40
0.744572101913614
40
0.80842907643521
40
0.80842907643521
40
0.840357563696009
40
0.840357563696009
40
0.872286050956807
40
0.872286050956807
40
1
40
1
40
1
40
1
41
1
10
47.1201925480084
20
-8.27239130103351
30
0
41
1
10
46.5167591633985
20
-8.3766581706881
30
0
41
1
10
45.9134314257753
20
-8.46231796375037
30
0
41
1
10
44.8515501075463
20
-8.57928704082056
30
0
41
1
10
44.3928565977097
20
-8.61875633574741
30
0
41
1
10
43.4760173320273
20
-8.67520532084296
30
0
41
1
10
43.0183444579338
20
-8.69218211523346
30
0
41
1
10
41.6461681962554
20
-8.70942770082672
30
0
41
1
10
40.7325917731694
20
-8.67601694289803
30
0
41
1
10
39.3589735366768
20
-8.55895931354979
30
0
41
1
10
38.9000023650455
20
-8.50870900841906
30
0
41
1
10
37.9834124973535
20
-8.38643226361526
30
0
41
1
10
37.5258058540691
20
-8.31444041917783
30
0
41
1
10
36.1536899710544
20
-8.06679426564989
30
0
41
1
10
35.2399486201769
20
-7.85943454986608
30
0
41
1
10
33.8658257937255
20
-7.48842217142249
30
0
41
1
10
33.4066890664942
20
-7.35461678997262
30
0
41
1
10
32.490313297717
20
-7.0688243479276
30
0
41
1
10
32.0327677285248
20
-6.91677993001079
30
0
41
1
10
30.6606661332342
20
-6.43484645109552
30
0
41
1
10
29.7467952946451
20
-6.07897957964994
30
0
41
1
10
28.3720659033646
20
-5.49962077516855
30
0
41
1
10
27.9128982982926
20
-5.29872582386227
30
0
41
1
10
26.9967392609319
20
-4.88462995799293
30
0
41
1
10
26.5392406059742
20
-4.67126277632053
30
0
41
1
10
25.1671070817375
20
-4.01438133446507
30
0
41
1
10
24.2530791163021
20
-3.55370096910019
30
0
41
1
10
22.8778376243115
20
-2.83692998506268
30
0
41
1
10
22.4187424510707
20
-2.59371899295991
30
0
41
1
10
21.5027293653832
20
-2.10233398703664
30
0
41
1
10
21.0452584887894
20
-1.85389415169001
30
0
41
1
10
19.673116464551
20
-1.10271096206364
30
0
41
1
10
18.758816804961
20
-0.593924125126875
30
0
41
1
10
17.3829523131009
20
0.172145373843847
30
0
41
1
10
16.9240532671563
20
0.42771112999273
30
0
41
1
10
16.0081709413064
20
0.935999461435557
30
0
41
1
10
15.5507080950197
20
1.18897256318147
30
0
41
1
10
14.1784575534761
20
1.94207569281548
30
0
41
1
10
13.2639266166617
20
2.43659923181642
30
0
41
1
10
11.8874491228257
20
3.15795726108757
30
0
41
1
10
11.4291599875127
20
3.39431750148575
30
0
41
1
10
10.5149830265947
20
3.85640940260953
30
0
41
1
10
10.0587431395064
20
4.08230929740944
30
0
41
1
10
7.77961592361632
20
5.18284711669335
30
0
41
1
10
5.96343143170353
20
5.97136637894437
30
0
41
1
10
4.12840862823595
20
6.62944174502559
30
0
0
SPLINE
5
D6
100
AcDbEntity
8
1
62
256
6
ByLayer
370
18
48
1
60
0
100
AcDbSpline
70
4
71
3
72
58
73
54
40
0
40
0
40
0
40
0
40
0.0551526342327714
40
0.0551526342327714
40
0.110305268465543
40
0.110305268465543
40
0.137881585581929
40
0.137881585581929
40
0.165457902698314
40
0.165457902698314
40
0.220610536931086
40
0.220610536931086
40
0.248186854047472
40
0.248186854047472
40
0.275763171163859
40
0.275763171163859
40
0.330915805396631
40
0.330915805396631
40
0.358492122513017
40
0.358492122513017
40
0.386068439629403
40
0.386068439629403
40
0.413644756745789
40
0.413644756745789
40
0.441221073862176
40
0.441221073862176
40
0.551526342327721
40
0.551526342327721
40
0.606678976560494
40
0.606678976560494
40
0.63425529367688
40
0.63425529367688
40
0.661831610793267
40
0.661831610793267
40
0.716984245026039
40
0.716984245026039
40
0.744560562142426
40
0.744560562142426
40
0.772136879258812
40
0.772136879258812
40
0.827289513491585
40
0.827289513491585
40
0.854865830607971
40
0.854865830607971
40
0.882442147724357
40
0.882442147724357
40
0.93759478195713
40
0.93759478195713
40
0.965171099073516
40
0.965171099073516
40
0.992747416189902
40
0.992747416189902
40
1
40
1
40
1
40
1
41
1
10
91.9173056025743
20
-8.72178704564621
30
0
41
1
10
91.0009285869057
20
-8.74506128937827
30
0
41
1
10
90.0832256958209
20
-8.72291096650099
30
0
41
1
10
88.2528638335959
20
-8.58919054114722
30
0
41
1
10
87.339218803373
20
-8.47777191749225
30
0
41
1
10
85.9661253477332
20
-8.24565623394241
30
0
41
1
10
85.5074979995521
20
-8.15735940111537
30
0
41
1
10
84.5908085545937
20
-7.96002109958079
30
0
41
1
10
84.1331540277661
20
-7.85105764729855
30
0
41
1
10
82.7609441874102
20
-7.49446411761161
30
0
41
1
10
81.8470767195292
20
-7.21719790021237
30
0
41
1
10
80.4728500227425
20
-6.74643660049739
30
0
41
1
10
80.013920936687
20
-6.58023443839349
30
0
41
1
10
79.0979845939305
20
-6.23207023626989
30
0
41
1
10
78.6405598065871
20
-6.04991123999841
30
0
41
1
10
77.2686057181301
20
-5.4809772188913
30
0
41
1
10
76.3543698795686
20
-5.07177975223476
30
0
41
1
10
74.9785594933182
20
-4.42009177215323
30
0
41
1
10
74.5201190859797
20
-4.1969127265659
30
0
41
1
10
73.6046950321576
20
-3.74093948590132
30
0
41
1
10
73.1474255698378
20
-3.50797171269951
30
0
41
1
10
72.232816991967
20
-3.03365236236331
30
0
41
1
10
71.775477478919
20
-2.79230196485702
30
0
41
1
10
70.8598254582468
20
-2.30273574035999
30
0
41
1
10
70.4008836868049
20
-2.0541023822862
30
0
41
1
10
68.1100089558748
20
-0.80125035193393
30
0
41
1
10
66.3004428114676
20
0.224991733728586
30
0
41
1
10
63.5814544345071
20
1.72889449907731
30
0
41
1
10
62.6742638539939
20
2.22413134613609
30
0
41
1
10
61.3075969535577
20
2.94957497957822
30
0
41
1
10
60.8510264887086
20
3.18842549297764
30
0
41
1
10
59.9349573612947
20
3.65857857651747
30
0
41
1
10
59.4757707858046
20
3.88984393045428
30
0
41
1
10
58.1021007542856
20
4.56568491671453
30
0
41
1
10
57.1882822654022
20
4.993709087448
30
0
41
1
10
55.8157136849177
20
5.5948633803545
30
0
41
1
10
55.3578694851815
20
5.78841164380071
30
0
41
1
10
54.4406650707185
20
6.16055384887193
30
0
41
1
10
53.9818727942175
20
6.33891193568203
30
0
41
1
10
52.6082912151432
20
6.84766314721773
30
0
41
1
10
51.6944314198932
20
7.15238459956453
30
0
41
1
10
50.3214405673544
20
7.55254968022055
30
0
41
1
10
49.8634061490508
20
7.67644905124052
30
0
41
1
10
48.9457731179009
20
7.90440932748152
30
0
41
1
10
48.4873265275498
20
8.00815537261991
30
0
41
1
10
47.1139321611614
20
8.28755146103555
30
0
41
1
10
46.1999978004981
20
8.43153987738089
30
0
41
1
10
44.8266169941464
20
8.58162324717406
30
0
41
1
10
44.36826096993
20
8.62066882199088
30
0
41
1
10
43.4504143147299
20
8.67636113349138
30
0
41
1
10
42.9923115411499
20
8.69292882063107
30
0
41
1
10
42.4141735164985
20
8.69964930667143
30
0
41
1
10
42.2938110727079
20
8.70027090831516
30
0
41
1
10
42.1734668578983
20
8.70011552835095
30
0
0
SPLINE
5
D7
100
AcDbEntity
8
1
62
256
6
ByLayer
370
18
48
1
60
0
100
AcDbSpline
70
4
71
3
72
14
73
10
40
0
40
0
40
0
40
0
40
0.25
40
0.25
40
0.5
40
0.5
40
0.75
40
0.75
40
1
40
1
40
1
40
1
41
1
10
92.0645813117395
20
-8.28732665147999
30
0
41
1
10
92.0680399043421
20
-8.28673314018263
30
0
41
1
10
92.0708675928577
20
-8.28781024150339
30
0
41
1
10
92.0748452121968
20
-8.29439490085184
30
0
41
1
10
92.0759425561282
20
-8.29998080396408
30
0
41
1
10
92.0751882307499
20
-8.31680375310896
30
0
41
1
10
92.0732514875147
20
-8.32810046638036
30
0
41
1
10
92.0662922920114
20
-8.35390574193065
30
0
41
1
10
92.0613650865187
20
-8.36809436478879
30
0
41
1
10
92.0559358651598
20
-8.38147789532593
30
0
0
SPLINE
5
D8
100
AcDbEntity
8
1
62
256
6
ByLayer
370
18
48
1
60
0
100
AcDbSpline
70
4
71
3
72
10
73
6
40
0
40
0
40
0
40
0
40
0.5
40
0.5
40
1
40
1
40
1
40
1
41
1
10
92.3780550765069
20
-8.48818991866915
30
0
41
1
10
92.2930937736871
20
-8.5520499835126
30
0
41
1
10
92.2118169650547
20
-8.60414289670072
30
0
41
1
10
92.057009829163
20
-8.68290751987843
30
0
41
1
10
91.9847551536949
20
-8.70893903962912
30
0
41
1
10
91.9173056025742
20
-8.72178704564618
30
0
0
SPLINE
5
D9
100
AcDbEntity
8
1
62
256
6
ByLayer
370
18
48
1
60
0
100
AcDbSpline
70
4
71
3
72
18
73
14
40
0
40
0
40
0
40
0
40
0.25
40
0.25
40
0.375
40
0.375
40
0.5
40
0.5
40
0.75
40
0.75
40
0.875
40
0.875
40
1
40
1
40
1
40
1
41
1
10
91.3656831076156
20
-6.52378288997463
30
0
41
1
10
91.3644032432229
20
-6.82912983550918
30
0
41
1
10
91.3775068014895
20
-7.09661164856502
30
0
41
1
10
91.4193884152551
20
-7.44207533522277
30
0
41
1
10
91.4370825600353
20
-7.54788208197212
30
0
41
1
10
91.480418526497
20
-7.74029871330569
30
0
41
1
10
91.5058361494646
20
-7.82577904019655
30
0
41
1
10
91.5928814144226
20
-8.04944616022365
30
0
41
1
10
91.6653999940522
20
-8.1559626600251
30
0
41
1
10
91.7976822073996
20
-8.2530983267134
30
0
41
1
10
91.8459117276452
20
-8.27499528309613
30
0
41
1
10
91.9497372007853
20
-8.29715037757529
30
0
41
1
10
92.0052791389766
20
-8.29750319250041
30
0
41
1
10
92.0645813117402
20
-8.2873266514799
30
0
0
SPLINE
5
DA
100
AcDbEntity
8
1
62
256
6
ByLayer
370
18
48
1
60
0
100
AcDbSpline
70
4
71
3
72
8
73
4
40
0
40
0
40
0
40
0
40
1
40
1
40
1
40
1
41
1
10
94.999955456327
20
0.0642663272205937
30
0
41
1
10
94.9908590518519
20
0.0388409232089657
30
0
41
1
10
94.9793057061481
20
0.014018723300552
30
0
41
1
10
94.9675065857225
20
-0.0052615273267236
30
0
0
SPLINE
5
DB
100
AcDbEntity
8
1
62
256
6
ByLayer
370
18
48
1
60
0
100
AcDbSpline
70
4
71
3
72
14
73
10
40
0
40
0
40
0
40
0
40
0.25
40
0.25
40
0.5
40
0.5
40
0.75
40
0.75
40
1
40
1
40
1
40
1
41
1
10
92.3780550765006
20
-8.4881899186916
30
0
41
1
10
92.5707040839642
20
-7.94037301307719
30
0
41
1
10
92.7682818432347
20
-7.39385572346097
30
0
41
1
10
93.1716531625684
20
-6.30312900781922
30
0
41
1
10
93.3775097681503
20
-5.75893645753223
30
0
41
1
10
93.7966021206008
20
-4.6727348485006
30
0
41
1
10
94.0098648180409
20
-4.13073309791963
30
0
41
1
10
94.443110224428
20
-3.04880380989755
30
0
41
1
10
94.6629959190504
20
-2.5091637425696
30
0
41
1
10
94.8852910690664
20
-1.97214179832793
30
0
0
SPLINE
5
DC
100
AcDbEntity
8
1
62
256
6
ByLayer
370
18
48
1
60
0
100
AcDbSpline
70
4
71
2
72
6
73
3
40
0
40
0
40
0
40
1
40
1
40
1
41
1
10
66.6920391895295
20
0.0002543875717436
30
0
41
1
10
66.6920224638324
20
0.0002627653730372
30
0
41
1
10
66.692005738117
20
0.0002715296021449
30
0
0
SPLINE
5
DD
100
AcDbEntity
8
1
62
256
6
ByLayer
370
18
48
1
60
0
100
AcDbSpline
70
4
71
3
72
38
73
34
40
0
40
0
40
0
40
0
40
0.033056658066734
40
0.0648335431124437
40
0.0923564277875563
40
0.118090458851803
40
0.142796308847275
40
0.166723923120232
40
0.19117434524778
40
0.214368884977416
40
0.236793365829535
40
0.257222831285536
40
0.277473356173478
40
0.304790721216445
40
0.338715862715639
40
0.369762396933023
40
0.394062492615043
40
0.42581678151803
40
0.456192772046578
40
0.479780186637065
40
0.500637497956985
40
0.526519312853821
40
0.556565835905148
40
0.624006523159174
40
0.695893331057727
40
0.766183834759496
40
0.848474741573375
40
0.881307873013943
40
0.906211563915818
40
0.927393006536065
40
0.95324745120681
40
0.97337372311839
40
1
40
1
40
1
40
1
41
1
10
42.3642452550213
20
-8.26325175742338
30
0
41
1
10
42.6139787428743
20
-8.26274665621335
30
0
41
1
10
43.1075321140063
20
-8.26224124380229
30
0
41
1
10
43.8325160352452
20
-8.25998493080729
30
0
41
1
10
44.489232826579
20
-8.26401818547461
30
0
41
1
10
45.0863820634295
20
-8.26547197581075
30
0
41
1
10
45.6656912568197
20
-8.26568105061409
30
0
41
1
10
46.2365697254932
20
-8.26593607706849
30
0
41
1
10
46.7953145211735
20
-8.26644076603401
30
0
41
1
10
47.3423992398642
20
-8.26708167653206
30
0
41
1
10
47.8580683875585
20
-8.26728860822911
30
0
41
1
10
48.3507741115266
20
-8.26741964713264
30
0
41
1
10
48.8816877547233
20
-8.26749904541813
30
0
41
1
10
49.517968902054
20
-8.26812903901916
30
0
41
1
10
50.2385494202056
20
-8.269157809917
30
0
41
1
10
50.9355584009654
20
-8.2690827237675
30
0
41
1
10
51.6156313341194
20
-8.26891724749379
30
0
41
1
10
52.2904544826813
20
-8.2699871408027
30
0
41
1
10
52.9597282674818
20
-8.27057898880375
30
0
41
1
10
53.5439113315863
20
-8.27067002012498
30
0
41
1
10
54.0929998378617
20
-8.27037327242127
30
0
41
1
10
54.6925313136255
20
-8.27085654719554
30
0
41
1
10
55.6557739020898
20
-8.27268611122418
30
0
41
1
10
56.9782254066336
20
-8.27134540899681
30
0
41
1
10
58.614859087407
20
-8.2733897702314
30
0
41
1
10
60.3675831089174
20
-8.27437161211421
30
0
41
1
10
61.814711856052
20
-8.27418425887063
30
0
41
1
10
62.9089942030345
20
-8.27579723755724
30
0
41
1
10
63.5212951156234
20
-8.27610469519371
30
0
41
1
10
64.0776518155283
20
-8.27433522728037
30
0
41
1
10
64.6041112355192
20
-8.27503144226375
30
0
41
1
10
65.1655102978021
20
-8.27627390620992
30
0
41
1
10
65.5304240407473
20
-8.27686537883085
30
0
41
1
10
65.7385291013351
20
-8.2771862429332
30
0
0
SPLINE
5
DE
100
AcDbEntity
8
1
62
256
6
ByLayer
370
18
48
1
60
0
100
AcDbSpline
70
4
71
3
72
28
73
24
40
0
40
0
40
0
40
0
40
0.0362374775702357
40
0.0683678705686051
40
0.0912481127276121
40
0.118828067161595
40
0.158980601233697
40
0.200634423485346
40
0.233968748582064
40
0.261682604091577
40
0.301682863959397
40
0.354505841924243
40
0.446939526297217
40
0.523591267682701
40
0.591778200346044
40
0.65840913754078
40
0.695416602273429
40
0.729833101440843
40
0.761441977427648
40
0.799319932325256
40
0.854816919398506
40
0.928145061085503
40
1
40
1
40
1
40
1
41
1
10
17.067633300937
20
8.24835790367879
30
0
41
1
10
16.9159361007188
20
8.24870062695734
30
0
41
1
10
16.6282790685568
20
8.24917813205778
30
0
41
1
10
16.2384542704998
20
8.24929530828743
30
0
41
1
10
15.8864078526022
20
8.24923745036145
30
0
41
1
10
15.4993814562508
20
8.24910986821885
30
0
41
1
10
15.0316128597506
20
8.24912425653096
30
0
41
1
10
14.5404369734391
20
8.24872925564799
30
0
41
1
10
14.1014729262901
20
8.24838645361737
30
0
41
1
10
13.6693544071434
20
8.24828578857387
30
0
41
1
10
13.1539468780274
20
8.24844342116398
30
0
41
1
10
12.3617774194701
20
8.2482470935347
30
0
41
1
10
11.4128941885295
20
8.24632102432324
30
0
41
1
10
10.3983096577087
20
8.24665832595244
30
0
41
1
10
9.49406100223513
20
8.24517337731385
30
0
41
1
10
8.75933316643994
20
8.2438236915898
30
0
41
1
10
8.16900853036623
20
8.24393298962968
30
0
41
1
10
7.72843646229256
20
8.24386658049789
30
0
41
1
10
7.28414398989338
20
8.24381250347656
30
0
41
1
10
6.74970794780498
20
8.24371993920107
30
0
41
1
10
6.03690022722338
20
8.24354621112786
30
0
41
1
10
5.17878621460599
20
8.24282757668766
30
0
41
1
10
4.55798585700472
20
8.24127282705814
30
0
41
1
10
4.25073490249156
20
8.24030077107579
30
0
0
SPLINE
5
DF
100
AcDbEntity
8
1
62
256
6
ByLayer
370
18
48
1
60
0
100
AcDbSpline
70
4
71
3
72
30
73
26
40
0
40
0
40
0
40
0
40
0.0161928537236555
40
0.0427147629836012
40
0.0677565659715466
40
0.0917399804485515
40
0.163529090740724
40
0.241808020583707
40
0.292751981399713
40
0.349564672091071
40
0.407814435175418
40
0.458456695518244
40
0.514120093062121
40
0.576841125779452
40
0.627905480792532
40
0.672902214009881
40
0.709165473783837
40
0.746108355440863
40
0.786856475371724
40
0.820624565485426
40
0.850242968753338
40
0.886439437832323
40
0.928176602166982
40
0.970976307233229
40
1
40
1
40
1
40
1
41
1
10
65.9726301079616
20
8.27698701592084
30
0
41
1
10
65.8719998608509
20
8.27710308732273
30
0
41
1
10
65.6059698633501
20
8.27727852733938
30
0
41
1
10
65.181926918255
20
8.27643050205742
30
0
41
1
10
64.7050507638844
20
8.27600428976956
30
0
41
1
10
63.9439806799124
20
8.27641832243526
30
0
41
1
10
62.8460410135146
20
8.27579422979935
30
0
41
1
10
61.5784207450615
20
8.27445999171721
30
0
41
1
10
60.4051423419027
20
8.27461898950591
30
0
41
1
10
59.3582040121271
20
8.27280202071717
30
0
41
1
10
58.3131653096804
20
8.27367793868052
30
0
41
1
10
57.2753746927903
20
8.27182314995468
30
0
41
1
10
56.2093829867745
20
8.27230556684572
30
0
41
1
10
55.1407261074274
20
8.27193806843204
30
0
41
1
10
54.1393523505392
20
8.27010855523608
30
0
41
1
10
53.3048268313586
20
8.27077251779016
30
0
41
1
10
52.5593735397035
20
8.27033451948736
30
0
41
1
10
51.8407082656291
20
8.26913285833311
30
0
41
1
10
51.1377754137413
20
8.26900713875781
30
0
41
1
10
50.4810364823557
20
8.26910866877989
30
0
41
1
10
49.8530025522425
20
8.26879956687233
30
0
41
1
10
49.1747171733961
20
8.26760634158271
30
0
41
1
10
48.4133373444934
20
8.26741316533594
30
0
41
1
10
47.6970265288776
20
8.267267620463
30
0
41
1
10
47.2444368531293
20
8.26691011193989
30
0
41
1
10
47.061886360507
20
8.26664301309776
30
0
0
SPLINE
5
E0
100
AcDbEntity
8
1
62
256
6
ByLayer
370
18
48
1
60
0
100
AcDbSpline
70
4
71
2
72
6
73
3
40
0
40
0
40
0
40
1
40
1
40
1
41
1
10
91.4098080133615
20
-8.29444333596786
30
0
41
1
10
91.6978668957009
20
-8.2940790969252
30
0
41
1
10
91.9858747312882
20
-8.29473936053807
30
0
0
SPLINE
5
E1
100
AcDbEntity
8
1
62
256
6
ByLayer
370
18
48
1
60
0
100
AcDbSpline
70
4
71
3
72
24
73
20
40
0
40
0
40
0
40
0
40
0.0642482016701098
40
0.134002560012749
40
0.189695723576646
40
0.245305218247373
40
0.289164562642406
40
0.326501965063908
40
0.375449226786996
40
0.437540780279465
40
0.505325512968205
40
0.569153145106633
40
0.661762754655162
40
0.752548007895034
40
0.841506350641651
40
0.879765038220792
40
0.920361010313225
40
0.968469964260383
40
1
40
1
40
1
40
1
41
1
10
4.25073501650442
20
-8.24032089429681
30
0
41
1
10
4.52266625478166
20
-8.24118756965706
30
0
41
1
10
5.08983434614092
20
-8.2426475274379
30
0
41
1
10
5.89273052045723
20
-8.24346329121775
30
0
41
1
10
6.65905868619609
20
-8.24370999455505
30
0
41
1
10
7.31578584725551
20
-8.24380062264535
30
0
41
1
10
7.89479149153917
20
-8.24388561841633
30
0
41
1
10
8.44573382613996
20
-8.24391050239331
30
0
41
1
10
9.07320217453494
20
-8.24397392735182
30
0
41
1
10
9.82768469465799
20
-8.24554371280408
30
0
41
1
10
10.6459318588778
20
-8.24508401179227
30
0
41
1
10
11.5965469863988
20
-8.24525256694747
30
0
41
1
10
12.6360354855532
20
-8.2490482808239
30
0
41
1
10
13.7897745514169
20
-8.24792169693595
30
0
41
1
10
14.7122612722106
20
-8.24898418610084
30
0
41
1
10
15.4225336675238
20
-8.24943686270279
30
0
41
1
10
15.9599974194396
20
-8.24939568310649
30
0
41
1
10
16.4669205396009
20
-8.24900629177483
30
0
41
1
10
16.8039889742389
20
-8.24917053895763
30
0
41
1
10
16.9374934718766
20
-8.24926451917372
30
0
0
LINE
5
7B
100
AcDbEntity
8
SK1
62
256
6
ByLayer
370
18
48
1
60
0
100
AcDbLine
10
-45.25
20
9
30
0
11
-45.25
21
-9
31
0
39
0
210
0
220
0
230
1
0
LINE
5
7D
100
AcDbEntity
8
SK1
62
256
6
ByLayer
370
18
48
1
60
0
100
AcDbLine
10
-48
20
6.25
30
0
11
-48
21
-6.25
31
0
39
0
210
0
220
0
230
1
0
LINE
5
7E
100
AcDbEntity
8
SK1
62
256
6
ByLayer
370
18
48
1
60
0
100
AcDbLine
10
0
20
-9
30
0
11
0
21
9
31
0
39
0
210
0
220
0
230
1
0
LINE
5
7F
100
AcDbEntity
8
1
62
256
6
ByLayer
370
18
48
1
60
0
100
AcDbLine
10
4
20
-8.676264
30
0
11
4
21
-4.919364
31
0
39
0
210
0
220
0
230
1
0
LINE
5
80
100
AcDbEntity
8
1
62
256
6
ByLayer
370
13
48
1
60
0
100
AcDbLine
10
0.967963
20
8.674369
30
0
11
0.967963
21
-8.674369
31
0
39
0
210
0
220
0
230
1
0
LINE
5
81
100
AcDbEntity
8
1
62
256
6
ByLayer
370
18
48
1
60
0
100
AcDbLine
10
4
20
8.676264
30
0
11
4
21
6.768198
31
0
39
0
210
0
220
0
230
1
0
LINE
5
82
100
AcDbEntity
8
1
62
256
6
ByLayer
370
13
48
1
60
0
100
AcDbLine
10
0.483732
20
8.837184
30
0
11
0.483732
21
-8.837184
31
0
39
0
210
0
220
0
230
1
0
LINE
5
83
100
AcDbEntity
8
1
62
256
6
ByLayer
370
13
48
1
60
0
100
AcDbLine
10
91.925079
20
1.920668
30
0
11
94.967507
21
-0.005262
31
0
39
0
210
0
220
0
230
1
0
LINE
5
84
100
AcDbEntity
8
1
62
256
6
ByLayer
370
13
48
1
60
0
100
AcDbLine
10
92.101846
20
2.047998
30
0
11
94.969658
21
0.232604
31
0
39
0
210
0
220
0
230
1
0
LINE
5
85
100
AcDbEntity
8
1
62
256
6
ByLayer
370
18
48
1
60
0
100
AcDbLine
10
0
20
-9
30
0
11
0
21
9
31
0
39
0
210
0
220
0
230
1
0
LINE
5
86
100
AcDbEntity
8
80
62
256
6
ByLayer
370
18
48
1
60
0
100
AcDbLine
10
0
20
0
30
0
11
-5
21
0
31
0
39
0
210
0
220
0
230
1
0
LINE
5
87
100
AcDbEntity
8
4
62
256
6
ByLayer
370
18
48
0.05
60
0
100
AcDbLine
10
95
20
0
30
0
11
0
21
0
31
0
39
0
210
0
220
0
230
1
0
LINE
5
89
100
AcDbEntity
8
SK4
62
256
6
ByLayer
370
18
48
0.05
60
0
100
AcDbLine
10
100
20
0
30
0
11
-53
21
0
31
0
39
0
210
0
220
0
230
1
0
LINE
5
8B
100
AcDbEntity
8
SK1
62
256
6
ByLayer
370
18
48
1
60
0
100
AcDbLine
10
-45.25
20
-9
30
0
11
0
21
-9
31
0
39
0
210
0
220
0
230
1
0
LINE
5
8C
100
AcDbEntity
8
SK1
62
256
6
ByLayer
370
18
48
1
60
0
100
AcDbLine
10
0
20
9
30
0
11
-45.25
21
9
31
0
39
0
210
0
220
0
230
1
0
LINE
5
8D
100
AcDbEntity
8
SK1
62
256
6
ByLayer
370
18
48
1
60
0
100
AcDbLine
10
-48
20
-6.25
30
0
11
-45.25
21
-9
31
0
39
0
210
0
220
0
230
1
0
LINE
5
8E
100
AcDbEntity
8
SK1
62
256
6
ByLayer
370
18
48
1
60
0
100
AcDbLine
10
-45.25
20
9
30
0
11
-48
21
6.25
31
0
39
0
210
0
220
0
230
1
0
LINE
5
8F
100
AcDbEntity
8
1
62
256
6
ByLayer
370
18
48
1
60
0
100
AcDbLine
10
0.967963
20
-8.674369
30
0
11
4
21
-8.676264
31
0
39
0
210
0
220
0
230
1
0
LINE
5
90
100
AcDbEntity
8
1
62
256
6
ByLayer
370
18
48
1
60
0
100
AcDbLine
10
39.693776
20
-8.698572
30
0
11
42.191327
21
-8.700133
31
0
39
0
210
0
220
0
230
1
0
LINE
5
91
100
AcDbEntity
8
1
62
256
6
ByLayer
370
18
48
1
60
0
100
AcDbLine
10
88.686406
20
-8.729193
30
0
11
91.192664
21
-8.730759
31
0
39
0
210
0
220
0
230
1
0
LINE
5
92
100
AcDbEntity
8
1
62
256
6
ByLayer
370
18
48
1
60
0
100
AcDbLine
10
91.19269
20
8.730759
30
0
11
88.686406
21
8.729193
31
0
39
0
210
0
220
0
230
1
0
LINE
5
93
100
AcDbEntity
8
1
62
256
6
ByLayer
370
18
48
1
60
0
100
AcDbLine
10
42.191432
20
8.700133
30
0
11
39.693776
21
8.698572
31
0
39
0
210
0
220
0
230
1
0
LINE
5
94
100
AcDbEntity
8
1
62
256
6
ByLayer
370
18
48
1
60
0
100
AcDbLine
10
4
20
8.676264
30
0
11
0.967963
21
8.674369
31
0
39
0
210
0
220
0
230
1
0
LINE
5
95
100
AcDbEntity
8
81
62
256
6
ByLayer
370
18
48
1
60
0
100
AcDbLine
10
95
20
0
30
0
11
100
21
0
31
0
39
0
210
0
220
0
230
1
0
LINE
5
96
100
AcDbEntity
8
SK2
62
256
6
ByLayer
370
13
48
1
60
0
100
AcDbLine
10
-56.625163
20
-9
30
0
11
-56.625163
21
39.857173
31
0
39
0
210
0
220
0
230
1
0
LINE
5
98
100
AcDbEntity
8
SK2
62
256
6
ByLayer
370
13
48
1
60
0
100
AcDbLine
10
-49.5875
20
9
30
0
11
-58.625163
21
9
31
0
39
0
210
0
220
0
230
1
0
LINE
5
99
100
AcDbEntity
8
SK2
62
256
6
ByLayer
370
13
48
1
60
0
100
AcDbLine
10
-49.5875
20
-9
30
0
11
-58.625163
21
-9
31
0
39
0
210
0
220
0
230
1
0
LINE
5
9A
100
AcDbEntity
8
1
62
256
6
ByLayer
370
18
48
1
60
1
100
AcDbLine
10
-56.625163
20
9
30
0
11
-56.164379
21
5.500002
31
0
39
0
210
0
220
0
230
1
0
LINE
5
9B
100
AcDbEntity
8
1
62
256
6
ByLayer
370
18
48
1
60
1
100
AcDbLine
10
-56.164379
20
5.500002
30
0
11
-57.085946
21
5.499998
31
0
39
0
210
0
220
0
230
1
0
LINE
5
9C
100
AcDbEntity
8
1
62
256
6
ByLayer
370
18
48
1
60
1
100
AcDbLine
10
-57.085946
20
5.499998
30
0
11
-56.625163
21
9
31
0
39
0
210
0
220
0
230
1
0
LINE
5
9D
100
AcDbEntity
8
1
62
256
6
ByLayer
370
18
48
1
60
1
100
AcDbLine
10
-56.625163
20
-9
30
0
11
-57.085946
21
-5.500002
31
0
39
0
210
0
220
0
230
1
0
LINE
5
9E
100
AcDbEntity
8
1
62
256
6
ByLayer
370
18
48
1
60
1
100
AcDbLine
10
-57.085946
20
-5.500002
30
0
11
-56.164379
21
-5.499998
31
0
39
0
210
0
220
0
230
1
0
LINE
5
9F
100
AcDbEntity
8
1
62
256
6
ByLayer
370
18
48
1
60
1
100
AcDbLine
10
-56.164379
20
-5.499998
30
0
11
-56.625163
21
-9
31
0
39
0
210
0
220
0
230
1
0
LINE
5
A0
100
AcDbEntity
8
2
62
256
6
ByLayer
370
13
48
1
60
0
100
AcDbLine
10
107.083343
20
-8.7315
30
0
11
107.083343
21
38.550292
31
0
39
0
210
0
220
0
230
1
0
LINE
5
A2
100
AcDbEntity
8
2
62
256
6
ByLayer
370
13
48
1
60
0
100
AcDbLine
10
93.9788
20
8.7315
30
0
11
109.083343
21
8.7315
31
0
39
0
210
0
220
0
230
1
0
LINE
5
A3
100
AcDbEntity
8
2
62
256
6
ByLayer
370
13
48
1
60
0
100
AcDbLine
10
93.9788
20
-8.7315
30
0
11
109.083343
21
-8.7315
31
0
39
0
210
0
220
0
230
1
0
LINE
5
A4
100
AcDbEntity
8
1
62
256
6
ByLayer
370
18
48
1
60
1
100
AcDbLine
10
107.083343
20
8.7315
30
0
11
107.544126
21
5.231502
31
0
39
0
210
0
220
0
230
1
0
LINE
5
A5
100
AcDbEntity
8
1
62
256
6
ByLayer
370
18
48
1
60
1
100
AcDbLine
10
107.544126
20
5.231502
30
0
11
106.622559
21
5.231498
31
0
39
0
210
0
220
0
230
1
0
LINE
5
A6
100
AcDbEntity
8
1
62
256
6
ByLayer
370
18
48
1
60
1
100
AcDbLine
10
106.622559
20
5.231498
30
0
11
107.083343
21
8.7315
31
0
39
0
210
0
220
0
230
1
0
LINE
5
A7
100
AcDbEntity
8
1
62
256
6
ByLayer
370
18
48
1
60
1
100
AcDbLine
10
107.083343
20
-8.7315
30
0
11
106.622559
21
-5.231502
31
0
39
0
210
0
220
0
230
1
0
LINE
5
A8
100
AcDbEntity
8
1
62
256
6
ByLayer
370
18
48
1
60
1
100
AcDbLine
10
106.622559
20
-5.231502
30
0
11
107.544126
21
-5.231498
31
0
39
0
210
0
220
0
230
1
0
LINE
5
A9
100
AcDbEntity
8
1
62
256
6
ByLayer
370
18
48
1
60
1
100
AcDbLine
10
107.544126
20
-5.231498
30
0
11
107.083343
21
-8.7315
31
0
39
0
210
0
220
0
230
1
0
LINE
5
E8
100
AcDbEntity
8
1
62
256
6
ByLayer
370
18
48
1
60
1
100
AcDbLine
10
-56.625163
20
9
30
0
11
-56.164379
21
5.500002
31
0
39
0
210
0
220
0
230
1
0
LINE
5
E9
100
AcDbEntity
8
1
62
256
6
ByLayer
370
18
48
1
60
1
100
AcDbLine
10
-56.164379
20
5.500002
30
0
11
-57.085946
21
5.499998
31
0
39
0
210
0
220
0
230
1
0
LINE
5
EA
100
AcDbEntity
8
1
62
256
6
ByLayer
370
18
48
1
60
1
100
AcDbLine
10
-57.085946
20
5.499998
30
0
11
-56.625163
21
9
31
0
39
0
210
0
220
0
230
1
0
LINE
5
EC
100
AcDbEntity
8
1
62
256
6
ByLayer
370
18
48
1
60
1
100
AcDbLine
10
-56.625163
20
-9
30
0
11
-57.085946
21
-5.500002
31
0
39
0
210
0
220
0
230
1
0
LINE
5
ED
100
AcDbEntity
8
1
62
256
6
ByLayer
370
18
48
1
60
1
100
AcDbLine
10
-57.085946
20
-5.500002
30
0
11
-56.164379
21
-5.499998
31
0
39
0
210
0
220
0
230
1
0
LINE
5
EE
100
AcDbEntity
8
1
62
256
6
ByLayer
370
18
48
1
60
1
100
AcDbLine
10
-56.164379
20
-5.499998
30
0
11
-56.625163
21
-9
31
0
39
0
210
0
220
0
230
1
0
LINE
5
F2
100
AcDbEntity
8
1
62
256
6
ByLayer
370
18
48
1
60
1
100
AcDbLine
10
107.083343
20
8.7315
30
0
11
107.544126
21
5.231502
31
0
39
0
210
0
220
0
230
1
0
LINE
5
F3
100
AcDbEntity
8
1
62
256
6
ByLayer
370
18
48
1
60
1
100
AcDbLine
10
107.544126
20
5.231502
30
0
11
106.622559
21
5.231498
31
0
39
0
210
0
220
0
230
1
0
LINE
5
F4
100
AcDbEntity
8
1
62
256
6
ByLayer
370
18
48
1
60
1
100
AcDbLine
10
106.622559
20
5.231498
30
0
11
107.083343
21
8.7315
31
0
39
0
210
0
220
0
230
1
0
LINE
5
F6
100
AcDbEntity
8
1
62
256
6
ByLayer
370
18
48
1
60
1
100
AcDbLine
10
107.083343
20
-8.7315
30
0
11
106.622559
21
-5.231502
31
0
39
0
210
0
220
0
230
1
0
LINE
5
F7
100
AcDbEntity
8
1
62
256
6
ByLayer
370
18
48
1
60
1
100
AcDbLine
10
106.622559
20
-5.231502
30
0
11
107.544126
21
-5.231498
31
0
39
0
210
0
220
0
230
1
0
LINE
5
F8
100
AcDbEntity
8
1
62
256
6
ByLayer
370
18
48
1
60
1
100
AcDbLine
10
107.544126
20
-5.231498
30
0
11
107.083343
21
-8.7315
31
0
39
0
210
0
220
0
230
1
0
MTEXT
5
E2
100
AcDbEntity
8
SK6
62
256
6
ByLayer
370
13
48
1
60
0
100
AcDbMText
10
-5.82946
20
41.271828
30
0
210
0
220
0
230
1
1
\W0.7716;462.1-1746-079A0-XM X2BM
40
3.5
41
0
44
1.084337
50
0
71
7
72
5
7
iso_b_vert
0
MTEXT
5
E6
100
AcDbEntity
8
SK2
62
256
6
ByLayer
370
18
48
1
60
0
100
AcDbMText
10
-58.189796
20
22.409024
30
0
210
0
220
0
230
1
1
%%c
40
3.5
41
0
44
1.084337
50
90
71
7
72
5
7
iso_b_vert
0
MTEXT
5
E7
100
AcDbEntity
8
SK2
62
256
6
ByLayer
370
18
48
1
60
0
100
AcDbMText
10
-58.189796
20
27.63168
30
0
210
0
220
0
230
1
1
\W0.6930;18,000
40
3.5
41
0
44
1.084337
50
90
71
7
72
5
7
iso_b_vert
0
MTEXT
5
F0
100
AcDbEntity
8
2
62
256
6
ByLayer
370
18
48
1
60
0
100
AcDbMText
10
105.518709
20
20.73361
30
0
210
0
220
0
230
1
1
%%c
40
3.5
41
0
44
1.084337
50
90
71
7
72
5
7
iso_b_vert
0
MTEXT
5
F1
100
AcDbEntity
8
2
62
256
6
ByLayer
370
18
48
1
60
0
100
AcDbMText
10
105.518709
20
25.956266
30
0
210
0
220
0
230
1
1
\W0.7145;17,463
40
3.5
41
0
44
1.084337
50
90
71
7
72
5
7
iso_b_vert
0
HATCH
5
EB
100
AcDbEntity
8
SK2
62
256
6
ByLayer
370
13
48
1
60
0
100
AcDbHatch
10
0
20
0
30
0
210
0
220
0
230
1
2
ANSI31
70
0
71
0
91
1
92
5
93
3
72
1
10
-56.6251625675374
20
9
11
-56.1643788259847
21
5.50000169255318
72
1
10
-56.1643788259847
20
5.50000169255318
11
-57.0859463090902
21
5.49999830744682
72
1
10
-57.0859463090902
20
5.49999830744682
11
-56.6251625675374
21
9
97
0
75
0
76
1
52
0
41
0.0062
77
0
78
1
53
45
43
0
44
0
45
-0.0139193969876572
46
0.0139193969876572
79
0
47
0
98
1
10
0
20
0
0
HATCH
5
EF
100
AcDbEntity
8
SK2
62
256
6
ByLayer
370
13
48
1
60
0
100
AcDbHatch
10
0
20
0
30
0
210
0
220
0
230
1
2
ANSI31
70
0
71
0
91
1
92
5
93
3
72
1
10
-56.6251625675374
20
-9
11
-57.0859463090902
21
-5.50000169255318
72
1
10
-57.0859463090902
20
-5.50000169255318
11
-56.1643788259847
21
-5.49999830744682
72
1
10
-56.1643788259847
20
-5.49999830744682
11
-56.6251625675374
21
-9
97
0
75
0
76
1
52
0
41
0.0062
77
0
78
1
53
45
43
0
44
0
45
-0.0139193969876572
46
0.0139193969876572
79
0
47
0
98
1
10
0
20
0
0
HATCH
5
F5
100
AcDbEntity
8
2
62
256
6
ByLayer
370
13
48
1
60
0
100
AcDbHatch
10
0
20
0
30
0
210
0
220
0
230
1
2
ANSI31
70
0
71
0
91
1
92
5
93
3
72
1
10
107.083342615295
20
8.73150000000001
11
107.544126356848
21
5.2315016925532
72
1
10
107.544126356848
20
5.2315016925532
11
106.622558873742
21
5.23149830744683
72
1
10
106.622558873742
20
5.23149830744683
11
107.083342615295
21
8.73150000000001
97
0
75
0
76
1
52
0
41
0.0062
77
0
78
1
53
45
43
0
44
0
45
-0.0139193969876572
46
0.0139193969876572
79
0
47
0
98
1
10
0
20
0
0
HATCH
5
F9
100
AcDbEntity
8
2
62
256
6
ByLayer
370
13
48
1
60
0
100
AcDbHatch
10
0
20
0
30
0
210
0
220
0
230
1
2
ANSI31
70
0
71
0
91
1
92
5
93
3
72
1
10
107.083342615295
20
-8.73149999999998
11
106.622558873742
21
-5.23150169255317
72
1
10
106.622558873742
20
-5.23150169255317
11
107.544126356848
21
-5.2314983074468
72
1
10
107.544126356848
20
-5.2314983074468
11
107.083342615295
21
-8.73149999999998
97
0
75
0
76
1
52
0
41
0.0062
77
0
78
1
53
45
43
0
44
0
45
-0.0139193969876572
46
0.0139193969876572
79
0
47
0
98
1
10
0
20
0
0
DIMENSION
5
FB
100
AcDbEntity
8
SK2
62
256
6
ByLayer
370
13
48
1
60
0
100
AcDbDimension
2
_U0
10
92.3913
20
-18.944898
30
0
11
46.19565
21
-18.944898
31
0
70
32
71
1
72
1
41
1
210
0
220
0
230
1
3
Standard
100
AcDbAlignedDimension
13
0
23
0
33
0
14
92.3913
24
-8.7315
34
0
50
0
100
AcDbRotatedDimension
1001
ACAD
1000
DSTYLE
1002
{
1070
   371
1070
    13
1070
   372
1070
    13
1070
   170
1070
     0
1070
   144
1040
1.0
1070
   277
1070
     2
1070
   278
1070
    44
1070
   146
1040
1.0
1070
   345
1005
16
1070
   347
1005
16
1070
   346
1005
16
1070
   344
1005
0
1070
   343
1005
0
1070
   172
1070
     1
1070
    76
1070
     0
1070
    75
1070
     0
1070
   282
1070
     0
1070
   281
1070
     0
1070
    71
1070
     0
1070
    74
1070
     0
1070
   279
1070
     0
1070
   173
1070
     1
1070
   340
1005
E3
1070
   271
1070
     2
1070
   272
1070
     2
1070
    77
1070
     1
1070
    73
1070
     1
1070
   171
1070
     3
1070
   274
1070
     4
1070
   177
1070
    35
1070
   176
1070
    35
1070
   178
1070
    35
1070
    48
1040
-0.1
1070
    41
1040
3.5
1070
   147
1040
1.75
1070
    42
1040
1.5875
1070
    44
1040
2.0
1070
   140
1040
3.5
1002
}
1001
ACAD_DSTYLE_DIM_LINETYPE
1070
   380
1005
16
1001
ACAD_DSTYLE_DIM_EXT1_LINETYPE
1070
   381
1005
16
1001
ACAD_DSTYLE_DIM_EXT2_LINETYPE
1070
   382
1005
16
0
DIMENSION
5
114
100
AcDbEntity
8
SK2
62
256
6
ByLayer
370
13
48
1
60
0
100
AcDbDimension
2
_U1
10
95
20
-37.692985
30
0
11
23.5
21
-37.692985
31
0
70
32
71
1
72
1
41
1
210
0
220
0
230
1
3
Standard
100
AcDbAlignedDimension
13
-48
23
-9
33
0
14
95
24
0
34
0
50
0
100
AcDbRotatedDimension
1001
ACAD
1000
DSTYLE
1002
{
1070
   371
1070
    13
1070
   372
1070
    13
1070
   170
1070
     0
1070
   144
1040
1.0
1070
   277
1070
     2
1070
   278
1070
    44
1070
   146
1040
1.0
1070
   345
1005
16
1070
   347
1005
16
1070
   346
1005
16
1070
   344
1005
0
1070
   343
1005
0
1070
   172
1070
     1
1070
    76
1070
     0
1070
    75
1070
     0
1070
   282
1070
     0
1070
   281
1070
     0
1070
    71
1070
     0
1070
    74
1070
     0
1070
   279
1070
     0
1070
   173
1070
     1
1070
   340
1005
E3
1070
   271
1070
     2
1070
   272
1070
     2
1070
    77
1070
     1
1070
    73
1070
     1
1070
   171
1070
     3
1070
   274
1070
     4
1070
   177
1070
    35
1070
   176
1070
    35
1070
   178
1070
    35
1070
    48
1040
-0.1
1070
    41
1040
3.5
1070
   147
1040
1.75
1070
    42
1040
1.5875
1070
    44
1040
2.0
1070
   140
1040
3.5
1002
}
1001
ACAD_DSTYLE_DIM_LINETYPE
1070
   380
1005
16
1001
ACAD_DSTYLE_DIM_EXT1_LINETYPE
1070
   381
1005
16
1001
ACAD_DSTYLE_DIM_EXT2_LINETYPE
1070
   382
1005
16
0
DIMENSION
5
12C
100
AcDbEntity
8
SK2
62
256
6
ByLayer
370
13
48
1
60
0
100
AcDbDimension
2
_U2
10
95
20
20.340619
30
0
11
57.23
21
20.340619
31
0
70
32
71
1
72
1
41
1
210
0
220
0
230
1
3
Standard
100
AcDbAlignedDimension
13
19.46
23
8.7315
33
0
14
95
24
0
34
0
50
0
100
AcDbRotatedDimension
1001
ACAD
1000
DSTYLE
1002
{
1070
   371
1070
    13
1070
   372
1070
    13
1070
   170
1070
     0
1070
   144
1040
1.0
1070
   277
1070
     2
1070
   278
1070
    44
1070
   146
1040
1.0
1070
   345
1005
16
1070
   347
1005
16
1070
   346
1005
16
1070
   344
1005
0
1070
   343
1005
0
1070
   172
1070
     1
1070
    76
1070
     0
1070
    75
1070
     0
1070
   282
1070
     0
1070
   281
1070
     0
1070
    71
1070
     0
1070
    74
1070
     0
1070
   279
1070
     0
1070
   173
1070
     1
1070
   340
1005
E3
1070
   271
1070
     2
1070
   272
1070
     2
1070
    77
1070
     1
1070
    73
1070
     1
1070
   171
1070
     3
1070
   274
1070
     4
1070
   177
1070
    35
1070
   176
1070
    35
1070
   178
1070
    35
1070
    48
1040
-0.1
1070
    41
1040
3.5
1070
   147
1040
1.75
1070
    42
1040
1.5875
1070
    44
1040
2.0
1070
   140
1040
3.5
1002
}
1001
ACAD_DSTYLE_DIM_LINETYPE
1070
   380
1005
16
1001
ACAD_DSTYLE_DIM_EXT1_LINETYPE
1070
   381
1005
16
1001
ACAD_DSTYLE_DIM_EXT2_LINETYPE
1070
   382
1005
16
0
DIMENSION
5
144
100
AcDbEntity
8
SK2
62
256
6
ByLayer
370
13
48
1
60
0
100
AcDbDimension
2
_U3
10
92.3913
20
-21.534003
30
0
11
112.083333
21
-21.534003
31
0
70
32
71
1
72
1
41
1
210
0
220
0
230
1
3
Standard
100
AcDbAlignedDimension
13
95
23
0
33
0
14
92.3913
24
-8.7315
34
0
50
0
100
AcDbRotatedDimension
1001
ACAD
1000
DSTYLE
1002
{
1070
   371
1070
    13
1070
   372
1070
    13
1070
   170
1070
     0
1070
   144
1040
1.0
1070
   277
1070
     2
1070
   278
1070
    44
1070
   146
1040
1.0
1070
   345
1005
16
1070
   347
1005
16
1070
   346
1005
16
1070
   344
1005
0
1070
   343
1005
0
1070
   172
1070
     1
1070
    76
1070
     0
1070
    75
1070
     0
1070
   282
1070
     0
1070
   281
1070
     0
1070
    71
1070
     0
1070
    74
1070
     0
1070
   279
1070
     0
1070
   173
1070
     1
1070
   340
1005
E3
1070
   271
1070
     2
1070
   272
1070
     2
1070
    77
1070
     1
1070
    73
1070
     1
1070
   171
1070
     3
1070
   274
1070
     4
1070
   177
1070
    35
1070
   176
1070
    35
1070
   178
1070
    35
1070
    48
1040
-0.1
1070
    41
1040
3.5
1070
   147
1040
1.75
1070
    42
1040
1.5875
1070
    44
1040
2.0
1070
   140
1040
3.5
1002
}
1001
ACAD_DSTYLE_DIM_LINETYPE
1070
   380
1005
16
1001
ACAD_DSTYLE_DIM_EXT1_LINETYPE
1070
   381
1005
16
1001
ACAD_DSTYLE_DIM_EXT2_LINETYPE
1070
   382
1005
16
0
DIMENSION
5
15E
100
AcDbEntity
8
SK2
62
256
6
ByLayer
370
13
48
1
60
0
100
AcDbDimension
2
_U4
10
92.3913
20
-27.343428
30
0
11
22.19565
21
-27.343428
31
0
70
32
71
1
72
1
41
1
210
0
220
0
230
1
3
Standard
100
AcDbAlignedDimension
13
-48
23
-9
33
0
14
92.3913
24
-8.7315
34
0
50
0
100
AcDbRotatedDimension
1001
ACAD
1000
DSTYLE
1002
{
1070
   371
1070
    13
1070
   372
1070
    13
1070
   170
1070
     0
1070
   144
1040
1.0
1070
   277
1070
     2
1070
   278
1070
    44
1070
   146
1040
1.0
1070
   345
1005
16
1070
   347
1005
16
1070
   346
1005
16
1070
   344
1005
0
1070
   343
1005
0
1070
   172
1070
     1
1070
    76
1070
     0
1070
    75
1070
     0
1070
   282
1070
     0
1070
   281
1070
     0
1070
    71
1070
     0
1070
    74
1070
     0
1070
   279
1070
     0
1070
   173
1070
     1
1070
   340
1005
E3
1070
   271
1070
     2
1070
   272
1070
     2
1070
    77
1070
     1
1070
    73
1070
     1
1070
   171
1070
     3
1070
   274
1070
     4
1070
   177
1070
    35
1070
   176
1070
    35
1070
   178
1070
    35
1070
    48
1040
-0.1
1070
    41
1040
3.5
1070
   147
1040
1.75
1070
    42
1040
1.5875
1070
    44
1040
2.0
1070
   140
1040
3.5
1002
}
1001
ACAD_DSTYLE_DIM_LINETYPE
1070
   380
1005
16
1001
ACAD_DSTYLE_DIM_EXT1_LINETYPE
1070
   381
1005
16
1001
ACAD_DSTYLE_DIM_EXT2_LINETYPE
1070
   382
1005
16
0
ENDSEC
0
SECTION
2
OBJECTS
0
DICTIONARY
5
1e6
330
0
100
AcDbDictionary
280
0
281
1
3
ACAD_GROUP
350
1e7
3
ACAD_MLINESTYLE
350
1e8
0
DICTIONARY
5
1e7
330
0
100
AcDbDictionary
280
0
281
1
0
DICTIONARY
5
1e8
330
0
100
AcDbDictionary
280
0
281
1
3
Standard
350
18
0
MLINESTYLE
5
18
330
1e8
100
AcDbMlineStyle
2
Standard
70
0
3

62
256
51
90
52
90
71
2
49
-0.5
62
256
6
ByLayer
49
0.5
62
256
6
ByLayer
0
RASTERVARIABLES
5
1d4
330

100
AcDbRasterVariables
90
0
70
1
71
1
72
1
0
ENDSEC
0
EOF
