0
SECTION
2
HEADER
9
$ACADVER
1
AC1015
9
$DWGCODEPAGE
3
ANSI_1252
9
$HANDSEED
5
1f5
9
$ANGBASE
50
0
9
$ANGDIR
70
0
9
$ATTMODE
70
1
9
$AUNITS
70
0
9
$AUPREC
70
0
9
$CECOLOR
62
256
9
$CELTSCALE
40
1
9
$CELTYPE
6
ByLayer
9
$CELWEIGHT
370
18
9
$CLAYER
8
0
9
$CMLJUST
70
0
9
$CMLSCALE
40
1
9
$CMLSTYLE
2
Standard
9
$DIMSTYLE
2
Standard
9
$TEXTSIZE
40
0.2
9
$TEXTSTYLE
7
Standard
9
$LUNITS
70
2
9
$LUPREC
70
4
9
$EXTNAMES
290
1
9
$INSUNITS
70
4
9
$LTSCALE
40
1
9
$LWDISPLAY
290
1
9
$PDMODE
70
0
9
$PDSIZE
40
0
9
$PLINEGEN
70
0
0
ENDSEC
0
SECTION
2
CLASSES
0
CLASS
1
RASTERVARIABLES
2
AcDbRasterVariables
3
ISM
90
0
280
0
281
0
0
ENDSEC
0
SECTION
2
TABLES
0
TABLE
2
VPORT
5
1eb
100
AcDbSymbolTable
0
VPORT
5
1
100
AcDbSymbolTableRecord
100
AcDbViewportTableRecord
2
*Active
70
0
10
0
20
0
11
1
21
1
12
-1
22
1
13
0
23
0
14
0.5
24
0.5
15
10
25
10
16
0
26
0
36
1
17
0
27
0
37
0
0
ENDTAB
0
TABLE
2
LTYPE
5
1ec
100
AcDbSymbolTable
0
LTYPE
5
14
100
AcDbSymbolTableRecord
100
AcDbLinetypeTableRecord
70
0
2
ByBlock
3

72
65
73
0
40
0
0
LTYPE
5
15
100
AcDbSymbolTableRecord
100
AcDbLinetypeTableRecord
70
0
2
ByLayer
3

72
65
73
0
40
0
0
LTYPE
5
16
100
AcDbSymbolTableRecord
100
AcDbLinetypeTableRecord
70
0
2
Continuous
3
Solid line
72
65
73
0
40
0
0
LTYPE
5
6E
100
AcDbSymbolTableRecord
100
AcDbLinetypeTableRecord
70
0
2
CENTER
3
____ _ ____ _ ____ _ ____
72
65
73
4
40
47.5
49
22
74
0
49
-8.5
74
0
49
8.5
74
0
49
-8.5
74
0
0
LTYPE
5
6F
100
AcDbSymbolTableRecord
100
AcDbLinetypeTableRecord
70
0
2
DASHED
3
__ __ __ __ __ __ __ __ __
72
65
73
2
40
25.72
49
12.86
74
0
49
-12.86
74
0
0
ENDTAB
0
TABLE
2
LAYER
5
1ed
100
AcDbSymbolTable
0
LAYER
5
10
100
AcDbSymbolTableRecord
100
AcDbLayerTableRecord
2
0
70
0
62
7
6
Continuous
290
1
370
-3
390
0
0
LAYER
5
71
100
AcDbSymbolTableRecord
100
AcDbLayerTableRecord
2
80
70
0
62
-6
6
Continuous
290
1
370
-3
390
0
0
LAYER
5
73
100
AcDbSymbolTableRecord
100
AcDbLayerTableRecord
2
81
70
0
62
-3
6
Continuous
290
1
370
-3
390
0
0
LAYER
5
75
100
AcDbSymbolTableRecord
100
AcDbLayerTableRecord
2
1
70
0
62
4
6
Continuous
290
1
370
-3
390
0
0
LAYER
5
86
100
AcDbSymbolTableRecord
100
AcDbLayerTableRecord
2
4
70
0
62
-2
6
CENTER
290
1
370
-3
390
0
0
LAYER
5
A1
100
AcDbSymbolTableRecord
100
AcDbLayerTableRecord
2
2
70
0
62
7
6
Continuous
290
1
370
-3
390
0
0
LAYER
5
100
100
AcDbSymbolTableRecord
100
AcDbLayerTableRecord
2
Defpoints
70
0
62
7
6
Continuous
290
0
370
-3
390
0
0
LAYER
5
1d7
100
AcDbSymbolTableRecord
100
AcDbLayerTableRecord
2
SK1
70
0
62
4
6
Continuous
290
1
370
-3
390
0
0
LAYER
5
1d8
100
AcDbSymbolTableRecord
100
AcDbLayerTableRecord
2
SK4
70
0
62
2
6
CENTER
290
1
370
-3
390
0
0
LAYER
5
1d9
100
AcDbSymbolTableRecord
100
AcDbLayerTableRecord
2
SK2
70
0
62
7
6
Continuous
290
1
370
-3
390
0
0
LAYER
5
1da
100
AcDbSymbolTableRecord
100
AcDbLayerTableRecord
2
SK6
70
0
62
5
6
Continuous
290
1
370
-3
390
0
0
ENDTAB
0
TABLE
2
STYLE
5
1ee
100
AcDbSymbolTable
0
STYLE
5
11
100
AcDbSymbolTableRecord
100
AcDbTextStyleTableRecord
2
Standard
3
txt
70
0
71
0
40
0
41
1
42
0
50
0
0
STYLE
5
E5
100
AcDbSymbolTableRecord
100
AcDbTextStyleTableRecord
2
iso_b_vert
3
simplex.shx
70
0
71
0
40
0
41
1
42
0
50
0
0
STYLE
5
E6
100
AcDbSymbolTableRecord
100
AcDbTextStyleTableRecord
2
DWGDirectTextStyle
3
simplex
70
0
71
0
40
0
41
1
42
0
50
0
0
ENDTAB
0
TABLE
2
DIMSTYLE
5
1ef
100
AcDbSymbolTable
100
AcDbDimStyleTable
0
DIMSTYLE
105
27
100
AcDbSymbolTableRecord
100
AcDbDimStyleTableRecord
2
Standard
70
0
3
<>
41
0.18
42
0.0625
44
0.18
140
0.18
147
0.09
73
0
74
0
77
1
271
2
275
0
278
52
280
0
340
11
0
ENDTAB
0
TABLE
2
VIEW
5
1f0
100
AcDbSymbolTable
0
ENDTAB
0
TABLE
2
UCS
5
1f1
100
AcDbSymbolTable
0
ENDTAB
0
TABLE
2
APPID
5
1f2
100
AcDbSymbolTable
0
APPID
5
12
100
AcDbSymbolTableRecord
100
AcDbRegAppTableRecord
2
ACAD
70
0
0
APPID
5
FC
100
AcDbSymbolTableRecord
100
AcDbRegAppTableRecord
2
ACAD_DSTYLE_DIMBREAK
70
0
0
APPID
5
196
100
AcDbSymbolTableRecord
100
AcDbRegAppTableRecord
2
ACAD_DSTYLE_DIM_LINETYPE
70
0
0
APPID
5
197
100
AcDbSymbolTableRecord
100
AcDbRegAppTableRecord
2
ACAD_DSTYLE_DIM_EXT1_LINETYPE
70
0
0
APPID
5
198
100
AcDbSymbolTableRecord
100
AcDbRegAppTableRecord
2
ACAD_DSTYLE_DIM_EXT2_LINETYPE
70
0
0
APPID
5
1D3
100
AcDbSymbolTableRecord
100
AcDbRegAppTableRecord
2
ACAD_MLEADERVER
70
0
0
ENDTAB
0
TABLE
2
BLOCK_RECORD
5
1f3
100
AcDbSymbolTable
0
BLOCK_RECORD
5
1F
100
AcDbSymbolTableRecord
100
AcDbBlockTableRecord
2
*Model_Space
340
0
70
0
0
BLOCK_RECORD
5
1B
100
AcDbSymbolTableRecord
100
AcDbBlockTableRecord
2
*Paper_Space
340
0
70
0
0
BLOCK_RECORD
5
23
100
AcDbSymbolTableRecord
100
AcDbBlockTableRecord
2
*Paper_Space0
340
0
70
0
0
BLOCK_RECORD
5
101
100
AcDbSymbolTableRecord
100
AcDbBlockTableRecord
2
*D1
340
0
70
0
0
BLOCK_RECORD
5
10D
100
AcDbSymbolTableRecord
100
AcDbBlockTableRecord
2
_U0
340
0
70
0
0
BLOCK_RECORD
5
119
100
AcDbSymbolTableRecord
100
AcDbBlockTableRecord
2
*D3
340
0
70
0
0
BLOCK_RECORD
5
125
100
AcDbSymbolTableRecord
100
AcDbBlockTableRecord
2
_U1
340
0
70
0
0
BLOCK_RECORD
5
131
100
AcDbSymbolTableRecord
100
AcDbBlockTableRecord
2
*D5
340
0
70
0
0
BLOCK_RECORD
5
13D
100
AcDbSymbolTableRecord
100
AcDbBlockTableRecord
2
_U2
340
0
70
0
0
BLOCK_RECORD
5
149
100
AcDbSymbolTableRecord
100
AcDbBlockTableRecord
2
*D7
340
0
70
0
0
BLOCK_RECORD
5
157
100
AcDbSymbolTableRecord
100
AcDbBlockTableRecord
2
_U3
340
0
70
0
0
BLOCK_RECORD
5
163
100
AcDbSymbolTableRecord
100
AcDbBlockTableRecord
2
*D9
340
0
70
0
0
BLOCK_RECORD
5
16F
100
AcDbSymbolTableRecord
100
AcDbBlockTableRecord
2
_U4
340
0
70
0
0
ENDTAB
0
ENDSEC
0
SECTION
2
BLOCKS
0
BLOCK
5
20
100
AcDbEntity
8
0
100
AcDbBlockBegin
2
*Model_Space
70
0
10
0
20
0
30
0
3
*Model_Space
0
ENDBLK
5
21
100
AcDbEntity
8
0
100
AcDbBlockEnd
0
BLOCK
5
1C
100
AcDbEntity
8
0
100
AcDbBlockBegin
2
*Paper_Space
70
0
10
0
20
0
30
0
3
*Paper_Space
0
ENDBLK
5
1D
100
AcDbEntity
8
0
100
AcDbBlockEnd
0
BLOCK
5
24
100
AcDbEntity
8
0
100
AcDbBlockBegin
2
*Paper_Space0
70
0
10
0
20
0
30
0
3
*Paper_Space0
0
ENDBLK
5
25
100
AcDbEntity
8
0
100
AcDbBlockEnd
0
BLOCK
5
102
100
AcDbEntity
8
0
100
AcDbBlockBegin
2
*D1
70
1
10
0
20
0
30
0
3
*D1
0
LINE
5
104
100
AcDbEntity
8
0
62
256
6
ByLayer
370
-2
48
1
60
0
100
AcDbLine
10
0
20
-1.5875
30
0
11
0
21
-18.166398
31
0
39
0
210
0
220
0
230
1
0
LINE
5
105
100
AcDbEntity
8
0
62
256
6
ByLayer
370
-2
48
1
60
0
100
AcDbLine
10
71.2288
20
-7.5405
30
0
11
71.2288
21
-18.166398
31
0
39
0
210
0
220
0
230
1
0
LINE
5
106
100
AcDbEntity
8
0
62
256
6
ByLayer
370
-2
48
1
60
0
100
AcDbLine
10
3.5
20
-16.166398
30
0
11
67.7288
21
-16.166398
31
0
39
0
210
0
220
0
230
1
0
SOLID
5
107
100
AcDbEntity
8
0
62
256
6
ByLayer
370
-1
48
1
60
0
100
AcDbTrace
10
3.5
20
-15.583065
30
0
11
3.5
21
-16.749732
31
0
12
0
22
-16.166398
32
0
13
0
23
-16.166398
33
0
39
0
210
0
220
0
230
1
0
SOLID
5
108
100
AcDbEntity
8
0
62
256
6
ByLayer
370
-1
48
1
60
0
100
AcDbTrace
10
67.7288
20
-16.749732
30
0
11
67.7288
21
-15.583065
31
0
12
71.2288
22
-16.166398
32
0
13
71.2288
23
-16.166398
33
0
39
0
210
0
220
0
230
1
0
MTEXT
5
109
100
AcDbEntity
8
0
62
256
6
ByLayer
370
18
48
1
60
0
100
AcDbMText
10
35.6144
20
-9.166398
30
0
210
0
220
0
230
1
1
\A1;71.23
40
3.5
41
0
44
1
50
0
71
5
72
5
7
iso_b_vert
0
POINT
5
10A
100
AcDbEntity
8
Defpoints
62
0
6
ByLayer
370
-1
48
1
60
0
100
AcDbPoint
10
0
20
0
30
0
39
0
210
0
220
0
230
1
50
360
0
POINT
5
10B
100
AcDbEntity
8
Defpoints
62
0
6
ByLayer
370
-1
48
1
60
0
100
AcDbPoint
10
71.2288
20
-5.953
30
0
39
0
210
0
220
0
230
1
50
360
0
POINT
5
10C
100
AcDbEntity
8
Defpoints
62
0
6
ByLayer
370
-1
48
1
60
0
100
AcDbPoint
10
71.2288
20
-16.166398
30
0
39
0
210
0
220
0
230
1
50
360
0
ENDBLK
5
103
100
AcDbEntity
8
0
100
AcDbBlockEnd
0
BLOCK
5
114
100
AcDbEntity
8
0
100
AcDbBlockBegin
2
_U0
70
0
10
0
20
0
30
0
3
_U0
0
MTEXT
5
10E
100
AcDbEntity
8
SK2
62
256
6
ByLayer
370
13
48
1
60
0
100
AcDbMText
10
30.914535
20
-15.133765
30
0
210
0
220
0
230
1
1
\W0.6713;71,23
40
3.5
41
0
44
1.084337
50
0
71
7
72
5
7
iso_b_vert
0
LINE
5
10F
100
AcDbEntity
8
SK2
62
256
6
ByLayer
370
13
48
1
60
0
100
AcDbLine
10
0
20
-1.5875
30
0
11
0
21
-18.166398
31
0
39
0
210
0
220
0
230
1
0
LINE
5
110
100
AcDbEntity
8
SK2
62
256
6
ByLayer
370
13
48
1
60
0
100
AcDbLine
10
71.2288
20
-7.5405
30
0
11
71.2288
21
-18.166398
31
0
39
0
210
0
220
0
230
1
0
LINE
5
111
100
AcDbEntity
8
SK2
62
256
6
ByLayer
370
13
48
1
60
0
100
AcDbLine
10
0
20
-16.166398
30
0
11
71.2288
21
-16.166398
31
0
39
0
210
0
220
0
230
1
0
SOLID
5
112
100
AcDbEntity
8
SK2
62
256
6
ByLayer
370
18
48
1
60
0
100
AcDbTrace
10
0
20
-16.166398
30
0
11
3.499998
21
-15.705615
31
0
12
3.500002
22
-16.627182
32
0
13
3.500002
23
-16.627182
33
0
39
0
210
0
220
0
230
1
0
SOLID
5
113
100
AcDbEntity
8
SK2
62
256
6
ByLayer
370
18
48
1
60
0
100
AcDbTrace
10
71.2288
20
-16.166398
30
0
11
67.728802
21
-16.627182
31
0
12
67.728798
22
-15.705615
32
0
13
67.728798
23
-15.705615
33
0
39
0
210
0
220
0
230
1
0
ENDBLK
5
115
100
AcDbEntity
8
0
100
AcDbBlockEnd
0
BLOCK
5
11A
100
AcDbEntity
8
0
100
AcDbBlockBegin
2
*D3
70
1
10
0
20
0
30
0
3
*D3
0
LINE
5
11C
100
AcDbEntity
8
0
62
256
6
ByLayer
370
-2
48
1
60
0
100
AcDbLine
10
-45
20
-7.5875
30
0
11
-45
21
-36.692985
31
0
39
0
210
0
220
0
230
1
0
LINE
5
11D
100
AcDbEntity
8
0
62
256
6
ByLayer
370
-2
48
1
60
0
100
AcDbLine
10
73
20
-1.5875
30
0
11
73
21
-36.692985
31
0
39
0
210
0
220
0
230
1
0
LINE
5
11E
100
AcDbEntity
8
0
62
256
6
ByLayer
370
-2
48
1
60
0
100
AcDbLine
10
-41.5
20
-34.692985
30
0
11
69.5
21
-34.692985
31
0
39
0
210
0
220
0
230
1
0
SOLID
5
11F
100
AcDbEntity
8
0
62
256
6
ByLayer
370
-1
48
1
60
0
100
AcDbTrace
10
-41.5
20
-34.109652
30
0
11
-41.5
21
-35.276319
31
0
12
-45
22
-34.692985
32
0
13
-45
23
-34.692985
33
0
39
0
210
0
220
0
230
1
0
SOLID
5
120
100
AcDbEntity
8
0
62
256
6
ByLayer
370
-1
48
1
60
0
100
AcDbTrace
10
69.5
20
-35.276319
30
0
11
69.5
21
-34.109652
31
0
12
73
22
-34.692985
32
0
13
73
23
-34.692985
33
0
39
0
210
0
220
0
230
1
0
MTEXT
5
121
100
AcDbEntity
8
0
62
256
6
ByLayer
370
18
48
1
60
0
100
AcDbMText
10
14
20
-27.692985
30
0
210
0
220
0
230
1
1
\A1;118.00
40
3.5
41
0
44
1
50
0
71
5
72
5
7
iso_b_vert
0
POINT
5
122
100
AcDbEntity
8
Defpoints
62
0
6
ByLayer
370
-1
48
1
60
0
100
AcDbPoint
10
-45
20
-6
30
0
39
0
210
0
220
0
230
1
50
360
0
POINT
5
123
100
AcDbEntity
8
Defpoints
62
0
6
ByLayer
370
-1
48
1
60
0
100
AcDbPoint
10
73
20
0
30
0
39
0
210
0
220
0
230
1
50
360
0
POINT
5
124
100
AcDbEntity
8
Defpoints
62
0
6
ByLayer
370
-1
48
1
60
0
100
AcDbPoint
10
73
20
-34.692985
30
0
39
0
210
0
220
0
230
1
50
360
0
ENDBLK
5
11B
100
AcDbEntity
8
0
100
AcDbBlockEnd
0
BLOCK
5
12C
100
AcDbEntity
8
0
100
AcDbBlockBegin
2
_U1
70
0
10
0
20
0
30
0
3
_U1
0
MTEXT
5
126
100
AcDbEntity
8
SK2
62
256
6
ByLayer
370
13
48
1
60
0
100
AcDbMText
10
8.429835
20
-33.660352
30
0
210
0
220
0
230
1
1
\W0.6440;118,00
40
3.5
41
0
44
1.084337
50
0
71
7
72
5
7
iso_b_vert
0
LINE
5
127
100
AcDbEntity
8
SK2
62
256
6
ByLayer
370
13
48
1
60
0
100
AcDbLine
10
-45
20
-7.5875
30
0
11
-45
21
-36.692985
31
0
39
0
210
0
220
0
230
1
0
LINE
5
128
100
AcDbEntity
8
SK2
62
256
6
ByLayer
370
13
48
1
60
0
100
AcDbLine
10
73
20
-1.5875
30
0
11
73
21
-36.692985
31
0
39
0
210
0
220
0
230
1
0
LINE
5
129
100
AcDbEntity
8
SK2
62
256
6
ByLayer
370
13
48
1
60
0
100
AcDbLine
10
-45
20
-34.692985
30
0
11
73
21
-34.692985
31
0
39
0
210
0
220
0
230
1
0
SOLID
5
12A
100
AcDbEntity
8
SK2
62
256
6
ByLayer
370
18
48
1
60
0
100
AcDbTrace
10
-45
20
-34.692985
30
0
11
-41.500002
21
-34.232202
31
0
12
-41.499998
22
-35.153769
32
0
13
-41.499998
23
-35.153769
33
0
39
0
210
0
220
0
230
1
0
SOLID
5
12B
100
AcDbEntity
8
SK2
62
256
6
ByLayer
370
18
48
1
60
0
100
AcDbTrace
10
73
20
-34.692985
30
0
11
69.500002
21
-35.153769
31
0
12
69.499998
22
-34.232202
32
0
13
69.499998
23
-34.232202
33
0
39
0
210
0
220
0
230
1
0
ENDBLK
5
12D
100
AcDbEntity
8
0
100
AcDbBlockEnd
0
BLOCK
5
132
100
AcDbEntity
8
0
100
AcDbBlockBegin
2
*D5
70
1
10
0
20
0
30
0
3
*D5
0
LINE
5
134
100
AcDbEntity
8
0
62
256
6
ByLayer
370
-2
48
1
60
0
100
AcDbLine
10
16.29
20
7.5405
30
0
11
16.29
21
19.562119
31
0
39
0
210
0
220
0
230
1
0
LINE
5
135
100
AcDbEntity
8
0
62
256
6
ByLayer
370
-2
48
1
60
0
100
AcDbLine
10
73
20
1.5875
30
0
11
73
21
19.562119
31
0
39
0
210
0
220
0
230
1
0
LINE
5
136
100
AcDbEntity
8
0
62
256
6
ByLayer
370
-2
48
1
60
0
100
AcDbLine
10
19.79
20
17.562119
30
0
11
69.5
21
17.562119
31
0
39
0
210
0
220
0
230
1
0
SOLID
5
137
100
AcDbEntity
8
0
62
256
6
ByLayer
370
-1
48
1
60
0
100
AcDbTrace
10
19.79
20
18.145453
30
0
11
19.79
21
16.978786
31
0
12
16.29
22
17.562119
32
0
13
16.29
23
17.562119
33
0
39
0
210
0
220
0
230
1
0
SOLID
5
138
100
AcDbEntity
8
0
62
256
6
ByLayer
370
-1
48
1
60
0
100
AcDbTrace
10
69.5
20
16.978786
30
0
11
69.5
21
18.145453
31
0
12
73
22
17.562119
32
0
13
73
23
17.562119
33
0
39
0
210
0
220
0
230
1
0
MTEXT
5
139
100
AcDbEntity
8
0
62
256
6
ByLayer
370
18
48
1
60
0
100
AcDbMText
10
44.645
20
24.562119
30
0
210
0
220
0
230
1
1
\A1;56.71
40
3.5
41
0
44
1
50
0
71
5
72
5
7
iso_b_vert
0
POINT
5
13A
100
AcDbEntity
8
Defpoints
62
0
6
ByLayer
370
-1
48
1
60
0
100
AcDbPoint
10
16.29
20
5.953
30
0
39
0
210
0
220
0
230
1
50
360
0
POINT
5
13B
100
AcDbEntity
8
Defpoints
62
0
6
ByLayer
370
-1
48
1
60
0
100
AcDbPoint
10
73
20
0
30
0
39
0
210
0
220
0
230
1
50
360
0
POINT
5
13C
100
AcDbEntity
8
Defpoints
62
0
6
ByLayer
370
-1
48
1
60
0
100
AcDbPoint
10
73
20
17.562119
30
0
39
0
210
0
220
0
230
1
50
360
0
ENDBLK
5
133
100
AcDbEntity
8
0
100
AcDbBlockEnd
0
BLOCK
5
144
100
AcDbEntity
8
0
100
AcDbBlockBegin
2
_U2
70
0
10
0
20
0
30
0
3
_U2
0
MTEXT
5
13E
100
AcDbEntity
8
SK2
62
256
6
ByLayer
370
13
48
1
60
0
100
AcDbMText
10
39.945135
20
18.594753
30
0
210
0
220
0
230
1
1
\W0.7211;56,71
40
3.5
41
0
44
1.084337
50
0
71
7
72
5
7
iso_b_vert
0
LINE
5
13F
100
AcDbEntity
8
SK2
62
256
6
ByLayer
370
13
48
1
60
0
100
AcDbLine
10
16.29
20
7.5405
30
0
11
16.29
21
19.562119
31
0
39
0
210
0
220
0
230
1
0
LINE
5
140
100
AcDbEntity
8
SK2
62
256
6
ByLayer
370
13
48
1
60
0
100
AcDbLine
10
73
20
1.5875
30
0
11
73
21
19.562119
31
0
39
0
210
0
220
0
230
1
0
LINE
5
141
100
AcDbEntity
8
SK2
62
256
6
ByLayer
370
13
48
1
60
0
100
AcDbLine
10
16.29
20
17.562119
30
0
11
73
21
17.562119
31
0
39
0
210
0
220
0
230
1
0
SOLID
5
142
100
AcDbEntity
8
SK2
62
256
6
ByLayer
370
18
48
1
60
0
100
AcDbTrace
10
16.29
20
17.562119
30
0
11
19.789998
21
18.022903
31
0
12
19.790002
22
17.101335
32
0
13
19.790002
23
17.101335
33
0
39
0
210
0
220
0
230
1
0
SOLID
5
143
100
AcDbEntity
8
SK2
62
256
6
ByLayer
370
18
48
1
60
0
100
AcDbTrace
10
73
20
17.562119
30
0
11
69.500002
21
17.101335
31
0
12
69.499998
22
18.022903
32
0
13
69.499998
23
18.022903
33
0
39
0
210
0
220
0
230
1
0
ENDBLK
5
145
100
AcDbEntity
8
0
100
AcDbBlockEnd
0
BLOCK
5
14A
100
AcDbEntity
8
0
100
AcDbBlockBegin
2
*D7
70
1
10
0
20
0
30
0
3
*D7
0
LINE
5
14C
100
AcDbEntity
8
0
62
256
6
ByLayer
370
-2
48
1
60
0
100
AcDbLine
10
73
20
-1.5875
30
0
11
73
21
-20.755503
31
0
39
0
210
0
220
0
230
1
0
LINE
5
14D
100
AcDbEntity
8
0
62
256
6
ByLayer
370
-2
48
1
60
0
100
AcDbLine
10
71.2288
20
-7.5405
30
0
11
71.2288
21
-20.755503
31
0
39
0
210
0
220
0
230
1
0
LINE
5
14E
100
AcDbEntity
8
0
62
256
6
ByLayer
370
-2
48
1
60
0
100
AcDbLine
10
73
20
-18.755503
30
0
11
100.666667
21
-18.755503
31
0
39
0
210
0
220
0
230
1
0
LINE
5
14F
100
AcDbEntity
8
0
62
256
6
ByLayer
370
-2
48
1
60
0
100
AcDbLine
10
76.5
20
-18.755503
30
0
11
80
21
-18.755503
31
0
39
0
210
0
220
0
230
1
0
LINE
5
150
100
AcDbEntity
8
0
62
256
6
ByLayer
370
-2
48
1
60
0
100
AcDbLine
10
67.7288
20
-18.755503
30
0
11
64.2288
21
-18.755503
31
0
39
0
210
0
220
0
230
1
0
SOLID
5
151
100
AcDbEntity
8
0
62
256
6
ByLayer
370
-1
48
1
60
0
100
AcDbTrace
10
76.5
20
-18.17217
30
0
11
76.5
21
-19.338837
31
0
12
73
22
-18.755503
32
0
13
73
23
-18.755503
33
0
39
0
210
0
220
0
230
1
0
SOLID
5
152
100
AcDbEntity
8
0
62
256
6
ByLayer
370
-1
48
1
60
0
100
AcDbTrace
10
67.7288
20
-19.338837
30
0
11
67.7288
21
-18.17217
31
0
12
71.2288
22
-18.755503
32
0
13
71.2288
23
-18.755503
33
0
39
0
210
0
220
0
230
1
0
MTEXT
5
153
100
AcDbEntity
8
0
62
256
6
ByLayer
370
18
48
1
60
0
100
AcDbMText
10
90.333333
20
-11.755503
30
0
210
0
220
0
230
1
1
\A1;1.77
40
3.5
41
0
44
1
50
0
71
5
72
5
7
iso_b_vert
0
POINT
5
154
100
AcDbEntity
8
Defpoints
62
0
6
ByLayer
370
-1
48
1
60
0
100
AcDbPoint
10
73
20
0
30
0
39
0
210
0
220
0
230
1
50
360
0
POINT
5
155
100
AcDbEntity
8
Defpoints
62
0
6
ByLayer
370
-1
48
1
60
0
100
AcDbPoint
10
71.2288
20
-5.953
30
0
39
0
210
0
220
0
230
1
50
360
0
POINT
5
156
100
AcDbEntity
8
Defpoints
62
0
6
ByLayer
370
-1
48
1
60
0
100
AcDbPoint
10
71.2288
20
-18.755503
30
0
39
0
210
0
220
0
230
1
50
360
0
ENDBLK
5
14B
100
AcDbEntity
8
0
100
AcDbBlockEnd
0
BLOCK
5
15E
100
AcDbEntity
8
0
100
AcDbBlockBegin
2
_U3
70
0
10
0
20
0
30
0
3
_U3
0
MTEXT
5
158
100
AcDbEntity
8
SK2
62
256
6
ByLayer
370
13
48
1
60
0
100
AcDbMText
10
79.589293
20
-17.72287
30
0
210
0
220
0
230
1
1
\W0.6367;1,77
40
3.5
41
0
44
1.084337
50
0
71
7
72
5
7
iso_b_vert
0
LINE
5
159
100
AcDbEntity
8
SK2
62
256
6
ByLayer
370
13
48
1
60
0
100
AcDbLine
10
73
20
-1.5875
30
0
11
73
21
-20.755503
31
0
39
0
210
0
220
0
230
1
0
LINE
5
15A
100
AcDbEntity
8
SK2
62
256
6
ByLayer
370
13
48
1
60
0
100
AcDbLine
10
71.2288
20
-7.5405
30
0
11
71.2288
21
-20.755503
31
0
39
0
210
0
220
0
230
1
0
LINE
5
15B
100
AcDbEntity
8
SK2
62
256
6
ByLayer
370
13
48
1
60
0
100
AcDbLine
10
62.4788
20
-18.755503
30
0
11
86.559058
21
-18.755503
31
0
39
0
210
0
220
0
230
1
0
SOLID
5
15C
100
AcDbEntity
8
SK2
62
256
6
ByLayer
370
18
48
1
60
0
100
AcDbTrace
10
73
20
-18.755503
30
0
11
76.499998
21
-18.294719
31
0
12
76.500002
22
-19.216287
32
0
13
76.500002
23
-19.216287
33
0
39
0
210
0
220
0
230
1
0
SOLID
5
15D
100
AcDbEntity
8
SK2
62
256
6
ByLayer
370
18
48
1
60
0
100
AcDbTrace
10
71.2288
20
-18.755503
30
0
11
67.728802
21
-19.216287
31
0
12
67.728798
22
-18.294719
32
0
13
67.728798
23
-18.294719
33
0
39
0
210
0
220
0
230
1
0
ENDBLK
5
15F
100
AcDbEntity
8
0
100
AcDbBlockEnd
0
BLOCK
5
164
100
AcDbEntity
8
0
100
AcDbBlockBegin
2
*D9
70
1
10
0
20
0
30
0
3
*D9
0
LINE
5
166
100
AcDbEntity
8
0
62
256
6
ByLayer
370
-2
48
1
60
0
100
AcDbLine
10
-45
20
-7.5875
30
0
11
-45
21
-26.343428
31
0
39
0
210
0
220
0
230
1
0
LINE
5
167
100
AcDbEntity
8
0
62
256
6
ByLayer
370
-2
48
1
60
0
100
AcDbLine
10
71.2288
20
-7.5405
30
0
11
71.2288
21
-26.343428
31
0
39
0
210
0
220
0
230
1
0
LINE
5
168
100
AcDbEntity
8
0
62
256
6
ByLayer
370
-2
48
1
60
0
100
AcDbLine
10
-41.5
20
-24.343428
30
0
11
67.7288
21
-24.343428
31
0
39
0
210
0
220
0
230
1
0
SOLID
5
169
100
AcDbEntity
8
0
62
256
6
ByLayer
370
-1
48
1
60
0
100
AcDbTrace
10
-41.5
20
-23.760095
30
0
11
-41.5
21
-24.926762
31
0
12
-45
22
-24.343428
32
0
13
-45
23
-24.343428
33
0
39
0
210
0
220
0
230
1
0
SOLID
5
16A
100
AcDbEntity
8
0
62
256
6
ByLayer
370
-1
48
1
60
0
100
AcDbTrace
10
67.7288
20
-24.926762
30
0
11
67.7288
21
-23.760095
31
0
12
71.2288
22
-24.343428
32
0
13
71.2288
23
-24.343428
33
0
39
0
210
0
220
0
230
1
0
MTEXT
5
16B
100
AcDbEntity
8
0
62
256
6
ByLayer
370
18
48
1
60
0
100
AcDbMText
10
13.1144
20
-17.343428
30
0
210
0
220
0
230
1
1
\A1;116.23
40
3.5
41
0
44
1
50
0
71
5
72
5
7
iso_b_vert
0
POINT
5
16C
100
AcDbEntity
8
Defpoints
62
0
6
ByLayer
370
-1
48
1
60
0
100
AcDbPoint
10
-45
20
-6
30
0
39
0
210
0
220
0
230
1
50
360
0
POINT
5
16D
100
AcDbEntity
8
Defpoints
62
0
6
ByLayer
370
-1
48
1
60
0
100
AcDbPoint
10
71.2288
20
-5.953
30
0
39
0
210
0
220
0
230
1
50
360
0
POINT
5
16E
100
AcDbEntity
8
Defpoints
62
0
6
ByLayer
370
-1
48
1
60
0
100
AcDbPoint
10
71.2288
20
-24.343428
30
0
39
0
210
0
220
0
230
1
50
360
0
ENDBLK
5
165
100
AcDbEntity
8
0
100
AcDbBlockEnd
0
BLOCK
5
176
100
AcDbEntity
8
0
100
AcDbBlockBegin
2
_U4
70
0
10
0
20
0
30
0
3
_U4
0
MTEXT
5
170
100
AcDbEntity
8
SK2
62
256
6
ByLayer
370
13
48
1
60
0
100
AcDbMText
10
7.544235
20
-23.310795
30
0
210
0
220
0
230
1
1
\W0.6440;116,23
40
3.5
41
0
44
1.084337
50
0
71
7
72
5
7
iso_b_vert
0
LINE
5
171
100
AcDbEntity
8
SK2
62
256
6
ByLayer
370
13
48
1
60
0
100
AcDbLine
10
-45
20
-7.5875
30
0
11
-45
21
-26.343428
31
0
39
0
210
0
220
0
230
1
0
LINE
5
172
100
AcDbEntity
8
SK2
62
256
6
ByLayer
370
13
48
1
60
0
100
AcDbLine
10
71.2288
20
-7.5405
30
0
11
71.2288
21
-26.343428
31
0
39
0
210
0
220
0
230
1
0
LINE
5
173
100
AcDbEntity
8
SK2
62
256
6
ByLayer
370
13
48
1
60
0
100
AcDbLine
10
-45
20
-24.343428
30
0
11
71.2288
21
-24.343428
31
0
39
0
210
0
220
0
230
1
0
SOLID
5
174
100
AcDbEntity
8
SK2
62
256
6
ByLayer
370
18
48
1
60
0
100
AcDbTrace
10
-45
20
-24.343428
30
0
11
-41.500002
21
-23.882645
31
0
12
-41.499998
22
-24.804212
32
0
13
-41.499998
23
-24.804212
33
0
39
0
210
0
220
0
230
1
0
SOLID
5
175
100
AcDbEntity
8
SK2
62
256
6
ByLayer
370
18
48
1
60
0
100
AcDbTrace
10
71.2288
20
-24.343428
30
0
11
67.728802
21
-24.804212
31
0
12
67.728798
22
-23.882645
32
0
13
67.728798
23
-23.882645
33
0
39
0
210
0
220
0
230
1
0
ENDBLK
5
177
100
AcDbEntity
8
0
100
AcDbBlockEnd
0
ENDSEC
0
SECTION
2
ENTITIES
0
ELLIPSE
5
AA
100
AcDbEntity
8
1
62
256
6
ByLayer
370
13
48
1
60
0
100
AcDbEllipse
10
4.177544
20
-5.695577
30
0
11
-0.0437721378584194
21
0.0899110668789084
31
0
210
0
220
0
230
1
40
0.476071
41
0.112588954437157
42
1.43584438805174
0
ELLIPSE
5
AB
100
AcDbEntity
8
1
62
256
6
ByLayer
370
13
48
1
60
0
100
AcDbEllipse
10
4.250186
20
-5.681374
30
0
11
0.00593781957775631
21
0.0998235558305855
31
0
210
0
220
0
230
1
40
0.479002
41
0.120979907205591
42
1.67887345247193
0
POINT
5
70
100
AcDbEntity
8
80
62
256
6
ByLayer
370
18
48
1
60
0
100
AcDbPoint
10
0
20
0
30
0
39
0
210
0
220
0
230
1
50
360
0
POINT
5
72
100
AcDbEntity
8
81
62
256
6
ByLayer
370
18
48
1
60
0
100
AcDbPoint
10
73
20
0
30
0
39
0
210
0
220
0
230
1
50
360
0
POINT
5
74
100
AcDbEntity
8
1
62
256
6
ByLayer
370
18
48
1
60
1
100
AcDbPoint
10
71.2288
20
-5.953
30
0
39
0
210
0
220
0
230
1
50
360
0
POINT
5
76
100
AcDbEntity
8
1
62
256
6
ByLayer
370
18
48
1
60
1
100
AcDbPoint
10
-45
20
-6
30
0
39
0
210
0
220
0
230
1
50
360
0
POINT
5
77
100
AcDbEntity
8
1
62
256
6
ByLayer
370
18
48
1
60
1
100
AcDbPoint
10
16.29
20
5.953
30
0
39
0
210
0
220
0
230
1
50
360
0
POINT
5
78
100
AcDbEntity
8
1
62
256
6
ByLayer
370
18
48
1
60
1
100
AcDbPoint
10
71.2288
20
-5.953
30
0
39
0
210
0
220
0
230
1
50
360
0
POINT
5
79
100
AcDbEntity
8
1
62
256
6
ByLayer
370
18
48
1
60
1
100
AcDbPoint
10
-45
20
-6
30
0
39
0
210
0
220
0
230
1
50
360
0
POINT
5
7A
100
AcDbEntity
8
1
62
256
6
ByLayer
370
18
48
1
60
1
100
AcDbPoint
10
71.2288
20
-5.953
30
0
39
0
210
0
220
0
230
1
50
360
0
SPLINE
5
AC
100
AcDbEntity
8
1
62
256
6
ByLayer
370
18
48
1
60
0
100
AcDbSpline
70
4
71
3
72
14
73
10
40
0
40
0
40
0
40
0
40
0.314316806412957
40
0.314316806412957
40
0.471475209619436
40
0.471475209619436
40
0.628633612825914
40
0.628633612825914
40
1
40
1
40
1
40
1
41
1
10
70.9839199848955
20
-5.65241191058027
30
0
41
1
10
70.2846761937239
20
-5.6641544004388
30
0
41
1
10
69.5868906115639
20
-5.63726351310788
30
0
41
1
10
68.5380869966776
20
-5.54000459064969
30
0
41
1
10
68.1874769791006
20
-5.49799456907743
30
0
41
1
10
67.4891500241991
20
-5.3958972416516
30
0
41
1
10
67.1412314180973
20
-5.33583335287238
30
0
41
1
10
65.974057840785
20
-5.10474328788229
30
0
41
1
10
65.1585222566628
20
-4.8940332263978
30
0
41
1
10
64.3424746570838
20
-4.64036992181536
30
0
0
SPLINE
5
AD
100
AcDbEntity
8
1
62
256
6
ByLayer
370
13
48
1
60
0
100
AcDbSpline
70
4
71
3
72
26
73
22
40
0
40
0
40
0
40
0
40
0.123026781159943
40
0.123026781159943
40
0.19818088238048
40
0.19818088238048
40
0.235757932990747
40
0.235757932990747
40
0.273334983601014
40
0.273334983601014
40
0.42364318604209
40
0.42364318604209
40
0.724259590924241
40
0.724259590924241
40
0.761836641534512
40
0.761836641534512
40
0.799413692144783
40
0.799413692144783
40
0.874567793365322
40
0.874567793365322
40
1
40
1
40
1
40
1
41
1
10
64.3424751273641
20
-4.64037006799907
30
0
41
1
10
63.7771510502286
20
-4.4646426173631
30
0
41
1
10
63.2115812498578
20
-4.268301276823
30
0
41
1
10
62.2973979683765
20
-3.92169573318139
30
0
41
1
10
61.9499946471977
20
-3.78323583980361
30
0
41
1
10
61.4271944502327
20
-3.5656363680539
30
0
41
1
10
61.2526430097709
20
-3.49145183776531
30
0
41
1
10
60.9028908463509
20
-3.3398818617633
30
0
41
1
10
60.7276377977262
20
-3.26246645540076
30
0
41
1
10
59.8541078324552
20
-2.86985573956136
30
0
41
1
10
59.1603049353577
20
-2.53658905857725
30
0
41
1
10
57.0843664781477
20
-1.4965469914959
30
0
41
1
10
55.7080482496766
20
-0.748707559228706
30
0
41
1
10
54.1403213199563
20
0.102992326713263
30
0
41
1
10
53.9658573839217
20
0.197761984259017
30
0
41
1
10
53.6162727808509
20
0.387370062733794
30
0
41
1
10
53.4409488138674
20
0.48231797693731
30
0
41
1
10
52.9163363081253
20
0.765596608139504
30
0
41
1
10
52.5679065612744
20
0.952771429099528
30
0
41
1
10
51.6404232370721
20
1.44622011650929
30
0
41
1
10
51.0627393385184
20
1.74773346486222
30
0
41
1
10
50.4858433374454
20
2.03968473362653
30
0
0
SPLINE
5
AE
100
AcDbEntity
8
1
62
256
6
ByLayer
370
18
48
1
60
0
100
AcDbSpline
70
4
71
3
72
10
73
6
40
0
40
0
40
0
40
0
40
0.0019961472387393
40
0.0019961472387393
40
1
40
1
40
1
40
1
41
1
10
5.3036557497206
20
-5.61442997617084
30
0
41
1
10
5.30295494693434
20
-5.61442768427608
30
0
41
1
10
5.30225414659535
20
-5.61442535375133
30
0
41
1
10
4.95117890227385
20
-5.61323848944033
30
0
41
1
10
4.60087690511989
20
-5.60243036389795
30
0
41
1
10
4.25030929134346
20
-5.58193701786837
30
0
0
SPLINE
5
AF
100
AcDbEntity
8
1
62
256
6
ByLayer
370
13
48
1
60
0
100
AcDbSpline
70
4
71
3
72
12
73
8
40
0
40
0
40
0
40
0
40
0.500000000000016
40
0.500000000000016
40
0.750000000000008
40
0.750000000000008
40
1
40
1
40
1
40
1
41
1
10
3.99999982269338
20
-5.81005889843902
30
0
41
1
10
3.99999982269341
20
-5.78975023285975
30
0
41
1
10
4.01129471468187
20
-5.7687404616151
30
0
41
1
10
4.04379346593282
20
-5.74118214965685
30
0
41
1
10
4.05747107621602
20
-5.73238582395075
30
0
41
1
10
4.08980898572912
20
-5.7166805828688
30
0
41
1
10
4.10821633415526
20
-5.70981797000667
30
0
41
1
10
4.12923961116002
20
-5.70412918149935
30
0
0
SPLINE
5
B0
100
AcDbEntity
8
1
62
256
6
ByLayer
370
13
48
1
60
0
100
AcDbSpline
70
4
71
3
72
32
73
28
40
0
40
0
40
0
40
0
40
0.125
40
0.125
40
0.1875
40
0.1875
40
0.25
40
0.3125
40
0.3125
40
0.375
40
0.375
40
0.5
40
0.5
40
0.5625
40
0.5625
40
0.625
40
0.625
40
0.6875
40
0.6875
40
0.75
40
0.8125
40
0.8125
40
0.84375
40
0.84375
40
0.875
40
0.875
40
1
40
1
40
1
40
1
41
1
10
4.25030929134351
20
-5.58193701786837
30
0
41
1
10
4.25038013895335
20
-5.54097474460568
30
0
41
1
10
4.25044261689405
20
-5.46116964887955
30
0
41
1
10
4.25052841262612
20
-5.2835238144929
30
0
41
1
10
4.2505555091175
20
-5.21484277952882
30
0
41
1
10
4.2506068988869
20
-5.06072726831661
30
0
41
1
10
4.25065569911993
20
-4.88942535572823
30
0
41
1
10
4.2507008904079
20
-4.68409597950236
30
0
41
1
10
4.25074496267911
20
-4.46138894666748
30
0
41
1
10
4.25076651555523
20
-4.34078052523819
30
0
41
1
10
4.25082903164304
20
-3.96057076585041
30
0
41
1
10
4.25086838098781
20
-3.68082666323284
30
0
41
1
10
4.25092676242792
20
-3.22209854701933
30
0
41
1
10
4.25094617343092
20
-3.06195291645784
30
0
41
1
10
4.25098461738622
20
-2.73131858321307
30
0
41
1
10
4.25100359437963
20
-2.56138237346787
30
0
41
1
10
4.25104116713288
20
-2.21229353984583
30
0
41
1
10
4.2510597791192
20
-2.03291646709238
30
0
41
1
10
4.25109597730955
20
-1.67066622700361
30
0
41
1
10
4.25113130078347
20
-1.30354827112478
30
0
41
1
10
4.25116446650188
20
-0.92680048937703
30
0
41
1
10
4.25118823619383
20
-0.640553151983141
30
0
41
1
10
4.25119599358294
20
-0.544259280442446
30
0
41
1
10
4.2512109351029
20
-0.352150029554082
30
0
41
1
10
4.25121812625292
20
-0.256268628617988
30
0
41
1
10
4.2512525440163
20
0.222288639148985
30
0
41
1
10
4.25127526871071
20
0.602441599361299
30
0
41
1
10
4.25129054111037
20
0.97989456042572
30
0
0
SPLINE
5
B1
100
AcDbEntity
8
1
62
256
6
ByLayer
370
18
48
1
60
0
100
AcDbSpline
70
4
71
3
72
8
73
4
40
0
40
0
40
0
40
0
40
1
40
1
40
1
40
1
41
1
10
72.9893659850616
20
-0.125086011214734
30
0
41
1
10
72.9900175093366
20
-0.103174847608813
30
0
41
1
10
72.9940491164202
20
-0.0763919497852044
30
0
41
1
10
72.9999632513997
20
-0.0481985952277171
30
0
0
SPLINE
5
B2
100
AcDbEntity
8
1
62
256
6
ByLayer
370
18
48
1
60
0
100
AcDbSpline
70
4
71
3
72
8
73
4
40
0
40
0
40
0
40
0
40
1
40
1
40
1
40
1
41
1
10
3.99999982269338
20
0.987049218615681
30
0
41
1
10
3.99999982269338
20
0.996731872879764
30
0
41
1
10
3.99999982269338
20
1.00651215050493
30
0
41
1
10
3.99999982269338
20
1.01638983002934
30
0
0
SPLINE
5
B3
100
AcDbEntity
8
1
62
256
6
ByLayer
370
18
48
1
60
0
100
AcDbSpline
70
4
71
3
72
8
73
4
40
0
40
0
40
0
40
0
40
1
40
1
40
1
40
1
41
1
10
72.9644024602369
20
-0.0409242576248516
30
0
41
1
10
72.0943102971223
20
-1.46390578026708
30
0
41
1
10
71.2795530880159
20
-2.93713903465826
30
0
41
1
10
70.5220911130827
20
-4.46240422419393
30
0
0
SPLINE
5
B4
100
AcDbEntity
8
1
62
256
6
ByLayer
370
18
48
1
60
0
100
AcDbSpline
70
4
71
3
72
10
73
6
40
0
40
0
40
0
40
0
40
0.5
40
0.5
40
1
40
1
40
1
40
1
41
1
10
71.0060743778099
20
1.38055710423691
30
0
41
1
10
71.3270384354016
20
1.37113602515132
30
0
41
1
10
71.64802549082
20
1.36149545063185
30
0
41
1
10
72.2899049673733
20
1.34311750838157
30
0
41
1
10
72.6108044593458
20
1.33431265529316
30
0
41
1
10
72.9314627238014
20
1.32781012144025
30
0
0
SPLINE
5
B5
100
AcDbEntity
8
1
62
256
6
ByLayer
370
18
48
1
60
0
100
AcDbSpline
70
4
71
3
72
8
73
4
40
0
40
0
40
0
40
0
40
1
40
1
40
1
40
1
41
1
10
71.2094088116118
20
5.78935870062557
30
0
41
1
10
71.0921566963805
20
5.87706060870519
30
0
41
1
10
70.9868162331231
20
5.93080523778903
30
0
41
1
10
70.8929494400966
20
5.94735532077985
30
0
0
SPLINE
5
B6
100
AcDbEntity
8
1
62
256
6
ByLayer
370
18
48
1
60
0
100
AcDbSpline
70
4
71
3
72
66
73
62
40
0
40
0
40
0
40
0
40
0.0624999999999957
40
0.0624999999999957
40
0.0937499999999931
40
0.0937499999999931
40
0.12499999999999
40
0.12499999999999
40
0.156249999999988
40
0.156249999999988
40
0.171874999999986
40
0.171874999999986
40
0.187499999999985
40
0.187499999999985
40
0.203124999999983
40
0.203124999999983
40
0.218749999999981
40
0.218749999999981
40
0.23437499999998
40
0.23437499999998
40
0.249999999999978
40
0.249999999999978
40
0.265624999999977
40
0.265624999999977
40
0.281249999999975
40
0.281249999999975
40
0.312499999999973
40
0.312499999999973
40
0.328124999999971
40
0.328124999999971
40
0.34374999999997
40
0.34374999999997
40
0.374999999999967
40
0.374999999999967
40
0.378906249999967
40
0.378906249999967
40
0.382812499999968
40
0.382812499999968
40
0.384765624999967
40
0.384765624999967
40
0.386718749999967
40
0.386718749999967
40
0.390624999999968
40
0.390624999999968
40
0.394531249999968
40
0.394531249999968
40
0.398437499999969
40
0.406249999999969
40
0.437499999999971
40
0.437499999999971
40
0.499999999999975
40
0.499999999999975
40
0.562499999999978
40
0.562499999999978
40
0.624999999999982
40
0.624999999999982
40
0.749999999999988
40
0.749999999999988
40
0.874999999999994
40
0.874999999999994
40
1
40
1
40
1
40
1
41
1
10
3.99999982268992
20
0.987049218617642
30
0
41
1
10
3.73012963199474
20
1.20352367636585
30
0
41
1
10
3.46774122271117
20
1.42679958444666
30
0
41
1
10
3.09312845497513
20
1.77983604314323
30
0
41
1
10
2.97085702722876
20
1.90126993336665
30
0
41
1
10
2.73888620693961
20
2.14903819462611
30
0
41
1
10
2.62924290816716
20
2.27519382739374
30
0
41
1
10
2.42717012173875
20
2.53407622522343
30
0
41
1
10
2.33464363271008
20
2.66676010748373
30
0
41
1
10
2.21471765105605
20
2.87335821819684
30
0
41
1
10
2.17773783921831
20
2.94391537685118
30
0
41
1
10
2.11274374546011
20
3.08636074600975
30
0
41
1
10
2.08493003683856
20
3.15770696724491
30
0
41
1
10
2.04014218732735
20
3.30079655151184
30
0
41
1
10
2.0231541417358
20
3.37253757741681
30
0
41
1
10
2.00194720008398
20
3.5166088643015
30
0
41
1
10
1.99799895892607
20
3.58757161944911
30
0
41
1
10
2.00392526021705
20
3.72575000903234
30
0
41
1
10
2.01376143797756
20
3.79323332147487
30
0
41
1
10
2.04758135022664
20
3.92504434383835
30
0
41
1
10
2.07176986127846
20
3.98944235165754
30
0
41
1
10
2.13194420138359
20
4.11077379084247
30
0
41
1
10
2.16804634697499
20
4.16835326297829
30
0
41
1
10
2.25101051439592
20
4.2781404254925
30
0
41
1
10
2.29809174643427
20
4.33047393244851
30
0
41
1
10
2.44982741482173
20
4.47685847988834
30
0
41
1
10
2.56574123285381
20
4.56197416768401
30
0
41
1
10
2.75541392693063
20
4.67695852242889
30
0
41
1
10
2.82151008025085
20
4.71321860274901
30
0
41
1
10
2.95719787216495
20
4.78148458245297
30
0
41
1
10
3.02681297594137
20
4.81352512058135
30
0
41
1
10
3.24019840006849
20
4.90443066564521
30
0
41
1
10
3.38870609200876
20
4.95820483723332
30
0
41
1
10
3.56026143586706
20
5.01280393926234
30
0
41
1
10
3.57942655375126
20
5.01875220876502
30
0
41
1
10
3.61767383967455
20
5.03066699543862
30
0
41
1
10
3.63679456467145
20
5.03664122205592
30
0
41
1
10
3.66591845701461
20
5.04501702992181
30
0
41
1
10
3.67573026759973
20
5.04765162515039
30
0
41
1
10
3.69608821604268
20
5.05185150570796
30
0
41
1
10
3.70652936714953
20
5.05356911163159
30
0
41
1
10
3.73846467139452
20
5.0578355627357
30
0
41
1
10
3.7607816313008
20
5.05951101339431
30
0
41
1
10
3.80496854363409
20
5.06064340905544
30
0
41
1
10
3.82703129670091
20
5.0602607609562
30
0
41
1
10
3.87116828136902
20
5.05985017292815
30
0
41
1
10
3.93737183444259
20
5.05917471330338
30
0
41
1
10
4.1800979298489
20
5.05604201360134
30
0
41
1
10
4.40068899309247
20
5.05121247294557
30
0
41
1
10
4.92932180098376
20
5.03581708393313
30
0
41
1
10
5.28091968241807
20
5.02048862640675
30
0
41
1
10
5.98250922479303
20
4.97923188074407
30
0
41
1
10
6.3327559836431
20
4.9532559313555
30
0
41
1
10
7.02647800377079
20
4.89034255615613
30
0
41
1
10
7.37059817724196
20
4.85337321984363
30
0
41
1
10
8.39509201681619
20
4.7247347683583
30
0
41
1
10
9.06754338350001
20
4.61527643690451
30
0
41
1
10
10.3939497915406
20
4.341951852769
30
0
41
1
10
11.0478784130277
20
4.17793261051048
30
0
41
1
10
12.3413885013956
20
3.79099240840043
30
0
41
1
10
12.9810016810265
20
3.56805211663664
30
0
41
1
10
13.6163983449672
20
3.31648242243216
30
0
0
SPLINE
5
B7
100
AcDbEntity
8
1
62
256
6
ByLayer
370
18
48
1
60
0
100
AcDbSpline
70
4
71
3
72
24
73
20
40
0
40
0
40
0
40
0
40
0.125
40
0.125
40
0.1875
40
0.1875
40
0.25
40
0.25
40
0.375
40
0.375
40
0.5
40
0.5
40
0.625
40
0.625
40
0.75
40
0.75
40
0.875
40
0.875
40
1
40
1
40
1
40
1
41
1
10
4.25129054310651
20
0.979894559537598
30
0
41
1
10
4.60417910222017
20
0.684639415656818
30
0
41
1
10
4.97088299643315
20
0.406098853614765
30
0
41
1
10
5.53259258296268
20
0.0019670163445369
30
0
41
1
10
5.72186191954057
20
-0.130350133390067
30
0
41
1
10
6.10369755019795
20
-0.391160574991574
30
0
41
1
10
6.2966016338849
20
-0.519867072161929
30
0
41
1
10
6.87633707417319
20
-0.89909299884016
30
0
41
1
10
7.264402946752
20
-1.14299440641827
30
0
41
1
10
8.04264014464314
20
-1.61675500280003
30
0
41
1
10
8.43280187613448
20
-1.84683846717351
30
0
41
1
10
9.21576728063192
20
-2.29140908647275
30
0
41
1
10
9.60855012861134
20
-2.50624957951175
30
0
41
1
10
10.3981193215659
20
-2.91998009587954
30
0
41
1
10
10.7950785274859
20
-3.1185661166879
30
0
41
1
10
11.5950437947683
20
-3.49548613852744
30
0
41
1
10
11.9958059587162
20
-3.67330704206418
30
0
41
1
10
12.8018633214905
20
-4.00451764793405
30
0
41
1
10
13.2071074746916
20
-4.15739304464191
30
0
41
1
10
13.6163983449671
20
-4.2971626065378
30
0
0
SPLINE
5
B8
100
AcDbEntity
8
1
62
256
6
ByLayer
370
18
48
1
60
0
100
AcDbSpline
70
4
71
3
72
14
73
10
40
0
40
0
40
0
40
0
40
0.25
40
0.25
40
0.5
40
0.5
40
0.75
40
0.75
40
1
40
1
40
1
40
1
41
1
10
70.9839199847598
20
-5.65241191058254
30
0
41
1
10
70.9873264437761
20
-5.65196845518417
30
0
41
1
10
70.9901110272364
20
-5.65316629339068
30
0
41
1
10
70.9940167571223
20
-5.65993478179885
30
0
41
1
10
70.9950882592357
20
-5.66557823337899
30
0
41
1
10
70.9942946892551
20
-5.68248156488681
30
0
41
1
10
70.9923413835036
20
-5.69380781120122
30
0
41
1
10
70.9853292367275
20
-5.71966810178844
30
0
41
1
10
70.9803694401679
20
-5.73386648883769
30
0
41
1
10
70.9749221827731
20
-5.74721473473019
30
0
0
SPLINE
5
B9
100
AcDbEntity
8
1
62
256
6
ByLayer
370
18
48
1
60
0
100
AcDbSpline
70
4
71
3
72
48
73
44
40
0
40
0
40
0
40
0
40
0.0315080759907269
40
0.0315080759907269
40
0.0630161519814538
40
0.0630161519814538
40
0.126032303962907
40
0.126032303962907
40
0.252064607925812
40
0.252064607925812
40
0.28357268391654
40
0.28357268391654
40
0.315080759907267
40
0.315080759907267
40
0.346588835897994
40
0.346588835897994
40
0.378096911888721
40
0.378096911888721
40
0.504129215851632
40
0.504129215851632
40
0.567145367833087
40
0.567145367833087
40
0.598653443823815
40
0.598653443823815
40
0.630161519814543
40
0.630161519814543
40
0.661669595805271
40
0.661669595805271
40
0.693177671795999
40
0.693177671795999
40
0.756193823777455
40
0.756193823777455
40
0.787701899768182
40
0.787701899768182
40
0.819209975758909
40
0.819209975758909
40
0.882226127740364
40
0.882226127740364
40
0.945242279721819
40
0.945242279721819
40
0.976750355712547
40
0.976750355712547
40
1
40
1
40
1
40
1
41
1
10
70.8929494400966
20
-5.94735532077979
30
0
41
1
10
70.5438540604102
20
-5.95569910470672
30
0
41
1
10
70.1948378482768
20
-5.95394678295293
30
0
41
1
10
69.4961946256693
20
-5.93030373659045
30
0
41
1
10
69.1461877534121
20
-5.90834390233451
30
0
41
1
10
68.1015038055413
20
-5.81311194597609
30
0
41
1
10
67.4098413962249
20
-5.71053831837773
30
0
41
1
10
65.3394044083765
20
-5.29299850119321
30
0
41
1
10
63.9647597976376
20
-4.86837968871552
30
0
41
1
10
62.2199273580674
20
-4.18110883928461
30
0
41
1
10
61.8699030544458
20
-4.03592735313944
30
0
41
1
10
61.1720881158197
20
-3.73333315382578
30
0
41
1
10
60.8236125474098
20
-3.57562396402068
30
0
41
1
10
60.1266074987695
20
-3.24868557936364
30
0
41
1
10
59.7780596913625
20
-3.0794834192449
30
0
41
1
10
59.0799956105128
20
-2.73088551351196
30
0
41
1
10
58.7297744768676
20
-2.55111274718854
30
0
41
1
10
56.9861995756448
20
-1.63614155158459
30
0
41
1
10
55.6117411060993
20
-0.851177505009758
30
0
41
1
10
53.5398823540193
20
0.333522971893245
30
0
41
1
10
52.8475155719181
20
0.729532101931142
30
0
41
1
10
51.8015925373726
20
1.31679251297706
30
0
41
1
10
51.4513110128487
20
1.51143277656229
30
0
41
1
10
50.7530020373931
20
1.89354095907888
30
0
41
1
10
50.4043631268062
20
2.08151012978246
30
0
41
1
10
49.7072407833725
20
2.44984424142052
30
0
41
1
10
49.3587041728222
20
2.63012159748558
30
0
41
1
10
48.6607062172082
20
2.98134257088989
30
0
41
1
10
48.3108881471583
20
3.15261023835703
30
0
41
1
10
47.2623059873777
20
3.64924892030629
30
0
41
1
10
46.5656435554155
20
3.95641902086766
30
0
41
1
10
45.5192896171488
20
4.37488922939312
30
0
41
1
10
45.1702691217329
20
4.50731593916066
30
0
41
1
10
44.4708092216199
20
4.75683282701027
30
0
41
1
10
44.1216826913525
20
4.8734725477164
30
0
41
1
10
43.0787308966407
20
5.1969065234095
30
0
41
1
10
42.3875954685311
20
5.37768041829739
30
0
41
1
10
41.0070652951464
20
5.66577974388454
30
0
41
1
10
40.3175777103357
20
5.77304895469712
30
0
41
1
10
39.279707113389
20
5.87608424304457
30
0
41
1
10
38.9331269723401
20
5.90077599818557
30
0
41
1
10
38.3289731109082
20
5.92650841167807
30
0
41
1
10
38.0717265050893
20
5.93205004603109
30
0
41
1
10
37.8139437512635
20
5.93211902010108
30
0
0
SPLINE
5
BA
100
AcDbEntity
8
1
62
256
6
ByLayer
370
18
48
1
60
0
100
AcDbSpline
70
4
71
3
72
12
73
8
40
0
40
0
40
0
40
0
40
0.0241519170303605
40
0.0241519170303605
40
0.51207595851518
40
0.51207595851518
40
1
40
1
40
1
40
1
41
1
10
8.40688798338456
20
-5.62534058085615
30
0
41
1
10
8.37237331135293
20
-5.63137679768369
30
0
41
1
10
8.33786569135057
20
-5.63731846888035
30
0
41
1
10
7.60636897709293
20
-5.7612875496462
30
0
41
1
10
6.91215918878572
20
-5.8409337983864
30
0
41
1
10
5.52212093248144
20
-5.92129571202813
30
0
41
1
10
4.82617511268859
20
-5.92206956333499
30
0
41
1
10
4.12633366563387
20
-5.88254864798276
30
0
0
SPLINE
5
BB
100
AcDbEntity
8
1
62
256
6
ByLayer
370
18
48
1
60
0
100
AcDbSpline
70
4
71
3
72
12
73
8
40
0
40
0
40
0
40
0
40
0.500000000000019
40
0.500000000000019
40
0.750000000000009
40
0.750000000000009
40
1
40
1
40
1
40
1
41
1
10
3.99999982269335
20
-5.81005889843902
30
0
41
1
10
3.99999982269335
20
-5.77128091437092
30
0
41
1
10
4.01127157388461
20
-5.73123468035544
30
0
41
1
10
4.04377112554235
20
-5.6788288000904
30
0
41
1
10
4.05745470930248
20
-5.66212187630683
30
0
41
1
10
4.08980656444686
20
-5.63233168358619
30
0
41
1
10
4.10822012053305
20
-5.61933670110065
30
0
41
1
10
4.12923961115999
20
-5.60857633143272
30
0
0
SPLINE
5
BC
100
AcDbEntity
8
1
62
256
6
ByLayer
370
13
48
1
60
0
100
AcDbSpline
70
4
71
3
72
8
73
4
40
0
40
0
40
0
40
0
40
1
40
1
40
1
40
1
41
1
10
4.12633366563387
20
-5.88254864798262
30
0
41
1
10
4.12729151758202
20
-5.82307647486383
30
0
41
1
10
4.12826014534602
20
-5.76360333403912
30
0
41
1
10
4.12923961115999
20
-5.70412918149933
30
0
0
SPLINE
5
BD
100
AcDbEntity
8
1
62
256
6
ByLayer
370
18
48
1
60
0
100
AcDbSpline
70
4
71
3
72
88
73
84
40
0
40
0
40
0
40
0
40
0.017613930289135
40
0.017613930289135
40
0.0397977298298716
40
0.0397977298298716
40
0.0841653289113449
40
0.0841653289113449
40
0.106349128452081
40
0.106349128452081
40
0.128532927992818
40
0.128532927992818
40
0.150716727533555
40
0.150716727533555
40
0.172900527074291
40
0.172900527074291
40
0.195084326615028
40
0.195084326615028
40
0.217268126155765
40
0.217268126155765
40
0.261635725237238
40
0.261635725237238
40
0.306003324318713
40
0.306003324318713
40
0.328187123859449
40
0.328187123859449
40
0.350370923400186
40
0.350370923400186
40
0.372554722940923
40
0.372554722940923
40
0.394738522481659
40
0.394738522481659
40
0.416922322022396
40
0.416922322022396
40
0.439106121563132
40
0.439106121563132
40
0.483473720644605
40
0.483473720644605
40
0.505657520185342
40
0.505657520185342
40
0.527841319726079
40
0.527841319726079
40
0.550025119266815
40
0.550025119266815
40
0.572208918807552
40
0.572208918807552
40
0.594392718348288
40
0.594392718348288
40
0.616576517889025
40
0.616576517889025
40
0.638760317429762
40
0.638760317429762
40
0.660944116970498
40
0.660944116970498
40
0.683127916511235
40
0.683127916511235
40
0.705311716051971
40
0.705311716051971
40
0.727495515592708
40
0.727495515592708
40
0.749679315133445
40
0.749679315133445
40
0.771863114674181
40
0.771863114674181
40
0.794046914214918
40
0.794046914214918
40
0.816230713755654
40
0.816230713755654
40
0.838414513296391
40
0.838414513296391
40
0.860598312837128
40
0.860598312837128
40
0.882782112377864
40
0.882782112377864
40
0.927149711459337
40
0.927149711459337
40
0.949333511000073
40
0.949333511000073
40
0.97151731054081
40
0.97151731054081
40
0.993701110081546
40
0.993701110081546
40
1
40
1
40
1
40
1
41
1
10
28.2110220553248
20
4.29065777793431
30
0
41
1
10
28.4510171507349
20
4.38489744928185
30
0
41
1
10
28.6905148348552
20
4.47534053203847
30
0
41
1
10
29.2302591683887
20
4.67159748094042
30
0
41
1
10
29.5298418278569
20
4.77561631316593
30
0
41
1
10
30.4271393724432
20
5.06881713206178
30
0
41
1
10
31.0257240025288
20
5.23724707777353
30
0
41
1
10
31.9211893972521
20
5.45257497565032
30
0
41
1
10
32.2191692802576
20
5.51805427524761
30
0
41
1
10
32.8173066070644
20
5.63426711055928
30
0
41
1
10
33.1170596257811
20
5.68533484203459
30
0
41
1
10
33.7173912167244
20
5.77362808750635
30
0
41
1
10
34.0178133555273
20
5.81089981488594
30
0
41
1
10
34.6198359670318
20
5.870935535222
30
0
41
1
10
34.9229930693792
20
5.89347570939662
30
0
41
1
10
35.5280489773597
20
5.92348046455228
30
0
41
1
10
35.8296519520695
20
5.93099001573131
30
0
41
1
10
36.4305720099627
20
5.93115936631409
30
0
41
1
10
36.7296100288835
20
5.92371769557357
30
0
41
1
10
37.6275566239297
20
5.8795210692324
30
0
41
1
10
38.2257277299507
20
5.82130609102617
30
0
41
1
10
39.4181519085562
20
5.6460361042997
30
0
41
1
10
40.0168718777574
20
5.53101284738415
30
0
41
1
10
40.9168215354194
20
5.31626449097161
30
0
41
1
10
41.2166718031584
20
5.23714511048217
30
0
41
1
10
41.8194750634046
20
5.06639145126258
30
0
41
1
10
42.1229560995852
20
4.97443282809039
30
0
41
1
10
42.7276548719328
20
4.77858989232527
30
0
41
1
10
43.0289001439452
20
4.67473727748146
30
0
41
1
10
43.6287915959222
20
4.45468367225587
30
0
41
1
10
43.9282763508974
20
4.3394465762176
30
0
41
1
10
44.5271325369735
20
4.09983212759855
30
0
41
1
10
44.8262807684467
20
3.97518987858905
30
0
41
1
10
45.4236137052862
20
3.71571612313963
30
0
41
1
10
45.7213426513058
20
3.58020878504868
30
0
41
1
10
46.6163862379964
20
3.16286411888598
30
0
41
1
10
47.2154238022256
20
2.8704404938548
30
0
41
1
10
48.1142497688058
20
2.40490674255497
30
0
41
1
10
48.4144857872013
20
2.24611592949648
30
0
41
1
10
49.0178806972475
20
1.92414838320778
30
0
41
1
10
49.3214190596376
20
1.76003251005534
30
0
41
1
10
49.9255450919629
20
1.42807367618579
30
0
41
1
10
50.2259250270338
20
1.25935499035597
30
0
41
1
10
50.8259454502137
20
0.921167034334644
30
0
41
1
10
51.1257735490627
20
0.752031832471744
30
0
41
1
10
51.724540791919
20
0.412721717161361
30
0
41
1
10
52.0235154677226
20
0.242610418552573
30
0
41
1
10
52.6199960630873
20
-0.099682656251133
30
0
41
1
10
52.9178144222112
20
-0.271303414593206
30
0
41
1
10
53.515003908618
20
-0.611226553211026
30
0
41
1
10
53.8139797334538
20
-0.780235517527245
30
0
41
1
10
54.4122088549513
20
-1.11720760565675
30
0
41
1
10
54.7111329634646
20
-1.2857527142034
30
0
41
1
10
55.3104168451344
20
-1.61972764168417
30
0
41
1
10
55.611273426475
20
-1.78428102297428
30
0
41
1
10
56.2149356736839
20
-2.1093694357314
30
0
41
1
10
56.5184050808919
20
-2.27024373951079
30
0
41
1
10
57.121640146006
20
-2.58609688186749
30
0
41
1
10
57.4217953592906
20
-2.74122400714032
30
0
41
1
10
58.0221929521543
20
-3.04116390326607
30
0
41
1
10
58.3220249945589
20
-3.186693891521
30
0
41
1
10
58.9204440808765
20
-3.46980604767091
30
0
41
1
10
59.2188144099378
20
-3.60768445643768
30
0
41
1
10
59.814873076285
20
-3.87451622048295
30
0
41
1
10
60.1133316166833
20
-4.00242558418341
30
0
41
1
10
60.7107145230253
20
-4.24796501672162
30
0
41
1
10
61.009606185073
20
-4.36563834335223
30
0
41
1
10
61.6073333209443
20
-4.59119740314037
30
0
41
1
10
61.9059262987569
20
-4.69930334436714
30
0
41
1
10
62.5059358273723
20
-4.90228279789224
30
0
41
1
10
62.8069947911706
20
-4.99761103384512
30
0
41
1
10
63.4106668840311
20
-5.17641678338839
30
0
41
1
10
63.7137554788611
20
-5.26008980938295
30
0
41
1
10
64.6172625189531
20
-5.49047738268521
30
0
41
1
10
65.2180382631223
20
-5.61438641781191
30
0
41
1
10
66.1147667903675
20
-5.7589505677366
30
0
41
1
10
66.4125305383534
20
-5.80029087085214
30
0
41
1
10
67.0091799952338
20
-5.8678713375441
30
0
41
1
10
67.3078136347698
20
-5.89430118081634
30
0
41
1
10
67.9051046483225
20
-5.93273873094458
30
0
41
1
10
68.2037608872159
20
-5.94474099908294
30
0
41
1
10
68.587014817678
20
-5.95065242009244
30
0
41
1
10
68.6718275107477
20
-5.95135785822117
30
0
41
1
10
68.7567050361966
20
-5.95146334260929
30
0
0
SPLINE
5
BE
100
AcDbEntity
8
1
62
256
6
ByLayer
370
18
48
1
60
0
100
AcDbSpline
70
4
71
3
72
8
73
4
40
0
40
0
40
0
40
0
40
1
40
1
40
1
40
1
41
1
10
70.8929494400966
20
5.94735532077979
30
0
41
1
10
70.743679246702
20
5.95092305129955
30
0
41
1
10
70.5944030153816
20
5.95264535660365
30
0
41
1
10
70.4450906539707
20
5.95252281913889
30
0
0
SPLINE
5
BF
100
AcDbEntity
8
1
62
256
6
ByLayer
370
18
48
1
60
0
100
AcDbSpline
70
4
71
3
72
54
73
50
40
0
40
0
40
0
40
0
40
0.0107544815170103
40
0.0107544815170103
40
0.0398319874148903
40
0.0398319874148903
40
0.0979869992106503
40
0.0979869992106503
40
0.15614201100641
40
0.15614201100641
40
0.18521951690429
40
0.18521951690429
40
0.214297022802171
40
0.214297022802171
40
0.27245203459793
40
0.27245203459793
40
0.30152954049581
40
0.30152954049581
40
0.33060704639369
40
0.33060704639369
40
0.446917069985208
40
0.446917069985208
40
0.475994575883087
40
0.475994575883087
40
0.490533328832027
40
0.490533328832027
40
0.505072081780966
40
0.505072081780966
40
0.563227093576723
40
0.563227093576723
40
0.679537117168237
40
0.679537117168237
40
0.694075870117176
40
0.694075870117176
40
0.708614623066116
40
0.708614623066116
40
0.737692128963995
40
0.737692128963995
40
0.795847140759754
40
0.795847140759754
40
0.854002152555512
40
0.854002152555512
40
0.883079658453391
40
0.883079658453391
40
0.91215716435127
40
0.91215716435127
40
0.970312176147028
40
0.970312176147028
40
1
40
1
40
1
40
1
41
1
10
41.0238825714782
20
-5.65055831263163
30
0
41
1
10
40.894514244371
20
-5.67304428672784
30
0
41
1
10
40.7652753663183
20
-5.69419519383149
30
0
41
1
10
40.2875503151503
20
-5.7674616504525
30
0
41
1
10
39.939969139061
20
-5.81111826854053
30
0
41
1
10
38.8994515852373
20
-5.91258450863833
30
0
41
1
10
38.2086505207429
20
-5.94086048798832
30
0
41
1
10
36.8261605743032
20
-5.91870561349933
30
0
41
1
10
36.1344681386425
20
-5.86827468026218
30
0
41
1
10
35.0912389056204
20
-5.73367000389226
30
0
41
1
10
34.7425275277042
20
-5.67898408010575
30
0
41
1
10
34.042325311539
20
-5.54999639727819
30
0
41
1
10
33.6919029749087
20
-5.47585416010543
30
0
41
1
10
32.6431568027716
20
-5.22652903109366
30
0
41
1
10
31.9453987343411
20
-5.02407521101773
30
0
41
1
10
30.8956360203112
20
-4.67059605909836
30
0
41
1
10
30.5446527409538
20
-4.54423181045703
30
0
41
1
10
29.846266778571
20
-4.27781172678047
30
0
41
1
10
29.4983118117731
20
-4.13760109221965
30
0
41
1
10
27.762513029706
20
-3.40488204336697
30
0
41
1
10
26.3863199729548
20
-2.71777105911781
30
0
41
1
10
24.6486416616388
20
-1.78321154262272
30
0
41
1
10
24.3002219121841
20
-1.59253568311846
30
0
41
1
10
23.7755996908928
20
-1.30190884636357
30
0
41
1
10
23.6001565334184
20
-1.20412914311717
30
0
41
1
10
23.2500907959396
20
-1.00810207040817
30
0
41
1
10
23.0753992267055
20
-0.909820208984939
30
0
41
1
10
22.2033797444176
20
-0.417545054317429
30
0
41
1
10
21.5104367890897
20
-0.0208282194384424
30
0
41
1
10
19.4349655007398
20
1.15907054416033
30
0
41
1
10
18.0564397312283
20
1.93314620059655
30
0
41
1
10
16.4806405928985
20
2.73547949500545
30
0
41
1
10
16.3051873540814
20
2.82366414419081
30
0
41
1
10
15.9554272466983
20
2.99697899393649
30
0
41
1
10
15.7808772028562
20
3.08223609559806
30
0
41
1
10
15.2580628651304
20
3.33361728111262
30
0
41
1
10
14.9106233438213
20
3.49533206989233
30
0
41
1
10
13.870226733751
20
3.96113394887067
30
0
41
1
10
13.1793149110798
20
4.24605302034712
30
0
41
1
10
11.7960588340636
20
4.75637740938984
30
0
41
1
10
11.1037721743789
20
4.98185244029924
30
0
41
1
10
10.0592461610025
20
5.2694105062325
30
0
41
1
10
9.71007682804742
20
5.35684097536901
30
0
41
1
10
9.00884673219662
20
5.5137833816047
30
0
41
1
10
8.65897251373343
20
5.58277881222273
30
0
41
1
10
7.61178917452773
20
5.76060692760825
30
0
41
1
10
6.91647999019733
20
5.84056093123507
30
0
41
1
10
5.86501807168162
20
5.90153428596102
30
0
41
1
10
5.50942198534844
20
5.91183944704346
30
0
41
1
10
5.15319050955131
20
5.91172473733695
30
0
0
SPLINE
5
C0
100
AcDbEntity
8
1
62
256
6
ByLayer
370
18
48
1
60
0
100
AcDbSpline
70
4
71
3
72
40
73
36
40
0
40
0
40
0
40
0
40
0.11077263661083
40
0.11077263661083
40
0.166158954916245
40
0.166158954916245
40
0.22154527322166
40
0.22154527322166
40
0.276931591527075
40
0.276931591527075
40
0.33231790983249
40
0.33231790983249
40
0.443090546443317
40
0.443090546443317
40
0.498476864748731
40
0.498476864748731
40
0.553863183054145
40
0.553863183054145
40
0.609249501359559
40
0.609249501359559
40
0.664635819664973
40
0.664635819664973
40
0.720022137970386
40
0.720022137970386
40
0.7754084562758
40
0.7754084562758
40
0.830794774581214
40
0.830794774581214
40
0.886181092886628
40
0.886181092886628
40
0.941567411192042
40
0.941567411192042
40
0.996953729497456
40
0.996953729497456
40
1
40
1
40
1
40
1
41
1
10
13.6163983449672
20
-4.29716260653782
30
0
41
1
10
14.1588611446251
20
-4.48653250061889
30
0
41
1
10
14.7003727797381
20
-4.65775899340761
30
0
41
1
10
15.5112196149539
20
-4.88503017947448
30
0
41
1
10
15.7812825045994
20
-4.9560685027823
30
0
41
1
10
16.3220180433263
20
-5.08821717557433
30
0
41
1
10
16.5927340753636
20
-5.14921085359498
30
0
41
1
10
17.1347739958994
20
-5.26028303313862
30
0
41
1
10
17.406294184137
20
-5.31040251571775
30
0
41
1
10
17.9480412238174
20
-5.40029271305022
30
0
41
1
10
18.2184163339141
20
-5.44041824389069
30
0
41
1
10
19.0296974201956
20
-5.5417863699586
30
0
41
1
10
19.5705402494924
20
-5.58565502197754
30
0
41
1
10
20.3822422664157
20
-5.62099928143448
30
0
41
1
10
20.6529416303797
20
-5.62658960305285
30
0
41
1
10
21.1954508495589
20
-5.62529016778649
30
0
41
1
10
21.4664370769548
20
-5.61884605998443
30
0
41
1
10
22.0079541229075
20
-5.59565276075062
30
0
41
1
10
22.2785236028515
20
-5.57943509678938
30
0
41
1
10
22.8190128603868
20
-5.5336831833938
30
0
41
1
10
23.089188551699
20
-5.50426147844544
30
0
41
1
10
23.6303467360335
20
-5.43530778867478
30
0
41
1
10
23.9011873725324
20
-5.3955381326422
30
0
41
1
10
24.4433418316525
20
-5.30591892907208
30
0
41
1
10
24.7147609637683
20
-5.25539244966501
30
0
41
1
10
25.2548876144485
20
-5.14273022614501
30
0
41
1
10
25.5244245135548
20
-5.08128668339992
30
0
41
1
10
26.0627289581334
20
-4.94946758936803
30
0
41
1
10
26.3315162891018
20
-4.87942148820437
30
0
41
1
10
26.8679988091572
20
-4.72900585207236
30
0
41
1
10
27.1355224588924
20
-4.64794015581299
30
0
41
1
10
27.670452171369
20
-4.47736822648309
30
0
41
1
10
27.9379981847974
20
-4.38795213421903
30
0
41
1
10
28.2203429320276
20
-4.28978276147927
30
0
41
1
10
28.2350625378871
20
-4.28465362261505
30
0
41
1
10
28.24978223938
20
-4.27951295276938
30
0
0
SPLINE
5
C1
100
AcDbEntity
8
1
62
256
6
ByLayer
370
18
48
1
60
0
100
AcDbSpline
70
4
71
3
72
32
73
28
40
0
40
0
40
0
40
0
40
0.0273149128517754
40
0.0273149128517754
40
0.0967924190766486
40
0.0967924190766486
40
0.166269925301522
40
0.166269925301522
40
0.235747431526395
40
0.235747431526395
40
0.305224937751268
40
0.305224937751268
40
0.374702443976142
40
0.374702443976142
40
0.444179950201015
40
0.444179950201015
40
0.513657456425889
40
0.513657456425889
40
0.583134962650762
40
0.583134962650762
40
0.652612468875635
40
0.652612468875635
40
0.722089975100508
40
0.722089975100508
40
0.861044987550254
40
0.861044987550254
40
1
40
1
40
1
40
1
41
1
10
53.7320611582245
20
5.6434984611661
30
0
41
1
10
53.8385482475878
20
5.64246761184103
30
0
41
1
10
53.9450874002588
20
5.64051294243072
30
0
41
1
10
54.3225251596985
20
5.63040645911391
30
0
41
1
10
54.5928587585358
20
5.617375680961
30
0
41
1
10
55.1334194881484
20
5.5810636393592
30
0
41
1
10
55.4037380302337
20
5.55737899594735
30
0
41
1
10
55.9443272262105
20
5.4979111769548
30
0
41
1
10
56.2146235192339
20
5.4624131791771
30
0
41
1
10
56.755362942845
20
5.38135778722869
30
0
41
1
10
57.0256841865072
20
5.33625337214525
30
0
41
1
10
57.5674149100969
20
5.23408333964076
30
0
41
1
10
57.8386581722088
20
5.17692513555548
30
0
41
1
10
58.3799108423082
20
5.05212038005021
30
0
41
1
10
58.6502052437426
20
4.98436305291972
30
0
41
1
10
59.190316654047
20
4.83866910260218
30
0
41
1
10
59.460079075641
20
4.76066088361813
30
0
41
1
10
60.0004214632485
20
4.5961301850372
30
0
41
1
10
60.2708647856339
20
4.50948896700532
30
0
41
1
10
60.8121949980739
20
4.32769792370257
30
0
41
1
10
61.0834749467311
20
4.23231412024526
30
0
41
1
10
61.624465233247
20
4.03245004746168
30
0
41
1
10
61.8939892622774
20
3.928105526747
30
0
41
1
10
62.7014686635906
20
3.60497409220429
30
0
41
1
10
63.2377856482584
20
3.37574721862512
30
0
41
1
10
64.306997623846
20
2.89059084951646
30
0
41
1
10
64.8414746215421
20
2.63734906508097
30
0
41
1
10
65.3762048559041
20
2.37426494182324
30
0
0
SPLINE
5
C2
100
AcDbEntity
8
1
62
256
6
ByLayer
370
18
48
1
60
0
100
AcDbSpline
70
4
71
3
72
100
73
96
40
0
40
0
40
0
40
0
40
0.0086259913760507
40
0.0086259913760507
40
0.0290183391986174
40
0.0290183391986174
40
0.0494106870211842
40
0.0494106870211842
40
0.0901953826663178
40
0.0901953826663178
40
0.110587730488885
40
0.110587730488885
40
0.130980078311451
40
0.130980078311451
40
0.151372426134018
40
0.151372426134018
40
0.171764773956585
40
0.171764773956585
40
0.192157121779152
40
0.192157121779152
40
0.212549469601719
40
0.212549469601719
40
0.253334165246852
40
0.253334165246852
40
0.273726513069419
40
0.273726513069419
40
0.294118860891987
40
0.294118860891987
40
0.314511208714554
40
0.314511208714554
40
0.334903556537121
40
0.334903556537121
40
0.375688252182255
40
0.375688252182255
40
0.396080600004822
40
0.396080600004822
40
0.41647294782739
40
0.41647294782739
40
0.436865295649957
40
0.436865295649957
40
0.457257643472524
40
0.457257643472524
40
0.477649991295091
40
0.477649991295091
40
0.498042339117659
40
0.498042339117659
40
0.518434686940226
40
0.518434686940226
40
0.538827034762793
40
0.538827034762793
40
0.55921938258536
40
0.55921938258536
40
0.579611730407927
40
0.579611730407927
40
0.600004078230495
40
0.600004078230495
40
0.620396426053062
40
0.620396426053062
40
0.640788773875629
40
0.640788773875629
40
0.661181121698196
40
0.661181121698196
40
0.681573469520763
40
0.681573469520763
40
0.701965817343331
40
0.701965817343331
40
0.722358165165898
40
0.722358165165898
40
0.742750512988465
40
0.742750512988465
40
0.763142860811032
40
0.763142860811032
40
0.783535208633599
40
0.783535208633599
40
0.803927556456167
40
0.803927556456167
40
0.824319904278734
40
0.824319904278734
40
0.844712252101301
40
0.844712252101301
40
0.865104599923868
40
0.865104599923868
40
0.885496947746436
40
0.885496947746436
40
0.905889295569003
40
0.905889295569003
40
0.92628164339157
40
0.92628164339157
40
0.946673991214137
40
0.946673991214137
40
0.967066339036705
40
0.967066339036705
40
0.987458686859272
40
0.987458686859272
40
1
40
1
40
1
40
1
41
1
10
60.8532048221654
20
-4.31200831441089
30
0
41
1
10
60.7387067867883
20
-4.35187940008652
30
0
41
1
10
60.6241345259221
20
-4.39097454500171
30
0
41
1
10
60.2384653618633
20
-4.52001537868517
30
0
41
1
10
59.9676385975231
20
-4.60643543137689
30
0
41
1
10
59.4281288545719
20
-4.77002521124751
30
0
41
1
10
59.1593142414695
20
-4.84738484696607
30
0
41
1
10
58.3536889259709
20
-5.06358042788801
30
0
41
1
10
57.8179451181101
20
-5.18721390363288
30
0
41
1
10
57.015774088402
20
-5.33792498411265
30
0
41
1
10
56.7486362308124
20
-5.38241156281487
30
0
41
1
10
56.2138792688104
20
-5.46247864135978
30
0
41
1
10
55.9463566054775
20
-5.49762329682196
30
0
41
1
10
55.4108242004363
20
-5.55666302386973
30
0
41
1
10
55.1427786753475
20
-5.58028446197377
30
0
41
1
10
54.6062793928704
20
-5.61661837645255
30
0
41
1
10
54.3377770851685
20
-5.62975232803518
30
0
41
1
10
53.7991453388208
20
-5.64465158315193
30
0
41
1
10
53.5291174377765
20
-5.64641354307818
30
0
41
1
10
52.9873111616999
20
-5.6373702853777
30
0
41
1
10
52.716019834012
20
-5.6265626527109
30
0
41
1
10
51.9047611018205
20
-5.57863444923402
30
0
41
1
10
51.3644101986699
20
-5.52543617460736
30
0
41
1
10
50.5532274357939
20
-5.4098094866807
30
0
41
1
10
50.2829441204193
20
-5.36592730545846
30
0
41
1
10
49.7420060073739
20
-5.26773172492926
30
0
41
1
10
49.4706660827479
20
-5.21334663369248
30
0
41
1
10
48.9292193341171
20
-5.09371221772679
30
0
41
1
10
48.6592230385281
20
-5.02835921280146
30
0
41
1
10
48.1205929020523
20
-4.88859961934432
30
0
41
1
10
47.8521279585268
20
-4.81395214496317
30
0
41
1
10
47.0476238234376
20
-4.57639364346298
30
0
41
1
10
46.5120873835634
20
-4.39905934624247
30
0
41
1
10
45.7100681622085
20
-4.10952756497886
30
0
41
1
10
45.443074745942
20
-4.00849797988218
30
0
41
1
10
44.9083113087956
20
-3.79867873068977
30
0
41
1
10
44.6405528755728
20
-3.68964070420941
30
0
41
1
10
44.1044953930538
20
-3.46498665219562
30
0
41
1
10
43.8362452274407
20
-3.34939323463016
30
0
41
1
10
43.2990803612963
20
-3.11038696200754
30
0
41
1
10
43.0302085895424
20
-2.98697682941426
30
0
41
1
10
42.4904019322673
20
-2.73422012409983
30
0
41
1
10
42.2194187807763
20
-2.60478948827725
30
0
41
1
10
41.6771922509077
20
-2.34107866946869
30
0
41
1
10
41.406507000905
20
-2.20687880814162
30
0
41
1
10
40.8659900287745
20
-1.93356353452484
30
0
41
1
10
40.595976392475
20
-1.79468907328536
30
0
41
1
10
40.0555461445003
20
-1.51457571205452
30
0
41
1
10
39.7852967542318
20
-1.37318311735575
30
0
41
1
10
39.2445316117729
20
-1.08747765254981
30
0
41
1
10
38.9740385450956
20
-0.943115509701812
30
0
41
1
10
38.4326545021223
20
-0.651640802162092
30
0
41
1
10
38.1613743268597
20
-0.505150717785739
30
0
41
1
10
37.6197802038711
20
-0.212350805970857
30
0
41
1
10
37.3492092541157
20
-0.0658793057843354
30
0
41
1
10
36.8084344151149
20
0.226960750819956
30
0
41
1
10
36.5382803676436
20
0.373377656130543
30
0
41
1
10
35.9979647291812
20
0.665561708478037
30
0
41
1
10
35.7276180402802
20
0.810980936768942
30
0
41
1
10
35.1862857475133
20
1.09990837725877
30
0
41
1
10
34.9150605072676
20
1.24339576738782
30
0
41
1
10
34.3726716810907
20
1.52770549348892
30
0
41
1
10
34.1021332128091
20
1.66872189868204
30
0
41
1
10
33.5612285216179
20
1.94692743940925
30
0
41
1
10
33.290855343138
20
2.08403195147184
30
0
41
1
10
32.7499704017368
20
2.3528862575497
30
0
41
1
10
32.479423923344
20
2.48452932190995
30
0
41
1
10
31.9384256802009
20
2.74382145010219
30
0
41
1
10
31.6680815579467
20
2.8716003556425
30
0
41
1
10
31.1262473797757
20
3.12073813038975
30
0
41
1
10
30.8547902222634
20
3.24195432452444
30
0
41
1
10
30.3129210093223
20
3.47579399166929
30
0
41
1
10
30.0422697968947
20
3.5895461166063
30
0
41
1
10
29.5017027120496
20
3.81092580405161
30
0
41
1
10
29.2317405636231
20
3.91837286407755
30
0
41
1
10
28.6910528933406
20
4.12347131010696
30
0
41
1
10
28.4203510033075
20
4.22070265415505
30
0
41
1
10
27.8786239610421
20
4.40802830018518
30
0
41
1
10
27.6073071207298
20
4.49811519955455
30
0
41
1
10
27.0657913273823
20
4.66939247083795
30
0
41
1
10
26.7958139735406
20
4.75011953356673
30
0
41
1
10
26.256763199494
20
4.89922709738124
30
0
41
1
10
25.9877101352595
20
4.96857150995331
30
0
41
1
10
25.4505652471747
20
5.09840422706094
30
0
41
1
10
25.1825524285803
20
5.15864887859286
30
0
41
1
10
24.6473129728472
20
5.26838312844964
30
0
41
1
10
24.3797347415825
20
5.31709962704133
30
0
41
1
10
23.84449447792
20
5.40407362778546
30
0
41
1
10
23.576876073012
20
5.44271115865891
30
0
41
1
10
23.0416671751865
20
5.50960350963075
30
0
41
1
10
22.7742439279655
20
5.53812314371106
30
0
41
1
10
22.2385023462143
20
5.58206098560314
30
0
41
1
10
21.9700403483336
20
5.59770161013637
30
0
41
1
10
21.5358446610201
20
5.61556273337368
30
0
41
1
10
21.3703296140722
20
5.62043768710097
30
0
41
1
10
21.204626820051
20
5.62323032022241
30
0
0
SPLINE
5
C3
100
AcDbEntity
8
1
62
256
6
ByLayer
370
18
48
1
60
0
100
AcDbSpline
70
4
71
3
72
8
73
4
40
0
40
0
40
0
40
0
40
1
40
1
40
1
40
1
41
1
10
72.9999632513996
20
0.0481985952308719
30
0
41
1
10
73.0000122518268
20
0.0160646940079516
30
0
41
1
10
73.0000122466728
20
-0.0160680738822236
30
0
41
1
10
72.9999632513997
20
-0.0481985952273192
30
0
0
SPLINE
5
C4
100
AcDbEntity
8
1
62
256
6
ByLayer
370
18
48
1
60
0
100
AcDbSpline
70
4
71
3
72
14
73
10
40
0
40
0
40
0
40
0
40
0.25
40
0.25
40
0.5
40
0.5
40
0.75
40
0.75
40
1
40
1
40
1
40
1
41
1
10
70.8707253668802
20
1.28442349215689
30
0
41
1
10
70.8700628953786
20
1.29967697251794
30
0
41
1
10
70.8735392663013
20
1.31507518600654
30
0
41
1
10
70.8891685880793
20
1.34172488261999
30
0
41
1
10
70.9012929389287
20
1.35285315980167
30
0
41
1
10
70.9284878198449
20
1.36871836485056
30
0
41
1
10
70.9437748033778
20
1.37387833127465
30
0
41
1
10
70.9745515012735
20
1.37997952289496
30
0
41
1
10
70.9903160536111
20
1.38101964954382
30
0
41
1
10
71.0060743778099
20
1.38055710423691
30
0
0
SPLINE
5
C5
100
AcDbEntity
8
1
62
256
6
ByLayer
370
18
48
1
60
0
100
AcDbSpline
70
4
71
3
72
8
73
4
40
0
40
0
40
0
40
0
40
1
40
1
40
1
40
1
41
1
10
71.2094088116117
20
-5.78935870062571
30
0
41
1
10
71.0921566963805
20
-5.87706060870525
30
0
41
1
10
70.986816233123
20
-5.93080523778903
30
0
41
1
10
70.8929494400966
20
-5.94735532077985
30
0
0
SPLINE
5
C6
100
AcDbEntity
8
1
62
256
6
ByLayer
370
18
48
1
60
0
100
AcDbSpline
70
4
71
3
72
8
73
4
40
0
40
0
40
0
40
0
40
1
40
1
40
1
40
1
41
1
10
72.9314627238017
20
-1.32781012144025
30
0
41
1
10
72.9581513185196
20
-0.926525951251307
30
0
41
1
10
72.9774562510534
20
-0.525617718719332
30
0
41
1
10
72.9893659850615
20
-0.125086011214819
30
0
0
SPLINE
5
C7
100
AcDbEntity
8
1
62
256
6
ByLayer
370
18
48
1
60
0
100
AcDbSpline
70
4
71
3
72
10
73
6
40
0
40
0
40
0
40
0
40
0.5
40
0.5
40
1
40
1
40
1
40
1
41
1
10
72.9999632514065
20
0.0481985952557409
30
0
41
1
10
72.9962172076889
20
0.0329493642270791
30
0
41
1
10
72.9911234615111
20
0.0166259928635952
30
0
41
1
10
72.9788740461696
20
-0.0143472930337509
30
0
41
1
10
72.9716863735972
20
-0.0290118711401703
30
0
41
1
10
72.9644024602369
20
-0.0409242576247379
30
0
0
SPLINE
5
C8
100
AcDbEntity
8
1
62
256
6
ByLayer
370
13
48
1
60
0
100
AcDbSpline
70
4
71
3
72
8
73
4
40
0
40
0
40
0
40
0
40
1
40
1
40
1
40
1
41
1
10
4.12923961115999
20
-5.60857633143269
30
0
41
1
10
4.16672171759589
20
-5.58938836306831
30
0
41
1
10
4.2080207418179
20
-5.58043279669644
30
0
41
1
10
4.25030929134351
20
-5.58193701786837
30
0
0
SPLINE
5
C9
100
AcDbEntity
8
1
62
256
6
ByLayer
370
18
48
1
60
0
100
AcDbSpline
70
4
71
3
72
18
73
14
40
0
40
0
40
0
40
0
40
0.428869776981929
40
0.428869776981929
40
0.674359139435838
40
0.674359139435838
40
0.735731480049314
40
0.735731480049314
40
0.79710382066279
40
0.79710382066279
40
0.919848501889739
40
0.919848501889739
40
1
40
1
40
1
40
1
41
1
10
21.4377578883048
20
0.0194803480019061
30
0
41
1
10
22.658029158948
20
-0.652365728505742
30
0
41
1
10
23.8642057979356
20
-1.31722214017591
30
0
41
1
10
25.7657968456112
20
-2.30310919439455
30
0
41
1
10
26.4590802261505
20
-2.64958267333086
30
0
41
1
10
27.3308819475696
20
-3.06028163058585
30
0
41
1
10
27.5055090624657
20
-3.14128952140763
30
0
41
1
10
27.8554027979878
20
-3.30085517965981
30
0
41
1
10
28.0309041680686
20
-3.37951530008385
30
0
41
1
10
28.5565477708305
20
-3.6106591621429
30
0
41
1
10
28.9056078993964
20
-3.75827852222056
30
0
41
1
10
29.4809927358365
20
-3.99092039387997
30
0
41
1
10
29.7078954385462
20
-4.07985786825253
30
0
41
1
10
29.9345121712826
20
-4.1657169972749
30
0
0
SPLINE
5
CA
100
AcDbEntity
8
1
62
256
6
ByLayer
370
13
48
1
60
0
100
AcDbSpline
70
4
71
3
72
18
73
14
40
0
40
0
40
0
40
0
40
0.364041412466758
40
0.364041412466758
40
0.472807687471668
40
0.472807687471668
40
0.581573962476577
40
0.581573962476577
40
0.799106512486395
40
0.799106512486395
40
0.907872787491307
40
0.907872787491307
40
1
40
1
40
1
40
1
41
1
10
29.9345121714951
20
-4.16571699735539
30
0
41
1
10
31.0960665534505
20
-4.60579944996331
30
0
41
1
10
32.2501078974621
20
-4.96500723884589
30
0
41
1
10
33.7583627949847
20
-5.30661847630796
30
0
41
1
10
34.105975420844
20
-5.3766101501877
30
0
41
1
10
34.8033471807058
20
-5.49862632077534
30
0
41
1
10
35.153545575251
20
-5.55071767503986
30
0
41
1
10
36.2054085535968
20
-5.67840453209573
30
0
41
1
10
36.9051034199973
20
-5.72516314201539
30
0
41
1
10
37.9572522481635
20
-5.73656137335135
30
0
41
1
10
38.3077987209452
20
-5.73054095962121
30
0
41
1
10
38.9555195621583
20
-5.7014023890045
30
0
41
1
10
39.2520543856192
20
-5.68105261748889
30
0
41
1
10
39.5476478013757
20
-5.65391628537716
30
0
0
SPLINE
5
CB
100
AcDbEntity
8
1
62
256
6
ByLayer
370
18
48
1
60
0
100
AcDbSpline
70
4
71
3
72
38
73
34
40
0
40
0
40
0
40
0
40
0.0625000000000057
40
0.0625000000000057
40
0.0937500000000086
40
0.0937500000000086
40
0.125000000000011
40
0.125000000000011
40
0.187500000000017
40
0.187500000000017
40
0.21875000000002
40
0.21875000000002
40
0.250000000000023
40
0.250000000000023
40
0.312500000000027
40
0.312500000000027
40
0.343750000000028
40
0.343750000000028
40
0.37500000000003
40
0.37500000000003
40
0.500000000000027
40
0.500000000000027
40
0.562500000000024
40
0.562500000000024
40
0.625000000000021
40
0.625000000000021
40
0.750000000000013
40
0.750000000000013
40
0.875000000000005
40
0.875000000000005
40
0.937500000000002
40
0.937500000000002
40
1
40
1
40
1
40
1
41
1
10
65.3762048559041
20
2.37426494182327
30
0
41
1
10
65.3481496301781
20
2.1947130980806
30
0
41
1
10
65.3339160927309
20
2.00967355835462
30
0
41
1
10
65.3344946122477
20
1.72340773432143
30
0
41
1
10
65.33841112268
20
1.62619185646977
30
0
41
1
10
65.3534294232268
20
1.43282665316116
30
0
41
1
10
65.3645065256036
20
1.33623773117728
30
0
41
1
10
65.4079643502113
20
1.04673947129237
30
0
41
1
10
65.450540490422
20
0.854097822914071
30
0
41
1
10
65.5335558786462
20
0.565638181097057
30
0
41
1
10
65.5645632916873
20
0.46924187644035
30
0
41
1
10
65.6316820276048
20
0.279715301823529
30
0
41
1
10
65.6678631679002
20
0.186264680675748
30
0
41
1
10
65.7836221706683
20
-0.0904744929727315
30
0
41
1
10
65.8703863895383
20
-0.270164988262621
30
0
41
1
10
66.0130186458272
20
-0.533449290170807
30
0
41
1
10
66.0626521668381
20
-0.620164587775093
30
0
41
1
10
66.1658645250682
20
-0.79161984629755
30
0
41
1
10
66.2195442331587
20
-0.876491612005537
30
0
41
1
10
66.4941022565961
20
-1.29147953226132
30
0
41
1
10
66.7351753143372
20
-1.59781847124498
30
0
41
1
10
67.1205090046127
20
-2.02892501944564
30
0
41
1
10
67.253025899062
20
-2.16775191675708
30
0
41
1
10
67.5256300303992
20
-2.43634270056128
30
0
41
1
10
67.6658657321381
20
-2.56623193894498
30
0
41
1
10
68.0906627302209
20
-2.93882635980108
30
0
41
1
10
68.3812273767313
20
-3.16672187330497
30
0
41
1
10
68.9742480506171
20
-3.58942017805856
30
0
41
1
10
69.2767375308027
20
-3.78412987292427
30
0
41
1
10
69.7382666349052
20
-4.05450190294675
30
0
41
1
10
69.8934161406555
20
-4.140990112868
30
0
41
1
10
70.2062092787441
20
-4.30702558620655
30
0
41
1
10
70.3639356695841
20
-4.38660415036028
30
0
41
1
10
70.5220911130826
20
-4.46240422419396
30
0
0
SPLINE
5
CC
100
AcDbEntity
8
1
62
256
6
ByLayer
370
18
48
1
60
0
100
AcDbSpline
70
4
71
3
72
16
73
12
40
0
40
0
40
0
40
0
40
0.0541514568607276
40
0.0541514568607276
40
0.385331136773759
40
0.385331136773759
40
0.550920976730273
40
0.550920976730273
40
0.716510816686785
40
0.716510816686785
40
1
40
1
40
1
40
1
41
1
10
37.9785211893225
20
-5.63461748366456
30
0
41
1
10
37.8639471930218
20
-5.63438577093214
30
0
41
1
10
37.749368427803
20
-5.63312569905392
30
0
41
1
10
36.9339583004079
20
-5.61682826633293
30
0
41
1
10
36.2347655675732
20
-5.56444380134909
30
0
41
1
10
35.1837202795318
20
-5.42958959081073
30
0
41
1
10
34.833867063259
20
-5.37534431254386
30
0
41
1
10
34.1370136558965
20
-5.24946773285669
30
0
41
1
10
33.7896296328706
20
-5.17776856298383
30
0
41
1
10
32.849224748143
20
-4.9606121801651
30
0
41
1
10
32.2573912041005
20
-4.79902980108366
30
0
41
1
10
31.6654622368246
20
-4.61501156362678
30
0
0
SPLINE
5
CD
100
AcDbEntity
8
1
62
256
6
ByLayer
370
13
48
1
60
0
100
AcDbSpline
70
4
71
3
72
22
73
18
40
0
40
0
40
0
40
0
40
0.172224566347855
40
0.172224566347855
40
0.247497417404694
40
0.247497417404694
40
0.322770268461534
40
0.322770268461534
40
0.473315970575214
40
0.473315970575214
40
0.774407374802572
40
0.774407374802572
40
0.849680225859412
40
0.849680225859412
40
0.924953076916251
40
0.924953076916251
40
1
40
1
40
1
40
1
41
1
10
31.6654622377892
20
-4.61501156392671
30
0
41
1
10
30.8743765611333
20
-4.36907970398357
30
0
41
1
10
30.0831204482241
20
-4.08307496501908
30
0
41
1
10
28.9392416370667
20
-3.6215567730562
30
0
41
1
10
28.5903782884581
20
-3.47457651493426
30
0
41
1
10
27.8899916714983
20
-3.16816803480378
30
0
41
1
10
27.5399004915655
20
-3.00929660948836
30
0
41
1
10
26.4945195034579
20
-2.52051037224967
30
0
41
1
10
25.8015901564152
20
-2.17762121648255
30
0
41
1
10
23.7258674616756
20
-1.1139062620569
30
0
41
1
10
22.3459676998111
20
-0.358382313417422
30
0
41
1
10
20.5946495371901
20
0.58670169263965
30
0
41
1
10
20.2445173459283
20
0.77499811847261
30
0
41
1
10
19.5474950394247
20
1.14659775939572
30
0
41
1
10
19.2000014479634
20
1.33017363234413
30
0
41
1
10
18.5072686423525
20
1.69090408191943
30
0
41
1
10
18.1620899444548
20
1.86821911989375
30
0
41
1
10
17.8171674167437
20
2.04203796816285
30
0
0
SPLINE
5
CE
100
AcDbEntity
8
1
62
256
6
ByLayer
370
18
48
1
60
0
100
AcDbSpline
70
4
71
3
72
47
73
43
40
0
40
0
40
0
40
0
40
0.0301151567644011
40
0.0301151567644011
40
0.0900773154777489
40
0.0900773154777489
40
0.210001632904445
40
0.210001632904445
40
0.32992595033114
40
0.32992595033114
40
0.389888109044488
40
0.389888109044488
40
0.449850267757836
40
0.509812426471184
40
0.509812426471184
40
0.569774585184532
40
0.569774585184532
40
0.573522220104116
40
0.573522220104116
40
0.5772698550237
40
0.5772698550237
40
0.584765124862869
40
0.584765124862869
40
0.592260394702037
40
0.592260394702037
40
0.599755664541206
40
0.599755664541206
40
0.62973674389788
40
0.62973674389788
40
0.689698902611228
40
0.689698902611228
40
0.749661061324576
40
0.749661061324576
40
0.809623220037924
40
0.809623220037924
40
0.869585378751272
40
0.869585378751272
40
0.899566458107946
40
0.899566458107946
40
0.92954753746462
40
0.92954753746462
40
1
40
1
40
1
40
1
41
1
10
13.6163983449672
20
3.31648242243216
30
0
41
1
10
13.6163983449672
20
3.26981672956077
30
0
41
1
10
13.6163983449672
20
3.22126186189422
30
0
41
1
10
13.6163983449672
20
3.07040507763392
30
0
41
1
10
13.6163983449672
20
2.96193373300736
30
0
41
1
10
13.6163983449672
20
2.6198300448568
30
0
41
1
10
13.6163983449672
20
2.36928792716341
30
0
41
1
10
13.6163983449672
20
1.827368191224
30
0
41
1
10
13.6163983449672
20
1.53595811285328
30
0
41
1
10
13.6163983449672
20
1.06876660867494
30
0
41
1
10
13.6163983449672
20
0.908464361336826
30
0
41
1
10
13.6163983449672
20
0.581932290761841
30
0
41
1
10
13.6163983449671
20
0.248618561172918
30
0
41
1
10
13.6163983449672
20
-0.0979386335763195
30
0
41
1
10
13.6163983449672
20
-0.451072031533044
30
0
41
1
10
13.6163983449672
20
-0.630775746848315
30
0
41
1
10
13.6163983449672
20
-0.823998625655292
30
0
41
1
10
13.6163983449672
20
-0.83537157139628
30
0
41
1
10
13.6163983449672
20
-0.858131223576038
30
0
41
1
10
13.6163983449672
20
-0.86966509497887
30
0
41
1
10
13.6163983449672
20
-0.905652423900818
30
0
41
1
10
13.6163983449672
20
-0.931777811496858
30
0
41
1
10
13.6163983449672
20
-0.979167979278884
30
0
41
1
10
13.6163983449672
20
-1.00254608725015
30
0
41
1
10
13.6163983449672
20
-1.04951622345757
30
0
41
1
10
13.6163983449672
20
-1.07296701466225
30
0
41
1
10
13.6163983449672
20
-1.19001384455421
30
0
41
1
10
13.6163983449671
20
-1.28306638351893
30
0
41
1
10
13.6163983449671
20
-1.55987001842539
30
0
41
1
10
13.6163983449672
20
-1.74132115472722
30
0
41
1
10
13.6163983449672
20
-2.09787084785637
30
0
41
1
10
13.6163983449672
20
-2.2728272569322
30
0
41
1
10
13.6163983449672
20
-2.61231300456907
30
0
41
1
10
13.6163983449672
20
-2.7773415854092
30
0
41
1
10
13.6163983449672
20
-3.09774234824073
30
0
41
1
10
13.6163983449671
20
-3.25311597900392
30
0
41
1
10
13.6163983449671
20
-3.47858251778274
30
0
41
1
10
13.6163983449672
20
-3.55247035580072
30
0
41
1
10
13.6163983449672
20
-3.69762424066209
30
0
41
1
10
13.6163983449672
20
-3.76900372250785
30
0
41
1
10
13.6163983449672
20
-4.00150323089804
30
0
41
1
10
13.6163983449672
20
-4.15453513241366
30
0
41
1
10
13.6163983449672
20
-4.29716260653777
30
0
0
SPLINE
5
CF
100
AcDbEntity
8
1
62
256
6
ByLayer
370
18
48
1
60
0
100
AcDbSpline
70
4
71
3
72
46
73
42
40
0
40
0
40
0
40
0
40
0.125000000000002
40
0.125000000000002
40
0.187500000000005
40
0.187500000000005
40
0.250000000000007
40
0.250000000000007
40
0.375000000000013
40
0.375000000000013
40
0.500000000000018
40
0.500000000000018
40
0.562500000000019
40
0.562500000000019
40
0.62500000000002
40
0.62500000000002
40
0.750000000000021
40
0.750000000000021
40
0.812500000000022
40
0.812500000000022
40
0.84375000000002
40
0.84375000000002
40
0.859375000000019
40
0.859375000000019
40
0.867187500000021
40
0.867187500000021
40
0.875000000000022
40
0.875000000000022
40
0.878906250000022
40
0.878906250000022
40
0.882812500000021
40
0.882812500000021
40
0.88671875000002
40
0.88671875000002
40
0.890625000000019
40
0.890625000000019
40
0.906250000000017
40
0.906250000000017
40
0.937500000000011
40
0.937500000000011
40
1
40
1
40
1
40
1
41
1
10
65.3762048559041
20
2.37426494182327
30
0
41
1
10
65.6033651447093
20
2.14991122350432
30
0
41
1
10
65.8383802854916
20
1.93931627681562
30
0
41
1
10
66.2026572704403
20
1.6440129613284
30
0
41
1
10
66.3260868898589
20
1.54908870957854
30
0
41
1
10
66.5771366035166
20
1.36658035535768
30
0
41
1
10
66.7051788308809
20
1.27868774756635
30
0
41
1
10
67.0910467715063
20
1.02920520270897
30
0
41
1
10
67.3512283406461
20
0.881052085952518
30
0
41
1
10
67.8774989162722
20
0.621298877173501
30
0
41
1
10
68.1435633420518
20
0.509546688881613
30
0
41
1
10
68.5476700158124
20
0.372918639854078
30
0
41
1
10
68.6832442505598
20
0.332771631330502
30
0
41
1
10
68.9562364938237
20
0.263886200482858
30
0
41
1
10
69.0938056628865
20
0.235186264945071
30
0
41
1
10
69.5030595533209
20
0.168906069841796
30
0
41
1
10
69.7736417099649
20
0.150275373369254
30
0
41
1
10
70.1739975669018
20
0.169051777343327
30
0
41
1
10
70.3058465689556
20
0.183135382704933
30
0
41
1
10
70.5001083304813
20
0.217269823364518
30
0
41
1
10
70.5642860840567
20
0.230826226627158
30
0
41
1
10
70.6593826085229
20
0.254574858209111
30
0
41
1
10
70.6908177716155
20
0.263220556966644
30
0
41
1
10
70.7378581918846
20
0.276499859820575
30
0
41
1
10
70.7535311754582
20
0.280946093202857
30
0
41
1
10
70.7844725286454
20
0.290957958165251
30
0
41
1
10
70.7999214046146
20
0.296682832497567
30
0
41
1
10
70.8193026576614
20
0.313667077531363
30
0
41
1
10
70.8249547904514
20
0.320325824634636
30
0
41
1
10
70.833975918216
20
0.336381436902343
30
0
41
1
10
70.8367696086218
20
0.345502178495309
30
0
41
1
10
70.8401932956298
20
0.365121036142938
30
0
41
1
10
70.841183510059
20
0.375325099224654
30
0
41
1
10
70.8436179616035
20
0.395456151987077
30
0
41
1
10
70.8448004063667
20
0.405535176508749
30
0
41
1
10
70.8505407065922
20
0.455997020837799
30
0
41
1
10
70.8545843944626
20
0.496593516593009
30
0
41
1
10
70.8651424415356
20
0.61883128123776
30
0
41
1
10
70.8700921670318
20
0.700950402530225
30
0
41
1
10
70.8793383379347
20
0.948990240996153
30
0
41
1
10
70.8780042529757
20
1.11682632631448
30
0
41
1
10
70.8707253668803
20
1.28442349215692
30
0
0
SPLINE
5
D0
100
AcDbEntity
8
1
62
256
6
ByLayer
370
18
48
1
60
0
100
AcDbSpline
70
4
71
3
72
12
73
8
40
0
40
0
40
0
40
0
40
0.25
40
0.25
40
0.5
40
0.5
40
1
40
1
40
1
40
1
41
1
10
4.12633366563387
20
-5.88254864798276
30
0
41
1
10
4.10708254145163
20
-5.88146151310036
30
0
41
1
10
4.08969068071949
20
-5.88012354544099
30
0
41
1
10
4.05851749078755
20
-5.87686975208484
30
0
41
1
10
4.04488674278963
20
-5.8749513911813
30
0
41
1
10
4.01194192574437
20
-5.86850094382007
30
0
41
1
10
3.99999982269327
20
-5.86314026267783
30
0
41
1
10
3.99999982269327
20
-5.85717562530803
30
0
0
SPLINE
5
D1
100
AcDbEntity
8
1
62
256
6
ByLayer
370
18
48
1
60
0
100
AcDbSpline
70
4
71
3
72
18
73
14
40
0
40
0
40
0
40
0
40
0.268537260209312
40
0.268537260209312
40
0.402805890313967
40
0.402805890313967
40
0.537074520418623
40
0.537074520418623
40
0.805611780627934
40
0.805611780627934
40
0.939880410732588
40
0.939880410732588
40
1
40
1
40
1
40
1
41
1
10
70.5220911130827
20
-4.46240422419396
30
0
41
1
10
70.5216889656519
20
-4.66510531087045
30
0
41
1
10
70.5306885398274
20
-4.84299016271825
30
0
41
1
10
70.5586970077857
20
-5.07330270841678
30
0
41
1
10
70.5704696582027
20
-5.14395337081481
30
0
41
1
10
70.5991874267685
20
-5.27271039739131
30
0
41
1
10
70.6160466605174
20
-5.33028606591753
30
0
41
1
10
70.6736089333275
20
-5.48123589777717
30
0
41
1
10
70.7214406376334
20
-5.55393213513295
30
0
41
1
10
70.8084259338606
20
-5.62208508240158
30
0
41
1
10
70.8400645239685
20
-5.63796934383325
30
0
41
1
10
70.8895277241505
20
-5.65078177834636
30
0
41
1
10
70.9053009034493
20
-5.65333463611367
30
0
41
1
10
70.9215566653539
20
-5.6544901377768
30
0
0
SPLINE
5
D2
100
AcDbEntity
8
1
62
256
6
ByLayer
370
18
48
1
60
0
100
AcDbSpline
70
4
71
3
72
14
73
10
40
0
40
0
40
0
40
0
40
0.25
40
0.25
40
0.5
40
0.5
40
0.75
40
0.75
40
1
40
1
40
1
40
1
41
1
10
3.99999982269529
20
1.01638983002084
30
0
41
1
10
3.99999982269503
20
1.03473150164814
30
0
41
1
10
4.00468629904964
20
1.05071169211206
30
0
41
1
10
4.0277520897327
20
1.07337015313746
30
0
41
1
10
4.04645466631922
20
1.07957200588382
30
0
41
1
10
4.0988425247088
20
1.07343853040956
30
0
41
1
10
4.13045425192476
20
1.06105285124056
30
0
41
1
10
4.1932152030424
20
1.02542045031376
30
0
41
1
10
4.22310551229026
20
1.00347643862457
30
0
41
1
10
4.25129054111682
20
0.979894561202343
30
0
0
SPLINE
5
D3
100
AcDbEntity
8
1
62
256
6
ByLayer
370
18
48
1
60
0
100
AcDbSpline
70
4
71
3
72
8
73
4
40
0
40
0
40
0
40
0
40
1
40
1
40
1
40
1
41
1
10
70.9749221827731
20
-5.74721473473025
30
0
41
1
10
70.9476468702675
20
-5.81405159440601
30
0
41
1
10
70.920321292178
20
-5.88076443721926
30
0
41
1
10
70.8929494400966
20
-5.94735532077979
30
0
0
SPLINE
5
D4
100
AcDbEntity
8
1
62
256
6
ByLayer
370
18
48
1
60
0
100
AcDbSpline
70
4
71
3
72
14
73
10
40
0
40
0
40
0
40
0
40
0.25
40
0.25
40
0.5
40
0.5
40
0.75
40
0.75
40
1
40
1
40
1
40
1
41
1
10
71.2094088116042
20
-5.78935870064939
30
0
41
1
10
71.3420986095386
20
-5.41273181433667
30
0
41
1
10
71.4780946906931
20
-5.03762479023575
30
0
41
1
10
71.7555700750446
20
-4.28986640750563
30
0
41
1
10
71.897105463119
20
-3.91724049280288
30
0
41
1
10
72.1849561465813
20
-3.17408092712552
30
0
41
1
10
72.331309731996
20
-2.8035644708975
30
0
41
1
10
72.6282773756082
20
-2.06435985310188
30
0
41
1
10
72.7788879486821
20
-1.69567041192795
30
0
41
1
10
72.9314627238016
20
-1.32781012144028
30
0
0
SPLINE
5
D5
100
AcDbEntity
8
1
62
256
6
ByLayer
370
18
48
1
60
0
100
AcDbSpline
70
4
71
3
72
54
73
50
40
0
40
0
40
0
40
0
40
0.0800064019744261
40
0.0800064019744261
40
0.120009602961639
40
0.120009602961639
40
0.160012803948852
40
0.160012803948852
40
0.200016004936065
40
0.200016004936065
40
0.240019205923278
40
0.240019205923278
40
0.280022406910491
40
0.280022406910491
40
0.300024007404098
40
0.300024007404098
40
0.320025607897705
40
0.320025607897705
40
0.400032009872128
40
0.400032009872128
40
0.44003521085934
40
0.44003521085934
40
0.480038411846551
40
0.480038411846551
40
0.520041612833763
40
0.520041612833763
40
0.560044813820975
40
0.560044813820975
40
0.600048014808186
40
0.600048014808186
40
0.620049615301793
40
0.620049615301793
40
0.640051215795399
40
0.640051215795399
40
0.680054416782614
40
0.680054416782614
40
0.720057617769828
40
0.720057617769828
40
0.800064019744257
40
0.800064019744257
40
0.840067220731472
40
0.840067220731472
40
0.880070421718686
40
0.880070421718686
40
0.920073622705901
40
0.920073622705901
40
0.960076823693115
40
0.960076823693115
40
1
40
1
40
1
40
1
41
1
10
13.6163983449672
20
3.31648242243216
30
0
41
1
10
14.2208929387124
20
3.02846143547887
30
0
41
1
10
14.8242651475491
20
2.73061373234015
30
0
41
1
10
15.7238898423689
20
2.26373720666922
30
0
41
1
10
16.0224363563004
20
2.10400858743347
30
0
41
1
10
16.6202454122193
20
1.78200581266128
30
0
41
1
10
16.9193661165511
20
1.61951707104512
30
0
41
1
10
17.5174481678301
20
1.29060188892456
30
0
41
1
10
17.8164431697815
20
1.12423376969414
30
0
41
1
10
18.4137717021063
20
0.786587040722509
30
0
41
1
10
18.7128356938801
20
0.616592096501364
30
0
41
1
10
19.3130306552842
20
0.276571471530104
30
0
41
1
10
19.6138742284606
20
0.106035944495517
30
0
41
1
10
20.0659580213983
20
-0.151154892044559
30
0
41
1
10
20.2167843840982
20
-0.237126096567636
30
0
41
1
10
20.5186131076563
20
-0.409737518584478
30
0
41
1
10
20.6698421976205
20
-0.496364931714169
30
0
41
1
10
21.4261528872087
20
-0.926448742776586
30
0
41
1
10
22.0290095000949
20
-1.2615136355852
30
0
41
1
10
22.9268274368685
20
-1.75686373275133
30
0
41
1
10
23.2255023059498
20
-1.91987153982873
30
0
41
1
10
23.8235884668612
20
-2.23850398550371
30
0
41
1
10
24.1226459378973
20
-2.39474818323606
30
0
41
1
10
24.7203297887573
20
-2.70185680051992
30
0
41
1
10
25.0185653166937
20
-2.85332324777502
30
0
41
1
10
25.6160964283874
20
-3.14837714166296
30
0
41
1
10
25.9157162295476
20
-3.29149206489507
30
0
41
1
10
26.516140215229
20
-3.56974578593264
30
0
41
1
10
26.8169633900383
20
-3.70485777773493
30
0
41
1
10
27.2686953309116
20
-3.90196618393227
30
0
41
1
10
27.4192940942943
20
-3.96682202591185
30
0
41
1
10
27.7212896541624
20
-4.09376300602011
30
0
41
1
10
27.8728380720045
20
-4.15594241150166
30
0
41
1
10
28.3267022235642
20
-4.33772605787286
30
0
41
1
10
28.6285374043815
20
-4.4528048597769
30
0
41
1
10
29.2302591683887
20
-4.67159748094045
30
0
41
1
10
29.5298418278569
20
-4.77561631316595
30
0
41
1
10
30.4271393724432
20
-5.06881713206178
30
0
41
1
10
31.0257240025288
20
-5.2372470777735
30
0
41
1
10
31.9211893972521
20
-5.45257497565032
30
0
41
1
10
32.2191692802576
20
-5.51805427524761
30
0
41
1
10
32.8173066070644
20
-5.63426711055928
30
0
41
1
10
33.1170596257811
20
-5.68533484203462
30
0
41
1
10
33.7173912167244
20
-5.77362808750635
30
0
41
1
10
34.0178133555273
20
-5.81089981488594
30
0
41
1
10
34.6198359670318
20
-5.870935535222
30
0
41
1
10
34.9229930693792
20
-5.89347570939662
30
0
41
1
10
35.5274437832199
20
-5.92345045294221
30
0
41
1
10
35.8284452608508
20
-5.93095994067903
30
0
41
1
10
36.1283087952619
20
-5.9310740937151
30
0
0
SPLINE
5
D6
100
AcDbEntity
8
1
62
256
6
ByLayer
370
18
48
1
60
0
100
AcDbSpline
70
4
71
3
72
28
73
24
40
0
40
0
40
0
40
0
40
0.0428127182145973
40
0.0428127182145973
40
0.12982974383145
40
0.12982974383145
40
0.216846769448303
40
0.216846769448303
40
0.303863795065156
40
0.303863795065156
40
0.477897846298864
40
0.477897846298864
40
0.56491487191572
40
0.56491487191572
40
0.651931897532576
40
0.651931897532576
40
0.738948923149432
40
0.738948923149432
40
0.825965948766288
40
0.825965948766288
40
0.912982974383144
40
0.912982974383144
40
1
40
1
40
1
40
1
41
1
10
60.8673503953651
20
4.30837593764233
30
0
41
1
10
61.0143788549235
20
4.36625729941369
30
0
41
1
10
61.1614277043069
20
4.42292990178896
30
0
41
1
10
61.6073333209442
20
4.5911974031404
30
0
41
1
10
61.9059262987569
20
4.69930334436714
30
0
41
1
10
62.5059358273723
20
4.90228279789227
30
0
41
1
10
62.8069947911706
20
4.99761103384512
30
0
41
1
10
63.410666884031
20
5.17641678338839
30
0
41
1
10
63.7137554788612
20
5.26008980938289
30
0
41
1
10
64.617262518953
20
5.49047738268533
30
0
41
1
10
65.2180382631223
20
5.61438641781191
30
0
41
1
10
66.1147667903675
20
5.7589505677366
30
0
41
1
10
66.4125305383534
20
5.80029087085214
30
0
41
1
10
67.0091799952338
20
5.86787133754413
30
0
41
1
10
67.3078136347697
20
5.89430118081634
30
0
41
1
10
67.9051046483225
20
5.93273873094458
30
0
41
1
10
68.2037608872159
20
5.94474099908294
30
0
41
1
10
68.8007570647541
20
5.95394924318947
30
0
41
1
10
69.0999603088852
20
5.95108819175221
30
0
41
1
10
69.7004743814158
20
5.9306023577075
30
0
41
1
10
70.0015716035037
20
5.91298383335442
30
0
41
1
10
70.6050751108167
20
5.86259541447077
30
0
41
1
10
70.9072952318917
20
5.82954982387071
30
0
41
1
10
71.2094088116128
20
5.7893587006248
30
0
0
SPLINE
5
D7
100
AcDbEntity
8
1
62
256
6
ByLayer
370
18
48
1
60
0
100
AcDbSpline
70
4
71
3
72
8
73
4
40
0
40
0
40
0
40
0
40
1
40
1
40
1
40
1
41
1
10
72.9893659850616
20
0.125086011214847
30
0
41
1
10
72.9900175093364
20
0.103174847613815
30
0
41
1
10
72.9940491164185
20
0.0763919497971415
30
0
41
1
10
72.9999632513957
20
0.0481985952466459
30
0
0
SPLINE
5
D8
100
AcDbEntity
8
1
62
256
6
ByLayer
370
13
48
1
60
0
100
AcDbSpline
70
4
71
3
72
8
73
4
40
0
40
0
40
0
40
0
40
1
40
1
40
1
40
1
41
1
10
4.12923961116002
20
-5.70412918149935
30
0
41
1
10
4.15198645026453
20
-5.69290687951039
30
0
41
1
10
4.17675272495401
20
-5.68802681587582
30
0
41
1
10
4.20200835154404
20
-5.68931422590839
30
0
0
SPLINE
5
D9
100
AcDbEntity
8
1
62
256
6
ByLayer
370
18
48
1
60
0
100
AcDbSpline
70
4
71
3
72
14
73
10
40
0
40
0
40
0
40
0
40
0.25
40
0.25
40
0.5
40
0.5
40
0.75
40
0.75
40
1
40
1
40
1
40
1
41
1
10
71.2094088116056
20
5.78935870064555
30
0
41
1
10
71.3413725151188
20
5.41479276163446
30
0
41
1
10
71.4769662487196
20
5.04071904106655
30
0
41
1
10
71.7541665870731
20
4.29359584730631
30
0
41
1
10
71.8958334267167
20
3.92055578978972
30
0
41
1
10
72.184384863458
20
3.17552482587828
30
0
41
1
10
72.3312882428915
20
2.80361393254341
30
0
41
1
10
72.6285834420187
20
2.06360203242221
30
0
41
1
10
72.7791348769546
20
1.69507506380452
30
0
41
1
10
72.9314627238016
20
1.32781012144037
30
0
0
SPLINE
5
DA
100
AcDbEntity
8
1
62
256
6
ByLayer
370
18
48
1
60
0
100
AcDbSpline
70
4
71
3
72
8
73
4
40
0
40
0
40
0
40
0
40
1
40
1
40
1
40
1
41
1
10
72.9314627238016
20
1.32781012144025
30
0
41
1
10
72.9581555258944
20
0.926462690036288
30
0
41
1
10
72.9774581289714
20
0.52555456317765
30
0
41
1
10
72.9893659850616
20
0.125086011214847
30
0
0
SPLINE
5
DB
100
AcDbEntity
8
1
62
256
6
ByLayer
370
13
48
1
60
0
100
AcDbSpline
70
4
71
3
72
12
73
8
40
0
40
0
40
0
40
0
40
0.390475316086414
40
0.390475316086414
40
0.780950632172828
40
0.780950632172828
40
1
40
1
40
1
40
1
41
1
10
4.20200835154404
20
-5.68931422590839
30
0
41
1
10
4.55288653211585
20
-5.70720030322539
30
0
41
1
10
4.90348711232679
20
-5.71521458683867
30
0
41
1
10
5.60482591125037
20
-5.71165099275765
30
0
41
1
10
5.95612008039387
20
-5.700033925844
30
0
41
1
10
6.503011900861
20
-5.66681845628548
30
0
41
1
10
6.69913562767286
20
-5.65187607267603
30
0
41
1
10
6.89491643687722
20
-5.63397633576534
30
0
0
SPLINE
5
DC
100
AcDbEntity
8
1
62
256
6
ByLayer
370
18
48
1
60
0
100
AcDbSpline
70
4
71
3
72
20
73
16
40
0
40
0
40
0
40
0
40
0.0200685055330564
40
0.0200685055330564
40
0.509544789351428
40
0.509544789351428
40
0.754282931260615
40
0.754282931260615
40
0.815467466737914
40
0.815467466737914
40
0.876652002215213
40
0.876652002215213
40
0.999021073169812
40
0.999021073169812
40
1
40
1
40
1
40
1
41
1
10
54.12433532047
20
-0.0006281290041841
30
0
41
1
10
54.1815595238969
20
-0.032260114023785
30
0
41
1
10
54.2387518579691
20
-0.0638758292759576
30
0
41
1
10
55.6901222631986
20
-0.866103792823907
30
0
41
1
10
57.0667611697378
20
-1.62443970322192
30
0
41
1
10
59.1438814194974
20
-2.67500466805089
30
0
41
1
10
59.8381766069349
20
-3.01094202393747
30
0
41
1
10
60.7125490344545
20
-3.40577375330594
30
0
41
1
10
60.8879694498936
20
-3.48357042628214
30
0
41
1
10
61.2378992284807
20
-3.63569837911891
30
0
41
1
10
61.4125338228317
20
-3.71009269149798
30
0
41
1
10
61.9355749821705
20
-3.92812675087549
30
0
41
1
10
62.283126094492
20
-4.06661879324085
30
0
41
1
10
62.6327148735337
20
-4.19889691923282
30
0
41
1
10
62.6354892685438
20
-4.19994625295251
30
0
41
1
10
62.6382636170131
20
-4.20099512117054
30
0
0
SPLINE
5
DD
100
AcDbEntity
8
1
62
256
6
ByLayer
370
13
48
1
60
0
100
AcDbSpline
70
4
71
3
72
14
73
10
40
0
40
0
40
0
40
0
40
0.499499512662931
40
0.499499512662931
40
0.624624634497198
40
0.624624634497198
40
0.749749756331465
40
0.749749756331465
40
1
40
1
40
1
40
1
41
1
10
62.638263617151
20
-4.2009951212226
30
0
41
1
10
64.0226999741289
20
-4.72439415014011
30
0
41
1
10
65.3955469792065
20
-5.13187668927048
30
0
41
1
10
67.1293409885577
20
-5.46441925653946
30
0
41
1
10
67.4775544051573
20
-5.52215035269381
30
0
41
1
10
68.1765809592567
20
-5.61910784151485
30
0
41
1
10
68.5274710172913
20
-5.65830691190962
30
0
41
1
10
69.5769750638535
20
-5.74651582986613
30
0
41
1
10
70.2751950807869
20
-5.76655015643641
30
0
41
1
10
70.9749221827731
20
-5.74721473473019
30
0
0
SPLINE
5
DE
100
AcDbEntity
8
1
62
256
6
ByLayer
370
18
48
1
60
0
100
AcDbSpline
70
4
71
3
72
28
73
24
40
0
40
0
40
0
40
0
40
0.0237747775438825
40
0.0679353752307996
40
0.103645247268089
40
0.132400519939125
40
0.175596867234721
40
0.228904640691118
40
0.278050406638019
40
0.326777891930163
40
0.39087731160825
40
0.458312280125176
40
0.51789003157267
40
0.565290305808902
40
0.625755011550014
40
0.696043032233849
40
0.782867152819979
40
0.832308709648158
40
0.867305924864767
40
0.902490008009102
40
0.943756699715509
40
0.99188595132039
40
1
40
1
40
1
40
1
41
1
10
53.7409855756474
20
5.64329190349324
30
0
41
1
10
53.6400058842052
20
5.64336135755622
30
0
41
1
10
53.3522369309303
20
5.64345719388476
30
0
41
1
10
52.9228786152767
20
5.64383462647564
30
0
41
1
10
52.4651306209581
20
5.64239258597564
30
0
41
1
10
52.0095617559141
20
5.64235457575393
30
0
41
1
10
51.4805258081383
20
5.64278730438986
30
0
41
1
10
50.8643877232567
20
5.64205021758499
30
0
41
1
10
50.225123606152
20
5.64102505347739
30
0
41
1
10
49.5401496453147
20
5.64178725091031
30
0
41
1
10
48.7778571677682
20
5.64131876112407
30
0
41
1
10
47.969665305349
20
5.63990295118276
30
0
41
1
10
47.2321299662219
20
5.64065715023963
30
0
41
1
10
46.5239430907193
20
5.63887274619813
30
0
41
1
10
45.7710962146401
20
5.63934287697489
30
0
41
1
10
44.8514566521469
20
5.63868794693931
30
0
41
1
10
43.978073701142
20
5.63791966842032
30
0
41
1
10
43.2545670926086
20
5.63819032105803
30
0
41
1
10
42.7501156275031
20
5.63752977879244
30
0
41
1
10
42.2786716781469
20
5.63675595601606
30
0
41
1
10
41.7522105091394
20
5.63691337750336
30
0
41
1
10
41.3393992082173
20
5.63690529607405
30
0
41
1
10
41.1020999403819
20
5.63667499711281
30
0
41
1
10
41.0678712062097
20
5.63663865778247
30
0
0
SPLINE
5
DF
100
AcDbEntity
8
1
62
256
6
ByLayer
370
18
48
1
60
0
100
AcDbSpline
70
4
71
1
72
4
73
2
40
0
40
0
40
1
40
1
41
1
10
70.6386895540777
20
-5.65495082320382
30
0
41
1
10
70.9244636077428
20
-5.65435372620038
30
0
0
SPLINE
5
E0
100
AcDbEntity
8
1
62
256
6
ByLayer
370
18
48
1
60
0
100
AcDbSpline
70
4
71
3
72
35
73
31
40
0
40
0
40
0
40
0
40
0.0388332315208496
40
0.055874762476587
40
0.0835616534615169
40
0.112232003399603
40
0.142255958829924
40
0.177540536546345
40
0.209143333409544
40
0.247541410962926
40
0.292620185386852
40
0.333257160114115
40
0.381296243996012
40
0.433140493317983
40
0.489639162972423
40
0.547439325617418
40
0.584262088666035
40
0.612311213828049
40
0.649509313736258
40
0.69279408772759
40
0.726520332026154
40
0.758661285709875
40
0.800167467061581
40
0.841138724275055
40
0.87634812936833
40
0.895443490147017
40
0.917098322658062
40
0.943345537189872
40
0.982408028730533
40
1
40
1
40
1
40
1
41
1
10
37.9205268605517
20
-5.63459571748578
30
0
41
1
10
38.1058068568155
20
-5.63313341147773
30
0
41
1
10
38.3808657650949
20
-5.63196391561974
30
0
41
1
10
38.8218912038779
20
-5.63049911697439
30
0
41
1
10
39.1957150767122
20
-5.63460733063957
30
0
41
1
10
39.6408307298019
20
-5.63565731808666
30
0
41
1
10
40.1310433579869
20
-5.6360096174738
30
0
41
1
10
40.6378669205484
20
-5.63639857669446
30
0
41
1
10
41.1885241210728
20
-5.63684998704701
30
0
41
1
10
41.7904007890946
20
-5.63702031840614
30
0
41
1
10
42.4395415184422
20
-5.63709640556462
30
0
41
1
10
43.1390362213699
20
-5.63816234127037
30
0
41
1
10
43.874258021612
20
-5.63813703964342
30
0
41
1
10
44.6884935429976
20
-5.63780173274668
30
0
41
1
10
45.5590939392361
20
-5.63911049810085
30
0
41
1
10
46.3471929536305
20
-5.6385121490527
30
0
41
1
10
46.988530880895
20
-5.64022122423091
30
0
41
1
10
47.5224172925217
20
-5.64034494851276
30
0
41
1
10
48.0900203745201
20
-5.64009782240683
30
0
41
1
10
48.6874495960614
20
-5.64101658407287
30
0
41
1
10
49.2580460285765
20
-5.64182818367328
30
0
41
1
10
49.8194636787154
20
-5.64126374869537
30
0
41
1
10
50.4188725540813
20
-5.64106625528004
30
0
41
1
10
51.0341579458849
20
-5.64250603202498
30
0
41
1
10
51.532510381071
20
-5.6426378622788
30
0
41
1
10
51.9297875340616
20
-5.64245972054837
30
0
41
1
10
52.2801742974195
20
-5.64246347414169
30
0
41
1
10
52.7349769861036
20
-5.64295626985708
30
0
41
1
10
53.1685779704051
20
-5.64436318633801
30
0
41
1
10
53.4648819191438
20
-5.64423415925128
30
0
41
1
10
53.5568884269226
20
-5.64415372053148
30
0
0
SPLINE
5
E1
100
AcDbEntity
8
1
62
256
6
ByLayer
370
18
48
1
60
0
100
AcDbSpline
70
4
71
3
72
29
73
25
40
0
40
0
40
0
40
0
40
0.0422538290575646
40
0.0602575476323132
40
0.0971112434755132
40
0.132124485470393
40
0.166208640190847
40
0.20287447595272
40
0.243943422759241
40
0.281856557852826
40
0.319415243716268
40
0.396361490956677
40
0.466679070788346
40
0.543130837036937
40
0.60710551584967
40
0.66491474837423
40
0.733216453599734
40
0.799330745161932
40
0.861904980351477
40
0.894834979237755
40
0.924893531537096
40
0.954623404753944
40
0.986208021116815
40
1
40
1
40
1
40
1
41
1
10
5.24173945443474
20
-5.6144120030178
30
0
41
1
10
5.44636405784172
20
-5.61293528442951
30
0
41
1
10
5.74550333851397
20
-5.61170700831764
30
0
41
1
10
6.25595520324572
20
-5.60960809110173
30
0
41
1
10
6.7100568088257
20
-5.61538965390855
30
0
41
1
10
7.25459285336734
20
-5.61575352777777
30
0
41
1
10
7.80793113317284
20
-5.61610084824616
30
0
41
1
10
8.39130691703292
20
-5.6170009277345
30
0
41
1
10
8.99511270333306
20
-5.61756754270931
30
0
41
1
10
9.60348142145045
20
-5.61783498157379
30
0
41
1
10
10.3991456037201
20
-5.61883135277827
30
0
41
1
10
11.3639833822533
20
-5.61842322868418
30
0
41
1
10
12.5318599593029
20
-5.61991414667122
30
0
41
1
10
13.6320119556727
20
-5.61966467817848
30
0
41
1
10
14.6668769982556
20
-5.62140873812061
30
0
41
1
10
15.6591916740489
20
-5.6208919165999
30
0
41
1
10
16.6626750567575
20
-5.62273219238898
30
0
41
1
10
17.691036103985
20
-5.62259168012793
30
0
41
1
10
18.5347467405042
20
-5.62486778024225
30
0
41
1
10
19.1902162210837
20
-5.62426529152805
30
0
41
1
10
19.6742720616368
20
-5.62429759842141
30
0
41
1
10
20.1511510462577
20
-5.62539364392507
30
0
41
1
10
20.5385855765512
20
-5.62615602013651
30
0
41
1
10
20.7698722969539
20
-5.62425771090537
30
0
41
1
10
20.8402991420882
20
-5.62369313029592
30
0
0
SPLINE
5
E2
100
AcDbEntity
8
1
62
256
6
ByLayer
370
18
48
1
60
0
100
AcDbSpline
70
4
71
3
72
9
73
5
40
0
40
0
40
0
40
0
40
0.650261115564597
40
1
40
1
40
1
40
1
41
1
10
20.9427371267951
20
-5.62290787610468
30
0
41
1
10
21.0118172786965
20
-5.62242032647532
30
0
41
1
10
21.1185154848439
20
-5.6218527954382
30
0
41
1
10
21.226780354371
20
-5.62207490083682
30
0
41
1
10
21.2647176739586
20
-5.62217830034385
30
0
0
SPLINE
5
E3
100
AcDbEntity
8
1
62
256
6
ByLayer
370
18
48
1
60
0
100
AcDbSpline
70
4
71
3
72
22
73
18
40
0
40
0
40
0
40
0
40
0.0087739727500332
40
0.0499997677545892
40
0.0883432952232184
40
0.124438332792079
40
0.199296503218257
40
0.283067038368364
40
0.362394211106644
40
0.443693869790273
40
0.512559132979206
40
0.589070166492195
40
0.704237907494792
40
0.815143561985847
40
0.922853048369354
40
0.976735293962399
40
1
40
1
40
1
40
1
41
1
10
21.2665710280222
20
5.6221712771964
30
0
41
1
10
21.228839879912
20
5.62206715305661
30
0
41
1
10
21.014233497039
20
5.62162065864902
30
0
41
1
10
20.6458253801476
20
5.6263371433628
30
0
41
1
10
20.1552939284324
20
5.62541840412007
30
0
41
1
10
19.5145653417758
20
5.62387848186029
30
0
41
1
10
18.6785564229523
20
5.62519391664597
30
0
41
1
10
17.657088501894
20
5.62258099266859
30
0
41
1
10
16.6079209124621
20
5.62262518837113
30
0
41
1
10
15.6227551847308
20
5.62091900582783
30
0
41
1
10
14.6496740887894
20
5.62135341225527
30
0
41
1
10
13.5312006184747
20
5.61965450132612
30
0
41
1
10
12.2322645350953
20
5.61925481063906
30
0
41
1
10
10.7993839396551
20
5.61907957168575
30
0
41
1
10
9.62960958043308
20
5.6178294911856
30
0
41
1
10
8.83603955279355
20
5.61747027803946
30
0
41
1
10
8.50489095619423
20
5.61706392209169
30
0
41
1
10
8.40502462857879
20
5.61693396724101
30
0
0
LINE
5
7B
100
AcDbEntity
8
SK1
62
256
6
ByLayer
370
18
48
1
60
0
100
AcDbLine
10
-43.255
20
6
30
0
11
-43.255
21
-6
31
0
39
0
210
0
220
0
230
1
0
LINE
5
7D
100
AcDbEntity
8
SK1
62
256
6
ByLayer
370
18
48
1
60
0
100
AcDbLine
10
-45
20
4.255
30
0
11
-45
21
-4.255
31
0
39
0
210
0
220
0
230
1
0
LINE
5
7E
100
AcDbEntity
8
SK1
62
256
6
ByLayer
370
18
48
1
60
0
100
AcDbLine
10
0
20
-6
30
0
11
0
21
6
31
0
39
0
210
0
220
0
230
1
0
LINE
5
7F
100
AcDbEntity
8
1
62
256
6
ByLayer
370
18
48
1
60
0
100
AcDbLine
10
0
20
-6
30
0
11
0
21
6
31
0
39
0
210
0
220
0
230
1
0
LINE
5
80
100
AcDbEntity
8
1
62
256
6
ByLayer
370
13
48
1
60
0
100
AcDbLine
10
70.870725
20
1.284423
30
0
11
72.964402
21
-0.040924
31
0
39
0
210
0
220
0
230
1
0
LINE
5
81
100
AcDbEntity
8
1
62
256
6
ByLayer
370
18
48
1
60
0
100
AcDbLine
10
4
20
-5.857176
30
0
11
4
21
0.987049
31
0
39
0
210
0
220
0
230
1
0
LINE
5
82
100
AcDbEntity
8
1
62
256
6
ByLayer
370
13
48
1
60
0
100
AcDbLine
10
71.006074
20
1.380557
30
0
11
72.989366
21
0.125086
31
0
39
0
210
0
220
0
230
1
0
LINE
5
83
100
AcDbEntity
8
1
62
256
6
ByLayer
370
18
48
1
60
0
100
AcDbLine
10
1.5
20
5.909432
30
0
11
1.5
21
-5.909432
31
0
39
0
210
0
220
0
230
1
0
LINE
5
84
100
AcDbEntity
8
80
62
256
6
ByLayer
370
18
48
1
60
0
100
AcDbLine
10
0
20
0
30
0
11
-5
21
0
31
0
39
0
210
0
220
0
230
1
0
LINE
5
85
100
AcDbEntity
8
4
62
256
6
ByLayer
370
18
48
0.05
60
0
100
AcDbLine
10
73
20
0
30
0
11
0
21
0
31
0
39
0
210
0
220
0
230
1
0
LINE
5
87
100
AcDbEntity
8
SK4
62
256
6
ByLayer
370
18
48
0.05
60
0
100
AcDbLine
10
78
20
0
30
0
11
-50
21
0
31
0
39
0
210
0
220
0
230
1
0
LINE
5
89
100
AcDbEntity
8
SK1
62
256
6
ByLayer
370
18
48
1
60
0
100
AcDbLine
10
-43.255
20
-6
30
0
11
0
21
-6
31
0
39
0
210
0
220
0
230
1
0
LINE
5
8A
100
AcDbEntity
8
SK1
62
256
6
ByLayer
370
18
48
1
60
0
100
AcDbLine
10
0
20
6
30
0
11
-43.255
21
6
31
0
39
0
210
0
220
0
230
1
0
LINE
5
8B
100
AcDbEntity
8
SK1
62
256
6
ByLayer
370
18
48
1
60
0
100
AcDbLine
10
-45
20
-4.255
30
0
11
-43.255
21
-6
31
0
39
0
210
0
220
0
230
1
0
LINE
5
8C
100
AcDbEntity
8
SK1
62
256
6
ByLayer
370
18
48
1
60
0
100
AcDbLine
10
-43.255
20
6
30
0
11
-45
21
4.255
31
0
39
0
210
0
220
0
230
1
0
LINE
5
8D
100
AcDbEntity
8
1
62
256
6
ByLayer
370
18
48
1
60
0
100
AcDbLine
10
36.121203
20
-5.93107
30
0
11
37.797939
21
-5.932118
31
0
39
0
210
0
220
0
230
1
0
LINE
5
8E
100
AcDbEntity
8
1
62
256
6
ByLayer
370
18
48
1
60
0
100
AcDbLine
10
37.797509
20
5.932118
30
0
11
36.121203
21
5.93107
31
0
39
0
210
0
220
0
230
1
0
LINE
5
8F
100
AcDbEntity
8
1
62
256
6
ByLayer
370
18
48
1
60
0
100
AcDbLine
10
1.5
20
5.909432
30
0
11
0
21
6
31
0
39
0
210
0
220
0
230
1
0
LINE
5
90
100
AcDbEntity
8
1
62
256
6
ByLayer
370
18
48
1
60
0
100
AcDbLine
10
0
20
-6
30
0
11
1.5
21
-5.909432
31
0
39
0
210
0
220
0
230
1
0
LINE
5
91
100
AcDbEntity
8
1
62
256
6
ByLayer
370
18
48
1
60
0
100
AcDbLine
10
1.5
20
-5.909432
30
0
11
5.1479
21
-5.911712
31
0
39
0
210
0
220
0
230
1
0
LINE
5
92
100
AcDbEntity
8
1
62
256
6
ByLayer
370
18
48
1
60
0
100
AcDbLine
10
68.767504
20
-5.951474
30
0
11
70.448574
21
-5.952525
31
0
39
0
210
0
220
0
230
1
0
LINE
5
93
100
AcDbEntity
8
1
62
256
6
ByLayer
370
18
48
1
60
0
100
AcDbLine
10
70.448499
20
5.952525
30
0
11
68.767504
21
5.951474
31
0
39
0
210
0
220
0
230
1
0
LINE
5
94
100
AcDbEntity
8
1
62
256
6
ByLayer
370
18
48
1
60
0
100
AcDbLine
10
5.147899
20
5.911712
30
0
11
1.5
21
5.909432
31
0
39
0
210
0
220
0
230
1
0
LINE
5
95
100
AcDbEntity
8
81
62
256
6
ByLayer
370
18
48
1
60
0
100
AcDbLine
10
73
20
0
30
0
11
78
21
0
31
0
39
0
210
0
220
0
230
1
0
LINE
5
96
100
AcDbEntity
8
SK2
62
256
6
ByLayer
370
13
48
1
60
0
100
AcDbLine
10
-53.625163
20
-6
30
0
11
-53.625163
21
36.857173
31
0
39
0
210
0
220
0
230
1
0
LINE
5
98
100
AcDbEntity
8
SK2
62
256
6
ByLayer
370
13
48
1
60
0
100
AcDbLine
10
-46.5875
20
6
30
0
11
-55.625163
21
6
31
0
39
0
210
0
220
0
230
1
0
LINE
5
99
100
AcDbEntity
8
SK2
62
256
6
ByLayer
370
13
48
1
60
0
100
AcDbLine
10
-46.5875
20
-6
30
0
11
-55.625163
21
-6
31
0
39
0
210
0
220
0
230
1
0
LINE
5
9A
100
AcDbEntity
8
1
62
256
6
ByLayer
370
18
48
1
60
1
100
AcDbLine
10
-53.625163
20
6
30
0
11
-53.164379
21
2.500002
31
0
39
0
210
0
220
0
230
1
0
LINE
5
9B
100
AcDbEntity
8
1
62
256
6
ByLayer
370
18
48
1
60
1
100
AcDbLine
10
-53.164379
20
2.500002
30
0
11
-54.085946
21
2.499998
31
0
39
0
210
0
220
0
230
1
0
LINE
5
9C
100
AcDbEntity
8
1
62
256
6
ByLayer
370
18
48
1
60
1
100
AcDbLine
10
-54.085946
20
2.499998
30
0
11
-53.625163
21
6
31
0
39
0
210
0
220
0
230
1
0
LINE
5
9D
100
AcDbEntity
8
1
62
256
6
ByLayer
370
18
48
1
60
1
100
AcDbLine
10
-53.625163
20
-6
30
0
11
-54.085946
21
-2.500002
31
0
39
0
210
0
220
0
230
1
0
LINE
5
9E
100
AcDbEntity
8
1
62
256
6
ByLayer
370
18
48
1
60
1
100
AcDbLine
10
-54.085946
20
-2.500002
30
0
11
-53.164379
21
-2.499998
31
0
39
0
210
0
220
0
230
1
0
LINE
5
9F
100
AcDbEntity
8
1
62
256
6
ByLayer
370
18
48
1
60
1
100
AcDbLine
10
-53.164379
20
-2.499998
30
0
11
-53.625163
21
-6
31
0
39
0
210
0
220
0
230
1
0
LINE
5
A0
100
AcDbEntity
8
2
62
256
6
ByLayer
370
13
48
1
60
0
100
AcDbLine
10
85.083343
20
-5.953
30
0
11
85.083343
21
34.528392
31
0
39
0
210
0
220
0
230
1
0
LINE
5
A2
100
AcDbEntity
8
2
62
256
6
ByLayer
370
13
48
1
60
0
100
AcDbLine
10
72.8163
20
5.953
30
0
11
87.083343
21
5.953
31
0
39
0
210
0
220
0
230
1
0
LINE
5
A3
100
AcDbEntity
8
2
62
256
6
ByLayer
370
13
48
1
60
0
100
AcDbLine
10
72.8163
20
-5.953
30
0
11
87.083343
21
-5.953
31
0
39
0
210
0
220
0
230
1
0
LINE
5
A4
100
AcDbEntity
8
1
62
256
6
ByLayer
370
18
48
1
60
1
100
AcDbLine
10
85.083343
20
5.953
30
0
11
85.544126
21
2.453002
31
0
39
0
210
0
220
0
230
1
0
LINE
5
A5
100
AcDbEntity
8
1
62
256
6
ByLayer
370
18
48
1
60
1
100
AcDbLine
10
85.544126
20
2.453002
30
0
11
84.622559
21
2.452998
31
0
39
0
210
0
220
0
230
1
0
LINE
5
A6
100
AcDbEntity
8
1
62
256
6
ByLayer
370
18
48
1
60
1
100
AcDbLine
10
84.622559
20
2.452998
30
0
11
85.083343
21
5.953
31
0
39
0
210
0
220
0
230
1
0
LINE
5
A7
100
AcDbEntity
8
1
62
256
6
ByLayer
370
18
48
1
60
1
100
AcDbLine
10
85.083343
20
-5.953
30
0
11
84.622559
21
-2.453002
31
0
39
0
210
0
220
0
230
1
0
LINE
5
A8
100
AcDbEntity
8
1
62
256
6
ByLayer
370
18
48
1
60
1
100
AcDbLine
10
84.622559
20
-2.453002
30
0
11
85.544126
21
-2.452998
31
0
39
0
210
0
220
0
230
1
0
LINE
5
A9
100
AcDbEntity
8
1
62
256
6
ByLayer
370
18
48
1
60
1
100
AcDbLine
10
85.544126
20
-2.452998
30
0
11
85.083343
21
-5.953
31
0
39
0
210
0
220
0
230
1
0
LINE
5
EA
100
AcDbEntity
8
1
62
256
6
ByLayer
370
18
48
1
60
1
100
AcDbLine
10
-53.625163
20
6
30
0
11
-53.164379
21
2.500002
31
0
39
0
210
0
220
0
230
1
0
LINE
5
EB
100
AcDbEntity
8
1
62
256
6
ByLayer
370
18
48
1
60
1
100
AcDbLine
10
-53.164379
20
2.500002
30
0
11
-54.085946
21
2.499998
31
0
39
0
210
0
220
0
230
1
0
LINE
5
EC
100
AcDbEntity
8
1
62
256
6
ByLayer
370
18
48
1
60
1
100
AcDbLine
10
-54.085946
20
2.499998
30
0
11
-53.625163
21
6
31
0
39
0
210
0
220
0
230
1
0
LINE
5
EE
100
AcDbEntity
8
1
62
256
6
ByLayer
370
18
48
1
60
1
100
AcDbLine
10
-53.625163
20
-6
30
0
11
-54.085946
21
-2.500002
31
0
39
0
210
0
220
0
230
1
0
LINE
5
EF
100
AcDbEntity
8
1
62
256
6
ByLayer
370
18
48
1
60
1
100
AcDbLine
10
-54.085946
20
-2.500002
30
0
11
-53.164379
21
-2.499998
31
0
39
0
210
0
220
0
230
1
0
LINE
5
F0
100
AcDbEntity
8
1
62
256
6
ByLayer
370
18
48
1
60
1
100
AcDbLine
10
-53.164379
20
-2.499998
30
0
11
-53.625163
21
-6
31
0
39
0
210
0
220
0
230
1
0
LINE
5
F4
100
AcDbEntity
8
1
62
256
6
ByLayer
370
18
48
1
60
1
100
AcDbLine
10
85.083343
20
5.953
30
0
11
85.544126
21
2.453002
31
0
39
0
210
0
220
0
230
1
0
LINE
5
F5
100
AcDbEntity
8
1
62
256
6
ByLayer
370
18
48
1
60
1
100
AcDbLine
10
85.544126
20
2.453002
30
0
11
84.622559
21
2.452998
31
0
39
0
210
0
220
0
230
1
0
LINE
5
F6
100
AcDbEntity
8
1
62
256
6
ByLayer
370
18
48
1
60
1
100
AcDbLine
10
84.622559
20
2.452998
30
0
11
85.083343
21
5.953
31
0
39
0
210
0
220
0
230
1
0
LINE
5
F8
100
AcDbEntity
8
1
62
256
6
ByLayer
370
18
48
1
60
1
100
AcDbLine
10
85.083343
20
-5.953
30
0
11
84.622559
21
-2.453002
31
0
39
0
210
0
220
0
230
1
0
LINE
5
F9
100
AcDbEntity
8
1
62
256
6
ByLayer
370
18
48
1
60
1
100
AcDbLine
10
84.622559
20
-2.453002
30
0
11
85.544126
21
-2.452998
31
0
39
0
210
0
220
0
230
1
0
LINE
5
FA
100
AcDbEntity
8
1
62
256
6
ByLayer
370
18
48
1
60
1
100
AcDbLine
10
85.544126
20
-2.452998
30
0
11
85.083343
21
-5.953
31
0
39
0
210
0
220
0
230
1
0
MTEXT
5
E4
100
AcDbEntity
8
SK6
62
256
6
ByLayer
370
13
48
1
60
0
100
AcDbMText
10
-14.270327
20
38.493328
30
0
210
0
220
0
230
1
1
\W0.7456;462.1-1191-060A0-XM X2BM
40
3.5
41
0
44
1.084337
50
0
71
7
72
5
7
iso_b_vert
0
MTEXT
5
E8
100
AcDbEntity
8
SK2
62
256
6
ByLayer
370
18
48
1
60
0
100
AcDbMText
10
-55.189796
20
19.409024
30
0
210
0
220
0
230
1
1
%%c
40
3.5
41
0
44
1.084337
50
90
71
7
72
5
7
iso_b_vert
0
MTEXT
5
E9
100
AcDbEntity
8
SK2
62
256
6
ByLayer
370
18
48
1
60
0
100
AcDbMText
10
-55.189796
20
24.63168
30
0
210
0
220
0
230
1
1
\W0.6930;12,000
40
3.5
41
0
44
1.084337
50
90
71
7
72
5
7
iso_b_vert
0
MTEXT
5
F2
100
AcDbEntity
8
2
62
256
6
ByLayer
370
18
48
1
60
0
100
AcDbMText
10
83.518709
20
17.95511
30
0
210
0
220
0
230
1
1
%%c
40
3.5
41
0
44
1.084337
50
90
71
7
72
5
7
iso_b_vert
0
MTEXT
5
F3
100
AcDbEntity
8
2
62
256
6
ByLayer
370
18
48
1
60
0
100
AcDbMText
10
83.518709
20
23.177766
30
0
210
0
220
0
230
1
1
\W0.6440;11,906
40
3.5
41
0
44
1.084337
50
90
71
7
72
5
7
iso_b_vert
0
HATCH
5
ED
100
AcDbEntity
8
SK2
62
256
6
ByLayer
370
13
48
1
60
0
100
AcDbHatch
10
0
20
0
30
0
210
0
220
0
230
1
2
ANSI31
70
0
71
0
91
1
92
5
93
3
72
1
10
-53.6251625675374
20
6
11
-53.1643788259847
21
2.50000169255318
72
1
10
-53.1643788259847
20
2.50000169255318
11
-54.0859463090902
21
2.49999830744682
72
1
10
-54.0859463090902
20
2.49999830744682
11
-53.6251625675374
21
6
97
0
75
0
76
1
52
0
41
0.0062
77
0
78
1
53
45
43
0
44
0
45
-0.0139193969876572
46
0.0139193969876572
79
0
47
0
98
1
10
0
20
0
0
HATCH
5
F1
100
AcDbEntity
8
SK2
62
256
6
ByLayer
370
13
48
1
60
0
100
AcDbHatch
10
0
20
0
30
0
210
0
220
0
230
1
2
ANSI31
70
0
71
0
91
1
92
5
93
3
72
1
10
-53.6251625675374
20
-6
11
-54.0859463090902
21
-2.50000169255318
72
1
10
-54.0859463090902
20
-2.50000169255318
11
-53.1643788259847
21
-2.49999830744682
72
1
10
-53.1643788259847
20
-2.49999830744682
11
-53.6251625675374
21
-6
97
0
75
0
76
1
52
0
41
0.0062
77
0
78
1
53
45
43
0
44
0
45
-0.0139193969876572
46
0.0139193969876572
79
0
47
0
98
1
10
0
20
0
0
HATCH
5
F7
100
AcDbEntity
8
2
62
256
6
ByLayer
370
13
48
1
60
0
100
AcDbHatch
10
0
20
0
30
0
210
0
220
0
230
1
2
ANSI31
70
0
71
0
91
1
92
5
93
3
72
1
10
85.083342615295
20
5.953
11
85.5441263568478
21
2.45300169255319
72
1
10
85.5441263568478
20
2.45300169255319
11
84.6225588737423
21
2.45299830744682
72
1
10
84.6225588737423
20
2.45299830744682
11
85.083342615295
21
5.953
97
0
75
0
76
1
52
0
41
0.0062
77
0
78
1
53
45
43
0
44
0
45
-0.0139193969876572
46
0.0139193969876572
79
0
47
0
98
1
10
0
20
0
0
HATCH
5
FB
100
AcDbEntity
8
2
62
256
6
ByLayer
370
13
48
1
60
0
100
AcDbHatch
10
0
20
0
30
0
210
0
220
0
230
1
2
ANSI31
70
0
71
0
91
1
92
5
93
3
72
1
10
85.083342615295
20
-5.95299999999998
11
84.6225588737423
21
-2.45300169255316
72
1
10
84.6225588737423
20
-2.45300169255316
11
85.5441263568478
21
-2.45299830744679
72
1
10
85.5441263568478
20
-2.45299830744679
11
85.083342615295
21
-5.95299999999998
97
0
75
0
76
1
52
0
41
0.0062
77
0
78
1
53
45
43
0
44
0
45
-0.0139193969876572
46
0.0139193969876572
79
0
47
0
98
1
10
0
20
0
0
DIMENSION
5
FD
100
AcDbEntity
8
SK2
62
256
6
ByLayer
370
13
48
1
60
0
100
AcDbDimension
2
_U0
10
71.2288
20
-16.166398
30
0
11
35.6144
21
-16.166398
31
0
70
32
71
1
72
1
41
1
210
0
220
0
230
1
3
Standard
100
AcDbAlignedDimension
13
0
23
0
33
0
14
71.2288
24
-5.953
34
0
50
0
100
AcDbRotatedDimension
1001
ACAD
1000
DSTYLE
1002
{
1070
   371
1070
    13
1070
   372
1070
    13
1070
   170
1070
     0
1070
   144
1040
1.0
1070
   277
1070
     2
1070
   278
1070
    44
1070
   146
1040
1.0
1070
   345
1005
16
1070
   347
1005
16
1070
   346
1005
16
1070
   344
1005
0
1070
   343
1005
0
1070
   172
1070
     1
1070
    76
1070
     0
1070
    75
1070
     0
1070
   282
1070
     0
1070
   281
1070
     0
1070
    71
1070
     0
1070
    74
1070
     0
1070
   279
1070
     0
1070
   173
1070
     1
1070
   340
1005
E5
1070
   271
1070
     2
1070
   272
1070
     2
1070
    77
1070
     1
1070
    73
1070
     1
1070
   171
1070
     3
1070
   274
1070
     4
1070
   177
1070
    35
1070
   176
1070
    35
1070
   178
1070
    35
1070
    48
1040
-0.1
1070
    41
1040
3.5
1070
   147
1040
1.75
1070
    42
1040
1.5875
1070
    44
1040
2.0
1070
   140
1040
3.5
1002
}
1001
ACAD_DSTYLE_DIM_LINETYPE
1070
   380
1005
16
1001
ACAD_DSTYLE_DIM_EXT1_LINETYPE
1070
   381
1005
16
1001
ACAD_DSTYLE_DIM_EXT2_LINETYPE
1070
   382
1005
16
0
DIMENSION
5
116
100
AcDbEntity
8
SK2
62
256
6
ByLayer
370
13
48
1
60
0
100
AcDbDimension
2
_U1
10
73
20
-34.692985
30
0
11
14
21
-34.692985
31
0
70
32
71
1
72
1
41
1
210
0
220
0
230
1
3
Standard
100
AcDbAlignedDimension
13
-45
23
-6
33
0
14
73
24
0
34
0
50
0
100
AcDbRotatedDimension
1001
ACAD
1000
DSTYLE
1002
{
1070
   371
1070
    13
1070
   372
1070
    13
1070
   170
1070
     0
1070
   144
1040
1.0
1070
   277
1070
     2
1070
   278
1070
    44
1070
   146
1040
1.0
1070
   345
1005
16
1070
   347
1005
16
1070
   346
1005
16
1070
   344
1005
0
1070
   343
1005
0
1070
   172
1070
     1
1070
    76
1070
     0
1070
    75
1070
     0
1070
   282
1070
     0
1070
   281
1070
     0
1070
    71
1070
     0
1070
    74
1070
     0
1070
   279
1070
     0
1070
   173
1070
     1
1070
   340
1005
E5
1070
   271
1070
     2
1070
   272
1070
     2
1070
    77
1070
     1
1070
    73
1070
     1
1070
   171
1070
     3
1070
   274
1070
     4
1070
   177
1070
    35
1070
   176
1070
    35
1070
   178
1070
    35
1070
    48
1040
-0.1
1070
    41
1040
3.5
1070
   147
1040
1.75
1070
    42
1040
1.5875
1070
    44
1040
2.0
1070
   140
1040
3.5
1002
}
1001
ACAD_DSTYLE_DIM_LINETYPE
1070
   380
1005
16
1001
ACAD_DSTYLE_DIM_EXT1_LINETYPE
1070
   381
1005
16
1001
ACAD_DSTYLE_DIM_EXT2_LINETYPE
1070
   382
1005
16
0
DIMENSION
5
12E
100
AcDbEntity
8
SK2
62
256
6
ByLayer
370
13
48
1
60
0
100
AcDbDimension
2
_U2
10
73
20
17.562119
30
0
11
44.645
21
17.562119
31
0
70
32
71
1
72
1
41
1
210
0
220
0
230
1
3
Standard
100
AcDbAlignedDimension
13
16.29
23
5.953
33
0
14
73
24
0
34
0
50
0
100
AcDbRotatedDimension
1001
ACAD
1000
DSTYLE
1002
{
1070
   371
1070
    13
1070
   372
1070
    13
1070
   170
1070
     0
1070
   144
1040
1.0
1070
   277
1070
     2
1070
   278
1070
    44
1070
   146
1040
1.0
1070
   345
1005
16
1070
   347
1005
16
1070
   346
1005
16
1070
   344
1005
0
1070
   343
1005
0
1070
   172
1070
     1
1070
    76
1070
     0
1070
    75
1070
     0
1070
   282
1070
     0
1070
   281
1070
     0
1070
    71
1070
     0
1070
    74
1070
     0
1070
   279
1070
     0
1070
   173
1070
     1
1070
   340
1005
E5
1070
   271
1070
     2
1070
   272
1070
     2
1070
    77
1070
     1
1070
    73
1070
     1
1070
   171
1070
     3
1070
   274
1070
     4
1070
   177
1070
    35
1070
   176
1070
    35
1070
   178
1070
    35
1070
    48
1040
-0.1
1070
    41
1040
3.5
1070
   147
1040
1.75
1070
    42
1040
1.5875
1070
    44
1040
2.0
1070
   140
1040
3.5
1002
}
1001
ACAD_DSTYLE_DIM_LINETYPE
1070
   380
1005
16
1001
ACAD_DSTYLE_DIM_EXT1_LINETYPE
1070
   381
1005
16
1001
ACAD_DSTYLE_DIM_EXT2_LINETYPE
1070
   382
1005
16
0
DIMENSION
5
146
100
AcDbEntity
8
SK2
62
256
6
ByLayer
370
13
48
1
60
0
100
AcDbDimension
2
_U3
10
71.2288
20
-18.755503
30
0
11
90.333333
21
-18.755503
31
0
70
32
71
1
72
1
41
1
210
0
220
0
230
1
3
Standard
100
AcDbAlignedDimension
13
73
23
0
33
0
14
71.2288
24
-5.953
34
0
50
0
100
AcDbRotatedDimension
1001
ACAD
1000
DSTYLE
1002
{
1070
   371
1070
    13
1070
   372
1070
    13
1070
   170
1070
     0
1070
   144
1040
1.0
1070
   277
1070
     2
1070
   278
1070
    44
1070
   146
1040
1.0
1070
   345
1005
16
1070
   347
1005
16
1070
   346
1005
16
1070
   344
1005
0
1070
   343
1005
0
1070
   172
1070
     1
1070
    76
1070
     0
1070
    75
1070
     0
1070
   282
1070
     0
1070
   281
1070
     0
1070
    71
1070
     0
1070
    74
1070
     0
1070
   279
1070
     0
1070
   173
1070
     1
1070
   340
1005
E5
1070
   271
1070
     2
1070
   272
1070
     2
1070
    77
1070
     1
1070
    73
1070
     1
1070
   171
1070
     3
1070
   274
1070
     4
1070
   177
1070
    35
1070
   176
1070
    35
1070
   178
1070
    35
1070
    48
1040
-0.1
1070
    41
1040
3.5
1070
   147
1040
1.75
1070
    42
1040
1.5875
1070
    44
1040
2.0
1070
   140
1040
3.5
1002
}
1001
ACAD_DSTYLE_DIM_LINETYPE
1070
   380
1005
16
1001
ACAD_DSTYLE_DIM_EXT1_LINETYPE
1070
   381
1005
16
1001
ACAD_DSTYLE_DIM_EXT2_LINETYPE
1070
   382
1005
16
0
DIMENSION
5
160
100
AcDbEntity
8
SK2
62
256
6
ByLayer
370
13
48
1
60
0
100
AcDbDimension
2
_U4
10
71.2288
20
-24.343428
30
0
11
13.1144
21
-24.343428
31
0
70
32
71
1
72
1
41
1
210
0
220
0
230
1
3
Standard
100
AcDbAlignedDimension
13
-45
23
-6
33
0
14
71.2288
24
-5.953
34
0
50
0
100
AcDbRotatedDimension
1001
ACAD
1000
DSTYLE
1002
{
1070
   371
1070
    13
1070
   372
1070
    13
1070
   170
1070
     0
1070
   144
1040
1.0
1070
   277
1070
     2
1070
   278
1070
    44
1070
   146
1040
1.0
1070
   345
1005
16
1070
   347
1005
16
1070
   346
1005
16
1070
   344
1005
0
1070
   343
1005
0
1070
   172
1070
     1
1070
    76
1070
     0
1070
    75
1070
     0
1070
   282
1070
     0
1070
   281
1070
     0
1070
    71
1070
     0
1070
    74
1070
     0
1070
   279
1070
     0
1070
   173
1070
     1
1070
   340
1005
E5
1070
   271
1070
     2
1070
   272
1070
     2
1070
    77
1070
     1
1070
    73
1070
     1
1070
   171
1070
     3
1070
   274
1070
     4
1070
   177
1070
    35
1070
   176
1070
    35
1070
   178
1070
    35
1070
    48
1040
-0.1
1070
    41
1040
3.5
1070
   147
1040
1.75
1070
    42
1040
1.5875
1070
    44
1040
2.0
1070
   140
1040
3.5
1002
}
1001
ACAD_DSTYLE_DIM_LINETYPE
1070
   380
1005
16
1001
ACAD_DSTYLE_DIM_EXT1_LINETYPE
1070
   381
1005
16
1001
ACAD_DSTYLE_DIM_EXT2_LINETYPE
1070
   382
1005
16
0
ENDSEC
0
SECTION
2
OBJECTS
0
DICTIONARY
5
1e8
330
0
100
AcDbDictionary
280
0
281
1
3
ACAD_GROUP
350
1e9
3
ACAD_MLINESTYLE
350
1ea
0
DICTIONARY
5
1e9
330
0
100
AcDbDictionary
280
0
281
1
0
DICTIONARY
5
1ea
330
0
100
AcDbDictionary
280
0
281
1
3
Standard
350
18
0
MLINESTYLE
5
18
330
1ea
100
AcDbMlineStyle
2
Standard
70
0
3

62
256
51
90
52
90
71
2
49
-0.5
62
256
6
ByLayer
49
0.5
62
256
6
ByLayer
0
RASTERVARIABLES
5
1d6
330

100
AcDbRasterVariables
90
0
70
1
71
1
72
1
0
ENDSEC
0
EOF
