0
SECTION
2
HEADER
9
$ACADVER
1
AC1015
9
$DWGCODEPAGE
3
ANSI_1252
9
$HANDSEED
5
1f8
9
$ANGBASE
50
0
9
$ANGDIR
70
0
9
$ATTMODE
70
1
9
$AUNITS
70
0
9
$AUPREC
70
0
9
$CECOLOR
62
256
9
$CELTSCALE
40
1
9
$CELTYPE
6
ByLayer
9
$CELWEIGHT
370
18
9
$CLAYER
8
0
9
$CMLJUST
70
0
9
$CMLSCALE
40
1
9
$CMLSTYLE
2
Standard
9
$DIMSTYLE
2
Standard
9
$TEXTSIZE
40
0.2
9
$TEXTSTYLE
7
Standard
9
$LUNITS
70
2
9
$LUPREC
70
4
9
$EXTNAMES
290
1
9
$INSUNITS
70
4
9
$LTSCALE
40
1
9
$LWDISPLAY
290
1
9
$PDMODE
70
0
9
$PDSIZE
40
0
9
$PLINEGEN
70
0
0
ENDSEC
0
SECTION
2
CLASSES
0
CLASS
1
RASTERVARIABLES
2
AcDbRasterVariables
3
ISM
90
0
280
0
281
0
0
ENDSEC
0
SECTION
2
TABLES
0
TABLE
2
VPORT
5
1ee
100
AcDbSymbolTable
0
VPORT
5
1
100
AcDbSymbolTableRecord
100
AcDbViewportTableRecord
2
*Active
70
0
10
0
20
0
11
1
21
1
12
-1
22
1
13
0
23
0
14
0.5
24
0.5
15
10
25
10
16
0
26
0
36
1
17
0
27
0
37
0
0
ENDTAB
0
TABLE
2
LTYPE
5
1ef
100
AcDbSymbolTable
0
LTYPE
5
14
100
AcDbSymbolTableRecord
100
AcDbLinetypeTableRecord
70
0
2
ByBlock
3

72
65
73
0
40
0
0
LTYPE
5
15
100
AcDbSymbolTableRecord
100
AcDbLinetypeTableRecord
70
0
2
ByLayer
3

72
65
73
0
40
0
0
LTYPE
5
16
100
AcDbSymbolTableRecord
100
AcDbLinetypeTableRecord
70
0
2
Continuous
3
Solid line
72
65
73
0
40
0
0
LTYPE
5
6E
100
AcDbSymbolTableRecord
100
AcDbLinetypeTableRecord
70
0
2
CENTER
3
____ _ ____ _ ____ _ ____
72
65
73
4
40
47.5
49
22
74
0
49
-8.5
74
0
49
8.5
74
0
49
-8.5
74
0
0
LTYPE
5
6F
100
AcDbSymbolTableRecord
100
AcDbLinetypeTableRecord
70
0
2
DASHED
3
__ __ __ __ __ __ __ __ __
72
65
73
2
40
25.72
49
12.86
74
0
49
-12.86
74
0
0
ENDTAB
0
TABLE
2
LAYER
5
1f0
100
AcDbSymbolTable
0
LAYER
5
10
100
AcDbSymbolTableRecord
100
AcDbLayerTableRecord
2
0
70
0
62
7
6
Continuous
290
1
370
-3
390
0
0
LAYER
5
71
100
AcDbSymbolTableRecord
100
AcDbLayerTableRecord
2
80
70
0
62
-6
6
Continuous
290
1
370
-3
390
0
0
LAYER
5
73
100
AcDbSymbolTableRecord
100
AcDbLayerTableRecord
2
81
70
0
62
-3
6
Continuous
290
1
370
-3
390
0
0
LAYER
5
75
100
AcDbSymbolTableRecord
100
AcDbLayerTableRecord
2
1
70
0
62
4
6
Continuous
290
1
370
-3
390
0
0
LAYER
5
87
100
AcDbSymbolTableRecord
100
AcDbLayerTableRecord
2
4
70
0
62
-2
6
CENTER
290
1
370
-3
390
0
0
LAYER
5
A0
100
AcDbSymbolTableRecord
100
AcDbLayerTableRecord
2
2
70
0
62
7
6
Continuous
290
1
370
-3
390
0
0
LAYER
5
103
100
AcDbSymbolTableRecord
100
AcDbLayerTableRecord
2
Defpoints
70
0
62
7
6
Continuous
290
0
370
-3
390
0
0
LAYER
5
1da
100
AcDbSymbolTableRecord
100
AcDbLayerTableRecord
2
SK1
70
0
62
4
6
Continuous
290
1
370
-3
390
0
0
LAYER
5
1db
100
AcDbSymbolTableRecord
100
AcDbLayerTableRecord
2
SK4
70
0
62
2
6
CENTER
290
1
370
-3
390
0
0
LAYER
5
1dc
100
AcDbSymbolTableRecord
100
AcDbLayerTableRecord
2
SK2
70
0
62
7
6
Continuous
290
1
370
-3
390
0
0
LAYER
5
1dd
100
AcDbSymbolTableRecord
100
AcDbLayerTableRecord
2
SK6
70
0
62
5
6
Continuous
290
1
370
-3
390
0
0
ENDTAB
0
TABLE
2
STYLE
5
1f1
100
AcDbSymbolTable
0
STYLE
5
11
100
AcDbSymbolTableRecord
100
AcDbTextStyleTableRecord
2
Standard
3
txt
70
0
71
0
40
0
41
1
42
0
50
0
0
STYLE
5
E8
100
AcDbSymbolTableRecord
100
AcDbTextStyleTableRecord
2
iso_b_vert
3
simplex.shx
70
0
71
0
40
0
41
1
42
0
50
0
0
STYLE
5
E9
100
AcDbSymbolTableRecord
100
AcDbTextStyleTableRecord
2
DWGDirectTextStyle
3
simplex
70
0
71
0
40
0
41
1
42
0
50
0
0
ENDTAB
0
TABLE
2
DIMSTYLE
5
1f2
100
AcDbSymbolTable
100
AcDbDimStyleTable
0
DIMSTYLE
105
27
100
AcDbSymbolTableRecord
100
AcDbDimStyleTableRecord
2
Standard
70
0
3
<>
41
0.18
42
0.0625
44
0.18
140
0.18
147
0.09
73
0
74
0
77
1
271
2
275
0
278
52
280
0
340
11
0
ENDTAB
0
TABLE
2
VIEW
5
1f3
100
AcDbSymbolTable
0
ENDTAB
0
TABLE
2
UCS
5
1f4
100
AcDbSymbolTable
0
ENDTAB
0
TABLE
2
APPID
5
1f5
100
AcDbSymbolTable
0
APPID
5
12
100
AcDbSymbolTableRecord
100
AcDbRegAppTableRecord
2
ACAD
70
0
0
APPID
5
FF
100
AcDbSymbolTableRecord
100
AcDbRegAppTableRecord
2
ACAD_DSTYLE_DIMBREAK
70
0
0
APPID
5
199
100
AcDbSymbolTableRecord
100
AcDbRegAppTableRecord
2
ACAD_DSTYLE_DIM_LINETYPE
70
0
0
APPID
5
19A
100
AcDbSymbolTableRecord
100
AcDbRegAppTableRecord
2
ACAD_DSTYLE_DIM_EXT1_LINETYPE
70
0
0
APPID
5
19B
100
AcDbSymbolTableRecord
100
AcDbRegAppTableRecord
2
ACAD_DSTYLE_DIM_EXT2_LINETYPE
70
0
0
APPID
5
1D6
100
AcDbSymbolTableRecord
100
AcDbRegAppTableRecord
2
ACAD_MLEADERVER
70
0
0
ENDTAB
0
TABLE
2
BLOCK_RECORD
5
1f6
100
AcDbSymbolTable
0
BLOCK_RECORD
5
1F
100
AcDbSymbolTableRecord
100
AcDbBlockTableRecord
2
*Model_Space
340
0
70
0
0
BLOCK_RECORD
5
1B
100
AcDbSymbolTableRecord
100
AcDbBlockTableRecord
2
*Paper_Space
340
0
70
0
0
BLOCK_RECORD
5
23
100
AcDbSymbolTableRecord
100
AcDbBlockTableRecord
2
*Paper_Space0
340
0
70
0
0
BLOCK_RECORD
5
104
100
AcDbSymbolTableRecord
100
AcDbBlockTableRecord
2
*D1
340
0
70
0
0
BLOCK_RECORD
5
110
100
AcDbSymbolTableRecord
100
AcDbBlockTableRecord
2
_U0
340
0
70
0
0
BLOCK_RECORD
5
11C
100
AcDbSymbolTableRecord
100
AcDbBlockTableRecord
2
*D3
340
0
70
0
0
BLOCK_RECORD
5
128
100
AcDbSymbolTableRecord
100
AcDbBlockTableRecord
2
_U1
340
0
70
0
0
BLOCK_RECORD
5
134
100
AcDbSymbolTableRecord
100
AcDbBlockTableRecord
2
*D5
340
0
70
0
0
BLOCK_RECORD
5
140
100
AcDbSymbolTableRecord
100
AcDbBlockTableRecord
2
_U2
340
0
70
0
0
BLOCK_RECORD
5
14C
100
AcDbSymbolTableRecord
100
AcDbBlockTableRecord
2
*D7
340
0
70
0
0
BLOCK_RECORD
5
15A
100
AcDbSymbolTableRecord
100
AcDbBlockTableRecord
2
_U3
340
0
70
0
0
BLOCK_RECORD
5
166
100
AcDbSymbolTableRecord
100
AcDbBlockTableRecord
2
*D9
340
0
70
0
0
BLOCK_RECORD
5
172
100
AcDbSymbolTableRecord
100
AcDbBlockTableRecord
2
_U4
340
0
70
0
0
ENDTAB
0
ENDSEC
0
SECTION
2
BLOCKS
0
BLOCK
5
20
100
AcDbEntity
8
0
100
AcDbBlockBegin
2
*Model_Space
70
0
10
0
20
0
30
0
3
*Model_Space
0
ENDBLK
5
21
100
AcDbEntity
8
0
100
AcDbBlockEnd
0
BLOCK
5
1C
100
AcDbEntity
8
0
100
AcDbBlockBegin
2
*Paper_Space
70
0
10
0
20
0
30
0
3
*Paper_Space
0
ENDBLK
5
1D
100
AcDbEntity
8
0
100
AcDbBlockEnd
0
BLOCK
5
24
100
AcDbEntity
8
0
100
AcDbBlockBegin
2
*Paper_Space0
70
0
10
0
20
0
30
0
3
*Paper_Space0
0
ENDBLK
5
25
100
AcDbEntity
8
0
100
AcDbBlockEnd
0
BLOCK
5
105
100
AcDbEntity
8
0
100
AcDbBlockBegin
2
*D1
70
1
10
0
20
0
30
0
3
*D1
0
LINE
5
107
100
AcDbEntity
8
0
62
256
6
ByLayer
370
-2
48
1
60
0
100
AcDbLine
10
0
20
-1.5875
30
0
11
0
21
-17.769898
31
0
39
0
210
0
220
0
230
1
0
LINE
5
108
100
AcDbEntity
8
0
62
256
6
ByLayer
370
-2
48
1
60
0
100
AcDbLine
10
71.3483
20
-7.144
30
0
11
71.3483
21
-17.769898
31
0
39
0
210
0
220
0
230
1
0
LINE
5
109
100
AcDbEntity
8
0
62
256
6
ByLayer
370
-2
48
1
60
0
100
AcDbLine
10
3.5
20
-15.769898
30
0
11
67.8483
21
-15.769898
31
0
39
0
210
0
220
0
230
1
0
SOLID
5
10A
100
AcDbEntity
8
0
62
256
6
ByLayer
370
-1
48
1
60
0
100
AcDbTrace
10
3.5
20
-15.186565
30
0
11
3.5
21
-16.353232
31
0
12
0
22
-15.769898
32
0
13
0
23
-15.769898
33
0
39
0
210
0
220
0
230
1
0
SOLID
5
10B
100
AcDbEntity
8
0
62
256
6
ByLayer
370
-1
48
1
60
0
100
AcDbTrace
10
67.8483
20
-16.353232
30
0
11
67.8483
21
-15.186565
31
0
12
71.3483
22
-15.769898
32
0
13
71.3483
23
-15.769898
33
0
39
0
210
0
220
0
230
1
0
MTEXT
5
10C
100
AcDbEntity
8
0
62
256
6
ByLayer
370
18
48
1
60
0
100
AcDbMText
10
35.67415
20
-8.769898
30
0
210
0
220
0
230
1
1
\A1;71.35
40
3.5
41
0
44
1
50
0
71
5
72
5
7
iso_b_vert
0
POINT
5
10D
100
AcDbEntity
8
Defpoints
62
0
6
ByLayer
370
-1
48
1
60
0
100
AcDbPoint
10
0
20
0
30
0
39
0
210
0
220
0
230
1
50
360
0
POINT
5
10E
100
AcDbEntity
8
Defpoints
62
0
6
ByLayer
370
-1
48
1
60
0
100
AcDbPoint
10
71.3483
20
-5.5565
30
0
39
0
210
0
220
0
230
1
50
360
0
POINT
5
10F
100
AcDbEntity
8
Defpoints
62
0
6
ByLayer
370
-1
48
1
60
0
100
AcDbPoint
10
71.3483
20
-15.769898
30
0
39
0
210
0
220
0
230
1
50
360
0
ENDBLK
5
106
100
AcDbEntity
8
0
100
AcDbBlockEnd
0
BLOCK
5
117
100
AcDbEntity
8
0
100
AcDbBlockBegin
2
_U0
70
0
10
0
20
0
30
0
3
_U0
0
MTEXT
5
111
100
AcDbEntity
8
SK2
62
256
6
ByLayer
370
13
48
1
60
0
100
AcDbMText
10
30.974285
20
-14.737265
30
0
210
0
220
0
230
1
1
\W0.6713;71,35
40
3.5
41
0
44
1.084337
50
0
71
7
72
5
7
iso_b_vert
0
LINE
5
112
100
AcDbEntity
8
SK2
62
256
6
ByLayer
370
13
48
1
60
0
100
AcDbLine
10
0
20
-1.5875
30
0
11
0
21
-17.769898
31
0
39
0
210
0
220
0
230
1
0
LINE
5
113
100
AcDbEntity
8
SK2
62
256
6
ByLayer
370
13
48
1
60
0
100
AcDbLine
10
71.3483
20
-7.144
30
0
11
71.3483
21
-17.769898
31
0
39
0
210
0
220
0
230
1
0
LINE
5
114
100
AcDbEntity
8
SK2
62
256
6
ByLayer
370
13
48
1
60
0
100
AcDbLine
10
0
20
-15.769898
30
0
11
71.3483
21
-15.769898
31
0
39
0
210
0
220
0
230
1
0
SOLID
5
115
100
AcDbEntity
8
SK2
62
256
6
ByLayer
370
18
48
1
60
0
100
AcDbTrace
10
0
20
-15.769898
30
0
11
3.499998
21
-15.309115
31
0
12
3.500002
22
-16.230682
32
0
13
3.500002
23
-16.230682
33
0
39
0
210
0
220
0
230
1
0
SOLID
5
116
100
AcDbEntity
8
SK2
62
256
6
ByLayer
370
18
48
1
60
0
100
AcDbTrace
10
71.3483
20
-15.769898
30
0
11
67.848302
21
-16.230682
31
0
12
67.848298
22
-15.309115
32
0
13
67.848298
23
-15.309115
33
0
39
0
210
0
220
0
230
1
0
ENDBLK
5
118
100
AcDbEntity
8
0
100
AcDbBlockEnd
0
BLOCK
5
11D
100
AcDbEntity
8
0
100
AcDbBlockBegin
2
*D3
70
1
10
0
20
0
30
0
3
*D3
0
LINE
5
11F
100
AcDbEntity
8
0
62
256
6
ByLayer
370
-2
48
1
60
0
100
AcDbLine
10
-45
20
-7.5875
30
0
11
-45
21
-36.692985
31
0
39
0
210
0
220
0
230
1
0
LINE
5
120
100
AcDbEntity
8
0
62
256
6
ByLayer
370
-2
48
1
60
0
100
AcDbLine
10
73
20
-1.5875
30
0
11
73
21
-36.692985
31
0
39
0
210
0
220
0
230
1
0
LINE
5
121
100
AcDbEntity
8
0
62
256
6
ByLayer
370
-2
48
1
60
0
100
AcDbLine
10
-41.5
20
-34.692985
30
0
11
69.5
21
-34.692985
31
0
39
0
210
0
220
0
230
1
0
SOLID
5
122
100
AcDbEntity
8
0
62
256
6
ByLayer
370
-1
48
1
60
0
100
AcDbTrace
10
-41.5
20
-34.109652
30
0
11
-41.5
21
-35.276319
31
0
12
-45
22
-34.692985
32
0
13
-45
23
-34.692985
33
0
39
0
210
0
220
0
230
1
0
SOLID
5
123
100
AcDbEntity
8
0
62
256
6
ByLayer
370
-1
48
1
60
0
100
AcDbTrace
10
69.5
20
-35.276319
30
0
11
69.5
21
-34.109652
31
0
12
73
22
-34.692985
32
0
13
73
23
-34.692985
33
0
39
0
210
0
220
0
230
1
0
MTEXT
5
124
100
AcDbEntity
8
0
62
256
6
ByLayer
370
18
48
1
60
0
100
AcDbMText
10
14
20
-27.692985
30
0
210
0
220
0
230
1
1
\A1;118.00
40
3.5
41
0
44
1
50
0
71
5
72
5
7
iso_b_vert
0
POINT
5
125
100
AcDbEntity
8
Defpoints
62
0
6
ByLayer
370
-1
48
1
60
0
100
AcDbPoint
10
-45
20
-6
30
0
39
0
210
0
220
0
230
1
50
360
0
POINT
5
126
100
AcDbEntity
8
Defpoints
62
0
6
ByLayer
370
-1
48
1
60
0
100
AcDbPoint
10
73
20
0
30
0
39
0
210
0
220
0
230
1
50
360
0
POINT
5
127
100
AcDbEntity
8
Defpoints
62
0
6
ByLayer
370
-1
48
1
60
0
100
AcDbPoint
10
73
20
-34.692985
30
0
39
0
210
0
220
0
230
1
50
360
0
ENDBLK
5
11E
100
AcDbEntity
8
0
100
AcDbBlockEnd
0
BLOCK
5
12F
100
AcDbEntity
8
0
100
AcDbBlockBegin
2
_U1
70
0
10
0
20
0
30
0
3
_U1
0
MTEXT
5
129
100
AcDbEntity
8
SK2
62
256
6
ByLayer
370
13
48
1
60
0
100
AcDbMText
10
8.429835
20
-33.660352
30
0
210
0
220
0
230
1
1
\W0.6440;118,00
40
3.5
41
0
44
1.084337
50
0
71
7
72
5
7
iso_b_vert
0
LINE
5
12A
100
AcDbEntity
8
SK2
62
256
6
ByLayer
370
13
48
1
60
0
100
AcDbLine
10
-45
20
-7.5875
30
0
11
-45
21
-36.692985
31
0
39
0
210
0
220
0
230
1
0
LINE
5
12B
100
AcDbEntity
8
SK2
62
256
6
ByLayer
370
13
48
1
60
0
100
AcDbLine
10
73
20
-1.5875
30
0
11
73
21
-36.692985
31
0
39
0
210
0
220
0
230
1
0
LINE
5
12C
100
AcDbEntity
8
SK2
62
256
6
ByLayer
370
13
48
1
60
0
100
AcDbLine
10
-45
20
-34.692985
30
0
11
73
21
-34.692985
31
0
39
0
210
0
220
0
230
1
0
SOLID
5
12D
100
AcDbEntity
8
SK2
62
256
6
ByLayer
370
18
48
1
60
0
100
AcDbTrace
10
-45
20
-34.692985
30
0
11
-41.500002
21
-34.232202
31
0
12
-41.499998
22
-35.153769
32
0
13
-41.499998
23
-35.153769
33
0
39
0
210
0
220
0
230
1
0
SOLID
5
12E
100
AcDbEntity
8
SK2
62
256
6
ByLayer
370
18
48
1
60
0
100
AcDbTrace
10
73
20
-34.692985
30
0
11
69.500002
21
-35.153769
31
0
12
69.499998
22
-34.232202
32
0
13
69.499998
23
-34.232202
33
0
39
0
210
0
220
0
230
1
0
ENDBLK
5
130
100
AcDbEntity
8
0
100
AcDbBlockEnd
0
BLOCK
5
135
100
AcDbEntity
8
0
100
AcDbBlockBegin
2
*D5
70
1
10
0
20
0
30
0
3
*D5
0
LINE
5
137
100
AcDbEntity
8
0
62
256
6
ByLayer
370
-2
48
1
60
0
100
AcDbLine
10
15.78
20
7.144
30
0
11
15.78
21
19.165619
31
0
39
0
210
0
220
0
230
1
0
LINE
5
138
100
AcDbEntity
8
0
62
256
6
ByLayer
370
-2
48
1
60
0
100
AcDbLine
10
73
20
1.5875
30
0
11
73
21
19.165619
31
0
39
0
210
0
220
0
230
1
0
LINE
5
139
100
AcDbEntity
8
0
62
256
6
ByLayer
370
-2
48
1
60
0
100
AcDbLine
10
19.28
20
17.165619
30
0
11
69.5
21
17.165619
31
0
39
0
210
0
220
0
230
1
0
SOLID
5
13A
100
AcDbEntity
8
0
62
256
6
ByLayer
370
-1
48
1
60
0
100
AcDbTrace
10
19.28
20
17.748953
30
0
11
19.28
21
16.582286
31
0
12
15.78
22
17.165619
32
0
13
15.78
23
17.165619
33
0
39
0
210
0
220
0
230
1
0
SOLID
5
13B
100
AcDbEntity
8
0
62
256
6
ByLayer
370
-1
48
1
60
0
100
AcDbTrace
10
69.5
20
16.582286
30
0
11
69.5
21
17.748953
31
0
12
73
22
17.165619
32
0
13
73
23
17.165619
33
0
39
0
210
0
220
0
230
1
0
MTEXT
5
13C
100
AcDbEntity
8
0
62
256
6
ByLayer
370
18
48
1
60
0
100
AcDbMText
10
44.39
20
24.165619
30
0
210
0
220
0
230
1
1
\A1;57.22
40
3.5
41
0
44
1
50
0
71
5
72
5
7
iso_b_vert
0
POINT
5
13D
100
AcDbEntity
8
Defpoints
62
0
6
ByLayer
370
-1
48
1
60
0
100
AcDbPoint
10
15.78
20
5.5565
30
0
39
0
210
0
220
0
230
1
50
360
0
POINT
5
13E
100
AcDbEntity
8
Defpoints
62
0
6
ByLayer
370
-1
48
1
60
0
100
AcDbPoint
10
73
20
0
30
0
39
0
210
0
220
0
230
1
50
360
0
POINT
5
13F
100
AcDbEntity
8
Defpoints
62
0
6
ByLayer
370
-1
48
1
60
0
100
AcDbPoint
10
73
20
17.165619
30
0
39
0
210
0
220
0
230
1
50
360
0
ENDBLK
5
136
100
AcDbEntity
8
0
100
AcDbBlockEnd
0
BLOCK
5
147
100
AcDbEntity
8
0
100
AcDbBlockBegin
2
_U2
70
0
10
0
20
0
30
0
3
_U2
0
MTEXT
5
141
100
AcDbEntity
8
SK2
62
256
6
ByLayer
370
13
48
1
60
0
100
AcDbMText
10
39.252701
20
18.198253
30
0
210
0
220
0
230
1
1
\W0.7317;57,22
40
3.5
41
0
44
1.084337
50
0
71
7
72
5
7
iso_b_vert
0
LINE
5
142
100
AcDbEntity
8
SK2
62
256
6
ByLayer
370
13
48
1
60
0
100
AcDbLine
10
15.78
20
7.144
30
0
11
15.78
21
19.165619
31
0
39
0
210
0
220
0
230
1
0
LINE
5
143
100
AcDbEntity
8
SK2
62
256
6
ByLayer
370
13
48
1
60
0
100
AcDbLine
10
73
20
1.5875
30
0
11
73
21
19.165619
31
0
39
0
210
0
220
0
230
1
0
LINE
5
144
100
AcDbEntity
8
SK2
62
256
6
ByLayer
370
13
48
1
60
0
100
AcDbLine
10
15.78
20
17.165619
30
0
11
73
21
17.165619
31
0
39
0
210
0
220
0
230
1
0
SOLID
5
145
100
AcDbEntity
8
SK2
62
256
6
ByLayer
370
18
48
1
60
0
100
AcDbTrace
10
15.78
20
17.165619
30
0
11
19.279998
21
17.626403
31
0
12
19.280002
22
16.704835
32
0
13
19.280002
23
16.704835
33
0
39
0
210
0
220
0
230
1
0
SOLID
5
146
100
AcDbEntity
8
SK2
62
256
6
ByLayer
370
18
48
1
60
0
100
AcDbTrace
10
73
20
17.165619
30
0
11
69.500002
21
16.704835
31
0
12
69.499998
22
17.626403
32
0
13
69.499998
23
17.626403
33
0
39
0
210
0
220
0
230
1
0
ENDBLK
5
148
100
AcDbEntity
8
0
100
AcDbBlockEnd
0
BLOCK
5
14D
100
AcDbEntity
8
0
100
AcDbBlockBegin
2
*D7
70
1
10
0
20
0
30
0
3
*D7
0
LINE
5
14F
100
AcDbEntity
8
0
62
256
6
ByLayer
370
-2
48
1
60
0
100
AcDbLine
10
73
20
-1.5875
30
0
11
73
21
-20.359003
31
0
39
0
210
0
220
0
230
1
0
LINE
5
150
100
AcDbEntity
8
0
62
256
6
ByLayer
370
-2
48
1
60
0
100
AcDbLine
10
71.3483
20
-7.144
30
0
11
71.3483
21
-20.359003
31
0
39
0
210
0
220
0
230
1
0
LINE
5
151
100
AcDbEntity
8
0
62
256
6
ByLayer
370
-2
48
1
60
0
100
AcDbLine
10
73
20
-18.359003
30
0
11
100.666667
21
-18.359003
31
0
39
0
210
0
220
0
230
1
0
LINE
5
152
100
AcDbEntity
8
0
62
256
6
ByLayer
370
-2
48
1
60
0
100
AcDbLine
10
76.5
20
-18.359003
30
0
11
80
21
-18.359003
31
0
39
0
210
0
220
0
230
1
0
LINE
5
153
100
AcDbEntity
8
0
62
256
6
ByLayer
370
-2
48
1
60
0
100
AcDbLine
10
67.8483
20
-18.359003
30
0
11
64.3483
21
-18.359003
31
0
39
0
210
0
220
0
230
1
0
SOLID
5
154
100
AcDbEntity
8
0
62
256
6
ByLayer
370
-1
48
1
60
0
100
AcDbTrace
10
76.5
20
-17.77567
30
0
11
76.5
21
-18.942337
31
0
12
73
22
-18.359003
32
0
13
73
23
-18.359003
33
0
39
0
210
0
220
0
230
1
0
SOLID
5
155
100
AcDbEntity
8
0
62
256
6
ByLayer
370
-1
48
1
60
0
100
AcDbTrace
10
67.8483
20
-18.942337
30
0
11
67.8483
21
-17.77567
31
0
12
71.3483
22
-18.359003
32
0
13
71.3483
23
-18.359003
33
0
39
0
210
0
220
0
230
1
0
MTEXT
5
156
100
AcDbEntity
8
0
62
256
6
ByLayer
370
18
48
1
60
0
100
AcDbMText
10
90.333333
20
-11.359003
30
0
210
0
220
0
230
1
1
\A1;1.65
40
3.5
41
0
44
1
50
0
71
5
72
5
7
iso_b_vert
0
POINT
5
157
100
AcDbEntity
8
Defpoints
62
0
6
ByLayer
370
-1
48
1
60
0
100
AcDbPoint
10
73
20
0
30
0
39
0
210
0
220
0
230
1
50
360
0
POINT
5
158
100
AcDbEntity
8
Defpoints
62
0
6
ByLayer
370
-1
48
1
60
0
100
AcDbPoint
10
71.3483
20
-5.5565
30
0
39
0
210
0
220
0
230
1
50
360
0
POINT
5
159
100
AcDbEntity
8
Defpoints
62
0
6
ByLayer
370
-1
48
1
60
0
100
AcDbPoint
10
71.3483
20
-18.359003
30
0
39
0
210
0
220
0
230
1
50
360
0
ENDBLK
5
14E
100
AcDbEntity
8
0
100
AcDbBlockEnd
0
BLOCK
5
161
100
AcDbEntity
8
0
100
AcDbBlockBegin
2
_U3
70
0
10
0
20
0
30
0
3
_U3
0
MTEXT
5
15B
100
AcDbEntity
8
SK2
62
256
6
ByLayer
370
13
48
1
60
0
100
AcDbMText
10
79.589293
20
-17.32637
30
0
210
0
220
0
230
1
1
\W0.6367;1,65
40
3.5
41
0
44
1.084337
50
0
71
7
72
5
7
iso_b_vert
0
LINE
5
15C
100
AcDbEntity
8
SK2
62
256
6
ByLayer
370
13
48
1
60
0
100
AcDbLine
10
73
20
-1.5875
30
0
11
73
21
-20.359003
31
0
39
0
210
0
220
0
230
1
0
LINE
5
15D
100
AcDbEntity
8
SK2
62
256
6
ByLayer
370
13
48
1
60
0
100
AcDbLine
10
71.3483
20
-7.144
30
0
11
71.3483
21
-20.359003
31
0
39
0
210
0
220
0
230
1
0
LINE
5
15E
100
AcDbEntity
8
SK2
62
256
6
ByLayer
370
13
48
1
60
0
100
AcDbLine
10
62.5983
20
-18.359003
30
0
11
86.559058
21
-18.359003
31
0
39
0
210
0
220
0
230
1
0
SOLID
5
15F
100
AcDbEntity
8
SK2
62
256
6
ByLayer
370
18
48
1
60
0
100
AcDbTrace
10
73
20
-18.359003
30
0
11
76.499998
21
-17.898219
31
0
12
76.500002
22
-18.819787
32
0
13
76.500002
23
-18.819787
33
0
39
0
210
0
220
0
230
1
0
SOLID
5
160
100
AcDbEntity
8
SK2
62
256
6
ByLayer
370
18
48
1
60
0
100
AcDbTrace
10
71.3483
20
-18.359003
30
0
11
67.848302
21
-18.819787
31
0
12
67.848298
22
-17.898219
32
0
13
67.848298
23
-17.898219
33
0
39
0
210
0
220
0
230
1
0
ENDBLK
5
162
100
AcDbEntity
8
0
100
AcDbBlockEnd
0
BLOCK
5
167
100
AcDbEntity
8
0
100
AcDbBlockBegin
2
*D9
70
1
10
0
20
0
30
0
3
*D9
0
LINE
5
169
100
AcDbEntity
8
0
62
256
6
ByLayer
370
-2
48
1
60
0
100
AcDbLine
10
-45
20
-7.5875
30
0
11
-45
21
-26.343428
31
0
39
0
210
0
220
0
230
1
0
LINE
5
16A
100
AcDbEntity
8
0
62
256
6
ByLayer
370
-2
48
1
60
0
100
AcDbLine
10
71.3483
20
-7.144
30
0
11
71.3483
21
-26.343428
31
0
39
0
210
0
220
0
230
1
0
LINE
5
16B
100
AcDbEntity
8
0
62
256
6
ByLayer
370
-2
48
1
60
0
100
AcDbLine
10
-41.5
20
-24.343428
30
0
11
67.8483
21
-24.343428
31
0
39
0
210
0
220
0
230
1
0
SOLID
5
16C
100
AcDbEntity
8
0
62
256
6
ByLayer
370
-1
48
1
60
0
100
AcDbTrace
10
-41.5
20
-23.760095
30
0
11
-41.5
21
-24.926762
31
0
12
-45
22
-24.343428
32
0
13
-45
23
-24.343428
33
0
39
0
210
0
220
0
230
1
0
SOLID
5
16D
100
AcDbEntity
8
0
62
256
6
ByLayer
370
-1
48
1
60
0
100
AcDbTrace
10
67.8483
20
-24.926762
30
0
11
67.8483
21
-23.760095
31
0
12
71.3483
22
-24.343428
32
0
13
71.3483
23
-24.343428
33
0
39
0
210
0
220
0
230
1
0
MTEXT
5
16E
100
AcDbEntity
8
0
62
256
6
ByLayer
370
18
48
1
60
0
100
AcDbMText
10
13.17415
20
-17.343428
30
0
210
0
220
0
230
1
1
\A1;116.35
40
3.5
41
0
44
1
50
0
71
5
72
5
7
iso_b_vert
0
POINT
5
16F
100
AcDbEntity
8
Defpoints
62
0
6
ByLayer
370
-1
48
1
60
0
100
AcDbPoint
10
-45
20
-6
30
0
39
0
210
0
220
0
230
1
50
360
0
POINT
5
170
100
AcDbEntity
8
Defpoints
62
0
6
ByLayer
370
-1
48
1
60
0
100
AcDbPoint
10
71.3483
20
-5.5565
30
0
39
0
210
0
220
0
230
1
50
360
0
POINT
5
171
100
AcDbEntity
8
Defpoints
62
0
6
ByLayer
370
-1
48
1
60
0
100
AcDbPoint
10
71.3483
20
-24.343428
30
0
39
0
210
0
220
0
230
1
50
360
0
ENDBLK
5
168
100
AcDbEntity
8
0
100
AcDbBlockEnd
0
BLOCK
5
179
100
AcDbEntity
8
0
100
AcDbBlockBegin
2
_U4
70
0
10
0
20
0
30
0
3
_U4
0
MTEXT
5
173
100
AcDbEntity
8
SK2
62
256
6
ByLayer
370
13
48
1
60
0
100
AcDbMText
10
7.603985
20
-23.310795
30
0
210
0
220
0
230
1
1
\W0.6440;116,35
40
3.5
41
0
44
1.084337
50
0
71
7
72
5
7
iso_b_vert
0
LINE
5
174
100
AcDbEntity
8
SK2
62
256
6
ByLayer
370
13
48
1
60
0
100
AcDbLine
10
-45
20
-7.5875
30
0
11
-45
21
-26.343428
31
0
39
0
210
0
220
0
230
1
0
LINE
5
175
100
AcDbEntity
8
SK2
62
256
6
ByLayer
370
13
48
1
60
0
100
AcDbLine
10
71.3483
20
-7.144
30
0
11
71.3483
21
-26.343428
31
0
39
0
210
0
220
0
230
1
0
LINE
5
176
100
AcDbEntity
8
SK2
62
256
6
ByLayer
370
13
48
1
60
0
100
AcDbLine
10
-45
20
-24.343428
30
0
11
71.3483
21
-24.343428
31
0
39
0
210
0
220
0
230
1
0
SOLID
5
177
100
AcDbEntity
8
SK2
62
256
6
ByLayer
370
18
48
1
60
0
100
AcDbTrace
10
-45
20
-24.343428
30
0
11
-41.500002
21
-23.882645
31
0
12
-41.499998
22
-24.804212
32
0
13
-41.499998
23
-24.804212
33
0
39
0
210
0
220
0
230
1
0
SOLID
5
178
100
AcDbEntity
8
SK2
62
256
6
ByLayer
370
18
48
1
60
0
100
AcDbTrace
10
71.3483
20
-24.343428
30
0
11
67.848302
21
-24.804212
31
0
12
67.848298
22
-23.882645
32
0
13
67.848298
23
-23.882645
33
0
39
0
210
0
220
0
230
1
0
ENDBLK
5
17A
100
AcDbEntity
8
0
100
AcDbBlockEnd
0
ENDSEC
0
SECTION
2
ENTITIES
0
ARC
5
A9
100
AcDbEntity
8
1
62
256
6
ByLayer
370
18
48
1
60
0
100
AcDbCircle
39
0
10
1.149798
20
-6.312638
30
0
40
0.800000000000003
210
0
220
0
230
1
100
AcDbArc
50
89.96419
51
135.940978
0
ARC
5
AA
100
AcDbEntity
8
1
62
256
6
ByLayer
370
18
48
1
60
0
100
AcDbCircle
39
0
10
1.149798
20
6.312638
30
0
40
0.800000000000003
210
0
220
0
230
1
100
AcDbArc
50
224.059022
51
270.03581
0
ARC
5
AB
100
AcDbEntity
8
1
62
256
6
ByLayer
370
18
48
1
60
0
100
AcDbCircle
39
0
10
0
20
-5.2
30
0
40
0.799999999999998
210
0
220
0
230
1
100
AcDbArc
50
270
51
315.940978
0
ARC
5
AC
100
AcDbEntity
8
1
62
256
6
ByLayer
370
18
48
1
60
0
100
AcDbCircle
39
0
10
0
20
5.2
30
0
40
0.799999999999998
210
0
220
0
230
1
100
AcDbArc
50
44.059022
51
90
0
ELLIPSE
5
AD
100
AcDbEntity
8
1
62
256
6
ByLayer
370
13
48
1
60
0
100
AcDbEllipse
10
4.181299
20
-5.313308
30
0
11
-0.0409946947982409
21
0.0912109368354425
31
0
210
0
220
0
230
1
40
0.45867
41
0.122526395752296
42
1.46857545799452
0
ELLIPSE
5
AE
100
AcDbEntity
8
1
62
256
6
ByLayer
370
13
48
1
60
0
100
AcDbEllipse
10
4.250187
20
-5.30095
30
0
11
0.0060519796666123
21
0.0998166997156033
31
0
210
0
220
0
230
1
40
0.453692
41
0.130130811735594
42
1.68662013486251
0
POINT
5
70
100
AcDbEntity
8
80
62
256
6
ByLayer
370
18
48
1
60
0
100
AcDbPoint
10
0
20
0
30
0
39
0
210
0
220
0
230
1
50
360
0
POINT
5
72
100
AcDbEntity
8
81
62
256
6
ByLayer
370
18
48
1
60
0
100
AcDbPoint
10
73
20
0
30
0
39
0
210
0
220
0
230
1
50
360
0
POINT
5
74
100
AcDbEntity
8
1
62
256
6
ByLayer
370
18
48
1
60
1
100
AcDbPoint
10
71.3483
20
-5.5565
30
0
39
0
210
0
220
0
230
1
50
360
0
POINT
5
76
100
AcDbEntity
8
1
62
256
6
ByLayer
370
18
48
1
60
1
100
AcDbPoint
10
-45
20
-6
30
0
39
0
210
0
220
0
230
1
50
360
0
POINT
5
77
100
AcDbEntity
8
1
62
256
6
ByLayer
370
18
48
1
60
1
100
AcDbPoint
10
15.78
20
5.5565
30
0
39
0
210
0
220
0
230
1
50
360
0
POINT
5
78
100
AcDbEntity
8
1
62
256
6
ByLayer
370
18
48
1
60
1
100
AcDbPoint
10
71.3483
20
-5.5565
30
0
39
0
210
0
220
0
230
1
50
360
0
POINT
5
79
100
AcDbEntity
8
1
62
256
6
ByLayer
370
18
48
1
60
1
100
AcDbPoint
10
-45
20
-6
30
0
39
0
210
0
220
0
230
1
50
360
0
POINT
5
7A
100
AcDbEntity
8
1
62
256
6
ByLayer
370
18
48
1
60
1
100
AcDbPoint
10
71.3483
20
-5.5565
30
0
39
0
210
0
220
0
230
1
50
360
0
SPLINE
5
AF
100
AcDbEntity
8
1
62
256
6
ByLayer
370
18
48
1
60
0
100
AcDbSpline
70
4
71
3
72
14
73
10
40
0
40
0
40
0
40
0
40
0.25
40
0.25
40
0.5
40
0.5
40
0.75
40
0.75
40
1
40
1
40
1
40
1
41
1
10
70.9823544540428
20
1.21375960613983
30
0
41
1
10
70.9814873640652
20
1.2290754151104
30
0
41
1
10
70.9847404036638
20
1.24458910597937
30
0
41
1
10
71.0001366799405
20
1.27148524572138
30
0
41
1
10
71.0122515409005
20
1.28270529238685
30
0
41
1
10
71.0394861778256
20
1.29859905742575
30
0
41
1
10
71.0548320369163
20
1.30371990959273
30
0
41
1
10
71.0856895137114
20
1.30970213927355
30
0
41
1
10
71.1015290671721
20
1.31066854146204
30
0
41
1
10
71.117325398733
20
1.31013254320536
30
0
0
SPLINE
5
B0
100
AcDbEntity
8
1
62
256
6
ByLayer
370
18
48
1
60
0
100
AcDbSpline
70
4
71
3
72
8
73
4
40
0
40
0
40
0
40
0
40
1
40
1
40
1
40
1
41
1
10
72.9347138640308
20
1.2523544240033
30
0
41
1
10
72.9598829184565
20
0.876183871096032
30
0
41
1
10
72.9780967426283
20
0.500430717410779
30
0
41
1
10
72.9893514780428
20
0.125095194505178
30
0
0
SPLINE
5
B1
100
AcDbEntity
8
1
62
256
6
ByLayer
370
18
48
1
60
0
100
AcDbSpline
70
4
71
3
72
12
73
8
40
0
40
0
40
0
40
0
40
0.250000000000001
40
0.250000000000001
40
0.500000000000002
40
0.500000000000002
40
1
40
1
40
1
40
1
41
1
10
71.3283399362185
20
-5.40400562723167
30
0
41
1
10
71.4521493312881
20
-5.05583447319711
30
0
41
1
10
71.5790782944342
20
-4.70758382417952
30
0
41
1
10
71.8384359519398
20
-4.01125331093536
30
0
41
1
10
71.9707635315239
20
-3.66354259443054
30
0
41
1
10
72.3738258107124
20
-2.62425920158125
30
0
41
1
10
72.6510242671396
20
-1.93563283846041
30
0
41
1
10
72.9347138640308
20
-1.2523544240031
30
0
0
SPLINE
5
B2
100
AcDbEntity
8
1
62
256
6
ByLayer
370
18
48
1
60
0
100
AcDbSpline
70
4
71
3
72
8
73
4
40
0
40
0
40
0
40
0
40
1
40
1
40
1
40
1
41
1
10
71.113674235535
20
-5.36964037467817
30
0
41
1
10
71.0894042866133
20
-5.4297975724169
30
0
41
1
10
71.065089460765
20
-5.4898635050094
30
0
41
1
10
71.0407328443658
20
-5.54983965018749
30
0
0
SPLINE
5
B3
100
AcDbEntity
8
1
62
256
6
ByLayer
370
18
48
1
60
0
100
AcDbSpline
70
4
71
3
72
16
73
12
40
0
40
0
40
0
40
0
40
0.434063032182267
40
0.434063032182267
40
0.688645627766679
40
0.688645627766679
40
0.815936925558885
40
0.815936925558885
40
0.943228223351091
40
0.943228223351091
40
1
40
1
40
1
40
1
41
1
10
21.5689839364614
20
-0.002793403067983
30
0
41
1
10
22.758414079021
20
-0.614615404400723
30
0
41
1
10
23.938462456568
20
-1.2220183651512
30
0
41
1
10
25.8187797636121
20
-2.13378856265135
30
0
41
1
10
26.5155924662255
20
-2.45975975091176
30
0
41
1
10
27.5677544074759
20
-2.92364097244845
30
0
41
1
10
27.920223296028
20
-3.07427070160952
30
0
41
1
10
28.6213732053538
20
-3.36285168460813
30
0
41
1
10
28.9707853051779
20
-3.50120446653298
30
0
41
1
10
29.4748742353678
20
-3.69204861985682
30
0
41
1
10
29.6302016767083
20
-3.74963030586008
30
0
41
1
10
29.7854086748768
20
-3.80589409832137
30
0
0
SPLINE
5
B4
100
AcDbEntity
8
1
62
256
6
ByLayer
370
13
48
1
60
0
100
AcDbSpline
70
4
71
3
72
18
73
14
40
0
40
0
40
0
40
0
40
0.374775708697842
40
0.374775708697842
40
0.480227478784738
40
0.480227478784738
40
0.585679248871634
40
0.585679248871634
40
0.796582789045424
40
0.796582789045424
40
0.902034559132321
40
0.902034559132321
40
1
40
1
40
1
40
1
41
1
10
29.7854086745375
20
-3.80589409819836
30
0
41
1
10
31.0221961772354
20
-4.25423957355684
30
0
41
1
10
32.2513356467703
20
-4.61889999361151
30
0
41
1
10
33.836983098639
20
-4.95541736534966
30
0
41
1
10
34.1858321727325
20
-5.02123528641221
30
0
41
1
10
34.8856203160055
20
-5.13596307928839
30
0
41
1
10
35.2370186489398
20
-5.18493721389342
30
0
41
1
10
36.2920606392271
20
-5.30493454790278
30
0
41
1
10
36.9940745240347
20
-5.34890543154549
30
0
41
1
10
38.0494786730301
20
-5.35958767410327
30
0
41
1
10
38.4010223693992
20
-5.35392389493842
30
0
41
1
10
39.07943819235
20
-5.3253308520373
30
0
41
1
10
39.4061616876791
20
-5.30362252808416
30
0
41
1
10
39.7315888337681
20
-5.27424555952652
30
0
0
SPLINE
5
B5
100
AcDbEntity
8
1
62
256
6
ByLayer
370
18
48
1
60
0
100
AcDbSpline
70
4
71
3
72
8
73
4
40
0
40
0
40
0
40
0
40
1
40
1
40
1
40
1
41
1
10
72.9999606275174
20
0.048199562697647
30
0
41
1
10
73.0000131266068
20
0.0160650233872275
30
0
41
1
10
73.000013120858
20
-0.0160685422260087
30
0
41
1
10
72.9999606275174
20
-0.0481995626929574
30
0
0
SPLINE
5
B6
100
AcDbEntity
8
1
62
256
6
ByLayer
370
18
48
1
60
0
100
AcDbSpline
70
4
71
3
72
10
73
6
40
0
40
0
40
0
40
0
40
0.5
40
0.5
40
1
40
1
40
1
40
1
41
1
10
4.0000000438169
20
-5.42806656521162
30
0
41
1
10
4.0000000438169
20
-5.38865559390365
30
0
41
1
10
4.0118585354104
20
-5.34789166306177
30
0
41
1
10
4.05739977561649
20
-5.27723247401892
30
0
41
1
10
4.09162595517606
20
-5.24591134373802
30
0
41
1
10
4.13549874954157
20
-5.22507918250747
30
0
0
SPLINE
5
B7
100
AcDbEntity
8
1
62
256
6
ByLayer
370
13
48
1
60
0
100
AcDbSpline
70
4
71
3
72
8
73
4
40
0
40
0
40
0
40
0
40
1
40
1
40
1
40
1
41
1
10
4.13275266420601
20
-5.48333742809351
30
0
41
1
10
4.13365916411317
20
-5.42979446823304
30
0
41
1
10
4.13457452027916
20
-5.37625055195855
30
0
41
1
10
4.13549874954157
20
-5.32270564222128
30
0
0
SPLINE
5
B8
100
AcDbEntity
8
1
62
256
6
ByLayer
370
18
48
1
60
0
100
AcDbSpline
70
4
71
3
72
8
73
4
40
0
40
0
40
0
40
0
40
1
40
1
40
1
40
1
41
1
10
71.3283399362185
20
5.40400562723167
30
0
41
1
10
71.2223265102596
20
5.4832550173449
30
0
41
1
10
71.1265502123498
20
5.53289279434253
30
0
41
1
10
71.0407328443658
20
5.54983965018749
30
0
0
SPLINE
5
B9
100
AcDbEntity
8
1
62
256
6
ByLayer
370
18
48
1
60
0
100
AcDbSpline
70
4
71
3
72
102
73
98
40
0
40
0
40
0
40
0
40
0.0183008635495962
40
0.0183008635495962
40
0.0388867193947151
40
0.0388867193947151
40
0.059472575239834
40
0.059472575239834
40
0.080058431084953
40
0.080058431084953
40
0.100644286930072
40
0.100644286930072
40
0.121230142775191
40
0.121230142775191
40
0.14181599862031
40
0.14181599862031
40
0.162401854465429
40
0.162401854465429
40
0.182987710310548
40
0.182987710310548
40
0.203573566155666
40
0.203573566155666
40
0.224159422000785
40
0.224159422000785
40
0.244745277845904
40
0.244745277845904
40
0.265331133691023
40
0.265331133691023
40
0.285916989536142
40
0.285916989536142
40
0.306502845381261
40
0.306502845381261
40
0.32708870122638
40
0.32708870122638
40
0.347674557071499
40
0.347674557071499
40
0.368260412916617
40
0.368260412916617
40
0.388846268761736
40
0.388846268761736
40
0.409432124606855
40
0.409432124606855
40
0.430017980451974
40
0.430017980451974
40
0.450603836297093
40
0.450603836297093
40
0.471189692142212
40
0.471189692142212
40
0.491775547987331
40
0.491775547987331
40
0.51236140383245
40
0.51236140383245
40
0.532947259677568
40
0.532947259677568
40
0.553533115522687
40
0.553533115522687
40
0.574118971367806
40
0.574118971367806
40
0.594704827212925
40
0.594704827212925
40
0.615290683058044
40
0.615290683058044
40
0.656462394748282
40
0.656462394748282
40
0.677048250593401
40
0.677048250593401
40
0.69763410643852
40
0.69763410643852
40
0.718219962283638
40
0.718219962283638
40
0.738805818128757
40
0.738805818128757
40
0.759391673973876
40
0.759391673973876
40
0.779977529818995
40
0.779977529818995
40
0.800563385664114
40
0.800563385664114
40
0.821149241509233
40
0.821149241509233
40
0.841735097354351
40
0.841735097354351
40
0.86232095319947
40
0.86232095319947
40
0.882906809044589
40
0.882906809044589
40
0.903492664889708
40
0.903492664889708
40
0.924078520734827
40
0.924078520734827
40
0.944664376579946
40
0.944664376579946
40
0.965250232425065
40
0.965250232425065
40
0.985836088270184
40
0.985836088270184
40
1
40
1
40
1
40
1
41
1
10
60.8650867986544
20
-3.98730298255552
30
0
41
1
10
60.6231092372456
20
-4.06683844847348
30
0
41
1
10
60.3808998119937
20
-4.14319795776314
30
0
41
1
10
59.8658060491705
20
-4.29913960962551
30
0
41
1
10
59.5926628098221
20
-4.37785541438598
30
0
41
1
10
59.0477954675854
20
-4.5265144456657
30
0
41
1
10
58.775865190229
20
-4.59646061588398
30
0
41
1
10
58.2318268058987
20
-4.7261013827825
30
0
41
1
10
57.9598424181284
20
-4.78590653927373
30
0
41
1
10
57.4157588149445
20
-4.89434943599949
30
0
41
1
10
57.1436216591471
20
-4.94258896427596
30
0
41
1
10
56.599444153974
20
-5.0302274095807
30
0
41
1
10
56.3271763485111
20
-5.06962984340069
30
0
41
1
10
55.7816345558464
20
-5.13807509515226
30
0
41
1
10
55.5086839546478
20
-5.16701815881646
30
0
41
1
10
54.9638532447161
20
-5.21338731312858
30
0
41
1
10
54.6918564424823
20
-5.23139803928186
30
0
41
1
10
54.1482584341198
20
-5.25734670342044
30
0
41
1
10
53.8764022160202
20
-5.26503936364367
30
0
41
1
10
53.3323245155021
20
-5.26884732802725
30
0
41
1
10
53.0600631882695
20
-5.26470083587827
30
0
41
1
10
52.5152836979861
20
-5.24598325932231
30
0
41
1
10
52.2427827273045
20
-5.23154639433469
30
0
41
1
10
51.6974569922105
20
-5.1922298602702
30
0
41
1
10
51.4250263974274
20
-5.16730155734322
30
0
41
1
10
50.8804531065531
20
-5.10604315126631
30
0
41
1
10
50.6083130528394
20
-5.07004511550707
30
0
41
1
10
50.0644926197982
20
-4.98848367273132
30
0
41
1
10
49.7929002260996
20
-4.9426626650687
30
0
41
1
10
49.2489420102971
20
-4.840756756275
30
0
41
1
10
48.9766336040065
20
-4.78440492961809
30
0
41
1
10
48.4313692072294
20
-4.66195839364886
30
0
41
1
10
48.1582503850101
20
-4.59611486788722
30
0
41
1
10
47.6133558475624
20
-4.4551062168299
30
0
41
1
10
47.3413673765094
20
-4.3799066779309
30
0
41
1
10
46.7971663714632
20
-4.22042836640892
30
0
41
1
10
46.5250570296727
20
-4.13621689798441
30
0
41
1
10
45.9810006038417
20
-3.96066132785052
30
0
41
1
10
45.7090526166953
20
-3.86881539160308
30
0
41
1
10
45.1651472141558
20
-3.67614893973243
30
0
41
1
10
44.8928333196128
20
-3.57565305664724
30
0
41
1
10
44.3471968339387
20
-3.36771489618886
30
0
41
1
10
44.0741446473437
20
-3.26069318755799
30
0
41
1
10
43.5292169663764
20
-3.04016577012902
30
0
41
1
10
43.2572325497615
20
-2.92638466855095
30
0
41
1
10
42.7134275709991
20
-2.6927441685205
30
0
41
1
10
42.441405666942
20
-2.5732103552038
30
0
41
1
10
41.897216778046
20
-2.3299334506882
30
0
41
1
10
41.625019316635
20
-2.20595650330853
30
0
41
1
10
41.0803467896469
20
-1.95281156729737
30
0
41
1
10
40.8078780745323
20
-1.82331935221885
30
0
41
1
10
40.2621890891644
20
-1.5613218589173
30
0
41
1
10
39.9895695645418
20
-1.42917806594153
30
0
41
1
10
39.4447316184442
20
-1.16251276256071
30
0
41
1
10
39.1725085257895
20
-1.02796625954716
30
0
41
1
10
38.6284133464218
20
-0.756412485681523
30
0
41
1
10
38.3565813488158
20
-0.619339623497467
30
0
41
1
10
37.8123084119131
20
-0.345035167650366
30
0
41
1
10
37.5399597590882
20
-0.207559786408154
30
0
41
1
10
36.9946279109924
20
0.067837918676787
30
0
41
1
10
36.7213325854108
20
0.205812792078604
30
0
41
1
10
35.9033082567182
20
0.619218908901473
30
0
41
1
10
35.3590667896724
20
0.892923098033521
30
0
41
1
10
34.5422106702725
20
1.2946174315137
30
0
41
1
10
34.2699794364853
20
1.42742209499448
30
0
41
1
10
33.7256197598127
20
1.69114400883427
30
0
41
1
10
33.4531749852547
20
1.82143768623374
30
0
41
1
10
32.9072834935662
20
2.07756757532724
30
0
41
1
10
32.6339359535999
20
2.20309950925628
30
0
41
1
10
32.0885240529915
20
2.44961163857096
30
0
41
1
10
31.8163272584609
20
2.57099720887905
30
0
41
1
10
31.2720730929315
20
2.80820706739752
30
0
41
1
10
30.9999072601227
20
2.92377635127153
30
0
41
1
10
30.4551270069228
20
3.14706468717381
30
0
41
1
10
30.1825960829424
20
3.25557832110042
30
0
41
1
10
29.6375325632728
20
3.46745829993736
30
0
41
1
10
29.36494393823
20
3.57082155354672
30
0
41
1
10
28.8190869869707
20
3.76876216120277
30
0
41
1
10
28.5468790273935
20
3.86242644785662
30
0
41
1
10
28.0035392057663
20
4.04195247645902
30
0
41
1
10
27.7324277067411
20
4.12807076795258
30
0
41
1
10
27.1914802269542
20
4.29215702553554
30
0
41
1
10
26.9216533896506
20
4.37021158104611
30
0
41
1
10
26.3820409617535
20
4.51489092918882
30
0
41
1
10
26.11235576699
20
4.58209912693434
30
0
41
1
10
25.5732881389951
20
4.70854557326132
30
0
41
1
10
25.3039196542574
20
4.7674895935312
30
0
41
1
10
24.7655453968418
20
4.87609598049303
30
0
41
1
10
24.4962846268377
20
4.92487370713042
30
0
41
1
10
23.956845262285
20
5.01153656784155
30
0
41
1
10
23.68686197137
20
5.05042891734962
30
0
41
1
10
23.1463553514132
20
5.11866048458484
30
0
41
1
10
22.875904205114
20
5.14811648855095
30
0
41
1
10
22.3339919983127
20
5.1951186096986
30
0
41
1
10
22.0621504079264
20
5.21230017026852
30
0
41
1
10
21.6022221783959
20
5.23395766490083
30
0
41
1
10
21.4143004741881
20
5.24050081776392
30
0
41
1
10
21.2264690382349
20
5.24454299513104
30
0
0
SPLINE
5
BA
100
AcDbEntity
8
1
62
256
6
ByLayer
370
18
48
1
60
0
100
AcDbSpline
70
4
71
3
72
8
73
4
40
0
40
0
40
0
40
0
40
1
40
1
40
1
40
1
41
1
10
72.9644049446426
20
-0.0409258303131708
30
0
41
1
10
72.1531718385231
20
-1.36791948535077
30
0
41
1
10
71.3934898465448
20
-2.74172791032711
30
0
41
1
10
70.6871830276958
20
-4.16400757578236
30
0
0
SPLINE
5
BB
100
AcDbEntity
8
1
62
256
6
ByLayer
370
18
48
1
60
0
100
AcDbSpline
70
4
71
3
72
12
73
8
40
0
40
0
40
0
40
0
40
0.25
40
0.25
40
0.5
40
0.5
40
1
40
1
40
1
40
1
41
1
10
4.13275266420604
20
-5.48333742809371
30
0
41
1
10
4.11264844333542
20
-5.48219156364752
30
0
41
1
10
4.09443468884666
20
-5.48075718023225
30
0
41
1
10
4.06168622408899
20
-5.47722297768178
30
0
41
1
10
4.04736835129972
20
-5.47512723504792
30
0
41
1
10
4.0126411479811
20
-5.46802235421285
30
0
41
1
10
4.00000004381684
20
-5.46205806784761
30
0
41
1
10
4.00000004381687
20
-5.45541613577339
30
0
0
SPLINE
5
BC
100
AcDbEntity
8
1
62
256
6
ByLayer
370
13
48
1
60
0
100
AcDbSpline
70
4
71
3
72
10
73
6
40
0
40
0
40
0
40
0
40
0.5
40
0.5
40
1
40
1
40
1
40
1
41
1
10
4.00000004381687
20
-5.42806656521162
30
0
41
1
10
4.00000004381687
20
-5.40769881012037
30
0
41
1
10
4.01188409546398
20
-5.38658949099812
30
0
41
1
10
4.05742131190488
20
-5.34990398585177
30
0
41
1
10
4.09161332474466
20
-5.33358607472496
30
0
41
1
10
4.1354987495416
20
-5.32270564222128
30
0
0
SPLINE
5
BD
100
AcDbEntity
8
1
62
256
6
ByLayer
370
18
48
1
60
0
100
AcDbSpline
70
4
71
3
72
8
73
4
40
0
40
0
40
0
40
0
40
1
40
1
40
1
40
1
41
1
10
72.9893514780427
20
0.125095194505178
30
0
41
1
10
72.9900085885565
20
0.103181137071203
30
0
41
1
10
72.9940438414957
20
0.0763957691778501
30
0
41
1
10
72.9999606275131
20
0.0481995627139611
30
0
0
SPLINE
5
BE
100
AcDbEntity
8
1
62
256
6
ByLayer
370
18
48
1
60
0
100
AcDbSpline
70
4
71
3
72
18
73
14
40
0
40
0
40
0
40
0
40
0.270096824233277
40
0.270096824233277
40
0.405145236349915
40
0.405145236349915
40
0.540193648466553
40
0.540193648466553
40
0.81029047269983
40
0.81029047269983
40
0.945338884816469
40
0.945338884816469
40
1
40
1
40
1
40
1
41
1
10
70.6871830276957
20
-4.16400757578234
30
0
41
1
10
70.6867691522035
20
-4.35437454184833
30
0
41
1
10
70.6952299795701
20
-4.52132176458898
30
0
41
1
10
70.7216235990761
20
-4.73727628900141
30
0
41
1
10
70.7327226784886
20
-4.80348393193097
30
0
41
1
10
70.7598098007119
20
-4.92405208349933
30
0
41
1
10
70.775701946571
20
-4.97786212531727
30
0
41
1
10
70.8299863029582
20
-5.11881701429598
30
0
41
1
10
70.8751056103212
20
-5.18643699237157
30
0
41
1
10
70.9571991644488
20
-5.24925219361282
30
0
41
1
10
70.9870776752595
20
-5.26373696877428
30
0
41
1
10
71.0323538422329
20
-5.27473964103987
30
0
41
1
10
71.0457659960058
20
-5.27682343391498
30
0
41
1
10
71.0595499605985
20
-5.2778292502687
30
0
0
SPLINE
5
BF
100
AcDbEntity
8
1
62
256
6
ByLayer
370
18
48
1
60
0
100
AcDbSpline
70
4
71
3
72
48
73
44
40
0
40
0
40
0
40
0
40
0.0315208802067654
40
0.0315208802067654
40
0.0630417604135308
40
0.0630417604135308
40
0.126083520827062
40
0.126083520827062
40
0.189125281240592
40
0.189125281240592
40
0.252167041654123
40
0.252167041654123
40
0.283687921860889
40
0.283687921860889
40
0.315208802067654
40
0.315208802067654
40
0.378250562481186
40
0.378250562481186
40
0.441292322894718
40
0.441292322894718
40
0.472813203101484
40
0.472813203101484
40
0.504334083308249
40
0.504334083308249
40
0.630417604135316
40
0.630417604135316
40
0.693459364548849
40
0.693459364548849
40
0.724980244755616
40
0.724980244755616
40
0.756501124962383
40
0.756501124962383
40
0.819542885375917
40
0.819542885375917
40
0.851063765582683
40
0.851063765582683
40
0.88258464578945
40
0.88258464578945
40
0.914105525996217
40
0.914105525996217
40
0.945626406202983
40
0.945626406202983
40
1
40
1
40
1
40
1
41
1
10
71.0407328443658
20
-5.54983965018749
30
0
41
1
10
70.6914279376905
20
-5.55864921639349
30
0
41
1
10
70.3422033272662
20
-5.55802270206695
30
0
41
1
10
69.6432213601483
20
-5.53794971785288
30
0
41
1
10
69.293208952777
20
-5.51846472654364
30
0
41
1
10
68.2455528135007
20
-5.43223198404394
30
0
41
1
10
67.5490038706453
20
-5.33775435029528
30
0
41
1
10
66.153712897175
20
-5.07783683805482
30
0
41
1
10
65.4534545098122
20
-4.91194527237656
30
0
41
1
10
64.0579761950787
20
-4.51744904435273
30
0
41
1
10
63.3613867673369
20
-4.28870590583222
30
0
41
1
10
62.3135372530046
20
-3.90363407102896
30
0
41
1
10
61.9634133683981
20
-3.76810924645199
30
0
41
1
10
61.2648377207316
20
-3.48536532128219
30
0
41
1
10
60.9160864996675
20
-3.33799645252557
30
0
41
1
10
59.8700950944534
20
-2.87997544828792
30
0
41
1
10
59.1730346507071
20
-2.55354401927428
30
0
41
1
10
57.7733608443052
20
-1.86826331999856
30
0
41
1
10
57.0761783003566
20
-1.51165153557804
30
0
41
1
10
56.0300308664295
20
-0.965082746147061
30
0
41
1
10
55.68119460935
20
-0.7809847160907
30
0
41
1
10
54.9825622081195
20
-0.410296611148027
30
0
41
1
10
54.6322021922071
20
-0.223360280677241
30
0
41
1
10
52.8884549981641
20
0.70716918433655
30
0
41
1
10
51.5121163113288
20
1.44156883379606
30
0
41
1
10
49.4398388916287
20
2.46246248279269
30
0
41
1
10
48.747587624659
20
2.78898324599166
30
0
41
1
10
47.7029564552984
20
3.25078823692945
30
0
41
1
10
47.352955990599
20
3.40021094719748
30
0
41
1
10
46.6536690675576
20
3.6865501253647
30
0
41
1
10
46.304589114714
20
3.82343622161699
30
0
41
1
10
45.2579730429251
20
4.21389298949438
30
0
41
1
10
44.5609416094348
20
4.4470938915787
30
0
41
1
10
43.5118537506975
20
4.75052368776443
30
0
41
1
10
43.1618086763633
20
4.84384306205942
30
0
41
1
10
42.4633323482346
20
5.01327819132024
30
0
41
1
10
42.1144841940802
20
5.0895434057415
30
0
41
1
10
41.4168147335356
20
5.2246426983948
30
0
41
1
10
41.0679844427311
20
5.28346860399256
30
0
41
1
10
40.3695124449945
20
5.38313591710721
30
0
41
1
10
40.019463699975
20
5.42401655964576
30
0
41
1
10
39.0663146971383
20
5.5100314360252
30
0
41
1
10
38.4647256898965
20
5.53672378821489
30
0
41
1
10
37.8628955023305
20
5.53556661046889
30
0
0
SPLINE
5
C0
100
AcDbEntity
8
1
62
256
6
ByLayer
370
18
48
1
60
0
100
AcDbSpline
70
4
71
3
72
14
73
10
40
0
40
0
40
0
40
0
40
0.0442051337572594
40
0.0442051337572594
40
0.283153850317944
40
0.283153850317944
40
0.522102566878627
40
0.522102566878627
40
1
40
1
40
1
40
1
41
1
10
8.51606731342775
20
-5.24509537628285
30
0
41
1
10
8.45196805389074
20
-5.25561059021967
30
0
41
1
10
8.3878473892311
20
-5.2658292241772
30
0
41
1
10
7.97697314140373
20
-5.32937092697247
30
0
41
1
10
7.62955265267652
20
-5.37428902545659
30
0
41
1
10
6.9326664165159
20
-5.44612734709102
30
0
41
1
10
6.58264136500765
20
-5.47305680353199
30
0
41
1
10
5.53217329849628
20
-5.52566631852866
30
0
41
1
10
4.83316089976256
20
-5.52325804476973
30
0
41
1
10
4.13275266420601
20
-5.48333742809371
30
0
0
SPLINE
5
C1
100
AcDbEntity
8
1
62
256
6
ByLayer
370
18
48
1
60
0
100
AcDbSpline
70
4
71
3
72
10
73
6
40
0
40
0
40
0
40
0
40
0.5
40
0.5
40
1
40
1
40
1
40
1
41
1
10
72.9999606275248
20
0.0481995627233118
30
0
41
1
10
72.9962157200449
20
0.0329501929941216
30
0
41
1
10
72.9911227930366
20
0.0166267073754227
30
0
41
1
10
72.9788748198846
20
-0.0143474162313737
30
0
41
1
10
72.9716879194601
20
-0.029012532766842
30
0
41
1
10
72.9644049446426
20
-0.0409258303131423
30
0
0
SPLINE
5
C2
100
AcDbEntity
8
1
62
256
6
ByLayer
370
18
48
1
60
0
100
AcDbSpline
70
4
71
3
72
16
73
12
40
0
40
0
40
0
40
0
40
0.05671851712347
40
0.05671851712347
40
0.375341926193762
40
0.375341926193762
40
0.534653630728907
40
0.534653630728907
40
0.693965335264053
40
0.693965335264053
40
1
40
1
40
1
40
1
41
1
10
38.0620673443731
20
-5.25784291722033
30
0
41
1
10
37.9370418382247
20
-5.25749150858692
30
0
41
1
10
37.8120078556578
20
-5.25599811567892
30
0
41
1
10
36.9844604498558
20
-5.23853880504416
30
0
41
1
10
36.2834188684455
20
-5.18771842297505
30
0
41
1
10
35.2298053211299
20
-5.05880333791339
30
0
41
1
10
34.8791117578153
20
-5.00713515640402
30
0
41
1
10
34.1804191277503
20
-4.88750269507904
30
0
41
1
10
33.8320731964711
20
-4.81947829720511
30
0
41
1
10
32.8163838118825
20
-4.59790083387338
30
0
41
1
10
32.1506963938319
20
-4.42329917281634
30
0
41
1
10
31.4848619306747
20
-4.22272670972316
30
0
0
SPLINE
5
C3
100
AcDbEntity
8
1
62
256
6
ByLayer
370
13
48
1
60
0
100
AcDbSpline
70
4
71
3
72
22
73
18
40
0
40
0
40
0
40
0
40
0.158934032989124
40
0.158934032989124
40
0.235380693123228
40
0.235380693123228
40
0.311827353257331
40
0.311827353257331
40
0.464720673525537
40
0.464720673525537
40
0.77050731406195
40
0.77050731406195
40
0.846953974196053
40
0.846953974196053
40
0.923400634330157
40
0.923400634330157
40
1
40
1
40
1
40
1
41
1
10
31.4848609727517
20
-4.22272642116349
30
0
41
1
10
30.7642485909122
20
-4.00565291974868
30
0
41
1
10
30.0434639726831
20
-3.75815962648471
30
0
41
1
10
28.9711732777644
20
-3.3520358530532
30
0
41
1
10
28.6221038984074
20
-3.21405594354491
30
0
41
1
10
27.9217030079832
20
-2.92674264322747
30
0
41
1
10
27.5697642395412
20
-2.77707072378692
30
0
41
1
10
26.5193308220399
20
-2.3168937974969
30
0
41
1
10
25.8234319555244
20
-1.99438989741967
30
0
41
1
10
23.7405540832052
20
-0.996032565616702
30
0
41
1
10
22.3585633676972
20
-0.289042528473629
30
0
41
1
10
20.6110694378301
20
0.590234686215865
30
0
41
1
10
20.2599901526918
20
0.766202881040783
30
0
41
1
10
19.5579009287121
20
1.11492081314844
30
0
41
1
10
19.2081094896671
20
1.28701894300679
30
0
41
1
10
18.5095689591769
20
1.62560637055904
30
0
41
1
10
18.160854766012
20
1.79215779415557
30
0
41
1
10
17.812683436103
20
1.95515274975452
30
0
0
SPLINE
5
C4
100
AcDbEntity
8
1
62
256
6
ByLayer
370
18
48
1
60
0
100
AcDbSpline
70
4
71
3
72
8
73
4
40
0
40
0
40
0
40
0
40
1
40
1
40
1
40
1
41
1
10
71.3283399362185
20
-5.4040056272317
30
0
41
1
10
71.2223265102596
20
-5.4832550173449
30
0
41
1
10
71.1265502123498
20
-5.53289279434253
30
0
41
1
10
71.0407328443658
20
-5.54983965018752
30
0
0
SPLINE
5
C5
100
AcDbEntity
8
1
62
256
6
ByLayer
370
18
48
1
60
0
100
AcDbSpline
70
4
71
3
72
32
73
28
40
0
40
0
40
0
40
0
40
0.0624999999999989
40
0.0624999999999989
40
0.0937499999999985
40
0.0937499999999985
40
0.124999999999998
40
0.124999999999998
40
0.187499999999998
40
0.187499999999998
40
0.249999999999999
40
0.249999999999999
40
0.375000000000001
40
0.375000000000001
40
0.437500000000002
40
0.437500000000002
40
0.500000000000004
40
0.500000000000004
40
0.625000000000003
40
0.625000000000003
40
0.687500000000002
40
0.687500000000002
40
0.750000000000002
40
0.750000000000002
40
0.875000000000001
40
0.875000000000001
40
1
40
1
40
1
40
1
41
1
10
65.855753595396
20
1.94623587426639
30
0
41
1
10
65.8438105145918
20
1.77901326999884
30
0
41
1
10
65.8443424069021
20
1.60844157774619
30
0
41
1
10
65.8641297233953
20
1.34748603778246
30
0
41
1
10
65.8739580256978
20
1.25925876969217
30
0
41
1
10
65.8997851212424
20
1.08298351124574
30
0
41
1
10
65.9156913951995
20
0.995343304922898
30
0
41
1
10
65.9718367113045
20
0.733823258858109
30
0
41
1
10
66.0204743177861
20
0.561339349773476
30
0
41
1
10
66.1380620671194
20
0.219747691042841
30
0
41
1
10
66.2075926158775
20
0.0496315851321754
30
0
41
1
10
66.4379040994513
20
-0.442672286845408
30
0
41
1
10
66.6208493657338
20
-0.750873353604646
30
0
41
1
10
66.9283001550469
20
-1.19070516736454
30
0
41
1
10
67.0365368586985
20
-1.33363113189662
30
0
41
1
10
67.2589080365728
20
-1.60745329280715
30
0
41
1
10
67.3735548890996
20
-1.73909309043745
30
0
41
1
10
67.7267210880643
20
-2.11996242221019
30
0
41
1
10
67.9743061034588
20
-2.35538552299934
30
0
41
1
10
68.3599604026226
20
-2.68677755835631
30
0
41
1
10
68.4912944980935
20
-2.79382559340962
30
0
41
1
10
68.756521093122
20
-2.99957744694717
30
0
41
1
10
68.8902739654704
20
-3.09820998654263
30
0
41
1
10
69.2946177301662
20
-3.38261956998562
30
0
41
1
10
69.5682751808562
20
-3.55697779872043
30
0
41
1
10
70.1226043336079
20
-3.87957558156413
30
0
41
1
10
70.4032732798636
20
-4.02782539735318
30
0
41
1
10
70.6871830276959
20
-4.16400757578228
30
0
0
SPLINE
5
C6
100
AcDbEntity
8
1
62
256
6
ByLayer
370
13
48
1
60
0
100
AcDbSpline
70
4
71
3
72
12
73
8
40
0
40
0
40
0
40
0
40
0.36914322439581
40
0.36914322439581
40
0.73828644879162
40
0.73828644879162
40
1
40
1
40
1
40
1
41
1
10
4.20450452696611
20
-5.30975797060296
30
0
41
1
10
4.55656994339319
20
-5.3280637380098
30
0
41
1
10
4.90850008140376
20
-5.33705751029461
30
0
41
1
10
5.60919543164187
20
-5.33671794321617
30
0
41
1
10
5.95843982000321
20
-5.32741449328455
30
0
41
1
10
6.55400753095466
20
-5.29627903444697
30
0
41
1
10
6.80072369495545
20
-5.27890444796927
30
0
41
1
10
7.04721243844537
20
-5.25712948690094
30
0
0
SPLINE
5
C7
100
AcDbEntity
8
1
62
256
6
ByLayer
370
18
48
1
60
0
100
AcDbSpline
70
4
71
3
72
18
73
14
40
0
40
0
40
0
40
0
40
0.0208506079333729
40
0.0208506079333729
40
0.139996590049041
40
0.139996590049041
40
0.259142572164709
40
0.259142572164709
40
0.497434536396045
40
0.497434536396045
40
0.974018464858716
40
0.974018464858716
40
1
40
1
40
1
40
1
41
1
10
54.2482879014049
20
-0.0178931224579912
30
0
41
1
10
54.3096968904703
20
-0.049608390047041
30
0
41
1
10
54.371143465495
20
-0.0813445507704671
30
0
41
1
10
54.7839774847933
20
-0.294545742177718
30
0
41
1
10
55.1350110744049
20
-0.47561358850507
30
0
41
1
10
55.8337355520986
20
-0.833850893199184
30
0
41
1
10
56.1819522185254
20
-1.0113206165251
30
0
41
1
10
57.2242439507273
20
-1.53676459607482
30
0
41
1
10
57.9161101343531
20
-1.87745536236443
30
0
41
1
10
59.9912878395172
20
-2.85525985019478
30
0
41
1
10
61.3733552429667
20
-3.44940350888513
30
0
41
1
10
62.8547130485749
20
-3.97007980641044
30
0
41
1
10
62.9313502600015
20
-3.99669519240194
30
0
41
1
10
63.0079691165495
20
-4.02297799614431
30
0
0
SPLINE
5
C8
100
AcDbEntity
8
1
62
256
6
ByLayer
370
13
48
1
60
0
100
AcDbSpline
70
4
71
3
72
16
73
12
40
0
40
0
40
0
40
0
40
0.0362294558181503
40
0.0362294558181503
40
0.100480825430272
40
0.100480825430272
40
0.228983564654518
40
0.228983564654518
40
0.48598904310301
40
0.48598904310301
40
1
40
1
40
1
40
1
41
1
10
63.0079691168826
20
-4.02297799625856
30
0
41
1
10
63.1070294274157
20
-4.05695896148836
30
0
41
1
10
63.2060590562392
20
-4.09038398776684
30
0
41
1
10
63.4801931354011
20
-4.18136430345206
30
0
41
1
10
63.6551389891383
20
-4.23767432329115
30
0
41
1
10
64.1790721522849
20
-4.40089953745959
30
0
41
1
10
64.5271610431477
20
-4.5021065844231
30
0
41
1
10
65.5689896825244
20
-4.78193991671318
30
0
41
1
10
66.2602247218144
20
-4.93686907726965
30
0
41
1
10
68.3325871631267
20
-5.30076938154866
30
0
41
1
10
69.712833262734
20
-5.40915619215079
30
0
41
1
10
71.1136742355171
20
-5.36964037466933
30
0
0
SPLINE
5
C9
100
AcDbEntity
8
1
62
256
6
ByLayer
370
18
48
1
60
0
100
AcDbSpline
70
4
71
3
72
12
73
8
40
0
40
0
40
0
40
0
40
0.250000000000001
40
0.250000000000001
40
0.500000000000002
40
0.500000000000002
40
1
40
1
40
1
40
1
41
1
10
71.3283399362185
20
5.40400562723164
30
0
41
1
10
71.4521412984248
20
5.05585706285001
30
0
41
1
10
71.5790703477715
20
4.70760518954546
30
0
41
1
10
71.8384423555596
20
4.01123608837332
30
0
41
1
10
71.9707617620747
20
3.66354717549251
30
0
41
1
10
72.3738276128543
20
2.62425451762849
30
0
41
1
10
72.6510185785373
20
1.93564653970032
30
0
41
1
10
72.9347138640319
20
1.2523544240004
30
0
0
SPLINE
5
CA
100
AcDbEntity
8
1
62
256
6
ByLayer
370
18
48
1
60
0
100
AcDbSpline
70
4
71
3
72
16
73
12
40
0
40
0
40
0
40
0
40
0.158353122515175
40
0.158353122515175
40
0.31670624503035
40
0.31670624503035
40
0.633412490060704
40
0.633412490060704
40
0.950118735091059
40
0.950118735091059
40
1
40
1
40
1
40
1
41
1
10
71.1227927723165
20
-5.27529932596713
30
0
41
1
10
70.7721227201071
20
-5.28142187190497
30
0
41
1
10
70.4216393451425
20
-5.27847857164159
30
0
41
1
10
69.7203939006044
20
-5.25454962449675
30
0
41
1
10
69.3692068885273
20
-5.23352733509367
30
0
41
1
10
68.3174107749678
20
-5.14392441612296
30
0
41
1
10
67.6201334391403
20
-5.04908092781446
30
0
41
1
10
66.2279478978091
20
-4.79355159676908
30
0
41
1
10
65.5329183403499
20
-4.63284413201168
30
0
41
1
10
64.7263699662209
20
-4.41164369321251
30
0
41
1
10
64.6165814057613
20
-4.38078955226902
30
0
41
1
10
64.5067386105036
20
-4.34919171416092
30
0
0
SPLINE
5
CB
100
AcDbEntity
8
1
62
256
6
ByLayer
370
13
48
1
60
0
100
AcDbSpline
70
4
71
3
72
24
73
20
40
0
40
0
40
0
40
0
40
0.0502457298644131
40
0.0502457298644131
40
0.0869214447823269
40
0.0869214447823269
40
0.123597159700241
40
0.123597159700241
40
0.417002879043542
40
0.417002879043542
40
0.563705738715193
40
0.563705738715193
40
0.637057168551018
40
0.637057168551018
40
0.673732883468932
40
0.673732883468932
40
0.710408598386846
40
0.710408598386846
40
1
40
1
40
1
40
1
41
1
10
64.5067388234773
20
-4.34919177542588
30
0
41
1
10
64.2678744802906
20
-4.28047906101162
30
0
41
1
10
64.0287536665775
20
-4.20824948216378
30
0
41
1
10
63.6144339510967
20
-4.07742499888988
30
0
41
1
10
63.4394120206237
20
-4.0204161063856
30
0
41
1
10
63.0888756644792
20
-3.9028671115901
30
0
41
1
10
62.913180988165
20
-3.84226075580563
30
0
41
1
10
61.3360516398355
20
-3.28373318712346
30
0
41
1
10
59.9556108534676
20
-2.69144948858232
30
0
41
1
10
57.882405954323
20
-1.72238505437235
30
0
41
1
10
57.191084395088
20
-1.38563439955308
30
0
41
1
10
56.149579269961
20
-0.867663721187142
30
0
41
1
10
55.8016306759336
20
-0.69292786307517
30
0
41
1
10
55.2779980859739
20
-0.42872747233929
30
0
41
1
10
55.1031671524653
20
-0.340313365026077
30
0
41
1
10
54.752865657692
20
-0.162924677398308
30
0
41
1
10
54.5771724670739
20
-0.0738340822738337
30
0
41
1
10
53.0174278798684
20
0.716960497796521
30
0
41
1
10
51.6520597065808
20
1.40736913383043
30
0
41
1
10
50.2845481465874
20
2.04579652293978
30
0
0
SPLINE
5
CC
100
AcDbEntity
8
1
62
256
6
ByLayer
370
18
48
1
60
0
100
AcDbSpline
70
4
71
3
72
8
73
4
40
0
40
0
40
0
40
0
40
1
40
1
40
1
40
1
41
1
10
5.40834764243345
20
-5.23780866845104
30
0
41
1
10
5.02362466806204
20
-5.23665766686415
30
0
41
1
10
4.63777228995062
20
-5.22467873705847
30
0
41
1
10
4.2503108469291
20
-5.20162094995018
30
0
0
SPLINE
5
CD
100
AcDbEntity
8
1
62
256
6
ByLayer
370
18
48
1
60
0
100
AcDbSpline
70
4
71
3
72
54
73
50
40
0
40
0
40
0
40
0
40
0.0797416531870113
40
0.0797416531870113
40
0.119612479780517
40
0.119612479780517
40
0.159483306374023
40
0.159483306374023
40
0.199354132967527
40
0.199354132967527
40
0.239224959561032
40
0.239224959561032
40
0.279095786154537
40
0.279095786154537
40
0.318966612748042
40
0.318966612748042
40
0.358837439341547
40
0.358837439341547
40
0.398708265935052
40
0.398708265935052
40
0.438579092528557
40
0.438579092528557
40
0.478449919122062
40
0.478449919122062
40
0.518320745715567
40
0.518320745715567
40
0.558191572309072
40
0.558191572309072
40
0.598062398902577
40
0.598062398902577
40
0.637933225496082
40
0.637933225496082
40
0.677804052089587
40
0.677804052089587
40
0.717674878683091
40
0.717674878683091
40
0.7974165318701
40
0.7974165318701
40
0.837287358463603
40
0.837287358463603
40
0.877158185057107
40
0.877158185057107
40
0.91702901165061
40
0.91702901165061
40
0.956899838244114
40
0.956899838244114
40
0.996770664837617
40
0.996770664837617
40
1
40
1
40
1
40
1
41
1
10
13.6169901196737
20
3.14628646252822
30
0
41
1
10
14.2228526679429
20
2.87902340160815
30
0
41
1
10
14.8275524788853
20
2.60239002253789
30
0
41
1
10
15.7293430514252
20
2.16793152842661
30
0
41
1
10
16.0286827878137
20
2.01913445927448
30
0
41
1
10
16.6279617121504
20
1.71918765590902
30
0
41
1
10
16.9277504511463
20
1.56778991743326
30
0
41
1
10
17.5270555045486
20
1.26114633809101
30
0
41
1
10
17.826593311437
20
1.10593973318609
30
0
41
1
10
18.4249765905758
20
0.790803544416377
30
0
41
1
10
18.7245632269711
20
0.632272201846718
30
0
41
1
10
19.3254183355971
20
0.31504409502449
30
0
41
1
10
19.6264509575163
20
0.155898615744974
30
0
41
1
10
20.2293594061441
20
-0.164230279086098
30
0
41
1
10
20.5308270577315
20
-0.326046548400541
30
0
41
1
10
21.13662153199
20
-0.647590709963168
30
0
41
1
10
21.4406820741983
20
-0.807232039820434
30
0
41
1
10
22.0456381343623
20
-1.12282756497254
30
0
41
1
10
22.3472367805357
20
-1.27907215122451
30
0
41
1
10
22.9481139981475
20
-1.58948844631354
30
0
41
1
10
23.2480472733315
20
-1.74239575508434
30
0
41
1
10
23.8481166952586
20
-2.04153961339515
30
0
41
1
10
24.1479828398266
20
-2.18828722610886
30
0
41
1
10
24.7469832283091
20
-2.47684442500739
30
0
41
1
10
25.0457031082858
20
-2.61933824796728
30
0
41
1
10
25.6442117624493
20
-2.89620570419066
30
0
41
1
10
25.9440760348447
20
-3.03049341659749
30
0
41
1
10
26.5444757414317
20
-3.29173443745657
30
0
41
1
10
26.8450543818616
20
-3.41862065586628
30
0
41
1
10
27.446354174707
20
-3.66568260884017
30
0
41
1
10
27.7475628286649
20
-3.78508907396645
30
0
41
1
10
28.3527996257953
20
-4.01315762474044
30
0
41
1
10
28.6571183362516
20
-4.1225160198905
30
0
41
1
10
29.2626794858172
20
-4.33024198370771
30
0
41
1
10
29.5639036908913
20
-4.42920183819058
30
0
41
1
10
30.4664356657719
20
-4.70713704276483
30
0
41
1
10
31.0673703810388
20
-4.86692820562808
30
0
41
1
10
31.9645678983607
20
-5.07193601811841
30
0
41
1
10
32.2632546243941
20
-5.13408470582473
30
0
41
1
10
32.861934155241
20
-5.24467401195753
30
0
41
1
10
33.1615707471498
20
-5.29341610768785
30
0
41
1
10
33.7609892742942
20
-5.3780160804169
30
0
41
1
10
34.0604338062016
20
-5.41398512985185
30
0
41
1
10
34.6607161634756
20
-5.47211893523928
30
0
41
1
10
34.9619066019739
20
-5.49422295326019
30
0
41
1
10
35.5659045306908
20
-5.52470918867127
30
0
41
1
10
35.8689459116715
20
-5.53309323499826
30
0
41
1
10
36.1966542034015
20
-5.53450194114879
30
0
41
1
10
36.2211992120366
20
-5.53456046907547
30
0
41
1
10
36.2457359183104
20
-5.53457213311523
30
0
0
SPLINE
5
CE
100
AcDbEntity
8
1
62
256
6
ByLayer
370
18
48
1
60
0
100
AcDbSpline
70
4
71
3
72
28
73
24
40
0
40
0
40
0
40
0
40
0.0521324863269869
40
0.0521324863269869
40
0.138302260297262
40
0.138302260297262
40
0.224472034267536
40
0.224472034267536
40
0.310641808237811
40
0.310641808237811
40
0.48298135617836
40
0.48298135617836
40
0.569151130148634
40
0.569151130148634
40
0.655320904118907
40
0.655320904118907
40
0.741490678089181
40
0.741490678089181
40
0.827660452059454
40
0.827660452059454
40
0.913830226029727
40
0.913830226029727
40
1
40
1
40
1
40
1
41
1
10
60.8755329227409
20
3.97929539075798
30
0
41
1
10
61.0569577258685
20
4.04683275996894
30
0
41
1
10
61.2381189299944
20
4.11262980207977
30
0
41
1
10
61.7179144579684
20
4.28266013305677
30
0
41
1
10
62.0168101801521
20
4.38291952579752
30
0
41
1
10
62.615184051136
20
4.57156431730925
30
0
41
1
10
62.914458721124
20
4.66020286589099
30
0
41
1
10
63.5128053236704
20
4.82643870014786
30
0
41
1
10
63.8114615100648
20
4.90437545633603
30
0
41
1
10
64.7102613040198
20
5.11834694660578
30
0
41
1
10
65.3129176218277
20
5.23540599323226
30
0
41
1
10
66.2192161038
20
5.37339084918284
30
0
41
1
10
66.5226127855721
20
5.41261842599838
30
0
41
1
10
67.1273676244049
20
5.47655379435261
30
0
41
1
10
67.429107600049
20
5.50152248549776
30
0
41
1
10
68.0309348088598
20
5.53771398949445
30
0
41
1
10
68.3305988274698
20
5.54893870607307
30
0
41
1
10
68.9301846598526
20
5.5572763275774
30
0
41
1
10
69.2301377168926
20
5.55448027342695
30
0
41
1
10
69.8298111618408
20
5.53519138133049
30
0
41
1
10
70.129575354922
20
5.51870574871532
30
0
41
1
10
70.7283270531772
20
5.47161963831559
30
0
41
1
10
71.0278608758601
20
5.44111211463382
30
0
41
1
10
71.3283399362185
20
5.4040056272317
30
0
0
SPLINE
5
CF
100
AcDbEntity
8
1
62
256
6
ByLayer
370
13
48
1
60
0
100
AcDbSpline
70
4
71
3
72
8
73
4
40
0
40
0
40
0
40
0
40
1
40
1
40
1
40
1
41
1
10
4.13549874954157
20
-5.22507918250747
30
0
41
1
10
4.17136435010912
20
-5.20804908482475
30
0
41
1
10
4.21035972138469
20
-5.20017453443444
30
0
41
1
10
4.2503108469291
20
-5.20162094995018
30
0
0
SPLINE
5
D0
100
AcDbEntity
8
1
62
256
6
ByLayer
370
18
48
1
60
0
100
AcDbSpline
70
4
71
3
72
43
73
39
40
0
40
0
40
0
40
0
40
0.06365635868123
40
0.06365635868123
40
0.191109465329306
40
0.191109465329306
40
0.254836018653344
40
0.254836018653344
40
0.318562571977382
40
0.318562571977382
40
0.446015678625459
40
0.446015678625459
40
0.573468785273535
40
0.573468785273535
40
0.58143460443904
40
0.58143460443904
40
0.585417514021793
40
0.585417514021793
40
0.589400423604545
40
0.589400423604545
40
0.593383333187297
40
0.593383333187297
40
0.59736624277005
40
0.605332061935554
40
0.605332061935554
40
0.637195338597573
40
0.637195338597573
40
0.700921891921611
40
0.700921891921611
40
0.764648445245649
40
0.764648445245649
40
0.828374998569687
40
0.828374998569687
40
0.892101551893725
40
0.892101551893725
40
0.955828105217763
40
0.955828105217763
40
1
40
1
40
1
40
1
41
1
10
13.6169901196737
20
3.14628646254255
30
0
41
1
10
13.6169901196737
20
3.04791045995859
30
0
41
1
10
13.6169901196728
20
2.94321386994855
30
0
41
1
10
13.6169901196728
20
2.61077113518425
30
0
41
1
10
13.6169901196737
20
2.36497198760097
30
0
41
1
10
13.6169901196737
20
1.96130075515177
30
0
41
1
10
13.6169901196737
20
1.82039006996251
30
0
41
1
10
13.6169901196737
20
1.53125535464972
30
0
41
1
10
13.6169901196737
20
1.38266001692273
30
0
41
1
10
13.6169901196737
20
0.925293672070609
30
0
41
1
10
13.6169901196737
20
0.605005436023248
30
0
41
1
10
13.6169901196737
20
-0.0653738569811821
30
0
41
1
10
13.6169901196737
20
-0.416491976324352
30
0
41
1
10
13.6169901196737
20
-0.798910334740668
30
0
41
1
10
13.6169901196737
20
-0.821438985245663
30
0
41
1
10
13.6169901196737
20
-0.8552820244293
30
0
41
1
10
13.6169901196737
20
-0.866889989213831
30
0
41
1
10
13.6169901196737
20
-0.891263304422125
30
0
41
1
10
13.6169901196737
20
-0.903659179474033
30
0
41
1
10
13.6169901196737
20
-0.92796938782638
30
0
41
1
10
13.6169901196737
20
-0.939963172724561
30
0
41
1
10
13.6169901196737
20
-0.963352241369421
30
0
41
1
10
13.6169901196736
20
-0.998405053237406
30
0
41
1
10
13.6169901196737
20
-1.03336538342148
30
0
41
1
10
13.6169901196737
20
-1.1496937545333
30
0
41
1
10
13.6169901196737
20
-1.24212390508345
30
0
41
1
10
13.6169901196737
20
-1.51723580745096
30
0
41
1
10
13.6169901196737
20
-1.69734378019692
30
0
41
1
10
13.6169901196737
20
-2.05079946397399
30
0
41
1
10
13.6169901196737
20
-2.22431368717977
30
0
41
1
10
13.6169901196737
20
-2.56047668892035
30
0
41
1
10
13.6169901196737
20
-2.72362299069721
30
0
41
1
10
13.6169901196737
20
-3.03986824832822
30
0
41
1
10
13.6169901196737
20
-3.19296845357718
30
0
41
1
10
13.6169901196737
20
-3.48869778730384
30
0
41
1
10
13.6169901196736
20
-3.63176255674608
30
0
41
1
10
13.6169901196736
20
-3.86284843940771
30
0
41
1
10
13.6169901196737
20
-3.95386361929516
30
0
41
1
10
13.6169901196737
20
-4.04123977647936
30
0
0
SPLINE
5
D1
100
AcDbEntity
8
1
62
256
6
ByLayer
370
13
48
1
60
0
100
AcDbSpline
70
4
71
3
72
30
73
26
40
0
40
0
40
0
40
0
40
0.125
40
0.125
40
0.1875
40
0.1875
40
0.249999999999999
40
0.312499999999999
40
0.312499999999999
40
0.374999999999999
40
0.374999999999999
40
0.499999999999999
40
0.499999999999999
40
0.562499999999999
40
0.562499999999999
40
0.624999999999999
40
0.624999999999999
40
0.687499999999999
40
0.687499999999999
40
0.75
40
0.8125
40
0.8125
40
0.875
40
0.875
40
1
40
1
40
1
40
1
41
1
10
4.25031084692912
20
-5.20162094995018
30
0
41
1
10
4.25038689375032
20
-5.16051037853239
30
0
41
1
10
4.25045572534341
20
-5.08426899132604
30
0
41
1
10
4.25055183131224
20
-4.91754289316927
30
0
41
1
10
4.25058251446112
20
-4.85334884986935
30
0
41
1
10
4.25064103697662
20
-4.70988600753574
30
0
41
1
10
4.25069697704385
20
-4.55091234908755
30
0
41
1
10
4.25074902005215
20
-4.36126979207705
30
0
41
1
10
4.25079966002858
20
-4.15599856601776
30
0
41
1
10
4.25082439399912
20
-4.04490749029344
30
0
41
1
10
4.25089574102736
20
-3.69462755669448
30
0
41
1
10
4.2509399543963
20
-3.43747217109473
30
0
41
1
10
4.2510036506938
20
-3.01675917517133
30
0
41
1
10
4.25102447558254
20
-2.87029049571936
30
0
41
1
10
4.25106520917296
20
-2.56670375451972
30
0
41
1
10
4.25108496300481
20
-2.41078913711374
30
0
41
1
10
4.25112336388861
20
-2.09077094666978
30
0
41
1
10
4.25114206791793
20
-1.92608630251593
30
0
41
1
10
4.25117780226108
20
-1.59338112809922
30
0
41
1
10
4.25121197572145
20
-1.25650802239176
30
0
41
1
10
4.2512427981905
20
-0.911443262293062
30
0
41
1
10
4.25127165916729
20
-0.562228899058738
30
0
41
1
10
4.25128516985751
20
-0.384577631903596
30
0
41
1
10
4.25132141827663
20
0.145151106915591
30
0
41
1
10
4.25134010106925
20
0.495093589656875
30
0
41
1
10
4.25135140533837
20
0.841882166371335
30
0
0
SPLINE
5
D2
100
AcDbEntity
8
1
62
256
6
ByLayer
370
18
48
1
60
0
100
AcDbSpline
70
4
71
3
72
14
73
10
40
0
40
0
40
0
40
0
40
0.25
40
0.25
40
0.499999999999999
40
0.499999999999999
40
0.75
40
0.75
40
1
40
1
40
1
40
1
41
1
10
71.122792772197
20
-5.2752993259692
30
0
41
1
10
71.126179528187
20
-5.27481103584515
30
0
41
1
10
71.1289244851078
20
-5.27601070678367
30
0
41
1
10
71.1327210211235
20
-5.2828449980432
30
0
41
1
10
71.1337189699207
20
-5.28856273083457
30
0
41
1
10
71.1327973249261
20
-5.30554073068234
30
0
41
1
10
71.1308012036701
20
-5.31682627754867
30
0
41
1
10
71.1238788647364
20
-5.34236008811632
30
0
41
1
10
71.1190249521802
20
-5.35637771309163
30
0
41
1
10
71.1136742355388
20
-5.36964037466871
30
0
0
SPLINE
5
D3
100
AcDbEntity
8
1
62
256
6
ByLayer
370
18
48
1
60
0
100
AcDbSpline
70
4
71
3
72
61
73
57
40
0
40
0
40
0
40
0
40
0.062499999999994
40
0.062499999999994
40
0.093749999999991
40
0.093749999999991
40
0.124999999999988
40
0.124999999999988
40
0.156249999999985
40
0.156249999999985
40
0.171874999999983
40
0.171874999999983
40
0.187499999999981
40
0.187499999999981
40
0.203124999999979
40
0.203124999999979
40
0.210937499999978
40
0.210937499999978
40
0.218749999999978
40
0.218749999999978
40
0.234374999999976
40
0.234374999999976
40
0.249999999999974
40
0.249999999999974
40
0.281249999999971
40
0.281249999999971
40
0.296874999999969
40
0.296874999999969
40
0.312499999999966
40
0.312499999999966
40
0.343749999999963
40
0.343749999999963
40
0.374999999999959
40
0.374999999999959
40
0.378906249999958
40
0.378906249999958
40
0.382812499999957
40
0.382812499999957
40
0.386718749999957
40
0.386718749999957
40
0.390624999999956
40
0.406249999999957
40
0.406249999999957
40
0.437499999999958
40
0.437499999999958
40
0.499999999999962
40
0.499999999999962
40
0.562499999999967
40
0.562499999999967
40
0.624999999999971
40
0.624999999999971
40
0.749999999999981
40
0.749999999999981
40
0.87499999999999
40
0.87499999999999
40
1
40
1
40
1
40
1
41
1
10
4.00000004381656
20
0.839815142966273
30
0
41
1
10
3.72804264824003
20
1.04706359240046
30
0
41
1
10
3.46337387745618
20
1.26146533671255
30
0
41
1
10
3.08494315905978
20
1.60205428575054
30
0
41
1
10
2.96200101612357
20
1.71882912945048
30
0
41
1
10
2.72825724976627
20
1.95817377298954
30
0
41
1
10
2.61702828042718
20
2.08103427688442
30
0
41
1
10
2.41086007525706
20
2.33630383473658
30
0
41
1
10
2.31739626785983
20
2.46695106540349
30
0
41
1
10
2.1989359844876
20
2.66774081461387
30
0
41
1
10
2.16302982330035
20
2.73555968841257
30
0
41
1
10
2.10007972230511
20
2.87348700855807
30
0
41
1
10
2.07285513958894
20
2.94419611213951
30
0
41
1
10
2.03056422717987
20
3.08541366830619
30
0
41
1
10
2.01550669287661
20
3.15558771419472
30
0
41
1
10
2.00315837307551
20
3.26021798810723
30
0
41
1
10
2.00074707547003
20
3.29498916891751
30
0
41
1
10
1.9995554645954
20
3.36432412928554
30
0
41
1
10
2.00080171408709
20
3.39902885588148
30
0
41
1
10
2.01010222178016
20
3.50088416762142
30
0
41
1
10
2.02364369310089
20
3.56628380168036
30
0
41
1
10
2.06474420329042
20
3.69244951522523
30
0
41
1
10
2.09258691221487
20
3.75367197088028
30
0
41
1
10
2.19436039647741
20
3.92747552022266
30
0
41
1
10
2.28462978597358
20
4.02880411107628
30
0
41
1
10
2.44421650112423
20
4.16586213067612
30
0
41
1
10
2.50125523708675
20
4.20875684646114
30
0
41
1
10
2.61984841149217
20
4.28875984745451
30
0
41
1
10
2.68168840535634
20
4.32609928563767
30
0
41
1
10
2.87351816759582
20
4.43166857008131
30
0
41
1
10
3.00975777238381
20
4.49352145673961
30
0
41
1
10
3.29461403706918
20
4.605260173635
30
0
41
1
10
3.44241839765203
20
4.65475062181136
30
0
41
1
10
3.61226371761955
20
4.70493687141055
30
0
41
1
10
3.6310433679854
20
4.71058203585469
30
0
41
1
10
3.67215325045527
20
4.7179926073417
30
0
41
1
10
3.69425398401114
20
4.7203033888695
30
0
41
1
10
3.7377600984122
20
4.72281400420695
30
0
41
1
10
3.75950238424946
20
4.72283823431607
30
0
41
1
10
3.80298471491679
20
4.7226318206915
30
0
41
1
10
3.91168975501796
20
4.72202591019033
30
0
41
1
10
4.02039084822968
20
4.72096887323403
30
0
41
1
10
4.28126593852141
20
4.71756656317331
30
0
41
1
10
4.45514028050533
20
4.71414749532556
30
0
41
1
10
4.97604645899219
20
4.70045814030019
30
0
41
1
10
5.32258495517056
20
4.6867724729627
30
0
41
1
10
6.01422862219195
20
4.64984737563867
30
0
41
1
10
6.35987658780542
20
4.6265576059624
30
0
41
1
10
7.04677307859629
20
4.56992001761793
30
0
41
1
10
7.38786821749875
20
4.53658596754172
30
0
41
1
10
8.40441896546355
20
4.42052601300554
30
0
41
1
10
9.07308993193928
20
4.32168723461123
30
0
41
1
10
10.3945300360095
20
4.0747443586763
30
0
41
1
10
11.0472763507058
20
3.92650594962825
30
0
41
1
10
12.3402595654285
20
3.57638849847481
30
0
41
1
10
12.9805362499569
20
3.37452793086371
30
0
41
1
10
13.6169901196737
20
3.14628646252822
30
0
0
SPLINE
5
D4
100
AcDbEntity
8
1
62
256
6
ByLayer
370
13
48
1
60
0
100
AcDbSpline
70
4
71
3
72
8
73
4
40
0
40
0
40
0
40
0
40
1
40
1
40
1
40
1
41
1
10
4.1354987495416
20
-5.32270564222128
30
0
41
1
10
4.15722017702223
20
-5.3127947532183
30
0
41
1
10
4.18061781013131
20
-5.30851597220698
30
0
41
1
10
4.20450452696613
20
-5.30975797060299
30
0
0
SPLINE
5
D5
100
AcDbEntity
8
1
62
256
6
ByLayer
370
18
48
1
60
0
100
AcDbSpline
70
4
71
3
72
8
73
4
40
0
40
0
40
0
40
0
40
1
40
1
40
1
40
1
41
1
10
71.0407328443658
20
5.54983965018749
30
0
41
1
10
70.8726097889864
20
5.55407976007092
30
0
41
1
10
70.7044823044204
20
5.55613451684377
30
0
41
1
10
70.5363117162843
20
5.55600503799243
30
0
0
SPLINE
5
D6
100
AcDbEntity
8
1
62
256
6
ByLayer
370
18
48
1
60
0
100
AcDbSpline
70
4
71
3
72
54
73
50
40
0
40
0
40
0
40
0
40
0.009137099743982
40
0.009137099743982
40
0.0383290750484972
40
0.0383290750484972
40
0.0967130256575276
40
0.0967130256575276
40
0.125905000962042
40
0.125905000962042
40
0.155096976266557
40
0.155096976266557
40
0.213480926875586
40
0.213480926875586
40
0.2426729021801
40
0.2426729021801
40
0.271864877484614
40
0.271864877484614
40
0.330248828093643
40
0.330248828093643
40
0.359440803398157
40
0.359440803398157
40
0.388632778702672
40
0.388632778702672
40
0.4470167293117
40
0.4470167293117
40
0.505400679920729
40
0.505400679920729
40
0.534592655225243
40
0.534592655225243
40
0.563784630529757
40
0.563784630529757
40
0.622168581138785
40
0.622168581138785
40
0.680552531747812
40
0.680552531747812
40
0.73893648235684
40
0.73893648235684
40
0.768128457661354
40
0.768128457661354
40
0.797320432965868
40
0.797320432965868
40
0.914088334183922
40
0.914088334183922
40
0.943280309488436
40
0.943280309488436
40
0.97247228479295
40
0.97247228479295
40
1
40
1
40
1
40
1
41
1
10
41.0759728062648
20
-5.27918326476944
30
0
41
1
10
40.9666252957599
20
-5.29670876835755
30
0
41
1
10
40.857245799101
20
-5.31336147212588
30
0
41
1
10
40.3982243205653
20
-5.37952040884176
30
0
41
1
10
40.0477144643159
20
-5.42095070867114
30
0
41
1
10
38.9979264089817
20
-5.5171760236797
30
0
41
1
10
38.3002894397723
20
-5.54401175682861
30
0
41
1
10
37.2524349474673
20
-5.52796841400254
30
0
41
1
10
36.9029031192956
20
-5.51324390556522
30
0
41
1
10
36.2026120474178
20
-5.46502014375869
30
0
41
1
10
35.8523952125474
20
-5.43153263397409
30
0
41
1
10
34.8038684489651
20
-5.30385960192316
30
0
41
1
10
34.1062705490701
20
-5.18236638000047
30
0
41
1
10
33.0573651355218
20
-4.94838474602912
30
0
41
1
10
32.7068402170595
20
-4.86165105772096
30
0
41
1
10
32.0067914325579
20
-4.67218662049476
30
0
41
1
10
31.6573447115079
20
-4.56949119046422
30
0
41
1
10
30.6094533485224
20
-4.239005107493
30
0
41
1
10
29.9115762891291
20
-3.98867946706505
30
0
41
1
10
28.8611370766045
20
-3.57379739204654
30
0
41
1
10
28.5109708647324
20
-3.42923060588271
30
0
41
1
10
27.8139115183072
20
-3.13044765911536
30
0
41
1
10
27.4664439235676
20
-2.97598123141913
30
0
41
1
10
26.4260953020329
20
-2.4993625802145
30
0
41
1
10
25.7351739113981
20
-2.16414596299131
30
0
41
1
10
24.3526469323911
20
-1.46950730641876
30
0
41
1
10
23.6611390666272
20
-1.10990057950138
30
0
41
1
10
22.618768520183
20
-0.560694327851223
30
0
41
1
10
22.270518584013
20
-0.375880363083837
30
0
41
1
10
21.5715402815865
20
-0.0044128154142982
30
0
41
1
10
21.2206005575286
20
0.182325514055606
30
0
41
1
10
20.1711508582562
20
0.738835803663306
30
0
41
1
10
19.4734316453458
20
1.10652416117375
30
0
41
1
10
18.0751096294038
20
1.82277991537265
30
0
41
1
10
17.3734969295941
20
2.17217053173917
30
0
41
1
10
15.9754019013237
20
2.83394286076344
30
0
41
1
10
15.2774461879228
20
3.14729738932937
30
0
41
1
10
14.2273795745218
20
3.5833334890776
30
0
41
1
10
13.8764226760322
20
3.72314048085184
30
0
41
1
10
13.1780510677146
20
3.98832817152433
30
0
41
1
10
12.8300263841734
20
4.11395093187105
30
0
41
1
10
11.0936088511148
20
4.70509739438606
30
0
41
1
10
9.71676719375898
20
5.06001943126015
30
0
41
1
10
7.98080660581982
20
5.32885060336943
30
0
41
1
10
7.63287234423001
20
5.37389854838699
30
0
41
1
10
6.93485231251475
20
5.44594990300001
30
0
41
1
10
6.58413363609091
20
5.47295842341609
30
0
41
1
10
5.90345649810646
20
5.50709393240084
30
0
41
1
10
5.57337030929676
20
5.51532170455909
30
0
41
1
10
5.24326728661524
20
5.51520349157479
30
0
0
SPLINE
5
D7
100
AcDbEntity
8
1
62
256
6
ByLayer
370
18
48
1
60
0
100
AcDbSpline
70
4
71
3
72
8
73
4
40
0
40
0
40
0
40
0
40
1
40
1
40
1
40
1
41
1
10
72.9893514780429
20
-0.125095194505036
30
0
41
1
10
72.9900085885567
20
-0.103181137065775
30
0
41
1
10
72.9940438414977
20
-0.0763957691648329
30
0
41
1
10
72.9999606275175
20
-0.0481995626933553
30
0
0
SPLINE
5
D8
100
AcDbEntity
8
1
62
256
6
ByLayer
370
18
48
1
60
0
100
AcDbSpline
70
4
71
3
72
38
73
34
40
0
40
0
40
0
40
0
40
0.111825554992836
40
0.111825554992836
40
0.167738332489254
40
0.167738332489254
40
0.223651109985673
40
0.223651109985673
40
0.279563887482091
40
0.279563887482091
40
0.335476664978509
40
0.335476664978509
40
0.447302219971346
40
0.447302219971346
40
0.503214997467764
40
0.503214997467764
40
0.559127774964182
40
0.559127774964182
40
0.6150405524606
40
0.6150405524606
40
0.670953329957018
40
0.670953329957018
40
0.726866107453436
40
0.726866107453436
40
0.782778884949855
40
0.782778884949855
40
0.838691662446273
40
0.838691662446273
40
0.894604439942691
40
0.894604439942691
40
0.950517217439109
40
0.950517217439109
40
1
40
1
40
1
40
1
41
1
10
13.6169901196737
20
-4.0412397764826
30
0
41
1
10
14.1642651737015
20
-4.21749557773282
30
0
41
1
10
14.7105972472701
20
-4.37643745829638
30
0
41
1
10
15.5286509588837
20
-4.58649589269322
30
0
41
1
10
15.801103128533
20
-4.65202907946869
30
0
41
1
10
16.3465845207296
20
-4.7735547714467
30
0
41
1
10
16.6196181133065
20
-4.8294554041656
30
0
41
1
10
17.166191990938
20
-4.93074282421119
30
0
41
1
10
17.4399901314613
20
-4.97620355054724
30
0
41
1
10
17.9868142232942
20
-5.05713726834759
30
0
41
1
10
18.2597129725837
20
-5.09273533989565
30
0
41
1
10
19.0786362268947
20
-5.18314760882521
30
0
41
1
10
19.6242600254664
20
-5.22103382988379
30
0
41
1
10
20.4426124802384
20
-5.24806822700066
30
0
41
1
10
20.7154775398752
20
-5.25106539738675
30
0
41
1
10
21.2623482170604
20
-5.24554758995313
30
0
41
1
10
21.5363572945035
20
-5.23728349672308
30
0
41
1
10
22.0822676620946
20
-5.21111180272533
30
0
41
1
10
22.3545981534163
20
-5.19364095915668
30
0
41
1
10
22.8975266240635
20
-5.14590639420257
30
0
41
1
10
23.1685311220398
20
-5.11612309734602
30
0
41
1
10
23.7101416931307
20
-5.04720520685305
30
0
41
1
10
23.9806893669003
20
-5.00798786829438
30
0
41
1
10
24.5212663170919
20
-4.92055177663241
30
0
41
1
10
24.7910851845428
20
-4.8712372260558
30
0
41
1
10
25.3307021691251
20
-4.76176338415254
30
0
41
1
10
25.6007070644734
20
-4.70239571615954
30
0
41
1
10
26.1410631642639
20
-4.57505283770996
30
0
41
1
10
26.4114003169279
20
-4.50739805163556
30
0
41
1
10
26.9523457713794
20
-4.36155914246129
30
0
41
1
10
27.2228627379342
20
-4.28292775558543
30
0
41
1
10
27.7340853760657
20
-4.12727683465718
30
0
41
1
10
27.9746118373303
20
-4.05100584223709
30
0
41
1
10
28.215589241215
20
-3.97183361054212
30
0
0
SPLINE
5
D9
100
AcDbEntity
8
1
62
256
6
ByLayer
370
18
48
1
60
0
100
AcDbSpline
70
4
71
3
72
30
73
26
40
0
40
0
40
0
40
0
40
0.0576197660236156
40
0.0576197660236156
40
0.192245513734529
40
0.192245513734529
40
0.259558387589986
40
0.259558387589986
40
0.326871261445443
40
0.326871261445443
40
0.3941841353009
40
0.3941841353009
40
0.461497009156357
40
0.461497009156357
40
0.59612275686727
40
0.59612275686727
40
0.663435630722725
40
0.663435630722725
40
0.730748504578181
40
0.730748504578181
40
0.798061378433637
40
0.798061378433637
40
0.865374252289092
40
0.865374252289092
40
1
40
1
40
1
40
1
41
1
10
53.7174237994861
20
5.26581991029158
30
0
41
1
10
53.9486525364189
20
5.26284574609335
30
0
41
1
10
54.1800139023242
20
5.25573535293626
30
0
41
1
10
54.9525747595504
20
5.21917004407015
30
0
41
1
10
55.4958202887762
20
5.17361033903924
30
0
41
1
10
56.3149129727384
20
5.07132485726564
30
0
41
1
10
56.588414433084
20
5.03189343788833
30
0
41
1
10
57.1341122331849
20
4.94422664497088
30
0
41
1
10
57.4069371199137
20
4.89599374689845
30
0
41
1
10
57.9521969424101
20
4.78754095811848
30
0
41
1
10
58.2246756368167
20
4.72772199367188
30
0
41
1
10
58.7695315890264
20
4.59805129694277
30
0
41
1
10
59.0417854906614
20
4.5280942043081
30
0
41
1
10
59.8597980300086
20
4.30508956868701
30
0
41
1
10
60.4076757373298
20
4.13929278175766
30
0
41
1
10
61.2261242063068
20
3.86759521610409
30
0
41
1
10
61.4984487261424
20
3.77258757880219
30
0
41
1
10
62.0434011638589
20
3.57485509456322
30
0
41
1
10
62.3159381621284
20
3.47213052246278
30
0
41
1
10
62.8611556616009
20
3.25950723347353
30
0
41
1
10
63.1338308718013
20
3.14959678799462
30
0
41
1
10
63.6794384682021
20
2.92269360037597
30
0
41
1
10
63.9528650643723
20
2.80562728264547
30
0
41
1
10
64.7716519118597
20
2.44847252253803
30
0
41
1
10
65.3149773943105
20
2.20177022812882
30
0
41
1
10
65.8557535953962
20
1.94623587426665
30
0
0
SPLINE
5
DA
100
AcDbEntity
8
1
62
256
6
ByLayer
370
18
48
1
60
0
100
AcDbSpline
70
4
71
3
72
8
73
4
40
0
40
0
40
0
40
0
40
1
40
1
40
1
40
1
41
1
10
72.9347138640307
20
-1.2523544240031
30
0
41
1
10
72.9598786395262
20
-0.876247822944663
30
0
41
1
10
72.9780948282331
20
-0.50049456080535
30
0
41
1
10
72.9893514780427
20
-0.125095194505121
30
0
0
SPLINE
5
DB
100
AcDbEntity
8
1
62
256
6
ByLayer
370
18
48
1
60
0
100
AcDbSpline
70
4
71
3
72
86
73
82
40
0
40
0
40
0
40
0
40
0.0179825281088182
40
0.0179825281088182
40
0.0401544721603465
40
0.0401544721603465
40
0.0844983602634031
40
0.0844983602634031
40
0.106670304314931
40
0.106670304314931
40
0.12884224836646
40
0.12884224836646
40
0.151014192417988
40
0.151014192417988
40
0.173186136469516
40
0.173186136469516
40
0.195358080521045
40
0.195358080521045
40
0.217530024572573
40
0.217530024572573
40
0.239701968624101
40
0.239701968624101
40
0.261873912675629
40
0.261873912675629
40
0.306217800778686
40
0.306217800778686
40
0.328389744830214
40
0.328389744830214
40
0.350561688881742
40
0.350561688881742
40
0.37273363293327
40
0.37273363293327
40
0.394905576984798
40
0.394905576984798
40
0.417077521036325
40
0.417077521036325
40
0.439249465087853
40
0.439249465087853
40
0.461421409139381
40
0.461421409139381
40
0.483593353190909
40
0.483593353190909
40
0.527937241293965
40
0.527937241293965
40
0.550109185345494
40
0.550109185345494
40
0.572281129397023
40
0.572281129397023
40
0.594453073448551
40
0.594453073448551
40
0.61662501750008
40
0.61662501750008
40
0.638796961551609
40
0.638796961551609
40
0.660968905603137
40
0.660968905603137
40
0.705312793706194
40
0.705312793706194
40
0.74965668180925
40
0.74965668180925
40
0.771828625860779
40
0.771828625860779
40
0.794000569912308
40
0.794000569912308
40
0.816172513963836
40
0.816172513963836
40
0.838344458015365
40
0.838344458015365
40
0.860516402066894
40
0.860516402066894
40
0.882688346118422
40
0.882688346118422
40
0.92703223422148
40
0.92703223422148
40
0.949204178273009
40
0.949204178273009
40
0.971376122324537
40
0.971376122324537
40
0.993548066376066
40
0.993548066376066
40
1
40
1
40
1
40
1
41
1
10
28.2218818464554
20
3.96325774536143
30
0
41
1
10
28.4677474953941
20
4.05428822939098
30
0
41
1
10
28.7143290961286
20
4.14214105733666
30
0
41
1
10
29.2626794858172
20
4.33024198370771
30
0
41
1
10
29.5639036908913
20
4.42920183819058
30
0
41
1
10
30.4664356657719
20
4.70713704276483
30
0
41
1
10
31.0673703810388
20
4.86692820562811
30
0
41
1
10
31.9645678983607
20
5.07193601811838
30
0
41
1
10
32.2632546243941
20
5.13408470582473
30
0
41
1
10
32.8619341552411
20
5.24467401195753
30
0
41
1
10
33.1615707471497
20
5.29341610768782
30
0
41
1
10
33.7609892742942
20
5.3780160804169
30
0
41
1
10
34.0604338062016
20
5.41398512985185
30
0
41
1
10
34.6607161634757
20
5.47211893523928
30
0
41
1
10
34.9619066019739
20
5.49422295326019
30
0
41
1
10
35.5659045306908
20
5.52470918867127
30
0
41
1
10
35.8689459116715
20
5.53309323499826
30
0
41
1
10
36.4752545629859
20
5.53569954905188
30
0
41
1
10
36.7770434630684
20
5.52983503748075
30
0
41
1
10
37.3803561578774
20
5.50436280173244
30
0
41
1
10
37.6815061089973
20
5.48477623634364
30
0
41
1
10
38.2823412170956
20
5.43198519885576
30
0
41
1
10
38.5817282783848
20
5.39862830083689
30
0
41
1
10
39.4791738247064
20
5.27845501977245
30
0
41
1
10
40.078450593688
20
5.17298805014289
30
0
41
1
10
40.9759461962914
20
4.9751599507909
30
0
41
1
10
41.2748523031516
20
4.90243502435607
30
0
41
1
10
41.8749436510494
20
4.74588263397726
30
0
41
1
10
42.1757445055188
20
4.66177588119282
30
0
41
1
10
42.7783618642068
20
4.48128855024413
30
0
41
1
10
43.0799702514704
20
4.38463448099941
30
0
41
1
10
43.6848384486499
20
4.17926372584603
30
0
41
1
10
43.9886777495302
20
4.07142342434165
30
0
41
1
10
44.593404230998
20
3.8470976011715
30
0
41
1
10
44.8949677907618
20
3.73035388846407
30
0
41
1
10
45.4960308542351
20
3.48704032969366
30
0
41
1
10
45.7954058598177
20
3.36023823702072
30
0
41
1
10
46.3948084689947
20
3.10098311221631
30
0
41
1
10
46.6944736397296
20
2.96800733167135
30
0
41
1
10
47.2932088080539
20
2.69458385844993
30
0
41
1
10
47.5921338304084
20
2.55388263611729
30
0
41
1
10
48.4884362581087
20
2.121040986579
30
0
41
1
10
49.0886078215836
20
1.82400188879785
30
0
41
1
10
49.9903165458338
20
1.36114745210415
30
0
41
1
10
50.290873537818
20
1.20341475336693
30
0
41
1
10
50.895060657794
20
0.886945757562245
30
0
41
1
10
51.1990672599001
20
0.72727487237421
30
0
41
1
10
51.8048836910317
20
0.406846033950899
30
0
41
1
10
52.106598241524
20
0.245918932299162
30
0
41
1
10
52.7078617522629
20
-0.076896348399714
30
0
41
1
10
53.008245992505
20
-0.237137282613645
30
0
41
1
10
53.6084764411488
20
-0.555482720832714
30
0
41
1
10
53.908234295866
20
-0.71376006351062
30
0
41
1
10
54.5066342201486
20
-1.02928350263377
30
0
41
1
10
54.8049486183945
20
-1.18712879497875
30
0
41
1
10
55.7019464177578
20
-1.65207098701552
30
0
41
1
10
56.3014813733733
20
-1.95296654119935
30
0
41
1
10
57.5004145827992
20
-2.54215069769938
30
0
41
1
10
58.1038799695101
20
-2.82317493385389
30
0
41
1
10
59.0136570562203
20
-3.22667794757544
30
0
41
1
10
59.3154613316367
20
-3.35800611308048
30
0
41
1
10
59.9183633876569
20
-3.6091410483661
30
0
41
1
10
60.2194331380958
20
-3.72936072506923
30
0
41
1
10
60.8202678439812
20
-3.96018830151556
30
0
41
1
10
61.1200374296594
20
-4.07078398357245
30
0
41
1
10
61.7179144579683
20
-4.28266013305671
30
0
41
1
10
62.0168101801521
20
-4.38291952579749
30
0
41
1
10
62.6151840511361
20
-4.57156431730922
30
0
41
1
10
62.9144587211239
20
-4.66020286589097
30
0
41
1
10
63.5128053236703
20
-4.82643870014783
30
0
41
1
10
63.8114615100647
20
-4.90437545633603
30
0
41
1
10
64.7102613040198
20
-5.11834694660576
30
0
41
1
10
65.3129176218278
20
-5.23540599323226
30
0
41
1
10
66.2192161038
20
-5.37339084918284
30
0
41
1
10
66.522612785572
20
-5.41261842599838
30
0
41
1
10
67.1273676244049
20
-5.47655379435261
30
0
41
1
10
67.429107600049
20
-5.50152248549776
30
0
41
1
10
68.0309348088598
20
-5.53771398949445
30
0
41
1
10
68.3305988274698
20
-5.54893870607307
30
0
41
1
10
68.7176301018176
20
-5.55432062155802
30
0
41
1
10
68.8048820204321
20
-5.5549439532312
30
0
41
1
10
68.8921406868736
20
-5.55498038185624
30
0
0
SPLINE
5
DC
100
AcDbEntity
8
1
62
256
6
ByLayer
370
18
48
1
60
0
100
AcDbSpline
70
4
71
3
72
8
73
4
40
0
40
0
40
0
40
0
40
1
40
1
40
1
40
1
41
1
10
71.117325398733
20
1.3101325432045
30
0
41
1
10
71.7232514086538
20
1.28957237176587
30
0
41
1
10
72.3293458788174
20
1.2673246787495
30
0
41
1
10
72.9347138640376
20
1.25235442400287
30
0
0
SPLINE
5
DD
100
AcDbEntity
8
1
62
256
6
ByLayer
370
18
48
1
60
0
100
AcDbSpline
70
4
71
3
72
35
73
31
40
0
40
0
40
0
40
0
40
0.124999999999994
40
0.124999999999994
40
0.18749999999999
40
0.18749999999999
40
0.249999999999987
40
0.249999999999987
40
0.374999999999981
40
0.374999999999981
40
0.499999999999974
40
0.499999999999974
40
0.624999999999967
40
0.624999999999967
40
0.749999999999961
40
0.749999999999961
40
0.812499999999957
40
0.812499999999957
40
0.843749999999958
40
0.843749999999958
40
0.85156249999996
40
0.85156249999996
40
0.859374999999962
40
0.859374999999962
40
0.867187499999964
40
0.867187499999964
40
0.871093749999965
40
0.871093749999965
40
0.874999999999966
40
1
40
1
40
1
40
1
41
1
10
65.8557535953962
20
1.94623587426665
30
0
41
1
10
66.0778079886071
20
1.74892160452137
30
0
41
1
10
66.3061342166075
20
1.56476753315886
30
0
41
1
10
66.6580886203944
20
1.30839697649495
30
0
41
1
10
66.7769829589624
20
1.22624747493978
30
0
41
1
10
67.0179747891339
20
1.06866965164537
30
0
41
1
10
67.1403688163712
20
0.993069226597584
30
0
41
1
10
67.5105068915318
20
0.777936719969176
30
0
41
1
10
67.7588266836575
20
0.651215667636222
30
0
41
1
10
68.2586681853176
20
0.432028156669332
30
0
41
1
10
68.5102281828289
20
0.339971308567954
30
0
41
1
10
69.0169521032932
20
0.194412948425395
30
0
41
1
10
69.2720895444397
20
0.140628130038578
30
0
41
1
10
69.7866564078792
20
0.0789747526717974
30
0
41
1
10
70.0400510239968
20
0.0718282882545793
30
0
41
1
10
70.4126241770341
20
0.103687893517389
30
0
41
1
10
70.5358561653156
20
0.121594916201644
30
0
41
1
10
70.717029138683
20
0.160569978041224
30
0
41
1
10
70.77682741929
20
0.17553357996718
30
0
41
1
10
70.8507068849577
20
0.196754447605542
30
0
41
1
10
70.86543791784
20
0.201124387695131
30
0
41
1
10
70.8948093722721
20
0.210118298457786
30
0
41
1
10
70.909776913361
20
0.214009950748789
30
0
41
1
10
70.9369121330575
20
0.22812444137034
30
0
41
1
10
70.9488710152276
20
0.239345945197328
30
0
41
1
10
70.9592303025447
20
0.262448220278372
30
0
41
1
10
70.9612998530979
20
0.271308924852974
30
0
41
1
10
70.9634155696422
20
0.289654412625453
30
0
41
1
10
70.997349411633
20
0.592755083378592
30
0
41
1
10
70.9997131156919
20
0.907145583778629
30
0
41
1
10
70.9823544540431
20
1.21375960613986
30
0
0
SPLINE
5
DE
100
AcDbEntity
8
1
62
256
6
ByLayer
370
18
48
1
60
0
100
AcDbSpline
70
4
71
3
72
14
73
10
40
0
40
0
40
0
40
0
40
0.25
40
0.25
40
0.5
40
0.5
40
0.75
40
0.75
40
1
40
1
40
1
40
1
41
1
10
4.0000000438169
20
0.857606844010377
30
0
41
1
10
4.00000004381687
20
0.876787776138656
30
0
41
1
10
4.00455293235623
20
0.893768233037832
30
0
41
1
10
4.02691746451498
20
0.919675085174504
30
0
41
1
10
4.04497536603361
20
0.92807741055114
30
0
41
1
10
4.09599331850939
20
0.927386868164518
30
0
41
1
10
4.12803819115646
20
0.917649692128322
30
0
41
1
10
4.19171989486409
20
0.885749682250719
30
0
41
1
10
4.22256123664658
20
0.864739739987812
30
0
41
1
10
4.25135140533837
20
0.841882166565341
30
0
0
SPLINE
5
DF
100
AcDbEntity
8
1
62
256
6
ByLayer
370
18
48
1
60
0
100
AcDbSpline
70
4
71
3
72
8
73
4
40
0
40
0
40
0
40
0
40
1
40
1
40
1
40
1
41
1
10
4.0000000438169
20
0.839815142966103
30
0
41
1
10
4.0000000438169
20
0.845714782431855
30
0
41
1
10
4.0000000438169
20
0.851645360159068
30
0
41
1
10
4.0000000438169
20
0.857606844010348
30
0
0
SPLINE
5
E0
100
AcDbEntity
8
1
62
256
6
ByLayer
370
18
48
1
60
0
100
AcDbSpline
70
4
71
3
72
24
73
20
40
0
40
0
40
0
40
0
40
0.125
40
0.125
40
0.1875
40
0.1875
40
0.25
40
0.25
40
0.375
40
0.375
40
0.5
40
0.5
40
0.625
40
0.625
40
0.75
40
0.75
40
0.875
40
0.875
40
1
40
1
40
1
40
1
41
1
10
4.25135140601273
20
0.841882166029933
30
0
41
1
10
4.6061108932679
20
0.560225566062712
30
0
41
1
10
4.97405686536288
20
0.295939731189066
30
0
41
1
10
5.53716329771325
20
-0.0860300467809054
30
0
41
1
10
5.72681878024764
20
-0.210823530548538
30
0
41
1
10
6.10931884959092
20
-0.456316194947618
30
0
41
1
10
6.30252114373997
20
-0.57722683881795
30
0
41
1
10
6.88282295435698
20
-0.932644190825357
30
0
41
1
10
7.270893117935
20
-1.16011495042918
30
0
41
1
10
8.0487257592971
20
-1.6001403358427
30
0
41
1
10
8.43848545761452
20
-1.81296462826523
30
0
41
1
10
9.22021259596838
20
-2.22204015938598
30
0
41
1
10
9.61217362550195
20
-2.41868387331437
30
0
41
1
10
10.3994977838847
20
-2.79581477777825
30
0
41
1
10
10.7948889404305
20
-2.97588733762336
30
0
41
1
10
11.591160571126
20
-3.3163592775569
30
0
41
1
10
11.9921943847134
20
-3.47742570266968
30
0
41
1
10
12.8011708693158
20
-3.77754924748973
30
0
41
1
10
13.2074463482683
20
-3.91544115593206
30
0
41
1
10
13.6169901196737
20
-4.0412397764826
30
0
0
SPLINE
5
E1
100
AcDbEntity
8
1
62
256
6
ByLayer
370
18
48
1
60
0
100
AcDbSpline
70
4
71
3
72
34
73
30
40
0
40
0
40
0
40
0
40
0.0373090621522793
40
0.0681588911656237
40
0.0991642026682744
40
0.131441437328628
40
0.164577457070311
40
0.195408390604027
40
0.233380789388802
40
0.276340439539843
40
0.320013002218225
40
0.362979675786546
40
0.411253020877155
40
0.456484069160852
40
0.489202090841806
40
0.522955723744928
40
0.559099877520548
40
0.603303842557343
40
0.65800179984561
40
0.711867880756588
40
0.747257032329919
40
0.785881281093219
40
0.829066596553215
40
0.857188214975275
40
0.88016524744724
40
0.905444137988924
40
0.934929377206681
40
0.97442092392624
40
1
40
1
40
1
40
1
41
1
10
38.0232903408681
20
-5.25786296776573
30
0
41
1
10
38.2007829032349
20
-5.25622018975344
30
0
41
1
10
38.532184292673
20
-5.2544830248126
30
0
41
1
10
39.0559187943417
20
-5.25533822574602
30
0
41
1
10
39.526445759141
20
-5.25900029575476
30
0
41
1
10
40.024667811966
20
-5.25912021269707
30
0
41
1
10
40.5218923961107
20
-5.25948684230116
30
0
41
1
10
41.049250852861
20
-5.25995834965485
30
0
41
1
10
41.6273255619872
20
-5.26029912367727
30
0
41
1
10
42.2718603032367
20
-5.26015855733939
30
0
41
1
10
42.9422246682951
20
-5.26109738123935
30
0
41
1
10
43.6400577185304
20
-5.26155800494564
30
0
41
1
10
44.3459720981316
20
-5.26100290659352
30
0
41
1
10
44.9988702090242
20
-5.26237179979759
30
0
41
1
10
45.5766582670926
20
-5.26264732824757
30
0
41
1
10
46.1074510416071
20
-5.26230335464658
30
0
41
1
10
46.697645863853
20
-5.26233775922469
30
0
41
1
10
47.3962249550452
20
-5.26399370175471
30
0
41
1
10
48.186239491917
20
-5.26296900124871
30
0
41
1
10
48.9314970854862
20
-5.26455166217082
30
0
41
1
10
49.5909224560322
20
-5.26460807510142
30
0
41
1
10
50.1979097844816
20
-5.26410499977882
30
0
41
1
10
50.7654072111338
20
-5.26476844942286
30
0
41
1
10
51.2537850262001
20
-5.26571907917958
30
0
41
1
10
51.6472974618308
20
-5.26549188083467
30
0
41
1
10
52.0502506979846
20
-5.26534937049203
30
0
41
1
10
52.5355922793348
20
-5.26568482811365
30
0
41
1
10
53.0243590442642
20
-5.26690384720305
30
0
41
1
10
53.3608913338651
20
-5.26704911990021
30
0
41
1
10
53.493269454141
20
-5.26707296153455
30
0
0
SPLINE
5
E2
100
AcDbEntity
8
1
62
256
6
ByLayer
370
18
48
1
60
0
100
AcDbSpline
70
4
71
3
72
27
73
23
40
0
40
0
40
0
40
0
40
0.0146081684066628
40
0.0578089701412245
40
0.0964251684408036
40
0.131183087640763
40
0.183428857052358
40
0.245920676322061
40
0.306041275899832
40
0.381151356402683
40
0.453273598128193
40
0.528963128853939
40
0.612141525694483
40
0.66339504957341
40
0.700379743666676
40
0.741255214842934
40
0.795785653959928
40
0.842989317082747
40
0.882026166618489
40
0.932861070263353
40
0.983040735277509
40
1
40
1
40
1
40
1
41
1
10
53.7357367340124
20
5.26547725068698
30
0
41
1
10
53.6737994075501
20
5.26545963957227
30
0
41
1
10
53.4292438802193
20
5.2654108430232
30
0
41
1
10
53.0320069635834
20
5.2670052604993
30
0
41
1
10
52.5418115443863
20
5.26564767832409
30
0
41
1
10
52.0106202780826
20
5.2655363845175
30
0
41
1
10
51.3793872447263
20
5.26605134123557
30
0
41
1
10
50.640585992041
20
5.26438978071829
30
0
41
1
10
49.8053276752139
20
5.26473599248899
30
0
41
1
10
48.929331902618
20
5.264417836196
30
0
41
1
10
47.9876339878727
20
5.2631605675407
30
0
41
1
10
47.0118453460556
20
5.26350728371798
30
0
41
1
10
46.1241771100682
20
5.26210372265686
30
0
41
1
10
45.4000165136187
20
5.26271097207893
30
0
41
1
10
44.854595025556
20
5.26202213599544
30
0
41
1
10
44.2952978932635
20
5.26106031264428
30
0
41
1
10
43.6928951924642
20
5.26149890261757
30
0
41
1
10
43.0980563771394
20
5.26126733199831
30
0
41
1
10
42.5199321410478
20
5.26016894801015
30
0
41
1
10
41.928115004532
20
5.26012850721824
30
0
41
1
10
41.4295267565097
20
5.26018139726369
30
0
41
1
10
41.1464924674322
20
5.25991307482818
30
0
41
1
10
41.0749743415561
20
5.25983695899958
30
0
0
SPLINE
5
E3
100
AcDbEntity
8
1
62
256
6
ByLayer
370
18
48
1
60
0
100
AcDbSpline
70
4
71
3
72
21
73
17
40
0
40
0
40
0
40
0
40
0.0051303802311563
40
0.0470318250473879
40
0.0878542489584879
40
0.127943037881693
40
0.20384798731234
40
0.286405423231915
40
0.395373365399449
40
0.49478195974619
40
0.594182630756476
40
0.682296492297636
40
0.763407199624575
40
0.850506609112406
40
0.930439860089055
40
1
40
1
40
1
40
1
41
1
10
21.2209444419656
20
5.24470034294148
30
0
41
1
10
21.1992117492106
20
5.24464214667441
30
0
41
1
10
21.0002225851183
20
5.24420336866268
30
0
41
1
10
20.6407463439172
20
5.24967218311733
30
0
41
1
10
20.1260423992198
20
5.24842725750105
30
0
41
1
10
19.4624471462689
20
5.24740838777646
30
0
41
1
10
18.6217556695549
20
5.24715512050847
30
0
41
1
10
17.4896487331062
20
5.24572557501884
30
0
41
1
10
16.2579711916831
20
5.24520521033574
30
0
41
1
10
14.9550149941733
20
5.24491644855354
30
0
41
1
10
13.7403304122403
20
5.2432263675187
30
0
41
1
10
12.6031239238957
20
5.243455004163
30
0
41
1
10
11.5179806200111
20
5.24181019060123
30
0
41
1
10
10.4674971005027
20
5.24233836704559
30
0
41
1
10
9.46584323643404
20
5.24100726108088
30
0
41
1
10
8.83308739297047
20
5.24063906021024
30
0
41
1
10
8.5385630714772
20
5.24037001049669
30
0
0
SPLINE
5
E4
100
AcDbEntity
8
1
62
256
6
ByLayer
370
18
48
1
60
0
100
AcDbSpline
70
4
71
3
72
29
73
25
40
0
40
0
40
0
40
0
40
0.0369534392339858
40
0.053389862934084
40
0.0893818602494317
40
0.124935581766644
40
0.160334732065502
40
0.196451750168792
40
0.253480573385705
40
0.309416279190389
40
0.38340048563596
40
0.452058305570965
40
0.52657299131854
40
0.587950366933134
40
0.645809232571102
40
0.709992717446973
40
0.776567975208753
40
0.836091245276374
40
0.866405332569961
40
0.897747373823999
40
0.929757506240782
40
0.962352310611111
40
0.995808704175582
40
1
40
1
40
1
40
1
41
1
10
5.3558843413978
20
-5.23772901285489
30
0
41
1
10
5.53271282030425
20
-5.2360867638798
30
0
41
1
10
5.79750044461031
20
-5.23462807743672
30
0
41
1
10
6.27630819689293
20
-5.23238414737986
30
0
41
1
10
6.7285521206106
20
-5.23863179221135
30
0
41
1
10
7.28983080365913
20
-5.23898493166055
30
0
41
1
10
7.85934651631362
20
-5.23943479811908
30
0
41
1
10
8.54202313607504
20
-5.24053479582179
30
0
41
1
10
9.33415095605872
20
-5.24093013715671
30
0
41
1
10
10.3273257191785
20
-5.24207556048503
30
0
41
1
10
11.3823304356396
20
-5.24185751073489
30
0
41
1
10
12.5360324109413
20
-5.24338023350668
30
0
41
1
10
13.6227538153427
20
-5.24310548765857
30
0
41
1
10
14.6521111091738
20
-5.24487129960775
30
0
41
1
10
15.6265774721259
20
-5.24436860427772
30
0
41
1
10
16.628659655733
20
-5.24613063787842
30
0
41
1
10
17.6395844453298
20
-5.24567210414637
30
0
41
1
10
18.4705750096525
20
-5.24683582924084
30
0
41
1
10
19.114359609128
20
-5.24752270531479
30
0
41
1
10
19.6120330715894
20
-5.24758253585267
30
0
41
1
10
20.121564935397
20
-5.24842767738596
30
0
41
1
10
20.6374276912713
20
-5.24968732384366
30
0
41
1
10
20.9980274080172
20
-5.24421839862376
30
0
41
1
10
21.1979369046287
20
-5.24465282251265
30
0
41
1
10
21.2202203985851
20
-5.24471192235384
30
0
0
SPLINE
5
E5
100
AcDbEntity
8
1
62
256
6
ByLayer
370
18
48
1
60
0
100
AcDbSpline
70
4
71
1
72
4
73
2
40
0
40
0
40
1
40
1
41
1
10
70.7352793615484
20
-5.27828484861493
30
0
41
1
10
71.062483774468
20
-5.27776677233899
30
0
0
SPLINE
5
E6
100
AcDbEntity
8
1
62
256
6
ByLayer
370
18
48
1
60
0
100
AcDbSpline
70
4
71
1
72
4
73
2
40
0
40
0
40
1
40
1
41
1
10
54.2131523041351
20
0.000259245956272
30
0
41
1
10
54.2131384291458
20
0.0002677899323373
30
0
0
LINE
5
7B
100
AcDbEntity
8
SK1
62
256
6
ByLayer
370
18
48
1
60
0
100
AcDbLine
10
-45
20
4.255
30
0
11
-45
21
-4.255
31
0
39
0
210
0
220
0
230
1
0
LINE
5
7D
100
AcDbEntity
8
SK1
62
256
6
ByLayer
370
18
48
1
60
0
100
AcDbLine
10
0
20
-6
30
0
11
0
21
6
31
0
39
0
210
0
220
0
230
1
0
LINE
5
7E
100
AcDbEntity
8
SK1
62
256
6
ByLayer
370
18
48
1
60
0
100
AcDbLine
10
-43.255
20
6
30
0
11
-43.255
21
-6
31
0
39
0
210
0
220
0
230
1
0
LINE
5
7F
100
AcDbEntity
8
1
62
256
6
ByLayer
370
18
48
1
60
0
100
AcDbLine
10
4
20
-5.455416
30
0
11
4
21
0.839815
31
0
39
0
210
0
220
0
230
1
0
LINE
5
80
100
AcDbEntity
8
1
62
256
6
ByLayer
370
13
48
1
60
0
100
AcDbLine
10
71.117325
20
1.310133
30
0
11
72.989351
21
0.125095
31
0
39
0
210
0
220
0
230
1
0
LINE
5
81
100
AcDbEntity
8
1
62
256
6
ByLayer
370
13
48
1
60
0
100
AcDbLine
10
1.150298
20
5.512639
30
0
11
1.150298
21
-5.512639
31
0
39
0
210
0
220
0
230
1
0
LINE
5
82
100
AcDbEntity
8
1
62
256
6
ByLayer
370
13
48
1
60
0
100
AcDbLine
10
70.982354
20
1.21376
30
0
11
72.964405
21
-0.040926
31
0
39
0
210
0
220
0
230
1
0
LINE
5
83
100
AcDbEntity
8
1
62
256
6
ByLayer
370
13
48
1
60
0
100
AcDbLine
10
0.574899
20
5.756319
30
0
11
0.574899
21
-5.756319
31
0
39
0
210
0
220
0
230
1
0
LINE
5
84
100
AcDbEntity
8
1
62
256
6
ByLayer
370
18
48
1
60
0
100
AcDbLine
10
0
20
-6
30
0
11
0
21
6
31
0
39
0
210
0
220
0
230
1
0
LINE
5
85
100
AcDbEntity
8
80
62
256
6
ByLayer
370
18
48
1
60
0
100
AcDbLine
10
0
20
0
30
0
11
-5
21
0
31
0
39
0
210
0
220
0
230
1
0
LINE
5
86
100
AcDbEntity
8
4
62
256
6
ByLayer
370
18
48
0.05
60
0
100
AcDbLine
10
73
20
0
30
0
11
0
21
0
31
0
39
0
210
0
220
0
230
1
0
LINE
5
88
100
AcDbEntity
8
SK4
62
256
6
ByLayer
370
18
48
0.05
60
0
100
AcDbLine
10
78
20
0
30
0
11
-50
21
0
31
0
39
0
210
0
220
0
230
1
0
LINE
5
8A
100
AcDbEntity
8
SK1
62
256
6
ByLayer
370
18
48
1
60
0
100
AcDbLine
10
-43.255
20
-6
30
0
11
0
21
-6
31
0
39
0
210
0
220
0
230
1
0
LINE
5
8B
100
AcDbEntity
8
SK1
62
256
6
ByLayer
370
18
48
1
60
0
100
AcDbLine
10
0
20
6
30
0
11
-43.255
21
6
31
0
39
0
210
0
220
0
230
1
0
LINE
5
8C
100
AcDbEntity
8
SK1
62
256
6
ByLayer
370
18
48
1
60
0
100
AcDbLine
10
-45
20
-4.255
30
0
11
-43.255
21
-6
31
0
39
0
210
0
220
0
230
1
0
LINE
5
8D
100
AcDbEntity
8
SK1
62
256
6
ByLayer
370
18
48
1
60
0
100
AcDbLine
10
-43.255
20
6
30
0
11
-45
21
4.255
31
0
39
0
210
0
220
0
230
1
0
LINE
5
8E
100
AcDbEntity
8
1
62
256
6
ByLayer
370
18
48
1
60
0
100
AcDbLine
10
1.150298
20
-5.512639
30
0
11
5.238188
21
-5.515194
31
0
39
0
210
0
220
0
230
1
0
LINE
5
8F
100
AcDbEntity
8
1
62
256
6
ByLayer
370
18
48
1
60
0
100
AcDbLine
10
36.243387
20
-5.534572
30
0
11
37.888655
21
-5.5356
31
0
39
0
210
0
220
0
230
1
0
LINE
5
90
100
AcDbEntity
8
1
62
256
6
ByLayer
370
18
48
1
60
0
100
AcDbLine
10
68.887886
20
-5.554975
30
0
11
70.539009
21
-5.556007
31
0
39
0
210
0
220
0
230
1
0
LINE
5
91
100
AcDbEntity
8
1
62
256
6
ByLayer
370
18
48
1
60
0
100
AcDbLine
10
70.538938
20
5.556006
30
0
11
68.887886
21
5.554975
31
0
39
0
210
0
220
0
230
1
0
LINE
5
92
100
AcDbEntity
8
1
62
256
6
ByLayer
370
18
48
1
60
0
100
AcDbLine
10
37.888585
20
5.5356
30
0
11
36.243387
21
5.534572
31
0
39
0
210
0
220
0
230
1
0
LINE
5
93
100
AcDbEntity
8
1
62
256
6
ByLayer
370
18
48
1
60
0
100
AcDbLine
10
5.238252
20
5.515194
30
0
11
1.150298
21
5.512639
31
0
39
0
210
0
220
0
230
1
0
LINE
5
94
100
AcDbEntity
8
81
62
256
6
ByLayer
370
18
48
1
60
0
100
AcDbLine
10
73
20
0
30
0
11
78
21
0
31
0
39
0
210
0
220
0
230
1
0
LINE
5
95
100
AcDbEntity
8
SK2
62
256
6
ByLayer
370
13
48
1
60
0
100
AcDbLine
10
-53.625163
20
-6
30
0
11
-53.625163
21
36.857173
31
0
39
0
210
0
220
0
230
1
0
LINE
5
97
100
AcDbEntity
8
SK2
62
256
6
ByLayer
370
13
48
1
60
0
100
AcDbLine
10
-46.5875
20
6
30
0
11
-55.625163
21
6
31
0
39
0
210
0
220
0
230
1
0
LINE
5
98
100
AcDbEntity
8
SK2
62
256
6
ByLayer
370
13
48
1
60
0
100
AcDbLine
10
-46.5875
20
-6
30
0
11
-55.625163
21
-6
31
0
39
0
210
0
220
0
230
1
0
LINE
5
99
100
AcDbEntity
8
1
62
256
6
ByLayer
370
18
48
1
60
1
100
AcDbLine
10
-53.625163
20
6
30
0
11
-53.164379
21
2.500002
31
0
39
0
210
0
220
0
230
1
0
LINE
5
9A
100
AcDbEntity
8
1
62
256
6
ByLayer
370
18
48
1
60
1
100
AcDbLine
10
-53.164379
20
2.500002
30
0
11
-54.085946
21
2.499998
31
0
39
0
210
0
220
0
230
1
0
LINE
5
9B
100
AcDbEntity
8
1
62
256
6
ByLayer
370
18
48
1
60
1
100
AcDbLine
10
-54.085946
20
2.499998
30
0
11
-53.625163
21
6
31
0
39
0
210
0
220
0
230
1
0
LINE
5
9C
100
AcDbEntity
8
1
62
256
6
ByLayer
370
18
48
1
60
1
100
AcDbLine
10
-53.625163
20
-6
30
0
11
-54.085946
21
-2.500002
31
0
39
0
210
0
220
0
230
1
0
LINE
5
9D
100
AcDbEntity
8
1
62
256
6
ByLayer
370
18
48
1
60
1
100
AcDbLine
10
-54.085946
20
-2.500002
30
0
11
-53.164379
21
-2.499998
31
0
39
0
210
0
220
0
230
1
0
LINE
5
9E
100
AcDbEntity
8
1
62
256
6
ByLayer
370
18
48
1
60
1
100
AcDbLine
10
-53.164379
20
-2.499998
30
0
11
-53.625163
21
-6
31
0
39
0
210
0
220
0
230
1
0
LINE
5
9F
100
AcDbEntity
8
2
62
256
6
ByLayer
370
13
48
1
60
0
100
AcDbLine
10
85.083343
20
-5.5565
30
0
11
85.083343
21
32.382159
31
0
39
0
210
0
220
0
230
1
0
LINE
5
A1
100
AcDbEntity
8
2
62
256
6
ByLayer
370
13
48
1
60
0
100
AcDbLine
10
72.9358
20
5.5565
30
0
11
87.083343
21
5.5565
31
0
39
0
210
0
220
0
230
1
0
LINE
5
A2
100
AcDbEntity
8
2
62
256
6
ByLayer
370
13
48
1
60
0
100
AcDbLine
10
72.9358
20
-5.5565
30
0
11
87.083343
21
-5.5565
31
0
39
0
210
0
220
0
230
1
0
LINE
5
A3
100
AcDbEntity
8
1
62
256
6
ByLayer
370
18
48
1
60
1
100
AcDbLine
10
85.083343
20
5.5565
30
0
11
85.544126
21
2.056502
31
0
39
0
210
0
220
0
230
1
0
LINE
5
A4
100
AcDbEntity
8
1
62
256
6
ByLayer
370
18
48
1
60
1
100
AcDbLine
10
85.544126
20
2.056502
30
0
11
84.622559
21
2.056498
31
0
39
0
210
0
220
0
230
1
0
LINE
5
A5
100
AcDbEntity
8
1
62
256
6
ByLayer
370
18
48
1
60
1
100
AcDbLine
10
84.622559
20
2.056498
30
0
11
85.083343
21
5.5565
31
0
39
0
210
0
220
0
230
1
0
LINE
5
A6
100
AcDbEntity
8
1
62
256
6
ByLayer
370
18
48
1
60
1
100
AcDbLine
10
85.083343
20
-5.5565
30
0
11
84.622559
21
-2.056502
31
0
39
0
210
0
220
0
230
1
0
LINE
5
A7
100
AcDbEntity
8
1
62
256
6
ByLayer
370
18
48
1
60
1
100
AcDbLine
10
84.622559
20
-2.056502
30
0
11
85.544126
21
-2.056498
31
0
39
0
210
0
220
0
230
1
0
LINE
5
A8
100
AcDbEntity
8
1
62
256
6
ByLayer
370
18
48
1
60
1
100
AcDbLine
10
85.544126
20
-2.056498
30
0
11
85.083343
21
-5.5565
31
0
39
0
210
0
220
0
230
1
0
LINE
5
ED
100
AcDbEntity
8
1
62
256
6
ByLayer
370
18
48
1
60
1
100
AcDbLine
10
-53.625163
20
6
30
0
11
-53.164379
21
2.500002
31
0
39
0
210
0
220
0
230
1
0
LINE
5
EE
100
AcDbEntity
8
1
62
256
6
ByLayer
370
18
48
1
60
1
100
AcDbLine
10
-53.164379
20
2.500002
30
0
11
-54.085946
21
2.499998
31
0
39
0
210
0
220
0
230
1
0
LINE
5
EF
100
AcDbEntity
8
1
62
256
6
ByLayer
370
18
48
1
60
1
100
AcDbLine
10
-54.085946
20
2.499998
30
0
11
-53.625163
21
6
31
0
39
0
210
0
220
0
230
1
0
LINE
5
F1
100
AcDbEntity
8
1
62
256
6
ByLayer
370
18
48
1
60
1
100
AcDbLine
10
-53.625163
20
-6
30
0
11
-54.085946
21
-2.500002
31
0
39
0
210
0
220
0
230
1
0
LINE
5
F2
100
AcDbEntity
8
1
62
256
6
ByLayer
370
18
48
1
60
1
100
AcDbLine
10
-54.085946
20
-2.500002
30
0
11
-53.164379
21
-2.499998
31
0
39
0
210
0
220
0
230
1
0
LINE
5
F3
100
AcDbEntity
8
1
62
256
6
ByLayer
370
18
48
1
60
1
100
AcDbLine
10
-53.164379
20
-2.499998
30
0
11
-53.625163
21
-6
31
0
39
0
210
0
220
0
230
1
0
LINE
5
F7
100
AcDbEntity
8
1
62
256
6
ByLayer
370
18
48
1
60
1
100
AcDbLine
10
85.083343
20
5.5565
30
0
11
85.544126
21
2.056502
31
0
39
0
210
0
220
0
230
1
0
LINE
5
F8
100
AcDbEntity
8
1
62
256
6
ByLayer
370
18
48
1
60
1
100
AcDbLine
10
85.544126
20
2.056502
30
0
11
84.622559
21
2.056498
31
0
39
0
210
0
220
0
230
1
0
LINE
5
F9
100
AcDbEntity
8
1
62
256
6
ByLayer
370
18
48
1
60
1
100
AcDbLine
10
84.622559
20
2.056498
30
0
11
85.083343
21
5.5565
31
0
39
0
210
0
220
0
230
1
0
LINE
5
FB
100
AcDbEntity
8
1
62
256
6
ByLayer
370
18
48
1
60
1
100
AcDbLine
10
85.083343
20
-5.5565
30
0
11
84.622559
21
-2.056502
31
0
39
0
210
0
220
0
230
1
0
LINE
5
FC
100
AcDbEntity
8
1
62
256
6
ByLayer
370
18
48
1
60
1
100
AcDbLine
10
84.622559
20
-2.056502
30
0
11
85.544126
21
-2.056498
31
0
39
0
210
0
220
0
230
1
0
LINE
5
FD
100
AcDbEntity
8
1
62
256
6
ByLayer
370
18
48
1
60
1
100
AcDbLine
10
85.544126
20
-2.056498
30
0
11
85.083343
21
-5.5565
31
0
39
0
210
0
220
0
230
1
0
MTEXT
5
E7
100
AcDbEntity
8
SK6
62
256
6
ByLayer
370
13
48
1
60
0
100
AcDbMText
10
-13.832893
20
38.096828
30
0
210
0
220
0
230
1
1
\W0.7349;462.1-1111-056A0-XM X2BM
40
3.5
41
0
44
1.084337
50
0
71
7
72
5
7
iso_b_vert
0
MTEXT
5
EB
100
AcDbEntity
8
SK2
62
256
6
ByLayer
370
18
48
1
60
0
100
AcDbMText
10
-55.189796
20
19.409024
30
0
210
0
220
0
230
1
1
%%c
40
3.5
41
0
44
1.084337
50
90
71
7
72
5
7
iso_b_vert
0
MTEXT
5
EC
100
AcDbEntity
8
SK2
62
256
6
ByLayer
370
18
48
1
60
0
100
AcDbMText
10
-55.189796
20
24.63168
30
0
210
0
220
0
230
1
1
\W0.6930;12,000
40
3.5
41
0
44
1.084337
50
90
71
7
72
5
7
iso_b_vert
0
MTEXT
5
F5
100
AcDbEntity
8
2
62
256
6
ByLayer
370
18
48
1
60
0
100
AcDbMText
10
83.518709
20
17.55861
30
0
210
0
220
0
230
1
1
%%c
40
3.5
41
0
44
1.084337
50
90
71
7
72
5
7
iso_b_vert
0
MTEXT
5
F6
100
AcDbEntity
8
2
62
256
6
ByLayer
370
18
48
1
60
0
100
AcDbMText
10
83.518709
20
22.781266
30
0
210
0
220
0
230
1
1
\W0.5459;11,113
40
3.5
41
0
44
1.084337
50
90
71
7
72
5
7
iso_b_vert
0
HATCH
5
F0
100
AcDbEntity
8
SK2
62
256
6
ByLayer
370
13
48
1
60
0
100
AcDbHatch
10
0
20
0
30
0
210
0
220
0
230
1
2
ANSI31
70
0
71
0
91
1
92
5
93
3
72
1
10
-53.6251625675374
20
6
11
-53.1643788259847
21
2.50000169255318
72
1
10
-53.1643788259847
20
2.50000169255318
11
-54.0859463090902
21
2.49999830744682
72
1
10
-54.0859463090902
20
2.49999830744682
11
-53.6251625675374
21
6
97
0
75
0
76
1
52
0
41
0.0062
77
0
78
1
53
45
43
0
44
0
45
-0.0139193969876572
46
0.0139193969876572
79
0
47
0
98
1
10
0
20
0
0
HATCH
5
F4
100
AcDbEntity
8
SK2
62
256
6
ByLayer
370
13
48
1
60
0
100
AcDbHatch
10
0
20
0
30
0
210
0
220
0
230
1
2
ANSI31
70
0
71
0
91
1
92
5
93
3
72
1
10
-53.6251625675374
20
-6
11
-54.0859463090902
21
-2.50000169255318
72
1
10
-54.0859463090902
20
-2.50000169255318
11
-53.1643788259847
21
-2.49999830744682
72
1
10
-53.1643788259847
20
-2.49999830744682
11
-53.6251625675374
21
-6
97
0
75
0
76
1
52
0
41
0.0062
77
0
78
1
53
45
43
0
44
0
45
-0.0139193969876572
46
0.0139193969876572
79
0
47
0
98
1
10
0
20
0
0
HATCH
5
FA
100
AcDbEntity
8
2
62
256
6
ByLayer
370
13
48
1
60
0
100
AcDbHatch
10
0
20
0
30
0
210
0
220
0
230
1
2
ANSI31
70
0
71
0
91
1
92
5
93
3
72
1
10
85.083342615295
20
5.5565
11
85.5441263568478
21
2.05650169255318
72
1
10
85.5441263568478
20
2.05650169255318
11
84.6225588737423
21
2.05649830744682
72
1
10
84.6225588737423
20
2.05649830744682
11
85.083342615295
21
5.5565
97
0
75
0
76
1
52
0
41
0.0062
77
0
78
1
53
45
43
0
44
0
45
-0.0139193969876572
46
0.0139193969876572
79
0
47
0
98
1
10
0
20
0
0
HATCH
5
FE
100
AcDbEntity
8
2
62
256
6
ByLayer
370
13
48
1
60
0
100
AcDbHatch
10
0
20
0
30
0
210
0
220
0
230
1
2
ANSI31
70
0
71
0
91
1
92
5
93
3
72
1
10
85.083342615295
20
-5.5565
11
84.6225588737423
21
-2.05650169255318
72
1
10
84.6225588737423
20
-2.05650169255318
11
85.5441263568478
21
-2.05649830744682
72
1
10
85.5441263568478
20
-2.05649830744682
11
85.083342615295
21
-5.5565
97
0
75
0
76
1
52
0
41
0.0062
77
0
78
1
53
45
43
0
44
0
45
-0.0139193969876572
46
0.0139193969876572
79
0
47
0
98
1
10
0
20
0
0
DIMENSION
5
100
100
AcDbEntity
8
SK2
62
256
6
ByLayer
370
13
48
1
60
0
100
AcDbDimension
2
_U0
10
71.3483
20
-15.769898
30
0
11
35.67415
21
-15.769898
31
0
70
32
71
1
72
1
41
1
210
0
220
0
230
1
3
Standard
100
AcDbAlignedDimension
13
0
23
0
33
0
14
71.3483
24
-5.5565
34
0
50
0
100
AcDbRotatedDimension
1001
ACAD
1000
DSTYLE
1002
{
1070
   371
1070
    13
1070
   372
1070
    13
1070
   170
1070
     0
1070
   144
1040
1.0
1070
   277
1070
     2
1070
   278
1070
    44
1070
   146
1040
1.0
1070
   345
1005
16
1070
   347
1005
16
1070
   346
1005
16
1070
   344
1005
0
1070
   343
1005
0
1070
   172
1070
     1
1070
    76
1070
     0
1070
    75
1070
     0
1070
   282
1070
     0
1070
   281
1070
     0
1070
    71
1070
     0
1070
    74
1070
     0
1070
   279
1070
     0
1070
   173
1070
     1
1070
   340
1005
E8
1070
   271
1070
     2
1070
   272
1070
     2
1070
    77
1070
     1
1070
    73
1070
     1
1070
   171
1070
     3
1070
   274
1070
     4
1070
   177
1070
    35
1070
   176
1070
    35
1070
   178
1070
    35
1070
    48
1040
-0.1
1070
    41
1040
3.5
1070
   147
1040
1.75
1070
    42
1040
1.5875
1070
    44
1040
2.0
1070
   140
1040
3.5
1002
}
1001
ACAD_DSTYLE_DIM_LINETYPE
1070
   380
1005
16
1001
ACAD_DSTYLE_DIM_EXT1_LINETYPE
1070
   381
1005
16
1001
ACAD_DSTYLE_DIM_EXT2_LINETYPE
1070
   382
1005
16
0
DIMENSION
5
119
100
AcDbEntity
8
SK2
62
256
6
ByLayer
370
13
48
1
60
0
100
AcDbDimension
2
_U1
10
73
20
-34.692985
30
0
11
14
21
-34.692985
31
0
70
32
71
1
72
1
41
1
210
0
220
0
230
1
3
Standard
100
AcDbAlignedDimension
13
-45
23
-6
33
0
14
73
24
0
34
0
50
0
100
AcDbRotatedDimension
1001
ACAD
1000
DSTYLE
1002
{
1070
   371
1070
    13
1070
   372
1070
    13
1070
   170
1070
     0
1070
   144
1040
1.0
1070
   277
1070
     2
1070
   278
1070
    44
1070
   146
1040
1.0
1070
   345
1005
16
1070
   347
1005
16
1070
   346
1005
16
1070
   344
1005
0
1070
   343
1005
0
1070
   172
1070
     1
1070
    76
1070
     0
1070
    75
1070
     0
1070
   282
1070
     0
1070
   281
1070
     0
1070
    71
1070
     0
1070
    74
1070
     0
1070
   279
1070
     0
1070
   173
1070
     1
1070
   340
1005
E8
1070
   271
1070
     2
1070
   272
1070
     2
1070
    77
1070
     1
1070
    73
1070
     1
1070
   171
1070
     3
1070
   274
1070
     4
1070
   177
1070
    35
1070
   176
1070
    35
1070
   178
1070
    35
1070
    48
1040
-0.1
1070
    41
1040
3.5
1070
   147
1040
1.75
1070
    42
1040
1.5875
1070
    44
1040
2.0
1070
   140
1040
3.5
1002
}
1001
ACAD_DSTYLE_DIM_LINETYPE
1070
   380
1005
16
1001
ACAD_DSTYLE_DIM_EXT1_LINETYPE
1070
   381
1005
16
1001
ACAD_DSTYLE_DIM_EXT2_LINETYPE
1070
   382
1005
16
0
DIMENSION
5
131
100
AcDbEntity
8
SK2
62
256
6
ByLayer
370
13
48
1
60
0
100
AcDbDimension
2
_U2
10
73
20
17.165619
30
0
11
44.39
21
17.165619
31
0
70
32
71
1
72
1
41
1
210
0
220
0
230
1
3
Standard
100
AcDbAlignedDimension
13
15.78
23
5.5565
33
0
14
73
24
0
34
0
50
0
100
AcDbRotatedDimension
1001
ACAD
1000
DSTYLE
1002
{
1070
   371
1070
    13
1070
   372
1070
    13
1070
   170
1070
     0
1070
   144
1040
1.0
1070
   277
1070
     2
1070
   278
1070
    44
1070
   146
1040
1.0
1070
   345
1005
16
1070
   347
1005
16
1070
   346
1005
16
1070
   344
1005
0
1070
   343
1005
0
1070
   172
1070
     1
1070
    76
1070
     0
1070
    75
1070
     0
1070
   282
1070
     0
1070
   281
1070
     0
1070
    71
1070
     0
1070
    74
1070
     0
1070
   279
1070
     0
1070
   173
1070
     1
1070
   340
1005
E8
1070
   271
1070
     2
1070
   272
1070
     2
1070
    77
1070
     1
1070
    73
1070
     1
1070
   171
1070
     3
1070
   274
1070
     4
1070
   177
1070
    35
1070
   176
1070
    35
1070
   178
1070
    35
1070
    48
1040
-0.1
1070
    41
1040
3.5
1070
   147
1040
1.75
1070
    42
1040
1.5875
1070
    44
1040
2.0
1070
   140
1040
3.5
1002
}
1001
ACAD_DSTYLE_DIM_LINETYPE
1070
   380
1005
16
1001
ACAD_DSTYLE_DIM_EXT1_LINETYPE
1070
   381
1005
16
1001
ACAD_DSTYLE_DIM_EXT2_LINETYPE
1070
   382
1005
16
0
DIMENSION
5
149
100
AcDbEntity
8
SK2
62
256
6
ByLayer
370
13
48
1
60
0
100
AcDbDimension
2
_U3
10
71.3483
20
-18.359003
30
0
11
90.333333
21
-18.359003
31
0
70
32
71
1
72
1
41
1
210
0
220
0
230
1
3
Standard
100
AcDbAlignedDimension
13
73
23
0
33
0
14
71.3483
24
-5.5565
34
0
50
0
100
AcDbRotatedDimension
1001
ACAD
1000
DSTYLE
1002
{
1070
   371
1070
    13
1070
   372
1070
    13
1070
   170
1070
     0
1070
   144
1040
1.0
1070
   277
1070
     2
1070
   278
1070
    44
1070
   146
1040
1.0
1070
   345
1005
16
1070
   347
1005
16
1070
   346
1005
16
1070
   344
1005
0
1070
   343
1005
0
1070
   172
1070
     1
1070
    76
1070
     0
1070
    75
1070
     0
1070
   282
1070
     0
1070
   281
1070
     0
1070
    71
1070
     0
1070
    74
1070
     0
1070
   279
1070
     0
1070
   173
1070
     1
1070
   340
1005
E8
1070
   271
1070
     2
1070
   272
1070
     2
1070
    77
1070
     1
1070
    73
1070
     1
1070
   171
1070
     3
1070
   274
1070
     4
1070
   177
1070
    35
1070
   176
1070
    35
1070
   178
1070
    35
1070
    48
1040
-0.1
1070
    41
1040
3.5
1070
   147
1040
1.75
1070
    42
1040
1.5875
1070
    44
1040
2.0
1070
   140
1040
3.5
1002
}
1001
ACAD_DSTYLE_DIM_LINETYPE
1070
   380
1005
16
1001
ACAD_DSTYLE_DIM_EXT1_LINETYPE
1070
   381
1005
16
1001
ACAD_DSTYLE_DIM_EXT2_LINETYPE
1070
   382
1005
16
0
DIMENSION
5
163
100
AcDbEntity
8
SK2
62
256
6
ByLayer
370
13
48
1
60
0
100
AcDbDimension
2
_U4
10
71.3483
20
-24.343428
30
0
11
13.17415
21
-24.343428
31
0
70
32
71
1
72
1
41
1
210
0
220
0
230
1
3
Standard
100
AcDbAlignedDimension
13
-45
23
-6
33
0
14
71.3483
24
-5.5565
34
0
50
0
100
AcDbRotatedDimension
1001
ACAD
1000
DSTYLE
1002
{
1070
   371
1070
    13
1070
   372
1070
    13
1070
   170
1070
     0
1070
   144
1040
1.0
1070
   277
1070
     2
1070
   278
1070
    44
1070
   146
1040
1.0
1070
   345
1005
16
1070
   347
1005
16
1070
   346
1005
16
1070
   344
1005
0
1070
   343
1005
0
1070
   172
1070
     1
1070
    76
1070
     0
1070
    75
1070
     0
1070
   282
1070
     0
1070
   281
1070
     0
1070
    71
1070
     0
1070
    74
1070
     0
1070
   279
1070
     0
1070
   173
1070
     1
1070
   340
1005
E8
1070
   271
1070
     2
1070
   272
1070
     2
1070
    77
1070
     1
1070
    73
1070
     1
1070
   171
1070
     3
1070
   274
1070
     4
1070
   177
1070
    35
1070
   176
1070
    35
1070
   178
1070
    35
1070
    48
1040
-0.1
1070
    41
1040
3.5
1070
   147
1040
1.75
1070
    42
1040
1.5875
1070
    44
1040
2.0
1070
   140
1040
3.5
1002
}
1001
ACAD_DSTYLE_DIM_LINETYPE
1070
   380
1005
16
1001
ACAD_DSTYLE_DIM_EXT1_LINETYPE
1070
   381
1005
16
1001
ACAD_DSTYLE_DIM_EXT2_LINETYPE
1070
   382
1005
16
0
ENDSEC
0
SECTION
2
OBJECTS
0
DICTIONARY
5
1eb
330
0
100
AcDbDictionary
280
0
281
1
3
ACAD_GROUP
350
1ec
3
ACAD_MLINESTYLE
350
1ed
0
DICTIONARY
5
1ec
330
0
100
AcDbDictionary
280
0
281
1
0
DICTIONARY
5
1ed
330
0
100
AcDbDictionary
280
0
281
1
3
Standard
350
18
0
MLINESTYLE
5
18
330
1ed
100
AcDbMlineStyle
2
Standard
70
0
3

62
256
51
90
52
90
71
2
49
-0.5
62
256
6
ByLayer
49
0.5
62
256
6
ByLayer
0
RASTERVARIABLES
5
1d9
330

100
AcDbRasterVariables
90
0
70
1
71
1
72
1
0
ENDSEC
0
EOF
