0
SECTION
2
HEADER
9
$ACADVER
1
AC1015
9
$DWGCODEPAGE
3
ANSI_1252
9
$HANDSEED
5
208
9
$ANGBASE
50
0
9
$ANGDIR
70
0
9
$ATTMODE
70
1
9
$AUNITS
70
0
9
$AUPREC
70
0
9
$CECOLOR
62
256
9
$CELTSCALE
40
1
9
$CELTYPE
6
ByLayer
9
$CELWEIGHT
370
18
9
$CLAYER
8
0
9
$CMLJUST
70
0
9
$CMLSCALE
40
1
9
$CMLSTYLE
2
Standard
9
$DIMSTYLE
2
Standard
9
$TEXTSIZE
40
0.2
9
$TEXTSTYLE
7
Standard
9
$LUNITS
70
2
9
$LUPREC
70
4
9
$EXTNAMES
290
1
9
$INSUNITS
70
4
9
$LTSCALE
40
1
9
$LWDISPLAY
290
1
9
$PDMODE
70
0
9
$PDSIZE
40
0
9
$PLINEGEN
70
0
0
ENDSEC
0
SECTION
2
CLASSES
0
CLASS
1
RASTERVARIABLES
2
AcDbRasterVariables
3
ISM
90
0
280
0
281
0
0
ENDSEC
0
SECTION
2
TABLES
0
TABLE
2
VPORT
5
1fe
100
AcDbSymbolTable
0
VPORT
5
1
100
AcDbSymbolTableRecord
100
AcDbViewportTableRecord
2
*Active
70
0
10
0
20
0
11
1
21
1
12
-1
22
1
13
0
23
0
14
0.5
24
0.5
15
10
25
10
16
0
26
0
36
1
17
0
27
0
37
0
0
ENDTAB
0
TABLE
2
LTYPE
5
1ff
100
AcDbSymbolTable
0
LTYPE
5
14
100
AcDbSymbolTableRecord
100
AcDbLinetypeTableRecord
70
0
2
ByBlock
3

72
65
73
0
40
0
0
LTYPE
5
15
100
AcDbSymbolTableRecord
100
AcDbLinetypeTableRecord
70
0
2
ByLayer
3

72
65
73
0
40
0
0
LTYPE
5
16
100
AcDbSymbolTableRecord
100
AcDbLinetypeTableRecord
70
0
2
Continuous
3
Solid line
72
65
73
0
40
0
0
LTYPE
5
6E
100
AcDbSymbolTableRecord
100
AcDbLinetypeTableRecord
70
0
2
CENTER
3
____ _ ____ _ ____ _ ____
72
65
73
4
40
47.5
49
22
74
0
49
-8.5
74
0
49
8.5
74
0
49
-8.5
74
0
0
LTYPE
5
6F
100
AcDbSymbolTableRecord
100
AcDbLinetypeTableRecord
70
0
2
DASHED
3
__ __ __ __ __ __ __ __ __
72
65
73
2
40
25.72
49
12.86
74
0
49
-12.86
74
0
0
ENDTAB
0
TABLE
2
LAYER
5
200
100
AcDbSymbolTable
0
LAYER
5
10
100
AcDbSymbolTableRecord
100
AcDbLayerTableRecord
2
0
70
0
62
7
6
Continuous
290
1
370
-3
390
0
0
LAYER
5
71
100
AcDbSymbolTableRecord
100
AcDbLayerTableRecord
2
80
70
0
62
-6
6
Continuous
290
1
370
-3
390
0
0
LAYER
5
73
100
AcDbSymbolTableRecord
100
AcDbLayerTableRecord
2
81
70
0
62
-3
6
Continuous
290
1
370
-3
390
0
0
LAYER
5
75
100
AcDbSymbolTableRecord
100
AcDbLayerTableRecord
2
1
70
0
62
4
6
Continuous
290
1
370
-3
390
0
0
LAYER
5
8A
100
AcDbSymbolTableRecord
100
AcDbLayerTableRecord
2
4
70
0
62
-2
6
CENTER
290
1
370
-3
390
0
0
LAYER
5
A5
100
AcDbSymbolTableRecord
100
AcDbLayerTableRecord
2
2
70
0
62
7
6
Continuous
290
1
370
-3
390
0
0
LAYER
5
113
100
AcDbSymbolTableRecord
100
AcDbLayerTableRecord
2
Defpoints
70
0
62
7
6
Continuous
290
0
370
-3
390
0
0
LAYER
5
1ea
100
AcDbSymbolTableRecord
100
AcDbLayerTableRecord
2
SK1
70
0
62
4
6
Continuous
290
1
370
-3
390
0
0
LAYER
5
1eb
100
AcDbSymbolTableRecord
100
AcDbLayerTableRecord
2
SK4
70
0
62
2
6
CENTER
290
1
370
-3
390
0
0
LAYER
5
1ec
100
AcDbSymbolTableRecord
100
AcDbLayerTableRecord
2
SK2
70
0
62
7
6
Continuous
290
1
370
-3
390
0
0
LAYER
5
1ed
100
AcDbSymbolTableRecord
100
AcDbLayerTableRecord
2
SK6
70
0
62
5
6
Continuous
290
1
370
-3
390
0
0
ENDTAB
0
TABLE
2
STYLE
5
201
100
AcDbSymbolTable
0
STYLE
5
11
100
AcDbSymbolTableRecord
100
AcDbTextStyleTableRecord
2
Standard
3
txt
70
0
71
0
40
0
41
1
42
0
50
0
0
STYLE
5
F8
100
AcDbSymbolTableRecord
100
AcDbTextStyleTableRecord
2
iso_b_vert
3
simplex.shx
70
0
71
0
40
0
41
1
42
0
50
0
0
STYLE
5
F9
100
AcDbSymbolTableRecord
100
AcDbTextStyleTableRecord
2
DWGDirectTextStyle
3
simplex
70
0
71
0
40
0
41
1
42
0
50
0
0
ENDTAB
0
TABLE
2
DIMSTYLE
5
202
100
AcDbSymbolTable
100
AcDbDimStyleTable
0
DIMSTYLE
105
27
100
AcDbSymbolTableRecord
100
AcDbDimStyleTableRecord
2
Standard
70
0
3
<>
41
0.18
42
0.0625
44
0.18
140
0.18
147
0.09
73
0
74
0
77
1
271
2
275
0
278
52
280
0
340
11
0
ENDTAB
0
TABLE
2
VIEW
5
203
100
AcDbSymbolTable
0
ENDTAB
0
TABLE
2
UCS
5
204
100
AcDbSymbolTable
0
ENDTAB
0
TABLE
2
APPID
5
205
100
AcDbSymbolTable
0
APPID
5
12
100
AcDbSymbolTableRecord
100
AcDbRegAppTableRecord
2
ACAD
70
0
0
APPID
5
10F
100
AcDbSymbolTableRecord
100
AcDbRegAppTableRecord
2
ACAD_DSTYLE_DIMBREAK
70
0
0
APPID
5
1A9
100
AcDbSymbolTableRecord
100
AcDbRegAppTableRecord
2
ACAD_DSTYLE_DIM_LINETYPE
70
0
0
APPID
5
1AA
100
AcDbSymbolTableRecord
100
AcDbRegAppTableRecord
2
ACAD_DSTYLE_DIM_EXT1_LINETYPE
70
0
0
APPID
5
1AB
100
AcDbSymbolTableRecord
100
AcDbRegAppTableRecord
2
ACAD_DSTYLE_DIM_EXT2_LINETYPE
70
0
0
APPID
5
1E6
100
AcDbSymbolTableRecord
100
AcDbRegAppTableRecord
2
ACAD_MLEADERVER
70
0
0
ENDTAB
0
TABLE
2
BLOCK_RECORD
5
206
100
AcDbSymbolTable
0
BLOCK_RECORD
5
1F
100
AcDbSymbolTableRecord
100
AcDbBlockTableRecord
2
*Model_Space
340
0
70
0
0
BLOCK_RECORD
5
1B
100
AcDbSymbolTableRecord
100
AcDbBlockTableRecord
2
*Paper_Space
340
0
70
0
0
BLOCK_RECORD
5
23
100
AcDbSymbolTableRecord
100
AcDbBlockTableRecord
2
*Paper_Space0
340
0
70
0
0
BLOCK_RECORD
5
114
100
AcDbSymbolTableRecord
100
AcDbBlockTableRecord
2
*D1
340
0
70
0
0
BLOCK_RECORD
5
120
100
AcDbSymbolTableRecord
100
AcDbBlockTableRecord
2
_U0
340
0
70
0
0
BLOCK_RECORD
5
12C
100
AcDbSymbolTableRecord
100
AcDbBlockTableRecord
2
*D3
340
0
70
0
0
BLOCK_RECORD
5
138
100
AcDbSymbolTableRecord
100
AcDbBlockTableRecord
2
_U1
340
0
70
0
0
BLOCK_RECORD
5
144
100
AcDbSymbolTableRecord
100
AcDbBlockTableRecord
2
*D5
340
0
70
0
0
BLOCK_RECORD
5
150
100
AcDbSymbolTableRecord
100
AcDbBlockTableRecord
2
_U2
340
0
70
0
0
BLOCK_RECORD
5
15C
100
AcDbSymbolTableRecord
100
AcDbBlockTableRecord
2
*D7
340
0
70
0
0
BLOCK_RECORD
5
16A
100
AcDbSymbolTableRecord
100
AcDbBlockTableRecord
2
_U3
340
0
70
0
0
BLOCK_RECORD
5
176
100
AcDbSymbolTableRecord
100
AcDbBlockTableRecord
2
*D9
340
0
70
0
0
BLOCK_RECORD
5
182
100
AcDbSymbolTableRecord
100
AcDbBlockTableRecord
2
_U4
340
0
70
0
0
ENDTAB
0
ENDSEC
0
SECTION
2
BLOCKS
0
BLOCK
5
20
100
AcDbEntity
8
0
100
AcDbBlockBegin
2
*Model_Space
70
0
10
0
20
0
30
0
3
*Model_Space
0
ENDBLK
5
21
100
AcDbEntity
8
0
100
AcDbBlockEnd
0
BLOCK
5
1C
100
AcDbEntity
8
0
100
AcDbBlockBegin
2
*Paper_Space
70
0
10
0
20
0
30
0
3
*Paper_Space
0
ENDBLK
5
1D
100
AcDbEntity
8
0
100
AcDbBlockEnd
0
BLOCK
5
24
100
AcDbEntity
8
0
100
AcDbBlockBegin
2
*Paper_Space0
70
0
10
0
20
0
30
0
3
*Paper_Space0
0
ENDBLK
5
25
100
AcDbEntity
8
0
100
AcDbBlockEnd
0
BLOCK
5
115
100
AcDbEntity
8
0
100
AcDbBlockBegin
2
*D1
70
1
10
0
20
0
30
0
3
*D1
0
LINE
5
117
100
AcDbEntity
8
0
62
256
6
ByLayer
370
-2
48
1
60
0
100
AcDbLine
10
0
20
-1.5875
30
0
11
0
21
-15.586898
31
0
39
0
210
0
220
0
230
1
0
LINE
5
118
100
AcDbEntity
8
0
62
256
6
ByLayer
370
-2
48
1
60
0
100
AcDbLine
10
54.0062
20
-4.961
30
0
11
54.0062
21
-15.586898
31
0
39
0
210
0
220
0
230
1
0
LINE
5
119
100
AcDbEntity
8
0
62
256
6
ByLayer
370
-2
48
1
60
0
100
AcDbLine
10
3.5
20
-13.586898
30
0
11
50.5062
21
-13.586898
31
0
39
0
210
0
220
0
230
1
0
SOLID
5
11A
100
AcDbEntity
8
0
62
256
6
ByLayer
370
-1
48
1
60
0
100
AcDbTrace
10
3.5
20
-13.003565
30
0
11
3.5
21
-14.170232
31
0
12
0
22
-13.586898
32
0
13
0
23
-13.586898
33
0
39
0
210
0
220
0
230
1
0
SOLID
5
11B
100
AcDbEntity
8
0
62
256
6
ByLayer
370
-1
48
1
60
0
100
AcDbTrace
10
50.5062
20
-14.170232
30
0
11
50.5062
21
-13.003565
31
0
12
54.0062
22
-13.586898
32
0
13
54.0062
23
-13.586898
33
0
39
0
210
0
220
0
230
1
0
MTEXT
5
11C
100
AcDbEntity
8
0
62
256
6
ByLayer
370
18
48
1
60
0
100
AcDbMText
10
27.0031
20
-6.586898
30
0
210
0
220
0
230
1
1
\A1;54.01
40
3.5
41
0
44
1
50
0
71
5
72
5
7
iso_b_vert
0
POINT
5
11D
100
AcDbEntity
8
Defpoints
62
0
6
ByLayer
370
-1
48
1
60
0
100
AcDbPoint
10
0
20
0
30
0
39
0
210
0
220
0
230
1
50
360
0
POINT
5
11E
100
AcDbEntity
8
Defpoints
62
0
6
ByLayer
370
-1
48
1
60
0
100
AcDbPoint
10
54.0062
20
-3.3735
30
0
39
0
210
0
220
0
230
1
50
360
0
POINT
5
11F
100
AcDbEntity
8
Defpoints
62
0
6
ByLayer
370
-1
48
1
60
0
100
AcDbPoint
10
54.0062
20
-13.586898
30
0
39
0
210
0
220
0
230
1
50
360
0
ENDBLK
5
116
100
AcDbEntity
8
0
100
AcDbBlockEnd
0
BLOCK
5
127
100
AcDbEntity
8
0
100
AcDbBlockBegin
2
_U0
70
0
10
0
20
0
30
0
3
_U0
0
MTEXT
5
121
100
AcDbEntity
8
SK2
62
256
6
ByLayer
370
13
48
1
60
0
100
AcDbMText
10
22.118968
20
-12.554265
30
0
210
0
220
0
230
1
1
\W0.7494;54,01
40
3.5
41
0
44
1.084337
50
0
71
7
72
5
7
iso_b_vert
0
LINE
5
122
100
AcDbEntity
8
SK2
62
256
6
ByLayer
370
13
48
1
60
0
100
AcDbLine
10
0
20
-1.5875
30
0
11
0
21
-15.586898
31
0
39
0
210
0
220
0
230
1
0
LINE
5
123
100
AcDbEntity
8
SK2
62
256
6
ByLayer
370
13
48
1
60
0
100
AcDbLine
10
54.0062
20
-4.961
30
0
11
54.0062
21
-15.586898
31
0
39
0
210
0
220
0
230
1
0
LINE
5
124
100
AcDbEntity
8
SK2
62
256
6
ByLayer
370
13
48
1
60
0
100
AcDbLine
10
0
20
-13.586898
30
0
11
54.0062
21
-13.586898
31
0
39
0
210
0
220
0
230
1
0
SOLID
5
125
100
AcDbEntity
8
SK2
62
256
6
ByLayer
370
18
48
1
60
0
100
AcDbTrace
10
0
20
-13.586898
30
0
11
3.499998
21
-13.126115
31
0
12
3.500002
22
-14.047682
32
0
13
3.500002
23
-14.047682
33
0
39
0
210
0
220
0
230
1
0
SOLID
5
126
100
AcDbEntity
8
SK2
62
256
6
ByLayer
370
18
48
1
60
0
100
AcDbTrace
10
54.0062
20
-13.586898
30
0
11
50.506202
21
-14.047682
31
0
12
50.506198
22
-13.126115
32
0
13
50.506198
23
-13.126115
33
0
39
0
210
0
220
0
230
1
0
ENDBLK
5
128
100
AcDbEntity
8
0
100
AcDbBlockEnd
0
BLOCK
5
12D
100
AcDbEntity
8
0
100
AcDbBlockBegin
2
*D3
70
1
10
0
20
0
30
0
3
*D3
0
LINE
5
12F
100
AcDbEntity
8
0
62
256
6
ByLayer
370
-2
48
1
60
0
100
AcDbLine
10
-36
20
-5.5875
30
0
11
-36
21
-34.692985
31
0
39
0
210
0
220
0
230
1
0
LINE
5
130
100
AcDbEntity
8
0
62
256
6
ByLayer
370
-2
48
1
60
0
100
AcDbLine
10
55
20
-1.5875
30
0
11
55
21
-34.692985
31
0
39
0
210
0
220
0
230
1
0
LINE
5
131
100
AcDbEntity
8
0
62
256
6
ByLayer
370
-2
48
1
60
0
100
AcDbLine
10
-32.5
20
-32.692985
30
0
11
51.5
21
-32.692985
31
0
39
0
210
0
220
0
230
1
0
SOLID
5
132
100
AcDbEntity
8
0
62
256
6
ByLayer
370
-1
48
1
60
0
100
AcDbTrace
10
-32.5
20
-32.109652
30
0
11
-32.5
21
-33.276319
31
0
12
-36
22
-32.692985
32
0
13
-36
23
-32.692985
33
0
39
0
210
0
220
0
230
1
0
SOLID
5
133
100
AcDbEntity
8
0
62
256
6
ByLayer
370
-1
48
1
60
0
100
AcDbTrace
10
51.5
20
-33.276319
30
0
11
51.5
21
-32.109652
31
0
12
55
22
-32.692985
32
0
13
55
23
-32.692985
33
0
39
0
210
0
220
0
230
1
0
MTEXT
5
134
100
AcDbEntity
8
0
62
256
6
ByLayer
370
18
48
1
60
0
100
AcDbMText
10
9.5
20
-25.692985
30
0
210
0
220
0
230
1
1
\A1;91.00
40
3.5
41
0
44
1
50
0
71
5
72
5
7
iso_b_vert
0
POINT
5
135
100
AcDbEntity
8
Defpoints
62
0
6
ByLayer
370
-1
48
1
60
0
100
AcDbPoint
10
-36
20
-4
30
0
39
0
210
0
220
0
230
1
50
360
0
POINT
5
136
100
AcDbEntity
8
Defpoints
62
0
6
ByLayer
370
-1
48
1
60
0
100
AcDbPoint
10
55
20
0
30
0
39
0
210
0
220
0
230
1
50
360
0
POINT
5
137
100
AcDbEntity
8
Defpoints
62
0
6
ByLayer
370
-1
48
1
60
0
100
AcDbPoint
10
55
20
-32.692985
30
0
39
0
210
0
220
0
230
1
50
360
0
ENDBLK
5
12E
100
AcDbEntity
8
0
100
AcDbBlockEnd
0
BLOCK
5
13F
100
AcDbEntity
8
0
100
AcDbBlockBegin
2
_U1
70
0
10
0
20
0
30
0
3
_U1
0
MTEXT
5
139
100
AcDbEntity
8
SK2
62
256
6
ByLayer
370
13
48
1
60
0
100
AcDbMText
10
4.800135
20
-31.660352
30
0
210
0
220
0
230
1
1
\W0.6713;91,00
40
3.5
41
0
44
1.084337
50
0
71
7
72
5
7
iso_b_vert
0
LINE
5
13A
100
AcDbEntity
8
SK2
62
256
6
ByLayer
370
13
48
1
60
0
100
AcDbLine
10
-36
20
-5.5875
30
0
11
-36
21
-34.692985
31
0
39
0
210
0
220
0
230
1
0
LINE
5
13B
100
AcDbEntity
8
SK2
62
256
6
ByLayer
370
13
48
1
60
0
100
AcDbLine
10
55
20
-1.5875
30
0
11
55
21
-34.692985
31
0
39
0
210
0
220
0
230
1
0
LINE
5
13C
100
AcDbEntity
8
SK2
62
256
6
ByLayer
370
13
48
1
60
0
100
AcDbLine
10
-36
20
-32.692985
30
0
11
55
21
-32.692985
31
0
39
0
210
0
220
0
230
1
0
SOLID
5
13D
100
AcDbEntity
8
SK2
62
256
6
ByLayer
370
18
48
1
60
0
100
AcDbTrace
10
-36
20
-32.692985
30
0
11
-32.500002
21
-32.232202
31
0
12
-32.499998
22
-33.153769
32
0
13
-32.499998
23
-33.153769
33
0
39
0
210
0
220
0
230
1
0
SOLID
5
13E
100
AcDbEntity
8
SK2
62
256
6
ByLayer
370
18
48
1
60
0
100
AcDbTrace
10
55
20
-32.692985
30
0
11
51.500002
21
-33.153769
31
0
12
51.499998
22
-32.232202
32
0
13
51.499998
23
-32.232202
33
0
39
0
210
0
220
0
230
1
0
ENDBLK
5
140
100
AcDbEntity
8
0
100
AcDbBlockEnd
0
BLOCK
5
145
100
AcDbEntity
8
0
100
AcDbBlockBegin
2
*D5
70
1
10
0
20
0
30
0
3
*D5
0
LINE
5
147
100
AcDbEntity
8
0
62
256
6
ByLayer
370
-2
48
1
60
0
100
AcDbLine
10
20.27
20
4.961
30
0
11
20.27
21
16.982619
31
0
39
0
210
0
220
0
230
1
0
LINE
5
148
100
AcDbEntity
8
0
62
256
6
ByLayer
370
-2
48
1
60
0
100
AcDbLine
10
55
20
1.5875
30
0
11
55
21
16.982619
31
0
39
0
210
0
220
0
230
1
0
LINE
5
149
100
AcDbEntity
8
0
62
256
6
ByLayer
370
-2
48
1
60
0
100
AcDbLine
10
23.77
20
14.982619
30
0
11
51.5
21
14.982619
31
0
39
0
210
0
220
0
230
1
0
SOLID
5
14A
100
AcDbEntity
8
0
62
256
6
ByLayer
370
-1
48
1
60
0
100
AcDbTrace
10
23.77
20
15.565953
30
0
11
23.77
21
14.399286
31
0
12
20.27
22
14.982619
32
0
13
20.27
23
14.982619
33
0
39
0
210
0
220
0
230
1
0
SOLID
5
14B
100
AcDbEntity
8
0
62
256
6
ByLayer
370
-1
48
1
60
0
100
AcDbTrace
10
51.5
20
14.399286
30
0
11
51.5
21
15.565953
31
0
12
55
22
14.982619
32
0
13
55
23
14.982619
33
0
39
0
210
0
220
0
230
1
0
MTEXT
5
14C
100
AcDbEntity
8
0
62
256
6
ByLayer
370
18
48
1
60
0
100
AcDbMText
10
37.635
20
21.982619
30
0
210
0
220
0
230
1
1
\A1;34.73
40
3.5
41
0
44
1
50
0
71
5
72
5
7
iso_b_vert
0
POINT
5
14D
100
AcDbEntity
8
Defpoints
62
0
6
ByLayer
370
-1
48
1
60
0
100
AcDbPoint
10
20.27
20
3.3735
30
0
39
0
210
0
220
0
230
1
50
360
0
POINT
5
14E
100
AcDbEntity
8
Defpoints
62
0
6
ByLayer
370
-1
48
1
60
0
100
AcDbPoint
10
55
20
0
30
0
39
0
210
0
220
0
230
1
50
360
0
POINT
5
14F
100
AcDbEntity
8
Defpoints
62
0
6
ByLayer
370
-1
48
1
60
0
100
AcDbPoint
10
55
20
14.982619
30
0
39
0
210
0
220
0
230
1
50
360
0
ENDBLK
5
146
100
AcDbEntity
8
0
100
AcDbBlockEnd
0
BLOCK
5
157
100
AcDbEntity
8
0
100
AcDbBlockBegin
2
_U2
70
0
10
0
20
0
30
0
3
_U2
0
MTEXT
5
151
100
AcDbEntity
8
SK2
62
256
6
ByLayer
370
13
48
1
60
0
100
AcDbMText
10
32.313435
20
16.015253
30
0
210
0
220
0
230
1
1
\W0.7581;34,73
40
3.5
41
0
44
1.084337
50
0
71
7
72
5
7
iso_b_vert
0
LINE
5
152
100
AcDbEntity
8
SK2
62
256
6
ByLayer
370
13
48
1
60
0
100
AcDbLine
10
20.27
20
4.961
30
0
11
20.27
21
16.982619
31
0
39
0
210
0
220
0
230
1
0
LINE
5
153
100
AcDbEntity
8
SK2
62
256
6
ByLayer
370
13
48
1
60
0
100
AcDbLine
10
55
20
1.5875
30
0
11
55
21
16.982619
31
0
39
0
210
0
220
0
230
1
0
LINE
5
154
100
AcDbEntity
8
SK2
62
256
6
ByLayer
370
13
48
1
60
0
100
AcDbLine
10
20.27
20
14.982619
30
0
11
55
21
14.982619
31
0
39
0
210
0
220
0
230
1
0
SOLID
5
155
100
AcDbEntity
8
SK2
62
256
6
ByLayer
370
18
48
1
60
0
100
AcDbTrace
10
20.27
20
14.982619
30
0
11
23.769998
21
15.443403
31
0
12
23.770002
22
14.521835
32
0
13
23.770002
23
14.521835
33
0
39
0
210
0
220
0
230
1
0
SOLID
5
156
100
AcDbEntity
8
SK2
62
256
6
ByLayer
370
18
48
1
60
0
100
AcDbTrace
10
55
20
14.982619
30
0
11
51.500002
21
14.521835
31
0
12
51.499998
22
15.443403
32
0
13
51.499998
23
15.443403
33
0
39
0
210
0
220
0
230
1
0
ENDBLK
5
158
100
AcDbEntity
8
0
100
AcDbBlockEnd
0
BLOCK
5
15D
100
AcDbEntity
8
0
100
AcDbBlockBegin
2
*D7
70
1
10
0
20
0
30
0
3
*D7
0
LINE
5
15F
100
AcDbEntity
8
0
62
256
6
ByLayer
370
-2
48
1
60
0
100
AcDbLine
10
55
20
-1.5875
30
0
11
55
21
-18.176003
31
0
39
0
210
0
220
0
230
1
0
LINE
5
160
100
AcDbEntity
8
0
62
256
6
ByLayer
370
-2
48
1
60
0
100
AcDbLine
10
54.0062
20
-4.961
30
0
11
54.0062
21
-18.176003
31
0
39
0
210
0
220
0
230
1
0
LINE
5
161
100
AcDbEntity
8
0
62
256
6
ByLayer
370
-2
48
1
60
0
100
AcDbLine
10
55
20
-16.176003
30
0
11
83
21
-16.176003
31
0
39
0
210
0
220
0
230
1
0
LINE
5
162
100
AcDbEntity
8
0
62
256
6
ByLayer
370
-2
48
1
60
0
100
AcDbLine
10
58.5
20
-16.176003
30
0
11
62
21
-16.176003
31
0
39
0
210
0
220
0
230
1
0
LINE
5
163
100
AcDbEntity
8
0
62
256
6
ByLayer
370
-2
48
1
60
0
100
AcDbLine
10
50.5062
20
-16.176003
30
0
11
47.0062
21
-16.176003
31
0
39
0
210
0
220
0
230
1
0
SOLID
5
164
100
AcDbEntity
8
0
62
256
6
ByLayer
370
-1
48
1
60
0
100
AcDbTrace
10
58.5
20
-15.59267
30
0
11
58.5
21
-16.759337
31
0
12
55
22
-16.176003
32
0
13
55
23
-16.176003
33
0
39
0
210
0
220
0
230
1
0
SOLID
5
165
100
AcDbEntity
8
0
62
256
6
ByLayer
370
-1
48
1
60
0
100
AcDbTrace
10
50.5062
20
-16.759337
30
0
11
50.5062
21
-15.59267
31
0
12
54.0062
22
-16.176003
32
0
13
54.0062
23
-16.176003
33
0
39
0
210
0
220
0
230
1
0
MTEXT
5
166
100
AcDbEntity
8
0
62
256
6
ByLayer
370
18
48
1
60
0
100
AcDbMText
10
72.5
20
-9.176003
30
0
210
0
220
0
230
1
1
\A1;0.99
40
3.5
41
0
44
1
50
0
71
5
72
5
7
iso_b_vert
0
POINT
5
167
100
AcDbEntity
8
Defpoints
62
0
6
ByLayer
370
-1
48
1
60
0
100
AcDbPoint
10
55
20
0
30
0
39
0
210
0
220
0
230
1
50
360
0
POINT
5
168
100
AcDbEntity
8
Defpoints
62
0
6
ByLayer
370
-1
48
1
60
0
100
AcDbPoint
10
54.0062
20
-3.3735
30
0
39
0
210
0
220
0
230
1
50
360
0
POINT
5
169
100
AcDbEntity
8
Defpoints
62
0
6
ByLayer
370
-1
48
1
60
0
100
AcDbPoint
10
54.0062
20
-16.176003
30
0
39
0
210
0
220
0
230
1
50
360
0
ENDBLK
5
15E
100
AcDbEntity
8
0
100
AcDbBlockEnd
0
BLOCK
5
171
100
AcDbEntity
8
0
100
AcDbBlockBegin
2
_U3
70
0
10
0
20
0
30
0
3
_U3
0
MTEXT
5
16B
100
AcDbEntity
8
SK2
62
256
6
ByLayer
370
13
48
1
60
0
100
AcDbMText
10
61.15186
20
-15.14337
30
0
210
0
220
0
230
1
1
\W0.7259;0,99
40
3.5
41
0
44
1.084337
50
0
71
7
72
5
7
iso_b_vert
0
LINE
5
16C
100
AcDbEntity
8
SK2
62
256
6
ByLayer
370
13
48
1
60
0
100
AcDbLine
10
55
20
-1.5875
30
0
11
55
21
-18.176003
31
0
39
0
210
0
220
0
230
1
0
LINE
5
16D
100
AcDbEntity
8
SK2
62
256
6
ByLayer
370
13
48
1
60
0
100
AcDbLine
10
54.0062
20
-4.961
30
0
11
54.0062
21
-18.176003
31
0
39
0
210
0
220
0
230
1
0
LINE
5
16E
100
AcDbEntity
8
SK2
62
256
6
ByLayer
370
13
48
1
60
0
100
AcDbLine
10
45.2562
20
-16.176003
30
0
11
68.996491
21
-16.176003
31
0
39
0
210
0
220
0
230
1
0
SOLID
5
16F
100
AcDbEntity
8
SK2
62
256
6
ByLayer
370
18
48
1
60
0
100
AcDbTrace
10
55
20
-16.176003
30
0
11
58.499998
21
-15.715219
31
0
12
58.500002
22
-16.636787
32
0
13
58.500002
23
-16.636787
33
0
39
0
210
0
220
0
230
1
0
SOLID
5
170
100
AcDbEntity
8
SK2
62
256
6
ByLayer
370
18
48
1
60
0
100
AcDbTrace
10
54.0062
20
-16.176003
30
0
11
50.506202
21
-16.636787
31
0
12
50.506198
22
-15.715219
32
0
13
50.506198
23
-15.715219
33
0
39
0
210
0
220
0
230
1
0
ENDBLK
5
172
100
AcDbEntity
8
0
100
AcDbBlockEnd
0
BLOCK
5
177
100
AcDbEntity
8
0
100
AcDbBlockBegin
2
*D9
70
1
10
0
20
0
30
0
3
*D9
0
LINE
5
179
100
AcDbEntity
8
0
62
256
6
ByLayer
370
-2
48
1
60
0
100
AcDbLine
10
-36
20
-5.5875
30
0
11
-36
21
-24.343428
31
0
39
0
210
0
220
0
230
1
0
LINE
5
17A
100
AcDbEntity
8
0
62
256
6
ByLayer
370
-2
48
1
60
0
100
AcDbLine
10
54.0062
20
-4.961
30
0
11
54.0062
21
-24.343428
31
0
39
0
210
0
220
0
230
1
0
LINE
5
17B
100
AcDbEntity
8
0
62
256
6
ByLayer
370
-2
48
1
60
0
100
AcDbLine
10
-32.5
20
-22.343428
30
0
11
50.5062
21
-22.343428
31
0
39
0
210
0
220
0
230
1
0
SOLID
5
17C
100
AcDbEntity
8
0
62
256
6
ByLayer
370
-1
48
1
60
0
100
AcDbTrace
10
-32.5
20
-21.760095
30
0
11
-32.5
21
-22.926762
31
0
12
-36
22
-22.343428
32
0
13
-36
23
-22.343428
33
0
39
0
210
0
220
0
230
1
0
SOLID
5
17D
100
AcDbEntity
8
0
62
256
6
ByLayer
370
-1
48
1
60
0
100
AcDbTrace
10
50.5062
20
-22.926762
30
0
11
50.5062
21
-21.760095
31
0
12
54.0062
22
-22.343428
32
0
13
54.0062
23
-22.343428
33
0
39
0
210
0
220
0
230
1
0
MTEXT
5
17E
100
AcDbEntity
8
0
62
256
6
ByLayer
370
18
48
1
60
0
100
AcDbMText
10
9.0031
20
-15.343428
30
0
210
0
220
0
230
1
1
\A1;90.01
40
3.5
41
0
44
1
50
0
71
5
72
5
7
iso_b_vert
0
POINT
5
17F
100
AcDbEntity
8
Defpoints
62
0
6
ByLayer
370
-1
48
1
60
0
100
AcDbPoint
10
-36
20
-4
30
0
39
0
210
0
220
0
230
1
50
360
0
POINT
5
180
100
AcDbEntity
8
Defpoints
62
0
6
ByLayer
370
-1
48
1
60
0
100
AcDbPoint
10
54.0062
20
-3.3735
30
0
39
0
210
0
220
0
230
1
50
360
0
POINT
5
181
100
AcDbEntity
8
Defpoints
62
0
6
ByLayer
370
-1
48
1
60
0
100
AcDbPoint
10
54.0062
20
-22.343428
30
0
39
0
210
0
220
0
230
1
50
360
0
ENDBLK
5
178
100
AcDbEntity
8
0
100
AcDbBlockEnd
0
BLOCK
5
189
100
AcDbEntity
8
0
100
AcDbBlockBegin
2
_U4
70
0
10
0
20
0
30
0
3
_U4
0
MTEXT
5
183
100
AcDbEntity
8
SK2
62
256
6
ByLayer
370
13
48
1
60
0
100
AcDbMText
10
4.303235
20
-21.310795
30
0
210
0
220
0
230
1
1
\W0.7211;90,01
40
3.5
41
0
44
1.084337
50
0
71
7
72
5
7
iso_b_vert
0
LINE
5
184
100
AcDbEntity
8
SK2
62
256
6
ByLayer
370
13
48
1
60
0
100
AcDbLine
10
-36
20
-5.5875
30
0
11
-36
21
-24.343428
31
0
39
0
210
0
220
0
230
1
0
LINE
5
185
100
AcDbEntity
8
SK2
62
256
6
ByLayer
370
13
48
1
60
0
100
AcDbLine
10
54.0062
20
-4.961
30
0
11
54.0062
21
-24.343428
31
0
39
0
210
0
220
0
230
1
0
LINE
5
186
100
AcDbEntity
8
SK2
62
256
6
ByLayer
370
13
48
1
60
0
100
AcDbLine
10
-36
20
-22.343428
30
0
11
54.0062
21
-22.343428
31
0
39
0
210
0
220
0
230
1
0
SOLID
5
187
100
AcDbEntity
8
SK2
62
256
6
ByLayer
370
18
48
1
60
0
100
AcDbTrace
10
-36
20
-22.343428
30
0
11
-32.500002
21
-21.882645
31
0
12
-32.499998
22
-22.804212
32
0
13
-32.499998
23
-22.804212
33
0
39
0
210
0
220
0
230
1
0
SOLID
5
188
100
AcDbEntity
8
SK2
62
256
6
ByLayer
370
18
48
1
60
0
100
AcDbTrace
10
54.0062
20
-22.343428
30
0
11
50.506202
21
-22.804212
31
0
12
50.506198
22
-21.882645
32
0
13
50.506198
23
-21.882645
33
0
39
0
210
0
220
0
230
1
0
ENDBLK
5
18A
100
AcDbEntity
8
0
100
AcDbBlockEnd
0
ENDSEC
0
SECTION
2
ENTITIES
0
ARC
5
AE
100
AcDbEntity
8
1
62
256
6
ByLayer
370
18
48
1
60
0
100
AcDbCircle
39
0
10
1.294345
20
-4.14057
30
0
40
0.799999999999997
210
0
220
0
230
1
100
AcDbArc
50
89.96419
51
143.994968
0
ARC
5
AF
100
AcDbEntity
8
1
62
256
6
ByLayer
370
18
48
1
60
0
100
AcDbCircle
39
0
10
1.294345
20
4.14057
30
0
40
0.799999999999997
210
0
220
0
230
1
100
AcDbArc
50
216.005032
51
270.03581
0
ARC
5
B0
100
AcDbEntity
8
1
62
256
6
ByLayer
370
18
48
1
60
0
100
AcDbCircle
39
0
10
0
20
-3.2
30
0
40
0.800000000000003
210
0
220
0
230
1
100
AcDbArc
50
270
51
323.994968
0
ARC
5
B1
100
AcDbEntity
8
1
62
256
6
ByLayer
370
18
48
1
60
0
100
AcDbCircle
39
0
10
0
20
3.2
30
0
40
0.800000000000003
210
0
220
0
230
1
100
AcDbArc
50
36.005032
51
90
0
ELLIPSE
5
B2
100
AcDbEntity
8
1
62
256
6
ByLayer
370
13
48
1
60
0
100
AcDbEllipse
10
4.250224
20
-2.142148
30
0
11
0.0337529655816889
21
0.0941314894944371
31
0
210
0
220
0
230
1
40
0.278936
41
0.906183978693736
42
2.45260209845651
0
ELLIPSE
5
B3
100
AcDbEntity
8
1
62
256
6
ByLayer
370
13
48
1
60
0
100
AcDbEllipse
10
4.185635
20
-2.12866
30
0
11
0.00444511729419161
21
0.0999011558103353
31
0
210
0
220
0
230
1
40
0.551238
41
0.969918727555514
42
2.33276198996792
0
POINT
5
70
100
AcDbEntity
8
80
62
256
6
ByLayer
370
18
48
1
60
0
100
AcDbPoint
10
0
20
0
30
0
39
0
210
0
220
0
230
1
50
360
0
POINT
5
72
100
AcDbEntity
8
81
62
256
6
ByLayer
370
18
48
1
60
0
100
AcDbPoint
10
55
20
0
30
0
39
0
210
0
220
0
230
1
50
360
0
POINT
5
74
100
AcDbEntity
8
1
62
256
6
ByLayer
370
18
48
1
60
1
100
AcDbPoint
10
54.0062
20
-3.3735
30
0
39
0
210
0
220
0
230
1
50
360
0
POINT
5
76
100
AcDbEntity
8
1
62
256
6
ByLayer
370
18
48
1
60
1
100
AcDbPoint
10
-36
20
-4
30
0
39
0
210
0
220
0
230
1
50
360
0
POINT
5
77
100
AcDbEntity
8
1
62
256
6
ByLayer
370
18
48
1
60
1
100
AcDbPoint
10
20.27
20
3.3735
30
0
39
0
210
0
220
0
230
1
50
360
0
POINT
5
78
100
AcDbEntity
8
1
62
256
6
ByLayer
370
18
48
1
60
1
100
AcDbPoint
10
54.0062
20
-3.3735
30
0
39
0
210
0
220
0
230
1
50
360
0
POINT
5
79
100
AcDbEntity
8
1
62
256
6
ByLayer
370
18
48
1
60
1
100
AcDbPoint
10
-36
20
-4
30
0
39
0
210
0
220
0
230
1
50
360
0
POINT
5
7A
100
AcDbEntity
8
1
62
256
6
ByLayer
370
18
48
1
60
1
100
AcDbPoint
10
54.0062
20
-3.3735
30
0
39
0
210
0
220
0
230
1
50
360
0
SPLINE
5
B4
100
AcDbEntity
8
SK1
62
256
6
ByLayer
370
18
48
1
60
0
100
AcDbSpline
70
4
71
3
72
8
73
4
40
0
40
0
40
0
40
0
40
1
40
1
40
1
40
1
41
1
10
-35.5
20
-0.58376692589141
30
0
41
1
10
-35.6671095296696
20
-0.514976108133595
30
0
41
1
10
-35.8338592317438
20
-0.446048198690107
30
0
41
1
10
-36
20
-0.376888289909601
30
0
0
SPLINE
5
B5
100
AcDbEntity
8
SK1
62
256
6
ByLayer
370
18
48
1
60
0
100
AcDbSpline
70
4
71
3
72
8
73
4
40
0
40
0
40
0
40
0
40
1
40
1
40
1
40
1
41
1
10
-36
20
-1.75126195262297
30
0
41
1
10
-35.8338648450305
20
-1.82041952474407
30
0
41
1
10
-35.6671142845194
20
-1.88934781350798
30
0
41
1
10
-35.5
20
-1.95814058860481
30
0
0
SPLINE
5
B6
100
AcDbEntity
8
SK1
62
256
6
ByLayer
370
18
48
1
60
0
100
AcDbSpline
70
4
71
3
72
12
73
8
40
0
40
0
40
0
40
0
40
0.500000000000001
40
0.500000000000001
40
0.75
40
0.75
40
1
40
1
40
1
40
1
41
1
10
-35.5
20
-1.95814058860492
30
0
41
1
10
-35.4764535706458
20
-1.96783350159293
30
0
41
1
10
-35.4537583253671
20
-1.97062972575745
30
0
41
1
10
-35.4256589034923
20
-1.96231117771617
30
0
41
1
10
-35.4170915256394
20
-1.95728648605839
30
0
41
1
10
-35.4042768359918
20
-1.94137919998093
30
0
41
1
10
-35.4
20
-1.93012059003939
30
0
41
1
10
-35.4
20
-1.9161808985568
30
0
0
SPLINE
5
B7
100
AcDbEntity
8
SK1
62
256
6
ByLayer
370
18
48
1
60
0
100
AcDbSpline
70
4
71
3
72
12
73
8
40
0
40
0
40
0
40
0
40
0.25
40
0.25
40
0.499999999999999
40
0.499999999999999
40
1
40
1
40
1
40
1
41
1
10
-35.4
20
-0.725057057538521
30
0
41
1
10
-35.4
20
-0.708465067877427
30
0
41
1
10
-35.4042405317344
20
-0.691267739084822
30
0
41
1
10
-35.4170629445097
20
-0.660475449887599
30
0
41
1
10
-35.4255309618332
20
-0.646738005018221
30
0
41
1
10
-35.4538111153163
20
-0.610769981072679
30
0
41
1
10
-35.4764597265186
20
-0.593457304807657
30
0
41
1
10
-35.5
20
-0.583766925891297
30
0
0
SPLINE
5
B8
100
AcDbEntity
8
1
62
256
6
ByLayer
370
18
48
1
60
0
100
AcDbSpline
70
4
71
3
72
36
73
32
40
0
40
0
40
0
40
0
40
0.0032370860202796
40
0.0032370860202796
40
0.078591947555198
40
0.078591947555198
40
0.153946809090116
40
0.153946809090116
40
0.304656532159953
40
0.304656532159953
40
0.45536625522979
40
0.45536625522979
40
0.530721116764708
40
0.530721116764708
40
0.568398547532167
40
0.568398547532167
40
0.587237262915897
40
0.587237262915897
40
0.591946941761829
40
0.591946941761829
40
0.596656620607762
40
0.596656620607762
40
0.606075978299626
40
0.606075978299626
40
0.756785701369464
40
0.756785701369464
40
0.907495424439301
40
0.907495424439301
40
0.982850285974219
40
0.982850285974219
40
1
40
1
40
1
40
1
41
1
10
10.0566834234029
20
3.29726722727071
30
0
41
1
10
10.0566834234029
20
3.29158505511495
30
0
41
1
10
10.0566834234029
20
3.28590056277383
30
0
41
1
10
10.0566834234029
20
3.14783276270245
30
0
41
1
10
10.0566834234029
20
3.01418889066841
30
0
41
1
10
10.0566834234029
20
2.74439584074986
30
0
41
1
10
10.0566834234029
20
2.60781015846337
30
0
41
1
10
10.0566834234029
20
2.1971939286108
30
0
41
1
10
10.0566834234029
20
1.92654248981842
30
0
41
1
10
10.0566834234029
20
1.39088919140326
30
0
41
1
10
10.0566834234029
20
1.12589135627499
30
0
41
1
10
10.0566834234029
20
0.732585815267782
30
0
41
1
10
10.0566834234029
20
0.602041980046153
30
0
41
1
10
10.0566834234029
20
0.40923933557383
30
0
41
1
10
10.0566834234029
20
0.345394786145704
30
0
41
1
10
10.0566834234029
20
0.250259141019683
30
0
41
1
10
10.0566834234029
20
0.218661763696673
30
0
41
1
10
10.0566834234029
20
0.179318950388904
30
0
41
1
10
10.0566834234029
20
0.171264245433491
30
0
41
1
10
10.0566834234029
20
0.156664138487201
30
0
41
1
10
10.0566834234029
20
0.150165714245247
30
0
41
1
10
10.0566834234029
20
0.133114474840426
30
0
41
1
10
10.0566834234029
20
0.127173400511623
30
0
41
1
10
10.0566834234029
20
0.0066632015650896
30
0
41
1
10
10.0566834234029
20
-0.086093567574494
30
0
41
1
10
10.0566834234029
20
-0.224890743307583
30
0
41
1
10
10.0566834234029
20
-0.271677015770507
30
0
41
1
10
10.0566834234029
20
-0.30512026444444
30
0
41
1
10
10.0566834234029
20
-0.31001714551536
30
0
41
1
10
10.0566834234029
20
-0.308091502225494
30
0
41
1
10
10.0566834234029
20
-0.307403658283505
30
0
41
1
10
10.0566834234029
20
-0.306383869983023
30
0
0
SPLINE
5
B9
100
AcDbEntity
8
1
62
256
6
ByLayer
370
18
48
1
60
0
100
AcDbSpline
70
4
71
3
72
52
73
48
40
0
40
0
40
0
40
0
40
0.0834167498536708
40
0.0834167498536708
40
0.125125124780507
40
0.125125124780507
40
0.166833499707343
40
0.166833499707343
40
0.208541874634179
40
0.208541874634179
40
0.250250249561015
40
0.250250249561015
40
0.291958624487851
40
0.291958624487851
40
0.333666999414687
40
0.333666999414687
40
0.375375374341523
40
0.375375374341523
40
0.417083749268359
40
0.417083749268359
40
0.458792124195195
40
0.458792124195195
40
0.500500499122031
40
0.500500499122031
40
0.542208874048867
40
0.542208874048867
40
0.583917248975703
40
0.583917248975703
40
0.625625623902539
40
0.625625623902539
40
0.667333998829375
40
0.667333998829375
40
0.70904237375621
40
0.70904237375621
40
0.750750748683046
40
0.750750748683046
40
0.792459123609882
40
0.792459123609882
40
0.834167498536718
40
0.834167498536718
40
0.875875873463554
40
0.875875873463554
40
0.91758424839039
40
0.91758424839039
40
0.959292623317226
40
0.959292623317226
40
1
40
1
40
1
40
1
41
1
10
10.0566834234029
20
-0.301536309336427
30
0
41
1
10
10.4823886148114
20
-0.49632802829268
30
0
41
1
10
10.9070566462678
20
-0.687865252417254
30
0
41
1
10
11.5433055458201
20
-0.969308290558075
30
0
41
1
10
11.7552433516463
20
-1.06217851758677
30
0
41
1
10
12.1797329044175
20
-1.24391143801125
30
0
41
1
10
12.3922274809667
20
-1.33289207649546
30
0
41
1
10
12.8176053309264
20
-1.50753077794937
30
0
41
1
10
13.0304788640515
20
-1.59328211753331
30
0
41
1
10
13.4552177284876
20
-1.75985705170174
30
0
41
1
10
13.667471483455
20
-1.8403446904864
30
0
41
1
10
14.0919157540987
20
-1.99554923912618
30
0
41
1
10
14.3040545838101
20
-2.07045951985799
30
0
41
1
10
14.7282647851686
20
-2.21498012752406
30
0
41
1
10
14.9402927360225
20
-2.28456052333428
30
0
41
1
10
15.3651995013857
20
-2.41627086064835
30
0
41
1
10
15.5783231883563
20
-2.47864838429851
30
0
41
1
10
16.0033612227015
20
-2.59688676191348
30
0
41
1
10
16.2152171089133
20
-2.65274447286393
30
0
41
1
10
16.6376174359393
20
-2.75541165555185
30
0
41
1
10
16.8484556499359
20
-2.802429030426
30
0
41
1
10
17.269747304581
20
-2.88895363471343
30
0
41
1
10
17.4801640351095
20
-2.92886606343231
30
0
41
1
10
17.9003645306205
20
-3.0003069755987
30
0
41
1
10
18.1100618106559
20
-3.03118103364599
30
0
41
1
10
18.5298797174143
20
-3.08459293233608
30
0
41
1
10
18.7399359874378
20
-3.10710721721026
30
0
41
1
10
19.1601707869693
20
-3.14490439570613
30
0
41
1
10
19.3703108214114
20
-3.15963907017999
30
0
41
1
10
19.7910113187167
20
-3.17859232029363
30
0
41
1
10
20.0017788517759
20
-3.18352247446421
30
0
41
1
10
20.4243208906332
20
-3.18550895924389
30
0
41
1
10
20.6359694357718
20
-3.18309742700251
30
0
41
1
10
21.0602903648879
20
-3.16768409740163
30
0
41
1
10
21.2731890245599
20
-3.15421759196616
30
0
41
1
10
21.698325718899
20
-3.11969273774449
30
0
41
1
10
21.9108414884658
20
-3.09844986108908
30
0
41
1
10
22.3355812299195
20
-3.04861511021679
30
0
41
1
10
22.5476991965631
20
-3.0188462741375
30
0
41
1
10
22.9718069065244
20
-2.94942347867954
30
0
41
1
10
23.1840432794193
20
-2.9107299769633
30
0
41
1
10
23.6091346302452
20
-2.82604355206604
30
0
41
1
10
23.822087141229
20
-2.78039266319016
30
0
41
1
10
24.2475695805302
20
-2.679289119245
30
0
41
1
10
24.4597500689917
20
-2.62414512282564
30
0
41
1
10
24.8791814718317
20
-2.50940948689356
30
0
41
1
10
25.0863865279673
20
-2.44988967915171
30
0
41
1
10
25.293517407505
20
-2.38731308081572
30
0
0
SPLINE
5
BA
100
AcDbEntity
8
1
62
256
6
ByLayer
370
18
48
1
60
0
100
AcDbSpline
70
4
71
3
72
30
73
26
40
0
40
0
40
0
40
0
40
0.0323793248589763
40
0.0323793248589763
40
0.106811684485209
40
0.106811684485209
40
0.181244044111442
40
0.181244044111442
40
0.255676403737674
40
0.255676403737674
40
0.404541122990143
40
0.404541122990143
40
0.478973482616376
40
0.478973482616376
40
0.553405842242608
40
0.553405842242608
40
0.70227056149507
40
0.70227056149507
40
0.776702921121302
40
0.776702921121302
40
0.851135280747535
40
0.851135280747535
40
0.925567640373767
40
0.925567640373767
40
1
40
1
40
1
40
1
41
1
10
42.1806654210966
20
3.19563843908566
30
0
41
1
10
42.2720901241885
20
3.19478043628982
30
0
41
1
10
42.3634748223653
20
3.19305573153224
30
0
41
1
10
42.6648759878511
20
3.18439638941132
30
0
41
1
10
42.8747577360252
20
3.17388249806748
30
0
41
1
10
43.2942478113966
20
3.14514759312544
30
0
41
1
10
43.5037991463315
20
3.12716879954254
30
0
41
1
10
43.9231215927242
20
3.08168187511396
30
0
41
1
10
44.1329912246035
20
3.05406593895822
30
0
41
1
10
44.7632978773378
20
2.95810998916522
30
0
41
1
10
45.1839486690141
20
2.87634141392621
30
0
41
1
10
45.8188337601501
20
2.73155046296995
30
0
41
1
10
46.0313158852739
20
2.67963920325428
30
0
41
1
10
46.4561992662774
20
2.56869102016523
30
0
41
1
10
46.6678465492023
20
2.50960380738803
30
0
41
1
10
47.3010980828714
20
2.32130227855649
30
0
41
1
10
47.7216912007675
20
2.18284395050983
30
0
41
1
10
48.3506323450872
20
1.95792698942643
30
0
41
1
10
48.5599716025433
20
1.87991946238003
30
0
41
1
10
48.9789614322279
20
1.71978828519519
30
0
41
1
10
49.1885229475749
20
1.63759082172484
30
0
41
1
10
49.6076406470251
20
1.46875850849261
30
0
41
1
10
49.8171512716852
20
1.38195077557316
30
0
41
1
10
50.236659334689
20
1.2042521373545
30
0
41
1
10
50.4468138437263
20
1.11375260951081
30
0
41
1
10
50.6573716353483
20
1.02190400754148
30
0
0
SPLINE
5
BB
100
AcDbEntity
8
1
62
256
6
ByLayer
370
13
48
1
60
0
100
AcDbSpline
70
4
71
3
72
8
73
4
40
0
40
0
40
0
40
0
40
1
40
1
40
1
40
1
41
1
10
4.0137382180435
20
-2.09930373066251
30
0
41
1
10
4.03449959437478
20
-2.08791803017456
30
0
41
1
10
4.07905782446906
20
-2.07666355063361
30
0
41
1
10
4.14272443087805
20
-2.07015788151969
30
0
0
SPLINE
5
BC
100
AcDbEntity
8
1
62
256
6
ByLayer
370
18
48
1
60
0
100
AcDbSpline
70
4
71
3
72
8
73
4
40
0
40
0
40
0
40
0
40
1
40
1
40
1
40
1
41
1
10
53.8416768665537
20
-3.29836812513022
30
0
41
1
10
53.8322946941982
20
-3.32187716739779
30
0
41
1
10
53.8229012474497
20
-3.34536822997646
30
0
41
1
10
53.8134974384662
20
-3.36884034964535
30
0
0
SPLINE
5
BD
100
AcDbEntity
8
1
62
256
6
ByLayer
370
18
48
1
60
0
100
AcDbSpline
70
4
71
3
72
29
73
25
40
0
40
0
40
0
40
0
40
0.125
40
0.125
40
0.25
40
0.25
40
0.3125
40
0.3125
40
0.375
40
0.4375
40
0.4375
40
0.5
40
0.5
40
0.625
40
0.625
40
0.6875
40
0.6875
40
0.75
40
0.75
40
0.875
40
0.875
40
0.9375
40
0.9375
40
1
40
1
40
1
40
1
41
1
10
4.01373821803929
20
-2.09930373066967
30
0
41
1
10
4.0137727580252
20
-1.93361376009077
30
0
41
1
10
4.01380541678878
20
-1.75443125671598
30
0
41
1
10
4.01386619392801
20
-1.38097202688684
30
0
41
1
10
4.01389449481826
20
-1.1860512948877
30
0
41
1
10
4.01393475235366
20
-0.881168612097241
30
0
41
1
10
4.01394777412756
20
-0.777610361632696
30
0
41
1
10
4.01397271662168
20
-0.570479323960569
30
0
41
1
10
4.0139966951902
20
-0.362312734481492
30
0
41
1
10
4.01401905801558
20
-0.152105818338129
30
0
41
1
10
4.01404072845088
20
0.0591334934536007
30
0
41
1
10
4.01405125840341
20
0.165700530589959
30
0
41
1
10
4.01408164277086
20
0.483997374394221
30
0
41
1
10
4.01410005811761
20
0.691460546465464
30
0
41
1
10
4.01412537189788
20
0.995785020601318
30
0
41
1
10
4.01413341815694
20
1.09607363480964
30
0
41
1
10
4.01414872285005
20
1.29428917473953
30
0
41
1
10
4.01415598745209
20
1.3923566434606
30
0
41
1
10
4.01417610231655
20
1.67675585761225
30
0
41
1
10
4.01418747412771
20
1.85550317299786
30
0
41
1
10
4.01420111057189
20
2.10749293253079
30
0
41
1
10
4.01420508416186
20
2.18891051086493
30
0
41
1
10
4.01421170018961
20
2.34560235985745
30
0
41
1
10
4.01421430143637
20
2.41987795223642
30
0
41
1
10
4.01421615357773
20
2.49021635613104
30
0
0
SPLINE
5
BE
100
AcDbEntity
8
1
62
256
6
ByLayer
370
13
48
1
60
0
100
AcDbSpline
70
4
71
3
72
20
73
16
40
0
40
0
40
0
40
0
40
0.103950417195966
40
0.103950417195966
40
0.207900834391931
40
0.207900834391931
40
0.41580166878386
40
0.41580166878386
40
0.623702503175789
40
0.623702503175789
40
0.727652920371752
40
0.727652920371752
40
0.831603337567716
40
0.831603337567716
40
1
40
1
40
1
40
1
41
1
10
4.20747735824867
20
-2.20882135894945
30
0
41
1
10
4.4684251935484
20
-2.30005037746739
30
0
41
1
10
4.72972597028036
20
-2.38653151124353
30
0
41
1
10
5.25069939637103
20
-2.54847435381976
30
0
41
1
10
5.51021814764738
20
-2.62390237196286
30
0
41
1
10
6.28674940104875
20
-2.83284424531431
30
0
41
1
10
6.80175101085587
20
-2.94904694413606
30
0
41
1
10
7.83114954264821
20
-3.13063564416609
30
0
41
1
10
8.34544541375328
20
-3.19615635750807
30
0
41
1
10
9.11990585007385
20
-3.25416637434492
30
0
41
1
10
9.37854995147956
20
-3.26679707249161
30
0
41
1
10
9.89737225486311
20
-3.27831155228108
30
0
41
1
10
10.1580041588688
20
-3.27717794093115
30
0
41
1
10
10.8410073181469
20
-3.25588691430667
30
0
41
1
10
11.2607000604609
20
-3.22448777436713
30
0
41
1
10
11.6790080438159
20
-3.17587628834096
30
0
0
SPLINE
5
BF
100
AcDbEntity
8
1
62
256
6
ByLayer
370
18
48
1
60
0
100
AcDbSpline
70
4
71
3
72
20
73
16
40
0
40
0
40
0
40
0
40
0.0831556268309063
40
0.0831556268309063
40
0.260838634032615
40
0.260838634032615
40
0.61620464843603
40
0.61620464843603
40
0.705046152036882
40
0.705046152036882
40
0.793887655637734
40
0.793887655637734
40
0.971570662839437
40
0.971570662839437
40
1
40
1
40
1
40
1
41
1
10
39.1841006538316
20
1.55137419603793
30
0
41
1
10
39.4271924888734
20
1.44940040016931
30
0
41
1
10
39.6693992058279
20
1.3449032721694
30
0
41
1
10
40.4271364157666
20
1.01085291536018
30
0
41
1
10
40.9404490375123
20
0.774287111058101
30
0
41
1
10
42.478455809326
20
0.0518341803191618
30
0
41
1
10
43.5013173919298
20
-0.446656273206003
30
0
41
1
10
44.7999652390853
20
-1.0406136180614
30
0
41
1
10
45.0611004590182
20
-1.15812666331394
30
0
41
1
10
45.5800438737008
20
-1.38638330344602
30
0
41
1
10
45.8385326468349
20
-1.4974444913546
30
0
41
1
10
46.6119281200011
20
-1.81980245985105
30
0
41
1
10
47.1248920737001
20
-2.02003468711155
30
0
41
1
10
47.7193720816406
20
-2.23124103568429
30
0
41
1
10
47.8013583559201
20
-2.25990650042533
30
0
41
1
10
47.8833429417744
20
-2.28809147127686
30
0
0
SPLINE
5
C0
100
AcDbEntity
8
1
62
256
6
ByLayer
370
13
48
1
60
0
100
AcDbSpline
70
4
71
3
72
14
73
10
40
0
40
0
40
0
40
0
40
0.479166707417836
40
0.479166707417836
40
0.609375030563378
40
0.609375030563378
40
0.739583353708919
40
0.739583353708919
40
1
40
1
40
1
40
1
41
1
10
47.8833419953693
20
-2.28809114591817
30
0
41
1
10
48.8261630293513
20
-2.61221776760215
30
0
41
1
10
49.768760765125
20
-2.8727993091461
30
0
41
1
10
50.9854329482065
20
-3.09630216064269
30
0
41
1
10
51.2463079607234
20
-3.13771181043779
30
0
41
1
10
51.7660644621817
20
-3.20681279847887
30
0
41
1
10
52.0254962186473
20
-3.234634781718
30
0
41
1
10
52.8034829732291
20
-3.29755537229232
30
0
41
1
10
53.3217330440332
20
-3.31207305673721
30
0
41
1
10
53.8416768665529
20
-3.29836812512988
30
0
0
SPLINE
5
C1
100
AcDbEntity
8
1
62
256
6
ByLayer
370
18
48
1
60
0
100
AcDbSpline
70
4
71
3
72
33
73
29
40
0
40
0
40
0
40
0
40
0.25000000000002
40
0.25000000000002
40
0.312500000000021
40
0.312500000000021
40
0.375000000000022
40
0.375000000000022
40
0.500000000000018
40
0.500000000000018
40
0.625000000000013
40
0.625000000000013
40
0.750000000000009
40
0.750000000000009
40
0.81250000000001
40
0.81250000000001
40
0.843750000000014
40
0.843750000000014
40
0.851562500000014
40
0.851562500000014
40
0.859375000000013
40
0.859375000000013
40
0.867187500000012
40
0.867187500000012
40
0.871093750000012
40
0.871093750000012
40
0.875000000000012
40
1
40
1
40
1
40
1
41
1
10
50.6573716353481
20
1.02190400754159
30
0
41
1
10
50.93407553525
20
0.805930361000179
30
0
41
1
10
51.2217785673983
20
0.619345234237187
30
0
41
1
10
51.5963687069911
20
0.426088971378704
30
0
41
1
10
51.672199147304
20
0.389466129229675
30
0
41
1
10
51.8237023045792
20
0.321391192694364
30
0
41
1
10
51.8995704549557
20
0.28982588183095
30
0
41
1
10
52.1275304061022
20
0.202669100738063
30
0
41
1
10
52.2799748860509
20
0.154556959988867
30
0
41
1
10
52.5858794658529
20
0.0798711087534798
30
0
41
1
10
52.7397862701323
20
0.0531950629203948
30
0
41
1
10
53.0468839341354
20
0.0258664105723483
30
0
41
1
10
53.1980912526188
20
0.0254462724429629
30
0
41
1
10
53.420797406483
20
0.0480339790818789
30
0
41
1
10
53.4944507173964
20
0.0594560028734463
30
0
41
1
10
53.6029156535034
20
0.0827953747029824
30
0
41
1
10
53.6387757406119
20
0.091615127663033
30
0
41
1
10
53.6831401199733
20
0.103975584771092
30
0
41
1
10
53.6921092203941
20
0.106175623287157
30
0
41
1
10
53.7096767253161
20
0.111606963427391
30
0
41
1
10
53.7183773923126
20
0.114838805993657
30
0
41
1
10
53.7327157901007
20
0.126774613459531
30
0
41
1
10
53.7382322738783
20
0.135552118679101
30
0
41
1
10
53.7409097497773
20
0.151617492776722
30
0
41
1
10
53.7411152444597
20
0.157324016586813
30
0
41
1
10
53.7419635077964
20
0.168502888414821
30
0
41
1
10
53.7554585653967
20
0.353121185661024
30
0
41
1
10
53.7527240943331
20
0.543019251228344
30
0
41
1
10
53.7397395736705
20
0.727087794510425
30
0
0
SPLINE
5
C2
100
AcDbEntity
8
1
62
256
6
ByLayer
370
18
48
1
60
0
100
AcDbSpline
70
4
71
3
72
10
73
6
40
0
40
0
40
0
40
0
40
0.5
40
0.5
40
1
40
1
40
1
40
1
41
1
10
53.9829918221588
20
3.28248183102278
30
0
41
1
10
53.951595493216
20
3.30580853324574
30
0
41
1
10
53.9214710871103
20
3.32491852039695
30
0
41
1
10
53.8649846475416
20
3.35372412052078
30
0
41
1
10
53.8384361379515
20
3.36356995257734
30
0
41
1
10
53.8134974384662
20
3.36884034964535
30
0
0
SPLINE
5
C3
100
AcDbEntity
8
1
62
256
6
ByLayer
370
18
48
1
60
0
100
AcDbSpline
70
4
71
3
72
10
73
6
40
0
40
0
40
0
40
0
40
0.5
40
0.5
40
1
40
1
40
1
40
1
41
1
10
54.9999512777313
20
0.0417782434508069
30
0
41
1
10
54.996222830728
20
0.0264355696387781
30
0
41
1
10
54.9911238419289
20
0.0099869993810273
30
0
41
1
10
54.9788259559059
20
-0.0212436996348799
30
0
41
1
10
54.9715901251877
20
-0.0360506715707629
30
0
41
1
10
54.9642603538556
20
-0.0480631901994002
30
0
0
SPLINE
5
C4
100
AcDbEntity
8
1
62
256
6
ByLayer
370
18
48
1
60
0
100
AcDbSpline
70
4
71
3
72
60
73
56
40
0
40
0
40
0
40
0
40
0.066773506830101
40
0.066773506830101
40
0.100160260245152
40
0.100160260245152
40
0.133547013660203
40
0.133547013660203
40
0.166933767075254
40
0.166933767075254
40
0.200320520490305
40
0.200320520490305
40
0.233707273905356
40
0.233707273905356
40
0.267094027320406
40
0.267094027320406
40
0.300480780735457
40
0.300480780735457
40
0.333867534150508
40
0.333867534150508
40
0.367254287565559
40
0.367254287565559
40
0.40064104098061
40
0.40064104098061
40
0.467414547810712
40
0.467414547810712
40
0.500801301225763
40
0.500801301225763
40
0.534188054640814
40
0.534188054640814
40
0.567574808055865
40
0.567574808055865
40
0.600961561470916
40
0.600961561470916
40
0.634348314885966
40
0.634348314885966
40
0.667735068301017
40
0.667735068301017
40
0.701121821716068
40
0.701121821716068
40
0.734508575131119
40
0.734508575131119
40
0.76789532854617
40
0.76789532854617
40
0.801282081961221
40
0.801282081961221
40
0.834668835376272
40
0.834668835376272
40
0.868055588791323
40
0.868055588791323
40
0.901442342206374
40
0.901442342206374
40
0.934829095621425
40
0.934829095621425
40
1
40
1
40
1
40
1
41
1
10
10.0566834234029
20
3.29726722729296
30
0
41
1
10
10.5175805735615
20
3.25914538312614
30
0
41
1
10
10.9776572955901
20
3.2003161872548
30
0
41
1
10
11.6630539079354
20
3.08068711503546
30
0
41
1
10
11.8907562407268
20
3.03541769947228
30
0
41
1
10
12.3468072189868
20
2.93613736831665
30
0
41
1
10
12.5748787947226
20
2.88193758896802
30
0
41
1
10
13.0306751607453
20
2.76399791335564
30
0
41
1
10
13.2580929623389
20
2.69983885295548
30
0
41
1
10
13.7138714783936
20
2.56331532440944
30
0
41
1
10
13.9423580969777
20
2.49118653005456
30
0
41
1
10
14.4000928933122
20
2.33867764246404
30
0
41
1
10
14.6292687901181
20
2.25817783081095
30
0
41
1
10
15.0882448934817
20
2.08829744707668
30
0
41
1
10
15.3190810222232
20
1.99972039379986
30
0
41
1
10
15.7806859196167
20
1.81710763121097
30
0
41
1
10
16.0108123938265
20
1.72313911501411
30
0
41
1
10
16.4691806016043
20
1.52887076562581
30
0
41
1
10
16.6974655017721
20
1.42863066904911
30
0
41
1
10
17.1543308105718
20
1.226075679611
30
0
41
1
10
17.3826332522523
20
1.12323367188623
30
0
41
1
10
17.8385499788675
20
0.913586222886181
30
0
41
1
10
18.0658498517141
20
0.806124239540111
30
0
41
1
10
18.7487727545947
20
0.481920225139873
30
0
41
1
10
19.205572874596
20
0.263825626268215
30
0
41
1
10
19.8912048396278
20
-0.0703619001561151
30
0
41
1
10
20.1204986811569
20
-0.181480200605307
30
0
41
1
10
20.5808102030507
20
-0.402637358113481
30
0
41
1
10
20.8122806666745
20
-0.513119208258416
30
0
41
1
10
21.2726174536516
20
-0.732854456220963
30
0
41
1
10
21.501734087606
20
-0.841957721368772
30
0
41
1
10
21.9598658231677
20
-1.05448699594311
30
0
41
1
10
22.1886075636166
20
-1.15853244438611
30
0
41
1
10
22.6450297619189
20
-1.36309383636481
30
0
41
1
10
22.8723902715845
20
-1.46419893315169
30
0
41
1
10
23.3274999699651
20
-1.65998836281085
30
0
41
1
10
23.555295047083
20
-1.75463247261689
30
0
41
1
10
24.0109150850735
20
-1.93833556430681
30
0
41
1
10
24.2386434635727
20
-2.02755484039898
30
0
41
1
10
24.6940967361156
20
-2.20027544119549
30
0
41
1
10
24.9224083895787
20
-2.28280196934998
30
0
41
1
10
25.380357215985
20
-2.44002889377873
30
0
41
1
10
25.6099189480653
20
-2.51486056890283
30
0
41
1
10
26.0696896304327
20
-2.65754461357838
30
0
41
1
10
26.3003813966492
20
-2.72525282700488
30
0
41
1
10
26.7616169573729
20
-2.849791917728
30
0
41
1
10
26.99212917813
20
-2.90713311563053
30
0
41
1
10
27.4525047073495
20
-3.01248087625589
30
0
41
1
10
27.6820363029935
20
-3.06072823816396
30
0
41
1
10
28.1420533196081
20
-3.14625451771593
30
0
41
1
10
28.3725362664533
20
-3.18362123117842
30
0
41
1
10
28.8339655504203
20
-3.2479935787911
30
0
41
1
10
29.0649612530451
20
-3.27505242944471
30
0
41
1
10
29.7429996103645
20
-3.3385378885971
30
0
41
1
10
30.1902727973751
20
-3.35901536345293
30
0
41
1
10
30.6351047668075
20
-3.35890369230381
30
0
0
SPLINE
5
C5
100
AcDbEntity
8
1
62
256
6
ByLayer
370
18
48
1
60
0
100
AcDbSpline
70
4
71
3
72
26
73
22
40
0
40
0
40
0
40
0
40
0.0152635560535372
40
0.0152635560535372
40
0.113737200448181
40
0.113737200448181
40
0.212210844842826
40
0.212210844842826
40
0.409158133632119
40
0.409158133632119
40
0.507631778026765
40
0.507631778026765
40
0.606105422421412
40
0.606105422421412
40
0.704579066816059
40
0.704579066816059
40
0.803052711210706
40
0.803052711210706
40
0.901526355605353
40
0.901526355605353
40
1
40
1
40
1
40
1
41
1
10
47.0200897983332
20
2.4121310926738
30
0
41
1
10
47.0553601959765
20
2.4241782543811
30
0
41
1
10
47.0906316835005
20
2.43611847433283
30
0
41
1
10
47.3535001579563
20
2.52424431786631
30
0
41
1
10
47.5812111474916
20
2.59604988798034
30
0
41
1
10
48.0363977536748
20
2.73144972483803
30
0
41
1
10
48.2637038540466
20
2.79523069461561
30
0
41
1
10
48.9458184606354
20
2.97318391789483
30
0
41
1
10
49.4030985012224
20
3.07179894713451
30
0
41
1
10
50.0903757203181
20
3.19151490374435
30
0
41
1
10
50.3201731142995
20
3.22636046016595
30
0
41
1
10
50.7816082642829
20
3.28484869743326
30
0
41
1
10
51.0117776972273
20
3.30854618811992
30
0
41
1
10
51.4706219414826
20
3.34515655300905
30
0
41
1
10
51.6989971301148
20
3.35807108655337
30
0
41
1
10
52.1560848502488
20
3.37259091495042
30
0
41
1
10
52.3846692067908
20
3.37431616428924
30
0
41
1
10
52.8414391578913
20
3.36688729366293
30
0
41
1
10
53.0694366277741
20
3.35767411888008
30
0
41
1
10
53.5254909938922
20
3.32812766363176
30
0
41
1
10
53.7540397857612
20
3.30796888493248
30
0
41
1
10
53.982991822161
20
3.2824818310211
30
0
0
SPLINE
5
C6
100
AcDbEntity
8
1
62
256
6
ByLayer
370
18
48
1
60
0
100
AcDbSpline
70
4
71
3
72
26
73
22
40
0
40
0
40
0
40
0
40
0.0625000000000014
40
0.0625000000000014
40
0.125000000000003
40
0.125000000000003
40
0.187500000000004
40
0.187500000000004
40
0.250000000000006
40
0.250000000000006
40
0.375000000000005
40
0.375000000000005
40
0.500000000000004
40
0.500000000000004
40
0.625000000000003
40
0.625000000000003
40
0.750000000000002
40
0.750000000000002
40
0.875000000000001
40
0.875000000000001
40
1
40
1
40
1
40
1
41
1
10
50.6573716353481
20
1.02190400754159
30
0
41
1
10
50.6579801862859
20
0.921605920216933
30
0
41
1
10
50.6656958514813
20
0.820301377008462
30
0
41
1
10
50.6949846564613
20
0.615729899622352
30
0
41
1
10
50.7168650229646
20
0.511545453147392
30
0
41
1
10
50.772568145233
20
0.307550109944287
30
0
41
1
10
50.8063063952434
20
0.207373673264527
30
0
41
1
10
50.8841775648554
20
0.0102367224139641
30
0
41
1
10
50.9284820537694
20
-0.0870404179521529
30
0
41
1
10
51.0746375857897
20
-0.372360605438956
30
0
41
1
10
51.1870396425654
20
-0.549444219479085
30
0
41
1
10
51.4338955316401
20
-0.884263923780452
30
0
41
1
10
51.5694851509294
20
-1.04294231027896
30
0
41
1
10
51.8509145911139
20
-1.33671036487249
30
0
41
1
10
51.9972698389904
20
-1.47267071034079
30
0
41
1
10
52.2989654860155
20
-1.72719038182782
30
0
41
1
10
52.454330224956
20
-1.84570257038857
30
0
41
1
10
52.7728385309076
20
-2.0676621439859
30
0
41
1
10
52.9354630114875
20
-2.1706648169035
30
0
41
1
10
53.2631045357134
20
-2.36059926844857
30
0
41
1
10
53.4286666892318
20
-2.44790667865965
30
0
41
1
10
53.5958381786615
20
-2.52813514256522
30
0
0
SPLINE
5
C7
100
AcDbEntity
8
1
62
256
6
ByLayer
370
18
48
1
60
0
100
AcDbSpline
70
4
71
3
72
14
73
10
40
0
40
0
40
0
40
0
40
0.25
40
0.25
40
0.5
40
0.5
40
0.75
40
0.75
40
1
40
1
40
1
40
1
41
1
10
53.8515435476609
20
-3.20384801053834
30
0
41
1
10
53.8548138769321
20
-3.20352371199638
30
0
41
1
10
53.8574197164518
20
-3.2049259485936
30
0
41
1
10
53.8609075043854
20
-3.21217990802154
30
0
41
1
10
53.8617333189599
20
-3.2181277593279
30
0
41
1
10
53.8605270607599
20
-3.23535399525386
30
0
41
1
10
53.858443515029
20
-3.24656851823897
30
0
41
1
10
53.8516042163267
20
-3.27160491594739
30
0
41
1
10
53.846891685552
20
-3.2853012792439
30
0
41
1
10
53.8416768665539
20
-3.29836812512985
30
0
0
SPLINE
5
C8
100
AcDbEntity
8
1
62
256
6
ByLayer
370
18
48
1
60
0
100
AcDbSpline
70
4
71
3
72
16
73
12
40
0
40
0
40
0
40
0
40
0.270278056130282
40
0.270278056130282
40
0.405417084195423
40
0.405417084195423
40
0.540556112260565
40
0.540556112260565
40
0.810834168390846
40
0.810834168390846
40
1
40
1
40
1
40
1
41
1
10
53.5958381786615
20
-2.52813514256522
30
0
41
1
10
53.5955916517839
20
-2.6417952794161
30
0
41
1
10
53.6005576513577
20
-2.74170179688059
30
0
41
1
10
53.6160436231795
20
-2.87132712854015
30
0
41
1
10
53.6225550492252
20
-2.91114449655114
30
0
41
1
10
53.6384386433897
20
-2.98383437679425
30
0
41
1
10
53.6477781285889
20
-3.01646263916731
30
0
41
1
10
53.679657230729
20
-3.10219341660954
30
0
41
1
10
53.7061514699894
20
-3.14383554522794
30
0
41
1
10
53.7607294749232
20
-3.18894190361505
30
0
41
1
10
53.7860657440572
20
-3.20001588844329
30
0
41
1
10
53.8140678473395
20
-3.2035205241722
30
0
0
SPLINE
5
C9
100
AcDbEntity
8
1
62
256
6
ByLayer
370
18
48
1
60
0
100
AcDbSpline
70
4
71
3
72
8
73
4
40
0
40
0
40
0
40
0
40
1
40
1
40
1
40
1
41
1
10
53.8134974384662
20
3.36884034964535
30
0
41
1
10
53.6931020896791
20
3.37181803898358
30
0
41
1
10
53.5727210243658
20
3.37325968891878
30
0
41
1
10
53.4523271490481
20
3.37316883537602
30
0
0
SPLINE
5
CA
100
AcDbEntity
8
1
62
256
6
ByLayer
370
18
48
1
60
0
100
AcDbSpline
70
4
71
3
72
46
73
42
40
0
40
0
40
0
40
0
40
0.0103177231227127
40
0.0103177231227127
40
0.0751787736575026
40
0.0751787736575026
40
0.204900874727082
40
0.204900874727082
40
0.237331399994477
40
0.237331399994477
40
0.269761925261873
40
0.269761925261873
40
0.334622975796663
40
0.334622975796663
40
0.367053501064058
40
0.367053501064058
40
0.399484026331453
40
0.399484026331453
40
0.464345076866243
40
0.464345076866243
40
0.529206127401033
40
0.529206127401033
40
0.561636652668427
40
0.561636652668427
40
0.594067177935822
40
0.594067177935822
40
0.65892822847061
40
0.65892822847061
40
0.691358753738004
40
0.691358753738004
40
0.723789279005399
40
0.723789279005399
40
0.853511380074978
40
0.853511380074978
40
0.885941905342372
40
0.885941905342372
40
0.918372430609766
40
0.918372430609766
40
0.983233481144555
40
0.983233481144555
40
1
40
1
40
1
40
1
41
1
10
33.8509412523896
20
-3.20053212415374
30
0
41
1
10
33.7682391650985
20
-3.21273759121701
30
0
41
1
10
33.685547762524
20
-3.22425825898694
30
0
41
1
10
33.0836740996525
20
-3.30305647234101
30
0
41
1
10
32.5682116723204
20
-3.3431774958033
30
0
41
1
10
31.0260679210463
20
-3.38010480850591
30
0
41
1
10
30.0035843256003
20
-3.29308905586305
30
0
41
1
10
28.7086469034948
20
-3.05060677249981
30
0
41
1
10
28.4482991006619
20
-2.99531007070587
30
0
41
1
10
27.9282751958553
20
-2.87239987145139
30
0
41
1
10
27.6686868504348
20
-2.80486067004898
30
0
41
1
10
26.8902818435981
20
-2.58513683341985
30
0
41
1
10
26.3719062772988
20
-2.4157131407529
30
0
41
1
10
25.5912603110693
20
-2.13237111470912
30
0
41
1
10
25.331410292235
20
-2.03329510711762
30
0
41
1
10
24.8139368492101
20
-1.82791000445076
30
0
41
1
10
24.5559699281974
20
-1.72150364927668
30
0
41
1
10
23.7834401832107
20
-1.39298595066759
30
0
41
1
10
23.2702794942815
20
-1.16151496054087
30
0
41
1
10
22.24306463319
20
-0.682855910764005
30
0
41
1
10
21.7290126829511
20
-0.435653804370077
30
0
41
1
10
20.9535039636252
20
-0.0607575954618369
30
0
41
1
10
20.6943201973475
20
0.0650142607711075
30
0
41
1
10
20.1738773943143
20
0.316679398396019
30
0
41
1
10
19.9137468365391
20
0.441967384008876
30
0
41
1
10
19.1346846120781
20
0.813538578666311
30
0
41
1
10
18.6163768391704
20
1.05614097000736
30
0
41
1
10
17.8364916008918
20
1.40431448965435
30
0
41
1
10
17.5757828265288
20
1.51804119851644
30
0
41
1
10
17.0568926770241
20
1.73742964133834
30
0
41
1
10
16.7983126159776
20
1.84324874237046
30
0
41
1
10
15.5083388858168
20
2.35087482954066
30
0
41
1
10
14.4858771675309
20
2.68812280052415
30
0
41
1
10
13.1956155336023
20
2.98961985325249
30
0
41
1
10
12.936965744557
20
3.04395202972592
30
0
41
1
10
12.4178299468709
20
3.13988217387285
30
0
41
1
10
12.1569287248376
20
3.18150743624872
30
0
41
1
10
11.3787319574277
20
3.28530450498195
30
0
41
1
10
10.8634572885053
20
3.32688461935763
30
0
41
1
10
10.2164032207471
20
3.3443503180423
30
0
41
1
10
10.0835718981755
20
3.34608067667938
30
0
41
1
10
9.95077488982184
20
3.3459618997145
30
0
0
SPLINE
5
CB
100
AcDbEntity
8
1
62
256
6
ByLayer
370
18
48
1
60
0
100
AcDbSpline
70
4
71
3
72
18
73
14
40
0
40
0
40
0
40
0
40
0.0752237342229456
40
0.0752237342229456
40
0.203592124924482
40
0.203592124924482
40
0.331960515626017
40
0.331960515626017
40
0.845434078432163
40
0.845434078432163
40
0.973802469133698
40
0.973802469133698
40
1
40
1
40
1
40
1
41
1
10
20.8152242965437
20
0.0062467681242993
30
0
41
1
10
20.9673192964353
20
-0.06587549305209
30
0
41
1
10
21.1197010942744
20
-0.138133596548926
30
0
41
1
10
21.5330707267164
20
-0.33369283090687
30
0
41
1
10
21.7935779371314
20
-0.456532564585814
30
0
41
1
10
22.3121211475505
20
-0.698762779065362
30
0
41
1
10
22.5706233475508
20
-0.818296276739659
30
0
41
1
10
23.8607181302829
20
-1.4051978173454
30
0
41
1
10
24.8850349408686
20
-1.83996984296209
30
0
41
1
10
26.1788776634759
20
-2.29581236275672
30
0
41
1
10
26.4383009725938
20
-2.38263010525108
30
0
41
1
10
26.7518331057622
20
-2.48126019994319
30
0
41
1
10
26.8049978223093
20
-2.49776622143628
30
0
41
1
10
26.8581764123251
20
-2.51405415511411
30
0
0
SPLINE
5
CC
100
AcDbEntity
8
1
62
256
6
ByLayer
370
13
48
1
60
0
100
AcDbSpline
70
4
71
3
72
16
73
12
40
0
40
0
40
0
40
0
40
0.0948424888827995
40
0.0948424888827995
40
0.333164407476293
40
0.333164407476293
40
0.809808244663286
40
0.809808244663286
40
0.928969203960037
40
0.928969203960037
40
1
40
1
40
1
40
1
41
1
10
26.8581764124338
20
-2.51405415514742
30
0
41
1
10
27.0655739070116
20
-2.57757740079134
30
0
41
1
10
27.2731824190699
20
-2.6377834989845
30
0
41
1
10
28.0011366849252
20
-2.83612431361388
30
0
41
1
10
28.5212484476978
20
-2.95502057765066
30
0
41
1
10
30.0857829756679
20
-3.2345431224488
30
0
41
1
10
31.1158091637631
20
-3.31437390747544
30
0
41
1
10
32.4108938150595
20
-3.27535521927752
30
0
41
1
10
32.670305172143
20
-3.26065031908189
30
0
41
1
10
33.0854027450886
20
-3.22613181937132
30
0
41
1
10
33.2408044027286
20
-3.21075406130015
30
0
41
1
10
33.3960612649358
20
-3.19299017478184
30
0
0
SPLINE
5
CD
100
AcDbEntity
8
1
62
256
6
ByLayer
370
13
48
1
60
0
100
AcDbSpline
70
4
71
3
72
8
73
4
40
0
40
0
40
0
40
0
40
1
40
1
40
1
40
1
41
1
10
4.14272443087802
20
-2.07015788151969
30
0
41
1
10
4.17668316564513
20
-2.0666878631786
30
0
41
1
10
4.21307107929198
20
-2.06888570092832
30
0
41
1
10
4.25037295906753
20
-2.07668100500425
30
0
0
SPLINE
5
CE
100
AcDbEntity
8
1
62
256
6
ByLayer
370
18
48
1
60
0
100
AcDbSpline
70
4
71
3
72
8
73
4
40
0
40
0
40
0
40
0
40
1
40
1
40
1
40
1
41
1
10
54.9560171631614
20
0.785662048779784
30
0
41
1
10
54.9711835231954
20
0.562776539336625
30
0
41
1
10
54.982326993629
20
0.340157576714233
30
0
41
1
10
54.989448126611
20
0.117805124328612
30
0
0
SPLINE
5
CF
100
AcDbEntity
8
1
62
256
6
ByLayer
370
18
48
1
60
0
100
AcDbSpline
70
4
71
3
72
26
73
22
40
0
40
0
40
0
40
0
40
0.0625
40
0.0625
40
0.125
40
0.125
40
0.1875
40
0.1875
40
0.25
40
0.25
40
0.375
40
0.375
40
0.5
40
0.5
40
0.625
40
0.625
40
0.75
40
0.75
40
0.875
40
0.875
40
1
40
1
40
1
40
1
41
1
10
54.4432180882512
20
-0.933355008608885
30
0
41
1
10
54.4407178893485
20
-0.954151324535331
30
0
41
1
10
54.4371401487682
20
-0.976712737614008
30
0
41
1
10
54.4281461187729
20
-1.02314398120919
30
0
41
1
10
54.4227342836367
20
-1.04712829035051
30
0
41
1
10
54.4101084057552
20
-1.09662982403609
30
0
41
1
10
54.4028410548885
20
-1.1222729082896
30
0
41
1
10
54.3871232641297
20
-1.17302532551724
30
0
41
1
10
54.3786158037207
20
-1.19838431261042
30
0
41
1
10
54.351237338557
20
-1.27442165991221
30
0
41
1
10
54.3311358491619
20
-1.32334164151908
30
0
41
1
10
54.2888474825875
20
-1.41540311590802
30
0
41
1
10
54.2673044959408
20
-1.45720046643649
30
0
41
1
10
54.2239916926508
20
-1.53241192534384
30
0
41
1
10
54.2024181165481
20
-1.56532985568859
30
0
41
1
10
54.1618871705243
20
-1.61886934990579
30
0
41
1
10
54.1425641998261
20
-1.64008621463611
30
0
41
1
10
54.1065418308648
20
-1.67034371883176
30
0
41
1
10
54.0903602284318
20
-1.67901487062437
30
0
41
1
10
54.0616434143181
20
-1.68304476634748
30
0
41
1
10
54.0493467283238
20
-1.67815544486078
30
0
41
1
10
54.039808930633
20
-1.66616855190932
30
0
0
SPLINE
5
D0
100
AcDbEntity
8
1
62
256
6
ByLayer
370
18
48
1
60
0
100
AcDbSpline
70
4
71
3
72
14
73
10
40
0
40
0
40
0
40
0
40
0.337213548736437
40
0.337213548736437
40
0.505820323104656
40
0.505820323104656
40
0.674427097472874
40
0.674427097472874
40
1
40
1
40
1
40
1
41
1
10
53.8515435476697
20
-3.20384801053822
30
0
41
1
10
53.3320329823089
20
-3.20936781770374
30
0
41
1
10
52.8141315532484
20
-3.18758808715791
30
0
41
1
10
52.036705370029
20
-3.11529658597218
30
0
41
1
10
51.7774625078624
20
-3.08460681942469
30
0
41
1
10
51.2581141818437
20
-3.01028989153494
30
0
41
1
10
50.9974776555443
20
-2.96654320431233
30
0
41
1
10
50.2364496589127
20
-2.82068397855471
30
0
41
1
10
49.7387253932829
20
-2.70229464036098
30
0
41
1
10
49.2426862325391
20
-2.56469718353154
30
0
0
SPLINE
5
D1
100
AcDbEntity
8
1
62
256
6
ByLayer
370
13
48
1
60
0
100
AcDbSpline
70
4
71
3
72
22
73
18
40
0
40
0
40
0
40
0
40
0.150769471692968
40
0.150769471692968
40
0.296508021731639
40
0.296508021731639
40
0.369377296750976
40
0.369377296750976
40
0.442246571770314
40
0.442246571770314
40
0.733723671847666
40
0.733723671847666
40
0.879462221886341
40
0.879462221886341
40
0.952331496905678
40
0.952331496905678
40
1
40
1
40
1
40
1
41
1
10
49.2426863593828
20
-2.56469721871704
30
0
41
1
10
48.7111760444719
20
-2.41726033950386
30
0
41
1
10
48.1816004510122
20
-2.24777002238358
30
0
41
1
10
47.1391658040306
20
-1.87854272898542
30
0
41
1
10
46.6262887129932
20
-1.68002939152558
30
0
41
1
10
45.8531396892081
20
-1.36214032673124
30
0
41
1
10
45.5947671025971
20
-1.25286388264831
30
0
41
1
10
45.0761424232025
20
-1.02877582629139
30
0
41
1
10
44.8153009018519
20
-0.913695808098225
30
0
41
1
10
43.5181992465937
20
-0.333188260890921
30
0
41
1
10
42.4955660684286
20
0.150777030514576
30
0
41
1
10
40.9579397950593
20
0.847550728700668
30
0
41
1
10
40.4447305945899
20
1.0748375885376
30
0
41
1
10
39.6708127064818
20
1.40147329284051
30
0
41
1
10
39.4121431774132
20
1.50794917264011
30
0
41
1
10
38.9826171748171
20
1.67902423587904
30
0
41
1
10
38.8122684423253
20
1.74537918643867
30
0
41
1
10
38.6421749620828
20
1.81000776299032
30
0
0
SPLINE
5
D2
100
AcDbEntity
8
1
62
256
6
ByLayer
370
18
48
1
60
0
100
AcDbSpline
70
4
71
3
72
16
73
12
40
0
40
0
40
0
40
0
40
0.0986465083768829
40
0.0986465083768829
40
0.25453605692124
40
0.25453605692124
40
0.566315154009958
40
0.566315154009958
40
0.878094251098674
40
0.878094251098674
40
1
40
1
40
1
40
1
41
1
10
10.1703865690502
20
-3.1776059525672
30
0
41
1
10
10.0057216862849
20
-3.17731139317388
30
0
41
1
10
9.84124659295657
20
-3.174321246587
30
0
41
1
10
9.41804094546285
20
-3.15974967899191
30
0
41
1
10
9.15958345666257
20
-3.14419722211531
30
0
41
1
10
8.38559027086515
20
-3.07813170072987
30
0
41
1
10
7.87149647755695
20
-3.00822609904722
30
0
41
1
10
6.84252793754598
20
-2.819979178099
30
0
41
1
10
6.3277543554438
20
-2.70152106116967
30
0
41
1
10
5.60817100360984
20
-2.50625959276357
30
0
41
1
10
5.40550896102434
20
-2.44800932083868
30
0
41
1
10
5.20231854380265
20
-2.38651857556155
30
0
0
SPLINE
5
D3
100
AcDbEntity
8
1
62
256
6
ByLayer
370
13
48
1
60
0
100
AcDbSpline
70
4
71
3
72
10
73
6
40
0
40
0
40
0
40
0
40
0.178982238324044
40
0.178982238324044
40
1
40
1
40
1
40
1
41
1
10
5.20231950130074
20
-2.38651886532557
30
0
41
1
10
5.1456755666033
20
-2.36937692891235
30
0
41
1
10
5.08899056970949
20
-2.35198316168462
30
0
41
1
10
4.77203728493515
20
-2.25340952888578
30
0
41
1
10
4.51103554975487
20
-2.16727210264409
30
0
41
1
10
4.25037295906756
20
-2.07668100500425
30
0
0
SPLINE
5
D4
100
AcDbEntity
8
1
62
256
6
ByLayer
370
13
48
1
60
0
100
AcDbSpline
70
4
71
3
72
26
73
22
40
0
40
0
40
0
40
0
40
0.125
40
0.125
40
0.25
40
0.25
40
0.3125
40
0.3125
40
0.375
40
0.375
40
0.5
40
0.5
40
0.625
40
0.625
40
0.75
40
0.75
40
0.875
40
0.875
40
0.9375
40
0.9375
40
1
40
1
40
1
40
1
41
1
10
4.25037295906751
20
-2.07668100500425
30
0
41
1
10
4.25046172671568
20
-1.92130277193098
30
0
41
1
10
4.25054443360662
20
-1.75399897535996
30
0
41
1
10
4.25070022126602
20
-1.39771671236923
30
0
41
1
10
4.25077170108622
20
-1.21254416369251
30
0
41
1
10
4.25087231380064
20
-0.924625128264864
30
0
41
1
10
4.25090473772312
20
-0.826946741223594
30
0
41
1
10
4.25096773877971
20
-0.628099708696794
30
0
41
1
10
4.25099837957055
20
-0.526661991963692
30
0
41
1
10
4.2510861496821
20
-0.223548768473876
30
0
41
1
10
4.25113986462327
20
-0.021039362865082
30
0
41
1
10
4.25124024849998
20
0.384838879713641
30
0
41
1
10
4.25128710717453
20
0.589336020179729
30
0
41
1
10
4.25137167846765
20
0.985386515948591
30
0
41
1
10
4.25141004029641
20
1.17993947895803
30
0
41
1
10
4.25147603314502
20
1.54724180568849
30
0
41
1
10
4.25150395222835
20
1.72112060616547
30
0
41
1
10
4.25153710825586
20
1.96717377476909
30
0
41
1
10
4.25154672249209
20
2.04711458306022
30
0
41
1
10
4.25156231830354
20
2.19913178813567
30
0
41
1
10
4.25156833531642
20
2.27136062456711
30
0
41
1
10
4.2515724422189
20
2.33990048683117
30
0
0
SPLINE
5
D5
100
AcDbEntity
8
1
62
256
6
ByLayer
370
18
48
1
60
0
100
AcDbSpline
70
4
71
3
72
10
73
6
40
0
40
0
40
0
40
0
40
0.5
40
0.5
40
1
40
1
40
1
40
1
41
1
10
53.9829918221598
20
-3.28248183102207
30
0
41
1
10
53.9515954932168
20
-3.30580853324523
30
0
41
1
10
53.9214710871108
20
-3.32491852039661
30
0
41
1
10
53.8649846475418
20
-3.35372412052069
30
0
41
1
10
53.8384361379517
20
-3.36356995257731
30
0
41
1
10
53.8134974384662
20
-3.36884034964535
30
0
0
SPLINE
5
D6
100
AcDbEntity
8
1
62
256
6
ByLayer
370
18
48
1
60
0
100
AcDbSpline
70
4
71
3
72
8
73
4
40
0
40
0
40
0
40
0
40
1
40
1
40
1
40
1
41
1
10
54.039808930633
20
-1.66616855190958
30
0
41
1
10
53.8881758103554
20
-1.95018200710749
30
0
41
1
10
53.7401725683297
20
-2.23749240420653
30
0
41
1
10
53.5958381786616
20
-2.52813514256522
30
0
0
SPLINE
5
D7
100
AcDbEntity
8
1
62
256
6
ByLayer
370
18
48
1
60
0
100
AcDbSpline
70
4
71
3
72
86
73
82
40
0
40
0
40
0
40
0
40
0.0061398905014688
40
0.0061398905014688
40
0.0301235816077797
40
0.0301235816077797
40
0.0541072727140906
40
0.0541072727140906
40
0.102074654926711
40
0.102074654926711
40
0.126058346033021
40
0.126058346033021
40
0.150042037139332
40
0.150042037139332
40
0.174025728245642
40
0.174025728245642
40
0.198009419351952
40
0.198009419351952
40
0.245976801564571
40
0.245976801564571
40
0.26996049267088
40
0.26996049267088
40
0.293944183777189
40
0.293944183777189
40
0.317927874883498
40
0.317927874883498
40
0.341911565989807
40
0.341911565989807
40
0.365895257096116
40
0.365895257096116
40
0.389878948202425
40
0.389878948202425
40
0.413862639308734
40
0.413862639308734
40
0.437846330415043
40
0.437846330415043
40
0.461830021521352
40
0.461830021521352
40
0.48581371262766
40
0.48581371262766
40
0.509797403733969
40
0.509797403733969
40
0.533781094840278
40
0.533781094840278
40
0.557764785946587
40
0.557764785946587
40
0.581748477052896
40
0.581748477052896
40
0.605732168159205
40
0.605732168159205
40
0.629715859265514
40
0.629715859265514
40
0.653699550371823
40
0.653699550371823
40
0.677683241478132
40
0.677683241478132
40
0.701666932584441
40
0.701666932584441
40
0.72565062369075
40
0.72565062369075
40
0.749634314797059
40
0.749634314797059
40
0.773618005903368
40
0.773618005903368
40
0.821585388115986
40
0.821585388115986
40
0.845569079222295
40
0.845569079222295
40
0.869552770328604
40
0.869552770328604
40
0.893536461434913
40
0.893536461434913
40
0.917520152541221
40
0.917520152541221
40
0.94150384364753
40
0.94150384364753
40
0.965487534753839
40
0.965487534753839
40
0.989471225860148
40
0.989471225860148
40
1
40
1
40
1
40
1
41
1
10
47.0133505922005
20
-2.40642647710308
30
0
41
1
10
46.9591331547016
20
-2.42290891737108
30
0
41
1
10
46.9049190958946
20
-2.43917012047709
30
0
41
1
10
46.6389486871793
20
-2.51785124528956
30
0
41
1
10
46.4270589931372
20
-2.57661002684108
30
0
41
1
10
46.0024824804697
20
-2.68681319180476
30
0
41
1
10
45.7896479062722
20
-2.73851627451046
30
0
41
1
10
45.1523051776888
20
-2.88286797360163
30
0
41
1
10
44.7290617698835
20
-2.96433364910641
30
0
41
1
10
44.0932669163333
20
-3.05953668580605
30
0
41
1
10
43.8813197218683
20
-3.0868347611945
30
0
41
1
10
43.4572220627706
20
-3.13145864983767
30
0
41
1
10
43.2449645059922
20
-3.14910327298196
30
0
41
1
10
42.8196351848535
20
-3.17691652095422
30
0
41
1
10
42.6074338930374
20
-3.18678173509343
30
0
41
1
10
42.1843318938113
20
-3.19723014492555
30
0
41
1
10
41.9735045138727
20
-3.19751869822579
30
0
41
1
10
41.3418212726999
20
-3.18594418613301
30
0
41
1
10
40.9215975378947
20
-3.16232650274625
30
0
41
1
10
40.2923669653679
20
-3.09682991541226
30
0
41
1
10
40.0827336758207
20
-3.07087252170712
30
0
41
1
10
39.6630634402656
20
-3.01176178817227
30
0
41
1
10
39.453057363734
20
-2.97820994042019
30
0
41
1
10
39.0326236566272
20
-2.90206146445695
30
0
41
1
10
38.8222367191137
20
-2.85905440427101
30
0
41
1
10
38.4008124932723
20
-2.7664831741989
30
0
41
1
10
38.1896865440733
20
-2.71682649729834
30
0
41
1
10
37.7661771062539
20
-2.60933592556668
30
0
41
1
10
37.5535008578372
20
-2.55137333718181
30
0
41
1
10
37.1283288172209
20
-2.42742046010244
30
0
41
1
10
36.9161278168621
20
-2.36228585836656
30
0
41
1
10
36.4917279564287
20
-2.22643275172948
30
0
41
1
10
36.2795839746474
20
-2.1554772641891
30
0
41
1
10
35.8553565184254
20
-2.00700872313786
30
0
41
1
10
35.6433506522165
20
-1.92924355779968
30
0
41
1
10
35.2191286267169
20
-1.76935161469379
30
0
41
1
10
35.0067754058242
20
-1.68712907000017
30
0
41
1
10
34.5812729355158
20
-1.51778606001443
30
0
41
1
10
34.3684486786461
20
-1.43071823556724
30
0
41
1
10
33.9438789301444
20
-1.25252317628494
30
0
41
1
10
33.7319139438752
20
-1.16163200898202
30
0
41
1
10
33.3077666342405
20
-0.977480766262715
30
0
41
1
10
33.0956403838275
20
-0.884118194486916
30
0
41
1
10
32.6712108812258
20
-0.694768270879706
30
0
41
1
10
32.4590241849457
20
-0.598608694043094
30
0
41
1
10
32.0342866074959
20
-0.404734642898262
30
0
41
1
10
31.8213600913838
20
-0.307144868553649
30
0
41
1
10
31.3962419941727
20
-0.112037029391217
30
0
41
1
10
31.1838965136529
20
-0.0144770424704461
30
0
41
1
10
30.7597574453702
20
0.181118701121505
30
0
41
1
10
30.5479443854542
20
0.279136213119813
30
0
41
1
10
30.1238529348437
20
0.47326911078963
30
0
41
1
10
29.9116047774419
20
0.569436640299898
30
0
41
1
10
29.4867652693433
20
0.7602151737604
30
0
41
1
10
29.2741115359757
20
0.855281098406891
30
0
41
1
10
28.849192066381
20
1.04295473378144
30
0
41
1
10
28.6372730132001
20
1.13491261368628
30
0
41
1
10
28.2143607764133
20
1.31403411391915
30
0
41
1
10
28.0033405947678
20
1.40137202698304
30
0
41
1
10
27.5822413565607
20
1.57316912252375
30
0
41
1
10
27.3721546506141
20
1.65743192496052
30
0
41
1
10
26.9520177647156
20
1.8196746935833
30
0
41
1
10
26.7420043868884
20
1.89765926404365
30
0
41
1
10
26.1121599877337
20
2.12414336433682
30
0
41
1
10
25.6931691749183
20
2.26705191492948
30
0
41
1
10
25.0618221745101
20
2.4570511098263
30
0
41
1
10
24.851082474729
20
2.51738625331063
30
0
41
1
10
24.429204401087
20
2.6321632496163
30
0
41
1
10
24.2180938074541
20
2.68669707397172
30
0
41
1
10
23.794151896763
20
2.7865682818146
30
0
41
1
10
23.5809452101656
20
2.83195597264097
30
0
41
1
10
23.1560509427208
20
2.91596809969818
30
0
41
1
10
22.9442936190178
20
2.95425978871344
30
0
41
1
10
22.5218675825957
20
3.02269749915504
30
0
41
1
10
22.3110499218073
20
3.05176398751922
30
0
41
1
10
21.8898331051137
20
3.10061307347402
30
0
41
1
10
21.6794335934518
20
3.12142604648241
30
0
41
1
10
21.2592885115132
20
3.15513117458491
30
0
41
1
10
21.0495830935841
20
3.16821938353368
30
0
41
1
10
20.7475052478339
20
3.17897733433861
30
0
41
1
10
20.655316550532
20
3.18127324181759
30
0
41
1
10
20.5631038083795
20
3.18272901506794
30
0
0
SPLINE
5
D8
100
AcDbEntity
8
1
62
256
6
ByLayer
370
18
48
1
60
0
100
AcDbSpline
70
4
71
3
72
8
73
4
40
0
40
0
40
0
40
0
40
1
40
1
40
1
40
1
41
1
10
54.9642603538557
20
-0.048063190199457
30
0
41
1
10
54.7864739617041
20
-0.339431399503354
30
0
41
1
10
54.6127745502744
20
-0.634511727246348
30
0
41
1
10
54.4432180882528
20
-0.933355008606526
30
0
0
SPLINE
5
D9
100
AcDbEntity
8
1
62
256
6
ByLayer
370
18
48
1
60
0
100
AcDbSpline
70
4
71
3
72
8
73
4
40
0
40
0
40
0
40
0
40
1
40
1
40
1
40
1
41
1
10
54.9999512777247
20
0.0417782434308549
30
0
41
1
10
55.0000162447582
20
0.0139243658905173
30
0
41
1
10
55.0000162344263
20
-0.013928795555131
30
0
41
1
10
54.9999512777247
20
-0.0417782434234653
30
0
0
SPLINE
5
DA
100
AcDbEntity
8
1
62
256
6
ByLayer
370
18
48
1
60
0
100
AcDbSpline
70
4
71
3
72
8
73
4
40
0
40
0
40
0
40
0
40
1
40
1
40
1
40
1
41
1
10
4.03830920529359
20
-2.16272631705408
30
0
41
1
10
4.02277207097694
20
-2.14385685148631
30
0
41
1
10
4.01373347185569
20
-2.12207140624167
30
0
41
1
10
4.01373821803929
20
-2.09930373066814
30
0
0
SPLINE
5
DB
100
AcDbEntity
8
1
62
256
6
ByLayer
370
18
48
1
60
0
100
AcDbSpline
70
4
71
3
72
16
73
12
40
0
40
0
40
0
40
0
40
0.124999999999999
40
0.124999999999999
40
0.249999999999998
40
0.249999999999998
40
0.499999999999999
40
0.499999999999999
40
0.749999999999999
40
0.749999999999999
40
1
40
1
40
1
40
1
41
1
10
4.25157244432327
20
2.33990048597258
30
0
41
1
10
4.48293457948853
20
2.24315274447593
30
0
41
1
10
4.71755176856962
20
2.14322585101968
30
0
41
1
10
5.19137543301866
20
1.93734353297643
30
0
41
1
10
5.43102976075306
20
1.8312006568168
30
0
41
1
10
6.15275186314733
20
1.50618798764197
30
0
41
1
10
6.63425962199815
20
1.28191149800693
30
0
41
1
10
7.60024477875024
20
0.827129244520421
30
0
41
1
10
8.08476207842509
20
0.595393630675744
30
0
41
1
10
9.06235288371107
20
0.138222681786942
30
0
41
1
10
9.55559809817646
20
-0.0876671036720609
30
0
41
1
10
10.0566834234029
20
-0.301536309336427
30
0
0
SPLINE
5
DC
100
AcDbEntity
8
1
62
256
6
ByLayer
370
18
48
1
60
0
100
AcDbSpline
70
4
71
3
72
10
73
6
40
0
40
0
40
0
40
0
40
0.5
40
0.5
40
1
40
1
40
1
40
1
41
1
10
53.8738245661413
20
0.82402156055133
30
0
41
1
10
54.0542307437368
20
0.817188112054282
30
0
41
1
10
54.2346429704763
20
0.810289310066594
30
0
41
1
10
54.5954082130635
20
0.79713140626626
30
0
41
1
10
54.7757292032701
20
0.791218301746966
30
0
41
1
10
54.9560171631613
20
0.785662048779812
30
0
0
SPLINE
5
DD
100
AcDbEntity
8
1
62
256
6
ByLayer
370
18
48
1
60
0
100
AcDbSpline
70
4
71
3
72
42
73
38
40
0
40
0
40
0
40
0
40
0.0028135315551937
40
0.0028135315551937
40
0.0298705427195315
40
0.0298705427195315
40
0.0569275538838693
40
0.0569275538838693
40
0.0839845650482072
40
0.0839845650482072
40
0.111041576212545
40
0.111041576212545
40
0.165155598541223
40
0.165155598541223
40
0.219269620869901
40
0.219269620869901
40
0.23279812645207
40
0.23279812645207
40
0.239562379243156
40
0.239562379243156
40
0.246326632034243
40
0.246326632034243
40
0.253090884825329
40
0.253090884825329
40
0.259855137616415
40
0.259855137616415
40
0.273383643198587
40
0.273383643198587
40
0.38161168785595
40
0.38161168785595
40
0.598067777170675
40
0.598067777170675
40
0.706295821828038
40
0.706295821828038
40
0.814523866485401
40
0.814523866485401
40
1
40
1
40
1
40
1
41
1
10
2.03722384806079
20
-3.34057490582853
30
0
41
1
10
2.03908889531621
20
-3.34067773663577
30
0
41
1
10
2.04102075546308
20
-3.34076343498174
30
0
41
1
10
2.06223270997589
20
-3.34149492882759
30
0
41
1
10
2.08792433249113
20
-3.34056669163553
30
0
41
1
10
2.14808959641573
20
-3.33629277733499
30
0
41
1
10
2.1825586422051
20
-3.3329810467776
30
0
41
1
10
2.25842637461054
20
-3.32466868111746
30
0
41
1
10
2.30010853774547
20
-3.3196278831424
30
0
41
1
10
2.38743527065822
20
-3.30851666826553
30
0
41
1
10
2.43312783854333
20
-3.30244702457836
30
0
41
1
10
2.57496072578317
20
-3.28321223047556
30
0
41
1
10
2.67576617904061
20
-3.26904232415561
30
0
41
1
10
2.88587301232536
20
-3.23951734239412
30
0
41
1
10
2.99452351118052
20
-3.22424304391112
30
0
41
1
10
3.13299251334186
20
-3.20509656013439
30
0
41
1
10
3.16083392029657
20
-3.20126186085247
30
0
41
1
10
3.20280087523903
20
-3.19550855807728
30
0
41
1
10
3.21677074019874
20
-3.19355472071359
30
0
41
1
10
3.24476350704777
20
-3.18965713230031
30
0
41
1
10
3.25902976929325
20
-3.18793260006902
30
0
41
1
10
3.28898251834738
20
-3.1857763139391
30
0
41
1
10
3.30462938474005
20
-3.18523546037622
30
0
41
1
10
3.33639732048016
20
-3.18491835798221
30
0
41
1
10
3.35217070020218
20
-3.18525263353016
30
0
41
1
10
3.3995120997316
20
-3.18615921649669
30
0
41
1
10
3.43107926275422
20
-3.18673442660076
30
0
41
1
10
3.71507934801105
20
-3.19235889910138
30
0
41
1
10
3.96726102884585
20
-3.19891406095269
30
0
41
1
10
4.72116960990695
20
-3.22217192355555
30
0
41
1
10
5.22065955080677
20
-3.24258088537525
30
0
41
1
10
5.96554583211235
20
-3.27399408296009
30
0
41
1
10
6.21313060634589
20
-3.28456249408879
30
0
41
1
10
6.70493253215179
20
-3.30435528485748
30
0
41
1
10
6.94940586792043
20
-3.31359198857086
30
0
41
1
10
7.60923372272751
20
-3.3347844085151
30
0
41
1
10
8.02199465586989
20
-3.34394129736484
30
0
41
1
10
8.43162927802993
20
-3.34497419039985
30
0
0
SPLINE
5
DE
100
AcDbEntity
8
1
62
256
6
ByLayer
370
18
48
1
60
0
100
AcDbSpline
70
4
71
3
72
12
73
8
40
0
40
0
40
0
40
0
40
0.62988148904304
40
0.62988148904304
40
0.973702938668091
40
0.973702938668091
40
1
40
1
40
1
40
1
41
1
10
31.9143101413775
20
-3.19111959548579
30
0
41
1
10
30.9668280884809
20
-3.18905921145603
30
0
41
1
10
30.0227523744203
20
-3.09707087239519
30
0
41
1
10
28.5472852639539
20
-2.82252533780522
30
0
41
1
10
28.0277616381378
20
-2.70109109089282
30
0
41
1
10
27.4677775576412
20
-2.54683944985237
30
0
41
1
10
27.4279764358869
20
-2.53574880589218
30
0
41
1
10
27.3881655835898
20
-2.5245302382491
30
0
0
SPLINE
5
DF
100
AcDbEntity
8
1
62
256
6
ByLayer
370
13
48
1
60
0
100
AcDbSpline
70
4
71
3
72
20
73
16
40
0
40
0
40
0
40
0
40
0.0642320714788518
40
0.0642320714788518
40
0.140064117074981
40
0.140064117074981
40
0.443392299459492
40
0.443392299459492
40
0.519224345055621
40
0.519224345055621
40
0.59505639065175
40
0.59505639065175
40
0.74672048184401
40
0.74672048184401
40
1
40
1
40
1
40
1
41
1
10
27.3881655833299
20
-2.5245302381758
30
0
41
1
10
27.1677225469836
20
-2.46241011333245
30
0
41
1
10
26.9469811600591
20
-2.39636768881448
30
0
41
1
10
26.4665782625723
20
-2.24494413182865
30
0
41
1
10
26.2074004576922
20
-2.15833701967264
30
0
41
1
10
24.9146309855263
20
-1.70486383291677
30
0
41
1
10
23.8904826719642
20
-1.27656960825476
30
0
41
1
10
22.6010705329077
20
-0.702828546413997
30
0
41
1
10
22.3427162258532
20
-0.586201611534193
30
0
41
1
10
21.8245307168603
20
-0.350327714849328
30
0
41
1
10
21.564238578851
20
-0.230894647368331
30
0
41
1
10
20.7832642597525
20
0.128039495462957
30
0
41
1
10
20.2664380131521
20
0.366587263789995
30
0
41
1
10
18.8904638832912
20
0.98765200207265
30
0
41
1
10
18.0342261350212
20
1.36017750106669
30
0
41
1
10
17.1720394205271
20
1.69522431651677
30
0
0
SPLINE
5
E0
100
AcDbEntity
8
1
62
256
6
ByLayer
370
18
48
1
60
0
100
AcDbSpline
70
4
71
3
72
14
73
10
40
0
40
0
40
0
40
0
40
0.25
40
0.25
40
0.5
40
0.5
40
0.75
40
0.75
40
1
40
1
40
1
40
1
41
1
10
4.01421615357788
20
2.49021635613073
30
0
41
1
10
4.02265528218032
20
2.47887004770982
30
0
41
1
10
4.03505861718816
20
2.4662816115403
30
0
41
1
10
4.06753395529594
20
2.43957886501286
30
0
41
1
10
4.08764018666147
20
2.42548811697989
30
0
41
1
10
4.13197613642515
20
2.39808654840687
30
0
41
1
10
4.15624718507428
20
2.38472855671131
30
0
41
1
10
4.20432349189687
20
2.36056741272643
30
0
41
1
10
4.22842769007212
20
2.34957883156463
30
0
41
1
10
4.25157244221887
20
2.33990048685257
30
0
0
SPLINE
5
E1
100
AcDbEntity
8
1
62
256
6
ByLayer
370
13
48
1
60
0
100
AcDbSpline
70
4
71
3
72
8
73
4
40
0
40
0
40
0
40
0
40
1
40
1
40
1
40
1
41
1
10
4.14272443087802
20
-2.19585327075657
30
0
41
1
10
4.16326447325841
20
-2.19661807824107
30
0
41
1
10
4.18512625260351
20
-2.20100727063385
30
0
41
1
10
4.20747735824867
20
-2.20882135894945
30
0
0
SPLINE
5
E2
100
AcDbEntity
8
1
62
256
6
ByLayer
370
18
48
1
60
0
100
AcDbSpline
70
4
71
3
72
8
73
4
40
0
40
0
40
0
40
0
40
1
40
1
40
1
40
1
41
1
10
54.9560171631614
20
-0.78566204877967
30
0
41
1
10
54.9711792740966
20
-0.56283898428245
30
0
41
1
10
54.9823249975025
20
-0.340219904388817
30
0
41
1
10
54.9894481266111
20
-0.117805124328555
30
0
0
SPLINE
5
E3
100
AcDbEntity
8
1
62
256
6
ByLayer
370
18
48
1
60
0
100
AcDbSpline
70
4
71
3
72
28
73
24
40
0
40
0
40
0
40
0
40
0.223513492862717
40
0.223513492862717
40
0.335270239294076
40
0.335270239294076
40
0.447026985725435
40
0.447026985725435
40
0.558783732156794
40
0.558783732156794
40
0.670540478588152
40
0.670540478588152
40
0.726418851803832
40
0.726418851803832
40
0.782297225019511
40
0.782297225019511
40
0.838175598235191
40
0.838175598235191
40
0.89405397145087
40
0.89405397145087
40
0.949932344666549
40
0.949932344666549
40
1
40
1
40
1
40
1
41
1
10
4.01421615357776
20
2.4902163561309
30
0
41
1
10
3.80704665023163
20
2.57564448537238
30
0
41
1
10
3.60063291744632
20
2.65922029540144
30
0
41
1
10
3.29968558972826
20
2.7793957039483
30
0
41
1
10
3.20065963546909
20
2.81865897288125
30
0
41
1
10
3.00594420956787
20
2.89549873357186
30
0
41
1
10
2.90995422680885
20
2.93318963069928
30
0
41
1
10
2.72405182020014
20
3.00613053241369
30
0
41
1
10
2.63428955872195
20
3.04131821485649
30
0
41
1
10
2.4636265197741
20
3.1087254666968
30
0
41
1
10
2.38265439127491
20
3.14095593665533
30
0
41
1
10
2.27134514033804
20
3.18649888367969
30
0
41
1
10
2.23595519055633
20
3.20120952318956
30
0
41
1
10
2.16973165709851
20
3.22951107489647
30
0
41
1
10
2.13889806751885
20
3.24311086708118
30
0
41
1
10
2.0851928759725
20
3.26813081835013
30
0
41
1
10
2.06206087993917
20
3.27965365803297
30
0
41
1
10
2.02546062293402
20
3.30035025967729
30
0
41
1
10
2.01234372609704
20
3.30935338825986
30
0
41
1
10
1.99866054073397
20
3.3240464548536
30
0
41
1
10
1.99798067021922
20
3.32981992312179
30
0
41
1
10
2.01004330062818
20
3.33753070318778
30
0
41
1
10
2.02115313080734
20
3.3396888229185
30
0
41
1
10
2.03722366683056
20
3.34057489583626
30
0
0
SPLINE
5
E4
100
AcDbEntity
8
1
62
256
6
ByLayer
370
18
48
1
60
0
100
AcDbSpline
70
4
71
3
72
42
73
38
40
0
40
0
40
0
40
0
40
0.0163852492788648
40
0.0163852492788648
40
0.0382433548504528
40
0.0382433548504528
40
0.0601014604220408
40
0.0601014604220408
40
0.0819595659936287
40
0.0819595659936287
40
0.125675777136805
40
0.125675777136805
40
0.169391988279981
40
0.169391988279981
40
0.180321041065776
40
0.180321041065776
40
0.185785567458672
40
0.185785567458672
40
0.191250093851569
40
0.191250093851569
40
0.196714620244465
40
0.196714620244465
40
0.202179146637362
40
0.202179146637362
40
0.213108199423152
40
0.213108199423152
40
0.300540621709469
40
0.300540621709469
40
0.4754054662821
40
0.4754054662821
40
0.562837888568416
40
0.562837888568416
40
0.650270310854733
40
0.650270310854733
40
0.825135155427367
40
0.825135155427367
40
1
40
1
40
1
40
1
41
1
10
2.05863669127484
20
3.34103684484208
30
0
41
1
10
2.07537337827352
20
3.34095432725994
30
0
41
1
10
2.09545645466412
20
3.34003163797553
30
0
41
1
10
2.14808959641562
20
3.33629277733502
30
0
41
1
10
2.18255864220498
20
3.3329810467776
30
0
41
1
10
2.25842637461042
20
3.32466868111749
30
0
41
1
10
2.3001085377453
20
3.3196278831424
30
0
41
1
10
2.3874352706581
20
3.30851666826553
30
0
41
1
10
2.43312783854321
20
3.30244702457836
30
0
41
1
10
2.574960725783
20
3.28321223047558
30
0
41
1
10
2.67576617904044
20
3.26904232415564
30
0
41
1
10
2.88587301232519
20
3.23951734239415
30
0
41
1
10
2.99452351118032
20
3.22424304391114
30
0
41
1
10
3.13299251334166
20
3.20509656013442
30
0
41
1
10
3.1608339202964
20
3.20126186085247
30
0
41
1
10
3.20280087523881
20
3.19550855807731
30
0
41
1
10
3.21677074019854
20
3.19355472071362
30
0
41
1
10
3.24476350704754
20
3.18965713230034
30
0
41
1
10
3.25902976929302
20
3.18793260006905
30
0
41
1
10
3.28898251834715
20
3.18577631393913
30
0
41
1
10
3.3046293847398
20
3.18523546037622
30
0
41
1
10
3.3363973204799
20
3.18491835798221
30
0
41
1
10
3.35217070020195
20
3.18525263353016
30
0
41
1
10
3.39951209973134
20
3.18615921649669
30
0
41
1
10
3.43107926275397
20
3.18673442660076
30
0
41
1
10
3.71507934801082
20
3.19235889910138
30
0
41
1
10
3.96726102884563
20
3.19891406095269
30
0
41
1
10
4.72116960990675
20
3.22217192355555
30
0
41
1
10
5.22065955080657
20
3.24258088537522
30
0
41
1
10
5.96554583211218
20
3.27399408296009
30
0
41
1
10
6.21313060634571
20
3.28456249408879
30
0
41
1
10
6.7049325321517
20
3.30435528485748
30
0
41
1
10
6.94940586792032
20
3.31359198857084
30
0
41
1
10
7.67883245266324
20
3.33701978779112
30
0
41
1
10
8.15977153155382
20
3.34688232781841
30
0
41
1
10
9.11349714229141
20
3.3427049690103
30
0
41
1
10
9.58628216616006
20
3.32860190527955
30
0
41
1
10
10.0566834234029
20
3.29726722729296
30
0
0
SPLINE
5
E5
100
AcDbEntity
8
1
62
256
6
ByLayer
370
18
48
1
60
0
100
AcDbSpline
70
4
71
3
72
10
73
6
40
0
40
0
40
0
40
0
40
0.5
40
0.5
40
1
40
1
40
1
40
1
41
1
10
4.14123711427229
20
-2.23217400621519
30
0
41
1
10
4.12002442173056
20
-2.22453653057721
30
0
41
1
10
4.10073280187117
20
-2.21486208196845
30
0
41
1
10
4.06589998223774
20
-2.19141277281963
30
0
41
1
10
4.05067849222746
20
-2.17774851028096
30
0
41
1
10
4.03830920529367
20
-2.16272631705422
30
0
0
SPLINE
5
E6
100
AcDbEntity
8
1
62
256
6
ByLayer
370
13
48
1
60
0
100
AcDbSpline
70
4
71
3
72
8
73
4
40
0
40
0
40
0
40
0
40
1
40
1
40
1
40
1
41
1
10
4.03830920529396
20
-2.16272631705559
30
0
41
1
10
4.06237085422839
20
-2.1765184993173
30
0
41
1
10
4.09787945242883
20
-2.18831975083532
30
0
41
1
10
4.14272443087802
20
-2.19585327075657
30
0
0
SPLINE
5
E7
100
AcDbEntity
8
1
62
256
6
ByLayer
370
18
48
1
60
0
100
AcDbSpline
70
4
71
3
72
82
73
78
40
0
40
0
40
0
40
0
40
0.0216439660842785
40
0.0216439660842785
40
0.046958497186007
40
0.046958497186007
40
0.0722730282877354
40
0.0722730282877354
40
0.0975875593894639
40
0.0975875593894639
40
0.122902090491192
40
0.122902090491192
40
0.148216621592921
40
0.148216621592921
40
0.198845683796379
40
0.198845683796379
40
0.224160214898109
40
0.224160214898109
40
0.249474745999839
40
0.249474745999839
40
0.274789277101568
40
0.274789277101568
40
0.300103808203298
40
0.300103808203298
40
0.325418339305028
40
0.325418339305028
40
0.350732870406757
40
0.350732870406757
40
0.376047401508487
40
0.376047401508487
40
0.401361932610217
40
0.401361932610217
40
0.426676463711946
40
0.426676463711946
40
0.451990994813676
40
0.451990994813676
40
0.477305525915406
40
0.477305525915406
40
0.502620057017135
40
0.502620057017135
40
0.527934588118865
40
0.527934588118865
40
0.553249119220595
40
0.553249119220595
40
0.578563650322324
40
0.578563650322324
40
0.603878181424054
40
0.603878181424054
40
0.629192712525784
40
0.629192712525784
40
0.654507243627513
40
0.654507243627513
40
0.679821774729243
40
0.679821774729243
40
0.705136305830973
40
0.705136305830973
40
0.730450836932702
40
0.730450836932702
40
0.755765368034432
40
0.755765368034432
40
0.781079899136162
40
0.781079899136162
40
0.806394430237891
40
0.806394430237891
40
0.831708961339621
40
0.831708961339621
40
0.857023492441351
40
0.857023492441351
40
0.90765255464481
40
0.90765255464481
40
0.932967085746539
40
0.932967085746539
40
0.958281616848268
40
0.958281616848268
40
0.983596147949998
40
0.983596147949998
40
1
40
1
40
1
40
1
41
1
10
25.2510217734078
20
2.39537425622484
30
0
41
1
10
25.4469361604099
20
2.46165646302876
30
0
41
1
10
25.643251941198
20
2.52520504379808
30
0
41
1
10
26.0696896304327
20
2.65754461357835
30
0
41
1
10
26.3003813966492
20
2.72525282700485
30
0
41
1
10
26.7616169573729
20
2.849791917728
30
0
41
1
10
26.99212917813
20
2.90713311563053
30
0
41
1
10
27.4525047073495
20
3.01248087625589
30
0
41
1
10
27.6820363029934
20
3.06072823816393
30
0
41
1
10
28.1420533196081
20
3.14625451771593
30
0
41
1
10
28.3725362664532
20
3.18362123117842
30
0
41
1
10
28.8339655504203
20
3.2479935787911
30
0
41
1
10
29.0649612530451
20
3.27505242944471
30
0
41
1
10
29.7540248919914
20
3.33957019754956
30
0
41
1
10
30.2122697263804
20
3.36000947461213
30
0
41
1
10
30.8957400282816
20
3.35828243746772
30
0
41
1
10
31.1231113655787
20
3.35215863866617
30
0
41
1
10
31.5786168568931
20
3.3292346650893
30
0
41
1
10
31.8064877469878
20
3.31244693579688
30
0
41
1
10
32.2620554859482
20
3.26805244498493
30
0
41
1
10
32.4894343994178
20
3.24021647575714
30
0
41
1
10
32.9456596058819
20
3.17431288755566
30
0
41
1
10
33.1744612782852
20
3.13631316951685
30
0
41
1
10
33.6329781660805
20
3.04989860153518
30
0
41
1
10
33.8625552584174
20
3.00133193002478
30
0
41
1
10
34.322872208671
20
2.89348796676998
30
0
41
1
10
34.5538053102627
20
2.83486961940776
30
0
41
1
10
35.0135066269003
20
2.70941249283629
30
0
41
1
10
35.2427620133763
20
2.64242886555243
30
0
41
1
10
35.699460335412
20
2.49907365618327
30
0
41
1
10
35.9272117892752
20
2.42308423154117
30
0
41
1
10
36.3830893777402
20
2.26495355873459
30
0
41
1
10
36.6109613392272
20
2.18246657977667
30
0
41
1
10
37.0661646667052
20
2.01000802438261
30
0
41
1
10
37.2931810475068
20
1.91945834394196
30
0
41
1
10
37.7483604883499
20
1.73363061720312
30
0
41
1
10
37.9764540262348
20
1.63828805820125
30
0
41
1
10
38.4331763497555
20
1.4419162520114
30
0
41
1
10
38.6616580421782
20
1.34058465086198
30
0
41
1
10
39.1194335944146
20
1.13249470955412
30
0
41
1
10
39.3492609407115
20
1.02684078413708
30
0
41
1
10
39.8106924661811
20
0.812156824729698
30
0
41
1
10
40.0414502524812
20
0.703441021326569
30
0
41
1
10
40.5000348779683
20
0.483054658979512
30
0
41
1
10
40.7285618416796
20
0.371945103020977
30
0
41
1
10
41.1855803071853
20
0.151080811415397
30
0
41
1
10
41.4138265977529
20
0.0407905151690215
30
0
41
1
10
41.8693910426351
20
-0.180372034395703
30
0
41
1
10
42.0963986322186
20
-0.291890958624492
30
0
41
1
10
42.5512263896597
20
-0.511818862525331
30
0
41
1
10
42.7789541655241
20
-0.620433959120845
30
0
41
1
10
43.2345616149866
20
-0.835971867299946
30
0
41
1
10
43.4622839953037
20
-0.943215328026923
30
0
41
1
10
43.9181944644352
20
-1.15531363254056
30
0
41
1
10
44.1469068177302
20
-1.25910139774015
30
0
41
1
10
44.6057070232728
20
-1.46245366861891
30
0
41
1
10
44.8357686361618
20
-1.56207354781373
30
0
41
1
10
45.2966599131628
20
-1.75824728067343
30
0
41
1
10
45.5264649067767
20
-1.85348295298155
30
0
41
1
10
45.9853363677541
20
-2.03544470866132
30
0
41
1
10
46.2143134516053
20
-2.12271919263498
30
0
41
1
10
46.67095536394
20
-2.29061326893981
30
0
41
1
10
46.8983172173859
20
-2.37164564401292
30
0
41
1
10
47.3535001579563
20
-2.52424431786633
30
0
41
1
10
47.5812111474916
20
-2.59604988798034
30
0
41
1
10
48.0363977536747
20
-2.73144972483806
30
0
41
1
10
48.2637038540466
20
-2.79523069461558
30
0
41
1
10
48.9458184606354
20
-2.97318391789486
30
0
41
1
10
49.4030985012225
20
-3.07179894713451
30
0
41
1
10
50.0903757203181
20
-3.19151490374438
30
0
41
1
10
50.3201731142995
20
-3.22636046016595
30
0
41
1
10
50.7816082642829
20
-3.28484869743326
30
0
41
1
10
51.0117776972273
20
-3.30854618811992
30
0
41
1
10
51.4706219414827
20
-3.34515655300905
30
0
41
1
10
51.6989971301148
20
-3.35807108655337
30
0
41
1
10
52.0756377355811
20
-3.37003543544711
30
0
41
1
10
52.2237514856868
20
-3.37241583205784
30
0
41
1
10
52.3718169699411
20
-3.37249803465855
30
0
0
SPLINE
5
E8
100
AcDbEntity
8
1
62
256
6
ByLayer
370
18
48
1
60
0
100
AcDbSpline
70
4
71
3
72
40
73
36
40
0
40
0
40
0
40
0
40
0.0624999999999952
40
0.0624999999999952
40
0.12499999999999
40
0.12499999999999
40
0.249999999999981
40
0.249999999999981
40
0.312499999999976
40
0.312499999999976
40
0.374999999999972
40
0.374999999999972
40
0.406249999999966
40
0.406249999999966
40
0.43749999999996
40
0.43749999999996
40
0.453124999999958
40
0.453124999999958
40
0.468749999999955
40
0.468749999999955
40
0.499999999999954
40
0.499999999999954
40
0.531249999999953
40
0.531249999999953
40
0.562499999999952
40
0.562499999999952
40
0.624999999999959
40
0.624999999999959
40
0.687499999999966
40
0.687499999999966
40
0.749999999999972
40
0.749999999999972
40
0.874999999999986
40
0.874999999999986
40
1
40
1
40
1
40
1
41
1
10
54.0398089306327
20
-1.66616855190929
30
0
41
1
10
53.9804245501976
20
-1.64931538132362
30
0
41
1
10
53.921108848183
20
-1.62963743046774
30
0
41
1
10
53.8026137460627
20
-1.58467535813486
30
0
41
1
10
53.7432170610366
20
-1.55928579535302
30
0
41
1
10
53.5669840989924
20
-1.4747698199167
30
0
41
1
10
53.4523408673042
20
-1.4081844751289
30
0
41
1
10
53.2868326262087
20
-1.28506747095443
30
0
41
1
10
53.2329850790224
20
-1.2402093904023
30
0
41
1
10
53.1314176393838
20
-1.14029423484232
30
0
41
1
10
53.0836293341097
20
-1.08565949338387
30
0
41
1
10
53.0241467793513
20
-0.992100534748459
30
0
41
1
10
53.0063022973112
20
-0.958608204236242
30
0
41
1
10
52.9798219314671
20
-0.888436712031876
30
0
41
1
10
52.9713414349848
20
-0.852045537555881
30
0
41
1
10
52.9705494795715
20
-0.79804099923868
30
0
41
1
10
52.9722867046855
20
-0.780943210590806
30
0
41
1
10
52.9796277893689
20
-0.748493762086412
30
0
41
1
10
52.9853467595418
20
-0.733015070977615
30
0
41
1
10
53.0069443117358
20
-0.691313301352125
30
0
41
1
10
53.0273970311405
20
-0.668992426976331
30
0
41
1
10
53.0729624302129
20
-0.633703881007364
30
0
41
1
10
53.098629212785
20
-0.620202004940694
30
0
41
1
10
53.1514762867137
20
-0.5993120172582
30
0
41
1
10
53.1789431674124
20
-0.591758383112079
30
0
41
1
10
53.2634710280594
20
-0.574992521539627
30
0
41
1
10
53.3221357290332
20
-0.571718640629996
30
0
41
1
10
53.4395098520272
20
-0.574277412912522
30
0
41
1
10
53.4987700865906
20
-0.580208070252212
30
0
41
1
10
53.6181179993391
20
-0.598784049157075
30
0
41
1
10
53.6783126196165
20
-0.611514645735639
30
0
41
1
10
53.8579794392847
20
-0.657759732455901
30
0
41
1
10
53.9776381257934
20
-0.699344847413329
30
0
41
1
10
54.21398752402
20
-0.801321865862946
30
0
41
1
10
54.3300587172022
20
-0.86119149744161
30
0
41
1
10
54.4432180882519
20
-0.933355008609993
30
0
0
SPLINE
5
E9
100
AcDbEntity
8
1
62
256
6
ByLayer
370
18
48
1
60
0
100
AcDbSpline
70
4
71
3
72
10
73
6
40
0
40
0
40
0
40
0
40
0.5
40
0.5
40
1
40
1
40
1
40
1
41
1
10
53.9829918221546
20
3.28248183103875
30
0
41
1
10
54.1354388190297
20
2.86283156585111
30
0
41
1
10
54.2932144365981
20
2.44473439756067
30
0
41
1
10
54.6182839149878
20
1.61156296172175
30
0
41
1
10
54.7854758233115
20
1.19702865996129
30
0
41
1
10
54.9560171631613
20
0.785662048779841
30
0
0
SPLINE
5
EA
100
AcDbEntity
8
1
62
256
6
ByLayer
370
18
48
1
60
0
100
AcDbSpline
70
4
71
3
72
8
73
4
40
0
40
0
40
0
40
0
40
1
40
1
40
1
40
1
41
1
10
54.989448126611
20
0.117805124328612
30
0
41
1
10
54.9901429238582
20
0.096110560809791
30
0
41
1
10
54.9941260202665
20
0.0696503038733454
30
0
41
1
10
54.9999512777206
20
0.0417782434437584
30
0
0
SPLINE
5
EB
100
AcDbEntity
8
1
62
256
6
ByLayer
370
18
48
1
60
0
100
AcDbSpline
70
4
71
3
72
14
73
10
40
0
40
0
40
0
40
0
40
0.25
40
0.25
40
0.5
40
0.5
40
0.75
40
0.75
40
1
40
1
40
1
40
1
41
1
10
53.73973957367
20
0.727087794510368
30
0
41
1
10
53.7386563868004
20
0.742443049769861
30
0
41
1
10
53.7416567134912
20
0.758049958579306
30
0
41
1
10
53.7566969422662
20
0.785209608917455
30
0
41
1
10
53.7687205093511
20
0.796573299855652
30
0
41
1
10
53.7958865793405
20
0.812617439431904
30
0
41
1
10
53.8112455870925
20
0.817757792092294
30
0
41
1
10
53.8421277933134
20
0.823704498613665
30
0
41
1
10
53.8580122482429
20
0.824620501571275
30
0
41
1
10
53.8738245661413
20
0.824021560551529
30
0
0
SPLINE
5
EC
100
AcDbEntity
8
1
62
256
6
ByLayer
370
13
48
1
60
0
100
AcDbSpline
70
4
71
3
72
8
73
4
40
0
40
0
40
0
40
0
40
1
40
1
40
1
40
1
41
1
10
4.14123711427243
20
-2.23217400621303
30
0
41
1
10
4.14173055318687
20
-2.22006922888895
30
0
41
1
10
4.14222632650984
20
-2.20796233116602
30
0
41
1
10
4.14272443087799
20
-2.19585327075657
30
0
0
SPLINE
5
ED
100
AcDbEntity
8
1
62
256
6
ByLayer
370
18
48
1
60
0
100
AcDbSpline
70
4
71
3
72
8
73
4
40
0
40
0
40
0
40
0
40
1
40
1
40
1
40
1
41
1
10
54.9894481266111
20
-0.11780512432847
30
0
41
1
10
54.9901429238584
20
-0.0961105608045045
30
0
41
1
10
54.9941260202684
20
-0.0696503038607545
30
0
41
1
10
54.9999512777248
20
-0.0417782434238063
30
0
0
SPLINE
5
EE
100
AcDbEntity
8
1
62
256
6
ByLayer
370
18
48
1
60
0
100
AcDbSpline
70
4
71
3
72
10
73
6
40
0
40
0
40
0
40
0
40
0.5
40
0.5
40
1
40
1
40
1
40
1
41
1
10
53.9829918221574
20
-3.28248183103116
30
0
41
1
10
54.1362157834809
20
-2.86069276781211
30
0
41
1
10
54.2941944018374
20
-2.44218028088244
30
0
41
1
10
54.6187989089985
20
-1.61028560917657
30
0
41
1
10
54.7855041447949
20
-1.19696034507285
30
0
41
1
10
54.9560171631605
20
-0.785662048781916
30
0
0
SPLINE
5
EF
100
AcDbEntity
8
1
62
256
6
ByLayer
370
18
48
1
60
0
100
AcDbSpline
70
4
71
3
72
40
73
36
40
0
40
0
40
0
40
0
40
0.0701705153931257
40
0.0701705153931257
40
0.140341030786252
40
0.140341030786252
40
0.175426288482814
40
0.175426288482814
40
0.210511546179377
40
0.210511546179377
40
0.280682061572503
40
0.280682061572503
40
0.350852576965629
40
0.350852576965629
40
0.421023092358754
40
0.421023092358754
40
0.456108350055318
40
0.456108350055318
40
0.491193607751882
40
0.491193607751882
40
0.526278865448445
40
0.526278865448445
40
0.561364123145009
40
0.561364123145009
40
0.701705153931263
40
0.701705153931263
40
0.771875669324391
40
0.771875669324391
40
0.806960927020955
40
0.806960927020955
40
0.842046184717518
40
0.842046184717518
40
0.982387215503768
40
0.982387215503768
40
1
40
1
40
1
40
1
41
1
10
53.8134974384662
20
-3.36884034964535
30
0
41
1
10
53.29434366071
20
-3.38168036950074
30
0
41
1
10
52.7758170558793
20
-3.36597051443337
30
0
41
1
10
51.7356932028677
20
-3.27809134331602
30
0
41
1
10
51.2171518875918
20
-3.2061768467839
30
0
41
1
10
50.4395702429147
20
-3.05893317184905
30
0
41
1
10
50.1803170781394
20
-3.00329542487131
30
0
41
1
10
49.6610120696829
20
-2.8794673798144
30
0
41
1
10
49.4006971868629
20
-2.81119584646183
30
0
41
1
10
48.6216609099513
20
-2.58957834260528
30
0
41
1
10
48.1038101313168
20
-2.41913311802921
30
0
41
1
10
47.0660233360626
20
-2.04003563902933
30
0
41
1
10
46.5452965580889
20
-1.83100829215479
30
0
41
1
10
45.5079476988729
20
-1.3870970315931
30
0
41
1
10
44.9899331824478
20
-1.15203097239078
30
0
41
1
10
44.2101923178225
20
-0.786817042800863
30
0
41
1
10
43.9499586782083
20
-0.663038944688566
30
0
41
1
10
43.430808227069
20
-0.413788032586894
30
0
41
1
10
43.1715632939208
20
-0.288124831708473
30
0
41
1
10
42.6530271084952
20
-0.0361816084710256
30
0
41
1
10
42.3937254385197
20
0.0900766493886351
30
0
41
1
10
41.8744690557696
20
0.34195392293816
30
0
41
1
10
41.614002577412
20
0.467856325165741
30
0
41
1
10
40.3163833119499
20
1.08870149819387
30
0
41
1
10
39.2932188442174
20
1.5574097108661
30
0
41
1
10
37.7521418701593
20
2.16498232090188
30
0
41
1
10
37.2373474941544
20
2.35156522698114
30
0
41
1
10
36.4600746982754
20
2.60148103924448
30
0
41
1
10
36.1994627660387
20
2.6799482054713
30
0
41
1
10
35.6806092571961
20
2.82441354565438
30
0
41
1
10
35.4220879645894
20
2.89055470220944
30
0
41
1
10
34.1327100640251
20
3.18993421256965
30
0
41
1
10
33.1110871510433
20
3.32826406619986
30
0
41
1
10
31.9509993963376
20
3.35817009874651
30
0
41
1
10
31.8215004148377
20
3.35975060455465
30
0
41
1
10
31.6918176919987
20
3.35956284207865
30
0
0
SPLINE
5
F0
100
AcDbEntity
8
1
62
256
6
ByLayer
370
18
48
1
60
0
100
AcDbSpline
70
4
71
3
72
16
73
12
40
0
40
0
40
0
40
0
40
0.225480244015115
40
0.225480244015115
40
0.322295213513226
40
0.322295213513226
40
0.419110183011337
40
0.419110183011337
40
0.612740122007558
40
0.612740122007558
40
1
40
1
40
1
40
1
41
1
10
12.1361722585682
20
-3.18229568608459
30
0
41
1
10
11.5381389802741
20
-3.27157389252622
30
0
41
1
10
10.9400828613087
20
-3.32527527095613
30
0
41
1
10
10.0798650917964
20
-3.34783269611705
30
0
41
1
10
9.82076996810693
20
-3.34764115524297
30
0
41
1
10
9.30054032487607
20
-3.33306173697363
30
0
41
1
10
9.04019432614552
20
-3.31866539538782
30
0
41
1
10
8.26324905129002
20
-3.25495439305271
30
0
41
1
10
7.74852814083135
20
-3.1850219060376
30
0
41
1
10
6.20658245261248
20
-2.89912126595385
30
0
41
1
10
5.18170740552213
20
-2.60678776568108
30
0
41
1
10
4.14123711427288
20
-2.23217400621539
30
0
0
SPLINE
5
F1
100
AcDbEntity
8
1
62
256
6
ByLayer
370
18
48
1
60
0
100
AcDbSpline
70
4
71
3
72
24
73
20
40
0
40
0
40
0
40
0
40
0.0960780132117753
40
0.172105010573886
40
0.228098619975056
40
0.264026425316639
40
0.291326535025322
40
0.328493630325171
40
0.375360294417698
40
0.435416494999773
40
0.482663736322857
40
0.528786283234096
40
0.578759856181574
40
0.65587327344451
40
0.729312760683582
40
0.79815044730107
40
0.870888868215847
40
0.956238003441422
40
1
40
1
40
1
40
1
41
1
10
31.8827335700778
20
-3.19112164903888
30
0
41
1
10
32.2113342049941
20
-3.19134299457005
30
0
41
1
10
32.7999634048309
20
-3.19170257364573
30
0
41
1
10
33.5802589479609
20
-3.19221375066184
30
0
41
1
10
34.154609100789
20
-3.19238430849191
30
0
41
1
10
34.5624688471135
20
-3.19294587798467
30
0
41
1
10
34.9057799576288
20
-3.19308213285572
30
0
41
1
10
35.2866120230732
20
-3.19294116844301
30
0
41
1
10
35.7794955036227
20
-3.19317390402199
30
0
41
1
10
36.3068490088225
20
-3.19420134018318
30
0
41
1
10
36.8316590036898
20
-3.19349371126589
30
0
41
1
10
37.3219879892397
20
-3.19390384649682
30
0
41
1
10
37.9144741187216
20
-3.19539965817745
30
0
41
1
10
38.6004151804979
20
-3.19336203040376
30
0
41
1
10
39.350837205778
20
-3.19631680376108
30
0
41
1
10
40.0864497182205
20
-3.1941872838301
30
0
41
1
10
40.8621542342706
20
-3.19794617182185
30
0
41
1
10
41.550852146698
20
-3.19389162461476
30
0
41
1
10
41.9905554236647
20
-3.19498593272994
30
0
41
1
10
42.1395048698772
20
-3.19543520776006
30
0
0
SPLINE
5
F2
100
AcDbEntity
8
1
62
256
6
ByLayer
370
18
48
1
60
0
100
AcDbSpline
70
4
71
3
72
21
73
17
40
0
40
0
40
0
40
0
40
0.0299409769119706
40
0.102538423881737
40
0.185149111953342
40
0.269587658076204
40
0.336467458887197
40
0.385680465974099
40
0.432250045128474
40
0.491954391747131
40
0.560629602414481
40
0.660876528623789
40
0.751176605847602
40
0.822862135312608
40
0.903243159470786
40
1
40
1
40
1
40
1
41
1
10
20.5667358287993
20
3.18068296565122
30
0
41
1
10
20.4886671276874
20
3.17927727875082
30
0
41
1
10
20.2176205957567
20
3.17514101041977
30
0
41
1
10
19.6832234088218
20
3.16961520285196
30
0
41
1
10
19.0082744682591
20
3.17689579014481
30
0
41
1
10
18.36034011227
20
3.18287691427614
30
0
41
1
10
17.7974248584816
20
3.18475714661685
30
0
41
1
10
17.3363819706673
20
3.18264486408947
30
0
41
1
10
16.8959466672102
20
3.18258353482557
30
0
41
1
10
16.4001696216488
20
3.18342984352432
30
0
41
1
10
15.7523525252834
20
3.18169065051259
30
0
41
1
10
15.0178715042174
20
3.18162049631127
30
0
41
1
10
14.2746910904942
20
3.18061080908228
30
0
41
1
10
13.5887069243642
20
3.1801121952611
30
0
41
1
10
12.882437043358
20
3.18021040752188
30
0
41
1
10
12.388172097956
20
3.17848372681135
30
0
41
1
10
12.115608749134
20
3.17758817592178
30
0
0
SPLINE
5
F3
100
AcDbEntity
8
1
62
256
6
ByLayer
370
18
48
1
60
0
100
AcDbSpline
70
4
71
3
72
22
73
18
40
0
40
0
40
0
40
0
40
0.0540635771139059
40
0.159599885427634
40
0.249542734853505
40
0.334662230226091
40
0.425471965405475
40
0.520824605594291
40
0.583697507664422
40
0.641634205271668
40
0.701699143315022
40
0.778374510509117
40
0.854829000881577
40
0.891697783970434
40
0.922050442883757
40
0.969410183190314
40
1
40
1
40
1
40
1
41
1
10
42.1390982658695
20
3.19543450986524
30
0
41
1
10
41.9902842193794
20
3.19498575963522
30
0
41
1
10
41.5507164922522
20
3.19389195021873
30
0
41
1
10
40.8621541979244
20
3.19794634506278
30
0
41
1
10
40.0864497262296
20
3.19418713235004
30
0
41
1
10
39.3508372064565
20
3.19631724825734
30
0
41
1
10
38.6004151693355
20
3.19336023903895
30
0
41
1
10
37.9114882693307
20
3.19541454455376
30
0
41
1
10
37.3135126442913
20
3.19386261769128
30
0
41
1
10
36.8131504847643
20
3.19351706021473
30
0
41
1
10
36.2746134307193
20
3.1942244487914
30
0
41
1
10
35.6848586255011
20
3.19291241059852
30
0
41
1
10
35.1592328987462
20
3.19306089664303
30
0
41
1
10
34.7618327014439
20
3.19303604949837
30
0
41
1
10
34.4449052364728
20
3.19283483099477
30
0
41
1
10
34.1453127374197
20
3.19238420942693
30
0
41
1
10
33.9297073731065
20
3.19228181833975
30
0
41
1
10
33.845097263625
20
3.19225401542101
30
0
0
SPLINE
5
F4
100
AcDbEntity
8
1
62
256
6
ByLayer
370
18
48
1
60
0
100
AcDbSpline
70
4
71
3
72
22
73
18
40
0
40
0
40
0
40
0
40
0.107296250380425
40
0.205579431605388
40
0.293124122821387
40
0.364160877228236
40
0.427512985572207
40
0.507315706135116
40
0.595908957497068
40
0.651656788509861
40
0.701122547682511
40
0.741061615403592
40
0.77736660479981
40
0.825855122168073
40
0.905074303100509
40
0.99087878268152
40
1
40
1
40
1
40
1
41
1
10
10.1285584877821
20
-3.17757278803481
30
0
41
1
10
10.4679591883885
20
-3.17607776804564
30
0
41
1
10
11.119634792979
20
-3.17452103035114
30
0
41
1
10
12.0650761839112
20
-3.17733988197406
30
0
41
1
10
12.8758984438324
20
-3.18021104763361
30
0
41
1
10
13.5887068750287
20
-3.18011295817954
30
0
41
1
10
14.2746912713666
20
-3.18060801231789
30
0
41
1
10
15.0178705854831
20
-3.18163470648011
30
0
41
1
10
15.7365050178934
20
-3.18163939760382
30
0
41
1
10
16.3578857684936
20
-3.1834097473365
30
0
41
1
10
16.8233595174607
20
-3.18268072708469
30
0
41
1
10
17.2262192261856
20
-3.18252272038393
30
0
41
1
10
17.6266231997235
20
-3.18397440053221
30
0
41
1
10
18.149459280522
20
-3.18422710397607
30
0
41
1
10
18.8217500633359
20
-3.17925653834743
30
0
41
1
10
19.3717648638337
20
-3.17220238764352
30
0
41
1
10
19.678770432921
20
-3.17217346942971
30
0
41
1
10
19.7082979746504
20
-3.17220351815632
30
0
0
SPLINE
5
F5
100
AcDbEntity
8
1
62
256
6
ByLayer
370
18
48
1
60
0
100
AcDbSpline
70
4
71
3
72
9
73
5
40
0
40
0
40
0
40
0
40
0.641086458871284
40
1
40
1
40
1
40
1
41
1
10
19.879554972054
20
-3.17272830984484
30
0
41
1
10
20.0321332792593
20
-3.17349376498217
30
0
41
1
10
20.2682009056122
20
-3.17586399231186
30
0
41
1
10
20.4883083052754
20
-3.17925772702893
30
0
41
1
10
20.5663604296265
20
-3.18067709497379
30
0
0
SPLINE
5
F6
100
AcDbEntity
8
1
62
256
6
ByLayer
370
18
48
1
60
0
100
AcDbSpline
70
4
71
1
72
4
73
2
40
0
40
0
40
1
40
1
41
1
10
53.5521417950945
20
-3.20400613792637
30
0
41
1
10
53.8155812303018
20
-3.20357490808729
30
0
0
LINE
5
7B
100
AcDbEntity
8
SK1
62
256
6
ByLayer
370
13
48
1
60
0
100
AcDbLine
10
-35.5
20
-0.583803
30
0
11
-35.5
21
-1.958141
31
0
39
0
210
0
220
0
230
1
0
LINE
5
7D
100
AcDbEntity
8
SK1
62
256
6
ByLayer
370
18
48
1
60
0
100
AcDbLine
10
-36
20
2.76
30
0
11
-36
21
-0.376888
31
0
39
0
210
0
220
0
230
1
0
LINE
5
7E
100
AcDbEntity
8
SK1
62
256
6
ByLayer
370
18
48
1
60
0
100
AcDbLine
10
-35.4
20
-1.916181
30
0
11
-35.4
21
-0.725057
31
0
39
0
210
0
220
0
230
1
0
LINE
5
7F
100
AcDbEntity
8
SK1
62
256
6
ByLayer
370
18
48
1
60
0
100
AcDbLine
10
-36
20
-0.376909
30
0
11
-36
21
-1.751262
31
0
39
0
210
0
220
0
230
1
0
LINE
5
80
100
AcDbEntity
8
SK1
62
256
6
ByLayer
370
18
48
1
60
0
100
AcDbLine
10
-36
20
-2.76
30
0
11
-36
21
-1.751262
31
0
39
0
210
0
220
0
230
1
0
LINE
5
81
100
AcDbEntity
8
SK1
62
256
6
ByLayer
370
18
48
1
60
0
100
AcDbLine
10
0
20
-4
30
0
11
0
21
4
31
0
39
0
210
0
220
0
230
1
0
LINE
5
82
100
AcDbEntity
8
SK1
62
256
6
ByLayer
370
18
48
1
60
0
100
AcDbLine
10
-34.76
20
4
30
0
11
-34.76
21
-4
31
0
39
0
210
0
220
0
230
1
0
LINE
5
83
100
AcDbEntity
8
1
62
256
6
ByLayer
370
13
48
1
60
0
100
AcDbLine
10
0.647172
20
3.670285
30
0
11
0.647172
21
-3.670285
31
0
39
0
210
0
220
0
230
1
0
LINE
5
84
100
AcDbEntity
8
1
62
256
6
ByLayer
370
13
48
1
60
0
100
AcDbLine
10
53.873825
20
0.824022
30
0
11
54.989448
21
0.117805
31
0
39
0
210
0
220
0
230
1
0
LINE
5
85
100
AcDbEntity
8
1
62
256
6
ByLayer
370
13
48
1
60
0
100
AcDbLine
10
1.294845
20
3.34057
30
0
11
1.294845
21
-3.34057
31
0
39
0
210
0
220
0
230
1
0
LINE
5
86
100
AcDbEntity
8
1
62
256
6
ByLayer
370
13
48
1
60
0
100
AcDbLine
10
53.73974
20
0.727088
30
0
11
54.96426
21
-0.048063
31
0
39
0
210
0
220
0
230
1
0
LINE
5
87
100
AcDbEntity
8
1
62
256
6
ByLayer
370
18
48
1
60
0
100
AcDbLine
10
0
20
-4
30
0
11
0
21
4
31
0
39
0
210
0
220
0
230
1
0
LINE
5
88
100
AcDbEntity
8
80
62
256
6
ByLayer
370
18
48
1
60
0
100
AcDbLine
10
0
20
0
30
0
11
-5
21
0
31
0
39
0
210
0
220
0
230
1
0
LINE
5
89
100
AcDbEntity
8
4
62
256
6
ByLayer
370
18
48
0.05
60
0
100
AcDbLine
10
55
20
0
30
0
11
0
21
0
31
0
39
0
210
0
220
0
230
1
0
LINE
5
8B
100
AcDbEntity
8
SK4
62
256
6
ByLayer
370
18
48
0.05
60
0
100
AcDbLine
10
60
20
0
30
0
11
-41
21
0
31
0
39
0
210
0
220
0
230
1
0
LINE
5
8D
100
AcDbEntity
8
SK1
62
256
6
ByLayer
370
18
48
1
60
0
100
AcDbLine
10
-34.76
20
-4
30
0
11
0
21
-4
31
0
39
0
210
0
220
0
230
1
0
LINE
5
8E
100
AcDbEntity
8
SK1
62
256
6
ByLayer
370
18
48
1
60
0
100
AcDbLine
10
0
20
4
30
0
11
-34.76
21
4
31
0
39
0
210
0
220
0
230
1
0
LINE
5
8F
100
AcDbEntity
8
SK1
62
256
6
ByLayer
370
18
48
1
60
0
100
AcDbLine
10
-36
20
-2.76
30
0
11
-34.76
21
-4
31
0
39
0
210
0
220
0
230
1
0
LINE
5
90
100
AcDbEntity
8
SK1
62
256
6
ByLayer
370
18
48
1
60
0
100
AcDbLine
10
-34.76
20
4
30
0
11
-36
21
2.76
31
0
39
0
210
0
220
0
230
1
0
LINE
5
91
100
AcDbEntity
8
1
62
256
6
ByLayer
370
18
48
1
60
0
100
AcDbLine
10
1.294845
20
-3.34057
30
0
11
2.065263
21
-3.341052
31
0
39
0
210
0
220
0
230
1
0
LINE
5
92
100
AcDbEntity
8
1
62
256
6
ByLayer
370
18
48
1
60
0
100
AcDbLine
10
8.445442
20
-3.345039
30
0
11
9.953153
21
-3.345982
31
0
39
0
210
0
220
0
230
1
0
LINE
5
93
100
AcDbEntity
8
1
62
256
6
ByLayer
370
18
48
1
60
0
100
AcDbLine
10
30.621893
20
-3.3589
30
0
11
31.703241
21
-3.359575
31
0
39
0
210
0
220
0
230
1
0
LINE
5
94
100
AcDbEntity
8
1
62
256
6
ByLayer
370
18
48
1
60
0
100
AcDbLine
10
52.369981
20
-3.372492
30
0
11
53.454415
21
-3.37317
31
0
39
0
210
0
220
0
230
1
0
LINE
5
95
100
AcDbEntity
8
1
62
256
6
ByLayer
370
18
48
1
60
0
100
AcDbLine
10
53.454184
20
3.37317
30
0
11
52.369981
21
3.372492
31
0
39
0
210
0
220
0
230
1
0
LINE
5
96
100
AcDbEntity
8
1
62
256
6
ByLayer
370
18
48
1
60
0
100
AcDbLine
10
31.703666
20
3.359576
30
0
11
30.621893
21
3.3589
31
0
39
0
210
0
220
0
230
1
0
LINE
5
97
100
AcDbEntity
8
1
62
256
6
ByLayer
370
18
48
1
60
0
100
AcDbLine
10
9.953058
20
3.345982
30
0
11
8.445442
21
3.345039
31
0
39
0
210
0
220
0
230
1
0
LINE
5
98
100
AcDbEntity
8
1
62
256
6
ByLayer
370
18
48
1
60
0
100
AcDbLine
10
2.065263
20
3.341052
30
0
11
1.294845
21
3.34057
31
0
39
0
210
0
220
0
230
1
0
LINE
5
99
100
AcDbEntity
8
81
62
256
6
ByLayer
370
18
48
1
60
0
100
AcDbLine
10
55
20
0
30
0
11
60
21
0
31
0
39
0
210
0
220
0
230
1
0
LINE
5
9A
100
AcDbEntity
8
SK2
62
256
6
ByLayer
370
13
48
1
60
0
100
AcDbLine
10
-44.625163
20
-4
30
0
11
-44.625163
21
33.117107
31
0
39
0
210
0
220
0
230
1
0
LINE
5
9C
100
AcDbEntity
8
SK2
62
256
6
ByLayer
370
13
48
1
60
0
100
AcDbLine
10
-37.5875
20
4
30
0
11
-46.625163
21
4
31
0
39
0
210
0
220
0
230
1
0
LINE
5
9D
100
AcDbEntity
8
SK2
62
256
6
ByLayer
370
13
48
1
60
0
100
AcDbLine
10
-37.5875
20
-4
30
0
11
-46.625163
21
-4
31
0
39
0
210
0
220
0
230
1
0
LINE
5
9E
100
AcDbEntity
8
1
62
256
6
ByLayer
370
18
48
1
60
1
100
AcDbLine
10
-44.625163
20
4
30
0
11
-44.164379
21
0.500002
31
0
39
0
210
0
220
0
230
1
0
LINE
5
9F
100
AcDbEntity
8
1
62
256
6
ByLayer
370
18
48
1
60
1
100
AcDbLine
10
-44.164379
20
0.500002
30
0
11
-45.085946
21
0.499998
31
0
39
0
210
0
220
0
230
1
0
LINE
5
A0
100
AcDbEntity
8
1
62
256
6
ByLayer
370
18
48
1
60
1
100
AcDbLine
10
-45.085946
20
0.499998
30
0
11
-44.625163
21
4
31
0
39
0
210
0
220
0
230
1
0
LINE
5
A1
100
AcDbEntity
8
1
62
256
6
ByLayer
370
18
48
1
60
1
100
AcDbLine
10
-44.625163
20
-4
30
0
11
-45.085946
21
-0.500002
31
0
39
0
210
0
220
0
230
1
0
LINE
5
A2
100
AcDbEntity
8
1
62
256
6
ByLayer
370
18
48
1
60
1
100
AcDbLine
10
-45.085946
20
-0.500002
30
0
11
-44.164379
21
-0.499998
31
0
39
0
210
0
220
0
230
1
0
LINE
5
A3
100
AcDbEntity
8
1
62
256
6
ByLayer
370
18
48
1
60
1
100
AcDbLine
10
-44.164379
20
-0.499998
30
0
11
-44.625163
21
-4
31
0
39
0
210
0
220
0
230
1
0
LINE
5
A4
100
AcDbEntity
8
2
62
256
6
ByLayer
370
13
48
1
60
0
100
AcDbLine
10
67.083343
20
31.452227
30
0
11
67.083343
21
-12.1235
31
0
39
0
210
0
220
0
230
1
0
LINE
5
A6
100
AcDbEntity
8
2
62
256
6
ByLayer
370
13
48
1
60
0
100
AcDbLine
10
55.5937
20
3.3735
30
0
11
69.083343
21
3.3735
31
0
39
0
210
0
220
0
230
1
0
LINE
5
A7
100
AcDbEntity
8
2
62
256
6
ByLayer
370
13
48
1
60
0
100
AcDbLine
10
55.5937
20
-3.3735
30
0
11
69.083343
21
-3.3735
31
0
39
0
210
0
220
0
230
1
0
LINE
5
A8
100
AcDbEntity
8
1
62
256
6
ByLayer
370
18
48
1
60
1
100
AcDbLine
10
67.083343
20
3.3735
30
0
11
66.622559
21
6.873498
31
0
39
0
210
0
220
0
230
1
0
LINE
5
A9
100
AcDbEntity
8
1
62
256
6
ByLayer
370
18
48
1
60
1
100
AcDbLine
10
66.622559
20
6.873498
30
0
11
67.544126
21
6.873502
31
0
39
0
210
0
220
0
230
1
0
LINE
5
AA
100
AcDbEntity
8
1
62
256
6
ByLayer
370
18
48
1
60
1
100
AcDbLine
10
67.544126
20
6.873502
30
0
11
67.083343
21
3.3735
31
0
39
0
210
0
220
0
230
1
0
LINE
5
AB
100
AcDbEntity
8
1
62
256
6
ByLayer
370
18
48
1
60
1
100
AcDbLine
10
67.083343
20
-3.3735
30
0
11
67.544126
21
-6.873498
31
0
39
0
210
0
220
0
230
1
0
LINE
5
AC
100
AcDbEntity
8
1
62
256
6
ByLayer
370
18
48
1
60
1
100
AcDbLine
10
67.544126
20
-6.873498
30
0
11
66.622559
21
-6.873502
31
0
39
0
210
0
220
0
230
1
0
LINE
5
AD
100
AcDbEntity
8
1
62
256
6
ByLayer
370
18
48
1
60
1
100
AcDbLine
10
66.622559
20
-6.873502
30
0
11
67.083343
21
-3.3735
31
0
39
0
210
0
220
0
230
1
0
LINE
5
FD
100
AcDbEntity
8
1
62
256
6
ByLayer
370
18
48
1
60
1
100
AcDbLine
10
-44.625163
20
4
30
0
11
-44.164379
21
0.500002
31
0
39
0
210
0
220
0
230
1
0
LINE
5
FE
100
AcDbEntity
8
1
62
256
6
ByLayer
370
18
48
1
60
1
100
AcDbLine
10
-44.164379
20
0.500002
30
0
11
-45.085946
21
0.499998
31
0
39
0
210
0
220
0
230
1
0
LINE
5
FF
100
AcDbEntity
8
1
62
256
6
ByLayer
370
18
48
1
60
1
100
AcDbLine
10
-45.085946
20
0.499998
30
0
11
-44.625163
21
4
31
0
39
0
210
0
220
0
230
1
0
LINE
5
101
100
AcDbEntity
8
1
62
256
6
ByLayer
370
18
48
1
60
1
100
AcDbLine
10
-44.625163
20
-4
30
0
11
-45.085946
21
-0.500002
31
0
39
0
210
0
220
0
230
1
0
LINE
5
102
100
AcDbEntity
8
1
62
256
6
ByLayer
370
18
48
1
60
1
100
AcDbLine
10
-45.085946
20
-0.500002
30
0
11
-44.164379
21
-0.499998
31
0
39
0
210
0
220
0
230
1
0
LINE
5
103
100
AcDbEntity
8
1
62
256
6
ByLayer
370
18
48
1
60
1
100
AcDbLine
10
-44.164379
20
-0.499998
30
0
11
-44.625163
21
-4
31
0
39
0
210
0
220
0
230
1
0
LINE
5
107
100
AcDbEntity
8
1
62
256
6
ByLayer
370
18
48
1
60
1
100
AcDbLine
10
67.083343
20
3.3735
30
0
11
66.622559
21
6.873498
31
0
39
0
210
0
220
0
230
1
0
LINE
5
108
100
AcDbEntity
8
1
62
256
6
ByLayer
370
18
48
1
60
1
100
AcDbLine
10
66.622559
20
6.873498
30
0
11
67.544126
21
6.873502
31
0
39
0
210
0
220
0
230
1
0
LINE
5
109
100
AcDbEntity
8
1
62
256
6
ByLayer
370
18
48
1
60
1
100
AcDbLine
10
67.544126
20
6.873502
30
0
11
67.083343
21
3.3735
31
0
39
0
210
0
220
0
230
1
0
LINE
5
10B
100
AcDbEntity
8
1
62
256
6
ByLayer
370
18
48
1
60
1
100
AcDbLine
10
67.083343
20
-3.3735
30
0
11
67.544126
21
-6.873498
31
0
39
0
210
0
220
0
230
1
0
LINE
5
10C
100
AcDbEntity
8
1
62
256
6
ByLayer
370
18
48
1
60
1
100
AcDbLine
10
67.544126
20
-6.873498
30
0
11
66.622559
21
-6.873502
31
0
39
0
210
0
220
0
230
1
0
LINE
5
10D
100
AcDbEntity
8
1
62
256
6
ByLayer
370
18
48
1
60
1
100
AcDbLine
10
66.622559
20
-6.873502
30
0
11
67.083343
21
-3.3735
31
0
39
0
210
0
220
0
230
1
0
MTEXT
5
F7
100
AcDbEntity
8
SK6
62
256
6
ByLayer
370
13
48
1
60
0
100
AcDbMText
10
-19.82946
20
35.913828
30
0
210
0
220
0
230
1
1
\W0.7716;462.1-0675-034A1-XM X2BM
40
3.5
41
0
44
1.084337
50
0
71
7
72
5
7
iso_b_vert
0
MTEXT
5
FB
100
AcDbEntity
8
SK2
62
256
6
ByLayer
370
18
48
1
60
0
100
AcDbMText
10
-46.189796
20
17.409024
30
0
210
0
220
0
230
1
1
%%c
40
3.5
41
0
44
1.084337
50
90
71
7
72
5
7
iso_b_vert
0
MTEXT
5
FC
100
AcDbEntity
8
SK2
62
256
6
ByLayer
370
18
48
1
60
0
100
AcDbMText
10
-46.189796
20
22.63168
30
0
210
0
220
0
230
1
1
\W0.7317;8,000
40
3.5
41
0
44
1.084337
50
90
71
7
72
5
7
iso_b_vert
0
MTEXT
5
105
100
AcDbEntity
8
2
62
256
6
ByLayer
370
18
48
1
60
0
100
AcDbMText
10
65.518709
20
15.37561
30
0
210
0
220
0
230
1
1
%%c
40
3.5
41
0
44
1.084337
50
90
71
7
72
5
7
iso_b_vert
0
MTEXT
5
106
100
AcDbEntity
8
2
62
256
6
ByLayer
370
18
48
1
60
0
100
AcDbMText
10
65.518709
20
20.598266
30
0
210
0
220
0
230
1
1
\W0.7581;6,747
40
3.5
41
0
44
1.084337
50
90
71
7
72
5
7
iso_b_vert
0
HATCH
5
100
100
AcDbEntity
8
SK2
62
256
6
ByLayer
370
13
48
1
60
0
100
AcDbHatch
10
0
20
0
30
0
210
0
220
0
230
1
2
ANSI31
70
0
71
0
91
1
92
5
93
3
72
1
10
-44.6251625675374
20
4
11
-44.1643788259847
21
0.500001692553184
72
1
10
-44.1643788259847
20
0.500001692553184
11
-45.0859463090902
21
0.499998307446816
72
1
10
-45.0859463090902
20
0.499998307446816
11
-44.6251625675374
21
4
97
0
75
0
76
1
52
0
41
0.0062
77
0
78
1
53
45
43
0
44
0
45
-0.0139193969876572
46
0.0139193969876572
79
0
47
0
98
1
10
0
20
0
0
HATCH
5
104
100
AcDbEntity
8
SK2
62
256
6
ByLayer
370
13
48
1
60
0
100
AcDbHatch
10
0
20
0
30
0
210
0
220
0
230
1
2
ANSI31
70
0
71
0
91
1
92
5
93
3
72
1
10
-44.6251625675374
20
-4
11
-45.0859463090902
21
-0.500001692553184
72
1
10
-45.0859463090902
20
-0.500001692553184
11
-44.1643788259847
21
-0.499998307446816
72
1
10
-44.1643788259847
20
-0.499998307446816
11
-44.6251625675374
21
-4
97
0
75
0
76
1
52
0
41
0.0062
77
0
78
1
53
45
43
0
44
0
45
-0.0139193969876572
46
0.0139193969876572
79
0
47
0
98
1
10
0
20
0
0
HATCH
5
10A
100
AcDbEntity
8
2
62
256
6
ByLayer
370
13
48
1
60
0
100
AcDbHatch
10
0
20
0
30
0
210
0
220
0
230
1
2
ANSI31
70
0
71
0
91
1
92
5
93
3
72
1
10
67.083342615295
20
3.37350000000001
11
66.6225588737423
21
6.87349830744682
72
1
10
66.6225588737423
20
6.87349830744682
11
67.5441263568478
21
6.87350169255319
72
1
10
67.5441263568478
20
6.87350169255319
11
67.083342615295
21
3.37350000000001
97
0
75
0
76
1
52
0
41
0.0062
77
0
78
1
53
45
43
0
44
0
45
-0.0139193969876572
46
0.0139193969876572
79
0
47
0
98
1
10
0
20
0
0
HATCH
5
10E
100
AcDbEntity
8
2
62
256
6
ByLayer
370
13
48
1
60
0
100
AcDbHatch
10
0
20
0
30
0
210
0
220
0
230
1
2
ANSI31
70
0
71
0
91
1
92
5
93
3
72
1
10
67.083342615295
20
-3.37349999999998
11
67.5441263568478
21
-6.87349830744679
72
1
10
67.5441263568478
20
-6.87349830744679
11
66.6225588737423
21
-6.87350169255316
72
1
10
66.6225588737423
20
-6.87350169255316
11
67.083342615295
21
-3.37349999999998
97
0
75
0
76
1
52
0
41
0.0062
77
0
78
1
53
45
43
0
44
0
45
-0.0139193969876572
46
0.0139193969876572
79
0
47
0
98
1
10
0
20
0
0
DIMENSION
5
110
100
AcDbEntity
8
SK2
62
256
6
ByLayer
370
13
48
1
60
0
100
AcDbDimension
2
_U0
10
54.0062
20
-13.586898
30
0
11
27.0031
21
-13.586898
31
0
70
32
71
1
72
1
41
1
210
0
220
0
230
1
3
Standard
100
AcDbAlignedDimension
13
0
23
0
33
0
14
54.0062
24
-3.3735
34
0
50
0
100
AcDbRotatedDimension
1001
ACAD
1000
DSTYLE
1002
{
1070
   371
1070
    13
1070
   372
1070
    13
1070
   170
1070
     0
1070
   144
1040
1.0
1070
   277
1070
     2
1070
   278
1070
    44
1070
   146
1040
1.0
1070
   345
1005
16
1070
   347
1005
16
1070
   346
1005
16
1070
   344
1005
0
1070
   343
1005
0
1070
   172
1070
     1
1070
    76
1070
     0
1070
    75
1070
     0
1070
   282
1070
     0
1070
   281
1070
     0
1070
    71
1070
     0
1070
    74
1070
     0
1070
   279
1070
     0
1070
   173
1070
     1
1070
   340
1005
F8
1070
   271
1070
     2
1070
   272
1070
     2
1070
    77
1070
     1
1070
    73
1070
     1
1070
   171
1070
     3
1070
   274
1070
     4
1070
   177
1070
    35
1070
   176
1070
    35
1070
   178
1070
    35
1070
    48
1040
-0.1
1070
    41
1040
3.5
1070
   147
1040
1.75
1070
    42
1040
1.5875
1070
    44
1040
2.0
1070
   140
1040
3.5
1002
}
1001
ACAD_DSTYLE_DIM_LINETYPE
1070
   380
1005
16
1001
ACAD_DSTYLE_DIM_EXT1_LINETYPE
1070
   381
1005
16
1001
ACAD_DSTYLE_DIM_EXT2_LINETYPE
1070
   382
1005
16
0
DIMENSION
5
129
100
AcDbEntity
8
SK2
62
256
6
ByLayer
370
13
48
1
60
0
100
AcDbDimension
2
_U1
10
55
20
-32.692985
30
0
11
9.5
21
-32.692985
31
0
70
32
71
1
72
1
41
1
210
0
220
0
230
1
3
Standard
100
AcDbAlignedDimension
13
-36
23
-4
33
0
14
55
24
0
34
0
50
0
100
AcDbRotatedDimension
1001
ACAD
1000
DSTYLE
1002
{
1070
   371
1070
    13
1070
   372
1070
    13
1070
   170
1070
     0
1070
   144
1040
1.0
1070
   277
1070
     2
1070
   278
1070
    44
1070
   146
1040
1.0
1070
   345
1005
16
1070
   347
1005
16
1070
   346
1005
16
1070
   344
1005
0
1070
   343
1005
0
1070
   172
1070
     1
1070
    76
1070
     0
1070
    75
1070
     0
1070
   282
1070
     0
1070
   281
1070
     0
1070
    71
1070
     0
1070
    74
1070
     0
1070
   279
1070
     0
1070
   173
1070
     1
1070
   340
1005
F8
1070
   271
1070
     2
1070
   272
1070
     2
1070
    77
1070
     1
1070
    73
1070
     1
1070
   171
1070
     3
1070
   274
1070
     4
1070
   177
1070
    35
1070
   176
1070
    35
1070
   178
1070
    35
1070
    48
1040
-0.1
1070
    41
1040
3.5
1070
   147
1040
1.75
1070
    42
1040
1.5875
1070
    44
1040
2.0
1070
   140
1040
3.5
1002
}
1001
ACAD_DSTYLE_DIM_LINETYPE
1070
   380
1005
16
1001
ACAD_DSTYLE_DIM_EXT1_LINETYPE
1070
   381
1005
16
1001
ACAD_DSTYLE_DIM_EXT2_LINETYPE
1070
   382
1005
16
0
DIMENSION
5
141
100
AcDbEntity
8
SK2
62
256
6
ByLayer
370
13
48
1
60
0
100
AcDbDimension
2
_U2
10
55
20
14.982619
30
0
11
37.635
21
14.982619
31
0
70
32
71
1
72
1
41
1
210
0
220
0
230
1
3
Standard
100
AcDbAlignedDimension
13
20.27
23
3.3735
33
0
14
55
24
0
34
0
50
0
100
AcDbRotatedDimension
1001
ACAD
1000
DSTYLE
1002
{
1070
   371
1070
    13
1070
   372
1070
    13
1070
   170
1070
     0
1070
   144
1040
1.0
1070
   277
1070
     2
1070
   278
1070
    44
1070
   146
1040
1.0
1070
   345
1005
16
1070
   347
1005
16
1070
   346
1005
16
1070
   344
1005
0
1070
   343
1005
0
1070
   172
1070
     1
1070
    76
1070
     0
1070
    75
1070
     0
1070
   282
1070
     0
1070
   281
1070
     0
1070
    71
1070
     0
1070
    74
1070
     0
1070
   279
1070
     0
1070
   173
1070
     1
1070
   340
1005
F8
1070
   271
1070
     2
1070
   272
1070
     2
1070
    77
1070
     1
1070
    73
1070
     1
1070
   171
1070
     3
1070
   274
1070
     4
1070
   177
1070
    35
1070
   176
1070
    35
1070
   178
1070
    35
1070
    48
1040
-0.1
1070
    41
1040
3.5
1070
   147
1040
1.75
1070
    42
1040
1.5875
1070
    44
1040
2.0
1070
   140
1040
3.5
1002
}
1001
ACAD_DSTYLE_DIM_LINETYPE
1070
   380
1005
16
1001
ACAD_DSTYLE_DIM_EXT1_LINETYPE
1070
   381
1005
16
1001
ACAD_DSTYLE_DIM_EXT2_LINETYPE
1070
   382
1005
16
0
DIMENSION
5
159
100
AcDbEntity
8
SK2
62
256
6
ByLayer
370
13
48
1
60
0
100
AcDbDimension
2
_U3
10
54.0062
20
-16.176003
30
0
11
72.5
21
-16.176003
31
0
70
32
71
1
72
1
41
1
210
0
220
0
230
1
3
Standard
100
AcDbAlignedDimension
13
55
23
0
33
0
14
54.0062
24
-3.3735
34
0
50
0
100
AcDbRotatedDimension
1001
ACAD
1000
DSTYLE
1002
{
1070
   371
1070
    13
1070
   372
1070
    13
1070
   170
1070
     0
1070
   144
1040
1.0
1070
   277
1070
     2
1070
   278
1070
    44
1070
   146
1040
1.0
1070
   345
1005
16
1070
   347
1005
16
1070
   346
1005
16
1070
   344
1005
0
1070
   343
1005
0
1070
   172
1070
     1
1070
    76
1070
     0
1070
    75
1070
     0
1070
   282
1070
     0
1070
   281
1070
     0
1070
    71
1070
     0
1070
    74
1070
     0
1070
   279
1070
     0
1070
   173
1070
     1
1070
   340
1005
F8
1070
   271
1070
     2
1070
   272
1070
     2
1070
    77
1070
     1
1070
    73
1070
     1
1070
   171
1070
     3
1070
   274
1070
     4
1070
   177
1070
    35
1070
   176
1070
    35
1070
   178
1070
    35
1070
    48
1040
-0.1
1070
    41
1040
3.5
1070
   147
1040
1.75
1070
    42
1040
1.5875
1070
    44
1040
2.0
1070
   140
1040
3.5
1002
}
1001
ACAD_DSTYLE_DIM_LINETYPE
1070
   380
1005
16
1001
ACAD_DSTYLE_DIM_EXT1_LINETYPE
1070
   381
1005
16
1001
ACAD_DSTYLE_DIM_EXT2_LINETYPE
1070
   382
1005
16
0
DIMENSION
5
173
100
AcDbEntity
8
SK2
62
256
6
ByLayer
370
13
48
1
60
0
100
AcDbDimension
2
_U4
10
54.0062
20
-22.343428
30
0
11
9.0031
21
-22.343428
31
0
70
32
71
1
72
1
41
1
210
0
220
0
230
1
3
Standard
100
AcDbAlignedDimension
13
-36
23
-4
33
0
14
54.0062
24
-3.3735
34
0
50
0
100
AcDbRotatedDimension
1001
ACAD
1000
DSTYLE
1002
{
1070
   371
1070
    13
1070
   372
1070
    13
1070
   170
1070
     0
1070
   144
1040
1.0
1070
   277
1070
     2
1070
   278
1070
    44
1070
   146
1040
1.0
1070
   345
1005
16
1070
   347
1005
16
1070
   346
1005
16
1070
   344
1005
0
1070
   343
1005
0
1070
   172
1070
     1
1070
    76
1070
     0
1070
    75
1070
     0
1070
   282
1070
     0
1070
   281
1070
     0
1070
    71
1070
     0
1070
    74
1070
     0
1070
   279
1070
     0
1070
   173
1070
     1
1070
   340
1005
F8
1070
   271
1070
     2
1070
   272
1070
     2
1070
    77
1070
     1
1070
    73
1070
     1
1070
   171
1070
     3
1070
   274
1070
     4
1070
   177
1070
    35
1070
   176
1070
    35
1070
   178
1070
    35
1070
    48
1040
-0.1
1070
    41
1040
3.5
1070
   147
1040
1.75
1070
    42
1040
1.5875
1070
    44
1040
2.0
1070
   140
1040
3.5
1002
}
1001
ACAD_DSTYLE_DIM_LINETYPE
1070
   380
1005
16
1001
ACAD_DSTYLE_DIM_EXT1_LINETYPE
1070
   381
1005
16
1001
ACAD_DSTYLE_DIM_EXT2_LINETYPE
1070
   382
1005
16
0
ENDSEC
0
SECTION
2
OBJECTS
0
DICTIONARY
5
1fb
330
0
100
AcDbDictionary
280
0
281
1
3
ACAD_GROUP
350
1fc
3
ACAD_MLINESTYLE
350
1fd
0
DICTIONARY
5
1fc
330
0
100
AcDbDictionary
280
0
281
1
0
DICTIONARY
5
1fd
330
0
100
AcDbDictionary
280
0
281
1
3
Standard
350
18
0
MLINESTYLE
5
18
330
1fd
100
AcDbMlineStyle
2
Standard
70
0
3

62
256
51
90
52
90
71
2
49
-0.5
62
256
6
ByLayer
49
0.5
62
256
6
ByLayer
0
RASTERVARIABLES
5
1e9
330

100
AcDbRasterVariables
90
0
70
1
71
1
72
1
0
ENDSEC
0
EOF
