0
SECTION
2
HEADER
9
$ACADVER
1
AC1015
9
$DWGCODEPAGE
3
ANSI_1252
9
$HANDSEED
5
206
9
$ANGBASE
50
0
9
$ANGDIR
70
0
9
$ATTMODE
70
1
9
$AUNITS
70
0
9
$AUPREC
70
0
9
$CECOLOR
62
256
9
$CELTSCALE
40
1
9
$CELTYPE
6
ByLayer
9
$CELWEIGHT
370
18
9
$CLAYER
8
0
9
$CMLJUST
70
0
9
$CMLSCALE
40
1
9
$CMLSTYLE
2
Standard
9
$DIMSTYLE
2
Standard
9
$TEXTSIZE
40
0.2
9
$TEXTSTYLE
7
Standard
9
$LUNITS
70
2
9
$LUPREC
70
4
9
$EXTNAMES
290
1
9
$INSUNITS
70
4
9
$LTSCALE
40
1
9
$LWDISPLAY
290
1
9
$PDMODE
70
0
9
$PDSIZE
40
0
9
$PLINEGEN
70
0
0
ENDSEC
0
SECTION
2
CLASSES
0
CLASS
1
RASTERVARIABLES
2
AcDbRasterVariables
3
ISM
90
0
280
0
281
0
0
ENDSEC
0
SECTION
2
TABLES
0
TABLE
2
VPORT
5
1fc
100
AcDbSymbolTable
0
VPORT
5
1
100
AcDbSymbolTableRecord
100
AcDbViewportTableRecord
2
*Active
70
0
10
0
20
0
11
1
21
1
12
-1
22
1
13
0
23
0
14
0.5
24
0.5
15
10
25
10
16
0
26
0
36
1
17
0
27
0
37
0
0
ENDTAB
0
TABLE
2
LTYPE
5
1fd
100
AcDbSymbolTable
0
LTYPE
5
14
100
AcDbSymbolTableRecord
100
AcDbLinetypeTableRecord
70
0
2
ByBlock
3

72
65
73
0
40
0
0
LTYPE
5
15
100
AcDbSymbolTableRecord
100
AcDbLinetypeTableRecord
70
0
2
ByLayer
3

72
65
73
0
40
0
0
LTYPE
5
16
100
AcDbSymbolTableRecord
100
AcDbLinetypeTableRecord
70
0
2
Continuous
3
Solid line
72
65
73
0
40
0
0
LTYPE
5
6E
100
AcDbSymbolTableRecord
100
AcDbLinetypeTableRecord
70
0
2
CENTER
3
____ _ ____ _ ____ _ ____
72
65
73
4
40
47.5
49
22
74
0
49
-8.5
74
0
49
8.5
74
0
49
-8.5
74
0
0
LTYPE
5
6F
100
AcDbSymbolTableRecord
100
AcDbLinetypeTableRecord
70
0
2
DASHED
3
__ __ __ __ __ __ __ __ __
72
65
73
2
40
25.72
49
12.86
74
0
49
-12.86
74
0
0
ENDTAB
0
TABLE
2
LAYER
5
1fe
100
AcDbSymbolTable
0
LAYER
5
10
100
AcDbSymbolTableRecord
100
AcDbLayerTableRecord
2
0
70
0
62
7
6
Continuous
290
1
370
-3
390
0
0
LAYER
5
71
100
AcDbSymbolTableRecord
100
AcDbLayerTableRecord
2
80
70
0
62
-6
6
Continuous
290
1
370
-3
390
0
0
LAYER
5
73
100
AcDbSymbolTableRecord
100
AcDbLayerTableRecord
2
81
70
0
62
-3
6
Continuous
290
1
370
-3
390
0
0
LAYER
5
75
100
AcDbSymbolTableRecord
100
AcDbLayerTableRecord
2
1
70
0
62
4
6
Continuous
290
1
370
-3
390
0
0
LAYER
5
8B
100
AcDbSymbolTableRecord
100
AcDbLayerTableRecord
2
4
70
0
62
-2
6
CENTER
290
1
370
-3
390
0
0
LAYER
5
A6
100
AcDbSymbolTableRecord
100
AcDbLayerTableRecord
2
2
70
0
62
7
6
Continuous
290
1
370
-3
390
0
0
LAYER
5
111
100
AcDbSymbolTableRecord
100
AcDbLayerTableRecord
2
Defpoints
70
0
62
7
6
Continuous
290
0
370
-3
390
0
0
LAYER
5
1e8
100
AcDbSymbolTableRecord
100
AcDbLayerTableRecord
2
SK1
70
0
62
4
6
Continuous
290
1
370
-3
390
0
0
LAYER
5
1e9
100
AcDbSymbolTableRecord
100
AcDbLayerTableRecord
2
SK4
70
0
62
2
6
CENTER
290
1
370
-3
390
0
0
LAYER
5
1ea
100
AcDbSymbolTableRecord
100
AcDbLayerTableRecord
2
SK2
70
0
62
7
6
Continuous
290
1
370
-3
390
0
0
LAYER
5
1eb
100
AcDbSymbolTableRecord
100
AcDbLayerTableRecord
2
SK6
70
0
62
5
6
Continuous
290
1
370
-3
390
0
0
ENDTAB
0
TABLE
2
STYLE
5
1ff
100
AcDbSymbolTable
0
STYLE
5
11
100
AcDbSymbolTableRecord
100
AcDbTextStyleTableRecord
2
Standard
3
txt
70
0
71
0
40
0
41
1
42
0
50
0
0
STYLE
5
F6
100
AcDbSymbolTableRecord
100
AcDbTextStyleTableRecord
2
iso_b_vert
3
simplex.shx
70
0
71
0
40
0
41
1
42
0
50
0
0
STYLE
5
F7
100
AcDbSymbolTableRecord
100
AcDbTextStyleTableRecord
2
DWGDirectTextStyle
3
simplex
70
0
71
0
40
0
41
1
42
0
50
0
0
ENDTAB
0
TABLE
2
DIMSTYLE
5
200
100
AcDbSymbolTable
100
AcDbDimStyleTable
0
DIMSTYLE
105
27
100
AcDbSymbolTableRecord
100
AcDbDimStyleTableRecord
2
Standard
70
0
3
<>
41
0.18
42
0.0625
44
0.18
140
0.18
147
0.09
73
0
74
0
77
1
271
2
275
0
278
52
280
0
340
11
0
ENDTAB
0
TABLE
2
VIEW
5
201
100
AcDbSymbolTable
0
ENDTAB
0
TABLE
2
UCS
5
202
100
AcDbSymbolTable
0
ENDTAB
0
TABLE
2
APPID
5
203
100
AcDbSymbolTable
0
APPID
5
12
100
AcDbSymbolTableRecord
100
AcDbRegAppTableRecord
2
ACAD
70
0
0
APPID
5
10D
100
AcDbSymbolTableRecord
100
AcDbRegAppTableRecord
2
ACAD_DSTYLE_DIMBREAK
70
0
0
APPID
5
1A7
100
AcDbSymbolTableRecord
100
AcDbRegAppTableRecord
2
ACAD_DSTYLE_DIM_LINETYPE
70
0
0
APPID
5
1A8
100
AcDbSymbolTableRecord
100
AcDbRegAppTableRecord
2
ACAD_DSTYLE_DIM_EXT1_LINETYPE
70
0
0
APPID
5
1A9
100
AcDbSymbolTableRecord
100
AcDbRegAppTableRecord
2
ACAD_DSTYLE_DIM_EXT2_LINETYPE
70
0
0
APPID
5
1E4
100
AcDbSymbolTableRecord
100
AcDbRegAppTableRecord
2
ACAD_MLEADERVER
70
0
0
ENDTAB
0
TABLE
2
BLOCK_RECORD
5
204
100
AcDbSymbolTable
0
BLOCK_RECORD
5
1F
100
AcDbSymbolTableRecord
100
AcDbBlockTableRecord
2
*Model_Space
340
0
70
0
0
BLOCK_RECORD
5
1B
100
AcDbSymbolTableRecord
100
AcDbBlockTableRecord
2
*Paper_Space
340
0
70
0
0
BLOCK_RECORD
5
23
100
AcDbSymbolTableRecord
100
AcDbBlockTableRecord
2
*Paper_Space0
340
0
70
0
0
BLOCK_RECORD
5
112
100
AcDbSymbolTableRecord
100
AcDbBlockTableRecord
2
*D1
340
0
70
0
0
BLOCK_RECORD
5
11E
100
AcDbSymbolTableRecord
100
AcDbBlockTableRecord
2
_U0
340
0
70
0
0
BLOCK_RECORD
5
12A
100
AcDbSymbolTableRecord
100
AcDbBlockTableRecord
2
*D3
340
0
70
0
0
BLOCK_RECORD
5
136
100
AcDbSymbolTableRecord
100
AcDbBlockTableRecord
2
_U1
340
0
70
0
0
BLOCK_RECORD
5
142
100
AcDbSymbolTableRecord
100
AcDbBlockTableRecord
2
*D5
340
0
70
0
0
BLOCK_RECORD
5
14E
100
AcDbSymbolTableRecord
100
AcDbBlockTableRecord
2
_U2
340
0
70
0
0
BLOCK_RECORD
5
15A
100
AcDbSymbolTableRecord
100
AcDbBlockTableRecord
2
*D7
340
0
70
0
0
BLOCK_RECORD
5
168
100
AcDbSymbolTableRecord
100
AcDbBlockTableRecord
2
_U3
340
0
70
0
0
BLOCK_RECORD
5
174
100
AcDbSymbolTableRecord
100
AcDbBlockTableRecord
2
*D9
340
0
70
0
0
BLOCK_RECORD
5
180
100
AcDbSymbolTableRecord
100
AcDbBlockTableRecord
2
_U4
340
0
70
0
0
ENDTAB
0
ENDSEC
0
SECTION
2
BLOCKS
0
BLOCK
5
20
100
AcDbEntity
8
0
100
AcDbBlockBegin
2
*Model_Space
70
0
10
0
20
0
30
0
3
*Model_Space
0
ENDBLK
5
21
100
AcDbEntity
8
0
100
AcDbBlockEnd
0
BLOCK
5
1C
100
AcDbEntity
8
0
100
AcDbBlockBegin
2
*Paper_Space
70
0
10
0
20
0
30
0
3
*Paper_Space
0
ENDBLK
5
1D
100
AcDbEntity
8
0
100
AcDbBlockEnd
0
BLOCK
5
24
100
AcDbEntity
8
0
100
AcDbBlockBegin
2
*Paper_Space0
70
0
10
0
20
0
30
0
3
*Paper_Space0
0
ENDBLK
5
25
100
AcDbEntity
8
0
100
AcDbBlockEnd
0
BLOCK
5
113
100
AcDbEntity
8
0
100
AcDbBlockBegin
2
*D1
70
1
10
0
20
0
30
0
3
*D1
0
LINE
5
115
100
AcDbEntity
8
0
62
256
6
ByLayer
370
-2
48
1
60
0
100
AcDbLine
10
0
20
-1.5875
30
0
11
0
21
-13.999398
31
0
39
0
210
0
220
0
230
1
0
LINE
5
116
100
AcDbEntity
8
0
62
256
6
ByLayer
370
-2
48
1
60
0
100
AcDbLine
10
29.4847
20
-3.3735
30
0
11
29.4847
21
-13.999398
31
0
39
0
210
0
220
0
230
1
0
LINE
5
117
100
AcDbEntity
8
0
62
256
6
ByLayer
370
-2
48
1
60
0
100
AcDbLine
10
3.5
20
-11.999398
30
0
11
25.9847
21
-11.999398
31
0
39
0
210
0
220
0
230
1
0
SOLID
5
118
100
AcDbEntity
8
0
62
256
6
ByLayer
370
-1
48
1
60
0
100
AcDbTrace
10
3.5
20
-11.416065
30
0
11
3.5
21
-12.582732
31
0
12
0
22
-11.999398
32
0
13
0
23
-11.999398
33
0
39
0
210
0
220
0
230
1
0
SOLID
5
119
100
AcDbEntity
8
0
62
256
6
ByLayer
370
-1
48
1
60
0
100
AcDbTrace
10
25.9847
20
-12.582732
30
0
11
25.9847
21
-11.416065
31
0
12
29.4847
22
-11.999398
32
0
13
29.4847
23
-11.999398
33
0
39
0
210
0
220
0
230
1
0
MTEXT
5
11A
100
AcDbEntity
8
0
62
256
6
ByLayer
370
18
48
1
60
0
100
AcDbMText
10
14.74235
20
-4.999398
30
0
210
0
220
0
230
1
1
\A1;29.48
40
3.5
41
0
44
1
50
0
71
5
72
5
7
iso_b_vert
0
POINT
5
11B
100
AcDbEntity
8
Defpoints
62
0
6
ByLayer
370
-1
48
1
60
0
100
AcDbPoint
10
0
20
0
30
0
39
0
210
0
220
0
230
1
50
360
0
POINT
5
11C
100
AcDbEntity
8
Defpoints
62
0
6
ByLayer
370
-1
48
1
60
0
100
AcDbPoint
10
29.4847
20
-1.786
30
0
39
0
210
0
220
0
230
1
50
360
0
POINT
5
11D
100
AcDbEntity
8
Defpoints
62
0
6
ByLayer
370
-1
48
1
60
0
100
AcDbPoint
10
29.4847
20
-11.999398
30
0
39
0
210
0
220
0
230
1
50
360
0
ENDBLK
5
114
100
AcDbEntity
8
0
100
AcDbBlockEnd
0
BLOCK
5
125
100
AcDbEntity
8
0
100
AcDbBlockBegin
2
_U0
70
0
10
0
20
0
30
0
3
_U0
0
MTEXT
5
11F
100
AcDbEntity
8
SK2
62
256
6
ByLayer
370
13
48
1
60
0
100
AcDbMText
10
9.420785
20
-10.966765
30
0
210
0
220
0
230
1
1
\W0.7581;29,48
40
3.5
41
0
44
1.084337
50
0
71
7
72
5
7
iso_b_vert
0
LINE
5
120
100
AcDbEntity
8
SK2
62
256
6
ByLayer
370
13
48
1
60
0
100
AcDbLine
10
0
20
-1.5875
30
0
11
0
21
-13.999398
31
0
39
0
210
0
220
0
230
1
0
LINE
5
121
100
AcDbEntity
8
SK2
62
256
6
ByLayer
370
13
48
1
60
0
100
AcDbLine
10
29.4847
20
-3.3735
30
0
11
29.4847
21
-13.999398
31
0
39
0
210
0
220
0
230
1
0
LINE
5
122
100
AcDbEntity
8
SK2
62
256
6
ByLayer
370
13
48
1
60
0
100
AcDbLine
10
0
20
-11.999398
30
0
11
29.4847
21
-11.999398
31
0
39
0
210
0
220
0
230
1
0
SOLID
5
123
100
AcDbEntity
8
SK2
62
256
6
ByLayer
370
18
48
1
60
0
100
AcDbTrace
10
0
20
-11.999398
30
0
11
3.499998
21
-11.538615
31
0
12
3.500002
22
-12.460182
32
0
13
3.500002
23
-12.460182
33
0
39
0
210
0
220
0
230
1
0
SOLID
5
124
100
AcDbEntity
8
SK2
62
256
6
ByLayer
370
18
48
1
60
0
100
AcDbTrace
10
29.4847
20
-11.999398
30
0
11
25.984702
21
-12.460182
31
0
12
25.984698
22
-11.538615
32
0
13
25.984698
23
-11.538615
33
0
39
0
210
0
220
0
230
1
0
ENDBLK
5
126
100
AcDbEntity
8
0
100
AcDbBlockEnd
0
BLOCK
5
12B
100
AcDbEntity
8
0
100
AcDbBlockBegin
2
*D3
70
1
10
0
20
0
30
0
3
*D3
0
LINE
5
12D
100
AcDbEntity
8
0
62
256
6
ByLayer
370
-2
48
1
60
0
100
AcDbLine
10
-36
20
-4.5875
30
0
11
-36
21
-33.692985
31
0
39
0
210
0
220
0
230
1
0
LINE
5
12E
100
AcDbEntity
8
0
62
256
6
ByLayer
370
-2
48
1
60
0
100
AcDbLine
10
30
20
-1.5875
30
0
11
30
21
-33.692985
31
0
39
0
210
0
220
0
230
1
0
LINE
5
12F
100
AcDbEntity
8
0
62
256
6
ByLayer
370
-2
48
1
60
0
100
AcDbLine
10
-32.5
20
-31.692985
30
0
11
26.5
21
-31.692985
31
0
39
0
210
0
220
0
230
1
0
SOLID
5
130
100
AcDbEntity
8
0
62
256
6
ByLayer
370
-1
48
1
60
0
100
AcDbTrace
10
-32.5
20
-31.109652
30
0
11
-32.5
21
-32.276319
31
0
12
-36
22
-31.692985
32
0
13
-36
23
-31.692985
33
0
39
0
210
0
220
0
230
1
0
SOLID
5
131
100
AcDbEntity
8
0
62
256
6
ByLayer
370
-1
48
1
60
0
100
AcDbTrace
10
26.5
20
-32.276319
30
0
11
26.5
21
-31.109652
31
0
12
30
22
-31.692985
32
0
13
30
23
-31.692985
33
0
39
0
210
0
220
0
230
1
0
MTEXT
5
132
100
AcDbEntity
8
0
62
256
6
ByLayer
370
18
48
1
60
0
100
AcDbMText
10
-3
20
-24.692985
30
0
210
0
220
0
230
1
1
\A1;66.00
40
3.5
41
0
44
1
50
0
71
5
72
5
7
iso_b_vert
0
POINT
5
133
100
AcDbEntity
8
Defpoints
62
0
6
ByLayer
370
-1
48
1
60
0
100
AcDbPoint
10
-36
20
-3
30
0
39
0
210
0
220
0
230
1
50
360
0
POINT
5
134
100
AcDbEntity
8
Defpoints
62
0
6
ByLayer
370
-1
48
1
60
0
100
AcDbPoint
10
30
20
0
30
0
39
0
210
0
220
0
230
1
50
360
0
POINT
5
135
100
AcDbEntity
8
Defpoints
62
0
6
ByLayer
370
-1
48
1
60
0
100
AcDbPoint
10
30
20
-31.692985
30
0
39
0
210
0
220
0
230
1
50
360
0
ENDBLK
5
12C
100
AcDbEntity
8
0
100
AcDbBlockEnd
0
BLOCK
5
13D
100
AcDbEntity
8
0
100
AcDbBlockBegin
2
_U1
70
0
10
0
20
0
30
0
3
_U1
0
MTEXT
5
137
100
AcDbEntity
8
SK2
62
256
6
ByLayer
370
13
48
1
60
0
100
AcDbMText
10
-8.137299
20
-30.660352
30
0
210
0
220
0
230
1
1
\W0.7317;66,00
40
3.5
41
0
44
1.084337
50
0
71
7
72
5
7
iso_b_vert
0
LINE
5
138
100
AcDbEntity
8
SK2
62
256
6
ByLayer
370
13
48
1
60
0
100
AcDbLine
10
-36
20
-4.5875
30
0
11
-36
21
-33.692985
31
0
39
0
210
0
220
0
230
1
0
LINE
5
139
100
AcDbEntity
8
SK2
62
256
6
ByLayer
370
13
48
1
60
0
100
AcDbLine
10
30
20
-1.5875
30
0
11
30
21
-33.692985
31
0
39
0
210
0
220
0
230
1
0
LINE
5
13A
100
AcDbEntity
8
SK2
62
256
6
ByLayer
370
13
48
1
60
0
100
AcDbLine
10
-36
20
-31.692985
30
0
11
30
21
-31.692985
31
0
39
0
210
0
220
0
230
1
0
SOLID
5
13B
100
AcDbEntity
8
SK2
62
256
6
ByLayer
370
18
48
1
60
0
100
AcDbTrace
10
-36
20
-31.692985
30
0
11
-32.500002
21
-31.232202
31
0
12
-32.499998
22
-32.153769
32
0
13
-32.499998
23
-32.153769
33
0
39
0
210
0
220
0
230
1
0
SOLID
5
13C
100
AcDbEntity
8
SK2
62
256
6
ByLayer
370
18
48
1
60
0
100
AcDbTrace
10
30
20
-31.692985
30
0
11
26.500002
21
-32.153769
31
0
12
26.499998
22
-31.232202
32
0
13
26.499998
23
-31.232202
33
0
39
0
210
0
220
0
230
1
0
ENDBLK
5
13E
100
AcDbEntity
8
0
100
AcDbBlockEnd
0
BLOCK
5
143
100
AcDbEntity
8
0
100
AcDbBlockBegin
2
*D5
70
1
10
0
20
0
30
0
3
*D5
0
LINE
5
145
100
AcDbEntity
8
0
62
256
6
ByLayer
370
-2
48
1
60
0
100
AcDbLine
10
11.62
20
3.3735
30
0
11
11.62
21
15.395119
31
0
39
0
210
0
220
0
230
1
0
LINE
5
146
100
AcDbEntity
8
0
62
256
6
ByLayer
370
-2
48
1
60
0
100
AcDbLine
10
30
20
1.5875
30
0
11
30
21
15.395119
31
0
39
0
210
0
220
0
230
1
0
LINE
5
147
100
AcDbEntity
8
0
62
256
6
ByLayer
370
-2
48
1
60
0
100
AcDbLine
10
15.12
20
13.395119
30
0
11
26.5
21
13.395119
31
0
39
0
210
0
220
0
230
1
0
SOLID
5
148
100
AcDbEntity
8
0
62
256
6
ByLayer
370
-1
48
1
60
0
100
AcDbTrace
10
15.12
20
13.978453
30
0
11
15.12
21
12.811786
31
0
12
11.62
22
13.395119
32
0
13
11.62
23
13.395119
33
0
39
0
210
0
220
0
230
1
0
SOLID
5
149
100
AcDbEntity
8
0
62
256
6
ByLayer
370
-1
48
1
60
0
100
AcDbTrace
10
26.5
20
12.811786
30
0
11
26.5
21
13.978453
31
0
12
30
22
13.395119
32
0
13
30
23
13.395119
33
0
39
0
210
0
220
0
230
1
0
MTEXT
5
14A
100
AcDbEntity
8
0
62
256
6
ByLayer
370
18
48
1
60
0
100
AcDbMText
10
20.81
20
20.395119
30
0
210
0
220
0
230
1
1
\A1;18.38
40
3.5
41
0
44
1
50
0
71
5
72
5
7
iso_b_vert
0
POINT
5
14B
100
AcDbEntity
8
Defpoints
62
0
6
ByLayer
370
-1
48
1
60
0
100
AcDbPoint
10
11.62
20
1.786
30
0
39
0
210
0
220
0
230
1
50
360
0
POINT
5
14C
100
AcDbEntity
8
Defpoints
62
0
6
ByLayer
370
-1
48
1
60
0
100
AcDbPoint
10
30
20
0
30
0
39
0
210
0
220
0
230
1
50
360
0
POINT
5
14D
100
AcDbEntity
8
Defpoints
62
0
6
ByLayer
370
-1
48
1
60
0
100
AcDbPoint
10
30
20
13.395119
30
0
39
0
210
0
220
0
230
1
50
360
0
ENDBLK
5
144
100
AcDbEntity
8
0
100
AcDbBlockEnd
0
BLOCK
5
155
100
AcDbEntity
8
0
100
AcDbBlockBegin
2
_U2
70
0
10
0
20
0
30
0
3
_U2
0
MTEXT
5
14F
100
AcDbEntity
8
SK2
62
256
6
ByLayer
370
13
48
1
60
0
100
AcDbMText
10
16.110135
20
14.427753
30
0
210
0
220
0
230
1
1
\W0.6713;18,38
40
3.5
41
0
44
1.084337
50
0
71
7
72
5
7
iso_b_vert
0
LINE
5
150
100
AcDbEntity
8
SK2
62
256
6
ByLayer
370
13
48
1
60
0
100
AcDbLine
10
11.62
20
3.3735
30
0
11
11.62
21
15.395119
31
0
39
0
210
0
220
0
230
1
0
LINE
5
151
100
AcDbEntity
8
SK2
62
256
6
ByLayer
370
13
48
1
60
0
100
AcDbLine
10
30
20
1.5875
30
0
11
30
21
15.395119
31
0
39
0
210
0
220
0
230
1
0
LINE
5
152
100
AcDbEntity
8
SK2
62
256
6
ByLayer
370
13
48
1
60
0
100
AcDbLine
10
11.62
20
13.395119
30
0
11
30
21
13.395119
31
0
39
0
210
0
220
0
230
1
0
SOLID
5
153
100
AcDbEntity
8
SK2
62
256
6
ByLayer
370
18
48
1
60
0
100
AcDbTrace
10
11.62
20
13.395119
30
0
11
15.119998
21
13.855903
31
0
12
15.120002
22
12.934335
32
0
13
15.120002
23
12.934335
33
0
39
0
210
0
220
0
230
1
0
SOLID
5
154
100
AcDbEntity
8
SK2
62
256
6
ByLayer
370
18
48
1
60
0
100
AcDbTrace
10
30
20
13.395119
30
0
11
26.500002
21
12.934335
31
0
12
26.499998
22
13.855903
32
0
13
26.499998
23
13.855903
33
0
39
0
210
0
220
0
230
1
0
ENDBLK
5
156
100
AcDbEntity
8
0
100
AcDbBlockEnd
0
BLOCK
5
15B
100
AcDbEntity
8
0
100
AcDbBlockBegin
2
*D7
70
1
10
0
20
0
30
0
3
*D7
0
LINE
5
15D
100
AcDbEntity
8
0
62
256
6
ByLayer
370
-2
48
1
60
0
100
AcDbLine
10
30
20
-1.5875
30
0
11
30
21
-16.588503
31
0
39
0
210
0
220
0
230
1
0
LINE
5
15E
100
AcDbEntity
8
0
62
256
6
ByLayer
370
-2
48
1
60
0
100
AcDbLine
10
29.4847
20
-3.3735
30
0
11
29.4847
21
-16.588503
31
0
39
0
210
0
220
0
230
1
0
LINE
5
15F
100
AcDbEntity
8
0
62
256
6
ByLayer
370
-2
48
1
60
0
100
AcDbLine
10
30
20
-14.588503
30
0
11
58.166667
21
-14.588503
31
0
39
0
210
0
220
0
230
1
0
LINE
5
160
100
AcDbEntity
8
0
62
256
6
ByLayer
370
-2
48
1
60
0
100
AcDbLine
10
33.5
20
-14.588503
30
0
11
37
21
-14.588503
31
0
39
0
210
0
220
0
230
1
0
LINE
5
161
100
AcDbEntity
8
0
62
256
6
ByLayer
370
-2
48
1
60
0
100
AcDbLine
10
25.9847
20
-14.588503
30
0
11
22.4847
21
-14.588503
31
0
39
0
210
0
220
0
230
1
0
SOLID
5
162
100
AcDbEntity
8
0
62
256
6
ByLayer
370
-1
48
1
60
0
100
AcDbTrace
10
33.5
20
-14.00517
30
0
11
33.5
21
-15.171837
31
0
12
30
22
-14.588503
32
0
13
30
23
-14.588503
33
0
39
0
210
0
220
0
230
1
0
SOLID
5
163
100
AcDbEntity
8
0
62
256
6
ByLayer
370
-1
48
1
60
0
100
AcDbTrace
10
25.9847
20
-15.171837
30
0
11
25.9847
21
-14.00517
31
0
12
29.4847
22
-14.588503
32
0
13
29.4847
23
-14.588503
33
0
39
0
210
0
220
0
230
1
0
MTEXT
5
164
100
AcDbEntity
8
0
62
256
6
ByLayer
370
18
48
1
60
0
100
AcDbMText
10
47.583333
20
-7.588503
30
0
210
0
220
0
230
1
1
\A1;0.52
40
3.5
41
0
44
1
50
0
71
5
72
5
7
iso_b_vert
0
POINT
5
165
100
AcDbEntity
8
Defpoints
62
0
6
ByLayer
370
-1
48
1
60
0
100
AcDbPoint
10
30
20
0
30
0
39
0
210
0
220
0
230
1
50
360
0
POINT
5
166
100
AcDbEntity
8
Defpoints
62
0
6
ByLayer
370
-1
48
1
60
0
100
AcDbPoint
10
29.4847
20
-1.786
30
0
39
0
210
0
220
0
230
1
50
360
0
POINT
5
167
100
AcDbEntity
8
Defpoints
62
0
6
ByLayer
370
-1
48
1
60
0
100
AcDbPoint
10
29.4847
20
-14.588503
30
0
39
0
210
0
220
0
230
1
50
360
0
ENDBLK
5
15C
100
AcDbEntity
8
0
100
AcDbBlockEnd
0
BLOCK
5
16F
100
AcDbEntity
8
0
100
AcDbBlockBegin
2
_U3
70
0
10
0
20
0
30
0
3
_U3
0
MTEXT
5
169
100
AcDbEntity
8
SK2
62
256
6
ByLayer
370
13
48
1
60
0
100
AcDbMText
10
36.15186
20
-13.55587
30
0
210
0
220
0
230
1
1
\W0.7150;0,52
40
3.5
41
0
44
1.084337
50
0
71
7
72
5
7
iso_b_vert
0
LINE
5
16A
100
AcDbEntity
8
SK2
62
256
6
ByLayer
370
13
48
1
60
0
100
AcDbLine
10
30
20
-1.5875
30
0
11
30
21
-16.588503
31
0
39
0
210
0
220
0
230
1
0
LINE
5
16B
100
AcDbEntity
8
SK2
62
256
6
ByLayer
370
13
48
1
60
0
100
AcDbLine
10
29.4847
20
-3.3735
30
0
11
29.4847
21
-16.588503
31
0
39
0
210
0
220
0
230
1
0
LINE
5
16C
100
AcDbEntity
8
SK2
62
256
6
ByLayer
370
13
48
1
60
0
100
AcDbLine
10
20.7347
20
-14.588503
30
0
11
43.996491
21
-14.588503
31
0
39
0
210
0
220
0
230
1
0
SOLID
5
16D
100
AcDbEntity
8
SK2
62
256
6
ByLayer
370
18
48
1
60
0
100
AcDbTrace
10
30
20
-14.588503
30
0
11
33.499998
21
-14.127719
31
0
12
33.500002
22
-15.049287
32
0
13
33.500002
23
-15.049287
33
0
39
0
210
0
220
0
230
1
0
SOLID
5
16E
100
AcDbEntity
8
SK2
62
256
6
ByLayer
370
18
48
1
60
0
100
AcDbTrace
10
29.4847
20
-14.588503
30
0
11
25.984702
21
-15.049287
31
0
12
25.984698
22
-14.127719
32
0
13
25.984698
23
-14.127719
33
0
39
0
210
0
220
0
230
1
0
ENDBLK
5
170
100
AcDbEntity
8
0
100
AcDbBlockEnd
0
BLOCK
5
175
100
AcDbEntity
8
0
100
AcDbBlockBegin
2
*D9
70
1
10
0
20
0
30
0
3
*D9
0
LINE
5
177
100
AcDbEntity
8
0
62
256
6
ByLayer
370
-2
48
1
60
0
100
AcDbLine
10
-36
20
-4.5875
30
0
11
-36
21
-23.343428
31
0
39
0
210
0
220
0
230
1
0
LINE
5
178
100
AcDbEntity
8
0
62
256
6
ByLayer
370
-2
48
1
60
0
100
AcDbLine
10
29.4847
20
-3.3735
30
0
11
29.4847
21
-23.343428
31
0
39
0
210
0
220
0
230
1
0
LINE
5
179
100
AcDbEntity
8
0
62
256
6
ByLayer
370
-2
48
1
60
0
100
AcDbLine
10
-32.5
20
-21.343428
30
0
11
25.9847
21
-21.343428
31
0
39
0
210
0
220
0
230
1
0
SOLID
5
17A
100
AcDbEntity
8
0
62
256
6
ByLayer
370
-1
48
1
60
0
100
AcDbTrace
10
-32.5
20
-20.760095
30
0
11
-32.5
21
-21.926762
31
0
12
-36
22
-21.343428
32
0
13
-36
23
-21.343428
33
0
39
0
210
0
220
0
230
1
0
SOLID
5
17B
100
AcDbEntity
8
0
62
256
6
ByLayer
370
-1
48
1
60
0
100
AcDbTrace
10
25.9847
20
-21.926762
30
0
11
25.9847
21
-20.760095
31
0
12
29.4847
22
-21.343428
32
0
13
29.4847
23
-21.343428
33
0
39
0
210
0
220
0
230
1
0
MTEXT
5
17C
100
AcDbEntity
8
0
62
256
6
ByLayer
370
18
48
1
60
0
100
AcDbMText
10
-3.25765
20
-14.343428
30
0
210
0
220
0
230
1
1
\A1;65.48
40
3.5
41
0
44
1
50
0
71
5
72
5
7
iso_b_vert
0
POINT
5
17D
100
AcDbEntity
8
Defpoints
62
0
6
ByLayer
370
-1
48
1
60
0
100
AcDbPoint
10
-36
20
-3
30
0
39
0
210
0
220
0
230
1
50
360
0
POINT
5
17E
100
AcDbEntity
8
Defpoints
62
0
6
ByLayer
370
-1
48
1
60
0
100
AcDbPoint
10
29.4847
20
-1.786
30
0
39
0
210
0
220
0
230
1
50
360
0
POINT
5
17F
100
AcDbEntity
8
Defpoints
62
0
6
ByLayer
370
-1
48
1
60
0
100
AcDbPoint
10
29.4847
20
-21.343428
30
0
39
0
210
0
220
0
230
1
50
360
0
ENDBLK
5
176
100
AcDbEntity
8
0
100
AcDbBlockEnd
0
BLOCK
5
187
100
AcDbEntity
8
0
100
AcDbBlockBegin
2
_U4
70
0
10
0
20
0
30
0
3
_U4
0
MTEXT
5
181
100
AcDbEntity
8
SK2
62
256
6
ByLayer
370
13
48
1
60
0
100
AcDbMText
10
-8.579215
20
-20.310795
30
0
210
0
220
0
230
1
1
\W0.7581;65,48
40
3.5
41
0
44
1.084337
50
0
71
7
72
5
7
iso_b_vert
0
LINE
5
182
100
AcDbEntity
8
SK2
62
256
6
ByLayer
370
13
48
1
60
0
100
AcDbLine
10
-36
20
-4.5875
30
0
11
-36
21
-23.343428
31
0
39
0
210
0
220
0
230
1
0
LINE
5
183
100
AcDbEntity
8
SK2
62
256
6
ByLayer
370
13
48
1
60
0
100
AcDbLine
10
29.4847
20
-3.3735
30
0
11
29.4847
21
-23.343428
31
0
39
0
210
0
220
0
230
1
0
LINE
5
184
100
AcDbEntity
8
SK2
62
256
6
ByLayer
370
13
48
1
60
0
100
AcDbLine
10
-36
20
-21.343428
30
0
11
29.4847
21
-21.343428
31
0
39
0
210
0
220
0
230
1
0
SOLID
5
185
100
AcDbEntity
8
SK2
62
256
6
ByLayer
370
18
48
1
60
0
100
AcDbTrace
10
-36
20
-21.343428
30
0
11
-32.500002
21
-20.882645
31
0
12
-32.499998
22
-21.804212
32
0
13
-32.499998
23
-21.804212
33
0
39
0
210
0
220
0
230
1
0
SOLID
5
186
100
AcDbEntity
8
SK2
62
256
6
ByLayer
370
18
48
1
60
0
100
AcDbTrace
10
29.4847
20
-21.343428
30
0
11
25.984702
21
-21.804212
31
0
12
25.984698
22
-20.882645
32
0
13
25.984698
23
-20.882645
33
0
39
0
210
0
220
0
230
1
0
ENDBLK
5
188
100
AcDbEntity
8
0
100
AcDbBlockEnd
0
ENDSEC
0
SECTION
2
ENTITIES
0
ARC
5
AF
100
AcDbEntity
8
1
62
256
6
ByLayer
370
18
48
1
60
0
100
AcDbCircle
39
0
10
1.556976
20
-2.568546
30
0
40
0.800000000000001
210
0
220
0
230
1
100
AcDbArc
50
89.96419
51
166.682848
0
ARC
5
B0
100
AcDbEntity
8
1
62
256
6
ByLayer
370
18
48
1
60
0
100
AcDbCircle
39
0
10
1.556976
20
2.568546
30
0
40
0.800000000000001
210
0
220
0
230
1
100
AcDbArc
50
193.317152
51
270.03581
0
ARC
5
B1
100
AcDbEntity
8
1
62
256
6
ByLayer
370
18
48
1
60
0
100
AcDbCircle
39
0
10
0
20
-2.2
30
0
40
0.800000000000001
210
0
220
0
230
1
100
AcDbArc
50
270
51
346.682848
0
ARC
5
B2
100
AcDbEntity
8
1
62
256
6
ByLayer
370
18
48
1
60
0
100
AcDbCircle
39
0
10
0
20
2.2
30
0
40
0.800000000000001
210
0
220
0
230
1
100
AcDbArc
50
13.317152
51
90
0
ELLIPSE
5
B3
100
AcDbEntity
8
1
62
256
6
ByLayer
370
18
48
1
60
0
100
AcDbEllipse
10
4.25
20
-1.931514
30
0
11
0.25
21
0
31
0
210
0
220
0
230
1
40
1
41
1.57792885847514
42
2.39016601287398
0
ELLIPSE
5
B4
100
AcDbEntity
8
1
62
256
6
ByLayer
370
18
48
1
60
0
100
AcDbEllipse
10
4.25
20
1.931514
30
0
11
0.25
21
0
31
0
210
0
220
0
230
1
40
1
41
-2.37093847341747
42
-1.55802045636319
0
POINT
5
70
100
AcDbEntity
8
80
62
256
6
ByLayer
370
18
48
1
60
0
100
AcDbPoint
10
0
20
0
30
0
39
0
210
0
220
0
230
1
50
360
0
POINT
5
72
100
AcDbEntity
8
81
62
256
6
ByLayer
370
18
48
1
60
0
100
AcDbPoint
10
30
20
0
30
0
39
0
210
0
220
0
230
1
50
360
0
POINT
5
74
100
AcDbEntity
8
1
62
256
6
ByLayer
370
18
48
1
60
1
100
AcDbPoint
10
29.4847
20
-1.786
30
0
39
0
210
0
220
0
230
1
50
360
0
POINT
5
76
100
AcDbEntity
8
1
62
256
6
ByLayer
370
18
48
1
60
1
100
AcDbPoint
10
-36
20
-3
30
0
39
0
210
0
220
0
230
1
50
360
0
POINT
5
77
100
AcDbEntity
8
1
62
256
6
ByLayer
370
18
48
1
60
1
100
AcDbPoint
10
11.62
20
1.786
30
0
39
0
210
0
220
0
230
1
50
360
0
POINT
5
78
100
AcDbEntity
8
1
62
256
6
ByLayer
370
18
48
1
60
1
100
AcDbPoint
10
29.4847
20
-1.786
30
0
39
0
210
0
220
0
230
1
50
360
0
POINT
5
79
100
AcDbEntity
8
1
62
256
6
ByLayer
370
18
48
1
60
1
100
AcDbPoint
10
-36
20
-3
30
0
39
0
210
0
220
0
230
1
50
360
0
POINT
5
7A
100
AcDbEntity
8
1
62
256
6
ByLayer
370
18
48
1
60
1
100
AcDbPoint
10
29.4847
20
-1.786
30
0
39
0
210
0
220
0
230
1
50
360
0
SPLINE
5
B5
100
AcDbEntity
8
SK1
62
256
6
ByLayer
370
18
48
1
60
0
100
AcDbSpline
70
4
71
3
72
8
73
4
40
0
40
0
40
0
40
0
40
1
40
1
40
1
40
1
41
1
10
-35.9999999999999
20
0.726720792040226
30
0
41
1
10
-35.9170320457972
20
0.725645877680307
30
0
41
1
10
-35.8336569755608
20
0.724575404645321
30
0
41
1
10
-35.7499999999999
20
0.72350800698203
30
0
0
SPLINE
5
B6
100
AcDbEntity
8
SK1
62
256
6
ByLayer
370
18
48
1
60
0
100
AcDbSpline
70
4
71
3
72
8
73
4
40
0
40
0
40
0
40
0
40
1
40
1
40
1
40
1
41
1
10
-35.9999999999999
20
-0.726720792040226
30
0
41
1
10
-35.9170320457972
20
-0.725645877680307
30
0
41
1
10
-35.8336569755608
20
-0.724575404645321
30
0
41
1
10
-35.7499999999999
20
-0.72350800698203
30
0
0
SPLINE
5
B7
100
AcDbEntity
8
SK1
62
256
6
ByLayer
370
18
48
1
60
0
100
AcDbSpline
70
4
71
3
72
12
73
8
40
0
40
0
40
0
40
0
40
0.500000000000002
40
0.500000000000002
40
0.750000000000001
40
0.750000000000001
40
1
40
1
40
1
40
1
41
1
10
-35.75
20
0.723508006982144
30
0
41
1
10
-35.725991403848
20
0.723201676048461
30
0
41
1
10
-35.7033434775092
20
0.714664145228028
30
0
41
1
10
-35.6754686370361
20
0.690224564843703
30
0
41
1
10
-35.6670255857875
20
0.679861138864766
30
0
41
1
10
-35.6543349758772
20
0.654402952325825
30
0
41
1
10
-35.65
20
0.638836578272986
30
0
41
1
10
-35.65
20
0.621876780447934
30
0
0
SPLINE
5
B8
100
AcDbEntity
8
SK1
62
256
6
ByLayer
370
18
48
1
60
0
100
AcDbSpline
70
4
71
3
72
12
73
8
40
0
40
0
40
0
40
0
40
0.249999999999999
40
0.249999999999999
40
0.499999999999998
40
0.499999999999998
40
1
40
1
40
1
40
1
41
1
10
-35.65
20
0.678028504242263
30
0
41
1
10
-35.65
20
0.695003754848443
30
0
41
1
10
-35.6543186307252
20
0.710164842633787
30
0
41
1
10
-35.6669686325147
20
0.735090325033156
30
0
41
1
10
-35.6753069668934
20
0.745087316321303
30
0
41
1
10
-35.7033119106576
20
0.768820709131916
30
0
41
1
10
-35.7258889467378
20
0.776690344328387
30
0
41
1
10
-35.75
20
0.776382706122035
30
0
0
SPLINE
5
B9
100
AcDbEntity
8
SK1
62
256
6
ByLayer
370
18
48
1
60
0
100
AcDbSpline
70
4
71
3
72
8
73
4
40
0
40
0
40
0
40
0
40
1
40
1
40
1
40
1
41
1
10
-35.75
20
0.776382706122035
30
0
41
1
10
-35.8336566227068
20
0.775315312960885
30
0
41
1
10
-35.9170316507165
20
0.774244840542309
30
0
41
1
10
-36
20
0.77316992106384
30
0
0
SPLINE
5
BA
100
AcDbEntity
8
SK1
62
256
6
ByLayer
370
18
48
1
60
0
100
AcDbSpline
70
4
71
3
72
12
73
8
40
0
40
0
40
0
40
0
40
0.499999999999998
40
0.499999999999998
40
0.749999999999999
40
0.749999999999999
40
1
40
1
40
1
40
1
41
1
10
-35.75
20
-0.723508006982144
30
0
41
1
10
-35.725991403848
20
-0.72320167604849
30
0
41
1
10
-35.7033434775092
20
-0.714664145228028
30
0
41
1
10
-35.6754686370361
20
-0.690224564843703
30
0
41
1
10
-35.6670255857875
20
-0.679861138864766
30
0
41
1
10
-35.6543349758772
20
-0.654402952325825
30
0
41
1
10
-35.65
20
-0.638836578272986
30
0
41
1
10
-35.65
20
-0.621876780447934
30
0
0
SPLINE
5
BB
100
AcDbEntity
8
1
62
256
6
ByLayer
370
18
48
1
60
0
100
AcDbSpline
70
4
71
3
72
14
73
10
40
0
40
0
40
0
40
0
40
0.236792817521869
40
0.236792817521869
40
0.469127861191366
40
0.469127861191366
40
0.701462904860863
40
0.701462904860863
40
1
40
1
40
1
40
1
41
1
10
20.3686790653155
20
-1.69131764953801
30
0
41
1
10
20.2357561054596
20
-1.69131678213105
30
0
41
1
10
20.1026280378192
20
-1.68585393302246
30
0
41
1
10
19.8378395469523
20
-1.6641193931269
30
0
41
1
10
19.7056713983444
20
-1.6479928286347
30
0
41
1
10
19.4425527831333
20
-1.6055183648435
30
0
41
1
10
19.3116075296479
20
-1.57918292376462
30
0
41
1
10
19.0132554258099
20
-1.5082233212253
30
0
41
1
10
18.8459158466599
20
-1.46052869331041
30
0
41
1
10
18.6784365824587
20
-1.40557432535607
30
0
0
SPLINE
5
BC
100
AcDbEntity
8
1
62
256
6
ByLayer
370
13
48
1
60
0
100
AcDbSpline
70
4
71
3
72
28
73
24
40
0
40
0
40
0
40
0
40
0.0503667831460049
40
0.0503667831460049
40
0.120803900061533
40
0.120803900061533
40
0.191241016977062
40
0.191241016977062
40
0.26167813389259
40
0.26167813389259
40
0.332115250808118
40
0.332115250808118
40
0.613863718470224
40
0.613863718470224
40
0.68430083538575
40
0.68430083538575
40
0.754737952301276
40
0.754737952301276
40
0.895612186132331
40
0.895612186132331
40
0.966049303047858
40
0.966049303047858
40
1
40
1
40
1
40
1
41
1
10
18.678437532628
20
-1.40557463713165
30
0
41
1
10
18.585236633269
20
-1.37499297677792
30
0
41
1
10
18.4919924760882
20
-1.34216309412935
30
0
41
1
10
18.2680047963948
20
-1.25824815928919
30
0
41
1
10
18.1371002818418
20
-1.20515853920202
30
0
41
1
10
17.873987681552
20
-1.09120533070168
30
0
41
1
10
17.7417630450016
20
-1.03027414417863
30
0
41
1
10
17.4783602693519
20
-0.902710985442326
30
0
41
1
10
17.3467998201247
20
-0.835952066060202
30
0
41
1
10
17.0832665583324
20
-0.697436924200645
30
0
41
1
10
16.9510134735703
20
-0.625481237060825
30
0
41
1
10
16.2940403911624
20
-0.259061097739618
30
0
41
1
10
15.7774860366183
20
0.0561845756719492
30
0
41
1
10
15.1185063936442
20
0.435625146669253
30
0
41
1
10
14.9865704475251
20
0.510403601911065
30
0
41
1
10
14.7243682636764
20
0.655241993640402
30
0
41
1
10
14.5937373623515
20
0.72557967737032
30
0
41
1
10
14.2024342104385
20
0.929102806762131
30
0
41
1
10
13.9419783950572
20
1.05414046333226
30
0
41
1
10
13.5488451447368
20
1.22151127953424
30
0
41
1
10
13.4169798882604
20
1.27396128493564
30
0
41
1
10
13.221542239707
20
1.3453188996252
30
0
41
1
10
13.1581391086031
20
1.3674838532709
30
0
41
1
10
13.0948602789001
20
1.38858796746774
30
0
0
SPLINE
5
BD
100
AcDbEntity
8
1
62
256
6
ByLayer
370
18
48
1
60
0
100
AcDbSpline
70
4
71
3
72
74
73
70
40
0
40
0
40
0
40
0
40
0.000225326664749
40
0.000225326664749
40
0.0324127827315491
40
0.0324127827315491
40
0.0646002387983492
40
0.0646002387983492
40
0.0967876948651493
40
0.0967876948651493
40
0.128975150931949
40
0.128975150931949
40
0.14506887896535
40
0.14506887896535
40
0.16116260699875
40
0.16116260699875
40
0.193350063065548
40
0.193350063065548
40
0.225537519132347
40
0.225537519132347
40
0.257724975199146
40
0.257724975199146
40
0.289912431265944
40
0.289912431265944
40
0.322099887332743
40
0.322099887332743
40
0.354287343399541
40
0.354287343399541
40
0.38647479946634
40
0.38647479946634
40
0.418662255533139
40
0.418662255533139
40
0.450849711599938
40
0.450849711599938
40
0.483037167666736
40
0.483037167666736
40
0.515224623733535
40
0.515224623733535
40
0.547412079800334
40
0.547412079800334
40
0.579599535867133
40
0.579599535867133
40
0.611786991933931
40
0.611786991933931
40
0.64397444800073
40
0.64397444800073
40
0.676161904067528
40
0.676161904067528
40
0.708349360134327
40
0.708349360134327
40
0.740536816201126
40
0.740536816201126
40
0.772724272267924
40
0.772724272267924
40
0.804911728334723
40
0.804911728334723
40
0.837099184401521
40
0.837099184401521
40
0.86928664046832
40
0.86928664046832
40
0.901474096535119
40
0.901474096535119
40
0.933661552601917
40
0.933661552601917
40
0.965849008668716
40
0.965849008668716
40
0.998036464735515
40
0.998036464735515
40
1
40
1
40
1
40
1
41
1
10
6.7401230213832
20
1.68323052126405
30
0
41
1
10
6.74093938903576
20
1.68323039825415
30
0
41
1
10
6.74175573671064
20
1.68323006079751
30
0
41
1
10
6.8591827981196
20
1.68315066095533
30
0
41
1
10
6.97620835870035
20
1.67900736661213
30
0
41
1
10
7.21017242621167
20
1.66269404216658
30
0
41
1
10
7.32752637013076
20
1.65033900419618
30
0
41
1
10
7.56129691272153
20
1.6169419103075
30
0
41
1
10
7.67772741284412
20
1.59601440428111
30
0
41
1
10
7.91157619974928
20
1.54774265563094
30
0
41
1
10
8.02844705938264
20
1.51926871813498
30
0
41
1
10
8.20406652691821
20
1.47035148636977
30
0
41
1
10
8.26242476260097
20
1.45299263353465
30
0
41
1
10
8.37937102123422
20
1.41691876665792
30
0
41
1
10
8.43795880272143
20
1.39820157777913
30
0
41
1
10
8.61326375718571
20
1.33946878489883
30
0
41
1
10
8.73001020827667
20
1.29711676118683
30
0
41
1
10
8.96381258269338
20
1.20472288503729
30
0
41
1
10
9.08097662829715
20
1.15506530696541
30
0
41
1
10
9.31479857244315
20
1.05082251199138
30
0
41
1
10
9.43190362664151
20
0.997064526927858
30
0
41
1
10
9.66553720689129
20
0.883030202758818
30
0
41
1
10
9.78200182759949
20
0.822880129732738
30
0
41
1
10
10.0163372706626
20
0.700395018740238
30
0
41
1
10
10.1335324031608
20
0.637176736070302
30
0
41
1
10
10.3674514111116
20
0.508296800855589
30
0
41
1
10
10.4842074006699
20
0.44217281627283
30
0
41
1
10
10.7176829849137
20
0.307804809688378
30
0
41
1
10
10.8346051862229
20
0.239754398137393
30
0
41
1
10
11.0689912419513
20
0.103043354480633
30
0
41
1
10
11.1858032740628
20
0.0342902835646726
30
0
41
1
10
11.418830017797
20
-0.103808895606903
30
0
41
1
10
11.5358030618065
20
-0.171866891050087
30
0
41
1
10
11.7693870944282
20
-0.308228340587902
30
0
41
1
10
11.8867116593052
20
-0.375716828296163
30
0
41
1
10
12.1204527104203
20
-0.50839740042673
30
0
41
1
10
12.2368663059877
20
-0.57396861560548
30
0
41
1
10
12.4704956172981
20
-0.701156216243874
30
0
41
1
10
12.5873474029252
20
-0.76346626986853
30
0
41
1
10
12.8212848963879
20
-0.883548959544527
30
0
41
1
10
12.9381649982966
20
-0.941567937591913
30
0
41
1
10
13.1720949504522
20
-1.05225697560934
30
0
41
1
10
13.2888086322138
20
-1.10604793707825
30
0
41
1
10
13.5225951570274
20
-1.20670409338234
30
0
41
1
10
13.6396985448115
20
-1.2534429975519
30
0
41
1
10
13.8735367497851
20
-1.34163400310507
30
0
41
1
10
13.9906496306443
20
-1.38244375042242
30
0
41
1
10
14.2244426522833
20
-1.45768841430677
30
0
41
1
10
14.340994782199
20
-1.49144020780685
30
0
41
1
10
14.5750580699429
20
-1.55084140497007
30
0
41
1
10
14.6924692087057
20
-1.57705725181108
30
0
41
1
10
14.9258720202839
20
-1.62169528609815
30
0
41
1
10
15.0420947937679
20
-1.63978980433757
30
0
41
1
10
15.273854797611
20
-1.66711892187519
30
0
41
1
10
15.3893355899088
20
-1.67675575774322
30
0
41
1
10
15.6209364473232
20
-1.68880572991716
30
0
41
1
10
15.7366674782537
20
-1.69093365042084
30
0
41
1
10
15.9681533298516
20
-1.68551460901955
30
0
41
1
10
16.0844054751636
20
-1.6782708607634
30
0
41
1
10
16.317276458277
20
-1.65684246663133
30
0
41
1
10
16.4345719516906
20
-1.64240364933133
30
0
41
1
10
16.6686447375878
20
-1.60417794515681
30
0
41
1
10
16.7852170154541
20
-1.58045843281718
30
0
41
1
10
17.0186047531764
20
-1.52613401026107
30
0
41
1
10
17.1355638597165
20
-1.49585244703638
30
0
41
1
10
17.3694878930647
20
-1.42706436304314
30
0
41
1
10
17.4864186110248
20
-1.38808742412033
30
0
41
1
10
17.6106180674995
20
-1.34390966405442
30
0
41
1
10
17.6177574299615
20
-1.34135760626191
30
0
41
1
10
17.6248953703782
20
-1.33879361426909
30
0
0
SPLINE
5
BE
100
AcDbEntity
8
1
62
256
6
ByLayer
370
18
48
1
60
0
100
AcDbSpline
70
4
71
3
72
24
73
20
40
0
40
0
40
0
40
0
40
0.0740809162975437
40
0.0740809162975437
40
0.189820801760351
40
0.189820801760351
40
0.305560687223158
40
0.305560687223158
40
0.421300572685965
40
0.421300572685965
40
0.537040458148773
40
0.537040458148773
40
0.65278034361158
40
0.65278034361158
40
0.768520229074386
40
0.768520229074386
40
0.884260114537194
40
0.884260114537194
40
1
40
1
40
1
40
1
41
1
10
24.7310935460815
20
1.69387758789887
30
0
41
1
10
24.8059690041335
20
1.69388665890005
30
0
41
1
10
24.8810173173405
20
1.69216049866981
30
0
41
1
10
25.0729958151961
20
1.68336551832064
30
0
41
1
10
25.1896424965439
20
1.67380617795789
30
0
41
1
10
25.42366734679
20
1.64732084116304
30
0
41
1
10
25.5404376678476
20
1.63032287447672
30
0
41
1
10
25.7747165887649
20
1.58812087544442
30
0
41
1
10
25.8920739156403
20
1.56263244430576
30
0
41
1
10
26.1255911293864
20
1.50347933891294
30
0
41
1
10
26.2425333432119
20
1.47033690967899
30
0
41
1
10
26.4762651102836
20
1.39662233071661
30
0
41
1
10
26.5930230358106
20
1.35583586429027
30
0
41
1
10
26.8273572488223
20
1.26768992602626
30
0
41
1
10
26.9443880950949
20
1.22064716124083
30
0
41
1
10
27.1782185719448
20
1.12096287135014
30
0
41
1
10
27.2951085755079
20
1.06835735114228
30
0
41
1
10
27.5290366396095
20
0.957503786566434
30
0
41
1
10
27.6461109582136
20
0.898965456136807
30
0
41
1
10
27.7632393626153
20
0.838997458748793
30
0
0
SPLINE
5
BF
100
AcDbEntity
8
1
62
256
6
ByLayer
370
18
48
1
60
0
100
AcDbSpline
70
4
71
3
72
8
73
4
40
0
40
0
40
0
40
0
40
1
40
1
40
1
40
1
41
1
10
29.9999455170851
20
0.0321452593188383
30
0
41
1
10
30.0000181725258
20
0.0107116777236342
30
0
41
1
10
30.0000181484068
20
-0.0107187928514918
30
0
41
1
10
29.9999455170852
20
-0.0321452592843627
30
0
0
SPLINE
5
C0
100
AcDbEntity
8
1
62
256
6
ByLayer
370
18
48
1
60
0
100
AcDbSpline
70
4
71
3
72
8
73
4
40
0
40
0
40
0
40
0
40
1
40
1
40
1
40
1
41
1
10
29.380170219126
20
1.78147030357647
30
0
41
1
10
29.3121751930577
20
1.78443520897684
30
0
41
1
10
29.2441017075676
20
1.7858634059447
30
0
41
1
10
29.1760227564686
20
1.78577744382215
30
0
0
SPLINE
5
C1
100
AcDbEntity
8
1
62
256
6
ByLayer
370
18
48
1
60
0
100
AcDbSpline
70
4
71
3
72
40
73
36
40
0
40
0
40
0
40
0
40
0.107423173596844
40
0.107423173596844
40
0.147492139504166
40
0.147492139504166
40
0.187561105411488
40
0.187561105411488
40
0.267699037226132
40
0.267699037226132
40
0.347836969040776
40
0.347836969040776
40
0.427974900855421
40
0.427974900855421
40
0.468043866762743
40
0.468043866762743
40
0.508112832670066
40
0.508112832670066
40
0.588250764484712
40
0.588250764484712
40
0.668388696299357
40
0.668388696299357
40
0.70845766220668
40
0.70845766220668
40
0.748526628114003
40
0.748526628114003
40
0.828664559928651
40
0.828664559928651
40
0.868733525835975
40
0.868733525835975
40
0.908802491743298
40
0.908802491743298
40
0.988940423557947
40
0.988940423557947
40
1
40
1
40
1
40
1
41
1
10
20.9975685525329
20
-1.70829491782302
30
0
41
1
10
20.6474956819737
20
-1.76955654154142
30
0
41
1
10
20.2988870225301
20
-1.79220301840576
30
0
41
1
10
19.8136033203624
20
-1.76749784499532
30
0
41
1
10
19.6811598575535
20
-1.75505444532269
30
0
41
1
10
19.4183804048358
20
-1.71942971869501
30
0
41
1
10
19.2875241012115
20
-1.69623627935368
30
0
41
1
10
18.8958181833764
20
-1.61108744224521
30
0
41
1
10
18.6353751093584
20
-1.5338450044967
30
0
41
1
10
18.1110460733066
20
-1.34181716979447
30
0
41
1
10
17.8454339533555
20
-1.2261235678198
30
0
41
1
10
17.3211007071558
20
-0.969810677396765
30
0
41
1
10
17.0607015494485
20
-0.828843312881048
30
0
41
1
10
16.6688418253985
20
-0.603883331820242
30
0
41
1
10
16.5380074843904
20
-0.526647293629878
30
0
41
1
10
16.2751226944597
20
-0.368835805811699
30
0
41
1
10
16.1425931511842
20
-0.287835663891286
30
0
41
1
10
15.746932690642
20
-0.0438147002199969
30
0
41
1
10
15.485844048576
20
0.119563366124709
30
0
41
1
10
14.9638279803651
20
0.439333787783539
30
0
41
1
10
14.7028359189881
20
0.595621022529315
30
0
41
1
10
14.3074551955268
20
0.818290320341674
30
0
41
1
10
14.1748177304469
20
0.890581511583093
30
0
41
1
10
13.9116542515816
20
1.02769839336276
30
0
41
1
10
13.7806717297133
20
1.09292978569607
30
0
41
1
10
13.3886124977859
20
1.27761856766079
30
0
41
1
10
13.1282185592273
20
1.38580268432003
30
0
41
1
10
12.7349481522864
20
1.52102995102896
30
0
41
1
10
12.6034438468751
20
1.56162947322039
30
0
41
1
10
12.3389530187163
20
1.63307526409912
30
0
41
1
10
12.20696761338
20
1.66355618044258
30
0
41
1
10
11.8131718583625
20
1.73854966931037
30
0
41
1
10
11.5526882865236
20
1.76695211201962
30
0
41
1
10
11.255250622602
20
1.77409083130354
30
0
41
1
10
11.219166550257
20
1.77453597066568
30
0
41
1
10
11.1830622824791
20
1.77455861150554
30
0
0
SPLINE
5
C2
100
AcDbEntity
8
1
62
256
6
ByLayer
370
18
48
1
60
0
100
AcDbSpline
70
4
71
3
72
10
73
6
40
0
40
0
40
0
40
0
40
0.5
40
0.5
40
1
40
1
40
1
40
1
41
1
10
29.4838660131455
20
1.72026378248614
30
0
41
1
10
29.4645825467701
20
1.7362433174562
30
0
41
1
10
29.4461820105511
20
1.74947603645654
30
0
41
1
10
29.4116358126828
20
1.76991952643172
30
0
41
1
10
29.3954015085581
20
1.77720681132979
30
0
41
1
10
29.3801702191261
20
1.7814703035765
30
0
0
SPLINE
5
C3
100
AcDbEntity
8
1
62
256
6
ByLayer
370
18
48
1
60
0
100
AcDbSpline
70
4
71
3
72
8
73
4
40
0
40
0
40
0
40
0
40
1
40
1
40
1
40
1
41
1
10
29.9899803404667
20
0.0954405185750886
30
0
41
1
10
29.9905973130361
20
0.0777605447707117
30
0
41
1
10
29.9944346756227
20
0.0554594396038794
30
0
41
1
10
29.9999455170851
20
0.0321452593188383
30
0
0
SPLINE
5
C4
100
AcDbEntity
8
1
62
256
6
ByLayer
370
18
48
1
60
0
100
AcDbSpline
70
4
71
3
72
34
73
30
40
0
40
0
40
0
40
0
40
0.0101038705253342
40
0.0101038705253342
40
0.161405095601359
40
0.161405095601359
40
0.312706320677385
40
0.312706320677385
40
0.464007545753411
40
0.464007545753411
40
0.539658158291423
40
0.539658158291423
40
0.558570811425927
40
0.568027137993178
40
0.568027137993178
40
0.577483464560429
40
0.577483464560429
40
0.586939791127681
40
0.586939791127681
40
0.596396117694933
40
0.615308770829436
40
0.615308770829436
40
0.766609995905462
40
0.766609995905462
40
0.842260608443475
40
0.842260608443475
40
0.917911220981487
40
0.917911220981487
40
1
40
1
40
1
40
1
41
1
10
5.33943517079533
20
0.5275228069045
30
0
41
1
10
5.33943517079533
20
0.525190165071223
30
0
41
1
10
5.33943517079533
20
0.522790967789689
30
0
41
1
10
5.33943517079533
20
0.483415336677154
30
0
41
1
10
5.33943517079533
20
0.431988766097817
30
0
41
1
10
5.33943517079533
20
0.302319429553364
30
0
41
1
10
5.33943517079533
20
0.22594750384232
30
0
41
1
10
5.33943517079533
20
0.0541191953824978
30
0
41
1
10
5.33943517079535
20
-0.0415985180387111
30
0
41
1
10
5.33943517079535
20
-0.199046074338241
30
0
41
1
10
5.33943517079535
20
-0.253413517611705
30
0
41
1
10
5.33943517079535
20
-0.323660473400196
30
0
41
1
10
5.3394351707953
20
-0.344911453578504
30
0
41
1
10
5.33943517079533
20
-0.366393125693747
30
0
41
1
10
5.33943517079533
20
-0.380766429851008
30
0
41
1
10
5.33943517079535
20
-0.388394959669768
30
0
41
1
10
5.33943517079535
20
-0.40558721633252
30
0
41
1
10
5.33943517079533
20
-0.414583274828203
30
0
41
1
10
5.33943517079533
20
-0.432078628632809
30
0
41
1
10
5.33943517079535
20
-0.458304609197853
30
0
41
1
10
5.33943517079535
20
-0.484479240158237
30
0
41
1
10
5.33943517079535
20
-0.64131963244111
30
0
41
1
10
5.33943517079533
20
-0.779459992317527
30
0
41
1
10
5.33943517079533
20
-0.978551638659582
30
0
41
1
10
5.33943517079533
20
-1.0437910508148
30
0
41
1
10
5.33943517079533
20
-1.17186687783635
30
0
41
1
10
5.33943517079533
20
-1.23509609255785
30
0
41
1
10
5.33943517079533
20
-1.36173924863297
30
0
41
1
10
5.33943517079535
20
-1.42474289579476
30
0
41
1
10
5.33943517079535
20
-1.48468855674
30
0
0
SPLINE
5
C5
100
AcDbEntity
8
1
62
256
6
ByLayer
370
18
48
1
60
0
100
AcDbSpline
70
4
71
3
72
20
73
16
40
0
40
0
40
0
40
0
40
0.178502434757814
40
0.178502434757814
40
0.281189630413087
40
0.281189630413087
40
0.383876826068361
40
0.383876826068361
40
0.589251217378907
40
0.589251217378907
40
0.794625608689454
40
0.794625608689454
40
0.897312804344727
40
0.897312804344727
40
1
40
1
40
1
40
1
41
1
10
4.05908559717835
20
-1.77010826683761
30
0
41
1
10
4.05909656841766
20
-1.7698775626229
30
0
41
1
10
4.05910778874295
20
-1.761096940849
30
0
41
1
10
4.05912840620954
20
-1.73377070940384
30
0
41
1
10
4.05913658941228
20
-1.72083840379574
30
0
41
1
10
4.05915428944803
20
-1.68956040111311
30
0
41
1
10
4.05916379409007
20
-1.6712611754802
30
0
41
1
10
4.05919447564372
20
-1.60858700106024
30
0
41
1
10
4.05921789919685
20
-1.55651120717223
30
0
41
1
10
4.05926987129922
20
-1.43103291694007
30
0
41
1
10
4.05929771960763
20
-1.35922716598756
30
0
41
1
10
4.05933879922554
20
-1.23949989101743
30
0
41
1
10
4.05935238221662
20
-1.19751961823931
30
0
41
1
10
4.05937857825708
20
-1.10933492490849
30
0
41
1
10
4.05939124165059
20
-1.06288647859464
30
0
41
1
10
4.05940272007166
20
-1.01522537287522
30
0
0
SPLINE
5
C6
100
AcDbEntity
8
1
62
256
6
ByLayer
370
18
48
1
60
0
100
AcDbSpline
70
4
71
3
72
12
73
8
40
0
40
0
40
0
40
0
40
0.249999999999928
40
0.249999999999928
40
0.499999999999855
40
0.499999999999855
40
1
40
1
40
1
40
1
41
1
10
29.2831871810233
20
0.423244641751637
30
0
41
1
10
29.2834161836801
20
0.433064029946962
30
0
41
1
10
29.2864164914224
20
0.442798188031986
30
0
41
1
10
29.2974353626847
20
0.459569202124726
30
0
41
1
10
29.3054273952505
20
0.466610189813679
30
0
41
1
10
29.3321760792394
20
0.482180972348544
30
0
41
1
10
29.3531172047817
20
0.485838438382416
30
0
41
1
10
29.3736663935462
20
0.485582009496454
30
0
0
SPLINE
5
C7
100
AcDbEntity
8
1
62
256
6
ByLayer
370
18
48
1
60
0
100
AcDbSpline
70
4
71
3
72
18
73
14
40
0
40
0
40
0
40
0
40
0.125000000000006
40
0.125000000000006
40
0.250000000000012
40
0.250000000000012
40
0.375000000000018
40
0.375000000000018
40
0.500000000000024
40
0.500000000000024
40
0.750000000000012
40
0.750000000000012
40
1
40
1
40
1
40
1
41
1
10
29.7452549241999
20
-0.412670448839634
30
0
41
1
10
29.7438576870824
20
-0.432989951906023
30
0
41
1
10
29.7400500083247
20
-0.457202585043376
30
0
41
1
10
29.7281893533624
20
-0.508605541287409
30
0
41
1
10
29.7200697841262
20
-0.536203698163092
30
0
41
1
10
29.7011074833581
20
-0.590399370853333
30
0
41
1
10
29.6903842781071
20
-0.616794680953518
30
0
41
1
10
29.6677095518843
20
-0.666148065633394
30
0
41
1
10
29.656107568863
20
-0.688403471212695
30
0
41
1
10
29.6211574015372
20
-0.747861416248924
30
0
41
1
10
29.5988214983349
20
-0.775769876228026
30
0
41
1
10
29.561137521911
20
-0.803560848280028
30
0
41
1
10
29.5459852212373
20
-0.80312900965879
30
0
41
1
10
29.5370827178053
20
-0.786469355235198
30
0
0
SPLINE
5
C8
100
AcDbEntity
8
1
62
256
6
ByLayer
370
18
48
1
60
0
100
AcDbSpline
70
4
71
3
72
10
73
6
40
0
40
0
40
0
40
0
40
0.5
40
0.5
40
1
40
1
40
1
40
1
41
1
10
29.4838660131454
20
1.72026378248648
30
0
41
1
10
29.5588485086079
20
1.51240044340656
30
0
41
1
10
29.6376457324039
20
1.30573001892287
30
0
41
1
10
29.8001017992373
20
0.894008060591318
30
0
41
1
10
29.8837167615778
20
0.688917450251751
30
0
41
1
10
29.9686448911667
20
0.48511649844852
30
0
0
SPLINE
5
C9
100
AcDbEntity
8
1
62
256
6
ByLayer
370
13
48
1
60
0
100
AcDbSpline
70
4
71
3
72
20
73
16
40
0
40
0
40
0
40
0
40
0.135847033720983
40
0.135847033720983
40
0.351885275290737
40
0.351885275290737
40
0.459904396075614
40
0.459904396075614
40
0.567923516860491
40
0.567923516860491
40
0.783961758430245
40
0.783961758430245
40
0.891980879215123
40
0.891980879215123
40
1
40
1
40
1
40
1
41
1
10
4.25070675156371
20
-1.68149199669409
30
0
41
1
10
4.25072056512965
20
-1.68186138572656
30
0
41
1
10
4.25073476491832
20
-1.67808043231898
30
0
41
1
10
4.25077351016301
20
-1.65779636611248
30
0
41
1
10
4.25079948709228
20
-1.63490135565465
30
0
41
1
10
4.250841763457
20
-1.58512172421319
30
0
41
1
10
4.2508563154642
20
-1.56605378359293
30
0
41
1
10
4.25088620394027
20
-1.52297719339325
30
0
41
1
10
4.25090159183171
20
-1.49886696229115
30
0
41
1
10
4.25094768446149
20
-1.42039302842326
30
0
41
1
10
4.25097859704974
20
-1.35968624804386
30
0
41
1
10
4.25102214732959
20
-1.25635104589236
30
0
41
1
10
4.25103617854521
20
-1.21984600418642
30
0
41
1
10
4.25106252281273
20
-1.14259349108988
30
0
41
1
10
4.25107484789373
20
-1.10174155610633
30
0
41
1
10
4.25108566726311
20
-1.05943186513417
30
0
0
SPLINE
5
CA
100
AcDbEntity
8
1
62
256
6
ByLayer
370
18
48
1
60
0
100
AcDbSpline
70
4
71
3
72
10
73
6
40
0
40
0
40
0
40
0
40
0.5
40
0.5
40
1
40
1
40
1
40
1
41
1
10
5.33943517079535
20
-1.48468855674002
30
0
41
1
10
5.15494443693308
20
-1.43415487696578
30
0
41
1
10
4.97308962268539
20
-1.3732521202642
30
0
41
1
10
4.61071882759805
20
-1.23083300942676
30
0
41
1
10
4.43048268107253
20
-1.14941655300677
30
0
41
1
10
4.25108566734454
20
-1.0594318651344
30
0
0
SPLINE
5
CB
100
AcDbEntity
8
1
62
256
6
ByLayer
370
13
48
1
60
0
100
AcDbSpline
70
4
71
3
72
8
73
4
40
0
40
0
40
0
40
0
40
1
40
1
40
1
40
1
41
1
10
4.05887876084583
20
1.44608209828198
30
0
41
1
10
4.07522834088286
20
1.42416134351282
30
0
41
1
10
4.0944272221949
20
1.40502292720962
30
0
41
1
10
4.11689929872287
20
1.3890617257089
30
0
0
SPLINE
5
CC
100
AcDbEntity
8
1
62
256
6
ByLayer
370
18
48
1
60
0
100
AcDbSpline
70
4
71
3
72
14
73
10
40
0
40
0
40
0
40
0
40
0.25
40
0.25
40
0.5
40
0.5
40
0.75
40
0.75
40
1
40
1
40
1
40
1
41
1
10
29.2564349604613
20
-1.32801259493848
30
0
41
1
10
29.2559867948186
20
-1.38834523789123
30
0
41
1
10
29.2582421464317
20
-1.44159285574352
30
0
41
1
10
29.2683010596205
20
-1.53417839448179
30
0
41
1
10
29.2762371578265
20
-1.57375833481009
30
0
41
1
10
29.2976338612112
20
-1.6361452144408
30
0
41
1
10
29.3110542956955
20
-1.65928941127942
30
0
41
1
10
29.3437053191118
20
-1.68991978725012
30
0
41
1
10
29.3630659814843
20
-1.69732010360323
30
0
41
1
10
29.3851780229038
20
-1.6966472929233
30
0
0
SPLINE
5
CD
100
AcDbEntity
8
1
62
256
6
ByLayer
370
18
48
1
60
0
100
AcDbSpline
70
4
71
3
72
28
73
24
40
0
40
0
40
0
40
0
40
0.0624999999999972
40
0.0624999999999972
40
0.124999999999994
40
0.124999999999994
40
0.187499999999992
40
0.187499999999992
40
0.249999999999989
40
0.249999999999989
40
0.312499999999986
40
0.312499999999986
40
0.374999999999983
40
0.374999999999983
40
0.437499999999981
40
0.437499999999981
40
0.499999999999978
40
0.499999999999978
40
0.624999999999981
40
0.624999999999981
40
0.749999999999984
40
0.749999999999984
40
1
40
1
40
1
40
1
41
1
10
27.7632393626269
20
0.838997458742909
30
0
41
1
10
27.747883540886
20
0.786436856842784
30
0
41
1
10
27.7365961404728
20
0.731519754768868
30
0
41
1
10
27.7231029223973
20
0.616425340429146
30
0
41
1
10
27.7210957870119
20
0.557380062911307
30
0
41
1
10
27.7264070479404
20
0.438472584577084
30
0
41
1
10
27.7336846341598
20
0.378278736682773
30
0
41
1
10
27.7574088328922
20
0.256422814722867
30
0
41
1
10
27.7735660488466
20
0.196286952676786
30
0
41
1
10
27.813188905311
20
0.0781141620765879
30
0
41
1
10
27.8368200182557
20
0.0196693663836243
30
0
41
1
10
27.8901519703547
20
-0.0942855082119252
30
0
41
1
10
27.9195237295985
20
-0.149198790037474
30
0
41
1
10
27.9827694917543
20
-0.25559073596898
30
0
41
1
10
28.0166493815881
20
-0.307064909130475
30
0
41
1
10
28.0883424979334
20
-0.407012638683938
30
0
41
1
10
28.1263559117807
20
-0.455704943193638
30
0
41
1
10
28.243853487607
20
-0.595552422519148
30
0
41
1
10
28.3268405130371
20
-0.680900369631416
30
0
41
1
10
28.4997866033387
20
-0.839789202953966
30
0
41
1
10
28.5898090676191
20
-0.913304903527177
30
0
41
1
10
28.8684709529501
20
-1.11879971340585
30
0
41
1
10
29.0601571340783
20
-1.23246648995575
30
0
41
1
10
29.2564349604613
20
-1.32801259493848
30
0
0
SPLINE
5
CE
100
AcDbEntity
8
1
62
256
6
ByLayer
370
18
48
1
60
0
100
AcDbSpline
70
4
71
3
72
32
73
28
40
0
40
0
40
0
40
0
40
0.125000000000014
40
0.125000000000014
40
0.250000000000028
40
0.250000000000028
40
0.312500000000027
40
0.312500000000027
40
0.375000000000025
40
0.375000000000025
40
0.406250000000018
40
0.406250000000018
40
0.437500000000011
40
0.437500000000011
40
0.468750000000004
40
0.468750000000004
40
0.499999999999997
40
0.499999999999997
40
0.562499999999997
40
0.562499999999997
40
0.624999999999998
40
0.624999999999998
40
0.749999999999999
40
0.749999999999999
40
0.874999999999999
40
0.874999999999999
40
1
40
1
40
1
40
1
41
1
10
29.5370827178053
20
-0.78646935523517
30
0
41
1
10
29.4784596170266
20
-0.766617562496322
30
0
41
1
10
29.4195853672252
20
-0.741651535529343
30
0
41
1
10
29.3050952051565
20
-0.682110340775694
30
0
41
1
10
29.2491030242493
20
-0.647657847846631
30
0
41
1
10
29.1680846178086
20
-0.584881178830898
30
0
41
1
10
29.141862620497
20
-0.562265548254601
30
0
41
1
10
29.0925157351252
20
-0.512500006717147
30
0
41
1
10
29.0687913439076
20
-0.484888729182359
30
0
41
1
10
29.0396026670048
20
-0.438614928938335
30
0
41
1
10
29.0308754387397
20
-0.422246726060507
30
0
41
1
10
29.0176452174126
20
-0.387451311500911
30
0
41
1
10
29.0133389253429
20
-0.36906518640896
30
0
41
1
10
29.0128178952569
20
-0.334057622999893
30
0
41
1
10
29.0167963224079
20
-0.317427135906939
30
0
41
1
10
29.0317551682876
20
-0.290109151137244
30
0
41
1
10
29.0421298086248
20
-0.279638642156641
30
0
41
1
10
29.0770346778805
20
-0.254793650623014
30
0
41
1
10
29.1047388521533
20
-0.246737238195152
30
0
41
1
10
29.1609123126382
20
-0.237725477601714
30
0
41
1
10
29.1898554623837
20
-0.236980667952565
30
0
41
1
10
29.2781519914774
20
-0.2411890991429
30
0
41
1
10
29.337123623728
20
-0.252352544386781
30
0
41
1
10
29.4549873830393
20
-0.283486477991602
30
0
41
1
10
29.5142199755041
20
-0.303884977585142
30
0
41
1
10
29.6311720236367
20
-0.352326127673905
30
0
41
1
10
29.6887575845049
20
-0.380240948318175
30
0
41
1
10
29.7452549241988
20
-0.412670448840885
30
0
0
SPLINE
5
CF
100
AcDbEntity
8
1
62
256
6
ByLayer
370
18
48
1
60
0
100
AcDbSpline
70
4
71
3
72
10
73
6
40
0
40
0
40
0
40
0
40
0.5
40
0.5
40
1
40
1
40
1
40
1
41
1
10
4.10665266617053
20
1.38829722668052
30
0
41
1
10
4.09290104780041
20
1.39603509178335
30
0
41
1
10
4.08129156954178
20
1.40487733309635
30
0
41
1
10
4.0641719736563
20
1.42461888986344
30
0
41
1
10
4.05887193396782
20
1.43532398667904
30
0
41
1
10
4.0588787608456
20
1.44608209828195
30
0
0
SPLINE
5
D0
100
AcDbEntity
8
1
62
256
6
ByLayer
370
18
48
1
60
0
100
AcDbSpline
70
4
71
3
72
10
73
6
40
0
40
0
40
0
40
0
40
0.5
40
0.5
40
1
40
1
40
1
40
1
41
1
10
4.25108566726311
20
-1.05943186509356
30
0
41
1
10
4.215821744929
20
-1.04174364956228
30
0
41
1
10
4.18142027940058
20
-1.0288855933766
30
0
41
1
10
4.1150088617253
20
-1.01330898527223
30
0
41
1
10
4.08435255606773
20
-1.01111888011067
30
0
41
1
10
4.0594027201119
20
-1.01522537287528
30
0
0
SPLINE
5
D1
100
AcDbEntity
8
1
62
256
6
ByLayer
370
13
48
1
60
0
100
AcDbSpline
70
4
71
3
72
8
73
4
40
0
40
0
40
0
40
0
40
1
40
1
40
1
40
1
41
1
10
4.11689929872287
20
1.38906172570887
30
0
41
1
10
4.12556505116575
20
1.38290671725997
30
0
41
1
10
4.13455280751327
20
1.37713164318558
30
0
41
1
10
4.14376404645782
20
1.37177107125152
30
0
0
SPLINE
5
D2
100
AcDbEntity
8
1
62
256
6
ByLayer
370
13
48
1
60
0
100
AcDbSpline
70
4
71
3
72
8
73
4
40
0
40
0
40
0
40
0
40
1
40
1
40
1
40
1
41
1
10
4.19985256552624
20
1.34523272138063
30
0
41
1
10
4.21645142724211
20
1.33903800384087
30
0
41
1
10
4.23331679169098
20
1.33412005875786
30
0
41
1
10
4.25043418509256
20
1.33045997920337
30
0
0
SPLINE
5
D3
100
AcDbEntity
8
1
62
256
6
ByLayer
370
18
48
1
60
0
100
AcDbSpline
70
4
71
3
72
17
73
13
40
0
40
0
40
0
40
0
40
0.319363931634074
40
0.319363931634074
40
0.479045897451111
40
0.479045897451111
40
0.638727863268148
40
0.798409829085185
40
0.798409829085185
40
0.958091794902222
40
0.958091794902222
40
1
40
1
40
1
40
1
41
1
10
4.05887876084583
20
1.44608209828198
30
0
41
1
10
4.05892135667071
20
1.51320658059495
30
0
41
1
10
4.05895366987954
20
1.57046829685245
30
0
41
1
10
4.05899234838594
20
1.64147062699934
30
0
41
1
10
4.05900358866421
20
1.66261019256115
30
0
41
1
10
4.05902336854996
20
1.69907658668615
30
0
41
1
10
4.05904058052298
20
1.72997387115623
30
0
41
1
10
4.05905464137919
20
1.74982846929765
30
0
41
1
10
4.05906802806623
20
1.7640469000911
30
0
41
1
10
4.05907436432955
20
1.76828327787987
30
0
41
1
10
4.05908230436066
20
1.76998498920622
30
0
41
1
10
4.05908395512182
20
1.77014391994822
30
0
41
1
10
4.0590856115769
20
1.770107959157
30
0
0
SPLINE
5
D4
100
AcDbEntity
8
1
62
256
6
ByLayer
370
18
48
1
60
0
100
AcDbSpline
70
4
71
3
72
8
73
4
40
0
40
0
40
0
40
0
40
1
40
1
40
1
40
1
41
1
10
29.9686448911667
20
0.48511649844852
30
0
41
1
10
29.9783436541528
20
0.355028735267752
30
0
41
1
10
29.9854543686226
20
0.22513682536885
30
0
41
1
10
29.9899803404667
20
0.0954405185750886
30
0
0
SPLINE
5
D5
100
AcDbEntity
8
1
62
256
6
ByLayer
370
18
48
1
60
0
100
AcDbSpline
70
4
71
3
72
8
73
4
40
0
40
0
40
0
40
0
40
1
40
1
40
1
40
1
41
1
10
4.19795737883123
20
1.3477480891064
30
0
41
1
10
4.16627728163616
20
1.36040973447515
30
0
41
1
10
4.13439051284564
20
1.37268948437426
30
0
41
1
10
4.10665266617045
20
1.38829722668058
30
0
0
SPLINE
5
D6
100
AcDbEntity
8
1
62
256
6
ByLayer
370
18
48
1
60
0
100
AcDbSpline
70
4
71
3
72
8
73
4
40
0
40
0
40
0
40
0
40
1
40
1
40
1
40
1
41
1
10
29.3736663935462
20
0.485582009496454
30
0
41
1
10
29.5723223660276
20
0.483103024544931
30
0
41
1
10
29.7710963507549
20
0.481428019335766
30
0
41
1
10
29.9686448911667
20
0.485116498448491
30
0
0
SPLINE
5
D7
100
AcDbEntity
8
1
62
256
6
ByLayer
370
18
48
1
60
0
100
AcDbSpline
70
4
71
3
72
38
73
34
40
0
40
0
40
0
40
0
40
0.0703681419745852
40
0.0703681419745852
40
0.140736283949171
40
0.140736283949171
40
0.211104425923756
40
0.211104425923756
40
0.281472567898341
40
0.281472567898341
40
0.351840709872926
40
0.351840709872926
40
0.422208851847511
40
0.422208851847511
40
0.492576993822097
40
0.492576993822097
40
0.562945135796682
40
0.562945135796682
40
0.633313277771267
40
0.633313277771267
40
0.703681419745852
40
0.703681419745852
40
0.738865490733145
40
0.738865490733145
40
0.774049561720438
40
0.774049561720438
40
0.844417703695023
40
0.844417703695023
40
0.914785845669608
40
0.914785845669608
40
0.985153987644193
40
0.985153987644193
40
1
40
1
40
1
40
1
41
1
10
5.33943517079533
20
0.527522806904074
30
0
41
1
10
5.46536631032967
20
0.451865148986883
30
0
41
1
10
5.59142205866061
20
0.376205841663676
30
0
41
1
10
5.84318358262203
20
0.223941929280755
30
0
41
1
10
5.96908281380786
20
0.147654132424208
30
0
41
1
10
6.21861695380676
20
-0.0090029646904384
30
0
41
1
10
6.34422225412101
20
-0.0861518193701443
30
0
41
1
10
6.59561061860211
20
-0.240533554379198
30
0
41
1
10
6.72154522328492
20
-0.317520031837148
30
0
41
1
10
6.97436266723508
20
-0.470326841519409
30
0
41
1
10
7.10041592428121
20
-0.545661758047771
30
0
41
1
10
7.35297383422909
20
-0.691412381955303
30
0
41
1
10
7.47965389019123
20
-0.761790545321134
30
0
41
1
10
7.73112788922049
20
-0.90134564919336
30
0
41
1
10
7.85792341789579
20
-0.9678530324625
30
0
41
1
10
8.11049270329784
20
-1.09476066075055
30
0
41
1
10
8.2365994023753
20
-1.1551215357922
30
0
41
1
10
8.488691685464
20
-1.26930928094501
30
0
41
1
10
8.61488385919296
20
-1.32315188680371
30
0
41
1
10
8.86797634228279
20
-1.42199305825883
30
0
41
1
10
8.99474498489326
20
-1.46686642320671
30
0
41
1
10
9.18316003516622
20
-1.5291060756339
30
0
41
1
10
9.24584117838694
20
-1.54882408471386
30
0
41
1
10
9.37209285341632
20
-1.58536057908316
30
0
41
1
10
9.43527821592647
20
-1.60249050333854
30
0
41
1
10
9.62491766495953
20
-1.65050635629248
30
0
41
1
10
9.75140709752353
20
-1.67775681411001
30
0
41
1
10
10.0023343514064
20
-1.72233422959161
30
0
41
1
10
10.1271573010725
20
-1.73965768116057
30
0
41
1
10
10.3771374473014
20
-1.76408316833673
30
0
41
1
10
10.5024569594175
20
-1.7712844975882
30
0
41
1
10
10.6531829182092
20
-1.77399981921781
30
0
41
1
10
10.6793942108511
20
-1.77424326368362
30
0
41
1
10
10.7056142105102
20
-1.77425877699216
30
0
0
SPLINE
5
D8
100
AcDbEntity
8
1
62
256
6
ByLayer
370
18
48
1
60
0
100
AcDbSpline
70
4
71
3
72
76
73
72
40
0
40
0
40
0
40
0
40
0.0140738688749417
40
0.0140738688749417
40
0.048154811864326
40
0.048154811864326
40
0.0822357548537106
40
0.0822357548537106
40
0.116316697843095
40
0.116316697843095
40
0.15039764083248
40
0.15039764083248
40
0.184478583821864
40
0.184478583821864
40
0.201519055316557
40
0.201519055316557
40
0.218559526811249
40
0.218559526811249
40
0.252640469800633
40
0.252640469800633
40
0.286721412790018
40
0.286721412790018
40
0.320802355779402
40
0.320802355779402
40
0.337842827274094
40
0.337842827274094
40
0.354883298768787
40
0.354883298768787
40
0.388964241758171
40
0.388964241758171
40
0.423045184747556
40
0.423045184747556
40
0.45712612773694
40
0.45712612773694
40
0.474166599231632
40
0.474166599231632
40
0.491207070726323
40
0.491207070726323
40
0.525288013715705
40
0.525288013715705
40
0.559368956705087
40
0.559368956705087
40
0.593449899694469
40
0.593449899694469
40
0.61049037118916
40
0.61049037118916
40
0.627530842683851
40
0.627530842683851
40
0.661611785673232
40
0.661611785673232
40
0.729773671651997
40
0.729773671651997
40
0.746814143146689
40
0.746814143146689
40
0.76385461464138
40
0.76385461464138
40
0.780895086136071
40
0.780895086136071
40
0.797935557630762
40
0.797935557630762
40
0.866097443609527
40
0.866097443609527
40
0.883137915104218
40
0.883137915104218
40
0.900178386598908
40
0.900178386598908
40
0.917218858093599
40
0.917218858093599
40
0.93425932958829
40
0.93425932958829
40
1
40
1
40
1
40
1
41
1
10
17.6510948602698
20
1.34081843999675
30
0
41
1
10
17.7025258121786
20
1.36190041160822
30
0
41
1
10
17.7539469032398
20
1.38232029730651
30
0
41
1
10
17.9299896554862
20
1.44978091030862
30
0
41
1
10
18.0549380216326
20
1.49324850496797
30
0
41
1
10
18.3054660338232
20
1.57179114250204
30
0
41
1
10
18.4299062058788
20
1.60767781958975
30
0
41
1
10
18.6821868786465
20
1.66864555678828
30
0
41
1
10
18.8088552842335
20
1.69454779454887
30
0
41
1
10
19.060890731826
20
1.73629377809988
30
0
41
1
10
19.1865397670055
20
1.7522387455808
30
0
41
1
10
19.4383227071085
20
1.77379494238454
30
0
41
1
10
19.5651109664979
20
1.77938436657252
30
0
41
1
10
19.7544056793885
20
1.78009293674333
30
0
41
1
10
19.8172799216995
20
1.77906171484784
30
0
41
1
10
19.9421359862881
20
1.7743492321583
30
0
41
1
10
20.0045161451778
20
1.77069247159724
30
0
41
1
10
20.1922411766684
20
1.7561428061764
30
0
41
1
10
20.3169845601267
20
1.74144730717123
30
0
41
1
10
20.5663130636969
20
1.70228854679803
30
0
41
1
10
20.6906759468937
20
1.67771493392911
30
0
41
1
10
20.9399809522729
20
1.61900695546382
30
0
41
1
10
21.0652552931388
20
1.58512542193822
30
0
41
1
10
21.2539900284491
20
1.52746780778065
30
0
41
1
10
21.3171221825459
20
1.5071911790447
30
0
41
1
10
21.4429206239012
20
1.4635650143907
30
0
41
1
10
21.50574112323
20
1.44046752667378
30
0
41
1
10
21.6950587808304
20
1.36943180378415
30
0
41
1
10
21.8210865570032
20
1.31811866098846
30
0
41
1
10
22.0731961946991
20
1.20806752913899
30
0
41
1
10
22.1990311329731
20
1.14899714021223
30
0
41
1
10
22.4514145484032
20
1.02414815890214
30
0
41
1
10
22.5775763691735
20
0.959151838662308
30
0
41
1
10
22.7668102177888
20
0.857973234532381
30
0
41
1
10
22.8300083260494
20
0.82380976354554
30
0
41
1
10
22.9556371606243
20
0.753131142658674
30
0
41
1
10
23.0181854103126
20
0.716764397017272
30
0
41
1
10
23.207342280067
20
0.608017522935342
30
0
41
1
10
23.3339900802743
20
0.533715386277322
30
0
41
1
10
23.5862922414837
20
0.3826842307015
30
0
41
1
10
23.7119551129372
20
0.305447811159922
30
0
41
1
10
23.9635802318841
20
0.149521384881297
30
0
41
1
10
24.0901200229892
20
0.0710209231272358
30
0
41
1
10
24.2794554977959
20
-0.046066294754155
30
0
41
1
10
24.3425323317803
20
-0.0847761803960623
30
0
41
1
10
24.4678206804175
20
-0.162893347757546
30
0
41
1
10
24.5299419095074
20
-0.202438527565448
30
0
41
1
10
24.7171784741444
20
-0.318500175876778
30
0
41
1
10
24.8421390209787
20
-0.394174905598305
30
0
41
1
10
25.216362340936
20
-0.61795007462436
30
0
41
1
10
25.4645469019018
20
-0.763323080825415
30
0
41
1
10
25.7788379416891
20
-0.931510693351441
30
0
41
1
10
25.8419069960456
20
-0.96446825521727
30
0
41
1
10
25.9681249702458
20
-1.02949831564149
30
0
41
1
10
26.0309097423053
20
-1.06199730277959
30
0
41
1
10
26.1566319791235
20
-1.1245832033764
30
0
41
1
10
26.219815456455
20
-1.15455578932963
30
0
41
1
10
26.3458271918798
20
-1.21316240876453
30
0
41
1
10
26.4087819530327
20
-1.24162853052192
30
0
41
1
10
26.7239221163589
20
-1.37906936791759
30
0
41
1
10
26.976342844784
20
-1.47574471761979
30
0
41
1
10
27.2898090210345
20
-1.57167155236547
30
0
41
1
10
27.3524375986358
20
-1.58968842360889
30
0
41
1
10
27.4774669298612
20
-1.62348228850667
30
0
41
1
10
27.5395000262694
20
-1.63950324231834
30
0
41
1
10
27.6636303556952
20
-1.66901806954127
30
0
41
1
10
27.7260205772677
20
-1.68236292314043
30
0
41
1
10
27.8506817984134
20
-1.70675520897745
30
0
41
1
10
27.9129535159686
20
-1.71778359411675
30
0
41
1
10
28.2159973912048
20
-1.76530469528933
30
0
41
1
10
28.4565956318876
20
-1.78512983457591
30
0
41
1
10
28.7002462511404
20
-1.7855072810504
30
0
0
SPLINE
5
D9
100
AcDbEntity
8
1
62
256
6
ByLayer
370
18
48
1
60
0
100
AcDbSpline
70
4
71
3
72
8
73
4
40
0
40
0
40
0
40
0
40
1
40
1
40
1
40
1
41
1
10
29.5370827178053
20
-0.78646935523517
30
0
41
1
10
29.4408099581768
20
-0.964506276401409
30
0
41
1
10
29.3472489697325
20
-1.1450100137551
30
0
41
1
10
29.2564349604613
20
-1.32801259493848
30
0
0
SPLINE
5
DA
100
AcDbEntity
8
1
62
256
6
ByLayer
370
18
48
1
60
0
100
AcDbSpline
70
4
71
3
72
10
73
6
40
0
40
0
40
0
40
0
40
0.5
40
0.5
40
1
40
1
40
1
40
1
41
1
10
29.4838660131455
20
-1.72026378248628
30
0
41
1
10
29.5587871904588
20
-1.51257042701585
30
0
41
1
10
29.6375922817293
20
-1.30586571662172
30
0
41
1
10
29.8001472378946
20
-0.89389266823062
30
0
41
1
10
29.8837302593078
20
-0.688885059920977
30
0
41
1
10
29.9686448911677
20
-0.485116498446075
30
0
0
SPLINE
5
DB
100
AcDbEntity
8
1
62
256
6
ByLayer
370
18
48
1
60
0
100
AcDbSpline
70
4
71
3
72
8
73
4
40
0
40
0
40
0
40
0
40
1
40
1
40
1
40
1
41
1
10
29.9790664193787
20
-0.01726358446939
30
0
41
1
10
29.8995778486041
20
-0.14765460575984
30
0
41
1
10
29.8216346581897
20
-0.279451412800455
30
0
41
1
10
29.745254924199
20
-0.412670448839094
30
0
0
SPLINE
5
DC
100
AcDbEntity
8
1
62
256
6
ByLayer
370
18
48
1
60
0
100
AcDbSpline
70
4
71
3
72
56
73
52
40
0
40
0
40
0
40
0
40
0.12499999999997
40
0.12499999999997
40
0.187499999999955
40
0.187499999999955
40
0.24999999999994
40
0.24999999999994
40
0.312499999999925
40
0.312499999999925
40
0.343749999999919
40
0.343749999999919
40
0.374999999999913
40
0.374999999999913
40
0.39062499999991
40
0.39062499999991
40
0.406249999999908
40
0.406249999999908
40
0.437499999999903
40
0.437499999999903
40
0.453124999999901
40
0.453124999999901
40
0.468749999999899
40
0.468749999999899
40
0.499999999999894
40
0.499999999999894
40
0.53124999999989
40
0.53124999999989
40
0.546874999999887
40
0.546874999999887
40
0.554687499999888
40
0.554687499999888
40
0.558593749999888
40
0.558593749999888
40
0.562499999999888
40
0.562499999999888
40
0.570312499999888
40
0.570312499999888
40
0.578124999999888
40
0.578124999999888
40
0.593749999999892
40
0.593749999999892
40
0.624999999999899
40
0.624999999999899
40
0.687499999999916
40
0.687499999999916
40
0.749999999999932
40
0.749999999999932
40
0.874999999999966
40
0.874999999999966
40
1
40
1
40
1
40
1
41
1
10
4.05940272011185
20
-1.01522537287522
30
0
41
1
10
3.82862420829588
20
-0.89099440926617
30
0
41
1
10
3.59913059624836
20
-0.755350390846729
30
0
41
1
10
3.25619975397959
20
-0.533940600947375
30
0
41
1
10
3.14188864163597
20
-0.456902200641679
30
0
41
1
10
2.91540515044562
20
-0.295832178524677
30
0
41
1
10
2.80418866904682
20
-0.212555066642466
30
0
41
1
10
2.58789144201773
20
-0.037889670280407
30
0
41
1
10
2.48266792464119
20
0.0533182237060146
30
0
41
1
10
2.33334738207242
20
0.201163350955312
30
0
41
1
10
2.28502948785865
20
0.252418584722875
30
0
41
1
10
2.19533405869575
20
0.357878346130207
30
0
41
1
10
2.15361930714963
20
0.41230529987277
30
0
41
1
10
2.09861795471295
20
0.498228497293752
30
0
41
1
10
2.08156317423641
20
0.527593731332246
30
0
41
1
10
2.05094748792422
20
0.588338767623156
30
0
41
1
10
2.03752710802695
20
0.619534844910305
30
0
41
1
10
2.00568706078883
20
0.713680579010571
30
0
41
1
10
1.99557739416775
20
0.77899930423402
30
0
41
1
10
2.00514266291967
20
0.871637746153766
30
0
41
1
10
2.01249446526518
20
0.902292762866381
30
0
41
1
10
2.03464802796339
20
0.95952025899021
30
0
41
1
10
2.04934909164717
20
0.986381134241668
30
0
41
1
10
2.10307375924461
20
1.06248721329112
30
0
41
1
10
2.14936808194238
20
1.10454929065645
30
0
41
1
10
2.25416483238794
20
1.17806870244039
30
0
41
1
10
2.31143645755839
20
1.20857781442805
30
0
41
1
10
2.40100864548208
20
1.24846394933326
30
0
41
1
10
2.43156156076392
20
1.26077579732373
30
0
41
1
10
2.47826405492657
20
1.27804975153174
30
0
41
1
10
2.4939772760271
20
1.28360817841585
30
0
41
1
10
2.51774930338303
20
1.29167359737511
30
0
41
1
10
2.5257192720577
20
1.29430356452252
30
0
41
1
10
2.54165765151407
20
1.29954796279213
30
0
41
1
10
2.54986492395011
20
1.30194987442923
30
0
41
1
10
2.5757019315671
20
1.30519659412116
30
0
41
1
10
2.59372342881756
20
1.3031193279856
30
0
41
1
10
2.62875909318149
20
1.30026738201064
30
0
41
1
10
2.64626851966923
20
1.29878674174085
30
0
41
1
10
2.69877170254711
20
1.2941796754898
30
0
41
1
10
2.73373553989751
20
1.29088850320503
30
0
41
1
10
2.8384558708803
20
1.28035259781555
30
0
41
1
10
2.90806304557515
20
1.27244277565265
30
0
41
1
10
3.11627888493968
20
1.2459606443287
30
0
41
1
10
3.25438613844528
20
1.22462086187247
30
0
41
1
10
3.52702461762681
20
1.17438961803404
30
0
41
1
10
3.66180700794698
20
1.14546231855064
30
0
41
1
10
4.0619611990877
20
1.04679962692524
30
0
41
1
10
4.32301525745166
20
0.964874258363352
30
0
41
1
10
4.83704304134042
20
0.768669722196336
30
0
41
1
10
5.09038698148404
20
0.654010088701426
30
0
41
1
10
5.33943517079533
20
0.527522806904472
30
0
0
SPLINE
5
DD
100
AcDbEntity
8
1
62
256
6
ByLayer
370
18
48
1
60
0
100
AcDbSpline
70
4
71
3
72
8
73
4
40
0
40
0
40
0
40
0
40
1
40
1
40
1
40
1
41
1
10
29.9686448911667
20
-0.485116498449031
30
0
41
1
10
29.9783386086152
20
-0.355096410156932
30
0
41
1
10
29.9854520126517
20
-0.225204338100383
30
0
41
1
10
29.9899803404667
20
-0.0954405185750602
30
0
0
SPLINE
5
DE
100
AcDbEntity
8
1
62
256
6
ByLayer
370
18
48
1
60
0
100
AcDbSpline
70
4
71
3
72
80
73
76
40
0
40
0
40
0
40
0
40
0.010797413214446
40
0.010797413214446
40
0.0448385764843506
40
0.0448385764843506
40
0.0618591581193029
40
0.0618591581193029
40
0.0788797397542553
40
0.0788797397542553
40
0.11292090302416
40
0.11292090302416
40
0.146962066294065
40
0.146962066294065
40
0.181003229563969
40
0.181003229563969
40
0.198023811198921
40
0.198023811198921
40
0.215044392833873
40
0.215044392833873
40
0.249085556103777
40
0.249085556103777
40
0.283126719373682
40
0.283126719373682
40
0.317167882643587
40
0.317167882643587
40
0.334188464278539
40
0.334188464278539
40
0.351209045913491
40
0.351209045913491
40
0.385250209183396
40
0.385250209183396
40
0.419291372453301
40
0.419291372453301
40
0.453332535723205
40
0.453332535723205
40
0.470353117358158
40
0.470353117358158
40
0.48737369899311
40
0.48737369899311
40
0.521414862263015
40
0.521414862263015
40
0.55545602553292
40
0.55545602553292
40
0.589497188802824
40
0.589497188802824
40
0.606517770437777
40
0.606517770437777
40
0.62353835207273
40
0.62353835207273
40
0.657579515342638
40
0.657579515342638
40
0.691620678612545
40
0.691620678612545
40
0.725661841882452
40
0.725661841882452
40
0.742682423517406
40
0.742682423517406
40
0.75970300515236
40
0.75970300515236
40
0.793744168422265
40
0.793744168422265
40
0.827785331692171
40
0.827785331692171
40
0.861826494962077
40
0.861826494962077
40
0.895867658231983
40
0.895867658231983
40
0.929908821501889
40
0.929908821501889
40
0.963949984771795
40
0.963949984771795
40
0.997991148041701
40
0.997991148041701
40
1
40
1
40
1
40
1
41
1
10
8.62111387340943
20
1.3242484702487
30
0
41
1
10
8.66118808642321
20
1.34077645278103
30
0
41
1
10
8.70129128262926
20
1.35689690700579
30
0
41
1
10
8.86797634228276
20
1.42199305825883
30
0
41
1
10
8.99474498489326
20
1.46686642320671
30
0
41
1
10
9.18316003516622
20
1.52910607563393
30
0
41
1
10
9.24584117838691
20
1.54882408471386
30
0
41
1
10
9.37209285341629
20
1.58536057908316
30
0
41
1
10
9.43527821592647
20
1.60249050333854
30
0
41
1
10
9.62491766495947
20
1.65050635629248
30
0
41
1
10
9.75140709752353
20
1.67775681411001
30
0
41
1
10
10.0023343514064
20
1.72233422959161
30
0
41
1
10
10.1271573010725
20
1.73965768116057
30
0
41
1
10
10.3771374473014
20
1.76408316833673
30
0
41
1
10
10.5024569594175
20
1.7712844975882
30
0
41
1
10
10.6891566764572
20
1.77464788491702
30
0
41
1
10
10.7511192626517
20
1.7744793390969
30
0
41
1
10
10.8760177853083
20
1.77160782967624
30
0
41
1
10
10.9386974434431
20
1.76892517440783
30
0
41
1
10
11.1266716328836
20
1.75704199973896
30
0
41
1
10
11.2525138293477
20
1.74410407282807
30
0
41
1
10
11.5049876289435
20
1.70772925686615
30
0
41
1
10
11.6311100230964
20
1.68439394434554
30
0
41
1
10
11.8834372493831
20
1.62854302643672
30
0
41
1
10
12.0099671657264
20
1.59618461624629
30
0
41
1
10
12.1990834908621
20
1.54005241282127
30
0
41
1
10
12.2617433876119
20
1.51982332082488
30
0
41
1
10
12.3880092995415
20
1.47770802164356
30
0
41
1
10
12.4513649339049
20
1.45584921502598
30
0
41
1
10
12.6407522124464
20
1.38677662352762
30
0
41
1
10
12.7669657516504
20
1.33683770573555
30
0
41
1
10
13.0188365187421
20
1.22862038046392
30
0
41
1
10
13.1448958037687
20
1.17054571867683
30
0
41
1
10
13.3978202155908
20
1.04846293013782
30
0
41
1
10
13.5243380158625
20
0.984876376811314
30
0
41
1
10
13.7134390020222
20
0.884692315964031
30
0
41
1
10
13.7759880040243
20
0.849959399165556
30
0
41
1
10
13.9017287788474
20
0.780065955385282
30
0
41
1
10
13.9650011359437
20
0.745045401801207
30
0
41
1
10
14.1545244864962
20
0.637599439940999
30
0
41
1
10
14.2812574726074
20
0.564049513838
30
0
41
1
10
14.5331856349898
20
0.413358094071555
30
0
41
1
10
14.658916117415
20
0.336531642631741
30
0
41
1
10
14.9111683267486
20
0.181931371308195
30
0
41
1
10
15.0380292473314
20
0.10417697388624
30
0
41
1
10
15.2276122105403
20
-0.0129059252323032
30
0
41
1
10
15.2902751521224
20
-0.0526670088490278
30
0
41
1
10
15.4158902893493
20
-0.131453154597779
30
0
41
1
10
15.4790599148972
20
-0.17013062054906
30
0
41
1
10
15.668214677445
20
-0.286351667340739
30
0
41
1
10
15.7945080419229
20
-0.363015788956659
30
0
41
1
10
16.0470545644818
20
-0.515359382331866
30
0
41
1
10
16.1730396982147
20
-0.590286439462062
30
0
41
1
10
16.4250695182286
20
-0.735469192342919
30
0
41
1
10
16.5513165550842
20
-0.805641041349986
30
0
41
1
10
16.7408865490786
20
-0.907518360958846
30
0
41
1
10
16.8037825753609
20
-0.941463428670545
30
0
41
1
10
16.9296242319015
20
-1.00778056726205
30
0
41
1
10
16.9927136153199
20
-1.03962838272258
30
0
41
1
10
17.1814235414698
20
-1.13289133438266
30
0
41
1
10
17.3067770466637
20
-1.1916083601989
30
0
41
1
10
17.5563878319618
20
-1.30242159046412
30
0
41
1
10
17.6808057101763
20
-1.35429216404447
30
0
41
1
10
17.9299896554862
20
-1.44978091030862
30
0
41
1
10
18.0549380216325
20
-1.49324850496794
30
0
41
1
10
18.3054660338232
20
-1.57179114250201
30
0
41
1
10
18.4299062058787
20
-1.60767781958975
30
0
41
1
10
18.6821868786465
20
-1.66864555678828
30
0
41
1
10
18.8088552842335
20
-1.69454779454887
30
0
41
1
10
19.060890731826
20
-1.73629377809988
30
0
41
1
10
19.1865397670055
20
-1.7522387455808
30
0
41
1
10
19.4383227071085
20
-1.77379494238454
30
0
41
1
10
19.5651109664979
20
-1.77938436657252
30
0
41
1
10
19.698754603139
20
-1.77988462298748
30
0
41
1
10
19.7061986442939
20
-1.77989484440451
30
0
41
1
10
19.7136391998864
20
-1.77988731622665
30
0
0
SPLINE
5
DF
100
AcDbEntity
8
1
62
256
6
ByLayer
370
18
48
1
60
0
100
AcDbSpline
70
4
71
3
72
22
73
18
40
0
40
0
40
0
40
0
40
0.20331723161364
40
0.20331723161364
40
0.269707462312502
40
0.269707462312502
40
0.336097693011365
40
0.336097693011365
40
0.402487923710228
40
0.402487923710228
40
0.46887815440909
40
0.46887815440909
40
0.73443907720454
40
0.73443907720454
40
0.867219538602271
40
0.867219538602271
40
1
40
1
40
1
40
1
41
1
10
26.6491101131499
20
1.34415676126181
30
0
41
1
10
26.8421592266241
20
1.42329291194287
30
0
41
1
10
27.0351204440334
20
1.49373182269562
30
0
41
1
10
27.2898090210345
20
1.57167155236547
30
0
41
1
10
27.3524375986358
20
1.58968842360889
30
0
41
1
10
27.4774669298611
20
1.62348228850664
30
0
41
1
10
27.5395000262694
20
1.63950324231834
30
0
41
1
10
27.6636303556951
20
1.66901806954127
30
0
41
1
10
27.7260205772677
20
1.68236292314043
30
0
41
1
10
27.8506817984134
20
1.70675520897745
30
0
41
1
10
27.9129535159686
20
1.71778359411675
30
0
41
1
10
28.22486093828
20
1.7666946112445
30
0
41
1
10
28.4743179137529
20
1.78656584746901
30
0
41
1
10
28.8536104981084
20
1.7849217308414
30
0
41
1
10
28.9800268386585
20
1.77930464158646
30
0
41
1
10
29.2309736349854
20
1.75728666844702
30
0
41
1
10
29.3575883779689
20
1.74127817298799
30
0
41
1
10
29.4838660131455
20
1.72026378248609
30
0
0
SPLINE
5
E0
100
AcDbEntity
8
1
62
256
6
ByLayer
370
18
48
1
60
0
100
AcDbSpline
70
4
71
3
72
8
73
4
40
0
40
0
40
0
40
0
40
1
40
1
40
1
40
1
41
1
10
29.9999455170851
20
0.0321452593188383
30
0
41
1
10
29.9949092972403
20
0.0145584318075009
30
0
41
1
10
29.9871852363413
20
-0.0039456844858989
30
0
41
1
10
29.9790664193787
20
-0.0172635844694184
30
0
0
SPLINE
5
E1
100
AcDbEntity
8
1
62
256
6
ByLayer
370
18
48
1
60
0
100
AcDbSpline
70
4
71
3
72
8
73
4
40
0
40
0
40
0
40
0
40
1
40
1
40
1
40
1
41
1
10
29.9899803404667
20
-0.0954405185750034
30
0
41
1
10
29.9905973130363
20
-0.0777605447656242
30
0
41
1
10
29.9944346756247
20
-0.0554594395914876
30
0
41
1
10
29.9999455170898
20
-0.0321452592989999
30
0
0
SPLINE
5
E2
100
AcDbEntity
8
1
62
256
6
ByLayer
370
18
48
1
60
0
100
AcDbSpline
70
4
71
3
72
72
73
68
40
0
40
0
40
0
40
0
40
0.0255913854950749
40
0.0255913854950749
40
0.0577382743996374
40
0.0577382743996374
40
0.0898851633041998
40
0.0898851633041998
40
0.122032052208762
40
0.122032052208762
40
0.154178941113325
40
0.154178941113325
40
0.186325830017887
40
0.186325830017887
40
0.218472718922449
40
0.218472718922449
40
0.250619607827012
40
0.250619607827012
40
0.282766496731574
40
0.282766496731574
40
0.314913385636137
40
0.314913385636137
40
0.347060274540699
40
0.347060274540699
40
0.379207163445262
40
0.379207163445262
40
0.411354052349824
40
0.411354052349824
40
0.443500941254387
40
0.443500941254387
40
0.475647830158949
40
0.475647830158949
40
0.507794719063511
40
0.507794719063511
40
0.539941607968074
40
0.539941607968074
40
0.556015052420356
40
0.556015052420356
40
0.572088496872638
40
0.572088496872638
40
0.604235385777202
40
0.604235385777202
40
0.636382274681765
40
0.636382274681765
40
0.668529163586329
40
0.668529163586329
40
0.700676052490893
40
0.700676052490893
40
0.732822941395457
40
0.732822941395457
40
0.76496983030002
40
0.76496983030002
40
0.797116719204584
40
0.797116719204584
40
0.829263608109148
40
0.829263608109148
40
0.861410497013712
40
0.861410497013712
40
0.893557385918276
40
0.893557385918276
40
0.92570427482284
40
0.92570427482284
40
0.957851163727403
40
0.957851163727403
40
0.989998052631967
40
0.989998052631967
40
1
40
1
40
1
40
1
41
1
10
26.6400286713011
20
-1.33777060526151
30
0
41
1
10
26.547029410826
20
-1.37173100292304
30
0
41
1
10
26.4542344342194
20
-1.40353796104915
30
0
41
1
10
26.2446267220881
20
-1.46971668019216
30
0
41
1
10
26.1278137157243
20
-1.50286325382405
30
0
41
1
10
25.8945050293813
20
-1.56206863465368
30
0
41
1
10
25.777268384911
20
-1.58759418073962
30
0
41
1
10
25.543384367164
20
-1.62985753665987
30
0
41
1
10
25.4267715464155
20
-1.64689739646212
30
0
41
1
10
25.1930187089565
20
-1.67349424185767
30
0
41
1
10
25.0764621697306
20
-1.68312175402463
30
0
41
1
10
24.8424949599167
20
-1.69400772828041
30
0
41
1
10
24.7254476148283
20
-1.69529894645274
30
0
41
1
10
24.4919659522374
20
-1.68931613910763
30
0
41
1
10
24.3756645483731
20
-1.68199605438991
30
0
41
1
10
24.1421186840027
20
-1.65797159716507
30
0
41
1
10
24.0248198746053
20
-1.64119250084761
30
0
41
1
10
23.7910198279158
20
-1.60132569656841
30
0
41
1
10
23.6740357328351
20
-1.57804587526064
30
0
41
1
10
23.4410186989588
20
-1.52237056890746
30
0
41
1
10
23.3241659695091
20
-1.49009119351211
30
0
41
1
10
23.0901767248344
20
-1.41933410230874
30
0
41
1
10
22.9731707869034
20
-1.38063027387486
30
0
41
1
10
22.7397559827075
20
-1.29621922711868
30
0
41
1
10
22.6230423361735
20
-1.25040859664571
30
0
41
1
10
22.3893958111035
20
-1.15269296239799
30
0
41
1
10
22.2726667124132
20
-1.10124462644896
30
0
41
1
10
22.0384107717463
20
-0.993161006904302
30
0
41
1
10
21.9220195371471
20
-0.935929631478786
30
0
41
1
10
21.6885861739614
20
-0.817626559916675
30
0
41
1
10
21.5717229644474
20
-0.756833757661241
30
0
41
1
10
21.3385297307102
20
-0.630794274377593
30
0
41
1
10
21.2214843523416
20
-0.565953756516706
30
0
41
1
10
20.9877879963334
20
-0.434147075314399
30
0
41
1
10
20.8711585494607
20
-0.366980259268757
30
0
41
1
10
20.6961543655781
20
-0.265409348924265
30
0
41
1
10
20.637686497416
20
-0.231593217313673
30
0
41
1
10
20.5210131071742
20
-0.163102865226193
30
0
41
1
10
20.4627952380221
20
-0.128448868117374
30
0
41
1
10
20.2875006390011
20
-0.0249272527608184
30
0
41
1
10
20.1704325324536
20
0.044089883725718
30
0
41
1
10
19.9367413618563
20
0.181152283152528
30
0
41
1
10
19.8204637717873
20
0.250169292912943
30
0
41
1
10
19.5870298189394
20
0.38552843374822
30
0
41
1
10
19.4699075556113
20
0.452262532358787
30
0
41
1
10
19.2359195797595
20
0.5834360322024
30
0
41
1
10
19.1189190440982
20
0.647491625509531
30
0
41
1
10
18.8858436889907
20
0.773189166263933
30
0
41
1
10
18.7691602208346
20
0.833886608384489
30
0
41
1
10
18.5352166848096
20
0.950501532210353
30
0
41
1
10
18.4179550649357
20
1.0069463749567
30
0
41
1
10
18.1845661226786
20
1.11504504240034
30
0
41
1
10
18.0678145849938
20
1.16587684811046
30
0
41
1
10
17.8341451069438
20
1.26112112970478
30
0
41
1
10
17.7174361966532
20
1.3059731411233
30
0
41
1
10
17.4829700652649
20
1.38925370996662
30
0
41
1
10
17.3666976353876
20
1.42792937290619
30
0
41
1
10
17.1343662666184
20
1.49615934037408
30
0
41
1
10
17.0183810646186
20
1.52617033046894
30
0
41
1
10
16.787207127852
20
1.58001083161875
30
0
41
1
10
16.6718960132521
20
1.60352419082781
30
0
41
1
10
16.4407429722402
20
1.64151377270414
30
0
41
1
10
16.3249415594831
20
1.65596048876475
30
0
41
1
10
16.0931941051047
20
1.67762668860331
30
0
41
1
10
15.9768873450437
20
1.68509173007945
30
0
41
1
10
15.8240943918782
20
1.68894551677286
30
0
41
1
10
15.7877549340453
20
1.68938414845323
30
0
41
1
10
15.7513722002179
20
1.68937414192592
30
0
0
SPLINE
5
E3
100
AcDbEntity
8
1
62
256
6
ByLayer
370
18
48
1
60
0
100
AcDbSpline
70
4
71
3
72
26
73
22
40
0
40
0
40
0
40
0
40
0.0377271762531549
40
0.0377271762531549
40
0.091186777572422
40
0.091186777572422
40
0.144646378891689
40
0.144646378891689
40
0.251565581530228
40
0.251565581530228
40
0.358484784168767
40
0.358484784168767
40
0.465403986807306
40
0.465403986807306
40
0.572323189445845
40
0.572323189445845
40
0.786161594722922
40
0.786161594722922
40
0.893080797361461
40
0.893080797361461
40
1
40
1
40
1
40
1
41
1
10
8.62008672732418
20
-1.3359486296504
30
0
41
1
10
8.57884097676299
20
-1.35059868315165
30
0
41
1
10
8.53758069085566
20
-1.36482575631985
30
0
41
1
10
8.4377922448877
20
-1.39825636867491
30
0
41
1
10
8.37911788297603
20
-1.41699942686509
30
0
41
1
10
8.26195728605211
20
-1.45313424212102
30
0
41
1
10
8.20356257672546
20
-1.47049662523082
30
0
41
1
10
8.02819431970477
20
-1.51932952882737
30
0
41
1
10
7.91139028139958
20
-1.54778573968775
30
0
41
1
10
7.67747135702552
20
-1.59606254491979
30
0
41
1
10
7.5609236198415
20
-1.61700912376884
30
0
41
1
10
7.32672757936385
20
-1.65043916812999
30
0
41
1
10
7.20949730134464
20
-1.66275304943662
30
0
41
1
10
6.97584509521499
20
-1.67902070861345
30
0
41
1
10
6.85890105862919
20
-1.68315739750966
30
0
41
1
10
6.50909661029306
20
-1.68337426122983
30
0
41
1
10
6.27403312557786
20
-1.66598232523572
30
0
41
1
10
5.92409790775795
20
-1.61606848216348
30
0
41
1
10
5.80746411144099
20
-1.59544961158255
30
0
41
1
10
5.57382164437365
20
-1.54573593404197
30
0
41
1
10
5.4567001906596
20
-1.51699469939544
30
0
41
1
10
5.33943517079493
20
-1.48468855674048
30
0
0
SPLINE
5
E4
100
AcDbEntity
8
1
62
256
6
ByLayer
370
13
48
1
60
0
100
AcDbSpline
70
4
71
3
72
30
73
26
40
0
40
0
40
0
40
0
40
0.104889656619992
40
0.104889656619992
40
0.209779313239984
40
0.209779313239984
40
0.262224141549978
40
0.262224141549978
40
0.314668969859972
40
0.314668969859972
40
0.419558626479964
40
0.419558626479964
40
0.524448283099958
40
0.524448283099958
40
0.576893111409956
40
0.576893111409956
40
0.629337939719955
40
0.629337939719955
40
0.734227596339951
40
0.734227596339951
40
0.786672424649948
40
0.786672424649948
40
0.839117252959945
40
0.839117252959945
40
1
40
1
40
1
40
1
41
1
10
29.3851782705647
20
-1.69664729336429
30
0
41
1
10
29.1220164094648
20
-1.69770556717901
30
0
41
1
10
28.8578059905141
20
-1.6767870322669
30
0
41
1
10
28.3353857022569
20
-1.59443821174571
30
0
41
1
10
28.0758737511417
20
-1.53318958451081
30
0
41
1
10
27.6852803360083
20
-1.41387495478392
30
0
41
1
10
27.5548813600464
20
-1.36953530286155
30
0
41
1
10
27.2930363513811
20
-1.27221619464334
30
0
41
1
10
27.1611132671754
20
-1.21903084705201
30
0
41
1
10
26.7663698346458
20
-1.04884271517352
30
0
41
1
10
26.5059728167651
20
-0.921907713360525
30
0
41
1
10
25.985650731149
20
-0.648942319668038
30
0
41
1
10
25.7257772591596
20
-0.502783065228215
30
0
41
1
10
25.3325834392664
20
-0.274917638426246
30
0
41
1
10
25.2004365749385
20
-0.197276266426968
30
0
41
1
10
24.9375982571355
20
-0.0421994639999923
30
0
41
1
10
24.8067721045686
20
0.035304291455077
30
0
41
1
10
24.4151033429189
20
0.266067367976433
30
0
41
1
10
24.1550574683148
20
0.417532131619907
30
0
41
1
10
23.7634653602349
20
0.636007381078429
30
0
41
1
10
23.6325970769447
20
0.70723886373176
30
0
41
1
10
23.3694913946614
20
0.845310120500358
30
0
41
1
10
23.2373713729649
20
0.912071306508295
30
0
41
1
10
22.7042686867587
20
1.169683822656
30
0
41
1
10
22.3066496343558
20
1.33243534635642
30
0
41
1
10
21.9051118273757
20
1.45361658825624
30
0
0
SPLINE
5
E5
100
AcDbEntity
8
1
62
256
6
ByLayer
370
18
48
1
60
0
100
AcDbSpline
70
4
71
3
72
14
73
10
40
0
40
0
40
0
40
0
40
0.0233699963352792
40
0.0233699963352792
40
0.472876636152344
40
0.472876636152344
40
0.92238327596941
40
0.92238327596941
40
1
40
1
40
1
40
1
41
1
10
11.3611627067735
20
-1.68547529519031
30
0
41
1
10
11.347472090321
20
-1.68545385107913
30
0
41
1
10
11.3337891089309
20
-1.68537420373792
30
0
41
1
10
11.0571206417971
20
-1.68258236042857
30
0
41
1
10
10.796501495809
20
-1.65869912977067
30
0
41
1
10
10.274824657686
20
-1.57068397077612
30
0
41
1
10
10.0138810910309
20
-1.50659665112929
30
0
41
1
10
9.70468667541388
20
-1.40924447611223
30
0
41
1
10
9.65912797586668
20
-1.39435293206074
30
0
41
1
10
9.61358656804461
20
-1.37894533462554
30
0
0
SPLINE
5
E6
100
AcDbEntity
8
1
62
256
6
ByLayer
370
13
48
1
60
0
100
AcDbSpline
70
4
71
3
72
24
73
20
40
0
40
0
40
0
40
0
40
0.0479439438955598
40
0.0479439438955598
40
0.121179025134363
40
0.121179025134363
40
0.267649187611969
40
0.267649187611969
40
0.340884268850772
40
0.340884268850772
40
0.414119350089575
40
0.414119350089575
40
0.560589512567181
40
0.560589512567181
40
0.633824593805986
40
0.633824593805986
40
0.707059675044791
40
0.707059675044791
40
1
40
1
40
1
40
1
41
1
10
9.61358656823003
20
-1.37894533468824
30
0
41
1
10
9.52725455915689
20
-1.34973743565615
30
0
41
1
10
9.44098468977819
20
-1.31867504267007
30
0
41
1
10
9.22392672824188
20
-1.23617941803764
30
0
41
1
10
9.093225731898
20
-1.18247592147091
30
0
41
1
10
8.7016222207709
20
-1.0110800885046
30
0
41
1
10
8.44128529057366
20
-0.883092066693223
30
0
41
1
10
8.04801647179883
20
-0.675756430052644
30
0
41
1
10
7.91623743096426
20
-0.603921408785595
30
0
41
1
10
7.65222150326338
20
-0.456571433772297
30
0
41
1
10
7.52093572143184
20
-0.381590414407128
30
0
41
1
10
7.12821766699162
20
-0.154506637571586
30
0
41
1
10
6.86787418691066
20
-0.0003503900527164
30
0
41
1
10
6.47601222797863
20
0.228884333970058
30
0
41
1
10
6.34515769814391
20
0.304946655028289
30
0
41
1
10
6.08231689854199
20
0.455222341888685
30
0
41
1
10
5.94984500354354
20
0.529713335692293
30
0
41
1
10
5.2916959491493
20
0.890092243593557
30
0
41
1
10
4.77593139110459
20
1.14271335889396
30
0
41
1
10
4.25043418509256
20
1.33045997920337
30
0
0
SPLINE
5
E7
100
AcDbEntity
8
1
62
256
6
ByLayer
370
13
48
1
60
0
100
AcDbSpline
70
4
71
3
72
16
73
12
40
0
40
0
40
0
40
0
40
0.296641495172615
40
0.296641495172615
40
0.444962242758923
40
0.444962242758923
40
0.59328299034523
40
0.59328299034523
40
0.889924485517846
40
0.889924485517846
40
1
40
1
40
1
40
1
41
1
10
4.25043418509253
20
1.33045997920337
30
0
41
1
10
4.25047709799114
20
1.39733474413396
30
0
41
1
10
4.25051149199908
20
1.45500748612906
30
0
41
1
10
4.25055594144959
20
1.52797291786544
30
0
41
1
10
4.2505696147544
20
1.55010843392145
30
0
41
1
10
4.25059503489746
20
1.58912622805769
30
0
41
1
10
4.2506068024704
20
1.60604900656673
30
0
41
1
10
4.25064060093075
20
1.64925370627944
30
0
41
1
10
4.25066116751495
20
1.66804292499472
30
0
41
1
10
4.25069057519124
20
1.67960867324652
30
0
41
1
10
4.25069859227426
20
1.68127289215656
30
0
41
1
10
4.25070674383127
20
1.68149178948701
30
0
0
SPLINE
5
E8
100
AcDbEntity
8
1
62
256
6
ByLayer
370
18
48
1
60
0
100
AcDbSpline
70
4
71
3
72
10
73
6
40
0
40
0
40
0
40
0
40
0.5
40
0.5
40
1
40
1
40
1
40
1
41
1
10
29.4838660131454
20
-1.72026378248651
30
0
41
1
10
29.4646884551784
20
-1.73615555485827
30
0
41
1
10
29.4462246619965
20
-1.74945440222467
30
0
41
1
10
29.4115131302068
20
-1.76998851250428
30
0
41
1
10
29.3953039881407
20
-1.77723410892301
30
0
41
1
10
29.3801702191261
20
-1.78147030357647
30
0
0
SPLINE
5
E9
100
AcDbEntity
8
1
62
256
6
ByLayer
370
18
48
1
60
0
100
AcDbSpline
70
4
71
3
72
34
73
30
40
0
40
0
40
0
40
0
40
0.249999999999974
40
0.249999999999974
40
0.374999999999967
40
0.374999999999967
40
0.499999999999961
40
0.499999999999961
40
0.624999999999955
40
0.624999999999955
40
0.749999999999948
40
0.749999999999948
40
0.812499999999938
40
0.812499999999938
40
0.84374999999994
40
0.84374999999994
40
0.859374999999948
40
0.859374999999948
40
0.874999999999956
40
0.874999999999956
40
0.88281249999996
40
0.88281249999996
40
0.890624999999964
40
0.890624999999964
40
0.906249999999968
40
0.906249999999968
40
0.937499999999979
40
0.937499999999979
40
1
40
1
40
1
40
1
41
1
10
27.763239362627
20
0.838997458742824
30
0
41
1
10
27.8833297112203
20
0.70951931707188
30
0
41
1
10
28.0125597110006
20
0.594484843388273
30
0
41
1
10
28.2203917911145
20
0.444037340332187
30
0
41
1
10
28.2908521379572
20
0.399005942027998
30
0
41
1
10
28.4334750148998
20
0.319467558904847
30
0
41
1
10
28.5056478268801
20
0.28437936108341
30
0
41
1
10
28.6520511951601
20
0.225385441075389
30
0
41
1
10
28.7264594605979
20
0.201290925539297
30
0
41
1
10
28.8767603325786
20
0.166035757305281
30
0
41
1
10
28.9513713665294
20
0.155170400684881
30
0
41
1
10
29.0622944710164
20
0.151326732507357
30
0
41
1
10
29.0991278095009
20
0.15217568553669
30
0
41
1
10
29.1535275166944
20
0.156921742521575
30
0
41
1
10
29.1715498364113
20
0.159084850353594
30
0
41
1
10
29.1983048871147
20
0.163214310510625
30
0
41
1
10
29.2071803723861
20
0.164738494215584
30
0
41
1
10
29.2248447994447
20
0.168085058815166
30
0
41
1
10
29.2337910697744
20
0.169365343096331
30
0
41
1
10
29.2465249961938
20
0.173647679693318
30
0
41
1
10
29.2507341643734
20
0.175729399012397
30
0
41
1
10
29.2568455544983
20
0.182911169681319
30
0
41
1
10
29.2587127871919
20
0.187868509025179
30
0
41
1
10
29.2623575470402
20
0.203492988318516
30
0
41
1
10
29.263937099608
20
0.214305250403243
30
0
41
1
10
29.2692041588564
20
0.246495982587589
30
0
41
1
10
29.2721432096777
20
0.26821330046414
30
0
41
1
10
29.279386434502
20
0.333817784035603
30
0
41
1
10
29.2821377759491
20
0.378247278241418
30
0
41
1
10
29.2831871810233
20
0.423244641751637
30
0
0
SPLINE
5
EA
100
AcDbEntity
8
1
62
256
6
ByLayer
370
18
48
1
60
0
100
AcDbSpline
70
4
71
3
72
14
73
10
40
0
40
0
40
0
40
0
40
0.25
40
0.25
40
0.5
40
0.5
40
0.75
40
0.75
40
1
40
1
40
1
40
1
41
1
10
29.385177968487
20
-1.69664729457904
30
0
41
1
10
29.3882739313125
20
-1.69655309446705
30
0
41
1
10
29.3908701618535
20
-1.69777632015118
30
0
41
1
10
29.3947250949428
20
-1.70370530554206
30
0
41
1
10
29.3959645783997
20
-1.70841615245814
30
0
41
1
10
29.3960647389328
20
-1.72272455574401
30
0
41
1
10
29.3948285650615
20
-1.73241716748242
30
0
41
1
10
29.3893642855502
20
-1.75536544563477
30
0
41
1
10
29.3850842313166
20
-1.76869838769466
30
0
41
1
10
29.3801702191259
20
-1.78147030357681
30
0
0
SPLINE
5
EB
100
AcDbEntity
8
1
62
256
6
ByLayer
370
18
48
1
60
0
100
AcDbSpline
70
4
71
3
72
38
73
34
40
0
40
0
40
0
40
0
40
0.0427241368076368
40
0.0427241368076368
40
0.0854482736152736
40
0.0854482736152736
40
0.170896547230551
40
0.170896547230551
40
0.256344820845827
40
0.256344820845827
40
0.299068957653468
40
0.299068957653468
40
0.341793094461106
40
0.341793094461106
40
0.427241368076383
40
0.427241368076383
40
0.469965504884022
40
0.469965504884022
40
0.512689641691661
40
0.512689641691661
40
0.598137915306941
40
0.598137915306941
40
0.640862052114581
40
0.640862052114581
40
0.68358618892222
40
0.68358618892222
40
0.854482736152772
40
0.854482736152772
40
0.897206872960409
40
0.897206872960409
40
0.939931009768047
40
0.939931009768047
40
1
40
1
40
1
40
1
41
1
10
29.380170219126
20
-1.78147030357647
30
0
41
1
10
29.2482517553272
20
-1.78722257382827
30
0
41
1
10
29.1164359067187
20
-1.78724707047189
30
0
41
1
10
28.8524291850765
20
-1.77596259609763
30
0
41
1
10
28.7200151098948
20
-1.76459650345544
30
0
41
1
10
28.3256386745035
20
-1.71416148528715
30
0
41
1
10
28.0652201860182
20
-1.65877870794611
30
0
41
1
10
27.5437105415803
20
-1.50861945506097
30
0
41
1
10
27.2827128019608
20
-1.41378037214111
30
0
41
1
10
26.8866308059198
20
-1.24481055241697
30
0
41
1
10
26.7546563441175
20
-1.18437965470741
30
0
41
1
10
26.4924361468846
20
-1.05724382660773
30
0
41
1
10
26.3618486701226
20
-0.99037911527671
30
0
41
1
10
25.9705610817862
20
-0.781479516775192
30
0
41
1
10
25.7103653535206
20
-0.631109999737305
30
0
41
1
10
25.3170984774998
20
-0.394584676329913
30
0
41
1
10
25.185048689724
20
-0.313738253276739
30
0
41
1
10
24.9210742013476
20
-0.150807647276736
30
0
41
1
10
24.7897972897707
20
-0.0691296125697534
30
0
41
1
10
24.3970399307763
20
0.174855983408577
30
0
41
1
10
24.136642313739
20
0.336144056435472
30
0
41
1
10
23.7448805416064
20
0.570629526517649
30
0
41
1
10
23.6139817514667
20
0.647361178543918
30
0
41
1
10
23.3508675755131
20
0.796849011502047
30
0
41
1
10
23.2182456685433
20
0.869859931398111
30
0
41
1
10
22.5605191277018
20
1.21764647063765
30
0
41
1
10
22.0440003010856
20
1.44236220652019
30
0
41
1
10
21.3843300747076
20
1.62693845700159
30
0
41
1
10
21.2520931060842
20
1.65880050282598
30
0
41
1
10
20.989542511758
20
1.71138795844152
30
0
41
1
10
20.8587726155996
20
1.73226830689225
30
0
41
1
10
20.5447730779797
20
1.76940973884166
30
0
41
1
10
20.3615537098274
20
1.78029611475199
30
0
41
1
10
20.1778045030905
20
1.7801930780299
30
0
0
SPLINE
5
EC
100
AcDbEntity
8
1
62
256
6
ByLayer
370
18
48
1
60
0
100
AcDbSpline
70
4
71
3
72
32
73
28
40
0
40
0
40
0
40
0
40
0.194116978516775
40
0.194116978516775
40
0.244484667359476
40
0.244484667359476
40
0.294852356202177
40
0.294852356202177
40
0.395587733887577
40
0.395587733887577
40
0.445955422730278
40
0.445955422730278
40
0.496323111572979
40
0.496323111572979
40
0.597058489258383
40
0.597058489258383
40
0.647426178101085
40
0.647426178101085
40
0.697793866943787
40
0.697793866943787
40
0.798529244629191
40
0.798529244629191
40
0.899264622314594
40
0.899264622314594
40
0.949632311157297
40
0.949632311157297
40
1
40
1
40
1
40
1
41
1
10
12.0172464077599
20
-1.69933480460091
30
0
41
1
10
11.5093270541792
20
-1.78994830027065
30
0
41
1
10
11.0111665812694
20
-1.79887880339061
30
0
41
1
10
10.3711093211254
20
-1.70609404128828
30
0
41
1
10
10.2383874495789
20
-1.68131095186149
30
0
41
1
10
9.9752218524832
20
-1.62162824881904
30
0
41
1
10
9.84419943196474
20
-1.58671601874875
30
0
41
1
10
9.45184408576503
20
-1.46777081200892
30
0
41
1
10
9.19139997618629
20
-1.36935872431823
30
0
41
1
10
8.79803754526833
20
-1.19723269591631
30
0
41
1
10
8.66651751704464
20
-1.13571947185355
30
0
41
1
10
8.40198561524261
20
-1.00502291818753
30
0
41
1
10
8.26988015743837
20
-0.936383228113101
30
0
41
1
10
7.87588475552164
20
-0.723621158108472
30
0
41
1
10
7.61531287771541
20
-0.571789256062118
30
0
41
1
10
7.22327978315701
20
-0.335796801647632
30
0
41
1
10
7.09240996624328
20
-0.255753992065451
30
0
41
1
10
6.82960880550777
20
-0.0939707361921762
30
0
41
1
10
6.69724518950346
20
-0.0119603009592879
30
0
41
1
10
6.30063911300363
20
0.233107905213416
30
0
41
1
10
6.03915932180612
20
0.393672733134906
30
0
41
1
10
5.51646473511028
20
0.700589072942961
30
0
41
1
10
5.25555204700146
20
0.847400720210175
30
0
41
1
10
4.86030031005168
20
1.05057067627882
30
0
41
1
10
4.72761387670175
20
1.11557176427414
30
0
41
1
10
4.46285022544487
20
1.23760297836205
30
0
41
1
10
4.33051889415327
20
1.29476697335355
30
0
41
1
10
4.19795737883084
20
1.34774808910654
30
0
0
SPLINE
5
ED
100
AcDbEntity
8
1
62
256
6
ByLayer
370
18
48
1
60
0
100
AcDbSpline
70
4
71
3
72
19
73
15
40
0
40
0
40
0
40
0
40
0.156285906363092
40
0.282212621716048
40
0.37752185646782
40
0.442030369299692
40
0.486632289513895
40
0.531215539720301
40
0.57622408179481
40
0.621639217899337
40
0.677888640848195
40
0.763032941368298
40
0.876844752345375
40
1
40
1
40
1
40
1
41
1
10
20.341944599366
20
-1.69134393802574
30
0
41
1
10
20.5708007068665
20
-1.69151619853358
30
0
41
1
10
20.9841868593452
20
-1.6919525772033
30
0
41
1
10
21.5378882805218
20
-1.69121012657354
30
0
41
1
10
21.9566482934181
20
-1.69299387085536
30
0
41
1
10
22.2562117720196
20
-1.69237402156256
30
0
41
1
10
22.4815550247326
20
-1.69224791545804
30
0
41
1
10
22.6782543380629
20
-1.69349904701548
30
0
41
1
10
22.8761289241645
20
-1.6934446097774
30
0
41
1
10
23.0910498406327
20
-1.69258835673762
30
0
41
1
10
23.3648885738839
20
-1.69309691846985
30
0
41
1
10
23.7390659805268
20
-1.69311635904353
30
0
41
1
10
24.2113635384245
20
-1.69430748418839
30
0
41
1
10
24.5586803648455
20
-1.69401909509997
30
0
41
1
10
24.7391627775981
20
-1.6937462832455
30
0
0
SPLINE
5
EE
100
AcDbEntity
8
1
62
256
6
ByLayer
370
18
48
1
60
0
100
AcDbSpline
70
4
71
3
72
15
73
11
40
0
40
0
40
0
40
0
40
0.187664553106965
40
0.333249042999163
40
0.45230780046405
40
0.537034775497103
40
0.635827309252557
40
0.772188553419763
40
0.949465680185775
40
1
40
1
40
1
40
1
41
1
10
15.7476374010669
20
1.6893737277525
30
0
41
1
10
15.511477289716
20
1.68923145836342
30
0
41
1
10
15.0920849994326
20
1.68895150458354
30
0
41
1
10
14.5224188646671
20
1.68772799987369
30
0
41
1
10
14.0828875581944
20
1.68783452086586
30
0
41
1
10
13.7018595041837
20
1.68699571530541
30
0
41
1
10
13.2991209598157
20
1.6879649229281
30
0
41
1
10
12.7800709527175
20
1.68615904747605
30
0
41
1
10
12.3214415915217
20
1.6860010511528
30
0
41
1
10
12.0347016571757
20
1.68582846771133
30
0
41
1
10
11.971102302302
20
1.68578913148153
30
0
0
SPLINE
5
EF
100
AcDbEntity
8
1
62
256
6
ByLayer
370
18
48
1
60
0
100
AcDbSpline
70
4
71
3
72
15
73
11
40
0
40
0
40
0
40
0
40
0.127872568365855
40
0.276641894160281
40
0.380839281638201
40
0.443290756738149
40
0.522820678386549
40
0.648456668107259
40
0.819226581111712
40
1
40
1
40
1
40
1
41
1
10
4.25070380308807
20
-1.6813733005211
30
0
41
1
10
4.35675969523297
20
-1.6817011709679
30
0
41
1
10
4.58622314195742
20
-1.68223361420561
30
0
41
1
10
4.90224038369564
20
-1.68214003143126
30
0
41
1
10
5.16392401663165
20
-1.68208574703186
30
0
41
1
10
5.36805365990162
20
-1.68202794936622
30
0
41
1
10
5.59005646711898
20
-1.68239796632977
30
0
41
1
10
5.9019425208364
20
-1.6830963058284
30
0
41
1
10
6.29786153608734
20
-1.6827938760882
30
0
41
1
10
6.58952536117869
20
-1.68304601116029
30
0
41
1
10
6.73950747368616
20
-1.68317038752133
30
0
0
SPLINE
5
F0
100
AcDbEntity
8
1
62
256
6
ByLayer
370
18
48
1
60
0
100
AcDbSpline
70
4
71
3
72
15
73
11
40
0
40
0
40
0
40
0
40
0.185570579810438
40
0.317913528139573
40
0.402993163406062
40
0.475608068218008
40
0.547780920886652
40
0.659528748074702
40
0.816726965936398
40
1
40
1
40
1
40
1
41
1
10
11.3413626856985
20
-1.68545779529606
30
0
41
1
10
11.6133578989778
20
-1.68546885736123
30
0
41
1
10
12.0794192679387
20
-1.68533819388881
30
0
41
1
10
12.6706982639843
20
-1.68743242270998
30
0
41
1
10
13.0959860772813
20
-1.68572352892272
30
0
41
1
10
13.4331246563122
20
-1.68868229698799
30
0
41
1
10
13.8094731887065
20
-1.68635896583592
30
0
41
1
10
14.309840639795
20
-1.68928690268251
30
0
41
1
10
14.9732116892771
20
-1.6883547554425
30
0
41
1
10
15.4726418278125
20
-1.68910508705011
30
0
41
1
10
15.7414814039127
20
-1.68937692426997
30
0
0
SPLINE
5
F1
100
AcDbEntity
8
1
62
256
6
ByLayer
370
18
48
1
60
0
100
AcDbSpline
70
4
71
1
72
4
73
2
40
0
40
0
40
1
40
1
41
1
10
29.2361892636461
20
-1.69547512289677
30
0
41
1
10
29.3572742735116
20
-1.69239879921059
30
0
0
SPLINE
5
F2
100
AcDbEntity
8
1
62
256
6
ByLayer
370
18
48
1
60
0
100
AcDbSpline
70
4
71
3
72
19
73
15
40
0
40
0
40
0
40
0
40
0.143611840137525
40
0.276354762153465
40
0.375661707074181
40
0.441267488230077
40
0.494236840167135
40
0.546731966457837
40
0.598731059122515
40
0.650751927307344
40
0.725990590277809
40
0.837153273723296
40
0.9840262565206
40
1
40
1
40
1
40
1
41
1
10
24.7390546624433
20
1.69374633475317
30
0
41
1
10
24.5586082798446
20
1.69401907423
30
0
41
1
10
24.2113274910716
20
1.69430742821635
30
0
41
1
10
23.739065979697
20
1.69311635238574
30
0
41
1
10
23.3648885740081
20
1.69309691945873
30
0
41
1
10
23.0910498406115
20
1.69258835656672
30
0
41
1
10
22.8761289241699
20
1.69344460981864
30
0
41
1
10
22.678254338062
20
1.69349904700465
30
0
41
1
10
22.4815550247338
20
1.69224791546094
30
0
41
1
10
22.2562117720206
20
1.69237402156145
30
0
41
1
10
21.9566482934196
20
1.69299387085593
30
0
41
1
10
21.537888280523
20
1.69121012657334
30
0
41
1
10
21.1933202537038
20
1.69167215310753
30
0
41
1
10
20.9886689529666
20
1.69170407847088
30
0
41
1
10
20.9685957534559
20
1.69170512652195
30
0
0
SPLINE
5
F3
100
AcDbEntity
8
1
62
256
6
ByLayer
370
18
48
1
60
0
100
AcDbSpline
70
4
71
1
72
4
73
2
40
0
40
0
40
1
40
1
41
1
10
29.5426207314367
20
-0.793279819683903
30
0
41
1
10
29.5544645927404
20
-0.79566067388447
30
0
0
SPLINE
5
F4
100
AcDbEntity
8
1
62
256
6
ByLayer
370
18
48
1
60
0
100
AcDbSpline
70
4
71
3
72
15
73
11
40
0
40
0
40
0
40
0
40
0.180901792974388
40
0.351644946066721
40
0.477261248431342
40
0.556778707616249
40
0.619220396471853
40
0.723401456056066
40
0.872147469464753
40
1
40
1
40
1
40
1
41
1
10
6.73989756866177
20
1.68317061128596
30
0
41
1
10
6.58978542574829
20
1.68304611093828
30
0
41
1
10
6.29799157123236
20
1.68279383217288
30
0
41
1
10
5.90194252114512
20
1.68309629534994
30
0
41
1
10
5.59005646707857
20
1.68239796780014
30
0
41
1
10
5.36805365991145
20
1.68202794913031
30
0
41
1
10
5.16392401663228
20
1.68208574713162
30
0
41
1
10
4.90224038370044
20
1.68214003138334
30
0
41
1
10
4.58622314195918
20
1.68223361421892
30
0
41
1
10
4.35675969523379
20
1.68170117096787
30
0
41
1
10
4.25070380308807
20
1.68137330052107
30
0
0
LINE
5
7B
100
AcDbEntity
8
SK1
62
256
6
ByLayer
370
18
48
1
60
0
100
AcDbLine
10
0
20
-3
30
0
11
0
21
3
31
0
39
0
210
0
220
0
230
1
0
LINE
5
7D
100
AcDbEntity
8
SK1
62
256
6
ByLayer
370
18
48
1
60
0
100
AcDbLine
10
-36
20
0.77317
30
0
11
-36
21
0.726721
31
0
39
0
210
0
220
0
230
1
0
LINE
5
7E
100
AcDbEntity
8
SK1
62
256
6
ByLayer
370
18
48
1
60
0
100
AcDbLine
10
-36
20
-0.726721
30
0
11
-36
21
-2.065
31
0
39
0
210
0
220
0
230
1
0
LINE
5
7F
100
AcDbEntity
8
SK1
62
256
6
ByLayer
370
18
48
1
60
0
100
AcDbLine
10
-36
20
2.065
30
0
11
-36
21
0.77317
31
0
39
0
210
0
220
0
230
1
0
LINE
5
80
100
AcDbEntity
8
SK1
62
256
6
ByLayer
370
13
48
1
60
0
100
AcDbLine
10
-35.75
20
0.776383
30
0
11
-35.75
21
0.723508
31
0
39
0
210
0
220
0
230
1
0
LINE
5
81
100
AcDbEntity
8
SK1
62
256
6
ByLayer
370
18
48
1
60
0
100
AcDbLine
10
-35.065
20
3
30
0
11
-35.065
21
-3
31
0
39
0
210
0
220
0
230
1
0
LINE
5
82
100
AcDbEntity
8
SK1
62
256
6
ByLayer
370
18
48
1
60
0
100
AcDbLine
10
-35.65
20
-0.621877
30
0
11
-35.65
21
0.678029
31
0
39
0
210
0
220
0
230
1
0
LINE
5
83
100
AcDbEntity
8
1
62
256
6
ByLayer
370
13
48
1
60
0
100
AcDbLine
10
29.283187
20
0.423245
30
0
11
29.979066
21
-0.017264
31
0
39
0
210
0
220
0
230
1
0
LINE
5
84
100
AcDbEntity
8
1
62
256
6
ByLayer
370
13
48
1
60
0
100
AcDbLine
10
29.373666
20
0.485582
30
0
11
29.98998
21
0.095441
31
0
39
0
210
0
220
0
230
1
0
LINE
5
85
100
AcDbEntity
8
1
62
256
6
ByLayer
370
18
48
1
60
0
100
AcDbLine
10
0
20
-3
30
0
11
0
21
3
31
0
39
0
210
0
220
0
230
1
0
LINE
5
86
100
AcDbEntity
8
1
62
256
6
ByLayer
370
13
48
1
60
0
100
AcDbLine
10
1.557476
20
1.768546
30
0
11
1.557476
21
-1.768546
31
0
39
0
210
0
220
0
230
1
0
LINE
5
87
100
AcDbEntity
8
1
62
256
6
ByLayer
370
13
48
1
60
0
100
AcDbLine
10
0.778488
20
2.384273
30
0
11
0.778488
21
-2.384273
31
0
39
0
210
0
220
0
230
1
0
LINE
5
88
100
AcDbEntity
8
1
62
256
6
ByLayer
370
13
48
1
60
0
100
AcDbLine
10
4.111699
20
1.384827
30
0
11
4.116899
21
1.389062
31
0
39
0
210
0
220
0
230
1
0
LINE
5
89
100
AcDbEntity
8
80
62
256
6
ByLayer
370
18
48
1
60
0
100
AcDbLine
10
0
20
0
30
0
11
-5
21
0
31
0
39
0
210
0
220
0
230
1
0
LINE
5
8A
100
AcDbEntity
8
4
62
256
6
ByLayer
370
18
48
0.05
60
0
100
AcDbLine
10
30
20
0
30
0
11
0
21
0
31
0
39
0
210
0
220
0
230
1
0
LINE
5
8C
100
AcDbEntity
8
SK4
62
256
6
ByLayer
370
18
48
0.05
60
0
100
AcDbLine
10
35
20
0
30
0
11
-41
21
0
31
0
39
0
210
0
220
0
230
1
0
LINE
5
8E
100
AcDbEntity
8
SK1
62
256
6
ByLayer
370
18
48
1
60
0
100
AcDbLine
10
-36
20
-2.065
30
0
11
-35.065
21
-3
31
0
39
0
210
0
220
0
230
1
0
LINE
5
8F
100
AcDbEntity
8
SK1
62
256
6
ByLayer
370
18
48
1
60
0
100
AcDbLine
10
-35.065
20
3
30
0
11
-36
21
2.065
31
0
39
0
210
0
220
0
230
1
0
LINE
5
90
100
AcDbEntity
8
SK1
62
256
6
ByLayer
370
18
48
1
60
0
100
AcDbLine
10
-35.065
20
-3
30
0
11
0
21
-3
31
0
39
0
210
0
220
0
230
1
0
LINE
5
91
100
AcDbEntity
8
SK1
62
256
6
ByLayer
370
18
48
1
60
0
100
AcDbLine
10
0
20
3
30
0
11
-35.065
21
3
31
0
39
0
210
0
220
0
230
1
0
LINE
5
92
100
AcDbEntity
8
1
62
256
6
ByLayer
370
18
48
1
60
0
100
AcDbLine
10
1.557476
20
-1.768546
30
0
11
4.059074
21
-1.770109
31
0
39
0
210
0
220
0
230
1
0
LINE
5
93
100
AcDbEntity
8
1
62
256
6
ByLayer
370
18
48
1
60
0
100
AcDbLine
10
10.705217
20
-1.774263
30
0
11
11.177933
21
-1.774559
31
0
39
0
210
0
220
0
230
1
0
LINE
5
94
100
AcDbEntity
8
1
62
256
6
ByLayer
370
18
48
1
60
0
100
AcDbLine
10
19.704395
20
-1.779888
30
0
11
20.176814
21
-1.780183
31
0
39
0
210
0
220
0
230
1
0
LINE
5
95
100
AcDbEntity
8
1
62
256
6
ByLayer
370
18
48
1
60
0
100
AcDbLine
10
28.704058
20
-1.785512
30
0
11
29.177851
21
-1.785809
31
0
39
0
210
0
220
0
230
1
0
LINE
5
96
100
AcDbEntity
8
1
62
256
6
ByLayer
370
18
48
1
60
0
100
AcDbLine
10
29.177907
20
1.785809
30
0
11
28.704058
21
1.785512
31
0
39
0
210
0
220
0
230
1
0
LINE
5
97
100
AcDbEntity
8
1
62
256
6
ByLayer
370
18
48
1
60
0
100
AcDbLine
10
20.177908
20
1.780184
30
0
11
19.704395
21
1.779888
31
0
39
0
210
0
220
0
230
1
0
LINE
5
98
100
AcDbEntity
8
1
62
256
6
ByLayer
370
18
48
1
60
0
100
AcDbLine
10
11.177821
20
1.774559
30
0
11
10.705217
21
1.774263
31
0
39
0
210
0
220
0
230
1
0
LINE
5
99
100
AcDbEntity
8
1
62
256
6
ByLayer
370
18
48
1
60
0
100
AcDbLine
10
4.059074
20
1.770109
30
0
11
1.557476
21
1.768546
31
0
39
0
210
0
220
0
230
1
0
LINE
5
9A
100
AcDbEntity
8
81
62
256
6
ByLayer
370
18
48
1
60
0
100
AcDbLine
10
30
20
0
30
0
11
35
21
0
31
0
39
0
210
0
220
0
230
1
0
LINE
5
9B
100
AcDbEntity
8
SK2
62
256
6
ByLayer
370
13
48
1
60
0
100
AcDbLine
10
-44.625163
20
32.117107
30
0
11
-44.625163
21
-11.75
31
0
39
0
210
0
220
0
230
1
0
LINE
5
9D
100
AcDbEntity
8
SK2
62
256
6
ByLayer
370
13
48
1
60
0
100
AcDbLine
10
-37.5875
20
3
30
0
11
-46.625163
21
3
31
0
39
0
210
0
220
0
230
1
0
LINE
5
9E
100
AcDbEntity
8
SK2
62
256
6
ByLayer
370
13
48
1
60
0
100
AcDbLine
10
-37.5875
20
-3
30
0
11
-46.625163
21
-3
31
0
39
0
210
0
220
0
230
1
0
LINE
5
9F
100
AcDbEntity
8
1
62
256
6
ByLayer
370
18
48
1
60
1
100
AcDbLine
10
-44.625163
20
3
30
0
11
-45.085946
21
6.499998
31
0
39
0
210
0
220
0
230
1
0
LINE
5
A0
100
AcDbEntity
8
1
62
256
6
ByLayer
370
18
48
1
60
1
100
AcDbLine
10
-45.085946
20
6.499998
30
0
11
-44.164379
21
6.500002
31
0
39
0
210
0
220
0
230
1
0
LINE
5
A1
100
AcDbEntity
8
1
62
256
6
ByLayer
370
18
48
1
60
1
100
AcDbLine
10
-44.164379
20
6.500002
30
0
11
-44.625163
21
3
31
0
39
0
210
0
220
0
230
1
0
LINE
5
A2
100
AcDbEntity
8
1
62
256
6
ByLayer
370
18
48
1
60
1
100
AcDbLine
10
-44.625163
20
-3
30
0
11
-44.164379
21
-6.499998
31
0
39
0
210
0
220
0
230
1
0
LINE
5
A3
100
AcDbEntity
8
1
62
256
6
ByLayer
370
18
48
1
60
1
100
AcDbLine
10
-44.164379
20
-6.499998
30
0
11
-45.085946
21
-6.500002
31
0
39
0
210
0
220
0
230
1
0
LINE
5
A4
100
AcDbEntity
8
1
62
256
6
ByLayer
370
18
48
1
60
1
100
AcDbLine
10
-45.085946
20
-6.500002
30
0
11
-44.625163
21
-3
31
0
39
0
210
0
220
0
230
1
0
LINE
5
A5
100
AcDbEntity
8
2
62
256
6
ByLayer
370
13
48
1
60
0
100
AcDbLine
10
42.083343
20
29.496193
30
0
11
42.083343
21
-10.536
31
0
39
0
210
0
220
0
230
1
0
LINE
5
A7
100
AcDbEntity
8
2
62
256
6
ByLayer
370
13
48
1
60
0
100
AcDbLine
10
31.0722
20
1.786
30
0
11
44.083343
21
1.786
31
0
39
0
210
0
220
0
230
1
0
LINE
5
A8
100
AcDbEntity
8
2
62
256
6
ByLayer
370
13
48
1
60
0
100
AcDbLine
10
31.0722
20
-1.786
30
0
11
44.083343
21
-1.786
31
0
39
0
210
0
220
0
230
1
0
LINE
5
A9
100
AcDbEntity
8
1
62
256
6
ByLayer
370
18
48
1
60
1
100
AcDbLine
10
42.083343
20
1.786
30
0
11
41.622559
21
5.285998
31
0
39
0
210
0
220
0
230
1
0
LINE
5
AA
100
AcDbEntity
8
1
62
256
6
ByLayer
370
18
48
1
60
1
100
AcDbLine
10
41.622559
20
5.285998
30
0
11
42.544126
21
5.286002
31
0
39
0
210
0
220
0
230
1
0
LINE
5
AB
100
AcDbEntity
8
1
62
256
6
ByLayer
370
18
48
1
60
1
100
AcDbLine
10
42.544126
20
5.286002
30
0
11
42.083343
21
1.786
31
0
39
0
210
0
220
0
230
1
0
LINE
5
AC
100
AcDbEntity
8
1
62
256
6
ByLayer
370
18
48
1
60
1
100
AcDbLine
10
42.083343
20
-1.786
30
0
11
42.544126
21
-5.285998
31
0
39
0
210
0
220
0
230
1
0
LINE
5
AD
100
AcDbEntity
8
1
62
256
6
ByLayer
370
18
48
1
60
1
100
AcDbLine
10
42.544126
20
-5.285998
30
0
11
41.622559
21
-5.286002
31
0
39
0
210
0
220
0
230
1
0
LINE
5
AE
100
AcDbEntity
8
1
62
256
6
ByLayer
370
18
48
1
60
1
100
AcDbLine
10
41.622559
20
-5.286002
30
0
11
42.083343
21
-1.786
31
0
39
0
210
0
220
0
230
1
0
LINE
5
FB
100
AcDbEntity
8
1
62
256
6
ByLayer
370
18
48
1
60
1
100
AcDbLine
10
-44.625163
20
3
30
0
11
-45.085946
21
6.499998
31
0
39
0
210
0
220
0
230
1
0
LINE
5
FC
100
AcDbEntity
8
1
62
256
6
ByLayer
370
18
48
1
60
1
100
AcDbLine
10
-45.085946
20
6.499998
30
0
11
-44.164379
21
6.500002
31
0
39
0
210
0
220
0
230
1
0
LINE
5
FD
100
AcDbEntity
8
1
62
256
6
ByLayer
370
18
48
1
60
1
100
AcDbLine
10
-44.164379
20
6.500002
30
0
11
-44.625163
21
3
31
0
39
0
210
0
220
0
230
1
0
LINE
5
FF
100
AcDbEntity
8
1
62
256
6
ByLayer
370
18
48
1
60
1
100
AcDbLine
10
-44.625163
20
-3
30
0
11
-44.164379
21
-6.499998
31
0
39
0
210
0
220
0
230
1
0
LINE
5
100
100
AcDbEntity
8
1
62
256
6
ByLayer
370
18
48
1
60
1
100
AcDbLine
10
-44.164379
20
-6.499998
30
0
11
-45.085946
21
-6.500002
31
0
39
0
210
0
220
0
230
1
0
LINE
5
101
100
AcDbEntity
8
1
62
256
6
ByLayer
370
18
48
1
60
1
100
AcDbLine
10
-45.085946
20
-6.500002
30
0
11
-44.625163
21
-3
31
0
39
0
210
0
220
0
230
1
0
LINE
5
105
100
AcDbEntity
8
1
62
256
6
ByLayer
370
18
48
1
60
1
100
AcDbLine
10
42.083343
20
1.786
30
0
11
41.622559
21
5.285998
31
0
39
0
210
0
220
0
230
1
0
LINE
5
106
100
AcDbEntity
8
1
62
256
6
ByLayer
370
18
48
1
60
1
100
AcDbLine
10
41.622559
20
5.285998
30
0
11
42.544126
21
5.286002
31
0
39
0
210
0
220
0
230
1
0
LINE
5
107
100
AcDbEntity
8
1
62
256
6
ByLayer
370
18
48
1
60
1
100
AcDbLine
10
42.544126
20
5.286002
30
0
11
42.083343
21
1.786
31
0
39
0
210
0
220
0
230
1
0
LINE
5
109
100
AcDbEntity
8
1
62
256
6
ByLayer
370
18
48
1
60
1
100
AcDbLine
10
42.083343
20
-1.786
30
0
11
42.544126
21
-5.285998
31
0
39
0
210
0
220
0
230
1
0
LINE
5
10A
100
AcDbEntity
8
1
62
256
6
ByLayer
370
18
48
1
60
1
100
AcDbLine
10
42.544126
20
-5.285998
30
0
11
41.622559
21
-5.286002
31
0
39
0
210
0
220
0
230
1
0
LINE
5
10B
100
AcDbEntity
8
1
62
256
6
ByLayer
370
18
48
1
60
1
100
AcDbLine
10
41.622559
20
-5.286002
30
0
11
42.083343
21
-1.786
31
0
39
0
210
0
220
0
230
1
0
MTEXT
5
F5
100
AcDbEntity
8
SK6
62
256
6
ByLayer
370
13
48
1
60
0
100
AcDbMText
10
-31.70776
20
34.326328
30
0
210
0
220
0
230
1
1
\W0.7563;462.1-0357-018A1-XM X2BM
40
3.5
41
0
44
1.084337
50
0
71
7
72
5
7
iso_b_vert
0
MTEXT
5
F9
100
AcDbEntity
8
SK2
62
256
6
ByLayer
370
18
48
1
60
0
100
AcDbMText
10
-46.189796
20
16.409024
30
0
210
0
220
0
230
1
1
%%c
40
3.5
41
0
44
1.084337
50
90
71
7
72
5
7
iso_b_vert
0
MTEXT
5
FA
100
AcDbEntity
8
SK2
62
256
6
ByLayer
370
18
48
1
60
0
100
AcDbMText
10
-46.189796
20
21.63168
30
0
210
0
220
0
230
1
1
\W0.7317;6,000
40
3.5
41
0
44
1.084337
50
90
71
7
72
5
7
iso_b_vert
0
MTEXT
5
103
100
AcDbEntity
8
2
62
256
6
ByLayer
370
18
48
1
60
0
100
AcDbMText
10
40.518709
20
13.78811
30
0
210
0
220
0
230
1
1
%%c
40
3.5
41
0
44
1.084337
50
90
71
7
72
5
7
iso_b_vert
0
MTEXT
5
104
100
AcDbEntity
8
2
62
256
6
ByLayer
370
18
48
1
60
0
100
AcDbMText
10
40.518709
20
19.010766
30
0
210
0
220
0
230
1
1
\W0.7317;3,572
40
3.5
41
0
44
1.084337
50
90
71
7
72
5
7
iso_b_vert
0
HATCH
5
FE
100
AcDbEntity
8
SK2
62
256
6
ByLayer
370
13
48
1
60
0
100
AcDbHatch
10
0
20
0
30
0
210
0
220
0
230
1
2
ANSI31
70
0
71
0
91
1
92
5
93
3
72
1
10
-44.6251625675374
20
3
11
-45.0859463090902
21
6.49999830744682
72
1
10
-45.0859463090902
20
6.49999830744682
11
-44.1643788259847
21
6.50000169255318
72
1
10
-44.1643788259847
20
6.50000169255318
11
-44.6251625675374
21
3
97
0
75
0
76
1
52
0
41
0.0062
77
0
78
1
53
45
43
0
44
0
45
-0.0139193969876572
46
0.0139193969876572
79
0
47
0
98
1
10
0
20
0
0
HATCH
5
102
100
AcDbEntity
8
SK2
62
256
6
ByLayer
370
13
48
1
60
0
100
AcDbHatch
10
0
20
0
30
0
210
0
220
0
230
1
2
ANSI31
70
0
71
0
91
1
92
5
93
3
72
1
10
-44.6251625675374
20
-3
11
-44.1643788259847
21
-6.49999830744682
72
1
10
-44.1643788259847
20
-6.49999830744682
11
-45.0859463090902
21
-6.50000169255318
72
1
10
-45.0859463090902
20
-6.50000169255318
11
-44.6251625675374
21
-3
97
0
75
0
76
1
52
0
41
0.0062
77
0
78
1
53
45
43
0
44
0
45
-0.0139193969876572
46
0.0139193969876572
79
0
47
0
98
1
10
0
20
0
0
HATCH
5
108
100
AcDbEntity
8
2
62
256
6
ByLayer
370
13
48
1
60
0
100
AcDbHatch
10
0
20
0
30
0
210
0
220
0
230
1
2
ANSI31
70
0
71
0
91
1
92
5
93
3
72
1
10
42.083342615295
20
1.786
11
41.6225588737423
21
5.28599830744682
72
1
10
41.6225588737423
20
5.28599830744682
11
42.5441263568478
21
5.28600169255319
72
1
10
42.5441263568478
20
5.28600169255319
11
42.083342615295
21
1.786
97
0
75
0
76
1
52
0
41
0.0062
77
0
78
1
53
45
43
0
44
0
45
-0.0139193969876572
46
0.0139193969876572
79
0
47
0
98
1
10
0
20
0
0
HATCH
5
10C
100
AcDbEntity
8
2
62
256
6
ByLayer
370
13
48
1
60
0
100
AcDbHatch
10
0
20
0
30
0
210
0
220
0
230
1
2
ANSI31
70
0
71
0
91
1
92
5
93
3
72
1
10
42.083342615295
20
-1.786
11
42.5441263568478
21
-5.28599830744682
72
1
10
42.5441263568478
20
-5.28599830744682
11
41.6225588737423
21
-5.28600169255319
72
1
10
41.6225588737423
20
-5.28600169255319
11
42.083342615295
21
-1.786
97
0
75
0
76
1
52
0
41
0.0062
77
0
78
1
53
45
43
0
44
0
45
-0.0139193969876572
46
0.0139193969876572
79
0
47
0
98
1
10
0
20
0
0
DIMENSION
5
10E
100
AcDbEntity
8
SK2
62
256
6
ByLayer
370
13
48
1
60
0
100
AcDbDimension
2
_U0
10
29.4847
20
-11.999398
30
0
11
14.74235
21
-11.999398
31
0
70
32
71
1
72
1
41
1
210
0
220
0
230
1
3
Standard
100
AcDbAlignedDimension
13
0
23
0
33
0
14
29.4847
24
-1.786
34
0
50
0
100
AcDbRotatedDimension
1001
ACAD
1000
DSTYLE
1002
{
1070
   371
1070
    13
1070
   372
1070
    13
1070
   170
1070
     0
1070
   144
1040
1.0
1070
   277
1070
     2
1070
   278
1070
    44
1070
   146
1040
1.0
1070
   345
1005
16
1070
   347
1005
16
1070
   346
1005
16
1070
   344
1005
0
1070
   343
1005
0
1070
   172
1070
     1
1070
    76
1070
     0
1070
    75
1070
     0
1070
   282
1070
     0
1070
   281
1070
     0
1070
    71
1070
     0
1070
    74
1070
     0
1070
   279
1070
     0
1070
   173
1070
     1
1070
   340
1005
F6
1070
   271
1070
     2
1070
   272
1070
     2
1070
    77
1070
     1
1070
    73
1070
     1
1070
   171
1070
     3
1070
   274
1070
     4
1070
   177
1070
    35
1070
   176
1070
    35
1070
   178
1070
    35
1070
    48
1040
-0.1
1070
    41
1040
3.5
1070
   147
1040
1.75
1070
    42
1040
1.5875
1070
    44
1040
2.0
1070
   140
1040
3.5
1002
}
1001
ACAD_DSTYLE_DIM_LINETYPE
1070
   380
1005
16
1001
ACAD_DSTYLE_DIM_EXT1_LINETYPE
1070
   381
1005
16
1001
ACAD_DSTYLE_DIM_EXT2_LINETYPE
1070
   382
1005
16
0
DIMENSION
5
127
100
AcDbEntity
8
SK2
62
256
6
ByLayer
370
13
48
1
60
0
100
AcDbDimension
2
_U1
10
30
20
-31.692985
30
0
11
-3
21
-31.692985
31
0
70
32
71
1
72
1
41
1
210
0
220
0
230
1
3
Standard
100
AcDbAlignedDimension
13
-36
23
-3
33
0
14
30
24
0
34
0
50
0
100
AcDbRotatedDimension
1001
ACAD
1000
DSTYLE
1002
{
1070
   371
1070
    13
1070
   372
1070
    13
1070
   170
1070
     0
1070
   144
1040
1.0
1070
   277
1070
     2
1070
   278
1070
    44
1070
   146
1040
1.0
1070
   345
1005
16
1070
   347
1005
16
1070
   346
1005
16
1070
   344
1005
0
1070
   343
1005
0
1070
   172
1070
     1
1070
    76
1070
     0
1070
    75
1070
     0
1070
   282
1070
     0
1070
   281
1070
     0
1070
    71
1070
     0
1070
    74
1070
     0
1070
   279
1070
     0
1070
   173
1070
     1
1070
   340
1005
F6
1070
   271
1070
     2
1070
   272
1070
     2
1070
    77
1070
     1
1070
    73
1070
     1
1070
   171
1070
     3
1070
   274
1070
     4
1070
   177
1070
    35
1070
   176
1070
    35
1070
   178
1070
    35
1070
    48
1040
-0.1
1070
    41
1040
3.5
1070
   147
1040
1.75
1070
    42
1040
1.5875
1070
    44
1040
2.0
1070
   140
1040
3.5
1002
}
1001
ACAD_DSTYLE_DIM_LINETYPE
1070
   380
1005
16
1001
ACAD_DSTYLE_DIM_EXT1_LINETYPE
1070
   381
1005
16
1001
ACAD_DSTYLE_DIM_EXT2_LINETYPE
1070
   382
1005
16
0
DIMENSION
5
13F
100
AcDbEntity
8
SK2
62
256
6
ByLayer
370
13
48
1
60
0
100
AcDbDimension
2
_U2
10
30
20
13.395119
30
0
11
20.81
21
13.395119
31
0
70
32
71
1
72
1
41
1
210
0
220
0
230
1
3
Standard
100
AcDbAlignedDimension
13
11.62
23
1.786
33
0
14
30
24
0
34
0
50
0
100
AcDbRotatedDimension
1001
ACAD
1000
DSTYLE
1002
{
1070
   371
1070
    13
1070
   372
1070
    13
1070
   170
1070
     0
1070
   144
1040
1.0
1070
   277
1070
     2
1070
   278
1070
    44
1070
   146
1040
1.0
1070
   345
1005
16
1070
   347
1005
16
1070
   346
1005
16
1070
   344
1005
0
1070
   343
1005
0
1070
   172
1070
     1
1070
    76
1070
     0
1070
    75
1070
     0
1070
   282
1070
     0
1070
   281
1070
     0
1070
    71
1070
     0
1070
    74
1070
     0
1070
   279
1070
     0
1070
   173
1070
     1
1070
   340
1005
F6
1070
   271
1070
     2
1070
   272
1070
     2
1070
    77
1070
     1
1070
    73
1070
     1
1070
   171
1070
     3
1070
   274
1070
     4
1070
   177
1070
    35
1070
   176
1070
    35
1070
   178
1070
    35
1070
    48
1040
-0.1
1070
    41
1040
3.5
1070
   147
1040
1.75
1070
    42
1040
1.5875
1070
    44
1040
2.0
1070
   140
1040
3.5
1002
}
1001
ACAD_DSTYLE_DIM_LINETYPE
1070
   380
1005
16
1001
ACAD_DSTYLE_DIM_EXT1_LINETYPE
1070
   381
1005
16
1001
ACAD_DSTYLE_DIM_EXT2_LINETYPE
1070
   382
1005
16
0
DIMENSION
5
157
100
AcDbEntity
8
SK2
62
256
6
ByLayer
370
13
48
1
60
0
100
AcDbDimension
2
_U3
10
29.4847
20
-14.588503
30
0
11
47.583333
21
-14.588503
31
0
70
32
71
1
72
1
41
1
210
0
220
0
230
1
3
Standard
100
AcDbAlignedDimension
13
30
23
0
33
0
14
29.4847
24
-1.786
34
0
50
0
100
AcDbRotatedDimension
1001
ACAD
1000
DSTYLE
1002
{
1070
   371
1070
    13
1070
   372
1070
    13
1070
   170
1070
     0
1070
   144
1040
1.0
1070
   277
1070
     2
1070
   278
1070
    44
1070
   146
1040
1.0
1070
   345
1005
16
1070
   347
1005
16
1070
   346
1005
16
1070
   344
1005
0
1070
   343
1005
0
1070
   172
1070
     1
1070
    76
1070
     0
1070
    75
1070
     0
1070
   282
1070
     0
1070
   281
1070
     0
1070
    71
1070
     0
1070
    74
1070
     0
1070
   279
1070
     0
1070
   173
1070
     1
1070
   340
1005
F6
1070
   271
1070
     2
1070
   272
1070
     2
1070
    77
1070
     1
1070
    73
1070
     1
1070
   171
1070
     3
1070
   274
1070
     4
1070
   177
1070
    35
1070
   176
1070
    35
1070
   178
1070
    35
1070
    48
1040
-0.1
1070
    41
1040
3.5
1070
   147
1040
1.75
1070
    42
1040
1.5875
1070
    44
1040
2.0
1070
   140
1040
3.5
1002
}
1001
ACAD_DSTYLE_DIM_LINETYPE
1070
   380
1005
16
1001
ACAD_DSTYLE_DIM_EXT1_LINETYPE
1070
   381
1005
16
1001
ACAD_DSTYLE_DIM_EXT2_LINETYPE
1070
   382
1005
16
0
DIMENSION
5
171
100
AcDbEntity
8
SK2
62
256
6
ByLayer
370
13
48
1
60
0
100
AcDbDimension
2
_U4
10
29.4847
20
-21.343428
30
0
11
-3.25765
21
-21.343428
31
0
70
32
71
1
72
1
41
1
210
0
220
0
230
1
3
Standard
100
AcDbAlignedDimension
13
-36
23
-3
33
0
14
29.4847
24
-1.786
34
0
50
0
100
AcDbRotatedDimension
1001
ACAD
1000
DSTYLE
1002
{
1070
   371
1070
    13
1070
   372
1070
    13
1070
   170
1070
     0
1070
   144
1040
1.0
1070
   277
1070
     2
1070
   278
1070
    44
1070
   146
1040
1.0
1070
   345
1005
16
1070
   347
1005
16
1070
   346
1005
16
1070
   344
1005
0
1070
   343
1005
0
1070
   172
1070
     1
1070
    76
1070
     0
1070
    75
1070
     0
1070
   282
1070
     0
1070
   281
1070
     0
1070
    71
1070
     0
1070
    74
1070
     0
1070
   279
1070
     0
1070
   173
1070
     1
1070
   340
1005
F6
1070
   271
1070
     2
1070
   272
1070
     2
1070
    77
1070
     1
1070
    73
1070
     1
1070
   171
1070
     3
1070
   274
1070
     4
1070
   177
1070
    35
1070
   176
1070
    35
1070
   178
1070
    35
1070
    48
1040
-0.1
1070
    41
1040
3.5
1070
   147
1040
1.75
1070
    42
1040
1.5875
1070
    44
1040
2.0
1070
   140
1040
3.5
1002
}
1001
ACAD_DSTYLE_DIM_LINETYPE
1070
   380
1005
16
1001
ACAD_DSTYLE_DIM_EXT1_LINETYPE
1070
   381
1005
16
1001
ACAD_DSTYLE_DIM_EXT2_LINETYPE
1070
   382
1005
16
0
ENDSEC
0
SECTION
2
OBJECTS
0
DICTIONARY
5
1f9
330
0
100
AcDbDictionary
280
0
281
1
3
ACAD_GROUP
350
1fa
3
ACAD_MLINESTYLE
350
1fb
0
DICTIONARY
5
1fa
330
0
100
AcDbDictionary
280
0
281
1
0
DICTIONARY
5
1fb
330
0
100
AcDbDictionary
280
0
281
1
3
Standard
350
18
0
MLINESTYLE
5
18
330
1fb
100
AcDbMlineStyle
2
Standard
70
0
3

62
256
51
90
52
90
71
2
49
-0.5
62
256
6
ByLayer
49
0.5
62
256
6
ByLayer
0
RASTERVARIABLES
5
1e7
330

100
AcDbRasterVariables
90
0
70
1
71
1
72
1
0
ENDSEC
0
EOF
