0
SECTION
2
HEADER
9
$ACADVER
1
AC1015
9
$DWGCODEPAGE
3
ANSI_1252
9
$HANDSEED
5
1f3
9
$ANGBASE
50
0
9
$ANGDIR
70
0
9
$ATTMODE
70
1
9
$AUNITS
70
0
9
$AUPREC
70
0
9
$CECOLOR
62
256
9
$CELTSCALE
40
1
9
$CELTYPE
6
ByLayer
9
$CELWEIGHT
370
18
9
$CLAYER
8
0
9
$CMLJUST
70
0
9
$CMLSCALE
40
1
9
$CMLSTYLE
2
Standard
9
$DIMSTYLE
2
Standard
9
$TEXTSIZE
40
0.2
9
$TEXTSTYLE
7
Standard
9
$LUNITS
70
2
9
$LUPREC
70
4
9
$EXTNAMES
290
1
9
$INSUNITS
70
4
9
$LTSCALE
40
1
9
$LWDISPLAY
290
1
9
$PDMODE
70
0
9
$PDSIZE
40
0
9
$PLINEGEN
70
0
0
ENDSEC
0
SECTION
2
CLASSES
0
CLASS
1
RASTERVARIABLES
2
AcDbRasterVariables
3
ISM
90
0
280
0
281
0
0
ENDSEC
0
SECTION
2
TABLES
0
TABLE
2
VPORT
5
1e9
100
AcDbSymbolTable
0
VPORT
5
1
100
AcDbSymbolTableRecord
100
AcDbViewportTableRecord
2
*Active
70
0
10
0
20
0
11
1
21
1
12
-1
22
1
13
0
23
0
14
0.5
24
0.5
15
10
25
10
16
0
26
0
36
1
17
0
27
0
37
0
0
ENDTAB
0
TABLE
2
LTYPE
5
1ea
100
AcDbSymbolTable
0
LTYPE
5
14
100
AcDbSymbolTableRecord
100
AcDbLinetypeTableRecord
70
0
2
ByBlock
3

72
65
73
0
40
0
0
LTYPE
5
15
100
AcDbSymbolTableRecord
100
AcDbLinetypeTableRecord
70
0
2
ByLayer
3

72
65
73
0
40
0
0
LTYPE
5
16
100
AcDbSymbolTableRecord
100
AcDbLinetypeTableRecord
70
0
2
Continuous
3
Solid line
72
65
73
0
40
0
0
LTYPE
5
6E
100
AcDbSymbolTableRecord
100
AcDbLinetypeTableRecord
70
0
2
CENTER
3
____ _ ____ _ ____ _ ____
72
65
73
4
40
47.5
49
22
74
0
49
-8.5
74
0
49
8.5
74
0
49
-8.5
74
0
0
LTYPE
5
6F
100
AcDbSymbolTableRecord
100
AcDbLinetypeTableRecord
70
0
2
DASHED
3
__ __ __ __ __ __ __ __ __
72
65
73
2
40
25.72
49
12.86
74
0
49
-12.86
74
0
0
ENDTAB
0
TABLE
2
LAYER
5
1eb
100
AcDbSymbolTable
0
LAYER
5
10
100
AcDbSymbolTableRecord
100
AcDbLayerTableRecord
2
0
70
0
62
7
6
Continuous
290
1
370
-3
390
0
0
LAYER
5
71
100
AcDbSymbolTableRecord
100
AcDbLayerTableRecord
2
80
70
0
62
-6
6
Continuous
290
1
370
-3
390
0
0
LAYER
5
73
100
AcDbSymbolTableRecord
100
AcDbLayerTableRecord
2
81
70
0
62
-3
6
Continuous
290
1
370
-3
390
0
0
LAYER
5
75
100
AcDbSymbolTableRecord
100
AcDbLayerTableRecord
2
1
70
0
62
4
6
Continuous
290
1
370
-3
390
0
0
LAYER
5
86
100
AcDbSymbolTableRecord
100
AcDbLayerTableRecord
2
4
70
0
62
-2
6
CENTER
290
1
370
-3
390
0
0
LAYER
5
A1
100
AcDbSymbolTableRecord
100
AcDbLayerTableRecord
2
2
70
0
62
7
6
Continuous
290
1
370
-3
390
0
0
LAYER
5
FE
100
AcDbSymbolTableRecord
100
AcDbLayerTableRecord
2
Defpoints
70
0
62
7
6
Continuous
290
0
370
-3
390
0
0
LAYER
5
1d5
100
AcDbSymbolTableRecord
100
AcDbLayerTableRecord
2
SK1
70
0
62
4
6
Continuous
290
1
370
-3
390
0
0
LAYER
5
1d6
100
AcDbSymbolTableRecord
100
AcDbLayerTableRecord
2
SK4
70
0
62
2
6
CENTER
290
1
370
-3
390
0
0
LAYER
5
1d7
100
AcDbSymbolTableRecord
100
AcDbLayerTableRecord
2
SK2
70
0
62
7
6
Continuous
290
1
370
-3
390
0
0
LAYER
5
1d8
100
AcDbSymbolTableRecord
100
AcDbLayerTableRecord
2
SK6
70
0
62
5
6
Continuous
290
1
370
-3
390
0
0
ENDTAB
0
TABLE
2
STYLE
5
1ec
100
AcDbSymbolTable
0
STYLE
5
11
100
AcDbSymbolTableRecord
100
AcDbTextStyleTableRecord
2
Standard
3
txt
70
0
71
0
40
0
41
1
42
0
50
0
0
STYLE
5
E3
100
AcDbSymbolTableRecord
100
AcDbTextStyleTableRecord
2
iso_b_vert
3
simplex.shx
70
0
71
0
40
0
41
1
42
0
50
0
0
STYLE
5
E4
100
AcDbSymbolTableRecord
100
AcDbTextStyleTableRecord
2
DWGDirectTextStyle
3
simplex
70
0
71
0
40
0
41
1
42
0
50
0
0
ENDTAB
0
TABLE
2
DIMSTYLE
5
1ed
100
AcDbSymbolTable
100
AcDbDimStyleTable
0
DIMSTYLE
105
27
100
AcDbSymbolTableRecord
100
AcDbDimStyleTableRecord
2
Standard
70
0
3
<>
41
0.18
42
0.0625
44
0.18
140
0.18
147
0.09
73
0
74
0
77
1
271
2
275
0
278
52
280
0
340
11
0
ENDTAB
0
TABLE
2
VIEW
5
1ee
100
AcDbSymbolTable
0
ENDTAB
0
TABLE
2
UCS
5
1ef
100
AcDbSymbolTable
0
ENDTAB
0
TABLE
2
APPID
5
1f0
100
AcDbSymbolTable
0
APPID
5
12
100
AcDbSymbolTableRecord
100
AcDbRegAppTableRecord
2
ACAD
70
0
0
APPID
5
FA
100
AcDbSymbolTableRecord
100
AcDbRegAppTableRecord
2
ACAD_DSTYLE_DIMBREAK
70
0
0
APPID
5
194
100
AcDbSymbolTableRecord
100
AcDbRegAppTableRecord
2
ACAD_DSTYLE_DIM_LINETYPE
70
0
0
APPID
5
195
100
AcDbSymbolTableRecord
100
AcDbRegAppTableRecord
2
ACAD_DSTYLE_DIM_EXT1_LINETYPE
70
0
0
APPID
5
196
100
AcDbSymbolTableRecord
100
AcDbRegAppTableRecord
2
ACAD_DSTYLE_DIM_EXT2_LINETYPE
70
0
0
APPID
5
1D1
100
AcDbSymbolTableRecord
100
AcDbRegAppTableRecord
2
ACAD_MLEADERVER
70
0
0
ENDTAB
0
TABLE
2
BLOCK_RECORD
5
1f1
100
AcDbSymbolTable
0
BLOCK_RECORD
5
1F
100
AcDbSymbolTableRecord
100
AcDbBlockTableRecord
2
*Model_Space
340
0
70
0
0
BLOCK_RECORD
5
1B
100
AcDbSymbolTableRecord
100
AcDbBlockTableRecord
2
*Paper_Space
340
0
70
0
0
BLOCK_RECORD
5
23
100
AcDbSymbolTableRecord
100
AcDbBlockTableRecord
2
*Paper_Space0
340
0
70
0
0
BLOCK_RECORD
5
FF
100
AcDbSymbolTableRecord
100
AcDbBlockTableRecord
2
*D1
340
0
70
0
0
BLOCK_RECORD
5
10B
100
AcDbSymbolTableRecord
100
AcDbBlockTableRecord
2
_U0
340
0
70
0
0
BLOCK_RECORD
5
117
100
AcDbSymbolTableRecord
100
AcDbBlockTableRecord
2
*D3
340
0
70
0
0
BLOCK_RECORD
5
123
100
AcDbSymbolTableRecord
100
AcDbBlockTableRecord
2
_U1
340
0
70
0
0
BLOCK_RECORD
5
12F
100
AcDbSymbolTableRecord
100
AcDbBlockTableRecord
2
*D5
340
0
70
0
0
BLOCK_RECORD
5
13B
100
AcDbSymbolTableRecord
100
AcDbBlockTableRecord
2
_U2
340
0
70
0
0
BLOCK_RECORD
5
147
100
AcDbSymbolTableRecord
100
AcDbBlockTableRecord
2
*D7
340
0
70
0
0
BLOCK_RECORD
5
155
100
AcDbSymbolTableRecord
100
AcDbBlockTableRecord
2
_U3
340
0
70
0
0
BLOCK_RECORD
5
161
100
AcDbSymbolTableRecord
100
AcDbBlockTableRecord
2
*D9
340
0
70
0
0
BLOCK_RECORD
5
16D
100
AcDbSymbolTableRecord
100
AcDbBlockTableRecord
2
_U4
340
0
70
0
0
ENDTAB
0
ENDSEC
0
SECTION
2
BLOCKS
0
BLOCK
5
20
100
AcDbEntity
8
0
100
AcDbBlockBegin
2
*Model_Space
70
0
10
0
20
0
30
0
3
*Model_Space
0
ENDBLK
5
21
100
AcDbEntity
8
0
100
AcDbBlockEnd
0
BLOCK
5
1C
100
AcDbEntity
8
0
100
AcDbBlockBegin
2
*Paper_Space
70
0
10
0
20
0
30
0
3
*Paper_Space
0
ENDBLK
5
1D
100
AcDbEntity
8
0
100
AcDbBlockEnd
0
BLOCK
5
24
100
AcDbEntity
8
0
100
AcDbBlockBegin
2
*Paper_Space0
70
0
10
0
20
0
30
0
3
*Paper_Space0
0
ENDBLK
5
25
100
AcDbEntity
8
0
100
AcDbBlockEnd
0
BLOCK
5
100
100
AcDbEntity
8
0
100
AcDbBlockBegin
2
*D1
70
1
10
0
20
0
30
0
3
*D1
0
LINE
5
102
100
AcDbEntity
8
0
62
256
6
ByLayer
370
-2
48
1
60
0
100
AcDbLine
10
0
20
-1.5875
30
0
11
0
21
-21.142898
31
0
39
0
210
0
220
0
230
1
0
LINE
5
103
100
AcDbEntity
8
0
62
256
6
ByLayer
370
-2
48
1
60
0
100
AcDbLine
10
72.3316
20
-10.517
30
0
11
72.3316
21
-21.142898
31
0
39
0
210
0
220
0
230
1
0
LINE
5
104
100
AcDbEntity
8
0
62
256
6
ByLayer
370
-2
48
1
60
0
100
AcDbLine
10
3.5
20
-19.142898
30
0
11
68.8316
21
-19.142898
31
0
39
0
210
0
220
0
230
1
0
SOLID
5
105
100
AcDbEntity
8
0
62
256
6
ByLayer
370
-1
48
1
60
0
100
AcDbTrace
10
3.5
20
-18.559565
30
0
11
3.5
21
-19.726232
31
0
12
0
22
-19.142898
32
0
13
0
23
-19.142898
33
0
39
0
210
0
220
0
230
1
0
SOLID
5
106
100
AcDbEntity
8
0
62
256
6
ByLayer
370
-1
48
1
60
0
100
AcDbTrace
10
68.8316
20
-19.726232
30
0
11
68.8316
21
-18.559565
31
0
12
72.3316
22
-19.142898
32
0
13
72.3316
23
-19.142898
33
0
39
0
210
0
220
0
230
1
0
MTEXT
5
107
100
AcDbEntity
8
0
62
256
6
ByLayer
370
18
48
1
60
0
100
AcDbMText
10
36.1658
20
-12.142898
30
0
210
0
220
0
230
1
1
\A1;72.33
40
3.5
41
0
44
1
50
0
71
5
72
5
7
iso_b_vert
0
POINT
5
108
100
AcDbEntity
8
Defpoints
62
0
6
ByLayer
370
-1
48
1
60
0
100
AcDbPoint
10
0
20
0
30
0
39
0
210
0
220
0
230
1
50
360
0
POINT
5
109
100
AcDbEntity
8
Defpoints
62
0
6
ByLayer
370
-1
48
1
60
0
100
AcDbPoint
10
72.3316
20
-8.9295
30
0
39
0
210
0
220
0
230
1
50
360
0
POINT
5
10A
100
AcDbEntity
8
Defpoints
62
0
6
ByLayer
370
-1
48
1
60
0
100
AcDbPoint
10
72.3316
20
-19.142898
30
0
39
0
210
0
220
0
230
1
50
360
0
ENDBLK
5
101
100
AcDbEntity
8
0
100
AcDbBlockEnd
0
BLOCK
5
112
100
AcDbEntity
8
0
100
AcDbBlockBegin
2
_U0
70
0
10
0
20
0
30
0
3
_U0
0
MTEXT
5
10C
100
AcDbEntity
8
SK2
62
256
6
ByLayer
370
13
48
1
60
0
100
AcDbMText
10
31.028501
20
-18.110265
30
0
210
0
220
0
230
1
1
\W0.7317;72,33
40
3.5
41
0
44
1.084337
50
0
71
7
72
5
7
iso_b_vert
0
LINE
5
10D
100
AcDbEntity
8
SK2
62
256
6
ByLayer
370
13
48
1
60
0
100
AcDbLine
10
0
20
-1.5875
30
0
11
0
21
-21.142898
31
0
39
0
210
0
220
0
230
1
0
LINE
5
10E
100
AcDbEntity
8
SK2
62
256
6
ByLayer
370
13
48
1
60
0
100
AcDbLine
10
72.3316
20
-10.517
30
0
11
72.3316
21
-21.142898
31
0
39
0
210
0
220
0
230
1
0
LINE
5
10F
100
AcDbEntity
8
SK2
62
256
6
ByLayer
370
13
48
1
60
0
100
AcDbLine
10
0
20
-19.142898
30
0
11
72.3316
21
-19.142898
31
0
39
0
210
0
220
0
230
1
0
SOLID
5
110
100
AcDbEntity
8
SK2
62
256
6
ByLayer
370
18
48
1
60
0
100
AcDbTrace
10
0
20
-19.142898
30
0
11
3.499998
21
-18.682115
31
0
12
3.500002
22
-19.603682
32
0
13
3.500002
23
-19.603682
33
0
39
0
210
0
220
0
230
1
0
SOLID
5
111
100
AcDbEntity
8
SK2
62
256
6
ByLayer
370
18
48
1
60
0
100
AcDbTrace
10
72.3316
20
-19.142898
30
0
11
68.831602
21
-19.603682
31
0
12
68.831598
22
-18.682115
32
0
13
68.831598
23
-18.682115
33
0
39
0
210
0
220
0
230
1
0
ENDBLK
5
113
100
AcDbEntity
8
0
100
AcDbBlockEnd
0
BLOCK
5
118
100
AcDbEntity
8
0
100
AcDbBlockBegin
2
*D3
70
1
10
0
20
0
30
0
3
*D3
0
LINE
5
11A
100
AcDbEntity
8
0
62
256
6
ByLayer
370
-2
48
1
60
0
100
AcDbLine
10
-48
20
-10.5875
30
0
11
-48
21
-39.692985
31
0
39
0
210
0
220
0
230
1
0
LINE
5
11B
100
AcDbEntity
8
0
62
256
6
ByLayer
370
-2
48
1
60
0
100
AcDbLine
10
75
20
-1.5875
30
0
11
75
21
-39.692985
31
0
39
0
210
0
220
0
230
1
0
LINE
5
11C
100
AcDbEntity
8
0
62
256
6
ByLayer
370
-2
48
1
60
0
100
AcDbLine
10
-44.5
20
-37.692985
30
0
11
71.5
21
-37.692985
31
0
39
0
210
0
220
0
230
1
0
SOLID
5
11D
100
AcDbEntity
8
0
62
256
6
ByLayer
370
-1
48
1
60
0
100
AcDbTrace
10
-44.5
20
-37.109652
30
0
11
-44.5
21
-38.276319
31
0
12
-48
22
-37.692985
32
0
13
-48
23
-37.692985
33
0
39
0
210
0
220
0
230
1
0
SOLID
5
11E
100
AcDbEntity
8
0
62
256
6
ByLayer
370
-1
48
1
60
0
100
AcDbTrace
10
71.5
20
-38.276319
30
0
11
71.5
21
-37.109652
31
0
12
75
22
-37.692985
32
0
13
75
23
-37.692985
33
0
39
0
210
0
220
0
230
1
0
MTEXT
5
11F
100
AcDbEntity
8
0
62
256
6
ByLayer
370
18
48
1
60
0
100
AcDbMText
10
13.5
20
-30.692985
30
0
210
0
220
0
230
1
1
\A1;123.00
40
3.5
41
0
44
1
50
0
71
5
72
5
7
iso_b_vert
0
POINT
5
120
100
AcDbEntity
8
Defpoints
62
0
6
ByLayer
370
-1
48
1
60
0
100
AcDbPoint
10
-48
20
-9
30
0
39
0
210
0
220
0
230
1
50
360
0
POINT
5
121
100
AcDbEntity
8
Defpoints
62
0
6
ByLayer
370
-1
48
1
60
0
100
AcDbPoint
10
75
20
0
30
0
39
0
210
0
220
0
230
1
50
360
0
POINT
5
122
100
AcDbEntity
8
Defpoints
62
0
6
ByLayer
370
-1
48
1
60
0
100
AcDbPoint
10
75
20
-37.692985
30
0
39
0
210
0
220
0
230
1
50
360
0
ENDBLK
5
119
100
AcDbEntity
8
0
100
AcDbBlockEnd
0
BLOCK
5
12A
100
AcDbEntity
8
0
100
AcDbBlockBegin
2
_U1
70
0
10
0
20
0
30
0
3
_U1
0
MTEXT
5
124
100
AcDbEntity
8
SK2
62
256
6
ByLayer
370
13
48
1
60
0
100
AcDbMText
10
7.492401
20
-36.660352
30
0
210
0
220
0
230
1
1
\W0.6930;123,00
40
3.5
41
0
44
1.084337
50
0
71
7
72
5
7
iso_b_vert
0
LINE
5
125
100
AcDbEntity
8
SK2
62
256
6
ByLayer
370
13
48
1
60
0
100
AcDbLine
10
-48
20
-10.5875
30
0
11
-48
21
-39.692985
31
0
39
0
210
0
220
0
230
1
0
LINE
5
126
100
AcDbEntity
8
SK2
62
256
6
ByLayer
370
13
48
1
60
0
100
AcDbLine
10
75
20
-1.5875
30
0
11
75
21
-39.692985
31
0
39
0
210
0
220
0
230
1
0
LINE
5
127
100
AcDbEntity
8
SK2
62
256
6
ByLayer
370
13
48
1
60
0
100
AcDbLine
10
-48
20
-37.692985
30
0
11
75
21
-37.692985
31
0
39
0
210
0
220
0
230
1
0
SOLID
5
128
100
AcDbEntity
8
SK2
62
256
6
ByLayer
370
18
48
1
60
0
100
AcDbTrace
10
-48
20
-37.692985
30
0
11
-44.500002
21
-37.232202
31
0
12
-44.499998
22
-38.153769
32
0
13
-44.499998
23
-38.153769
33
0
39
0
210
0
220
0
230
1
0
SOLID
5
129
100
AcDbEntity
8
SK2
62
256
6
ByLayer
370
18
48
1
60
0
100
AcDbTrace
10
75
20
-37.692985
30
0
11
71.500002
21
-38.153769
31
0
12
71.499998
22
-37.232202
32
0
13
71.499998
23
-37.232202
33
0
39
0
210
0
220
0
230
1
0
ENDBLK
5
12B
100
AcDbEntity
8
0
100
AcDbBlockEnd
0
BLOCK
5
130
100
AcDbEntity
8
0
100
AcDbBlockBegin
2
*D5
70
1
10
0
20
0
30
0
3
*D5
0
LINE
5
132
100
AcDbEntity
8
0
62
256
6
ByLayer
370
-2
48
1
60
0
100
AcDbLine
10
19.86
20
10.517
30
0
11
19.86
21
22.538619
31
0
39
0
210
0
220
0
230
1
0
LINE
5
133
100
AcDbEntity
8
0
62
256
6
ByLayer
370
-2
48
1
60
0
100
AcDbLine
10
75
20
1.5875
30
0
11
75
21
22.538619
31
0
39
0
210
0
220
0
230
1
0
LINE
5
134
100
AcDbEntity
8
0
62
256
6
ByLayer
370
-2
48
1
60
0
100
AcDbLine
10
23.36
20
20.538619
30
0
11
71.5
21
20.538619
31
0
39
0
210
0
220
0
230
1
0
SOLID
5
135
100
AcDbEntity
8
0
62
256
6
ByLayer
370
-1
48
1
60
0
100
AcDbTrace
10
23.36
20
21.121953
30
0
11
23.36
21
19.955286
31
0
12
19.86
22
20.538619
32
0
13
19.86
23
20.538619
33
0
39
0
210
0
220
0
230
1
0
SOLID
5
136
100
AcDbEntity
8
0
62
256
6
ByLayer
370
-1
48
1
60
0
100
AcDbTrace
10
71.5
20
19.955286
30
0
11
71.5
21
21.121953
31
0
12
75
22
20.538619
32
0
13
75
23
20.538619
33
0
39
0
210
0
220
0
230
1
0
MTEXT
5
137
100
AcDbEntity
8
0
62
256
6
ByLayer
370
18
48
1
60
0
100
AcDbMText
10
47.43
20
27.538619
30
0
210
0
220
0
230
1
1
\A1;55.14
40
3.5
41
0
44
1
50
0
71
5
72
5
7
iso_b_vert
0
POINT
5
138
100
AcDbEntity
8
Defpoints
62
0
6
ByLayer
370
-1
48
1
60
0
100
AcDbPoint
10
19.86
20
8.9295
30
0
39
0
210
0
220
0
230
1
50
360
0
POINT
5
139
100
AcDbEntity
8
Defpoints
62
0
6
ByLayer
370
-1
48
1
60
0
100
AcDbPoint
10
75
20
0
30
0
39
0
210
0
220
0
230
1
50
360
0
POINT
5
13A
100
AcDbEntity
8
Defpoints
62
0
6
ByLayer
370
-1
48
1
60
0
100
AcDbPoint
10
75
20
20.538619
30
0
39
0
210
0
220
0
230
1
50
360
0
ENDBLK
5
131
100
AcDbEntity
8
0
100
AcDbBlockEnd
0
BLOCK
5
142
100
AcDbEntity
8
0
100
AcDbBlockBegin
2
_U2
70
0
10
0
20
0
30
0
3
_U2
0
MTEXT
5
13C
100
AcDbEntity
8
SK2
62
256
6
ByLayer
370
13
48
1
60
0
100
AcDbMText
10
42.545868
20
21.571253
30
0
210
0
220
0
230
1
1
\W0.6898;55,14
40
3.5
41
0
44
1.084337
50
0
71
7
72
5
7
iso_b_vert
0
LINE
5
13D
100
AcDbEntity
8
SK2
62
256
6
ByLayer
370
13
48
1
60
0
100
AcDbLine
10
19.86
20
10.517
30
0
11
19.86
21
22.538619
31
0
39
0
210
0
220
0
230
1
0
LINE
5
13E
100
AcDbEntity
8
SK2
62
256
6
ByLayer
370
13
48
1
60
0
100
AcDbLine
10
75
20
1.5875
30
0
11
75
21
22.538619
31
0
39
0
210
0
220
0
230
1
0
LINE
5
13F
100
AcDbEntity
8
SK2
62
256
6
ByLayer
370
13
48
1
60
0
100
AcDbLine
10
19.86
20
20.538619
30
0
11
75
21
20.538619
31
0
39
0
210
0
220
0
230
1
0
SOLID
5
140
100
AcDbEntity
8
SK2
62
256
6
ByLayer
370
18
48
1
60
0
100
AcDbTrace
10
19.86
20
20.538619
30
0
11
23.359998
21
20.999403
31
0
12
23.360002
22
20.077835
32
0
13
23.360002
23
20.077835
33
0
39
0
210
0
220
0
230
1
0
SOLID
5
141
100
AcDbEntity
8
SK2
62
256
6
ByLayer
370
18
48
1
60
0
100
AcDbTrace
10
75
20
20.538619
30
0
11
71.500002
21
20.077835
31
0
12
71.499998
22
20.999403
32
0
13
71.499998
23
20.999403
33
0
39
0
210
0
220
0
230
1
0
ENDBLK
5
143
100
AcDbEntity
8
0
100
AcDbBlockEnd
0
BLOCK
5
148
100
AcDbEntity
8
0
100
AcDbBlockBegin
2
*D7
70
1
10
0
20
0
30
0
3
*D7
0
LINE
5
14A
100
AcDbEntity
8
0
62
256
6
ByLayer
370
-2
48
1
60
0
100
AcDbLine
10
75
20
-1.5875
30
0
11
75
21
-23.732003
31
0
39
0
210
0
220
0
230
1
0
LINE
5
14B
100
AcDbEntity
8
0
62
256
6
ByLayer
370
-2
48
1
60
0
100
AcDbLine
10
72.3316
20
-10.517
30
0
11
72.3316
21
-23.732003
31
0
39
0
210
0
220
0
230
1
0
LINE
5
14C
100
AcDbEntity
8
0
62
256
6
ByLayer
370
-2
48
1
60
0
100
AcDbLine
10
75
20
-21.732003
30
0
11
103.166667
21
-21.732003
31
0
39
0
210
0
220
0
230
1
0
LINE
5
14D
100
AcDbEntity
8
0
62
256
6
ByLayer
370
-2
48
1
60
0
100
AcDbLine
10
78.5
20
-21.732003
30
0
11
82
21
-21.732003
31
0
39
0
210
0
220
0
230
1
0
LINE
5
14E
100
AcDbEntity
8
0
62
256
6
ByLayer
370
-2
48
1
60
0
100
AcDbLine
10
68.8316
20
-21.732003
30
0
11
65.3316
21
-21.732003
31
0
39
0
210
0
220
0
230
1
0
SOLID
5
14F
100
AcDbEntity
8
0
62
256
6
ByLayer
370
-1
48
1
60
0
100
AcDbTrace
10
78.5
20
-21.14867
30
0
11
78.5
21
-22.315337
31
0
12
75
22
-21.732003
32
0
13
75
23
-21.732003
33
0
39
0
210
0
220
0
230
1
0
SOLID
5
150
100
AcDbEntity
8
0
62
256
6
ByLayer
370
-1
48
1
60
0
100
AcDbTrace
10
68.8316
20
-22.315337
30
0
11
68.8316
21
-21.14867
31
0
12
72.3316
22
-21.732003
32
0
13
72.3316
23
-21.732003
33
0
39
0
210
0
220
0
230
1
0
MTEXT
5
151
100
AcDbEntity
8
0
62
256
6
ByLayer
370
18
48
1
60
0
100
AcDbMText
10
92.583333
20
-14.732003
30
0
210
0
220
0
230
1
1
\A1;2.67
40
3.5
41
0
44
1
50
0
71
5
72
5
7
iso_b_vert
0
POINT
5
152
100
AcDbEntity
8
Defpoints
62
0
6
ByLayer
370
-1
48
1
60
0
100
AcDbPoint
10
75
20
0
30
0
39
0
210
0
220
0
230
1
50
360
0
POINT
5
153
100
AcDbEntity
8
Defpoints
62
0
6
ByLayer
370
-1
48
1
60
0
100
AcDbPoint
10
72.3316
20
-8.9295
30
0
39
0
210
0
220
0
230
1
50
360
0
POINT
5
154
100
AcDbEntity
8
Defpoints
62
0
6
ByLayer
370
-1
48
1
60
0
100
AcDbPoint
10
72.3316
20
-21.732003
30
0
39
0
210
0
220
0
230
1
50
360
0
ENDBLK
5
149
100
AcDbEntity
8
0
100
AcDbBlockEnd
0
BLOCK
5
15C
100
AcDbEntity
8
0
100
AcDbBlockBegin
2
_U3
70
0
10
0
20
0
30
0
3
_U3
0
MTEXT
5
156
100
AcDbEntity
8
SK2
62
256
6
ByLayer
370
13
48
1
60
0
100
AcDbMText
10
81.15186
20
-20.69937
30
0
210
0
220
0
230
1
1
\W0.7150;2,67
40
3.5
41
0
44
1.084337
50
0
71
7
72
5
7
iso_b_vert
0
LINE
5
157
100
AcDbEntity
8
SK2
62
256
6
ByLayer
370
13
48
1
60
0
100
AcDbLine
10
75
20
-1.5875
30
0
11
75
21
-23.732003
31
0
39
0
210
0
220
0
230
1
0
LINE
5
158
100
AcDbEntity
8
SK2
62
256
6
ByLayer
370
13
48
1
60
0
100
AcDbLine
10
72.3316
20
-10.517
30
0
11
72.3316
21
-23.732003
31
0
39
0
210
0
220
0
230
1
0
LINE
5
159
100
AcDbEntity
8
SK2
62
256
6
ByLayer
370
13
48
1
60
0
100
AcDbLine
10
63.5816
20
-21.732003
30
0
11
88.996491
21
-21.732003
31
0
39
0
210
0
220
0
230
1
0
SOLID
5
15A
100
AcDbEntity
8
SK2
62
256
6
ByLayer
370
18
48
1
60
0
100
AcDbTrace
10
75
20
-21.732003
30
0
11
78.499998
21
-21.271219
31
0
12
78.500002
22
-22.192787
32
0
13
78.500002
23
-22.192787
33
0
39
0
210
0
220
0
230
1
0
SOLID
5
15B
100
AcDbEntity
8
SK2
62
256
6
ByLayer
370
18
48
1
60
0
100
AcDbTrace
10
72.3316
20
-21.732003
30
0
11
68.831602
21
-22.192787
31
0
12
68.831598
22
-21.271219
32
0
13
68.831598
23
-21.271219
33
0
39
0
210
0
220
0
230
1
0
ENDBLK
5
15D
100
AcDbEntity
8
0
100
AcDbBlockEnd
0
BLOCK
5
162
100
AcDbEntity
8
0
100
AcDbBlockBegin
2
*D9
70
1
10
0
20
0
30
0
3
*D9
0
LINE
5
164
100
AcDbEntity
8
0
62
256
6
ByLayer
370
-2
48
1
60
0
100
AcDbLine
10
-48
20
-10.5875
30
0
11
-48
21
-29.343428
31
0
39
0
210
0
220
0
230
1
0
LINE
5
165
100
AcDbEntity
8
0
62
256
6
ByLayer
370
-2
48
1
60
0
100
AcDbLine
10
72.3316
20
-10.517
30
0
11
72.3316
21
-29.343428
31
0
39
0
210
0
220
0
230
1
0
LINE
5
166
100
AcDbEntity
8
0
62
256
6
ByLayer
370
-2
48
1
60
0
100
AcDbLine
10
-44.5
20
-27.343428
30
0
11
68.8316
21
-27.343428
31
0
39
0
210
0
220
0
230
1
0
SOLID
5
167
100
AcDbEntity
8
0
62
256
6
ByLayer
370
-1
48
1
60
0
100
AcDbTrace
10
-44.5
20
-26.760095
30
0
11
-44.5
21
-27.926762
31
0
12
-48
22
-27.343428
32
0
13
-48
23
-27.343428
33
0
39
0
210
0
220
0
230
1
0
SOLID
5
168
100
AcDbEntity
8
0
62
256
6
ByLayer
370
-1
48
1
60
0
100
AcDbTrace
10
68.8316
20
-27.926762
30
0
11
68.8316
21
-26.760095
31
0
12
72.3316
22
-27.343428
32
0
13
72.3316
23
-27.343428
33
0
39
0
210
0
220
0
230
1
0
MTEXT
5
169
100
AcDbEntity
8
0
62
256
6
ByLayer
370
18
48
1
60
0
100
AcDbMText
10
12.1658
20
-20.343428
30
0
210
0
220
0
230
1
1
\A1;120.33
40
3.5
41
0
44
1
50
0
71
5
72
5
7
iso_b_vert
0
POINT
5
16A
100
AcDbEntity
8
Defpoints
62
0
6
ByLayer
370
-1
48
1
60
0
100
AcDbPoint
10
-48
20
-9
30
0
39
0
210
0
220
0
230
1
50
360
0
POINT
5
16B
100
AcDbEntity
8
Defpoints
62
0
6
ByLayer
370
-1
48
1
60
0
100
AcDbPoint
10
72.3316
20
-8.9295
30
0
39
0
210
0
220
0
230
1
50
360
0
POINT
5
16C
100
AcDbEntity
8
Defpoints
62
0
6
ByLayer
370
-1
48
1
60
0
100
AcDbPoint
10
72.3316
20
-27.343428
30
0
39
0
210
0
220
0
230
1
50
360
0
ENDBLK
5
163
100
AcDbEntity
8
0
100
AcDbBlockEnd
0
BLOCK
5
174
100
AcDbEntity
8
0
100
AcDbBlockBegin
2
_U4
70
0
10
0
20
0
30
0
3
_U4
0
MTEXT
5
16E
100
AcDbEntity
8
SK2
62
256
6
ByLayer
370
13
48
1
60
0
100
AcDbMText
10
6.158201
20
-26.310795
30
0
210
0
220
0
230
1
1
\W0.6930;120,33
40
3.5
41
0
44
1.084337
50
0
71
7
72
5
7
iso_b_vert
0
LINE
5
16F
100
AcDbEntity
8
SK2
62
256
6
ByLayer
370
13
48
1
60
0
100
AcDbLine
10
-48
20
-10.5875
30
0
11
-48
21
-29.343428
31
0
39
0
210
0
220
0
230
1
0
LINE
5
170
100
AcDbEntity
8
SK2
62
256
6
ByLayer
370
13
48
1
60
0
100
AcDbLine
10
72.3316
20
-10.517
30
0
11
72.3316
21
-29.343428
31
0
39
0
210
0
220
0
230
1
0
LINE
5
171
100
AcDbEntity
8
SK2
62
256
6
ByLayer
370
13
48
1
60
0
100
AcDbLine
10
-48
20
-27.343428
30
0
11
72.3316
21
-27.343428
31
0
39
0
210
0
220
0
230
1
0
SOLID
5
172
100
AcDbEntity
8
SK2
62
256
6
ByLayer
370
18
48
1
60
0
100
AcDbTrace
10
-48
20
-27.343428
30
0
11
-44.500002
21
-26.882645
31
0
12
-44.499998
22
-27.804212
32
0
13
-44.499998
23
-27.804212
33
0
39
0
210
0
220
0
230
1
0
SOLID
5
173
100
AcDbEntity
8
SK2
62
256
6
ByLayer
370
18
48
1
60
0
100
AcDbTrace
10
72.3316
20
-27.343428
30
0
11
68.831602
21
-27.804212
31
0
12
68.831598
22
-26.882645
32
0
13
68.831598
23
-26.882645
33
0
39
0
210
0
220
0
230
1
0
ENDBLK
5
175
100
AcDbEntity
8
0
100
AcDbBlockEnd
0
ENDSEC
0
SECTION
2
ENTITIES
0
ELLIPSE
5
AA
100
AcDbEntity
8
1
62
256
6
ByLayer
370
13
48
1
60
0
100
AcDbEllipse
10
4.25013
20
-3.403968
30
0
11
0.0448896989708256
21
0.0893583511839194
31
0
210
0
220
0
230
1
40
0.190689
41
1.20620760826739
42
2.76833528341814
0
ELLIPSE
5
AB
100
AcDbEntity
8
1
62
256
6
ByLayer
370
13
48
1
60
0
100
AcDbEllipse
10
4.177861
20
-3.375118
30
0
11
-0.0271944577895967
21
-0.0962312915092063
31
0
210
0
220
0
230
1
40
0.568545
41
-1.77413862659722
42
-0.444886035759101
0
POINT
5
70
100
AcDbEntity
8
80
62
256
6
ByLayer
370
18
48
1
60
0
100
AcDbPoint
10
0
20
0
30
0
39
0
210
0
220
0
230
1
50
360
0
POINT
5
72
100
AcDbEntity
8
81
62
256
6
ByLayer
370
18
48
1
60
0
100
AcDbPoint
10
75
20
0
30
0
39
0
210
0
220
0
230
1
50
360
0
POINT
5
74
100
AcDbEntity
8
1
62
256
6
ByLayer
370
18
48
1
60
1
100
AcDbPoint
10
72.3316
20
-8.9295
30
0
39
0
210
0
220
0
230
1
50
360
0
POINT
5
76
100
AcDbEntity
8
1
62
256
6
ByLayer
370
18
48
1
60
1
100
AcDbPoint
10
-48
20
-9
30
0
39
0
210
0
220
0
230
1
50
360
0
POINT
5
77
100
AcDbEntity
8
1
62
256
6
ByLayer
370
18
48
1
60
1
100
AcDbPoint
10
19.86
20
8.9295
30
0
39
0
210
0
220
0
230
1
50
360
0
POINT
5
78
100
AcDbEntity
8
1
62
256
6
ByLayer
370
18
48
1
60
1
100
AcDbPoint
10
72.3316
20
-8.9295
30
0
39
0
210
0
220
0
230
1
50
360
0
POINT
5
79
100
AcDbEntity
8
1
62
256
6
ByLayer
370
18
48
1
60
1
100
AcDbPoint
10
-48
20
-9
30
0
39
0
210
0
220
0
230
1
50
360
0
POINT
5
7A
100
AcDbEntity
8
1
62
256
6
ByLayer
370
18
48
1
60
1
100
AcDbPoint
10
72.3316
20
-8.9295
30
0
39
0
210
0
220
0
230
1
50
360
0
SPLINE
5
AC
100
AcDbEntity
8
1
62
256
6
ByLayer
370
18
48
1
60
0
100
AcDbSpline
70
4
71
3
72
12
73
8
40
0
40
0
40
0
40
0
40
0.291715571038792
40
0.291715571038792
40
0.583431142077585
40
0.583431142077585
40
1
40
1
40
1
40
1
41
1
10
4.20211733453468
20
-3.48405230723148
30
0
41
1
10
4.91442287546687
20
-3.84023571291206
30
0
41
1
10
5.62617024996231
20
-4.18528436303973
30
0
41
1
10
7.0504927879131
20
-4.84796446829486
30
0
41
1
10
7.75906668873978
20
-5.1634704900714
30
0
41
1
10
9.4744105115978
20
-5.88641744887863
30
0
41
1
10
10.4787565467807
20
-6.27579510632984
30
0
41
1
10
11.4831523487164
20
-6.62393215233152
30
0
0
SPLINE
5
AD
100
AcDbEntity
8
1
62
256
6
ByLayer
370
13
48
1
60
0
100
AcDbSpline
70
4
71
3
72
18
73
14
40
0
40
0
40
0
40
0
40
0.0919767377480889
40
0.0919767377480889
40
0.252774214896101
40
0.252774214896101
40
0.333172953470108
40
0.333172953470108
40
0.413571692044114
40
0.413571692044114
40
0.735166646340143
40
0.735166646340143
40
1
40
1
40
1
40
1
41
1
10
11.4831517976075
20
-6.62393196130978
30
0
41
1
10
11.8854762898046
20
-6.76338302835885
30
0
41
1
10
12.2878087670065
20
-6.89621698697783
30
0
41
1
10
13.3943430528028
20
-7.24213289854001
30
0
41
1
10
14.0990022548689
20
-7.44099407653744
30
0
41
1
10
15.1593682291626
20
-7.7051398550189
30
0
41
1
10
15.5133917995718
20
-7.78749145512029
30
0
41
1
10
16.2229954849913
20
-7.94032422971586
30
0
41
1
10
16.5791157839936
20
-8.010898656785
30
0
41
1
10
18.3576764527119
20
-8.33177213900331
30
0
41
1
10
19.7667235454868
20
-8.48492852446833
30
0
41
1
10
22.3319023493938
20
-8.57434923908423
30
0
41
1
10
23.4890728141559
20
-8.54409562872601
30
0
41
1
10
24.6513659702021
20
-8.44295039845667
30
0
0
SPLINE
5
AE
100
AcDbEntity
8
1
62
256
6
ByLayer
370
13
48
1
60
0
100
AcDbSpline
70
4
71
3
72
8
73
4
40
0
40
0
40
0
40
0
40
1
40
1
40
1
40
1
41
1
10
4.2502161073368
20
-3.36410877590322
30
0
41
1
10
4.20815390595149
20
-3.35157322744564
30
0
41
1
10
4.16708757977645
20
-3.34352570980803
30
0
41
1
10
4.12976781932321
20
-3.3405415344001
30
0
0
SPLINE
5
AF
100
AcDbEntity
8
1
62
256
6
ByLayer
370
18
48
1
60
0
100
AcDbSpline
70
4
71
3
72
12
73
8
40
0
40
0
40
0
40
0
40
0.500000000000003
40
0.500000000000003
40
0.750000000000002
40
0.750000000000002
40
1
40
1
40
1
40
1
41
1
10
72.319008369021
20
-8.68036449225858
30
0
41
1
10
72.231264167372
20
-8.74634555072595
30
0
41
1
10
72.1474818804916
20
-8.79998311272013
30
0
41
1
10
72.0277485717247
20
-8.86065381089577
30
0
41
1
10
71.9889296252538
20
-8.87750368088098
30
0
41
1
10
71.9141416902881
20
-8.90413090354568
30
0
41
1
10
71.878062572289
20
-8.91396660323781
30
0
41
1
10
71.8432543789727
20
-8.92034160876102
30
0
0
SPLINE
5
B0
100
AcDbEntity
8
1
62
256
6
ByLayer
370
18
48
1
60
0
100
AcDbSpline
70
4
71
3
72
94
73
90
40
0
40
0
40
0
40
0
40
0.0335520203334671
40
0.0335520203334671
40
0.050328030500201
40
0.050328030500201
40
0.0671040406669349
40
0.0671040406669349
40
0.100656061000402
40
0.100656061000402
40
0.134208081333869
40
0.134208081333869
40
0.167760101667336
40
0.167760101667336
40
0.18453611183407
40
0.18453611183407
40
0.201312122000803
40
0.201312122000803
40
0.218088132167537
40
0.218088132167537
40
0.23486414233427
40
0.23486414233427
40
0.268416162667738
40
0.268416162667738
40
0.285192172834471
40
0.285192172834471
40
0.301968183001205
40
0.301968183001205
40
0.335520203334672
40
0.335520203334672
40
0.352296213501406
40
0.352296213501406
40
0.369072223668139
40
0.369072223668139
40
0.402624244001607
40
0.402624244001607
40
0.41940025416834
40
0.41940025416834
40
0.436176264335074
40
0.436176264335074
40
0.452952274501807
40
0.452952274501807
40
0.469728284668541
40
0.469728284668541
40
0.503280305002008
40
0.503280305002008
40
0.520056315168741
40
0.520056315168741
40
0.536832325335475
40
0.536832325335475
40
0.570384345668941
40
0.570384345668941
40
0.587160355835675
40
0.587160355835675
40
0.603936366002408
40
0.603936366002408
40
0.637488386335875
40
0.637488386335875
40
0.654264396502609
40
0.654264396502609
40
0.671040406669343
40
0.671040406669343
40
0.687816416836077
40
0.687816416836077
40
0.704592427002811
40
0.704592427002811
40
0.738144447336279
40
0.738144447336279
40
0.771696467669747
40
0.771696467669747
40
0.805248488003214
40
0.805248488003214
40
0.822024498169948
40
0.822024498169948
40
0.838800508336683
40
0.838800508336683
40
0.855576518503417
40
0.855576518503417
40
0.872352528670151
40
0.872352528670151
40
0.905904549003619
40
0.905904549003619
40
0.922680559170353
40
0.922680559170353
40
0.939456569337087
40
0.939456569337087
40
0.973008589670555
40
0.973008589670555
40
1
40
1
40
1
40
1
41
1
10
18.4723071684564
20
8.8712426742932
30
0
41
1
10
19.0377248965949
20
8.89575888690709
30
0
41
1
10
19.6021285516293
20
8.90228714873993
30
0
41
1
10
20.4461468498989
20
8.8864241578631
30
0
41
1
10
20.7270240544312
20
8.87683998887121
30
0
41
1
10
21.2875317228294
20
8.8490141343315
30
0
41
1
10
21.5670974085264
20
8.83073144097466
30
0
41
1
10
22.4061340548193
20
8.7633421624154
30
0
41
1
10
22.9655121511423
20
8.70176478017845
30
0
41
1
10
24.0829206883386
20
8.54522168869877
30
0
41
1
10
24.6402786196297
20
8.44971848678836
30
0
41
1
10
25.7586806141251
20
8.22755090745983
30
0
41
1
10
26.3191231996402
20
8.10076136416137
30
0
41
1
10
27.1603854533245
20
7.88563072863616
30
0
41
1
10
27.4408611969939
20
7.80967834281023
30
0
41
1
10
28.0034529943648
20
7.6505535281523
30
0
41
1
10
28.285432106448
20
7.56728371190971
30
0
41
1
10
28.8505852100411
20
7.39314526758969
30
0
41
1
10
29.1341780615595
20
7.30212695624715
30
0
41
1
10
29.699822496362
20
7.11305563072679
30
0
41
1
10
29.9817401391369
20
7.01482782195896
30
0
41
1
10
30.8258799960853
20
6.71031853525687
30
0
41
1
10
31.3877172655101
20
6.49571948495554
30
0
41
1
10
32.2283859163015
20
6.15605690219039
30
0
41
1
10
32.5082640715652
20
6.03987184753416
30
0
41
1
10
33.0669915907775
20
5.80109189498734
30
0
41
1
10
33.3459650356806
20
5.6786483348921
30
0
41
1
10
34.1836347875783
20
5.30485168587489
30
0
41
1
10
34.7425039997247
20
5.04632243373459
30
0
41
1
10
35.5803642861079
20
4.64300096434587
30
0
41
1
10
35.859394961602
20
4.50567620216995
30
0
41
1
10
36.4179501679534
20
4.22673878413559
30
0
41
1
10
36.6976819250656
20
4.08546075223629
30
0
41
1
10
37.5381130817688
20
3.65605440236774
30
0
41
1
10
38.1000254166258
20
3.36237054597828
30
0
41
1
10
38.9440746261165
20
2.90816109633556
30
0
41
1
10
39.2258133358853
20
2.75478623103294
30
0
41
1
10
39.791137063525
20
2.44596279787152
30
0
41
1
10
40.0746868320713
20
2.29022424546417
30
0
41
1
10
40.6398021214894
20
1.9777279227151
30
0
41
1
10
40.9217919202292
20
1.82075248398488
30
0
41
1
10
41.4844457172167
20
1.50499917756139
30
0
41
1
10
41.7649078262683
20
1.34585726685558
30
0
41
1
10
42.6057374214744
20
0.868319263164636
30
0
41
1
10
43.1658706856773
20
0.550381378148188
30
0
41
1
10
44.0044654921034
20
0.0723115989365226
30
0
41
1
10
44.2837066343601
20
-0.0872787229783683
30
0
41
1
10
44.8414642747322
20
-0.407177537313999
30
0
41
1
10
45.1202671821175
20
-0.566973626549583
30
0
41
1
10
45.9576260940662
20
-1.04381122668622
30
0
41
1
10
46.5166722432251
20
-1.35912965917907
30
0
41
1
10
47.3553107786537
20
-1.83025747901667
30
0
41
1
10
47.6346739184692
20
-1.98733239700664
30
0
41
1
10
48.1945482680051
20
-2.29887101315217
30
0
41
1
10
48.4750552780747
20
-2.4533439178287
30
0
41
1
10
49.3180698070821
20
-2.9132557348388
30
0
41
1
10
49.8819744177211
20
-3.2153615443996
30
0
41
1
10
50.7299267925874
20
-3.66300274788176
30
0
41
1
10
51.012565565331
20
-3.81027683883514
30
0
41
1
10
51.5767423139144
20
-4.09929467733161
30
0
41
1
10
51.8584419324973
20
-4.24133340273863
30
0
41
1
10
52.4208878191261
20
-4.52084844431408
30
0
41
1
10
52.7016499152749
20
-4.65830015315927
30
0
41
1
10
53.2619909884064
20
-4.928996425143
30
0
41
1
10
53.5414405263357
20
-5.06241783316099
30
0
41
1
10
54.3800460026528
20
-5.45332405191323
30
0
41
1
10
54.9390994077096
20
-5.70210515001113
30
0
41
1
10
56.0557946141612
20
-6.17826372036643
30
0
41
1
10
56.6127293114832
20
-6.40641283607576
30
0
41
1
10
57.7301138748335
20
-6.83475609920666
30
0
41
1
10
58.2900039343104
20
-7.0357979246493
30
0
41
1
10
59.1304005889259
20
-7.31875516636333
30
0
41
1
10
59.4105424231626
20
-7.41002869666113
30
0
41
1
10
59.9724271638275
20
-7.584805315897
30
0
41
1
10
60.2540437626849
20
-7.66845445681295
30
0
41
1
10
60.8184580822962
20
-7.82842685116023
30
0
41
1
10
61.1015550965599
20
-7.90483244505342
30
0
41
1
10
61.6673711751329
20
-8.04999524087958
30
0
41
1
10
61.9493801783996
20
-8.11871742903477
30
0
41
1
10
62.7936036012554
20
-8.31259647776389
30
0
41
1
10
63.3553867635137
20
-8.42456538097753
30
0
41
1
10
64.1959342156878
20
-8.56782848648811
30
0
41
1
10
64.4757604959131
20
-8.61145698057669
30
0
41
1
10
65.0343629593381
20
-8.69057436287227
30
0
41
1
10
65.3132098086061
20
-8.72600456766645
30
0
41
1
10
66.1504699846445
20
-8.81919101460679
30
0
41
1
10
66.7090209386677
20
-8.86421329725715
30
0
41
1
10
67.7163068012123
20
-8.91504480161146
30
0
41
1
10
68.1648544641856
20
-8.92668989092863
30
0
41
1
10
68.6145121249564
20
-8.92717176211468
30
0
0
SPLINE
5
B1
100
AcDbEntity
8
1
62
256
6
ByLayer
370
18
48
1
60
0
100
AcDbSpline
70
4
71
3
72
50
73
46
40
0
40
0
40
0
40
0
40
0.125
40
0.125
40
0.187499999999998
40
0.187499999999998
40
0.249999999999997
40
0.249999999999997
40
0.374999999999993
40
0.374999999999993
40
0.49999999999999
40
0.49999999999999
40
0.562499999999989
40
0.562499999999989
40
0.593749999999988
40
0.593749999999988
40
0.624999999999987
40
0.624999999999987
40
0.687499999999988
40
0.687499999999988
40
0.749999999999989
40
0.749999999999989
40
0.812499999999991
40
0.812499999999991
40
0.84374999999999
40
0.84374999999999
40
0.859374999999988
40
0.859374999999988
40
0.863281249999989
40
0.863281249999989
40
0.867187499999989
40
0.867187499999989
40
0.874999999999989
40
0.874999999999989
40
0.878906249999989
40
0.878906249999989
40
0.88281249999999
40
0.88281249999999
40
0.89062499999999
40
0.89062499999999
40
0.906249999999992
40
0.906249999999992
40
0.937499999999994
40
0.937499999999994
40
1
40
1
40
1
40
1
41
1
10
63.6113649523741
20
3.56601004006688
30
0
41
1
10
63.9549988717157
20
3.22799568282866
30
0
41
1
10
64.310534480425
20
2.910904000427
30
0
41
1
10
64.8616771850187
20
2.4666272092762
30
0
41
1
10
65.0483840826311
20
2.32379592218496
30
0
41
1
10
65.4281110700426
20
2.04923167725798
30
0
41
1
10
65.6217400779697
20
1.9171060130831
30
0
41
1
10
66.204844680217
20
1.54253773697775
30
0
41
1
10
66.5980111730563
20
1.32037662373949
30
0
41
1
10
67.3932863610673
20
0.931666625292962
30
0
41
1
10
67.7953783181944
20
0.765013644927734
30
0
41
1
10
68.4062682086801
20
0.56324416356523
30
0
41
1
10
68.6111833482543
20
0.503980276352365
30
0
41
1
10
68.9206523335138
20
0.42812134281391
30
0
41
1
10
69.0243570514642
20
0.404977613653784
30
0
41
1
10
69.231174380949
20
0.363547491524059
30
0
41
1
10
69.334341589855
20
0.345237418164942
30
0
41
1
10
69.6430973444548
20
0.297736354910143
30
0
41
1
10
69.8479422565696
20
0.275952225174024
30
0
41
1
10
70.2554629634906
20
0.253989160824574
30
0
41
1
10
70.4585198308941
20
0.25384061592888
30
0
41
1
10
70.860360666606
20
0.278363844065098
30
0
41
1
10
71.0587056128351
20
0.303127384405883
30
0
41
1
10
71.3504773835654
20
0.360244482755831
30
0
41
1
10
71.4468124111153
20
0.382621591021177
30
0
41
1
10
71.5895290906849
20
0.421338399515463
30
0
41
1
10
71.6368133688682
20
0.435104233040335
30
0
41
1
10
71.6955322908134
20
0.453406525712126
30
0
41
1
10
71.7072553857411
20
0.457121310976191
30
0
41
1
10
71.7306599807222
20
0.464660102012772
30
0
41
1
10
71.7424447342773
20
0.468212983033425
30
0
41
1
10
71.7766784007238
20
0.481814100920985
30
0
41
1
10
71.797966926301
20
0.495693054681595
30
0
41
1
10
71.8206520371639
20
0.526949025564335
30
0
41
1
10
71.8267578596387
20
0.539093672700147
30
0
41
1
10
71.8346195678255
20
0.566284609153456
30
0
41
1
10
71.836094629994
20
0.581141597531769
30
0
41
1
10
71.8405449690538
20
0.625575080635684
30
0
41
1
10
71.8438297597997
20
0.65507948708526
30
0
41
1
10
71.8525601279395
20
0.744009625141558
30
0
41
1
10
71.8576025879754
20
0.803587788691544
30
0
41
1
10
71.8705029597995
20
0.982923140892154
30
0
41
1
10
71.8761455639467
20
1.10335462882963
30
0
41
1
10
71.8851047234726
20
1.46700545353306
30
0
41
1
10
71.8804077196231
20
1.71220373518577
30
0
41
1
10
71.8673170869791
20
1.95723268397185
30
0
0
SPLINE
5
B2
100
AcDbEntity
8
1
62
256
6
ByLayer
370
18
48
1
60
0
100
AcDbSpline
70
4
71
3
72
10
73
6
40
0
40
0
40
0
40
0
40
0.5
40
0.5
40
1
40
1
40
1
40
1
41
1
10
74.9696665809419
20
-0.232598332341041
30
0
41
1
10
74.9703576105347
20
-0.209759952841182
30
0
41
1
10
74.9738616743697
20
-0.182932764936254
30
0
41
1
10
74.9844173734319
20
-0.125634598471009
30
0
41
1
10
74.9913933178895
20
-0.0955962510585096
30
0
41
1
10
74.9999564446135
20
-0.0642658923681552
30
0
0
SPLINE
5
B3
100
AcDbEntity
8
1
62
256
6
ByLayer
370
18
48
1
60
0
100
AcDbSpline
70
4
71
3
72
10
73
6
40
0
40
0
40
0
40
0
40
0.5
40
0.5
40
1
40
1
40
1
40
1
41
1
10
74.9696665809418
20
0.23259833234124
30
0
41
1
10
74.9703576105345
20
0.209759952841352
30
0
41
1
10
74.9738616743696
20
0.182932764936339
30
0
41
1
10
74.9844173734319
20
0.125634598470981
30
0
41
1
10
74.9913933178895
20
0.0955962510583959
30
0
41
1
10
74.9999564446135
20
0.0642658923679562
30
0
0
SPLINE
5
B4
100
AcDbEntity
8
1
62
256
6
ByLayer
370
18
48
1
60
0
100
AcDbSpline
70
4
71
3
72
12
73
8
40
0
40
0
40
0
40
0
40
0.249999999999991
40
0.249999999999991
40
0.499999999999981
40
0.499999999999981
40
1
40
1
40
1
40
1
41
1
10
4.12623950426141
20
-3.58605552693066
30
0
41
1
10
4.10700288222432
20
-3.57602247424779
30
0
41
1
10
4.08962467495877
20
-3.56390728222723
30
0
41
1
10
4.05847689178009
20
-3.53560959324099
30
0
41
1
10
4.04485644283616
20
-3.51942828847459
30
0
41
1
10
4.01193668023757
20
-3.46738672529966
30
0
41
1
10
3.9999999473506
20
-3.42714401055159
30
0
41
1
10
3.9999999473506
20
-3.38620486726461
30
0
0
SPLINE
5
B5
100
AcDbEntity
8
1
62
256
6
ByLayer
370
18
48
1
60
0
100
AcDbSpline
70
4
71
3
72
10
73
6
40
0
40
0
40
0
40
0
40
0.5
40
0.5
40
1
40
1
40
1
40
1
41
1
10
72.0445037092116
20
2.08429649634826
30
0
41
1
10
72.5179168258194
20
2.06980467687555
30
0
41
1
10
72.9913402471235
20
2.05521213879158
30
0
41
1
10
73.937728748634
20
2.03050691115632
30
0
41
1
10
74.4106908448038
20
2.02042338772623
30
0
41
1
10
74.8835927907968
20
2.01092777509436
30
0
0
SPLINE
5
B6
100
AcDbEntity
8
1
62
256
6
ByLayer
370
18
48
1
60
0
100
AcDbSpline
70
4
71
3
72
67
73
63
40
0
40
0
40
0
40
0
40
0.0312500000000035
40
0.0312500000000035
40
0.062500000000007
40
0.062500000000007
40
0.0937500000000104
40
0.0937500000000104
40
0.109375000000012
40
0.109375000000012
40
0.125000000000013
40
0.125000000000013
40
0.140625000000015
40
0.140625000000015
40
0.156250000000016
40
0.156250000000016
40
0.18750000000002
40
0.18750000000002
40
0.203125000000021
40
0.203125000000021
40
0.218750000000022
40
0.218750000000022
40
0.234375000000024
40
0.234375000000024
40
0.250000000000025
40
0.250000000000025
40
0.281250000000028
40
0.281250000000028
40
0.29687500000003
40
0.29687500000003
40
0.312500000000031
40
0.312500000000031
40
0.343750000000034
40
0.343750000000034
40
0.347656250000035
40
0.347656250000035
40
0.351562500000035
40
0.351562500000035
40
0.355468750000036
40
0.355468750000036
40
0.359375000000036
40
0.359375000000036
40
0.363281250000036
40
0.363281250000036
40
0.367187500000037
40
0.375000000000037
40
0.375000000000037
40
0.437500000000033
40
0.437500000000033
40
0.50000000000003
40
0.50000000000003
40
0.562500000000026
40
0.562500000000026
40
0.593750000000024
40
0.593750000000024
40
0.625000000000022
40
0.625000000000022
40
0.750000000000014
40
0.750000000000014
40
0.875000000000007
40
0.875000000000007
40
1
40
1
40
1
40
1
41
1
10
3.99999994735063
20
-8.45466681458385
30
0
41
1
10
3.82863878095884
20
-8.50511850667991
30
0
41
1
10
3.66072532824779
20
-8.55286269432455
30
0
41
1
10
3.33479527498696
20
-8.64172212887411
30
0
41
1
10
3.17863310543027
20
-8.68232446464893
30
0
41
1
10
2.88388748216767
20
-8.75452400403498
30
0
41
1
10
2.74525087305449
20
-8.78614098786628
30
0
41
1
10
2.55519420373705
20
-8.82514451120039
30
0
41
1
10
2.49467396229017
20
-8.83676326569162
30
0
41
1
10
2.38167963156153
20
-8.85659715523619
30
0
41
1
10
2.32945034623196
20
-8.86477466067583
30
0
41
1
10
2.23468705060597
20
-8.87731039739063
30
0
41
1
10
2.19214001432465
20
-8.88166964296281
30
0
41
1
10
2.11825477728277
20
-8.8861320823099
30
0
41
1
10
2.08680904747047
20
-8.88622494490889
30
0
41
1
10
2.01302920385126
20
-8.87933070479227
30
0
41
1
10
1.99192259874621
20
-8.86534740287038
30
0
41
1
10
2.00822713250224
20
-8.82956278171673
30
0
41
1
10
2.02188530138267
20
-8.81508103018678
30
0
41
1
10
2.06454450822136
20
-8.78224342497012
30
0
41
1
10
2.09352240112492
20
-8.76380798805255
30
0
41
1
10
2.1659112607
20
-8.72332996293284
30
0
41
1
10
2.2094891950085
20
-8.70121540817118
30
0
41
1
10
2.30980846604882
20
-8.65406218843646
30
0
41
1
10
2.3657919072736
20
-8.62936641229035
30
0
41
1
10
2.5487402854229
20
-8.55267266716098
30
0
41
1
10
2.69056722712034
20
-8.49810043601138
30
0
41
1
10
2.92651760182554
20
-8.41312239264991
30
0
41
1
10
3.00881863076413
20
-8.38437057645766
30
0
41
1
10
3.17852043770535
20
-8.32669590243512
30
0
41
1
10
3.26611613237276
20
-8.2977029961701
30
0
41
1
10
3.53615171414612
20
-8.21052263353724
30
0
41
1
10
3.72579522707909
20
-8.15216123686204
30
0
41
1
10
3.94590732417845
20
-8.08733355518604
30
0
41
1
10
3.97045261050317
20
-8.08014355264487
30
0
41
1
10
4.01971471910608
20
-8.06579068831397
30
0
41
1
10
4.04387413210694
20
-8.05823618526637
30
0
41
1
10
4.09762196218983
20
-8.04683157557966
30
0
41
1
10
4.12749915022795
20
-8.04276535354757
30
0
41
1
10
4.18735426987283
20
-8.03718955084983
30
0
41
1
10
4.21739832280906
20
-8.0357947345066
30
0
41
1
10
4.27761319449434
20
-8.03453259912769
30
0
41
1
10
4.30774967592873
20
-8.03425085655829
30
0
41
1
10
4.36799712473609
20
-8.03338002645452
30
0
41
1
10
4.45837417079838
20
-8.03214398935046
30
0
41
1
10
4.54876879092421
20
-8.0311185193097
30
0
41
1
10
5.09120648502835
20
-8.02580713687141
30
0
41
1
10
5.57401921034236
20
-8.02710407156349
30
0
41
1
10
6.53654561159331
20
-8.04126377666861
30
0
41
1
10
7.0167717226343
20
-8.05410445466134
30
0
41
1
10
7.9752074893247
20
-8.09027320006985
30
0
41
1
10
8.45341466532338
20
-8.11361343945916
30
0
41
1
10
9.16924506940464
20
-8.15532070160648
30
0
41
1
10
9.40768551771868
20
-8.17034098678914
30
0
41
1
10
9.88215682103657
20
-8.20219811481959
30
0
41
1
10
10.1184278308849
20
-8.21904792055201
30
0
41
1
10
11.295052523091
20
-8.30714784004309
30
0
41
1
10
12.2211454093652
20
-8.39018402351792
30
0
41
1
10
14.0466641881889
20
-8.55730784536945
30
0
41
1
10
14.946027132152
20
-8.64130014758194
30
0
41
1
10
16.7233741226499
20
-8.78284287789523
30
0
41
1
10
17.6013308976334
20
-8.84025023634763
30
0
41
1
10
18.4723071684564
20
-8.87124267429323
30
0
0
SPLINE
5
B7
100
AcDbEntity
8
1
62
256
6
ByLayer
370
18
48
1
60
0
100
AcDbSpline
70
4
71
3
72
14
73
10
40
0
40
0
40
0
40
0
40
0.25
40
0.25
40
0.5
40
0.5
40
0.75
40
0.75
40
1
40
1
40
1
40
1
41
1
10
72.3190083690149
20
-8.68036449228021
30
0
41
1
10
72.5150268713194
20
-8.12024234484915
30
0
41
1
10
72.7164768598096
20
-7.56113328687752
30
0
41
1
10
73.128498762775
20
-6.44487119604642
30
0
41
1
10
73.3390891754046
20
-5.88772020950688
30
0
41
1
10
73.7683985076322
20
-4.77535834664118
30
0
41
1
10
73.9872229398169
20
-4.21982175850488
30
0
41
1
10
74.4312181068206
20
-3.11198930203352
30
0
41
1
10
74.6560717394458
20
-2.56045019423078
30
0
41
1
10
74.8835927907985
20
-2.01092777509186
30
0
0
SPLINE
5
B8
100
AcDbEntity
8
1
62
256
6
ByLayer
370
18
48
1
60
0
100
AcDbSpline
70
4
71
3
72
16
73
12
40
0
40
0
40
0
40
0
40
0.249999999999995
40
0.249999999999995
40
0.49999999999999
40
0.49999999999999
40
0.624999999999991
40
0.624999999999991
40
0.749999999999992
40
0.749999999999992
40
1
40
1
40
1
40
1
41
1
10
3.99999994735032
20
-8.3316483816146
30
0
41
1
10
3.99999994735032
20
-8.31562205990741
30
0
41
1
10
4.0036485345548
20
-8.29791315869048
30
0
41
1
10
4.0234801006242
20
-8.25629991338016
30
0
41
1
10
4.04007889685681
20
-8.23225340538099
30
0
41
1
10
4.07940464607643
20
-8.19459862800559
30
0
41
1
10
4.09487095273099
20
-8.18196415810277
30
0
41
1
10
4.12750742808143
20
-8.15912147106209
30
0
41
1
10
4.14441502534686
20
-8.14903128484596
30
0
41
1
10
4.19305531271428
20
-8.12348003044926
30
0
41
1
10
4.22317393111533
20
-8.11213421733177
30
0
41
1
10
4.25052243363555
20
-8.10411812137858
30
0
0
SPLINE
5
B9
100
AcDbEntity
8
1
62
256
6
ByLayer
370
13
48
1
60
0
100
AcDbSpline
70
4
71
3
72
8
73
4
40
0
40
0
40
0
40
0
40
1
40
1
40
1
40
1
41
1
10
4.12976781932321
20
-3.45532785705868
30
0
41
1
10
4.15239893166051
20
-3.46168332532338
30
0
41
1
10
4.17701409361655
20
-3.47149960711891
30
0
41
1
10
4.20211733453465
20
-3.48405230723148
30
0
0
SPLINE
5
BA
100
AcDbEntity
8
1
62
256
6
ByLayer
370
18
48
1
60
0
100
AcDbSpline
70
4
71
3
72
8
73
4
40
0
40
0
40
0
40
0
40
1
40
1
40
1
40
1
41
1
10
4.25052243586887
20
-8.104118120724
30
0
41
1
10
4.32723327106402
20
-8.08163347406423
30
0
41
1
10
4.40502780495169
20
-8.05841141731216
30
0
41
1
10
4.48379602945235
20
-8.03449786169608
30
0
0
SPLINE
5
BB
100
AcDbEntity
8
1
62
256
6
ByLayer
370
18
48
1
60
0
100
AcDbSpline
70
4
71
3
72
32
73
28
40
0
40
0
40
0
40
0
40
0.0393391320436562
40
0.0393391320436562
40
0.119394204373352
40
0.119394204373352
40
0.199449276703047
40
0.199449276703047
40
0.279504349032742
40
0.279504349032742
40
0.359559421362437
40
0.359559421362437
40
0.439614493692133
40
0.439614493692133
40
0.519669566021828
40
0.519669566021828
40
0.599724638351523
40
0.599724638351523
40
0.679779710681219
40
0.679779710681219
40
0.759834783010914
40
0.759834783010914
40
0.839889855340609
40
0.839889855340609
40
0.919944927670305
40
0.919944927670305
40
1
40
1
40
1
40
1
41
1
10
45.9899967660729
20
8.46117521939559
30
0
41
1
10
46.2214685568141
20
8.46026159030788
30
0
41
1
10
46.4528603775439
20
8.45676620737487
30
0
41
1
10
47.1544176504702
20
8.43871980486287
30
0
41
1
10
47.6241243468889
20
8.41708800336662
30
0
41
1
10
48.5637326539767
20
8.34639783282543
30
0
41
1
10
49.0336191786744
20
8.29828618200449
30
0
41
1
10
49.9738307169619
20
8.17975425208544
30
0
41
1
10
50.4439922266277
20
8.10913181507073
30
0
41
1
10
51.3866823199332
20
7.94781714754566
30
0
41
1
10
51.8577062673425
20
7.85829555486009
30
0
41
1
10
52.7979531202326
20
7.65413941085404
30
0
41
1
10
53.267196821438
20
7.54046025104986
30
0
41
1
10
54.2064786420812
20
7.29413813380322
30
0
41
1
10
54.6764668600857
20
7.16060289020285
30
0
41
1
10
55.6171166175907
20
6.87598791239733
30
0
41
1
10
56.088036161453
20
6.72469977918502
30
0
41
1
10
57.0297560508548
20
6.40146542654006
30
0
41
1
10
57.5000973767338
20
6.23080889896983
30
0
41
1
10
58.4399273482864
20
5.87344663885023
30
0
41
1
10
58.9092382129925
20
5.68636972789187
30
0
41
1
10
59.8484137124066
20
5.29878157333132
30
0
41
1
10
60.3185309939689
20
5.09868404258981
30
0
41
1
10
61.2594146483214
20
4.68268350450808
30
0
41
1
10
61.7306826841562
20
4.46687538370981
30
0
41
1
10
62.6716234307372
20
4.02422902307279
30
0
41
1
10
63.1416641560861
20
3.79754785291553
30
0
41
1
10
63.6113649523741
20
3.56601004006691
30
0
0
SPLINE
5
BC
100
AcDbEntity
8
1
62
256
6
ByLayer
370
13
48
1
60
0
100
AcDbSpline
70
4
71
3
72
10
73
6
40
0
40
0
40
0
40
0
40
0.5
40
0.5
40
1
40
1
40
1
40
1
41
1
10
3.99999994735063
20
-3.30696419526643
30
0
41
1
10
3.99999994735063
20
-3.31379918713969
30
0
41
1
10
4.01129556325975
20
-3.32060870834712
30
0
41
1
10
4.05481749629482
20
-3.33217736454662
30
0
41
1
10
4.0875672870157
20
-3.33716708104919
30
0
41
1
10
4.12976781932321
20
-3.34054153440013
30
0
0
SPLINE
5
BD
100
AcDbEntity
8
1
62
256
6
ByLayer
370
18
48
1
60
0
100
AcDbSpline
70
4
71
3
72
64
73
60
40
0
40
0
40
0
40
0
40
0.0212879120846135
40
0.0212879120846135
40
0.042575824169227
40
0.042575824169227
40
0.0851516483384533
40
0.0851516483384533
40
0.12772747250768
40
0.12772747250768
40
0.149015384592292
40
0.149015384592292
40
0.170303296676905
40
0.170303296676905
40
0.212879120846131
40
0.212879120846131
40
0.255454945015357
40
0.255454945015357
40
0.298030769184582
40
0.298030769184582
40
0.340606593353808
40
0.340606593353808
40
0.42575824169226
40
0.42575824169226
40
0.447046153776873
40
0.447046153776873
40
0.468334065861486
40
0.468334065861486
40
0.510909890030711
40
0.510909890030711
40
0.532197802115323
40
0.532197802115323
40
0.553485714199935
40
0.553485714199935
40
0.596061538369161
40
0.596061538369161
40
0.638637362538386
40
0.638637362538386
40
0.659925274622998
40
0.659925274622998
40
0.681213186707611
40
0.681213186707611
40
0.723789010876835
40
0.723789010876835
40
0.766364835046059
40
0.766364835046059
40
0.808940659215283
40
0.808940659215283
40
0.830228571299895
40
0.830228571299895
40
0.851516483384507
40
0.851516483384507
40
0.936668131722955
40
0.936668131722955
40
0.957956043807567
40
0.957956043807567
40
0.979243955892179
40
0.979243955892179
40
1
40
1
40
1
40
1
41
1
10
71.8432543789727
20
-8.92034160876102
30
0
41
1
10
71.4903559359287
20
-8.9291283842519
30
0
41
1
10
71.1374753319079
20
-8.93104707905474
30
0
41
1
10
70.4313945824122
20
-8.92116148813281
30
0
41
1
10
70.0779952266384
20
-8.90934036958581
30
0
41
1
10
69.0193854705768
20
-8.85346052185952
30
0
41
1
10
68.3151533050025
20
-8.789007051868
30
0
41
1
10
66.9066438238063
20
-8.60687033000724
30
0
41
1
10
66.2022921691766
20
-8.48921497812702
30
0
41
1
10
65.1432937097453
20
-8.27375889082174
30
0
41
1
10
64.7899106139855
20
-8.19544510159122
30
0
41
1
10
64.0844542571608
20
-8.02666783475854
30
0
41
1
10
63.732063673395
20
-7.93614282913015
30
0
41
1
10
62.6753122906979
20
-7.64669799227067
30
0
41
1
10
61.9713569787199
20
-7.42992089603018
30
0
41
1
10
60.5613816812895
20
-6.95162489649354
30
0
41
1
10
59.8542143924002
20
-6.68965145107467
30
0
41
1
10
58.443672983397
20
-6.12784315069709
30
0
41
1
10
57.7395771329398
20
-5.82779469192823
30
0
41
1
10
56.3306259934458
20
-5.19357305846236
30
0
41
1
10
55.6252869359266
20
-4.85928104804392
30
0
41
1
10
53.505775015736
20
-3.81329326968071
30
0
41
1
10
52.1001091491755
20
-3.06398276224945
30
0
41
1
10
50.3359149952129
20
-2.08899197397585
30
0
41
1
10
49.9824090842798
20
-1.89188635100567
30
0
41
1
10
49.27623286982
20
-1.49554329903421
30
0
41
1
10
48.9235604931284
20
-1.29629642029821
30
0
41
1
10
47.8662237240916
20
-0.696324026747931
30
0
41
1
10
47.1621116620162
20
-0.293590800320715
30
0
41
1
10
46.1048342698207
20
0.310637326438609
30
0
41
1
10
45.7521973711378
20
0.512021956368045
30
0
41
1
10
45.0461291506799
20
0.914088012406523
30
0
41
1
10
44.6925185364584
20
1.11486890679066
30
0
41
1
10
43.6336336237158
20
1.71306558172529
30
0
41
1
10
42.9291895944984
20
2.10699833086619
30
0
41
1
10
41.5200724414707
20
2.87972731453229
30
0
41
1
10
40.8153801258838
20
3.25849006485609
30
0
41
1
10
39.7556698801132
20
3.81106207222621
30
0
41
1
10
39.4022202235769
20
3.99253803733592
30
0
41
1
10
38.6965307053798
20
4.34843543517195
30
0
41
1
10
38.3440037935724
20
4.5230080419912
30
0
41
1
10
37.28681588264
20
5.0357823333467
30
0
41
1
10
36.5826006328329
20
5.36311087986059
30
0
41
1
10
35.1718184179031
20
5.9836363083416
30
0
41
1
10
34.4642743636594
20
6.27717538525908
30
0
41
1
10
33.0533021807144
20
6.822279839868
30
0
41
1
10
32.3490411860383
20
7.07440409051665
30
0
41
1
10
31.291792477646
20
7.41906121689871
30
0
41
1
10
30.9392347486142
20
7.52836403701644
30
0
41
1
10
30.2334695724539
20
7.73542051240352
30
0
41
1
10
29.8799909065959
20
7.83324170876298
30
0
41
1
10
28.1133198728167
20
8.29162204303526
30
0
41
1
10
26.7071009222407
20
8.55895138707328
30
0
41
1
10
24.9418734896959
20
8.75971910449218
30
0
41
1
10
24.5881616668672
20
8.79322442226936
30
0
41
1
10
23.8818170140503
20
8.84655365105519
30
0
41
1
10
23.5290351459913
20
8.86640414419017
30
0
41
1
10
22.8326311381021
20
8.89214994289563
30
0
41
1
10
22.4890430122726
20
8.89838349617577
30
0
41
1
10
22.1454590130588
20
8.8981389380985
30
0
0
SPLINE
5
BE
100
AcDbEntity
8
1
62
256
6
ByLayer
370
18
48
1
60
0
100
AcDbSpline
70
4
71
3
72
40
73
36
40
0
40
0
40
0
40
0
40
0.0625000000000015
40
0.0625000000000015
40
0.0937500000000022
40
0.0937500000000022
40
0.125000000000003
40
0.125000000000003
40
0.187500000000004
40
0.187500000000004
40
0.218750000000004
40
0.218750000000004
40
0.250000000000005
40
0.250000000000005
40
0.312500000000004
40
0.312500000000004
40
0.343750000000004
40
0.343750000000004
40
0.375000000000003
40
0.375000000000003
40
0.437500000000003
40
0.437500000000003
40
0.500000000000002
40
0.500000000000002
40
0.562500000000001
40
0.562500000000001
40
0.625
40
0.625
40
0.750000000000001
40
0.750000000000001
40
0.875000000000002
40
0.875000000000002
40
0.937500000000001
40
0.937500000000001
40
1
40
1
40
1
40
1
41
1
10
63.6113649523741
20
3.56601004006688
30
0
41
1
10
63.5689765691633
20
3.29789756603296
30
0
41
1
10
63.5472159962344
20
3.02153749985857
30
0
41
1
10
63.547348989187
20
2.5938934713225
30
0
41
1
10
63.5529577885492
20
2.44864978252892
30
0
41
1
10
63.5749266910768
20
2.15974049723576
30
0
41
1
10
63.5912487847023
20
2.0154153749672
30
0
41
1
10
63.6555143224054
20
1.58281125175398
30
0
41
1
10
63.7187123735988
20
1.29490241095604
30
0
41
1
10
63.8421357345887
20
0.863733779878146
30
0
41
1
10
63.8882651698366
20
0.719625178460518
30
0
41
1
10
63.988162396055
20
0.43624118733311
30
0
41
1
10
64.0420283979718
20
0.29650236727872
30
0
41
1
10
64.2143873511635
20
-0.117348779398213
30
0
41
1
10
64.3435958172706
20
-0.386118444832874
30
0
41
1
10
64.5559762760765
20
-0.780015221787551
30
0
41
1
10
64.629877129592
20
-0.909764841535832
30
0
41
1
10
64.7835381591445
20
-1.1663426745005
30
0
41
1
10
64.8634694331648
20
-1.29340320521038
30
0
41
1
10
65.1088081256055
20
-1.66631878381293
30
0
41
1
10
65.2804620514314
20
-1.90527223969732
30
0
41
1
10
65.637335311519
20
-2.36699589337445
30
0
41
1
10
65.8225191540492
20
-2.5898084320855
30
0
41
1
10
66.2049379650891
20
-3.02105675978095
30
0
41
1
10
66.4023724903756
20
-3.22925448156394
30
0
41
1
10
66.80893715528
20
-3.63169729361422
30
0
41
1
10
67.0182983570094
20
-3.82645496932631
30
0
41
1
10
67.6526414052448
20
-4.38522092850141
30
0
41
1
10
68.0866933192414
20
-4.72664499255208
30
0
41
1
10
68.9725443145828
20
-5.36004246343839
30
0
41
1
10
69.4243842731101
20
-5.6519019702076
30
0
41
1
10
70.113617336886
20
-6.05772254436528
30
0
41
1
10
70.3452822150952
20
-6.18764472747606
30
0
41
1
10
70.8122917599968
20
-6.4372357414104
30
0
41
1
10
71.0478249986664
20
-6.55697519489988
30
0
41
1
10
71.2840346910015
20
-6.67119589912471
30
0
0
SPLINE
5
BF
100
AcDbEntity
8
1
62
256
6
ByLayer
370
18
48
1
60
0
100
AcDbSpline
70
4
71
3
72
8
73
4
40
0
40
0
40
0
40
0
40
1
40
1
40
1
40
1
41
1
10
74.9999564446135
20
0.0642658923679278
30
0
41
1
10
75.0000145206217
20
0.0214203698062647
30
0
41
1
10
75.0000145155986
20
-0.0214240756091897
30
0
41
1
10
74.9999564446135
20
-0.0642658923681836
30
0
0
SPLINE
5
C0
100
AcDbEntity
8
1
62
256
6
ByLayer
370
18
48
1
60
0
100
AcDbSpline
70
4
71
3
72
8
73
4
40
0
40
0
40
0
40
0
40
1
40
1
40
1
40
1
41
1
10
74.9675064859065
20
-0.0052614641480488
30
0
41
1
10
73.6547750266832
20
-2.15022274457499
30
0
41
1
10
72.4259589533403
20
-4.37130095000089
30
0
41
1
10
71.2840346910016
20
-6.67119589912468
30
0
0
SPLINE
5
C1
100
AcDbEntity
8
1
62
256
6
ByLayer
370
18
48
1
60
0
100
AcDbSpline
70
4
71
3
72
16
73
12
40
0
40
0
40
0
40
0
40
0.126906471427524
40
0.126906471427524
40
0.608082430542054
40
0.608082430542054
40
0.728376420320686
40
0.728376420320686
40
0.848670410099318
40
0.848670410099318
40
1
40
1
40
1
40
1
41
1
10
22.3233806724102
20
-8.45177350727278
30
0
41
1
10
21.9526102256237
20
-8.45111365454181
30
0
41
1
10
21.5819167808066
20
-8.44329501237075
30
0
41
1
10
19.8050970001211
20
-8.37159999191559
30
0
41
1
10
18.3967870126023
20
-8.2120883145883
30
0
41
1
10
16.6194474032216
20
-7.88537370040174
30
0
41
1
10
16.2636130773475
20
-7.8137436129395
30
0
41
1
10
15.5545106467784
20
-7.65901429857351
30
0
41
1
10
15.2007232438284
20
-7.57582256331901
30
0
41
1
10
14.4031292409445
20
-7.37534835427226
30
0
41
1
10
13.9596395866136
20
-7.25481527870792
30
0
41
1
10
13.5166555873164
20
-7.12583301384399
30
0
0
SPLINE
5
C2
100
AcDbEntity
8
1
62
256
6
ByLayer
370
13
48
1
60
0
100
AcDbSpline
70
4
71
3
72
14
73
10
40
0
40
0
40
0
40
0
40
0.0848778193577927
40
0.0848778193577927
40
0.542438909678897
40
0.542438909678897
40
0.771219454839448
40
0.771219454839448
40
1
40
1
40
1
40
1
41
1
10
13.516655588189
20
-7.12583301409808
30
0
41
1
10
13.2553713377597
20
-7.0497556965332
30
0
41
1
10
12.9942630030788
20
-6.97073893337847
30
0
41
1
10
11.3262080544023
20
-6.44748784779449
30
0
41
1
10
9.92276611645477
20
-5.9226892394075
30
0
41
1
10
7.80455212499226
20
-5.03271532783523
30
0
41
1
10
7.09642329179144
20
-4.71876745106715
30
0
41
1
10
5.67314960901362
20
-4.06010706132946
30
0
41
1
10
4.96195453952518
20
-3.7174728533428
30
0
41
1
10
4.2502161073368
20
-3.36410877590322
30
0
0
SPLINE
5
C3
100
AcDbEntity
8
1
62
256
6
ByLayer
370
18
48
1
60
0
100
AcDbSpline
70
4
71
3
72
20
73
16
40
0
40
0
40
0
40
0
40
0.211091006717527
40
0.211091006717527
40
0.422182013435054
40
0.422182013435054
40
0.633273020152581
40
0.633273020152581
40
0.738818523511342
40
0.738818523511342
40
0.844364026870104
40
0.844364026870104
40
0.949909530228866
40
0.949909530228866
40
1
40
1
40
1
40
1
41
1
10
3.9999999473506
20
8.45466681458385
30
0
41
1
10
3.82863878095876
20
8.50511850667991
30
0
41
1
10
3.66072532824765
20
8.5528626943246
30
0
41
1
10
3.33479527498676
20
8.64172212887416
30
0
41
1
10
3.17863310543004
20
8.68232446464899
30
0
41
1
10
2.88388748216738
20
8.75452400403506
30
0
41
1
10
2.74525087305418
20
8.78614098786636
30
0
41
1
10
2.55519420373673
20
8.82514451120048
30
0
41
1
10
2.4946739622898
20
8.8367632656917
30
0
41
1
10
2.38167963156118
20
8.85659715523627
30
0
41
1
10
2.32945034623162
20
8.86477466067589
30
0
41
1
10
2.23468705060566
20
8.87731039739066
30
0
41
1
10
2.19214001432434
20
8.88166964296283
30
0
41
1
10
2.13766492821929
20
8.88495976934539
30
0
41
1
10
2.12137053771238
20
8.88553704889813
30
0
41
1
10
2.10645912309315
20
8.88560570186235
30
0
0
SPLINE
5
C4
100
AcDbEntity
8
1
62
256
6
ByLayer
370
18
48
1
60
0
100
AcDbSpline
70
4
71
3
72
24
73
20
40
0
40
0
40
0
40
0
40
0.0090670286393067
40
0.0090670286393067
40
0.108160325775376
40
0.108160325775376
40
0.207253622911446
40
0.207253622911446
40
0.306346920047516
40
0.306346920047516
40
0.355893568615551
40
0.355893568615551
40
0.405440217183586
40
0.405440217183586
40
0.603626811455724
40
0.603626811455724
40
0.801813405727862
40
0.801813405727862
40
1
40
1
40
1
40
1
41
1
10
4.47669747780461
20
8.0319746653179
30
0
41
1
10
4.52080735850467
20
8.03144244556739
30
0
41
1
10
4.5649214192029
20
8.03096035776025
30
0
41
1
10
5.09120648503077
20
8.02580713687141
30
0
41
1
10
5.57401921034474
20
8.02710407156349
30
0
41
1
10
6.53654561159573
20
8.04126377666867
30
0
41
1
10
7.01677172263675
20
8.0541044546614
30
0
41
1
10
7.97520748932735
20
8.09027320006996
30
0
41
1
10
8.45341466532611
20
8.1136134394593
30
0
41
1
10
9.16924506940759
20
8.15532070160668
30
0
41
1
10
9.40768551772152
20
8.17034098678931
30
0
41
1
10
9.88215682103916
20
8.20219811481977
30
0
41
1
10
10.1184278308874
20
8.21904792055219
30
0
41
1
10
11.2950525230928
20
8.30714784004323
30
0
41
1
10
12.2211454093666
20
8.39018402351803
30
0
41
1
10
14.0466641881896
20
8.55730784536954
30
0
41
1
10
14.9460271321524
20
8.641300147582
30
0
41
1
10
16.72337412265
20
8.78284287789523
30
0
41
1
10
17.6013308976334
20
8.8402502363476
30
0
41
1
10
18.4723071684564
20
8.8712426742932
30
0
0
SPLINE
5
C5
100
AcDbEntity
8
1
62
256
6
ByLayer
370
18
48
1
60
0
100
AcDbSpline
70
4
71
3
72
8
73
4
40
0
40
0
40
0
40
0
40
1
40
1
40
1
40
1
41
1
10
18.4723071684564
20
-8.8712426742932
30
0
41
1
10
18.8621604380616
20
-8.88814650516056
30
0
41
1
10
19.2515316124933
20
-8.89649877873245
30
0
41
1
10
19.6401877262433
20
-8.89658937964833
30
0
0
SPLINE
5
C6
100
AcDbEntity
8
1
62
256
6
ByLayer
370
18
48
1
60
0
100
AcDbSpline
70
4
71
3
72
34
73
30
40
0
40
0
40
0
40
0
40
0.0234385091717209
40
0.0234385091717209
40
0.131945341485976
40
0.131945341485976
40
0.186198757643103
40
0.186198757643103
40
0.24045217380023
40
0.24045217380023
40
0.294705589957357
40
0.294705589957357
40
0.348959006114483
40
0.348959006114483
40
0.457465838428735
40
0.457465838428735
40
0.511719254585861
40
0.511719254585861
40
0.565972670742988
40
0.565972670742988
40
0.674479503057241
40
0.674479503057241
40
0.782986335371494
40
0.782986335371494
40
0.891493167685747
40
0.891493167685747
40
0.945746583842874
40
0.945746583842874
40
1
40
1
40
1
40
1
41
1
10
56.8095871038947
20
6.47987935121304
30
0
41
1
10
56.9301378948713
20
6.52740605236272
30
0
41
1
10
57.0507387394714
20
6.57432135550621
30
0
41
1
10
57.7301138748335
20
6.83475609920666
30
0
41
1
10
58.2900039343103
20
7.03579792464933
30
0
41
1
10
59.1304005889258
20
7.31875516636336
30
0
41
1
10
59.4105424231626
20
7.41002869666113
30
0
41
1
10
59.9724271638275
20
7.584805315897
30
0
41
1
10
60.2540437626849
20
7.66845445681295
30
0
41
1
10
60.8184580822962
20
7.82842685116023
30
0
41
1
10
61.1015550965599
20
7.90483244505339
30
0
41
1
10
61.6673711751329
20
8.04999524087958
30
0
41
1
10
61.9493801783996
20
8.11871742903477
30
0
41
1
10
62.7936036012554
20
8.31259647776389
30
0
41
1
10
63.3553867635137
20
8.42456538097753
30
0
41
1
10
64.1959342156878
20
8.56782848648811
30
0
41
1
10
64.4757604959131
20
8.61145698057672
30
0
41
1
10
65.0343629593381
20
8.69057436287227
30
0
41
1
10
65.3132098086061
20
8.72600456766645
30
0
41
1
10
66.1504699846445
20
8.81919101460679
30
0
41
1
10
66.7090209386677
20
8.86421329725715
30
0
41
1
10
67.8254583579438
20
8.92055300741237
30
0
41
1
10
68.3828743489676
20
8.93170001531726
30
0
41
1
10
69.5023606927673
20
8.91938493844745
30
0
41
1
10
70.0636951864374
20
8.8961570963242
30
0
41
1
10
70.906786902826
20
8.8348085451658
30
0
41
1
10
71.1881376016588
20
8.80992812812045
30
0
41
1
10
71.75267887848
20
8.75160523457822
30
0
41
1
10
72.0359666051723
20
8.71810236305762
30
0
41
1
10
72.3190083690229
20
8.68036449225713
30
0
0
SPLINE
5
C7
100
AcDbEntity
8
1
62
256
6
ByLayer
370
18
48
1
60
0
100
AcDbSpline
70
4
71
3
72
8
73
4
40
0
40
0
40
0
40
0
40
1
40
1
40
1
40
1
41
1
10
74.8835927907974
20
-2.01092777509459
30
0
41
1
10
74.9230505516107
20
-1.41760269058133
30
0
41
1
10
74.9517473238024
20
-0.824825928963804
30
0
41
1
10
74.9696665809417
20
-0.232598332341155
30
0
0
SPLINE
5
C8
100
AcDbEntity
8
1
62
256
6
ByLayer
370
13
48
1
60
0
100
AcDbSpline
70
4
71
3
72
10
73
6
40
0
40
0
40
0
40
0
40
0.128136547750889
40
0.128136547750889
40
1
40
1
40
1
40
1
41
1
10
4.12623950426115
20
-3.58605552694007
30
0
41
1
10
4.12638817152819
20
-3.58047372290031
30
0
41
1
10
4.12653709887098
20
-3.57489168520991
30
0
41
1
10
4.12770138559512
20
-3.53132665131057
30
0
41
1
10
4.12872853932936
20
-3.4933329908514
30
0
41
1
10
4.12976781932321
20
-3.45532785705868
30
0
0
SPLINE
5
C9
100
AcDbEntity
8
1
62
256
6
ByLayer
370
18
48
1
60
0
100
AcDbSpline
70
4
71
3
72
68
73
64
40
0
40
0
40
0
40
0
40
0.0070061482877174
40
0.0070061482877174
40
0.0437836983511349
40
0.0437836983511349
40
0.0805612484145524
40
0.0805612484145524
40
0.11733879847797
40
0.11733879847797
40
0.154116348541387
40
0.154116348541387
40
0.190893898604805
40
0.190893898604805
40
0.227671448668223
40
0.227671448668223
40
0.26444899873164
40
0.26444899873164
40
0.301226548795058
40
0.301226548795058
40
0.338004098858475
40
0.338004098858475
40
0.374781648921893
40
0.374781648921893
40
0.41155919898531
40
0.41155919898531
40
0.448336749048728
40
0.448336749048728
40
0.485114299112145
40
0.485114299112145
40
0.503503074143854
40
0.503503074143854
40
0.521891849175563
40
0.521891849175563
40
0.558669399238982
40
0.558669399238982
40
0.5954469493024
40
0.5954469493024
40
0.613835724334109
40
0.613835724334109
40
0.632224499365818
40
0.632224499365818
40
0.669002049429235
40
0.669002049429235
40
0.705779599492653
40
0.705779599492653
40
0.724168374524362
40
0.724168374524362
40
0.74255714955607
40
0.74255714955607
40
0.779334699619489
40
0.779334699619489
40
0.816112249682907
40
0.816112249682907
40
0.852889799746325
40
0.852889799746325
40
0.889667349809743
40
0.889667349809743
40
0.908056124841453
40
0.908056124841453
40
0.926444899873163
40
0.926444899873163
40
1
40
1
40
1
40
1
41
1
10
56.8289400955867
20
-6.46938934861313
30
0
41
1
10
56.7393403673945
20
-6.50080718574918
30
0
41
1
10
56.6497262913966
20
-6.53190314651954
30
0
41
1
10
56.089605674145
20
-6.72417697795225
30
0
41
1
10
55.618227024304
20
-6.87564177944995
30
0
41
1
10
54.6770499499555
20
-7.16043659898827
30
0
41
1
10
54.2068873042735
20
-7.29402623800425
30
0
41
1
10
53.2674653316178
20
-7.54039455826214
30
0
41
1
10
52.7982477658309
20
-7.65406815344591
30
0
41
1
10
51.8582660726786
20
-7.85818127840767
30
0
41
1
10
51.3874904565057
20
-7.94766296417711
30
0
41
1
10
50.4454656907846
20
-8.10889552874946
30
0
41
1
10
49.9745524270953
20
-8.17965480226539
30
0
41
1
10
49.033957044055
20
-8.29825204221714
30
0
41
1
10
48.5639779568922
20
-8.34637451432124
30
0
41
1
10
47.6244101987704
20
-8.41707135840372
30
0
41
1
10
47.1548451154208
20
-8.43869940441607
30
0
41
1
10
46.2144916243883
20
-8.46290724156052
30
0
41
1
10
45.7438321359134
20
-8.46487991931249
30
0
41
1
10
44.8014883960864
20
-8.4463176325836
30
0
41
1
10
44.3312602095753
20
-8.42593486708546
30
0
41
1
10
43.3912946583229
20
-8.3602018859373
30
0
41
1
10
42.9213457212297
20
-8.31409889592157
30
0
41
1
10
41.9819181067476
20
-8.2024773867571
30
0
41
1
10
41.5125439504006
20
-8.13438792193045
30
0
41
1
10
40.5722536220761
20
-7.97683640022487
30
0
41
1
10
40.1012664442336
20
-7.8883775586705
30
0
41
1
10
39.1591043088081
20
-7.69014914788988
30
0
41
1
10
38.6892760217382
20
-7.58033526030997
30
0
41
1
10
37.984702858061
20
-7.40022398567831
30
0
41
1
10
37.7498764701798
20
-7.3376686935336
30
0
41
1
10
37.2801143311857
20
-7.20665371865479
30
0
41
1
10
37.045144554701
20
-7.13804044955779
30
0
41
1
10
36.3403751422316
20
-6.92654391616179
30
0
41
1
10
35.8709856631207
20
-6.77702929318213
30
0
41
1
10
34.9309606425881
20
-6.45988819879753
30
0
41
1
10
34.4596623228447
20
-6.29241108669905
30
0
41
1
10
33.7534541649717
20
-6.0284401230308
30
0
41
1
10
33.5182584077018
20
-5.93835647977755
30
0
41
1
10
33.0482073937567
20
-5.75313514723422
30
0
41
1
10
32.8133793056452
20
-5.65821733372471
30
0
41
1
10
32.1089008014166
20
-5.36931072187298
30
0
41
1
10
31.6392926863707
20
-5.17046138383986
30
0
41
1
10
30.6998750933447
20
-4.75924861256107
30
0
41
1
10
30.230318616502
20
-4.54646235122934
30
0
41
1
10
29.5251147996374
20
-4.21754926303527
30
0
41
1
10
29.2898316259056
20
-4.10644423231471
30
0
41
1
10
28.8185364515738
20
-3.88097185732801
30
0
41
1
10
28.5829371224529
20
-3.76692391571029
30
0
41
1
10
27.8767210717585
20
-3.42188342348601
30
0
41
1
10
27.4067452012437
20
-3.18730351433768
30
0
41
1
10
26.4673398807796
20
-2.70907265205983
30
0
41
1
10
25.9974962054097
20
-2.46660950900809
30
0
41
1
10
25.0572729062699
20
-1.97572305392808
30
0
41
1
10
24.5869659076231
20
-1.72692228035601
30
0
41
1
10
23.6455024070066
20
-1.22347218379528
30
0
41
1
10
23.1742516952371
20
-0.970029926733275
30
0
41
1
10
22.468506749375
20
-0.589822303646542
30
0
41
1
10
22.2333306593366
20
-0.463003485893495
30
0
41
1
10
21.7632831974552
20
-0.208869785125955
30
0
41
1
10
21.5284253768759
20
-0.0815339383807157
30
0
41
1
10
20.3546057227253
20
0.555797979263616
30
0
41
1
10
19.4151572887984
20
1.06423299389658
30
0
41
1
10
18.472307168457
20
1.56553745414681
30
0
0
SPLINE
5
CA
100
AcDbEntity
8
1
62
256
6
ByLayer
370
13
48
1
60
0
100
AcDbSpline
70
4
71
3
72
36
73
32
40
0
40
0
40
0
40
0
40
0.0625
40
0.0625
40
0.09375
40
0.09375
40
0.125
40
0.125
40
0.25
40
0.25
40
0.3125
40
0.3125
40
0.375
40
0.375
40
0.5
40
0.5
40
0.53125
40
0.53125
40
0.5625
40
0.5625
40
0.625
40
0.625
40
0.75
40
0.75
40
0.8125
40
0.8125
40
0.84375
40
0.84375
40
0.875
40
0.875
40
1
40
1
40
1
40
1
41
1
10
4.2502161073368
20
-3.36410877590322
30
0
41
1
10
4.25022270195637
20
-3.08811460011543
30
0
41
1
10
4.25022686027782
20
-2.80713042537332
30
0
41
1
10
4.25023028690003
20
-2.37826951082408
30
0
41
1
10
4.25023095999109
20
-2.23408244313563
30
0
41
1
10
4.25023150353402
20
-1.94322647456372
30
0
41
1
10
4.25023137206594
20
-1.79623274756844
30
0
41
1
10
4.25022907213511
20
-1.06104930979134
30
0
41
1
10
4.25022208203313
20
-0.469670123628674
30
0
41
1
10
4.25021077023547
20
0.422124017293271
30
0
41
1
10
4.25020684410353
20
0.720472167474298
30
0
41
1
10
4.25019976024316
20
1.31763562846763
30
0
41
1
10
4.25019666604643
20
1.61162076568291
30
0
41
1
10
4.25019003904075
20
2.48027523299248
30
0
41
1
10
4.2501892028163
20
3.04179062431461
30
0
41
1
10
4.25019608270577
20
3.72104458209142
30
0
41
1
10
4.25019785365023
20
3.85570276879645
30
0
41
1
10
4.25020220202367
20
4.12016868699371
30
0
41
1
10
4.25020478215003
20
4.25030150960066
30
0
41
1
10
4.25021378528623
20
4.63443314000617
30
0
41
1
10
4.25022148269778
20
4.88237749279466
30
0
41
1
10
4.25024980419931
20
5.59962820062734
30
0
41
1
10
4.25027522980599
20
6.030786052503
30
0
41
1
10
4.25032121631355
20
6.60964260414556
30
0
41
1
10
4.25033783873403
20
6.79118516055888
30
0
41
1
10
4.25036431146043
20
7.04583365585091
30
0
41
1
10
4.2503733884061
20
7.12770245502685
30
0
41
1
10
4.25039173889132
20
7.2835774572774
30
0
41
1
10
4.25040103882534
20
7.35784648843187
30
0
41
1
10
4.25044789009004
20
7.7111551257413
30
0
41
1
10
4.25048657981426
20
7.93668733010119
30
0
41
1
10
4.250522433627
20
8.10411812138111
30
0
0
SPLINE
5
CB
100
AcDbEntity
8
1
62
256
6
ByLayer
370
18
48
1
60
0
100
AcDbSpline
70
4
71
3
72
16
73
12
40
0
40
0
40
0
40
0
40
0.341283456397247
40
0.341283456397247
40
0.427076182871678
40
0.427076182871678
40
0.51286890934611
40
0.51286890934611
40
0.684454362294976
40
0.684454362294976
40
1
40
1
40
1
40
1
41
1
10
46.6167998583227
20
0.0172194771029126
30
0
41
1
10
48.0151025722885
20
-0.751023782257505
30
0
41
1
10
49.415359160358
20
-1.52061941576838
30
0
41
1
10
51.1847062539567
20
-2.45822028054926
30
0
41
1
10
51.540754742484
20
-2.64508173730923
30
0
41
1
10
52.2500900136952
20
-3.01304971993198
30
0
41
1
10
52.6039395588252
20
-3.19452033673929
30
0
41
1
10
53.6637117372729
20
-3.73026419185965
30
0
41
1
10
54.3678898210296
20
-4.07583544961096
30
0
41
1
10
56.3646904240874
20
-5.01750990897588
30
0
41
1
10
57.6550484986661
20
-5.58101041497821
30
0
41
1
10
58.9516716128159
20
-6.08380573644081
30
0
0
SPLINE
5
CC
100
AcDbEntity
8
1
62
256
6
ByLayer
370
13
48
1
60
0
100
AcDbSpline
70
4
71
3
72
18
73
14
40
0
40
0
40
0
40
0
40
0.0261322005773194
40
0.0261322005773194
40
0.188443500481099
40
0.188443500481099
40
0.269599150432988
40
0.269599150432988
40
0.350754800384878
40
0.350754800384878
40
0.675377400192439
40
0.675377400192439
40
1
40
1
40
1
40
1
41
1
10
58.9516706800012
20
-6.08380537472055
30
0
41
1
10
59.0651872526465
20
-6.12782402936966
30
0
41
1
10
59.1787518444659
20
-6.17137740144935
30
0
41
1
10
59.9980759483843
20
-6.48202371804078
30
0
41
1
10
60.7058544685098
20
-6.73127174867599
30
0
41
1
10
61.772888507777
20
-7.07454715724816
30
0
41
1
10
62.1281999584643
20
-7.1834318376103
30
0
41
1
10
62.8366340813604
20
-7.38933647845832
30
0
41
1
10
63.190043833536
20
-7.48645428539348
30
0
41
1
10
64.9540181823005
20
-7.94215866071829
30
0
41
1
10
66.3554374598447
20
-8.21068481756106
30
0
41
1
10
69.1621613115284
20
-8.54536086596806
30
0
41
1
10
70.567601718891
20
-8.61162313271612
30
0
41
1
10
71.9865095461923
20
-8.57010204785689
30
0
0
SPLINE
5
CD
100
AcDbEntity
8
1
62
256
6
ByLayer
370
18
48
1
60
0
100
AcDbSpline
70
4
71
3
72
16
73
12
40
0
40
0
40
0
40
0
40
0.399281303603971
40
0.399281303603971
40
0.798562607207941
40
0.798562607207941
40
0.898382933108933
40
0.898382933108933
40
0.998203259009924
40
0.998203259009924
40
1
40
1
40
1
40
1
41
1
10
71.9951261158118
20
-8.47578705934114
30
0
41
1
10
70.5770761613101
20
-8.50690176287435
30
0
41
1
10
69.1722679432244
20
-8.4317781739708
30
0
41
1
10
66.3666580590603
20
-8.08232290274498
30
0
41
1
10
64.9656569812044
20
-7.80795758592839
30
0
41
1
10
63.2024670387316
20
-7.34715253000675
30
0
41
1
10
62.8492225558737
20
-7.24912732397939
30
0
41
1
10
62.141138069407
20
-7.04164566949774
30
0
41
1
10
61.7859351985309
20
-6.93206436962336
30
0
41
1
10
61.4241792019158
20
-6.81505915675521
30
0
41
1
10
61.4177830988109
20
-6.81298871623528
30
0
41
1
10
61.4113872760029
20
-6.81091666299946
30
0
0
SPLINE
5
CE
100
AcDbEntity
8
1
62
256
6
ByLayer
370
13
48
1
60
0
100
AcDbSpline
70
4
71
3
72
20
73
16
40
0
40
0
40
0
40
0
40
0.113166636642963
40
0.113166636642963
40
0.341555357740284
40
0.341555357740284
40
0.455749718288944
40
0.455749718288944
40
0.512846898563274
40
0.512846898563274
40
0.569944078837604
40
0.569944078837604
40
0.798332799934922
40
0.798332799934922
40
1
40
1
40
1
40
1
41
1
10
61.4113874834247
20
-6.81091673019785
30
0
41
1
10
60.7071264187482
20
-6.58275744001841
30
0
41
1
10
60.0062638982017
20
-6.33504429514053
30
0
41
1
10
57.8969406386139
20
-5.53438989040606
30
0
41
1
10
56.4946277549633
20
-4.92751301150986
30
0
41
1
10
54.3856383878228
20
-3.93735803543405
30
0
41
1
10
53.6818127295944
20
-3.59386930626906
30
0
41
1
10
52.6225996669493
20
-3.06190270062666
30
0
41
1
10
52.2689399363488
20
-2.88180483480926
30
0
41
1
10
51.5599922707247
20
-2.51682233086842
30
0
41
1
10
51.2041448971496
20
-2.33156444730625
30
0
41
1
10
49.4284868615
20
-1.39854076348578
30
0
41
1
10
48.021421233645
20
-0.632902643767295
30
0
41
1
10
45.3752998982946
20
0.803804245920617
30
0
41
1
10
44.1356653233915
20
1.47510256350483
30
0
41
1
10
42.8894768931014
20
2.12943265838089
30
0
0
SPLINE
5
CF
100
AcDbEntity
8
1
62
256
6
ByLayer
370
18
48
1
60
0
100
AcDbSpline
70
4
71
3
72
14
73
10
40
0
40
0
40
0
40
0
40
0.25
40
0.25
40
0.5
40
0.5
40
0.75
40
0.75
40
1
40
1
40
1
40
1
41
1
10
71.9951261156248
20
-8.47578705934524
30
0
41
1
10
71.9985896838629
20
-8.47521213794201
30
0
41
1
10
72.0014289801654
20
-8.47629189662257
30
0
41
1
10
72.0054399360058
20
-8.48285970779463
30
0
41
1
10
72.0065604322234
20
-8.48842250117434
30
0
41
1
10
72.0058468456862
20
-8.50522234594024
30
0
41
1
10
72.0039240586551
20
-8.51653164236669
30
0
41
1
10
71.9969333930563
20
-8.54244622198922
30
0
41
1
10
71.9919707678094
20
-8.5566924261507
30
0
41
1
10
71.9865095463872
20
-8.57010204785121
30
0
0
SPLINE
5
D0
100
AcDbEntity
8
1
62
256
6
ByLayer
370
18
48
1
60
0
100
AcDbSpline
70
4
71
3
72
8
73
4
40
0
40
0
40
0
40
0
40
1
40
1
40
1
40
1
41
1
10
71.8432543789726
20
8.92034160876099
30
0
41
1
10
71.6110554822466
20
8.92612310090126
30
0
41
1
10
71.3788440133216
20
8.92893167836993
30
0
41
1
10
71.1465693595829
20
8.92876766045927
30
0
0
SPLINE
5
D1
100
AcDbEntity
8
1
62
256
6
ByLayer
370
18
48
1
60
0
100
AcDbSpline
70
4
71
3
72
28
73
24
40
0
40
0
40
0
40
0
40
0.0752735724401485
40
0.0752735724401485
40
0.121509893818141
40
0.121509893818141
40
0.167746215196133
40
0.167746215196133
40
0.260218857952118
40
0.260218857952118
40
0.352691500708103
40
0.352691500708103
40
0.445164143464088
40
0.445164143464088
40
0.537636786220073
40
0.537636786220073
40
0.630109428976058
40
0.630109428976058
40
0.722582071732043
40
0.722582071732043
40
0.815054714488029
40
0.815054714488029
40
1
40
1
40
1
40
1
41
1
10
27.0166815081307
20
-8.47099479879412
30
0
41
1
10
26.4429514934276
20
-8.57122705924084
30
0
41
1
10
25.8689920082271
20
-8.65429406986763
30
0
41
1
10
24.9406874557284
20
-8.7598413357608
30
0
41
1
10
24.5870145425736
20
-8.7933235880333
30
0
41
1
10
23.8809991320059
20
-8.84660280884776
30
0
41
1
10
23.5283349387598
20
-8.86643811620652
30
0
41
1
10
22.4707279072071
20
-8.90551317865558
30
0
41
1
10
21.7663504757607
20
-8.9043303514222
30
0
41
1
10
20.3554446832881
20
-8.84738518424552
30
0
41
1
10
19.6477232955455
20
-8.79146252997833
30
0
41
1
10
18.2360397975234
20
-8.62631708095591
30
0
41
1
10
17.5315412594855
20
-8.51708773964324
30
0
41
1
10
16.121612983911
20
-8.24718099721943
30
0
41
1
10
15.4158918791204
20
-8.08642027100444
30
0
41
1
10
14.0018509791394
20
-7.7154822844488
30
0
41
1
10
13.2967004805665
20
-7.50623283528501
30
0
41
1
10
11.887010884447
20
-7.04351623512164
30
0
41
1
10
11.1826450165986
20
-6.78985768614263
30
0
41
1
10
9.77126554226697
20
-6.24173386075373
30
0
41
1
10
9.06336473634337
20
-5.9468376818599
30
0
41
1
10
6.94661970658478
20
-5.01320171349781
30
0
41
1
10
5.54042581779359
20
-4.32363854746882
30
0
41
1
10
4.12623950425947
20
-3.58605552692964
30
0
0
SPLINE
5
D2
100
AcDbEntity
8
1
62
256
6
ByLayer
370
18
48
1
60
0
100
AcDbSpline
70
4
71
3
72
20
73
16
40
0
40
0
40
0
40
0
40
0.204234839129028
40
0.204234839129028
40
0.311827128112926
40
0.311827128112926
40
0.419419417096824
40
0.419419417096824
40
0.634603995064619
40
0.634603995064619
40
0.849788573032415
40
0.849788573032415
40
0.957380862016312
40
0.957380862016312
40
1
40
1
40
1
40
1
41
1
10
18.4723071684564
20
8.87124267430391
30
0
41
1
10
18.4723071684565
20
8.34567885693727
30
0
41
1
10
18.472307168457
20
7.82154391612593
30
0
41
1
10
18.472307168457
20
7.02335795545096
30
0
41
1
10
18.472307168457
20
6.74833089877959
30
0
41
1
10
18.472307168457
20
6.19903181988917
30
0
41
1
10
18.472307168457
20
5.92424508395157
30
0
41
1
10
18.472307168457
20
5.11567219075889
30
0
41
1
10
18.472307168457
20
4.59270878547321
30
0
41
1
10
18.472307168457
20
3.57665956684036
30
0
41
1
10
18.472307168457
20
3.08358920647458
30
0
41
1
10
18.472307168457
20
2.36625185786801
30
0
41
1
10
18.472307168457
20
2.13068652883666
30
0
41
1
10
18.472307168457
20
1.81012208199019
30
0
41
1
10
18.472307168457
20
1.71998811096009
30
0
41
1
10
18.472307168457
20
1.63070767432473
30
0
0
SPLINE
5
D3
100
AcDbEntity
8
1
62
256
6
ByLayer
370
18
48
1
60
0
100
AcDbSpline
70
4
71
3
72
8
73
4
40
0
40
0
40
0
40
0
40
1
40
1
40
1
40
1
41
1
10
74.8835927907975
20
2.0109277750943
30
0
41
1
10
74.923054257026
20
1.41754697237181
30
0
41
1
10
74.9517490071159
20
0.824770295813011
30
0
41
1
10
74.9696665809418
20
0.232598332341212
30
0
0
SPLINE
5
D4
100
AcDbEntity
8
1
62
256
6
ByLayer
370
18
48
1
60
0
100
AcDbSpline
70
4
71
3
72
8
73
4
40
0
40
0
40
0
40
0
40
1
40
1
40
1
40
1
41
1
10
74.9999564446135
20
0.0642658923678994
30
0
41
1
10
74.9908596072643
20
0.0388405346682532
30
0
41
1
10
74.9793059703738
20
0.0140185166382025
30
0
41
1
10
74.9675064859065
20
-0.0052614641480488
30
0
0
SPLINE
5
D5
100
AcDbEntity
8
1
62
256
6
ByLayer
370
18
48
1
60
0
100
AcDbSpline
70
4
71
3
72
18
73
14
40
0
40
0
40
0
40
0
40
0.25
40
0.25
40
0.375
40
0.375
40
0.5
40
0.5
40
0.75
40
0.75
40
0.875
40
0.875
40
1
40
1
40
1
40
1
41
1
10
71.2840346910016
20
-6.67119589912465
30
0
41
1
10
71.2826974853397
20
-6.98277878722246
30
0
41
1
10
71.2959937072779
20
-7.25584752539265
30
0
41
1
10
71.3385592638945
20
-7.6087084626582
30
0
41
1
10
71.3565475777505
20
-7.71681646244923
30
0
41
1
10
71.4006125130669
20
-7.91349641099362
30
0
41
1
10
71.426469019273
20
-8.00094155403352
30
0
41
1
10
71.5150211965731
20
-8.22985852879378
30
0
41
1
10
71.5888098871047
20
-8.33908692032233
30
0
41
1
10
71.7234241734441
20
-8.43912552134356
30
0
41
1
10
71.7725038778273
20
-8.46179834753528
30
0
41
1
10
71.8782008662901
20
-8.48509520237849
30
0
41
1
10
71.9347475603665
20
-8.48580936043501
30
0
41
1
10
71.9951261156583
20
-8.47578705933969
30
0
0
SPLINE
5
D6
100
AcDbEntity
8
1
62
256
6
ByLayer
370
18
48
1
60
0
100
AcDbSpline
70
4
71
3
72
30
73
26
40
0
40
0
40
0
40
0
40
0.124999999999999
40
0.124999999999999
40
0.249999999999998
40
0.249999999999998
40
0.374999999999998
40
0.374999999999998
40
0.437499999999998
40
0.437499999999998
40
0.499999999999998
40
0.499999999999998
40
0.624999999999999
40
0.624999999999999
40
0.6875
40
0.6875
40
0.75
40
0.75
40
0.8125
40
0.8125
40
0.875
40
0.875
40
0.9375
40
0.9375
40
1
40
1
40
1
40
1
41
1
10
18.472307168457
20
1.56553745414681
30
0
41
1
10
17.8399944913691
20
1.88921305111549
30
0
41
1
10
17.2148959566419
20
2.21989562809483
30
0
41
1
10
15.9731106092636
20
2.88248277585592
30
0
41
1
10
15.3563948194241
20
3.21481864557285
30
0
41
1
10
14.1263806102306
20
3.87050220255676
30
0
41
1
10
13.5170309574055
20
4.19153237783797
30
0
41
1
10
12.6086166777044
20
4.65574028792864
30
0
41
1
10
12.3067827081919
20
4.80732564501167
30
0
41
1
10
11.7045925575033
20
5.10520149709592
30
0
41
1
10
11.4042348534368
20
5.25155802595231
30
0
41
1
10
10.5051997682177
20
5.68143681831847
30
0
41
1
10
9.90844861446465
20
5.95599888269885
30
0
41
1
10
9.01775480588046
20
6.34677226834594
30
0
41
1
10
8.72161702245464
20
6.4735069609049
30
0
41
1
10
8.13128805388538
20
6.71922833974176
30
0
41
1
10
7.83709704416816
20
6.8382399957172
30
0
41
1
10
7.25117875655843
20
7.06959419452821
30
0
41
1
10
6.96090414459533
20
7.18103165256139
30
0
41
1
10
6.38908666823846
20
7.39411611247934
30
0
41
1
10
6.1072143359774
20
7.49595181151344
30
0
41
1
10
5.55391560734736
20
7.68939167286314
30
0
41
1
10
5.28246550270583
20
7.78098052061358
30
0
41
1
10
4.75400122445501
20
7.95221579807401
30
0
41
1
10
4.49690617254393
20
8.03190079646313
30
0
41
1
10
4.25052243339266
20
8.1041181214498
30
0
0
SPLINE
5
D7
100
AcDbEntity
8
1
62
256
6
ByLayer
370
18
48
1
60
0
100
AcDbSpline
70
4
71
3
72
8
73
4
40
0
40
0
40
0
40
0
40
1
40
1
40
1
40
1
41
1
10
3.9999999473506
20
-8.45466681458385
30
0
41
1
10
3.9999999473506
20
-8.41211133127507
30
0
41
1
10
3.9999999473506
20
-8.37110198405585
30
0
41
1
10
3.9999999473506
20
-8.33164838161443
30
0
0
SPLINE
5
D8
100
AcDbEntity
8
1
62
256
6
ByLayer
370
18
48
1
60
0
100
AcDbSpline
70
4
71
3
72
8
73
4
40
0
40
0
40
0
40
0
40
1
40
1
40
1
40
1
41
1
10
71.9865095463514
20
-8.57010204793903
30
0
41
1
10
71.9388606659447
20
-8.6871003183461
30
0
41
1
10
71.8911057014913
20
-8.80384510637421
30
0
41
1
10
71.8432543789727
20
-8.92034160876102
30
0
0
SPLINE
5
D9
100
AcDbEntity
8
1
62
256
6
ByLayer
370
18
48
1
60
0
100
AcDbSpline
70
4
71
3
72
14
73
10
40
0
40
0
40
0
40
0
40
0.25
40
0.25
40
0.5
40
0.5
40
0.75
40
0.75
40
1
40
1
40
1
40
1
41
1
10
72.3190083690126
20
8.68036449228671
30
0
41
1
10
72.5148246006602
20
8.1208203325119
30
0
41
1
10
72.7162011289547
20
7.56189075734841
30
0
41
1
10
73.1282932669671
20
6.44541749147496
30
0
41
1
10
73.3390273591454
20
5.88787395205057
30
0
41
1
10
73.7688108012757
20
4.77429650498121
30
0
41
1
10
73.9879704288527
20
4.21794099888473
30
0
41
1
10
74.4315730379822
20
3.11111940205606
30
0
41
1
10
74.6562437841638
20
2.56003466156196
30
0
41
1
10
74.8835927907973
20
2.01092777509456
30
0
0
SPLINE
5
DA
100
AcDbEntity
8
1
62
256
6
ByLayer
370
18
48
1
60
0
100
AcDbSpline
70
4
71
3
72
14
73
10
40
0
40
0
40
0
40
0
40
0.25
40
0.25
40
0.5
40
0.5
40
0.75
40
0.75
40
1
40
1
40
1
40
1
41
1
10
71.8673170869791
20
1.95723268397185
30
0
41
1
10
71.8662429404484
20
1.97733843458189
30
0
41
1
10
71.8705608876032
20
1.99769363051911
30
0
41
1
10
71.8907742564148
20
2.0330096858564
30
0
41
1
10
71.9066451213421
20
2.04778045346075
30
0
41
1
10
71.9423594980572
20
2.06877601554345
30
0
41
1
10
71.9624846182369
20
2.07557758487988
30
0
41
1
10
72.0029841197521
20
2.08358708835161
30
0
41
1
10
72.0237624227242
20
2.08493141534163
30
0
41
1
10
72.0445037092116
20
2.08429649634832
30
0
0
SPLINE
5
DB
100
AcDbEntity
8
1
62
256
6
ByLayer
370
18
48
1
60
0
100
AcDbSpline
70
4
71
3
72
12
73
8
40
0
40
0
40
0
40
0
40
0.5
40
0.5
40
0.75
40
0.75
40
1
40
1
40
1
40
1
41
1
10
72.3190083690205
20
8.68036449225897
30
0
41
1
10
72.2312641673717
20
8.74634555072623
30
0
41
1
10
72.1474818804913
20
8.7999831127203
30
0
41
1
10
72.0277485717245
20
8.86065381089585
30
0
41
1
10
71.9889296252537
20
8.87750368088103
30
0
41
1
10
71.9141416902881
20
8.90413090354571
30
0
41
1
10
71.878062572289
20
8.91396660323781
30
0
41
1
10
71.8432543789726
20
8.92034160876099
30
0
0
SPLINE
5
DC
100
AcDbEntity
8
1
62
256
6
ByLayer
370
18
48
1
60
0
100
AcDbSpline
70
4
71
3
72
20
73
16
40
0
40
0
40
0
40
0
40
0.125
40
0.125
40
0.25
40
0.25
40
0.375
40
0.375
40
0.5
40
0.5
40
0.625
40
0.625
40
0.75
40
0.75
40
1
40
1
40
1
40
1
41
1
10
4.250522433627
20
8.10411812138113
30
0
41
1
10
4.23687521323416
20
8.10811824636383
30
0
41
1
10
4.22270921244552
20
8.11292300891319
30
0
41
1
10
4.19289938275631
20
8.12476177352082
30
0
41
1
10
4.17704758001599
20
8.13189935344684
30
0
41
1
10
4.14463140767606
20
8.14890745741457
30
0
41
1
10
4.12769387636291
20
8.15901318616872
30
0
41
1
10
4.09531963604869
20
8.18162833802307
30
0
41
1
10
4.07990833247308
20
8.19415453973284
30
0
41
1
10
4.05339956474751
20
8.21946156224115
30
0
41
1
10
4.04249363185914
20
8.23198350363262
30
0
41
1
10
4.02514055146014
20
8.25550607015157
30
0
41
1
10
4.01864775309977
20
8.26647212791875
30
0
41
1
10
4.00366288847584
20
8.29781921954554
30
0
41
1
10
3.99999994735069
20
8.31560676036219
30
0
41
1
10
3.9999999473506
20
8.33164838161392
30
0
0
SPLINE
5
DD
100
AcDbEntity
8
1
62
256
6
ByLayer
370
18
48
1
60
0
100
AcDbSpline
70
4
71
3
72
10
73
6
40
0
40
0
40
0
40
0
40
0.5
40
0.5
40
1
40
1
40
1
40
1
41
1
10
3.9999999473506
20
-3.30696419526643
30
0
41
1
10
3.9999999473506
20
-3.33590604583449
30
0
41
1
10
4.01131148192474
20
-3.36547210111738
30
0
41
1
10
4.0548319719033
20
-3.41687770566577
30
0
41
1
10
4.08756191442291
20
-3.43969996718437
30
0
41
1
10
4.12976781932321
20
-3.45532785705868
30
0
0
SPLINE
5
DE
100
AcDbEntity
8
1
62
256
6
ByLayer
370
18
48
1
60
0
100
AcDbSpline
70
4
71
3
72
37
73
33
40
0
40
0
40
0
40
0
40
0.0377318373113603
40
0.0735672519857905
40
0.104338151950322
40
0.131284390604151
40
0.156269890122122
40
0.179268382059889
40
0.204297707940567
40
0.228475535915208
40
0.256024746660096
40
0.286232397384024
40
0.324313485728431
40
0.362205725675371
40
0.404506797397496
40
0.452737029295913
40
0.505853898993589
40
0.549849122020538
40
0.59787163801755
40
0.637835664743602
40
0.670418186498891
40
0.700446074287256
40
0.728418638209671
40
0.754578677688594
40
0.779577759458041
40
0.834430208243975
40
0.898861540861262
40
0.91628418331171
40
0.934145906880724
40
0.952447501195822
40
0.973511542020225
40
1
40
1
40
1
40
1
41
1
10
22.3105287010654
20
-8.45133855502206
30
0
41
1
10
22.5899047746174
20
-8.45057975159529
30
0
41
1
10
23.1427546210324
20
-8.44816094555526
30
0
41
1
10
23.9475757948928
20
-8.43760267729158
30
0
41
1
10
24.6904319636591
20
-8.43357703403757
30
0
41
1
10
25.3477085497389
20
-8.44176910362748
30
0
41
1
10
25.875109836255
20
-8.45279501830709
30
0
41
1
10
26.4291597622558
20
-8.45401440519066
30
0
41
1
10
26.9989013072753
20
-8.45402441784833
30
0
41
1
10
27.6067382904382
20
-8.45452577642644
30
0
41
1
10
28.2552266802645
20
-8.45454371577648
30
0
41
1
10
29.0145843947086
20
-8.45604728255219
30
0
41
1
10
29.8556288931221
20
-8.45650213923892
30
0
41
1
10
30.792559550341
20
-8.45623701511335
30
0
41
1
10
31.8098573263576
20
-8.45529247227441
30
0
41
1
10
32.9477644336777
20
-8.45706138923197
30
0
41
1
10
34.0990887685338
20
-8.45906452038483
30
0
41
1
10
35.2487675448033
20
-8.45801742742094
30
0
41
1
10
36.2942641188189
20
-8.45661743506281
30
0
41
1
10
37.2493440914257
20
-8.46098999438271
30
0
41
1
10
38.061886165381
20
-8.46180202755281
30
0
41
1
10
38.7794350982228
20
-8.46088856395636
30
0
41
1
10
39.4461089073684
20
-8.46016721178123
30
0
41
1
10
40.0729511394397
20
-8.45951334843153
30
0
41
1
10
40.9127188560207
20
-8.45922814106569
30
0
41
1
10
42.055655505608
20
-8.46263867036609
30
0
41
1
10
43.138565839632
20
-8.46377702904468
30
0
41
1
10
43.9284521464841
20
-8.46426367787811
30
0
41
1
10
44.3529023635898
20
-8.46357110580055
30
0
41
1
10
44.8060858940942
20
-8.46272735005937
30
0
41
1
10
45.3277002381844
20
-8.46181234891654
30
0
41
1
10
45.7043809848926
20
-8.46150126917138
30
0
41
1
10
45.9142215829575
20
-8.46140781840961
30
0
0
SPLINE
5
DF
100
AcDbEntity
8
1
62
256
6
ByLayer
370
18
48
1
60
0
100
AcDbSpline
70
4
71
2
72
6
73
3
40
0
40
0
40
0
40
1
40
1
40
1
41
1
10
71.3338326121792
20
-8.48236466564398
30
0
41
1
10
71.6058321599507
20
-8.48347792292157
30
0
41
1
10
71.8732563431089
20
-8.48027484295412
30
0
0
SPLINE
5
E0
100
AcDbEntity
8
1
62
256
6
ByLayer
370
18
48
1
60
0
100
AcDbSpline
70
4
71
3
72
29
73
25
40
0
40
0
40
0
40
0
40
0.0374372564245996
40
0.0771556302530959
40
0.120399355544258
40
0.166653177534831
40
0.214370516830225
40
0.258020178870379
40
0.299290671094781
40
0.381243015478051
40
0.467897065844916
40
0.545952510256628
40
0.585741929719158
40
0.623990733727812
40
0.660946853128654
40
0.701511584701552
40
0.748432513855033
40
0.794561790860723
40
0.834707569607437
40
0.882753988228297
40
0.921197830749437
40
0.96092110478674
40
0.999496644003619
40
1
40
1
40
1
40
1
41
1
10
45.9940765333901
20
8.46116338544303
30
0
41
1
10
45.7606396349127
20
8.46136099041516
30
0
41
1
10
45.2781779667598
20
8.46189721953729
30
0
41
1
10
44.5166359188408
20
8.4630698267201
30
0
41
1
10
43.7038731299295
20
8.46498399273017
30
0
41
1
10
42.8377735558671
20
8.46191162159195
30
0
41
1
10
41.9698730322841
20
8.46258437466523
30
0
41
1
10
41.1331775750363
20
8.45991746515031
30
0
41
1
10
40.0805517772973
20
8.4589730705884
30
0
41
1
10
38.7566318849095
20
8.46166602460232
30
0
41
1
10
37.2007364426543
20
8.46045706902987
30
0
41
1
10
35.9108498652025
20
8.45715468386521
30
0
41
1
10
34.9262401052351
20
8.45825367221596
30
0
41
1
10
34.200851414035
20
8.45851085120185
30
0
41
1
10
33.4705742167242
20
8.45911712485287
30
0
41
1
10
32.6855989278286
20
8.45597440123214
30
0
41
1
10
31.8427520289448
20
8.45555558229273
30
0
41
1
10
31.0025471923076
20
8.45606886469781
30
0
41
1
10
30.1552518412224
20
8.45636407071569
30
0
41
1
10
29.3564656444747
20
8.45660642333891
30
0
41
1
10
28.5601763011492
20
8.45491242135498
30
0
41
1
10
27.824317300264
20
8.45443719096198
30
0
41
1
10
27.3258795926307
20
8.45452052482659
30
0
41
1
10
27.0807168370572
20
8.45431249654223
30
0
41
1
10
27.0775593644123
20
8.45430977440458
30
0
0
SPLINE
5
E1
100
AcDbEntity
8
1
62
256
6
ByLayer
370
18
48
1
60
0
100
AcDbSpline
70
4
71
2
72
6
73
3
40
0
40
0
40
0
40
1
40
1
40
1
41
1
10
46.6538459606258
20
-0.0031345410042718
30
0
41
1
10
46.6538142541413
20
-0.0031156152714118
30
0
41
1
10
46.6537825472665
20
-0.0030959709930585
30
0
0
LINE
5
7B
100
AcDbEntity
8
SK1
62
256
6
ByLayer
370
18
48
1
60
0
100
AcDbLine
10
0
20
-9
30
0
11
0
21
9
31
0
39
0
210
0
220
0
230
1
0
LINE
5
7D
100
AcDbEntity
8
SK1
62
256
6
ByLayer
370
18
48
1
60
0
100
AcDbLine
10
-48
20
6.25
30
0
11
-48
21
-6.25
31
0
39
0
210
0
220
0
230
1
0
LINE
5
7E
100
AcDbEntity
8
SK1
62
256
6
ByLayer
370
18
48
1
60
0
100
AcDbLine
10
-45.25
20
9
30
0
11
-45.25
21
-9
31
0
39
0
210
0
220
0
230
1
0
LINE
5
7F
100
AcDbEntity
8
1
62
256
6
ByLayer
370
18
48
1
60
0
100
AcDbLine
10
1.5
20
8.885239
30
0
11
1.5
21
-8.885239
31
0
39
0
210
0
220
0
230
1
0
LINE
5
80
100
AcDbEntity
8
1
62
256
6
ByLayer
370
18
48
1
60
0
100
AcDbLine
10
0
20
-9
30
0
11
0
21
9
31
0
39
0
210
0
220
0
230
1
0
LINE
5
81
100
AcDbEntity
8
1
62
256
6
ByLayer
370
13
48
1
60
0
100
AcDbLine
10
71.867317
20
1.957233
30
0
11
74.967506
21
-0.005261
31
0
39
0
210
0
220
0
230
1
0
LINE
5
82
100
AcDbEntity
8
1
62
256
6
ByLayer
370
18
48
1
60
0
100
AcDbLine
10
4
20
-3.386205
30
0
11
4
21
8.454667
31
0
39
0
210
0
220
0
230
1
0
LINE
5
83
100
AcDbEntity
8
1
62
256
6
ByLayer
370
13
48
1
60
0
100
AcDbLine
10
72.044504
20
2.084296
30
0
11
74.969667
21
0.232598
31
0
39
0
210
0
220
0
230
1
0
LINE
5
84
100
AcDbEntity
8
80
62
256
6
ByLayer
370
18
48
1
60
0
100
AcDbLine
10
0
20
0
30
0
11
-5
21
0
31
0
39
0
210
0
220
0
230
1
0
LINE
5
85
100
AcDbEntity
8
4
62
256
6
ByLayer
370
18
48
0.05
60
0
100
AcDbLine
10
75
20
0
30
0
11
0
21
0
31
0
39
0
210
0
220
0
230
1
0
LINE
5
87
100
AcDbEntity
8
SK4
62
256
6
ByLayer
370
18
48
0.05
60
0
100
AcDbLine
10
80
20
0
30
0
11
-53
21
0
31
0
39
0
210
0
220
0
230
1
0
LINE
5
89
100
AcDbEntity
8
SK1
62
256
6
ByLayer
370
18
48
1
60
0
100
AcDbLine
10
-48
20
-6.25
30
0
11
-45.25
21
-9
31
0
39
0
210
0
220
0
230
1
0
LINE
5
8A
100
AcDbEntity
8
SK1
62
256
6
ByLayer
370
18
48
1
60
0
100
AcDbLine
10
-45.25
20
9
30
0
11
-48
21
6.25
31
0
39
0
210
0
220
0
230
1
0
LINE
5
8B
100
AcDbEntity
8
SK1
62
256
6
ByLayer
370
18
48
1
60
0
100
AcDbLine
10
-45.25
20
-9
30
0
11
0
21
-9
31
0
39
0
210
0
220
0
230
1
0
LINE
5
8C
100
AcDbEntity
8
SK1
62
256
6
ByLayer
370
18
48
1
60
0
100
AcDbLine
10
0
20
9
30
0
11
-45.25
21
9
31
0
39
0
210
0
220
0
230
1
0
LINE
5
8D
100
AcDbEntity
8
1
62
256
6
ByLayer
370
18
48
1
60
0
100
AcDbLine
10
19.632498
20
-8.896571
30
0
11
22.14809
21
-8.898144
31
0
39
0
210
0
220
0
230
1
0
LINE
5
8E
100
AcDbEntity
8
1
62
256
6
ByLayer
370
18
48
1
60
0
100
AcDbLine
10
22.147773
20
8.898143
30
0
11
19.632498
21
8.896571
31
0
39
0
210
0
220
0
230
1
0
LINE
5
8F
100
AcDbEntity
8
1
62
256
6
ByLayer
370
18
48
1
60
0
100
AcDbLine
10
1.5
20
8.885239
30
0
11
0
21
9
31
0
39
0
210
0
220
0
230
1
0
LINE
5
90
100
AcDbEntity
8
1
62
256
6
ByLayer
370
18
48
1
60
0
100
AcDbLine
10
0
20
-9
30
0
11
1.5
21
-8.885239
31
0
39
0
210
0
220
0
230
1
0
LINE
5
91
100
AcDbEntity
8
1
62
256
6
ByLayer
370
18
48
1
60
0
100
AcDbLine
10
1.5
20
-8.885239
30
0
11
2.111183
21
-8.88562
31
0
39
0
210
0
220
0
230
1
0
LINE
5
92
100
AcDbEntity
8
1
62
256
6
ByLayer
370
18
48
1
60
0
100
AcDbLine
10
68.626605
20
-8.927193
30
0
11
71.148555
21
-8.928769
31
0
39
0
210
0
220
0
230
1
0
LINE
5
93
100
AcDbEntity
8
1
62
256
6
ByLayer
370
18
48
1
60
0
100
AcDbLine
10
71.148564
20
8.928769
30
0
11
68.626605
21
8.927193
31
0
39
0
210
0
220
0
230
1
0
LINE
5
94
100
AcDbEntity
8
1
62
256
6
ByLayer
370
18
48
1
60
0
100
AcDbLine
10
2.111183
20
8.88562
30
0
11
1.5
21
8.885239
31
0
39
0
210
0
220
0
230
1
0
LINE
5
95
100
AcDbEntity
8
81
62
256
6
ByLayer
370
18
48
1
60
0
100
AcDbLine
10
75
20
0
30
0
11
80
21
0
31
0
39
0
210
0
220
0
230
1
0
LINE
5
96
100
AcDbEntity
8
SK2
62
256
6
ByLayer
370
13
48
1
60
0
100
AcDbLine
10
-56.625163
20
-9
30
0
11
-56.625163
21
39.857173
31
0
39
0
210
0
220
0
230
1
0
LINE
5
98
100
AcDbEntity
8
SK2
62
256
6
ByLayer
370
13
48
1
60
0
100
AcDbLine
10
-49.5875
20
9
30
0
11
-58.625163
21
9
31
0
39
0
210
0
220
0
230
1
0
LINE
5
99
100
AcDbEntity
8
SK2
62
256
6
ByLayer
370
13
48
1
60
0
100
AcDbLine
10
-49.5875
20
-9
30
0
11
-58.625163
21
-9
31
0
39
0
210
0
220
0
230
1
0
LINE
5
9A
100
AcDbEntity
8
1
62
256
6
ByLayer
370
18
48
1
60
1
100
AcDbLine
10
-56.625163
20
9
30
0
11
-56.164379
21
5.500002
31
0
39
0
210
0
220
0
230
1
0
LINE
5
9B
100
AcDbEntity
8
1
62
256
6
ByLayer
370
18
48
1
60
1
100
AcDbLine
10
-56.164379
20
5.500002
30
0
11
-57.085946
21
5.499998
31
0
39
0
210
0
220
0
230
1
0
LINE
5
9C
100
AcDbEntity
8
1
62
256
6
ByLayer
370
18
48
1
60
1
100
AcDbLine
10
-57.085946
20
5.499998
30
0
11
-56.625163
21
9
31
0
39
0
210
0
220
0
230
1
0
LINE
5
9D
100
AcDbEntity
8
1
62
256
6
ByLayer
370
18
48
1
60
1
100
AcDbLine
10
-56.625163
20
-9
30
0
11
-57.085946
21
-5.500002
31
0
39
0
210
0
220
0
230
1
0
LINE
5
9E
100
AcDbEntity
8
1
62
256
6
ByLayer
370
18
48
1
60
1
100
AcDbLine
10
-57.085946
20
-5.500002
30
0
11
-56.164379
21
-5.499998
31
0
39
0
210
0
220
0
230
1
0
LINE
5
9F
100
AcDbEntity
8
1
62
256
6
ByLayer
370
18
48
1
60
1
100
AcDbLine
10
-56.164379
20
-5.499998
30
0
11
-56.625163
21
-9
31
0
39
0
210
0
220
0
230
1
0
LINE
5
A0
100
AcDbEntity
8
2
62
256
6
ByLayer
370
13
48
1
60
0
100
AcDbLine
10
87.083343
20
-8.9295
30
0
11
87.083343
21
38.379759
31
0
39
0
210
0
220
0
230
1
0
LINE
5
A2
100
AcDbEntity
8
2
62
256
6
ByLayer
370
13
48
1
60
0
100
AcDbLine
10
73.9191
20
8.9295
30
0
11
89.083343
21
8.9295
31
0
39
0
210
0
220
0
230
1
0
LINE
5
A3
100
AcDbEntity
8
2
62
256
6
ByLayer
370
13
48
1
60
0
100
AcDbLine
10
73.9191
20
-8.9295
30
0
11
89.083343
21
-8.9295
31
0
39
0
210
0
220
0
230
1
0
LINE
5
A4
100
AcDbEntity
8
1
62
256
6
ByLayer
370
18
48
1
60
1
100
AcDbLine
10
87.083343
20
8.9295
30
0
11
87.544126
21
5.429502
31
0
39
0
210
0
220
0
230
1
0
LINE
5
A5
100
AcDbEntity
8
1
62
256
6
ByLayer
370
18
48
1
60
1
100
AcDbLine
10
87.544126
20
5.429502
30
0
11
86.622559
21
5.429498
31
0
39
0
210
0
220
0
230
1
0
LINE
5
A6
100
AcDbEntity
8
1
62
256
6
ByLayer
370
18
48
1
60
1
100
AcDbLine
10
86.622559
20
5.429498
30
0
11
87.083343
21
8.9295
31
0
39
0
210
0
220
0
230
1
0
LINE
5
A7
100
AcDbEntity
8
1
62
256
6
ByLayer
370
18
48
1
60
1
100
AcDbLine
10
87.083343
20
-8.9295
30
0
11
86.622559
21
-5.429502
31
0
39
0
210
0
220
0
230
1
0
LINE
5
A8
100
AcDbEntity
8
1
62
256
6
ByLayer
370
18
48
1
60
1
100
AcDbLine
10
86.622559
20
-5.429502
30
0
11
87.544126
21
-5.429498
31
0
39
0
210
0
220
0
230
1
0
LINE
5
A9
100
AcDbEntity
8
1
62
256
6
ByLayer
370
18
48
1
60
1
100
AcDbLine
10
87.544126
20
-5.429498
30
0
11
87.083343
21
-8.9295
31
0
39
0
210
0
220
0
230
1
0
LINE
5
E8
100
AcDbEntity
8
1
62
256
6
ByLayer
370
18
48
1
60
1
100
AcDbLine
10
-56.625163
20
9
30
0
11
-56.164379
21
5.500002
31
0
39
0
210
0
220
0
230
1
0
LINE
5
E9
100
AcDbEntity
8
1
62
256
6
ByLayer
370
18
48
1
60
1
100
AcDbLine
10
-56.164379
20
5.500002
30
0
11
-57.085946
21
5.499998
31
0
39
0
210
0
220
0
230
1
0
LINE
5
EA
100
AcDbEntity
8
1
62
256
6
ByLayer
370
18
48
1
60
1
100
AcDbLine
10
-57.085946
20
5.499998
30
0
11
-56.625163
21
9
31
0
39
0
210
0
220
0
230
1
0
LINE
5
EC
100
AcDbEntity
8
1
62
256
6
ByLayer
370
18
48
1
60
1
100
AcDbLine
10
-56.625163
20
-9
30
0
11
-57.085946
21
-5.500002
31
0
39
0
210
0
220
0
230
1
0
LINE
5
ED
100
AcDbEntity
8
1
62
256
6
ByLayer
370
18
48
1
60
1
100
AcDbLine
10
-57.085946
20
-5.500002
30
0
11
-56.164379
21
-5.499998
31
0
39
0
210
0
220
0
230
1
0
LINE
5
EE
100
AcDbEntity
8
1
62
256
6
ByLayer
370
18
48
1
60
1
100
AcDbLine
10
-56.164379
20
-5.499998
30
0
11
-56.625163
21
-9
31
0
39
0
210
0
220
0
230
1
0
LINE
5
F2
100
AcDbEntity
8
1
62
256
6
ByLayer
370
18
48
1
60
1
100
AcDbLine
10
87.083343
20
8.9295
30
0
11
87.544126
21
5.429502
31
0
39
0
210
0
220
0
230
1
0
LINE
5
F3
100
AcDbEntity
8
1
62
256
6
ByLayer
370
18
48
1
60
1
100
AcDbLine
10
87.544126
20
5.429502
30
0
11
86.622559
21
5.429498
31
0
39
0
210
0
220
0
230
1
0
LINE
5
F4
100
AcDbEntity
8
1
62
256
6
ByLayer
370
18
48
1
60
1
100
AcDbLine
10
86.622559
20
5.429498
30
0
11
87.083343
21
8.9295
31
0
39
0
210
0
220
0
230
1
0
LINE
5
F6
100
AcDbEntity
8
1
62
256
6
ByLayer
370
18
48
1
60
1
100
AcDbLine
10
87.083343
20
-8.9295
30
0
11
86.622559
21
-5.429502
31
0
39
0
210
0
220
0
230
1
0
LINE
5
F7
100
AcDbEntity
8
1
62
256
6
ByLayer
370
18
48
1
60
1
100
AcDbLine
10
86.622559
20
-5.429502
30
0
11
87.544126
21
-5.429498
31
0
39
0
210
0
220
0
230
1
0
LINE
5
F8
100
AcDbEntity
8
1
62
256
6
ByLayer
370
18
48
1
60
1
100
AcDbLine
10
87.544126
20
-5.429498
30
0
11
87.083343
21
-8.9295
31
0
39
0
210
0
220
0
230
1
0
MTEXT
5
E2
100
AcDbEntity
8
SK6
62
256
6
ByLayer
370
13
48
1
60
0
100
AcDbMText
10
-15.82946
20
41.469828
30
0
210
0
220
0
230
1
1
\W0.7716;462.1-1786-054A0-XM X2BM
40
3.5
41
0
44
1.084337
50
0
71
7
72
5
7
iso_b_vert
0
MTEXT
5
E6
100
AcDbEntity
8
SK2
62
256
6
ByLayer
370
18
48
1
60
0
100
AcDbMText
10
-58.189796
20
22.409024
30
0
210
0
220
0
230
1
1
%%c
40
3.5
41
0
44
1.084337
50
90
71
7
72
5
7
iso_b_vert
0
MTEXT
5
E7
100
AcDbEntity
8
SK2
62
256
6
ByLayer
370
18
48
1
60
0
100
AcDbMText
10
-58.189796
20
27.63168
30
0
210
0
220
0
230
1
1
\W0.6930;18,000
40
3.5
41
0
44
1.084337
50
90
71
7
72
5
7
iso_b_vert
0
MTEXT
5
F0
100
AcDbEntity
8
2
62
256
6
ByLayer
370
18
48
1
60
0
100
AcDbMText
10
85.518709
20
20.93161
30
0
210
0
220
0
230
1
1
%%c
40
3.5
41
0
44
1.084337
50
90
71
7
72
5
7
iso_b_vert
0
MTEXT
5
F1
100
AcDbEntity
8
2
62
256
6
ByLayer
370
18
48
1
60
0
100
AcDbMText
10
85.518709
20
26.154266
30
0
210
0
220
0
230
1
1
\W0.6996;17,859
40
3.5
41
0
44
1.084337
50
90
71
7
72
5
7
iso_b_vert
0
HATCH
5
EB
100
AcDbEntity
8
SK2
62
256
6
ByLayer
370
13
48
1
60
0
100
AcDbHatch
10
0
20
0
30
0
210
0
220
0
230
1
2
ANSI31
70
0
71
0
91
1
92
5
93
3
72
1
10
-56.6251625675374
20
9
11
-56.1643788259847
21
5.50000169255318
72
1
10
-56.1643788259847
20
5.50000169255318
11
-57.0859463090902
21
5.49999830744682
72
1
10
-57.0859463090902
20
5.49999830744682
11
-56.6251625675374
21
9
97
0
75
0
76
1
52
0
41
0.0062
77
0
78
1
53
45
43
0
44
0
45
-0.0139193969876572
46
0.0139193969876572
79
0
47
0
98
1
10
0
20
0
0
HATCH
5
EF
100
AcDbEntity
8
SK2
62
256
6
ByLayer
370
13
48
1
60
0
100
AcDbHatch
10
0
20
0
30
0
210
0
220
0
230
1
2
ANSI31
70
0
71
0
91
1
92
5
93
3
72
1
10
-56.6251625675374
20
-9
11
-57.0859463090902
21
-5.50000169255318
72
1
10
-57.0859463090902
20
-5.50000169255318
11
-56.1643788259847
21
-5.49999830744682
72
1
10
-56.1643788259847
20
-5.49999830744682
11
-56.6251625675374
21
-9
97
0
75
0
76
1
52
0
41
0.0062
77
0
78
1
53
45
43
0
44
0
45
-0.0139193969876572
46
0.0139193969876572
79
0
47
0
98
1
10
0
20
0
0
HATCH
5
F5
100
AcDbEntity
8
2
62
256
6
ByLayer
370
13
48
1
60
0
100
AcDbHatch
10
0
20
0
30
0
210
0
220
0
230
1
2
ANSI31
70
0
71
0
91
1
92
5
93
3
72
1
10
87.083342615295
20
8.92950000000002
11
87.5441263568478
21
5.4295016925532
72
1
10
87.5441263568478
20
5.4295016925532
11
86.6225588737423
21
5.42949830744683
72
1
10
86.6225588737423
20
5.42949830744683
11
87.083342615295
21
8.92950000000002
97
0
75
0
76
1
52
0
41
0.0062
77
0
78
1
53
45
43
0
44
0
45
-0.0139193969876572
46
0.0139193969876572
79
0
47
0
98
1
10
0
20
0
0
HATCH
5
F9
100
AcDbEntity
8
2
62
256
6
ByLayer
370
13
48
1
60
0
100
AcDbHatch
10
0
20
0
30
0
210
0
220
0
230
1
2
ANSI31
70
0
71
0
91
1
92
5
93
3
72
1
10
87.083342615295
20
-8.92949999999999
11
86.6225588737423
21
-5.42950169255317
72
1
10
86.6225588737423
20
-5.42950169255317
11
87.5441263568478
21
-5.42949830744681
72
1
10
87.5441263568478
20
-5.42949830744681
11
87.083342615295
21
-8.92949999999999
97
0
75
0
76
1
52
0
41
0.0062
77
0
78
1
53
45
43
0
44
0
45
-0.0139193969876572
46
0.0139193969876572
79
0
47
0
98
1
10
0
20
0
0
DIMENSION
5
FB
100
AcDbEntity
8
SK2
62
256
6
ByLayer
370
13
48
1
60
0
100
AcDbDimension
2
_U0
10
72.3316
20
-19.142898
30
0
11
36.1658
21
-19.142898
31
0
70
32
71
1
72
1
41
1
210
0
220
0
230
1
3
Standard
100
AcDbAlignedDimension
13
0
23
0
33
0
14
72.3316
24
-8.9295
34
0
50
0
100
AcDbRotatedDimension
1001
ACAD
1000
DSTYLE
1002
{
1070
   371
1070
    13
1070
   372
1070
    13
1070
   170
1070
     0
1070
   144
1040
1.0
1070
   277
1070
     2
1070
   278
1070
    44
1070
   146
1040
1.0
1070
   345
1005
16
1070
   347
1005
16
1070
   346
1005
16
1070
   344
1005
0
1070
   343
1005
0
1070
   172
1070
     1
1070
    76
1070
     0
1070
    75
1070
     0
1070
   282
1070
     0
1070
   281
1070
     0
1070
    71
1070
     0
1070
    74
1070
     0
1070
   279
1070
     0
1070
   173
1070
     1
1070
   340
1005
E3
1070
   271
1070
     2
1070
   272
1070
     2
1070
    77
1070
     1
1070
    73
1070
     1
1070
   171
1070
     3
1070
   274
1070
     4
1070
   177
1070
    35
1070
   176
1070
    35
1070
   178
1070
    35
1070
    48
1040
-0.1
1070
    41
1040
3.5
1070
   147
1040
1.75
1070
    42
1040
1.5875
1070
    44
1040
2.0
1070
   140
1040
3.5
1002
}
1001
ACAD_DSTYLE_DIM_LINETYPE
1070
   380
1005
16
1001
ACAD_DSTYLE_DIM_EXT1_LINETYPE
1070
   381
1005
16
1001
ACAD_DSTYLE_DIM_EXT2_LINETYPE
1070
   382
1005
16
0
DIMENSION
5
114
100
AcDbEntity
8
SK2
62
256
6
ByLayer
370
13
48
1
60
0
100
AcDbDimension
2
_U1
10
75
20
-37.692985
30
0
11
13.5
21
-37.692985
31
0
70
32
71
1
72
1
41
1
210
0
220
0
230
1
3
Standard
100
AcDbAlignedDimension
13
-48
23
-9
33
0
14
75
24
0
34
0
50
0
100
AcDbRotatedDimension
1001
ACAD
1000
DSTYLE
1002
{
1070
   371
1070
    13
1070
   372
1070
    13
1070
   170
1070
     0
1070
   144
1040
1.0
1070
   277
1070
     2
1070
   278
1070
    44
1070
   146
1040
1.0
1070
   345
1005
16
1070
   347
1005
16
1070
   346
1005
16
1070
   344
1005
0
1070
   343
1005
0
1070
   172
1070
     1
1070
    76
1070
     0
1070
    75
1070
     0
1070
   282
1070
     0
1070
   281
1070
     0
1070
    71
1070
     0
1070
    74
1070
     0
1070
   279
1070
     0
1070
   173
1070
     1
1070
   340
1005
E3
1070
   271
1070
     2
1070
   272
1070
     2
1070
    77
1070
     1
1070
    73
1070
     1
1070
   171
1070
     3
1070
   274
1070
     4
1070
   177
1070
    35
1070
   176
1070
    35
1070
   178
1070
    35
1070
    48
1040
-0.1
1070
    41
1040
3.5
1070
   147
1040
1.75
1070
    42
1040
1.5875
1070
    44
1040
2.0
1070
   140
1040
3.5
1002
}
1001
ACAD_DSTYLE_DIM_LINETYPE
1070
   380
1005
16
1001
ACAD_DSTYLE_DIM_EXT1_LINETYPE
1070
   381
1005
16
1001
ACAD_DSTYLE_DIM_EXT2_LINETYPE
1070
   382
1005
16
0
DIMENSION
5
12C
100
AcDbEntity
8
SK2
62
256
6
ByLayer
370
13
48
1
60
0
100
AcDbDimension
2
_U2
10
75
20
20.538619
30
0
11
47.43
21
20.538619
31
0
70
32
71
1
72
1
41
1
210
0
220
0
230
1
3
Standard
100
AcDbAlignedDimension
13
19.86
23
8.9295
33
0
14
75
24
0
34
0
50
0
100
AcDbRotatedDimension
1001
ACAD
1000
DSTYLE
1002
{
1070
   371
1070
    13
1070
   372
1070
    13
1070
   170
1070
     0
1070
   144
1040
1.0
1070
   277
1070
     2
1070
   278
1070
    44
1070
   146
1040
1.0
1070
   345
1005
16
1070
   347
1005
16
1070
   346
1005
16
1070
   344
1005
0
1070
   343
1005
0
1070
   172
1070
     1
1070
    76
1070
     0
1070
    75
1070
     0
1070
   282
1070
     0
1070
   281
1070
     0
1070
    71
1070
     0
1070
    74
1070
     0
1070
   279
1070
     0
1070
   173
1070
     1
1070
   340
1005
E3
1070
   271
1070
     2
1070
   272
1070
     2
1070
    77
1070
     1
1070
    73
1070
     1
1070
   171
1070
     3
1070
   274
1070
     4
1070
   177
1070
    35
1070
   176
1070
    35
1070
   178
1070
    35
1070
    48
1040
-0.1
1070
    41
1040
3.5
1070
   147
1040
1.75
1070
    42
1040
1.5875
1070
    44
1040
2.0
1070
   140
1040
3.5
1002
}
1001
ACAD_DSTYLE_DIM_LINETYPE
1070
   380
1005
16
1001
ACAD_DSTYLE_DIM_EXT1_LINETYPE
1070
   381
1005
16
1001
ACAD_DSTYLE_DIM_EXT2_LINETYPE
1070
   382
1005
16
0
DIMENSION
5
144
100
AcDbEntity
8
SK2
62
256
6
ByLayer
370
13
48
1
60
0
100
AcDbDimension
2
_U3
10
72.3316
20
-21.732003
30
0
11
92.583333
21
-21.732003
31
0
70
32
71
1
72
1
41
1
210
0
220
0
230
1
3
Standard
100
AcDbAlignedDimension
13
75
23
0
33
0
14
72.3316
24
-8.9295
34
0
50
0
100
AcDbRotatedDimension
1001
ACAD
1000
DSTYLE
1002
{
1070
   371
1070
    13
1070
   372
1070
    13
1070
   170
1070
     0
1070
   144
1040
1.0
1070
   277
1070
     2
1070
   278
1070
    44
1070
   146
1040
1.0
1070
   345
1005
16
1070
   347
1005
16
1070
   346
1005
16
1070
   344
1005
0
1070
   343
1005
0
1070
   172
1070
     1
1070
    76
1070
     0
1070
    75
1070
     0
1070
   282
1070
     0
1070
   281
1070
     0
1070
    71
1070
     0
1070
    74
1070
     0
1070
   279
1070
     0
1070
   173
1070
     1
1070
   340
1005
E3
1070
   271
1070
     2
1070
   272
1070
     2
1070
    77
1070
     1
1070
    73
1070
     1
1070
   171
1070
     3
1070
   274
1070
     4
1070
   177
1070
    35
1070
   176
1070
    35
1070
   178
1070
    35
1070
    48
1040
-0.1
1070
    41
1040
3.5
1070
   147
1040
1.75
1070
    42
1040
1.5875
1070
    44
1040
2.0
1070
   140
1040
3.5
1002
}
1001
ACAD_DSTYLE_DIM_LINETYPE
1070
   380
1005
16
1001
ACAD_DSTYLE_DIM_EXT1_LINETYPE
1070
   381
1005
16
1001
ACAD_DSTYLE_DIM_EXT2_LINETYPE
1070
   382
1005
16
0
DIMENSION
5
15E
100
AcDbEntity
8
SK2
62
256
6
ByLayer
370
13
48
1
60
0
100
AcDbDimension
2
_U4
10
72.3316
20
-27.343428
30
0
11
12.1658
21
-27.343428
31
0
70
32
71
1
72
1
41
1
210
0
220
0
230
1
3
Standard
100
AcDbAlignedDimension
13
-48
23
-9
33
0
14
72.3316
24
-8.9295
34
0
50
0
100
AcDbRotatedDimension
1001
ACAD
1000
DSTYLE
1002
{
1070
   371
1070
    13
1070
   372
1070
    13
1070
   170
1070
     0
1070
   144
1040
1.0
1070
   277
1070
     2
1070
   278
1070
    44
1070
   146
1040
1.0
1070
   345
1005
16
1070
   347
1005
16
1070
   346
1005
16
1070
   344
1005
0
1070
   343
1005
0
1070
   172
1070
     1
1070
    76
1070
     0
1070
    75
1070
     0
1070
   282
1070
     0
1070
   281
1070
     0
1070
    71
1070
     0
1070
    74
1070
     0
1070
   279
1070
     0
1070
   173
1070
     1
1070
   340
1005
E3
1070
   271
1070
     2
1070
   272
1070
     2
1070
    77
1070
     1
1070
    73
1070
     1
1070
   171
1070
     3
1070
   274
1070
     4
1070
   177
1070
    35
1070
   176
1070
    35
1070
   178
1070
    35
1070
    48
1040
-0.1
1070
    41
1040
3.5
1070
   147
1040
1.75
1070
    42
1040
1.5875
1070
    44
1040
2.0
1070
   140
1040
3.5
1002
}
1001
ACAD_DSTYLE_DIM_LINETYPE
1070
   380
1005
16
1001
ACAD_DSTYLE_DIM_EXT1_LINETYPE
1070
   381
1005
16
1001
ACAD_DSTYLE_DIM_EXT2_LINETYPE
1070
   382
1005
16
0
ENDSEC
0
SECTION
2
OBJECTS
0
DICTIONARY
5
1e6
330
0
100
AcDbDictionary
280
0
281
1
3
ACAD_GROUP
350
1e7
3
ACAD_MLINESTYLE
350
1e8
0
DICTIONARY
5
1e7
330
0
100
AcDbDictionary
280
0
281
1
0
DICTIONARY
5
1e8
330
0
100
AcDbDictionary
280
0
281
1
3
Standard
350
18
0
MLINESTYLE
5
18
330
1e8
100
AcDbMlineStyle
2
Standard
70
0
3

62
256
51
90
52
90
71
2
49
-0.5
62
256
6
ByLayer
49
0.5
62
256
6
ByLayer
0
RASTERVARIABLES
5
1d4
330

100
AcDbRasterVariables
90
0
70
1
71
1
72
1
0
ENDSEC
0
EOF
