0
SECTION
2
HEADER
9
$ACADVER
1
AC1015
9
$DWGCODEPAGE
3
ANSI_1252
9
$HANDSEED
5
1f6
9
$ANGBASE
50
0
9
$ANGDIR
70
0
9
$ATTMODE
70
1
9
$AUNITS
70
0
9
$AUPREC
70
0
9
$CECOLOR
62
256
9
$CELTSCALE
40
1
9
$CELTYPE
6
ByLayer
9
$CELWEIGHT
370
18
9
$CLAYER
8
0
9
$CMLJUST
70
0
9
$CMLSCALE
40
1
9
$CMLSTYLE
2
Standard
9
$DIMSTYLE
2
Standard
9
$TEXTSIZE
40
0.2
9
$TEXTSTYLE
7
Standard
9
$LUNITS
70
2
9
$LUPREC
70
4
9
$EXTNAMES
290
1
9
$INSUNITS
70
4
9
$LTSCALE
40
1
9
$LWDISPLAY
290
1
9
$PDMODE
70
0
9
$PDSIZE
40
0
9
$PLINEGEN
70
0
0
ENDSEC
0
SECTION
2
CLASSES
0
CLASS
1
RASTERVARIABLES
2
AcDbRasterVariables
3
ISM
90
0
280
0
281
0
0
ENDSEC
0
SECTION
2
TABLES
0
TABLE
2
VPORT
5
1ec
100
AcDbSymbolTable
0
VPORT
5
1
100
AcDbSymbolTableRecord
100
AcDbViewportTableRecord
2
*Active
70
0
10
0
20
0
11
1
21
1
12
-1
22
1
13
0
23
0
14
0.5
24
0.5
15
10
25
10
16
0
26
0
36
1
17
0
27
0
37
0
0
ENDTAB
0
TABLE
2
LTYPE
5
1ed
100
AcDbSymbolTable
0
LTYPE
5
14
100
AcDbSymbolTableRecord
100
AcDbLinetypeTableRecord
70
0
2
ByBlock
3

72
65
73
0
40
0
0
LTYPE
5
15
100
AcDbSymbolTableRecord
100
AcDbLinetypeTableRecord
70
0
2
ByLayer
3

72
65
73
0
40
0
0
LTYPE
5
16
100
AcDbSymbolTableRecord
100
AcDbLinetypeTableRecord
70
0
2
Continuous
3
Solid line
72
65
73
0
40
0
0
LTYPE
5
6E
100
AcDbSymbolTableRecord
100
AcDbLinetypeTableRecord
70
0
2
CENTER
3
____ _ ____ _ ____ _ ____
72
65
73
4
40
47.5
49
22
74
0
49
-8.5
74
0
49
8.5
74
0
49
-8.5
74
0
0
LTYPE
5
6F
100
AcDbSymbolTableRecord
100
AcDbLinetypeTableRecord
70
0
2
DASHED
3
__ __ __ __ __ __ __ __ __
72
65
73
2
40
25.72
49
12.86
74
0
49
-12.86
74
0
0
ENDTAB
0
TABLE
2
LAYER
5
1ee
100
AcDbSymbolTable
0
LAYER
5
10
100
AcDbSymbolTableRecord
100
AcDbLayerTableRecord
2
0
70
0
62
7
6
Continuous
290
1
370
-3
390
0
0
LAYER
5
71
100
AcDbSymbolTableRecord
100
AcDbLayerTableRecord
2
80
70
0
62
-6
6
Continuous
290
1
370
-3
390
0
0
LAYER
5
73
100
AcDbSymbolTableRecord
100
AcDbLayerTableRecord
2
81
70
0
62
-3
6
Continuous
290
1
370
-3
390
0
0
LAYER
5
75
100
AcDbSymbolTableRecord
100
AcDbLayerTableRecord
2
1
70
0
62
4
6
Continuous
290
1
370
-3
390
0
0
LAYER
5
87
100
AcDbSymbolTableRecord
100
AcDbLayerTableRecord
2
4
70
0
62
-2
6
CENTER
290
1
370
-3
390
0
0
LAYER
5
A0
100
AcDbSymbolTableRecord
100
AcDbLayerTableRecord
2
2
70
0
62
7
6
Continuous
290
1
370
-3
390
0
0
LAYER
5
101
100
AcDbSymbolTableRecord
100
AcDbLayerTableRecord
2
Defpoints
70
0
62
7
6
Continuous
290
0
370
-3
390
0
0
LAYER
5
1d8
100
AcDbSymbolTableRecord
100
AcDbLayerTableRecord
2
SK1
70
0
62
4
6
Continuous
290
1
370
-3
390
0
0
LAYER
5
1d9
100
AcDbSymbolTableRecord
100
AcDbLayerTableRecord
2
SK4
70
0
62
2
6
CENTER
290
1
370
-3
390
0
0
LAYER
5
1da
100
AcDbSymbolTableRecord
100
AcDbLayerTableRecord
2
SK2
70
0
62
7
6
Continuous
290
1
370
-3
390
0
0
LAYER
5
1db
100
AcDbSymbolTableRecord
100
AcDbLayerTableRecord
2
SK6
70
0
62
5
6
Continuous
290
1
370
-3
390
0
0
ENDTAB
0
TABLE
2
STYLE
5
1ef
100
AcDbSymbolTable
0
STYLE
5
11
100
AcDbSymbolTableRecord
100
AcDbTextStyleTableRecord
2
Standard
3
txt
70
0
71
0
40
0
41
1
42
0
50
0
0
STYLE
5
E6
100
AcDbSymbolTableRecord
100
AcDbTextStyleTableRecord
2
iso_b_vert
3
simplex.shx
70
0
71
0
40
0
41
1
42
0
50
0
0
STYLE
5
E7
100
AcDbSymbolTableRecord
100
AcDbTextStyleTableRecord
2
DWGDirectTextStyle
3
simplex
70
0
71
0
40
0
41
1
42
0
50
0
0
ENDTAB
0
TABLE
2
DIMSTYLE
5
1f0
100
AcDbSymbolTable
100
AcDbDimStyleTable
0
DIMSTYLE
105
27
100
AcDbSymbolTableRecord
100
AcDbDimStyleTableRecord
2
Standard
70
0
3
<>
41
0.18
42
0.0625
44
0.18
140
0.18
147
0.09
73
0
74
0
77
1
271
2
275
0
278
52
280
0
340
11
0
ENDTAB
0
TABLE
2
VIEW
5
1f1
100
AcDbSymbolTable
0
ENDTAB
0
TABLE
2
UCS
5
1f2
100
AcDbSymbolTable
0
ENDTAB
0
TABLE
2
APPID
5
1f3
100
AcDbSymbolTable
0
APPID
5
12
100
AcDbSymbolTableRecord
100
AcDbRegAppTableRecord
2
ACAD
70
0
0
APPID
5
FD
100
AcDbSymbolTableRecord
100
AcDbRegAppTableRecord
2
ACAD_DSTYLE_DIMBREAK
70
0
0
APPID
5
197
100
AcDbSymbolTableRecord
100
AcDbRegAppTableRecord
2
ACAD_DSTYLE_DIM_LINETYPE
70
0
0
APPID
5
198
100
AcDbSymbolTableRecord
100
AcDbRegAppTableRecord
2
ACAD_DSTYLE_DIM_EXT1_LINETYPE
70
0
0
APPID
5
199
100
AcDbSymbolTableRecord
100
AcDbRegAppTableRecord
2
ACAD_DSTYLE_DIM_EXT2_LINETYPE
70
0
0
APPID
5
1D4
100
AcDbSymbolTableRecord
100
AcDbRegAppTableRecord
2
ACAD_MLEADERVER
70
0
0
ENDTAB
0
TABLE
2
BLOCK_RECORD
5
1f4
100
AcDbSymbolTable
0
BLOCK_RECORD
5
1F
100
AcDbSymbolTableRecord
100
AcDbBlockTableRecord
2
*Model_Space
340
0
70
0
0
BLOCK_RECORD
5
1B
100
AcDbSymbolTableRecord
100
AcDbBlockTableRecord
2
*Paper_Space
340
0
70
0
0
BLOCK_RECORD
5
23
100
AcDbSymbolTableRecord
100
AcDbBlockTableRecord
2
*Paper_Space0
340
0
70
0
0
BLOCK_RECORD
5
102
100
AcDbSymbolTableRecord
100
AcDbBlockTableRecord
2
*D1
340
0
70
0
0
BLOCK_RECORD
5
10E
100
AcDbSymbolTableRecord
100
AcDbBlockTableRecord
2
_U0
340
0
70
0
0
BLOCK_RECORD
5
11A
100
AcDbSymbolTableRecord
100
AcDbBlockTableRecord
2
*D3
340
0
70
0
0
BLOCK_RECORD
5
126
100
AcDbSymbolTableRecord
100
AcDbBlockTableRecord
2
_U1
340
0
70
0
0
BLOCK_RECORD
5
132
100
AcDbSymbolTableRecord
100
AcDbBlockTableRecord
2
*D5
340
0
70
0
0
BLOCK_RECORD
5
13E
100
AcDbSymbolTableRecord
100
AcDbBlockTableRecord
2
_U2
340
0
70
0
0
BLOCK_RECORD
5
14A
100
AcDbSymbolTableRecord
100
AcDbBlockTableRecord
2
*D7
340
0
70
0
0
BLOCK_RECORD
5
158
100
AcDbSymbolTableRecord
100
AcDbBlockTableRecord
2
_U3
340
0
70
0
0
BLOCK_RECORD
5
164
100
AcDbSymbolTableRecord
100
AcDbBlockTableRecord
2
*D9
340
0
70
0
0
BLOCK_RECORD
5
170
100
AcDbSymbolTableRecord
100
AcDbBlockTableRecord
2
_U4
340
0
70
0
0
ENDTAB
0
ENDSEC
0
SECTION
2
BLOCKS
0
BLOCK
5
20
100
AcDbEntity
8
0
100
AcDbBlockBegin
2
*Model_Space
70
0
10
0
20
0
30
0
3
*Model_Space
0
ENDBLK
5
21
100
AcDbEntity
8
0
100
AcDbBlockEnd
0
BLOCK
5
1C
100
AcDbEntity
8
0
100
AcDbBlockBegin
2
*Paper_Space
70
0
10
0
20
0
30
0
3
*Paper_Space
0
ENDBLK
5
1D
100
AcDbEntity
8
0
100
AcDbBlockEnd
0
BLOCK
5
24
100
AcDbEntity
8
0
100
AcDbBlockBegin
2
*Paper_Space0
70
0
10
0
20
0
30
0
3
*Paper_Space0
0
ENDBLK
5
25
100
AcDbEntity
8
0
100
AcDbBlockEnd
0
BLOCK
5
103
100
AcDbEntity
8
0
100
AcDbBlockBegin
2
*D1
70
1
10
0
20
0
30
0
3
*D1
0
LINE
5
105
100
AcDbEntity
8
0
62
256
6
ByLayer
370
-2
48
1
60
0
100
AcDbLine
10
0
20
-1.5875
30
0
11
0
21
-18.960398
31
0
39
0
210
0
220
0
230
1
0
LINE
5
106
100
AcDbEntity
8
0
62
256
6
ByLayer
370
-2
48
1
60
0
100
AcDbLine
10
59.9895
20
-8.3345
30
0
11
59.9895
21
-18.960398
31
0
39
0
210
0
220
0
230
1
0
LINE
5
107
100
AcDbEntity
8
0
62
256
6
ByLayer
370
-2
48
1
60
0
100
AcDbLine
10
3.5
20
-16.960398
30
0
11
56.4895
21
-16.960398
31
0
39
0
210
0
220
0
230
1
0
SOLID
5
108
100
AcDbEntity
8
0
62
256
6
ByLayer
370
-1
48
1
60
0
100
AcDbTrace
10
3.5
20
-16.377065
30
0
11
3.5
21
-17.543732
31
0
12
0
22
-16.960398
32
0
13
0
23
-16.960398
33
0
39
0
210
0
220
0
230
1
0
SOLID
5
109
100
AcDbEntity
8
0
62
256
6
ByLayer
370
-1
48
1
60
0
100
AcDbTrace
10
56.4895
20
-17.543732
30
0
11
56.4895
21
-16.377065
31
0
12
59.9895
22
-16.960398
32
0
13
59.9895
23
-16.960398
33
0
39
0
210
0
220
0
230
1
0
MTEXT
5
10A
100
AcDbEntity
8
0
62
256
6
ByLayer
370
18
48
1
60
0
100
AcDbMText
10
29.99475
20
-9.960398
30
0
210
0
220
0
230
1
1
\A1;59.99
40
3.5
41
0
44
1
50
0
71
5
72
5
7
iso_b_vert
0
POINT
5
10B
100
AcDbEntity
8
Defpoints
62
0
6
ByLayer
370
-1
48
1
60
0
100
AcDbPoint
10
0
20
0
30
0
39
0
210
0
220
0
230
1
50
360
0
POINT
5
10C
100
AcDbEntity
8
Defpoints
62
0
6
ByLayer
370
-1
48
1
60
0
100
AcDbPoint
10
59.9895
20
-6.747
30
0
39
0
210
0
220
0
230
1
50
360
0
POINT
5
10D
100
AcDbEntity
8
Defpoints
62
0
6
ByLayer
370
-1
48
1
60
0
100
AcDbPoint
10
59.9895
20
-16.960398
30
0
39
0
210
0
220
0
230
1
50
360
0
ENDBLK
5
104
100
AcDbEntity
8
0
100
AcDbBlockEnd
0
BLOCK
5
115
100
AcDbEntity
8
0
100
AcDbBlockBegin
2
_U0
70
0
10
0
20
0
30
0
3
_U0
0
MTEXT
5
10F
100
AcDbEntity
8
SK2
62
256
6
ByLayer
370
13
48
1
60
0
100
AcDbMText
10
24.857451
20
-15.927765
30
0
210
0
220
0
230
1
1
\W0.7402;59,99
40
3.5
41
0
44
1.084337
50
0
71
7
72
5
7
iso_b_vert
0
LINE
5
110
100
AcDbEntity
8
SK2
62
256
6
ByLayer
370
13
48
1
60
0
100
AcDbLine
10
0
20
-1.5875
30
0
11
0
21
-18.960398
31
0
39
0
210
0
220
0
230
1
0
LINE
5
111
100
AcDbEntity
8
SK2
62
256
6
ByLayer
370
13
48
1
60
0
100
AcDbLine
10
59.9895
20
-8.3345
30
0
11
59.9895
21
-18.960398
31
0
39
0
210
0
220
0
230
1
0
LINE
5
112
100
AcDbEntity
8
SK2
62
256
6
ByLayer
370
13
48
1
60
0
100
AcDbLine
10
0
20
-16.960398
30
0
11
59.9895
21
-16.960398
31
0
39
0
210
0
220
0
230
1
0
SOLID
5
113
100
AcDbEntity
8
SK2
62
256
6
ByLayer
370
18
48
1
60
0
100
AcDbTrace
10
0
20
-16.960398
30
0
11
3.499998
21
-16.499615
31
0
12
3.500002
22
-17.421182
32
0
13
3.500002
23
-17.421182
33
0
39
0
210
0
220
0
230
1
0
SOLID
5
114
100
AcDbEntity
8
SK2
62
256
6
ByLayer
370
18
48
1
60
0
100
AcDbTrace
10
59.9895
20
-16.960398
30
0
11
56.489502
21
-17.421182
31
0
12
56.489498
22
-16.499615
32
0
13
56.489498
23
-16.499615
33
0
39
0
210
0
220
0
230
1
0
ENDBLK
5
116
100
AcDbEntity
8
0
100
AcDbBlockEnd
0
BLOCK
5
11B
100
AcDbEntity
8
0
100
AcDbBlockBegin
2
*D3
70
1
10
0
20
0
30
0
3
*D3
0
LINE
5
11D
100
AcDbEntity
8
0
62
256
6
ByLayer
370
-2
48
1
60
0
100
AcDbLine
10
-45
20
-8.5875
30
0
11
-45
21
-37.692985
31
0
39
0
210
0
220
0
230
1
0
LINE
5
11E
100
AcDbEntity
8
0
62
256
6
ByLayer
370
-2
48
1
60
0
100
AcDbLine
10
62
20
-1.5875
30
0
11
62
21
-37.692985
31
0
39
0
210
0
220
0
230
1
0
LINE
5
11F
100
AcDbEntity
8
0
62
256
6
ByLayer
370
-2
48
1
60
0
100
AcDbLine
10
-41.5
20
-35.692985
30
0
11
58.5
21
-35.692985
31
0
39
0
210
0
220
0
230
1
0
SOLID
5
120
100
AcDbEntity
8
0
62
256
6
ByLayer
370
-1
48
1
60
0
100
AcDbTrace
10
-41.5
20
-35.109652
30
0
11
-41.5
21
-36.276319
31
0
12
-45
22
-35.692985
32
0
13
-45
23
-35.692985
33
0
39
0
210
0
220
0
230
1
0
SOLID
5
121
100
AcDbEntity
8
0
62
256
6
ByLayer
370
-1
48
1
60
0
100
AcDbTrace
10
58.5
20
-36.276319
30
0
11
58.5
21
-35.109652
31
0
12
62
22
-35.692985
32
0
13
62
23
-35.692985
33
0
39
0
210
0
220
0
230
1
0
MTEXT
5
122
100
AcDbEntity
8
0
62
256
6
ByLayer
370
18
48
1
60
0
100
AcDbMText
10
8.5
20
-28.692985
30
0
210
0
220
0
230
1
1
\A1;107.00
40
3.5
41
0
44
1
50
0
71
5
72
5
7
iso_b_vert
0
POINT
5
123
100
AcDbEntity
8
Defpoints
62
0
6
ByLayer
370
-1
48
1
60
0
100
AcDbPoint
10
-45
20
-7
30
0
39
0
210
0
220
0
230
1
50
360
0
POINT
5
124
100
AcDbEntity
8
Defpoints
62
0
6
ByLayer
370
-1
48
1
60
0
100
AcDbPoint
10
62
20
0
30
0
39
0
210
0
220
0
230
1
50
360
0
POINT
5
125
100
AcDbEntity
8
Defpoints
62
0
6
ByLayer
370
-1
48
1
60
0
100
AcDbPoint
10
62
20
-35.692985
30
0
39
0
210
0
220
0
230
1
50
360
0
ENDBLK
5
11C
100
AcDbEntity
8
0
100
AcDbBlockEnd
0
BLOCK
5
12D
100
AcDbEntity
8
0
100
AcDbBlockBegin
2
_U1
70
0
10
0
20
0
30
0
3
_U1
0
MTEXT
5
127
100
AcDbEntity
8
SK2
62
256
6
ByLayer
370
13
48
1
60
0
100
AcDbMText
10
2.492401
20
-34.660352
30
0
210
0
220
0
230
1
1
\W0.6930;107,00
40
3.5
41
0
44
1.084337
50
0
71
7
72
5
7
iso_b_vert
0
LINE
5
128
100
AcDbEntity
8
SK2
62
256
6
ByLayer
370
13
48
1
60
0
100
AcDbLine
10
-45
20
-8.5875
30
0
11
-45
21
-37.692985
31
0
39
0
210
0
220
0
230
1
0
LINE
5
129
100
AcDbEntity
8
SK2
62
256
6
ByLayer
370
13
48
1
60
0
100
AcDbLine
10
62
20
-1.5875
30
0
11
62
21
-37.692985
31
0
39
0
210
0
220
0
230
1
0
LINE
5
12A
100
AcDbEntity
8
SK2
62
256
6
ByLayer
370
13
48
1
60
0
100
AcDbLine
10
-45
20
-35.692985
30
0
11
62
21
-35.692985
31
0
39
0
210
0
220
0
230
1
0
SOLID
5
12B
100
AcDbEntity
8
SK2
62
256
6
ByLayer
370
18
48
1
60
0
100
AcDbTrace
10
-45
20
-35.692985
30
0
11
-41.500002
21
-35.232202
31
0
12
-41.499998
22
-36.153769
32
0
13
-41.499998
23
-36.153769
33
0
39
0
210
0
220
0
230
1
0
SOLID
5
12C
100
AcDbEntity
8
SK2
62
256
6
ByLayer
370
18
48
1
60
0
100
AcDbTrace
10
62
20
-35.692985
30
0
11
58.500002
21
-36.153769
31
0
12
58.499998
22
-35.232202
32
0
13
58.499998
23
-35.232202
33
0
39
0
210
0
220
0
230
1
0
ENDBLK
5
12E
100
AcDbEntity
8
0
100
AcDbBlockEnd
0
BLOCK
5
133
100
AcDbEntity
8
0
100
AcDbBlockBegin
2
*D5
70
1
10
0
20
0
30
0
3
*D5
0
LINE
5
135
100
AcDbEntity
8
0
62
256
6
ByLayer
370
-2
48
1
60
0
100
AcDbLine
10
19.51
20
8.3345
30
0
11
19.51
21
20.356119
31
0
39
0
210
0
220
0
230
1
0
LINE
5
136
100
AcDbEntity
8
0
62
256
6
ByLayer
370
-2
48
1
60
0
100
AcDbLine
10
62
20
1.5875
30
0
11
62
21
20.356119
31
0
39
0
210
0
220
0
230
1
0
LINE
5
137
100
AcDbEntity
8
0
62
256
6
ByLayer
370
-2
48
1
60
0
100
AcDbLine
10
23.01
20
18.356119
30
0
11
58.5
21
18.356119
31
0
39
0
210
0
220
0
230
1
0
SOLID
5
138
100
AcDbEntity
8
0
62
256
6
ByLayer
370
-1
48
1
60
0
100
AcDbTrace
10
23.01
20
18.939453
30
0
11
23.01
21
17.772786
31
0
12
19.51
22
18.356119
32
0
13
19.51
23
18.356119
33
0
39
0
210
0
220
0
230
1
0
SOLID
5
139
100
AcDbEntity
8
0
62
256
6
ByLayer
370
-1
48
1
60
0
100
AcDbTrace
10
58.5
20
17.772786
30
0
11
58.5
21
18.939453
31
0
12
62
22
18.356119
32
0
13
62
23
18.356119
33
0
39
0
210
0
220
0
230
1
0
MTEXT
5
13A
100
AcDbEntity
8
0
62
256
6
ByLayer
370
18
48
1
60
0
100
AcDbMText
10
40.755
20
25.356119
30
0
210
0
220
0
230
1
1
\A1;42.49
40
3.5
41
0
44
1
50
0
71
5
72
5
7
iso_b_vert
0
POINT
5
13B
100
AcDbEntity
8
Defpoints
62
0
6
ByLayer
370
-1
48
1
60
0
100
AcDbPoint
10
19.51
20
6.747
30
0
39
0
210
0
220
0
230
1
50
360
0
POINT
5
13C
100
AcDbEntity
8
Defpoints
62
0
6
ByLayer
370
-1
48
1
60
0
100
AcDbPoint
10
62
20
0
30
0
39
0
210
0
220
0
230
1
50
360
0
POINT
5
13D
100
AcDbEntity
8
Defpoints
62
0
6
ByLayer
370
-1
48
1
60
0
100
AcDbPoint
10
62
20
18.356119
30
0
39
0
210
0
220
0
230
1
50
360
0
ENDBLK
5
134
100
AcDbEntity
8
0
100
AcDbBlockEnd
0
BLOCK
5
145
100
AcDbEntity
8
0
100
AcDbBlockBegin
2
_U2
70
0
10
0
20
0
30
0
3
_U2
0
MTEXT
5
13F
100
AcDbEntity
8
SK2
62
256
6
ByLayer
370
13
48
1
60
0
100
AcDbMText
10
35.249168
20
19.388753
30
0
210
0
220
0
230
1
1
\W0.7936;42,49
40
3.5
41
0
44
1.084337
50
0
71
7
72
5
7
iso_b_vert
0
LINE
5
140
100
AcDbEntity
8
SK2
62
256
6
ByLayer
370
13
48
1
60
0
100
AcDbLine
10
19.51
20
8.3345
30
0
11
19.51
21
20.356119
31
0
39
0
210
0
220
0
230
1
0
LINE
5
141
100
AcDbEntity
8
SK2
62
256
6
ByLayer
370
13
48
1
60
0
100
AcDbLine
10
62
20
1.5875
30
0
11
62
21
20.356119
31
0
39
0
210
0
220
0
230
1
0
LINE
5
142
100
AcDbEntity
8
SK2
62
256
6
ByLayer
370
13
48
1
60
0
100
AcDbLine
10
19.51
20
18.356119
30
0
11
62
21
18.356119
31
0
39
0
210
0
220
0
230
1
0
SOLID
5
143
100
AcDbEntity
8
SK2
62
256
6
ByLayer
370
18
48
1
60
0
100
AcDbTrace
10
19.51
20
18.356119
30
0
11
23.009998
21
18.816903
31
0
12
23.010002
22
17.895335
32
0
13
23.010002
23
17.895335
33
0
39
0
210
0
220
0
230
1
0
SOLID
5
144
100
AcDbEntity
8
SK2
62
256
6
ByLayer
370
18
48
1
60
0
100
AcDbTrace
10
62
20
18.356119
30
0
11
58.500002
21
17.895335
31
0
12
58.499998
22
18.816903
32
0
13
58.499998
23
18.816903
33
0
39
0
210
0
220
0
230
1
0
ENDBLK
5
146
100
AcDbEntity
8
0
100
AcDbBlockEnd
0
BLOCK
5
14B
100
AcDbEntity
8
0
100
AcDbBlockBegin
2
*D7
70
1
10
0
20
0
30
0
3
*D7
0
LINE
5
14D
100
AcDbEntity
8
0
62
256
6
ByLayer
370
-2
48
1
60
0
100
AcDbLine
10
62
20
-1.5875
30
0
11
62
21
-21.549503
31
0
39
0
210
0
220
0
230
1
0
LINE
5
14E
100
AcDbEntity
8
0
62
256
6
ByLayer
370
-2
48
1
60
0
100
AcDbLine
10
59.9895
20
-8.3345
30
0
11
59.9895
21
-21.549503
31
0
39
0
210
0
220
0
230
1
0
LINE
5
14F
100
AcDbEntity
8
0
62
256
6
ByLayer
370
-2
48
1
60
0
100
AcDbLine
10
62
20
-19.549503
30
0
11
89.166667
21
-19.549503
31
0
39
0
210
0
220
0
230
1
0
LINE
5
150
100
AcDbEntity
8
0
62
256
6
ByLayer
370
-2
48
1
60
0
100
AcDbLine
10
65.5
20
-19.549503
30
0
11
69
21
-19.549503
31
0
39
0
210
0
220
0
230
1
0
LINE
5
151
100
AcDbEntity
8
0
62
256
6
ByLayer
370
-2
48
1
60
0
100
AcDbLine
10
56.4895
20
-19.549503
30
0
11
52.9895
21
-19.549503
31
0
39
0
210
0
220
0
230
1
0
SOLID
5
152
100
AcDbEntity
8
0
62
256
6
ByLayer
370
-1
48
1
60
0
100
AcDbTrace
10
65.5
20
-18.96617
30
0
11
65.5
21
-20.132837
31
0
12
62
22
-19.549503
32
0
13
62
23
-19.549503
33
0
39
0
210
0
220
0
230
1
0
SOLID
5
153
100
AcDbEntity
8
0
62
256
6
ByLayer
370
-1
48
1
60
0
100
AcDbTrace
10
56.4895
20
-20.132837
30
0
11
56.4895
21
-18.96617
31
0
12
59.9895
22
-19.549503
32
0
13
59.9895
23
-19.549503
33
0
39
0
210
0
220
0
230
1
0
MTEXT
5
154
100
AcDbEntity
8
0
62
256
6
ByLayer
370
18
48
1
60
0
100
AcDbMText
10
79.083333
20
-12.549503
30
0
210
0
220
0
230
1
1
\A1;2.01
40
3.5
41
0
44
1
50
0
71
5
72
5
7
iso_b_vert
0
POINT
5
155
100
AcDbEntity
8
Defpoints
62
0
6
ByLayer
370
-1
48
1
60
0
100
AcDbPoint
10
62
20
0
30
0
39
0
210
0
220
0
230
1
50
360
0
POINT
5
156
100
AcDbEntity
8
Defpoints
62
0
6
ByLayer
370
-1
48
1
60
0
100
AcDbPoint
10
59.9895
20
-6.747
30
0
39
0
210
0
220
0
230
1
50
360
0
POINT
5
157
100
AcDbEntity
8
Defpoints
62
0
6
ByLayer
370
-1
48
1
60
0
100
AcDbPoint
10
59.9895
20
-19.549503
30
0
39
0
210
0
220
0
230
1
50
360
0
ENDBLK
5
14C
100
AcDbEntity
8
0
100
AcDbBlockEnd
0
BLOCK
5
15F
100
AcDbEntity
8
0
100
AcDbBlockBegin
2
_U3
70
0
10
0
20
0
30
0
3
_U3
0
MTEXT
5
159
100
AcDbEntity
8
SK2
62
256
6
ByLayer
370
13
48
1
60
0
100
AcDbMText
10
68.589293
20
-18.51687
30
0
210
0
220
0
230
1
1
\W0.6993;2,01
40
3.5
41
0
44
1.084337
50
0
71
7
72
5
7
iso_b_vert
0
LINE
5
15A
100
AcDbEntity
8
SK2
62
256
6
ByLayer
370
13
48
1
60
0
100
AcDbLine
10
62
20
-1.5875
30
0
11
62
21
-21.549503
31
0
39
0
210
0
220
0
230
1
0
LINE
5
15B
100
AcDbEntity
8
SK2
62
256
6
ByLayer
370
13
48
1
60
0
100
AcDbLine
10
59.9895
20
-8.3345
30
0
11
59.9895
21
-21.549503
31
0
39
0
210
0
220
0
230
1
0
LINE
5
15C
100
AcDbEntity
8
SK2
62
256
6
ByLayer
370
13
48
1
60
0
100
AcDbLine
10
51.2395
20
-19.549503
30
0
11
75.559058
21
-19.549503
31
0
39
0
210
0
220
0
230
1
0
SOLID
5
15D
100
AcDbEntity
8
SK2
62
256
6
ByLayer
370
18
48
1
60
0
100
AcDbTrace
10
62
20
-19.549503
30
0
11
65.499998
21
-19.088719
31
0
12
65.500002
22
-20.010287
32
0
13
65.500002
23
-20.010287
33
0
39
0
210
0
220
0
230
1
0
SOLID
5
15E
100
AcDbEntity
8
SK2
62
256
6
ByLayer
370
18
48
1
60
0
100
AcDbTrace
10
59.9895
20
-19.549503
30
0
11
56.489502
21
-20.010287
31
0
12
56.489498
22
-19.088719
32
0
13
56.489498
23
-19.088719
33
0
39
0
210
0
220
0
230
1
0
ENDBLK
5
160
100
AcDbEntity
8
0
100
AcDbBlockEnd
0
BLOCK
5
165
100
AcDbEntity
8
0
100
AcDbBlockBegin
2
*D9
70
1
10
0
20
0
30
0
3
*D9
0
LINE
5
167
100
AcDbEntity
8
0
62
256
6
ByLayer
370
-2
48
1
60
0
100
AcDbLine
10
-45
20
-8.5875
30
0
11
-45
21
-27.343428
31
0
39
0
210
0
220
0
230
1
0
LINE
5
168
100
AcDbEntity
8
0
62
256
6
ByLayer
370
-2
48
1
60
0
100
AcDbLine
10
59.9895
20
-8.3345
30
0
11
59.9895
21
-27.343428
31
0
39
0
210
0
220
0
230
1
0
LINE
5
169
100
AcDbEntity
8
0
62
256
6
ByLayer
370
-2
48
1
60
0
100
AcDbLine
10
-41.5
20
-25.343428
30
0
11
56.4895
21
-25.343428
31
0
39
0
210
0
220
0
230
1
0
SOLID
5
16A
100
AcDbEntity
8
0
62
256
6
ByLayer
370
-1
48
1
60
0
100
AcDbTrace
10
-41.5
20
-24.760095
30
0
11
-41.5
21
-25.926762
31
0
12
-45
22
-25.343428
32
0
13
-45
23
-25.343428
33
0
39
0
210
0
220
0
230
1
0
SOLID
5
16B
100
AcDbEntity
8
0
62
256
6
ByLayer
370
-1
48
1
60
0
100
AcDbTrace
10
56.4895
20
-25.926762
30
0
11
56.4895
21
-24.760095
31
0
12
59.9895
22
-25.343428
32
0
13
59.9895
23
-25.343428
33
0
39
0
210
0
220
0
230
1
0
MTEXT
5
16C
100
AcDbEntity
8
0
62
256
6
ByLayer
370
18
48
1
60
0
100
AcDbMText
10
7.49475
20
-18.343428
30
0
210
0
220
0
230
1
1
\A1;104.99
40
3.5
41
0
44
1
50
0
71
5
72
5
7
iso_b_vert
0
POINT
5
16D
100
AcDbEntity
8
Defpoints
62
0
6
ByLayer
370
-1
48
1
60
0
100
AcDbPoint
10
-45
20
-7
30
0
39
0
210
0
220
0
230
1
50
360
0
POINT
5
16E
100
AcDbEntity
8
Defpoints
62
0
6
ByLayer
370
-1
48
1
60
0
100
AcDbPoint
10
59.9895
20
-6.747
30
0
39
0
210
0
220
0
230
1
50
360
0
POINT
5
16F
100
AcDbEntity
8
Defpoints
62
0
6
ByLayer
370
-1
48
1
60
0
100
AcDbPoint
10
59.9895
20
-25.343428
30
0
39
0
210
0
220
0
230
1
50
360
0
ENDBLK
5
166
100
AcDbEntity
8
0
100
AcDbBlockEnd
0
BLOCK
5
177
100
AcDbEntity
8
0
100
AcDbBlockBegin
2
_U4
70
0
10
0
20
0
30
0
3
_U4
0
MTEXT
5
171
100
AcDbEntity
8
SK2
62
256
6
ByLayer
370
13
48
1
60
0
100
AcDbMText
10
1.302885
20
-24.310795
30
0
210
0
220
0
230
1
1
\W0.7213;104,99
40
3.5
41
0
44
1.084337
50
0
71
7
72
5
7
iso_b_vert
0
LINE
5
172
100
AcDbEntity
8
SK2
62
256
6
ByLayer
370
13
48
1
60
0
100
AcDbLine
10
-45
20
-8.5875
30
0
11
-45
21
-27.343428
31
0
39
0
210
0
220
0
230
1
0
LINE
5
173
100
AcDbEntity
8
SK2
62
256
6
ByLayer
370
13
48
1
60
0
100
AcDbLine
10
59.9895
20
-8.3345
30
0
11
59.9895
21
-27.343428
31
0
39
0
210
0
220
0
230
1
0
LINE
5
174
100
AcDbEntity
8
SK2
62
256
6
ByLayer
370
13
48
1
60
0
100
AcDbLine
10
-45
20
-25.343428
30
0
11
59.9895
21
-25.343428
31
0
39
0
210
0
220
0
230
1
0
SOLID
5
175
100
AcDbEntity
8
SK2
62
256
6
ByLayer
370
18
48
1
60
0
100
AcDbTrace
10
-45
20
-25.343428
30
0
11
-41.500002
21
-24.882645
31
0
12
-41.499998
22
-25.804212
32
0
13
-41.499998
23
-25.804212
33
0
39
0
210
0
220
0
230
1
0
SOLID
5
176
100
AcDbEntity
8
SK2
62
256
6
ByLayer
370
18
48
1
60
0
100
AcDbTrace
10
59.9895
20
-25.343428
30
0
11
56.489502
21
-25.804212
31
0
12
56.489498
22
-24.882645
32
0
13
56.489498
23
-24.882645
33
0
39
0
210
0
220
0
230
1
0
ENDBLK
5
178
100
AcDbEntity
8
0
100
AcDbBlockEnd
0
ENDSEC
0
SECTION
2
ENTITIES
0
ARC
5
A9
100
AcDbEntity
8
1
62
256
6
ByLayer
370
18
48
1
60
0
100
AcDbCircle
39
0
10
0.918509
20
-7.510092
30
0
40
0.8
210
0
220
0
230
1
100
AcDbArc
50
89.96419
51
125.034414
0
ARC
5
AA
100
AcDbEntity
8
1
62
256
6
ByLayer
370
18
48
1
60
0
100
AcDbCircle
39
0
10
0.918509
20
7.510092
30
0
40
0.8
210
0
220
0
230
1
100
AcDbArc
50
234.965586
51
270.03581
0
ARC
5
AB
100
AcDbEntity
8
1
62
256
6
ByLayer
370
18
48
1
60
0
100
AcDbCircle
39
0
10
0
20
-6.2
30
0
40
0.799999999999999
210
0
220
0
230
1
100
AcDbArc
50
270
51
305.034414
0
ARC
5
AC
100
AcDbEntity
8
1
62
256
6
ByLayer
370
18
48
1
60
0
100
AcDbCircle
39
0
10
0
20
6.2
30
0
40
0.799999999999999
210
0
220
0
230
1
100
AcDbArc
50
54.965586
51
90
0
ELLIPSE
5
AD
100
AcDbEntity
8
1
62
256
6
ByLayer
370
13
48
1
60
0
100
AcDbEllipse
10
4.250135
20
-1.134429
30
0
11
0.0465184511239326
21
0.0885213742834481
31
0
210
0
220
0
230
1
40
0.08172
41
1.41461013386083
42
2.97371288895461
0
ELLIPSE
5
AE
100
AcDbEntity
8
1
62
256
6
ByLayer
370
13
48
1
60
0
100
AcDbEllipse
10
4.179238
20
-1.100411
30
0
11
-0.0394583866709678
21
-0.0918859930638201
31
0
210
0
220
0
230
1
40
0.493036
41
-1.52198625126948
42
-0.186501338006135
0
POINT
5
70
100
AcDbEntity
8
80
62
256
6
ByLayer
370
18
48
1
60
0
100
AcDbPoint
10
0
20
0
30
0
39
0
210
0
220
0
230
1
50
360
0
POINT
5
72
100
AcDbEntity
8
81
62
256
6
ByLayer
370
18
48
1
60
0
100
AcDbPoint
10
62
20
0
30
0
39
0
210
0
220
0
230
1
50
360
0
POINT
5
74
100
AcDbEntity
8
1
62
256
6
ByLayer
370
18
48
1
60
1
100
AcDbPoint
10
59.9895
20
-6.747
30
0
39
0
210
0
220
0
230
1
50
360
0
POINT
5
76
100
AcDbEntity
8
1
62
256
6
ByLayer
370
18
48
1
60
1
100
AcDbPoint
10
-45
20
-7
30
0
39
0
210
0
220
0
230
1
50
360
0
POINT
5
77
100
AcDbEntity
8
1
62
256
6
ByLayer
370
18
48
1
60
1
100
AcDbPoint
10
19.51
20
6.747
30
0
39
0
210
0
220
0
230
1
50
360
0
POINT
5
78
100
AcDbEntity
8
1
62
256
6
ByLayer
370
18
48
1
60
1
100
AcDbPoint
10
59.9895
20
-6.747
30
0
39
0
210
0
220
0
230
1
50
360
0
POINT
5
79
100
AcDbEntity
8
1
62
256
6
ByLayer
370
18
48
1
60
1
100
AcDbPoint
10
-45
20
-7
30
0
39
0
210
0
220
0
230
1
50
360
0
POINT
5
7A
100
AcDbEntity
8
1
62
256
6
ByLayer
370
18
48
1
60
1
100
AcDbPoint
10
59.9895
20
-6.747
30
0
39
0
210
0
220
0
230
1
50
360
0
SPLINE
5
AF
100
AcDbEntity
8
1
62
256
6
ByLayer
370
18
48
1
60
0
100
AcDbSpline
70
4
71
3
72
10
73
6
40
0
40
0
40
0
40
0
40
0.582842435892847
40
0.582842435892847
40
1
40
1
40
1
40
1
41
1
10
3.99999973883126
20
6.67695816235576
30
0
41
1
10
3.84938647036682
20
6.68985005893271
30
0
41
1
10
3.70134380922247
20
6.69949516237836
30
0
41
1
10
3.45304913866286
20
6.70946229738746
30
0
41
1
10
3.35100188694196
20
6.71165874385221
30
0
41
1
10
3.25130624405207
20
6.71155147692843
30
0
0
SPLINE
5
B0
100
AcDbEntity
8
1
62
256
6
ByLayer
370
18
48
1
60
0
100
AcDbSpline
70
4
71
3
72
14
73
10
40
0
40
0
40
0
40
0
40
0.329618317211788
40
0.329618317211788
40
0.497213737908841
40
0.497213737908841
40
0.664809158605894
40
0.664809158605894
40
1
40
1
40
1
40
1
41
1
10
8.69518773887683
20
5.37443114342517
30
0
41
1
10
9.4414789014711
20
5.46793564649553
30
0
41
1
10
10.1793937110298
20
5.57803369045118
30
0
41
1
10
11.2814349112962
20
5.75505090342625
30
0
41
1
10
11.6510105035943
20
5.81654894898247
30
0
41
1
10
12.3867718625863
20
5.94033001905424
30
0
41
1
10
12.7532789004539
20
6.00266242215176
30
0
41
1
10
13.8462001687389
20
6.18584252571347
30
0
41
1
10
14.5638789454599
20
6.30237771508141
30
0
41
1
10
15.2742579025912
20
6.40189211494229
30
0
0
SPLINE
5
B1
100
AcDbEntity
8
1
62
256
6
ByLayer
370
18
48
1
60
0
100
AcDbSpline
70
4
71
3
72
12
73
8
40
0
40
0
40
0
40
0
40
0.433100674065444
40
0.433100674065444
40
0.931776344810035
40
0.931776344810035
40
1
40
1
40
1
40
1
41
1
10
21.114505173809
20
-6.38545786351241
30
0
41
1
10
20.1133925253738
20
-6.38258447980877
30
0
41
1
10
19.1168965646231
20
-6.3143433213699
30
0
41
1
10
16.9695174005789
20
-6.03197979818987
30
0
41
1
10
15.8176205799314
20
-5.79738686132109
30
0
41
1
10
14.4941595429113
20
-5.44039384818828
30
0
41
1
10
14.3350485165856
20
-5.39605525570113
30
0
41
1
10
14.1761051969845
20
-5.35038887587484
30
0
0
SPLINE
5
B2
100
AcDbEntity
8
1
62
256
6
ByLayer
370
13
48
1
60
0
100
AcDbSpline
70
4
71
3
72
16
73
12
40
0
40
0
40
0
40
0
40
0.126848126019093
40
0.126848126019093
40
0.301478500815275
40
0.301478500815275
40
0.650739250407637
40
0.650739250407637
40
0.825369625203819
40
0.825369625203819
40
1
40
1
40
1
40
1
41
1
10
14.176105196844
20
-5.35038887583451
30
0
41
1
10
13.7541564029595
20
-5.22915777321589
30
0
41
1
10
13.3333895218266
20
-5.09856909241302
30
0
41
1
10
12.3364535307524
20
-4.76811178348933
30
0
41
1
10
11.7608785128078
20
-4.56059706609696
30
0
41
1
10
10.0360065287721
20
-3.89512670866418
30
0
41
1
10
8.88922657711007
20
-3.3935979701991
30
0
41
1
10
7.15777780469472
20
-2.57903821066583
30
0
41
1
10
6.57884687980405
20
-2.29697680155863
30
0
41
1
10
5.4149916808405
20
-1.71577348410557
30
0
41
1
10
4.83261331602921
20
-1.41822838763892
30
0
41
1
10
4.25022495190049
20
-1.11690405880449
30
0
0
SPLINE
5
B3
100
AcDbEntity
8
1
62
256
6
ByLayer
370
18
48
1
60
0
100
AcDbSpline
70
4
71
3
72
44
73
40
40
0
40
0
40
0
40
0
40
0.125000000000004
40
0.125000000000004
40
0.187500000000006
40
0.187500000000006
40
0.250000000000008
40
0.250000000000008
40
0.375000000000013
40
0.375000000000013
40
0.500000000000017
40
0.500000000000017
40
0.562500000000017
40
0.562500000000017
40
0.625000000000018
40
0.625000000000018
40
0.750000000000018
40
0.750000000000018
40
0.812500000000017
40
0.812500000000017
40
0.843750000000016
40
0.843750000000016
40
0.859375000000014
40
0.859375000000014
40
0.867187500000013
40
0.867187500000013
40
0.875000000000012
40
0.875000000000012
40
0.878906250000012
40
0.878906250000012
40
0.882812500000011
40
0.882812500000011
40
0.890625000000011
40
0.890625000000011
40
0.906250000000009
40
0.906250000000009
40
0.937500000000006
40
0.937500000000006
40
1
40
1
40
1
40
1
41
1
10
53.3150073010653
20
2.61882976669386
30
0
41
1
10
53.57622449852
20
2.36944126783885
30
0
41
1
10
53.8458407505653
20
2.13565955441689
30
0
41
1
10
54.2628082787087
20
1.80829416127273
30
0
41
1
10
54.4038896645125
20
1.70306002357859
30
0
41
1
10
54.6904654458348
20
1.50079182535217
30
0
41
1
10
54.8364622885302
20
1.40344510388743
30
0
41
1
10
55.2772488120254
20
1.12670229358056
30
0
41
1
10
55.5739678265458
20
0.962835571683314
30
0
41
1
10
56.1730945583238
20
0.676114254805185
30
0
41
1
10
56.4754904222993
20
0.55317420478633
30
0
41
1
10
56.9339161576477
20
0.403599507956045
30
0
41
1
10
57.0875388050433
20
0.359610223395776
30
0
41
1
10
57.3965441804016
20
0.284320777074271
30
0
41
1
10
57.5525370836647
20
0.25293633599972
30
0
41
1
10
58.017722322818
20
0.180620823045473
30
0
41
1
10
58.3243928576671
20
0.1607278039221
30
0
41
1
10
58.7781386042908
20
0.182226293536985
30
0
41
1
10
58.9280465968353
20
0.198127110725096
30
0
41
1
10
59.1488116021925
20
0.236443917784641
30
0
41
1
10
59.2217290363134
20
0.251616477582388
30
0
41
1
10
59.3298898356286
20
0.278075460878739
30
0
41
1
10
59.3657524255264
20
0.287514194325837
30
0
41
1
10
59.419239497131
20
0.302615874555869
30
0
41
1
10
59.4374896278522
20
0.306749361324705
30
0
41
1
10
59.4695042884444
20
0.324790217891376
30
0
41
1
10
59.4837834055368
20
0.338602401767076
30
0
41
1
10
59.4962379824336
20
0.366567619998563
30
0
41
1
10
59.4985095424606
20
0.377204312213479
30
0
41
1
10
59.5014242725534
20
0.399311272682127
30
0
41
1
10
59.5027437015063
20
0.410419187538991
30
0
41
1
10
59.5068437583886
20
0.443686984478177
30
0
41
1
10
59.5094291324924
20
0.465923920854465
30
0
41
1
10
59.5167522467608
20
0.532805610778667
30
0
41
1
10
59.5210552661128
20
0.577607883698391
30
0
41
1
10
59.5323042712184
20
0.712489063022076
30
0
41
1
10
59.5375986386493
20
0.803095489004022
30
0
41
1
10
59.5475170049833
20
1.07676951393265
30
0
41
1
10
59.5461383601369
20
1.26157485430465
30
0
41
1
10
59.538401225616
20
1.44620347901747
30
0
0
SPLINE
5
B4
100
AcDbEntity
8
1
62
256
6
ByLayer
370
18
48
1
60
0
100
AcDbSpline
70
4
71
3
72
8
73
4
40
0
40
0
40
0
40
0
40
1
40
1
40
1
40
1
41
1
10
61.9230546743628
20
1.507366854574
30
0
41
1
10
61.9535805387347
20
1.04910348552929
30
0
41
1
10
61.9756061430505
20
0.591335655775055
30
0
41
1
10
61.9891251265283
20
0.134063736125512
30
0
0
SPLINE
5
B5
100
AcDbEntity
8
1
62
256
6
ByLayer
370
13
48
1
60
0
100
AcDbSpline
70
4
71
3
72
8
73
4
40
0
40
0
40
0
40
0
40
1
40
1
40
1
40
1
41
1
10
4.13206391958033
20
-1.18709664193148
30
0
41
1
10
4.15432902180874
20
-1.19663456727318
30
0
41
1
10
4.17845077102226
20
-1.20817154257381
30
0
41
1
10
4.20306165984468
20
-1.22107063984498
30
0
0
SPLINE
5
B6
100
AcDbEntity
8
1
62
256
6
ByLayer
370
18
48
1
60
0
100
AcDbSpline
70
4
71
3
72
66
73
62
40
0
40
0
40
0
40
0
40
0.0160163260130508
40
0.0160163260130508
40
0.0524601657903447
40
0.0524601657903447
40
0.0889040055676387
40
0.0889040055676387
40
0.125347845344933
40
0.125347845344933
40
0.161791685122227
40
0.161791685122227
40
0.198235524899521
40
0.198235524899521
40
0.234679364676815
40
0.234679364676815
40
0.271123204454109
40
0.271123204454109
40
0.307567044231403
40
0.307567044231403
40
0.344010884008697
40
0.344010884008697
40
0.380454723785991
40
0.380454723785991
40
0.416898563563285
40
0.416898563563285
40
0.453342403340579
40
0.453342403340579
40
0.489786243117873
40
0.489786243117873
40
0.526230082895167
40
0.526230082895167
40
0.562673922672461
40
0.562673922672461
40
0.599117762449755
40
0.599117762449755
40
0.635561602227049
40
0.635561602227049
40
0.672005442004343
40
0.672005442004343
40
0.708449281781637
40
0.708449281781637
40
0.726671201670284
40
0.726671201670284
40
0.744893121558932
40
0.744893121558932
40
0.781336961336227
40
0.781336961336227
40
0.817780801113522
40
0.817780801113522
40
0.854224640890817
40
0.854224640890817
40
0.872446560779464
40
0.872446560779464
40
0.890668480668112
40
0.890668480668112
40
0.927112320445408
40
0.927112320445408
40
0.963556160222704
40
0.963556160222704
40
1
40
1
40
1
40
1
41
1
10
47.8944609345562
20
-4.8837311072179
30
0
41
1
10
47.7203538960107
20
-4.94326266373923
30
0
41
1
10
47.5461956864726
20
-5.00134262291908
30
0
41
1
10
46.9754463863212
20
-5.18646993880489
30
0
41
1
10
46.5779615097084
20
-5.30570180524904
30
0
41
1
10
45.7848235095271
20
-5.52619833246067
30
0
41
1
10
45.3889952380939
20
-5.62922288818501
30
0
41
1
10
44.5975945020264
20
-5.81643133257165
30
0
41
1
10
44.2017129536889
20
-5.90065525787423
30
0
41
1
10
43.4092184670184
20
-6.04988242854853
30
0
41
1
10
43.0125251727889
20
-6.1131070852673
30
0
41
1
10
42.218216372379
20
-6.22227099900448
30
0
41
1
10
41.8215304229564
20
-6.2678105224046
30
0
41
1
10
41.0289325488542
20
-6.33911396896994
30
0
41
1
10
40.6333537798665
20
-6.36513893528664
30
0
41
1
10
39.841598362887
20
-6.39461469639971
30
0
41
1
10
39.4450775627943
20
-6.39656055453543
30
0
41
1
10
38.651408495423
20
-6.38341985400899
30
0
41
1
10
38.2541455174575
20
-6.36783438480191
30
0
41
1
10
37.4608507745007
20
-6.31692386519597
30
0
41
1
10
37.0645797864846
20
-6.28188112520539
30
0
41
1
10
36.2724850459012
20
-6.18991646585377
30
0
41
1
10
35.8768264683696
20
-6.13211400151465
30
0
41
1
10
35.084694701365
20
-5.99996472541449
30
0
41
1
10
34.6880049596857
20
-5.92353457821258
30
0
41
1
10
33.8935806609924
20
-5.75202889240654
30
0
41
1
10
33.4966652957264
20
-5.65739552222576
30
0
41
1
10
32.7038950350461
20
-5.45169190143261
30
0
41
1
10
32.3077159580353
20
-5.34048494876097
30
0
41
1
10
31.5157148636118
20
-5.10023254212245
30
0
41
1
10
31.1198344226537
20
-4.96951076764432
30
0
41
1
10
30.3266565319448
20
-4.69472044544804
30
0
41
1
10
29.9291596116632
20
-4.55061441216753
30
0
41
1
10
29.135047665281
20
-4.24784108058381
30
0
41
1
10
28.7390198766889
20
-4.08935127907992
30
0
41
1
10
27.9467711606509
20
-3.76039781353899
30
0
41
1
10
27.5504178811256
20
-3.58865186480526
30
0
41
1
10
26.7581887451031
20
-3.23546016890722
30
0
41
1
10
26.3622681546645
20
-3.05332407835303
30
0
41
1
10
25.5687228799762
20
-2.6804599903582
30
0
41
1
10
25.1710038440204
20
-2.48948657585279
30
0
41
1
10
24.5763396516069
20
-2.19702139554318
30
0
41
1
10
24.3783069839079
20
-2.09834504809282
30
0
41
1
10
23.9822389867366
20
-1.89983490490528
30
0
41
1
10
23.7842340103702
20
-1.8000076497276
30
0
41
1
10
23.1901975037357
20
-1.49877130787078
30
0
41
1
10
22.7940472462113
20
-1.29566788433735
30
0
41
1
10
22.0019033565779
20
-0.884389305685431
30
0
41
1
10
21.6056906942959
20
-0.676609261635321
30
0
41
1
10
20.8111271205425
20
-0.259882039569334
30
0
41
1
10
20.4145148188786
20
-0.0514590156439567
30
0
41
1
10
19.8212117342859
20
0.2611630300988
30
0
41
1
10
19.623651971203
20
0.365306544510332
30
0
41
1
10
19.228524071979
20
0.572556550587649
30
0
41
1
10
19.0309724847737
20
0.675678140471831
30
0
41
1
10
18.4384426204632
20
0.984292507153498
30
0
41
1
10
18.0436074572426
20
1.18893060927601
30
0
41
1
10
17.2543549143107
20
1.59545805700626
30
0
41
1
10
16.8596064457299
20
1.79677227203305
30
0
41
1
10
16.0683034040189
20
2.19217819977459
30
0
41
1
10
15.6716018578707
20
2.38590980907333
30
0
41
1
10
15.2742579025911
20
2.57679866884288
30
0
0
SPLINE
5
B7
100
AcDbEntity
8
1
62
256
6
ByLayer
370
18
48
1
60
0
100
AcDbSpline
70
4
71
3
72
14
73
10
40
0
40
0
40
0
40
0
40
0.25
40
0.25
40
0.5
40
0.5
40
0.75
40
0.75
40
1
40
1
40
1
40
1
41
1
10
59.9715931518544
20
6.56077563793923
30
0
41
1
10
60.1213165754644
20
6.13655100243702
30
0
41
1
10
60.2750074316073
20
5.71284535599764
30
0
41
1
10
60.5891019836882
20
4.86655202493083
30
0
41
1
10
60.7495415485655
20
4.44396900571721
30
0
41
1
10
61.0763936632026
20
3.59998354370666
30
0
41
1
10
61.2428252185676
20
3.17874557833423
30
0
41
1
10
61.579751524275
20
2.34066194958083
30
0
41
1
10
61.7504067384507
20
1.92331287330396
30
0
41
1
10
61.9230546743627
20
1.50736685457417
30
0
0
SPLINE
5
B8
100
AcDbEntity
8
1
62
256
6
ByLayer
370
18
48
1
60
0
100
AcDbSpline
70
4
71
3
72
26
73
22
40
0
40
0
40
0
40
0
40
0.250000000000002
40
0.250000000000002
40
0.375000000000002
40
0.375000000000002
40
0.437500000000002
40
0.437500000000002
40
0.500000000000001
40
0.500000000000001
40
0.625
40
0.625
40
0.749999999999999
40
0.749999999999999
40
0.8125
40
0.8125
40
0.875
40
0.875
40
0.9375
40
0.9375
40
1
40
1
40
1
40
1
41
1
10
15.2742579025912
20
2.57679866884286
30
0
41
1
10
14.3063054257404
20
3.02755827644918
30
0
41
1
10
13.3569472214982
20
3.48064538466048
30
0
41
1
10
11.9385349794193
20
4.11648702995484
30
0
41
1
10
11.4694839119892
20
4.31980971057416
30
0
41
1
10
10.7699570599257
20
4.60616631929835
30
0
41
1
10
10.5374359125924
20
4.69859358241592
30
0
41
1
10
10.0733670770605
20
4.87858742895696
30
0
41
1
10
9.84184332311793
20
4.96583421389084
30
0
41
1
10
9.14860420820338
20
5.21851500886964
30
0
41
1
10
8.68816736742684
20
5.3749669775865
30
0
41
1
10
7.77070193636962
20
5.65964261293357
30
0
41
1
10
7.31371406928008
20
5.78689920632371
30
0
41
1
10
6.63195558752795
20
5.95611923152811
30
0
41
1
10
6.40574881513268
20
6.00858738293024
30
0
41
1
10
5.95863709094658
20
6.1043852723713
30
0
41
1
10
5.73735409737063
20
6.1478601794488
30
0
41
1
10
5.30047043165138
20
6.22504177982077
30
0
41
1
10
5.08486359638056
20
6.2587363607152
30
0
41
1
10
4.6612376898027
20
6.31463949007309
30
0
41
1
10
4.45318634758149
20
6.3368747793495
30
0
41
1
10
4.25050496967842
20
6.35198172089252
30
0
0
SPLINE
5
B9
100
AcDbEntity
8
1
62
256
6
ByLayer
370
18
48
1
60
0
100
AcDbSpline
70
4
71
3
72
10
73
6
40
0
40
0
40
0
40
0
40
0.5
40
0.5
40
1
40
1
40
1
40
1
41
1
10
61.9999675793801
20
0.0481961167903933
30
0
41
1
10
61.9952276414513
20
0.0266003502484011
30
0
41
1
10
61.9884110569628
20
0.0031322241092653
30
0
41
1
10
61.9713419639685
20
-0.0418613820741314
30
0
41
1
10
61.9609760974804
20
-0.0634834185154318
30
0
41
1
10
61.9504607816809
20
-0.0806879958491038
30
0
0
SPLINE
5
BA
100
AcDbEntity
8
1
62
256
6
ByLayer
370
18
48
1
60
0
100
AcDbSpline
70
4
71
3
72
8
73
4
40
0
40
0
40
0
40
0
40
1
40
1
40
1
40
1
41
1
10
61.9230546743627
20
-1.50736685457406
30
0
41
1
10
61.9535763036242
20
-1.04916706426951
30
0
41
1
10
61.9756042664595
20
-0.591399130398571
30
0
41
1
10
61.9891251265284
20
-0.134063736125512
30
0
0
SPLINE
5
BB
100
AcDbEntity
8
1
62
256
6
ByLayer
370
18
48
1
60
0
100
AcDbSpline
70
4
71
3
72
16
73
12
40
0
40
0
40
0
40
0
40
0.106974730135629
40
0.106974730135629
40
0.213949460271257
40
0.213949460271257
40
0.427898920542514
40
0.427898920542514
40
0.855797841085029
40
0.855797841085029
40
1
40
1
40
1
40
1
41
1
10
4.20306165984465
20
-1.22107063984498
30
0
41
1
10
4.49453146079691
20
-1.3738362445828
30
0
41
1
10
4.78585891153031
20
-1.52548588811427
30
0
41
1
10
5.36854157545602
20
-1.82599249318221
30
0
41
1
10
5.66013654954355
20
-1.97497337295906
30
0
41
1
10
6.53377719834452
20
-2.41599127971224
30
0
41
1
10
7.11311683918365
20
-2.70100675617971
30
0
41
1
10
8.84568570487733
20
-3.52297600693461
30
0
41
1
10
9.99303618456574
20
-4.02762100328974
30
0
41
1
10
11.5313539051988
20
-4.62244336280318
30
0
41
1
10
11.9193929498188
20
-4.76566384148771
30
0
41
1
10
12.3081237245526
20
-4.90162973398319
30
0
0
SPLINE
5
BC
100
AcDbEntity
8
1
62
256
6
ByLayer
370
13
48
1
60
0
100
AcDbSpline
70
4
71
3
72
18
73
14
40
0
40
0
40
0
40
0
40
0.0531941638638141
40
0.0531941638638141
40
0.134780535361047
40
0.134780535361047
40
0.216366906858279
40
0.216366906858279
40
0.542712392847207
40
0.542712392847207
40
0.869057878836135
40
0.869057878836135
40
1
40
1
40
1
40
1
41
1
10
12.308123517904
20
-4.90162966170394
30
0
41
1
10
12.49614381255
20
-4.96739329383684
30
0
41
1
10
12.6843259331773
20
-5.03145976025567
30
0
41
1
10
13.1616554982262
20
-5.18933127312999
30
0
41
1
10
13.4510876202116
20
-5.28075049759508
30
0
41
1
10
14.0313023011467
20
-5.45477148455583
30
0
41
1
10
14.3223427364715
20
-5.53744176017057
30
0
41
1
10
15.7787793002648
20
-5.92686164551193
30
0
41
1
10
16.9313412376091
20
-6.1569577812964
30
0
41
1
10
19.2311293939456
20
-6.44691762390164
30
0
41
1
10
20.378793142736
20
-6.5066166190478
30
0
41
1
10
21.9976404923169
20
-6.46620621830738
30
0
41
1
10
22.4625261031211
20
-6.44046285531357
30
0
41
1
10
22.9292338696333
20
-6.40030753322082
30
0
0
SPLINE
5
BD
100
AcDbEntity
8
1
62
256
6
ByLayer
370
18
48
1
60
0
100
AcDbSpline
70
4
71
3
72
60
73
56
40
0
40
0
40
0
40
0
40
0.0448411936643692
40
0.0448411936643692
40
0.0896823873287385
40
0.0896823873287385
40
0.134523580993108
40
0.134523580993108
40
0.156944177825293
40
0.156944177825293
40
0.179364774657478
40
0.179364774657478
40
0.224205968321849
40
0.224205968321849
40
0.246626565154034
40
0.246626565154034
40
0.269047161986219
40
0.269047161986219
40
0.358729549314959
40
0.358729549314959
40
0.381150146147144
40
0.381150146147144
40
0.403570742979329
40
0.403570742979329
40
0.4484119366437
40
0.4484119366437
40
0.49325313030807
40
0.49325313030807
40
0.538094323972441
40
0.538094323972441
40
0.582935517636811
40
0.582935517636811
40
0.627776711301181
40
0.627776711301181
40
0.672617904965552
40
0.672617904965552
40
0.695038501797737
40
0.695038501797737
40
0.717459098629922
40
0.717459098629922
40
0.762300292294293
40
0.762300292294293
40
0.784720889126478
40
0.784720889126478
40
0.807141485958662
40
0.807141485958662
40
0.896823873287401
40
0.896823873287401
40
0.919244470119585
40
0.919244470119585
40
0.94166506695177
40
0.94166506695177
40
0.98650626061614
40
0.98650626061614
40
1
40
1
40
1
40
1
41
1
10
59.6171141113069
20
-6.73965278934858
30
0
41
1
10
59.0388659233506
20
-6.75408825017635
30
0
41
1
10
58.4605409564617
20
-6.74546149217178
30
0
41
1
10
57.3028860008404
20
-6.68230389408959
30
0
41
1
10
56.7256285316159
20
-6.62789840391861
30
0
41
1
10
55.5715998434014
20
-6.47463841979888
30
0
41
1
10
54.9947412419247
20
-6.37582186578791
30
0
41
1
10
54.1277118303885
20
-6.19525631750594
30
0
41
1
10
53.8381216951748
20
-6.12961571581423
30
0
41
1
10
53.259568457884
20
-5.9881316041706
30
0
41
1
10
52.9706546583054
20
-5.9123128824416
30
0
41
1
10
52.1044847876343
20
-5.67015115903109
30
0
41
1
10
51.5277804370913
20
-5.48912005276026
30
0
41
1
10
50.6617858808952
20
-5.19030012671098
30
0
41
1
10
50.3729626977229
20
-5.08614977490834
30
0
41
1
10
49.7946251162051
20
-4.86915984385149
30
0
41
1
10
49.5049072773747
20
-4.75622827693837
30
0
41
1
10
48.0590071444586
20
-4.17286940068641
30
0
41
1
10
46.9076244606778
20
-3.64496882385976
30
0
41
1
10
45.4608846494148
20
-2.92946861817637
30
0
41
1
10
45.1712310264901
20
-2.78359703204609
30
0
41
1
10
44.5930835703693
20
-2.48791202658478
30
0
41
1
10
44.3043136340401
20
-2.3379650432266
30
0
41
1
10
43.4383869163988
20
-1.88272432081675
30
0
41
1
10
42.8615296219642
20
-1.57217480289594
30
0
41
1
10
41.7059968806527
20
-0.941626201681316
30
0
41
1
10
41.1263277433459
20
-0.62110548146066
30
0
41
1
10
39.970415364987
20
0.0202175660080286
30
0
41
1
10
39.3934431320176
20
0.341197953572561
30
0
41
1
10
38.2388914914877
20
0.979144970978211
30
0
41
1
10
37.6608879825446
20
1.29604529062675
30
0
41
1
10
36.5026591188083
20
1.92001446475555
30
0
41
1
10
35.9251568195533
20
2.22563753857801
30
0
41
1
10
34.7706058550936
20
2.81952577172152
30
0
41
1
10
34.1935482787985
20
3.10777439719624
30
0
41
1
10
33.3261486022993
20
3.52355829053275
30
0
41
1
10
33.0364302369492
20
3.65949873124106
30
0
41
1
10
32.4575642947878
20
3.92457545255854
30
0
41
1
10
32.168484219155
20
4.05368583534059
30
0
41
1
10
31.301815936462
20
4.43009085900758
30
0
41
1
10
30.7249288528933
20
4.66662979870935
30
0
41
1
10
29.8585847805976
20
4.99669018582719
30
0
41
1
10
29.5696251440936
20
5.10257719383372
30
0
41
1
10
28.9910161673811
20
5.30565573813021
30
0
41
1
10
28.7011507549668
20
5.40290789113851
30
0
41
1
10
27.2544481953936
20
5.86477016000697
30
0
41
1
10
26.1027518929049
20
6.15777192735934
30
0
41
1
10
24.6552780923988
20
6.41606431820759
30
0
41
1
10
24.3654940245481
20
6.46235193753793
30
0
41
1
10
23.7871243930793
20
6.54366271341792
30
0
41
1
10
23.498245060316
20
6.57872854693218
30
0
41
1
10
22.6318837124455
20
6.66698733695952
30
0
41
1
10
22.0547395412448
20
6.70327367697598
30
0
41
1
10
21.3027827996955
20
6.72074852965798
30
0
41
1
10
21.1286725920584
20
6.72271053388343
30
0
41
1
10
20.9544868570786
20
6.72259632635127
30
0
0
SPLINE
5
BE
100
AcDbEntity
8
1
62
256
6
ByLayer
370
18
48
1
60
0
100
AcDbSpline
70
4
71
3
72
30
73
26
40
0
40
0
40
0
40
0
40
0.0352550493884355
40
0.0352550493884355
40
0.122959135807669
40
0.122959135807669
40
0.210663222226902
40
0.210663222226902
40
0.298367308646135
40
0.298367308646135
40
0.386071395065368
40
0.386071395065368
40
0.473775481484602
40
0.473775481484602
40
0.561479567903835
40
0.561479567903835
40
0.649183654323068
40
0.649183654323068
40
0.736887740742301
40
0.736887740742301
40
0.824591827161535
40
0.824591827161535
40
0.912295913580767
40
0.912295913580767
40
1
40
1
40
1
40
1
41
1
10
39.7582033360297
20
6.39175011819873
30
0
41
1
10
39.9174482847278
20
6.38969464754123
30
0
41
1
10
40.0767039451903
20
6.38585016531519
30
0
41
1
10
40.6321533712287
20
6.36521311659624
30
0
41
1
10
41.0291015865388
20
6.33911206376831
30
0
41
1
10
41.8229706125666
20
6.26766763180348
30
0
41
1
10
42.2193557837454
20
6.22211417031292
30
0
41
1
10
43.011354220814
20
6.11326824865699
30
0
41
1
10
43.4071438489356
20
6.05023452263558
30
0
41
1
10
44.1993303882024
20
5.90114223772068
30
0
41
1
10
44.5955979840251
20
5.8168859893398
30
0
41
1
10
45.3888441204333
20
5.6292762140321
30
0
41
1
10
45.7861684416204
20
5.52584482149104
30
0
41
1
10
46.5796476049223
20
5.30521259669868
30
0
41
1
10
46.9758225445389
20
5.1863422792226
30
0
41
1
10
47.7673042077939
20
4.92962986619884
30
0
41
1
10
48.1631227329055
20
4.79304180136404
30
0
41
1
10
48.9558389185881
20
4.50585829203166
30
0
41
1
10
49.3525999707635
20
4.35502013709362
30
0
41
1
10
50.1467200001823
20
4.03974159353902
30
0
41
1
10
50.5432092145875
20
3.87574681828173
30
0
41
1
10
51.3355755811169
20
3.53578719669298
30
0
41
1
10
51.7313180102076
20
3.35999258614942
30
0
41
1
10
52.5225071390954
20
2.99645159073012
30
0
41
1
10
52.9184777243445
20
2.80966138238316
30
0
41
1
10
53.3150073010652
20
2.61882976669389
30
0
0
SPLINE
5
BF
100
AcDbEntity
8
1
62
256
6
ByLayer
370
18
48
1
60
0
100
AcDbSpline
70
4
71
3
72
45
73
41
40
0
40
0
40
0
40
0
40
0.0904462335511125
40
0.0904462335511125
40
0.150580286426028
40
0.150580286426028
40
0.180647312863485
40
0.180647312863485
40
0.210714339300943
40
0.210714339300943
40
0.330982445050773
40
0.330982445050773
40
0.451250550800603
40
0.451250550800603
40
0.511384603675518
40
0.511384603675518
40
0.571518656550434
40
0.571518656550434
40
0.575277034855116
40
0.575277034855116
40
0.579035413159798
40
0.579035413159798
40
0.586552169769162
40
0.586552169769162
40
0.590310548073845
40
0.590310548073845
40
0.594068926378527
40
0.601585682987891
40
0.601585682987891
40
0.631652709425349
40
0.631652709425349
40
0.691786762300265
40
0.691786762300265
40
0.812054868050096
40
0.812054868050096
40
0.872188920925012
40
0.872188920925012
40
0.932322973799927
40
0.932322973799927
40
1
40
1
40
1
40
1
41
1
10
15.2742579025912
20
6.40189211494211
30
0
41
1
10
15.2742579025912
20
6.08057810646699
30
0
41
1
10
15.2742579025912
20
5.76487863934778
30
0
41
1
10
15.2742579025912
20
5.24814300927761
30
0
41
1
10
15.2742579025912
20
5.04415074857292
30
0
41
1
10
15.2742579025912
20
4.74168844659494
30
0
41
1
10
15.2742579025912
20
4.64145604856947
30
0
41
1
10
15.2742579025912
20
4.4421725194903
30
0
41
1
10
15.2742579025912
20
4.34301450033891
30
0
41
1
10
15.2742579025912
20
3.85467656378819
30
0
41
1
10
15.2742579025912
20
3.48419675648179
30
0
41
1
10
15.2742579025912
20
2.78026932638943
30
0
41
1
10
15.2742579025912
20
2.44684616449695
30
0
41
1
10
15.2742579025912
20
1.97405818243126
30
0
41
1
10
15.2742579025912
20
1.82069634258639
30
0
41
1
10
15.2742579025912
20
1.52543464052988
30
0
41
1
10
15.2742579025912
20
1.38338575480097
30
0
41
1
10
15.2742579025912
20
1.23858877611573
30
0
41
1
10
15.2742579025912
20
1.2300944183834
30
0
41
1
10
15.2742579025912
20
1.2131518797103
30
0
41
1
10
15.2742579025912
20
1.20437397982238
30
0
41
1
10
15.2742579025912
20
1.1828443737806
30
0
41
1
10
15.2742579025912
20
1.17388750023036
30
0
41
1
10
15.2742579025912
20
1.17081130703761
30
0
41
1
10
15.2742579025912
20
1.17186066550283
30
0
41
1
10
15.2742579025912
20
1.17300562096798
30
0
41
1
10
15.2742579025912
20
1.17482344383066
30
0
41
1
10
15.2742579025912
20
1.17694307042962
30
0
41
1
10
15.2742579025912
20
1.18467724737749
30
0
41
1
10
15.2742579025912
20
1.19300607641065
30
0
41
1
10
15.2742579025912
20
1.22447596475294
30
0
41
1
10
15.2742579025912
20
1.25413917858617
30
0
41
1
10
15.2742579025912
20
1.36958751201286
30
0
41
1
10
15.2742579025912
20
1.48072463815367
30
0
41
1
10
15.2742579025912
20
1.70044813174903
30
0
41
1
10
15.2742579025912
20
1.78257043412199
30
0
41
1
10
15.2742579025912
20
1.96549955169402
30
0
41
1
10
15.2742579025912
20
2.06674642141513
30
0
41
1
10
15.2742579025912
20
2.29906094729216
30
0
41
1
10
15.2742579025912
20
2.43252233670876
30
0
41
1
10
15.2742579025912
20
2.57679866884286
30
0
0
SPLINE
5
C0
100
AcDbEntity
8
1
62
256
6
ByLayer
370
18
48
1
60
0
100
AcDbSpline
70
4
71
3
72
8
73
4
40
0
40
0
40
0
40
0
40
1
40
1
40
1
40
1
41
1
10
61.9504607816809
20
-0.0806879958491038
30
0
41
1
10
60.968081382051
20
-1.68800276166883
30
0
41
1
10
60.0479511684732
20
-3.35187493210097
30
0
41
1
10
59.1922708492765
20
-5.0743039927498
30
0
0
SPLINE
5
C1
100
AcDbEntity
8
1
62
256
6
ByLayer
370
18
48
1
60
0
100
AcDbSpline
70
4
71
3
72
8
73
4
40
0
40
0
40
0
40
0
40
1
40
1
40
1
40
1
41
1
10
59.9715931518638
20
-6.56077563791143
30
0
41
1
10
59.8397196158322
20
-6.65955815536122
30
0
41
1
10
59.721859163343
20
-6.71990292457605
30
0
41
1
10
59.6171141113069
20
-6.73965278934858
30
0
0
SPLINE
5
C2
100
AcDbEntity
8
1
62
256
6
ByLayer
370
13
48
1
60
0
100
AcDbSpline
70
4
71
3
72
8
73
4
40
0
40
0
40
0
40
0
40
1
40
1
40
1
40
1
41
1
10
4.25022495190052
20
-1.11690405880449
30
0
41
1
10
4.20902193006617
20
-1.10411063838865
30
0
41
1
10
4.16879758288286
20
-1.09343951480847
30
0
41
1
10
4.13206391958036
20
-1.08546327550559
30
0
0
SPLINE
5
C3
100
AcDbEntity
8
1
62
256
6
ByLayer
370
18
48
1
60
0
100
AcDbSpline
70
4
71
3
72
14
73
10
40
0
40
0
40
0
40
0
40
0.25
40
0.25
40
0.5
40
0.5
40
0.75
40
0.75
40
1
40
1
40
1
40
1
41
1
10
59.538401225616
20
1.44620347901747
30
0
41
1
10
59.5375584969537
20
1.46631322811362
30
0
41
1
10
59.5422216264174
20
1.48659625626959
30
0
41
1
10
59.563026063699
20
1.52162008087583
30
0
41
1
10
59.5791101157978
20
1.5361856133118
30
0
41
1
10
59.6150813673395
20
1.55688809752047
30
0
41
1
10
59.6352765964349
20
1.56358788279573
30
0
41
1
10
59.6758977209217
20
1.57144989345431
30
0
41
1
10
59.6967011421248
20
1.57274263036041
30
0
41
1
10
59.7174863546176
20
1.57206549113428
30
0
0
SPLINE
5
C4
100
AcDbEntity
8
1
62
256
6
ByLayer
370
13
48
1
60
0
100
AcDbSpline
70
4
71
3
72
31
73
27
40
0
40
0
40
0
40
0
40
0.125
40
0.125
40
0.15625
40
0.15625
40
0.1875
40
0.1875
40
0.25
40
0.25
40
0.375
40
0.375
40
0.5
40
0.5
40
0.5625
40
0.5625
40
0.625
40
0.625
40
0.6875
40
0.6875
40
0.75
40
0.8125
40
0.8125
40
0.875
40
0.875
40
1
40
1
40
1
40
1
41
1
10
4.25022495190052
20
-1.11690405880449
30
0
41
1
10
4.25023851872893
20
-0.678599498510351
30
0
41
1
10
4.2502429472184
20
-0.238751195439932
30
0
41
1
10
4.25024222036618
20
0.312942037646934
30
0
41
1
10
4.25024175937682
20
0.42337579270847
30
0
41
1
10
4.25024032871445
20
0.644436244412447
30
0
41
1
10
4.25023935584764
20
0.755286952077341
30
0
41
1
10
4.25023589910825
20
1.08473600582624
30
0
41
1
10
4.25023287909534
20
1.30116481656159
30
0
41
1
10
4.25022323407995
20
1.94110826612348
30
0
41
1
10
4.2502160432289
20
2.35538157735974
30
0
41
1
10
4.25020744332193
20
3.15819530183916
30
0
41
1
10
4.25020624954328
20
3.53259452542093
30
0
41
1
10
4.2502125918042
20
4.05524637089502
30
0
41
1
10
4.25021604523616
20
4.22292214226519
30
0
41
1
10
4.25022605249023
20
4.54481616938534
30
0
41
1
10
4.2502326106636
20
4.69863722352545
30
0
41
1
10
4.25024882847492
20
4.98787356015717
30
0
41
1
10
4.25025849010348
20
5.12336113797434
30
0
41
1
10
4.250280522092
20
5.37345539131672
30
0
41
1
10
4.25030531440629
20
5.60367230968095
30
0
41
1
10
4.25033498557994
20
5.79457443020428
30
0
41
1
10
4.25036665130764
20
5.96539960703413
30
0
41
1
10
4.250383556126
20
6.04091908375128
30
0
41
1
10
4.25043514443763
20
6.23194440632889
30
0
41
1
10
4.2504710481092
20
6.31431468027102
30
0
41
1
10
4.25050496958437
20
6.35198172089932
30
0
0
SPLINE
5
C5
100
AcDbEntity
8
1
62
256
6
ByLayer
370
18
48
1
60
0
100
AcDbSpline
70
4
71
3
72
14
73
10
40
0
40
0
40
0
40
0
40
0.373344011278759
40
0.373344011278759
40
0.560016016918138
40
0.560016016918138
40
0.746688022557517
40
0.746688022557517
40
1
40
1
40
1
40
1
41
1
10
15.2742579025912
20
-6.40189211494229
30
0
41
1
10
15.7434655689987
20
-6.48177681018515
30
0
41
1
10
16.2118308897678
20
-6.54596851803035
30
0
41
1
10
16.9120885861341
20
-6.62041972409327
30
0
41
1
10
17.1450856748649
20
-6.64159214521069
30
0
41
1
10
17.6099450757618
20
-6.67668016916056
30
0
41
1
10
17.8419434354188
20
-6.69053706736804
30
0
41
1
10
18.3890078379758
20
-6.71435954745826
30
0
41
1
10
18.7039666460771
20
-6.72127313810819
30
0
41
1
10
19.0187012439813
20
-6.7214181462252
30
0
0
SPLINE
5
C6
100
AcDbEntity
8
1
62
256
6
ByLayer
370
18
48
1
60
0
100
AcDbSpline
70
4
71
3
72
32
73
28
40
0
40
0
40
0
40
0
40
0.0163180949673499
40
0.0163180949673499
40
0.0741817364398589
40
0.0741817364398589
40
0.132045377912368
40
0.132045377912368
40
0.189909019384877
40
0.189909019384877
40
0.305636302329894
40
0.305636302329894
40
0.421363585274912
40
0.421363585274912
40
0.537090868219929
40
0.537090868219929
40
0.594954509692438
40
0.594954509692438
40
0.652818151164947
40
0.652818151164947
40
0.710681792637455
40
0.710681792637455
40
0.768545434109964
40
0.768545434109964
40
0.884272717054982
40
0.884272717054982
40
1
40
1
40
1
40
1
41
1
10
47.8878680217866
20
4.88102441940094
30
0
41
1
10
47.9535465959245
20
4.9062927257514
30
0
41
1
10
48.0192673231826
20
4.93133970905225
30
0
41
1
10
48.3182765945259
20
5.04412696924246
30
0
41
1
10
48.5520725747543
20
5.12928703728639
30
0
41
1
10
49.0206355086569
20
5.29414858841045
30
0
41
1
10
49.2557636685113
20
5.37395836158066
30
0
41
1
10
49.7248926352478
20
5.52763976804189
30
0
41
1
10
49.9585913572231
20
5.60161416047944
30
0
41
1
10
50.6590708352841
20
5.81287360678149
30
0
41
1
10
51.1251827380139
20
5.93972850929848
30
0
41
1
10
52.0544784220815
20
6.16731952621566
30
0
41
1
10
52.5171158701154
20
6.26827049914843
30
0
41
1
10
53.4438567754897
20
6.44080649277421
30
0
41
1
10
53.907397309366
20
6.51297633114442
30
0
41
1
10
54.6017381451659
20
6.60042389139235
30
0
41
1
10
54.8332307552062
20
6.62598326199821
30
0
41
1
10
55.2971285100735
20
6.66966038565752
30
0
41
1
10
55.5294284333461
20
6.68782755929681
30
0
41
1
10
55.994570399304
20
6.71686271016517
30
0
41
1
10
56.2274225173551
20
6.72773043064103
30
0
41
1
10
56.6934440974682
20
6.74207484420117
30
0
41
1
10
56.9265074548189
20
6.7455332613813
30
0
41
1
10
57.6279082463424
20
6.74452280561977
30
0
41
1
10
58.0988833828979
20
6.72874392197013
30
0
41
1
10
59.0363998014322
20
6.66719112308019
30
0
41
1
10
59.5034599965197
20
6.6211321195872
30
0
41
1
10
59.9715931518644
20
6.56077563791098
30
0
0
SPLINE
5
C7
100
AcDbEntity
8
1
62
256
6
ByLayer
370
18
48
1
60
0
100
AcDbSpline
70
4
71
3
72
18
73
14
40
0
40
0
40
0
40
0
40
0.151514803125242
40
0.151514803125242
40
0.303029606250485
40
0.303029606250485
40
0.454544409375727
40
0.454544409375727
40
0.60605921250097
40
0.60605921250097
40
0.909088818751454
40
0.909088818751454
40
1
40
1
40
1
40
1
41
1
10
4.25050496978633
20
-6.35198172088451
30
0
41
1
10
4.45318495013248
20
-6.33687488350657
30
0
41
1
10
4.6612643504979
20
-6.3146372916695
30
0
41
1
10
5.08499599652944
20
-6.25871756840814
30
0
41
1
10
5.30068051430871
20
-6.22500883137539
30
0
41
1
10
5.737761959708
20
-6.1477839533882
30
0
41
1
10
5.95916498075846
20
-6.10428004887061
30
0
41
1
10
6.40655465295799
20
-6.0084068192163
30
0
41
1
10
6.63298810303624
20
-5.95587241735092
30
0
41
1
10
7.31435458188207
20
-5.78672123220474
30
0
41
1
10
7.77113188649315
20
-5.65951461481924
30
0
41
1
10
8.36728272476526
20
-5.4745310000929
30
0
41
1
10
8.50501650118801
20
-5.43057078324125
30
0
41
1
10
8.64290846181009
20
-5.38539653689858
30
0
0
SPLINE
5
C8
100
AcDbEntity
8
1
62
256
6
ByLayer
370
18
48
1
60
0
100
AcDbSpline
70
4
71
3
72
8
73
4
40
0
40
0
40
0
40
0
40
1
40
1
40
1
40
1
41
1
10
59.6171141113069
20
6.73965278934858
30
0
41
1
10
59.4309373253806
20
6.74430053015649
30
0
41
1
10
59.2447606904094
20
6.7465587504617
30
0
41
1
10
59.0585435360117
20
6.74642925712388
30
0
0
SPLINE
5
C9
100
AcDbEntity
8
1
62
256
6
ByLayer
370
18
48
1
60
0
100
AcDbSpline
70
4
71
3
72
32
73
28
40
0
40
0
40
0
40
0
40
0.160156398220433
40
0.160156398220433
40
0.244140758398389
40
0.244140758398389
40
0.328125118576345
40
0.328125118576345
40
0.370117298665324
40
0.370117298665324
40
0.412109478754302
40
0.412109478754302
40
0.49609383893226
40
0.49609383893226
40
0.580078199110217
40
0.580078199110217
40
0.622070379199196
40
0.622070379199196
40
0.664062559288175
40
0.664062559288175
40
0.748046919466131
40
0.748046919466131
40
0.790039099555109
40
0.790039099555109
40
0.832031279644087
40
0.832031279644087
40
1
40
1
40
1
40
1
41
1
10
24.7821894933487
20
-6.39284599650006
30
0
41
1
10
23.6778296433325
20
-6.5821382277129
30
0
41
1
10
22.5788800670611
20
-6.69112440474225
30
0
41
1
10
20.897812580606
20
-6.73014326519646
30
0
41
1
10
20.3179083042716
20
-6.72056752185651
30
0
41
1
10
19.1618080378777
20
-6.6558302944409
30
0
41
1
10
18.5847177423487
20
-6.60070586753295
30
0
41
1
10
17.7182334480464
20
-6.48462773500464
30
0
41
1
10
17.4292503980302
20
-6.44037962025337
30
0
41
1
10
16.8506480625097
20
-6.34090164369422
30
0
41
1
10
16.5607519365408
20
-6.28561039126001
30
0
41
1
10
15.6922017603983
20
-6.10398816279132
30
0
41
1
10
15.1147254620821
20
-5.96183989388601
30
0
41
1
10
13.9596963670349
20
-5.6382295755096
30
0
41
1
10
13.3821639129877
20
-5.45676989954865
30
0
41
1
10
12.5138683234772
20
-5.15694256484099
30
0
41
1
10
12.2239251290796
20
-5.05233782295753
30
0
41
1
10
11.6451231149984
20
-4.83513296005063
30
0
41
1
10
11.3560247719621
20
-4.72245536362468
30
0
41
1
10
10.489152350054
20
-4.37287989255694
30
0
41
1
10
9.91196118284077
20
-4.12421343187054
30
0
41
1
10
9.04488556722012
20
-3.73107461572695
30
0
41
1
10
8.75563178379105
20
-3.59669616433371
30
0
41
1
10
8.17637181942965
20
-3.32169143132964
30
0
41
1
10
7.88655669476071
20
-3.18114874492034
30
0
41
1
10
6.44014871127021
20
-2.46694131499015
30
0
41
1
10
5.28783874202199
20
-1.85624555456076
30
0
41
1
10
4.12896380683463
20
-1.22567248688512
30
0
0
SPLINE
5
CA
100
AcDbEntity
8
1
62
256
6
ByLayer
370
18
48
1
60
0
100
AcDbSpline
70
4
71
3
72
18
73
14
40
0
40
0
40
0
40
0
40
0.195043957186192
40
0.195043957186192
40
0.37732570220527
40
0.37732570220527
40
0.468466574714808
40
0.468466574714808
40
0.559607447224347
40
0.559607447224347
40
0.924170937262498
40
0.924170937262498
40
1
40
1
40
1
40
1
41
1
10
30.1281933572034
20
4.72098090072089
30
0
41
1
10
30.7494480784388
20
4.49303618602704
30
0
41
1
10
31.3709804846864
20
4.24635086751331
30
0
41
1
10
32.5772545737404
20
3.73728947385382
30
0
41
1
10
33.1590144407003
20
3.4777943054338
30
0
41
1
10
34.0322317578585
20
3.07149498419639
30
0
41
1
10
34.3237596374339
20
2.93309062055977
30
0
41
1
10
34.9054962056574
20
2.65208055711358
30
0
41
1
10
35.1955861471439
20
2.5095156051436
30
0
41
1
10
36.6430718395943
20
1.78811610159025
30
0
41
1
10
37.7915714235537
20
1.18359807773098
30
0
41
1
10
39.1794860130321
20
0.442916244940733
30
0
41
1
10
39.4184983987209
20
0.315038872141031
30
0
41
1
10
39.6576355965626
20
0.186990678250737
30
0
0
SPLINE
5
CB
100
AcDbEntity
8
1
62
256
6
ByLayer
370
18
48
1
60
0
100
AcDbSpline
70
4
71
3
72
18
73
14
40
0
40
0
40
0
40
0
40
0.248588319339111
40
0.248588319339111
40
0.339679558741769
40
0.339679558741769
40
0.430770798144425
40
0.430770798144425
40
0.612953276949739
40
0.612953276949739
40
0.977318234560367
40
0.977318234560367
40
1
40
1
40
1
40
1
41
1
10
40.0362902319954
20
-0.0158178320855882
30
0
41
1
10
40.8211891237906
20
-0.436257501351292
30
0
41
1
10
41.6079458637922
20
-0.857557846301688
30
0
41
1
10
42.6899105076545
20
-1.426112794548
30
0
41
1
10
42.9812755948612
20
-1.57809343014671
30
0
41
1
10
43.5630329885594
20
-1.87862363170987
30
0
41
1
10
43.8531053815827
20
-2.02707469400724
30
0
41
1
10
44.7215015247236
20
-2.46592410057116
30
0
41
1
10
45.2980306041565
20
-2.74980299135549
30
0
41
1
10
47.0243363750827
20
-3.56911964623427
30
0
41
1
10
48.170513472794
20
-4.07278937329568
30
0
41
1
10
49.394177043222
20
-4.5450414277168
30
0
41
1
10
49.4659082284862
20
-4.57248786749585
30
0
41
1
10
49.53766379139
20
-4.59970220990101
30
0
0
SPLINE
5
CC
100
AcDbEntity
8
1
62
256
6
ByLayer
370
13
48
1
60
0
100
AcDbSpline
70
4
71
3
72
16
73
12
40
0
40
0
40
0
40
0
40
0.149008557795638
40
0.149008557795638
40
0.234107702016074
40
0.234107702016074
40
0.319206846236511
40
0.319206846236511
40
0.659603423118255
40
0.659603423118255
40
1
40
1
40
1
40
1
41
1
10
49.5376637912519
20
-4.5997022098486
30
0
41
1
10
50.0422569413141
20
-4.79107651179152
30
0
41
1
10
50.5480555802419
20
-4.9709734597501
30
0
41
1
10
51.3459733721587
20
-5.23363448783238
30
0
41
1
10
51.6371825204852
20
-5.32508504338011
30
0
41
1
10
52.2189214050114
20
-5.4984751290566
30
0
41
1
10
52.5090219823731
20
-5.58030748992616
30
0
41
1
10
53.9565385427147
20
-5.96447877265203
30
0
41
1
10
55.1050821971294
20
-6.19147219872792
30
0
41
1
10
57.4036895629283
20
-6.47562524621759
30
0
41
1
10
58.5539316002825
20
-6.53285548947238
30
0
41
1
10
59.7149239748492
20
-6.49950133727179
30
0
0
SPLINE
5
CD
100
AcDbEntity
8
1
62
256
6
ByLayer
370
18
48
1
60
0
100
AcDbSpline
70
4
71
3
72
8
73
4
40
0
40
0
40
0
40
0
40
1
40
1
40
1
40
1
41
1
10
61.9891251265284
20
-0.134063736125427
30
0
41
1
10
61.9898592997675
20
-0.109230744285497
30
0
41
1
10
61.993915252322
20
-0.0796267985949157
30
0
41
1
10
61.9999675793801
20
-0.0481961167904217
30
0
0
SPLINE
5
CE
100
AcDbEntity
8
1
62
256
6
ByLayer
370
13
48
1
60
0
100
AcDbSpline
70
4
71
3
72
12
73
8
40
0
40
0
40
0
40
0
40
0.499999999999981
40
0.499999999999981
40
0.74999999999999
40
0.74999999999999
40
1
40
1
40
1
40
1
41
1
10
3.99999973882402
20
-0.994008415004686
30
0
41
1
10
3.99999973882404
20
-1.01219533147187
30
0
41
1
10
4.01152477395203
20
-1.03066782865469
30
0
41
1
10
4.04476239130611
20
-1.05440088538649
30
0
41
1
10
4.05873048256541
20
-1.06187838936714
30
0
41
1
10
4.0918093641283
20
-1.07510965510704
30
0
41
1
10
4.11061622984437
20
-1.08080618741656
30
0
41
1
10
4.13206391958033
20
-1.08546327550559
30
0
0
SPLINE
5
CF
100
AcDbEntity
8
1
62
256
6
ByLayer
370
18
48
1
60
0
100
AcDbSpline
70
4
71
3
72
14
73
10
40
0
40
0
40
0
40
0
40
0.425252951071457
40
0.425252951071457
40
0.850505902142914
40
0.850505902142914
40
0.956819139910778
40
0.956819139910778
40
1
40
1
40
1
40
1
41
1
10
59.7238156606597
20
-6.40510480503221
30
0
41
1
10
58.5636398770314
20
-6.42760440559118
30
0
41
1
10
57.4139827413987
20
-6.36121331151489
30
0
41
1
10
55.1164259302489
20
-6.06199377281729
30
0
41
1
10
53.9682763384354
20
-5.82918390992074
30
0
41
1
10
52.521589222181
20
-5.44021052384309
30
0
41
1
10
52.2316662271181
20
-5.35754443200281
30
0
41
1
10
51.822923697892
20
-5.23465313144388
30
0
41
1
10
51.7048325638931
20
-5.19840245820251
30
0
41
1
10
51.5867974371085
20
-5.16144138116198
30
0
0
SPLINE
5
D0
100
AcDbEntity
8
1
62
256
6
ByLayer
370
13
48
1
60
0
100
AcDbSpline
70
4
71
3
72
22
73
18
40
0
40
0
40
0
40
0
40
0.0332720649430911
40
0.0332720649430911
40
0.145330490322822
40
0.145330490322822
40
0.369447341082284
40
0.369447341082284
40
0.481505766462014
40
0.481505766462014
40
0.537534979151881
40
0.537534979151881
40
0.593564191841748
40
0.593564191841748
40
0.817681042601209
40
0.817681042601209
40
1
40
1
40
1
40
1
41
1
10
51.5867979544595
20
-5.16144154316333
30
0
41
1
10
51.4142250681158
20
-5.10740271968822
30
0
41
1
10
51.2417719014698
20
-5.05184535040559
30
0
41
1
10
50.4901657132103
20
-4.80313530729842
30
0
41
1
10
49.9132329566727
20
-4.59528621381412
30
0
41
1
10
48.1865304851008
20
-3.92891983604423
30
0
41
1
10
47.0409443281676
20
-3.42750774181016
30
0
41
1
10
45.3155577360399
20
-2.61445733285575
30
0
41
1
10
44.7393514163689
20
-2.33314706056626
30
0
41
1
10
43.8714915386305
20
-1.89886660146036
30
0
41
1
10
43.5816054832969
20
-1.75206248148456
30
0
41
1
10
43.0002345885409
20
-1.45509566790074
30
0
41
1
10
42.7092018436049
20
-1.30508371365624
30
0
41
1
10
41.259816489303
20
-0.552838781236403
30
0
41
1
10
40.1108348369329
20
0.0587848669377991
30
0
41
1
10
38.028382227884
20
1.15142041352988
30
0
41
1
10
37.0944942616896
20
1.63512609572962
30
0
41
1
10
36.1556234757921
20
2.10235637072793
30
0
0
SPLINE
5
D1
100
AcDbEntity
8
1
62
256
6
ByLayer
370
18
48
1
60
0
100
AcDbSpline
70
4
71
3
72
18
73
14
40
0
40
0
40
0
40
0
40
0.249999999999999
40
0.249999999999999
40
0.374999999999999
40
0.374999999999999
40
0.499999999999999
40
0.499999999999999
40
0.749999999999998
40
0.749999999999998
40
0.874999999999999
40
0.874999999999999
40
1
40
1
40
1
40
1
41
1
10
59.1922708492765
20
-5.0743039927498
30
0
41
1
10
59.192327538823
20
-5.3031588980275
30
0
41
1
10
59.2030718348087
20
-5.50372989692647
30
0
41
1
10
59.2357017770843
20
-5.7629613716752
30
0
41
1
10
59.2493515059917
20
-5.84239507891769
30
0
41
1
10
59.2825415451583
20
-5.98695971096967
30
0
41
1
10
59.3019774592398
20
-6.05147716903554
30
0
41
1
10
59.368229602428
20
-6.22027973484239
30
0
41
1
10
59.4231528060854
20
-6.30102796032756
30
0
41
1
10
59.522886080262
20
-6.37559823202244
30
0
41
1
10
59.5591456396785
20
-6.39267331502774
30
0
41
1
10
59.6373912419023
20
-6.41080630788872
30
0
41
1
10
59.6792095783843
20
-6.41187676919014
30
0
41
1
10
59.7238156605924
20
-6.40510480503161
30
0
0
SPLINE
5
D2
100
AcDbEntity
8
1
62
256
6
ByLayer
370
18
48
1
60
0
100
AcDbSpline
70
4
71
3
72
10
73
6
40
0
40
0
40
0
40
0
40
0.5
40
0.5
40
1
40
1
40
1
40
1
41
1
10
59.7174863546176
20
1.57206549113428
30
0
41
1
10
60.0851942258831
20
1.56008632933938
30
0
41
1
10
60.4529233156034
20
1.54788287978019
30
0
41
1
10
61.1882071277226
20
1.52531911471502
30
0
41
1
10
61.555674924922
20
1.51587763419525
30
0
41
1
10
61.9230546743624
20
1.50736685457403
30
0
0
SPLINE
5
D3
100
AcDbEntity
8
1
62
256
6
ByLayer
370
18
48
1
60
0
100
AcDbSpline
70
4
71
3
72
12
73
8
40
0
40
0
40
0
40
0
40
0.500000000000001
40
0.500000000000001
40
0.75
40
0.75
40
1
40
1
40
1
40
1
41
1
10
3.99999973882399
20
-0.994008415004686
30
0
41
1
10
3.99999973882399
20
-1.03170310076814
30
0
41
1
10
4.01154557520437
20
-1.07039757929223
30
0
41
1
10
4.04478162301763
20
-1.1206198979686
30
0
41
1
10
4.05874418002196
20
-1.13653164359846
30
0
41
1
10
4.09181044773885
20
-1.16481182556052
30
0
41
1
10
4.11061197397029
20
-1.17705616705734
30
0
41
1
10
4.13206391958033
20
-1.18709664193148
30
0
0
SPLINE
5
D4
100
AcDbEntity
8
1
62
256
6
ByLayer
370
18
48
1
60
0
100
AcDbSpline
70
4
71
3
72
18
73
14
40
0
40
0
40
0
40
0
40
0.125
40
0.125
40
0.25
40
0.25
40
0.375
40
0.375
40
0.5
40
0.5
40
0.75
40
0.75
40
1
40
1
40
1
40
1
41
1
10
4.25050496958437
20
6.35198172089935
30
0
41
1
10
4.23643544424246
20
6.35303039887384
30
0
41
1
10
4.22193440458756
20
6.35513700745298
30
0
41
1
10
4.19177272596164
20
6.36213110776836
30
0
41
1
10
4.17592035012837
20
6.36710430004447
30
0
41
1
10
4.14414765962377
20
6.38050901891881
30
0
41
1
10
4.12781194413969
20
6.38916041258278
30
0
41
1
10
4.09692906281654
20
6.40992369946812
30
0
41
1
10
4.08208933143735
20
6.42228229808274
30
0
41
1
10
4.04360817966008
20
6.46185949428488
30
0
41
1
10
4.02567681852938
20
6.49172993776773
30
0
41
1
10
4.0043223072081
20
6.54713083867244
30
0
41
1
10
3.99999973882589
20
6.57364923737455
30
0
41
1
10
3.99999973882399
20
6.59837544979274
30
0
0
SPLINE
5
D5
100
AcDbEntity
8
1
62
256
6
ByLayer
370
18
48
1
60
0
100
AcDbSpline
70
4
71
3
72
8
73
4
40
0
40
0
40
0
40
0
40
1
40
1
40
1
40
1
41
1
10
3.99999973882399
20
-6.67695816235477
30
0
41
1
10
3.99999973882399
20
-6.65049374339137
30
0
41
1
10
3.99999973882399
20
-6.62429971594824
30
0
41
1
10
3.99999973882399
20
-6.59837544979334
30
0
0
SPLINE
5
D6
100
AcDbEntity
8
1
62
256
6
ByLayer
370
18
48
1
60
0
100
AcDbSpline
70
4
71
3
72
63
73
59
40
0
40
0
40
0
40
0
40
0.031250000000005
40
0.031250000000005
40
0.0625000000000101
40
0.0625000000000101
40
0.0937500000000151
40
0.0937500000000151
40
0.12500000000002
40
0.12500000000002
40
0.156250000000025
40
0.156250000000025
40
0.171875000000028
40
0.171875000000028
40
0.18750000000003
40
0.18750000000003
40
0.203125000000032
40
0.203125000000032
40
0.218750000000035
40
0.218750000000035
40
0.234375000000037
40
0.234375000000037
40
0.250000000000039
40
0.250000000000039
40
0.265625000000042
40
0.265625000000042
40
0.281250000000044
40
0.281250000000044
40
0.312500000000049
40
0.312500000000049
40
0.343750000000053
40
0.343750000000053
40
0.351562500000055
40
0.351562500000055
40
0.355468750000055
40
0.355468750000055
40
0.359375000000056
40
0.359375000000056
40
0.363281250000056
40
0.363281250000056
40
0.367187500000057
40
0.367187500000057
40
0.371093750000057
40
0.371093750000057
40
0.375000000000057
40
0.437500000000051
40
0.437500000000051
40
0.500000000000045
40
0.500000000000045
40
0.625000000000033
40
0.625000000000033
40
0.750000000000022
40
0.750000000000022
40
0.812500000000016
40
0.812500000000016
40
0.87500000000001
40
0.87500000000001
40
1
40
1
40
1
40
1
41
1
10
3.99999973881964
20
-6.67695816235675
30
0
41
1
10
3.84938647035546
20
-6.6898500589335
30
0
41
1
10
3.70134380921135
20
-6.69949516237898
30
0
41
1
10
3.4119104679956
20
-6.71111370087374
30
0
41
1
10
3.27018197116013
20
-6.71309408331743
30
0
41
1
10
2.99717899966012
20
-6.70752991034584
30
0
41
1
10
2.86655361106244
20
-6.70003072056443
30
0
41
1
10
2.62129700139246
20
-6.67314637889194
30
0
41
1
10
2.50599325385158
20
-6.65358155896763
30
0
41
1
10
2.30330002741721
20
-6.59970718505298
30
0
41
1
10
2.21538571992599
20
-6.56549506396101
30
0
41
1
10
2.11224744356377
20
-6.49965194117254
30
0
41
1
10
2.08256432078784
20
-6.4750367561202
30
0
41
1
10
2.03618871331869
20
-6.4212693612206
30
0
41
1
10
2.01939107903309
20
-6.39216409406632
30
0
41
1
10
1.99998974266975
20
-6.32924796966563
30
0
41
1
10
1.99741140228562
20
-6.29523992311556
30
0
41
1
10
2.00793863511217
20
-6.2230604171701
30
0
41
1
10
2.02088741537523
20
-6.18550248803453
30
0
41
1
10
2.06147096487518
20
-6.10778565644412
30
0
41
1
10
2.08909353375111
20
-6.06762519073831
30
0
41
1
10
2.15850098494121
20
-5.98499779820088
30
0
41
1
10
2.19983467249298
20
-5.94313433752976
30
0
41
1
10
2.29272181384545
20
-5.85986290099072
30
0
41
1
10
2.34445284861209
20
-5.818245754728
30
0
41
1
10
2.45705465436686
20
-5.73520610120138
30
0
41
1
10
2.51822108497632
20
-5.69360143671446
30
0
41
1
10
2.71165636697128
20
-5.57059942475439
30
0
41
1
10
2.8524111864798
20
-5.49167093006645
30
0
41
1
10
3.15059024987022
20
-5.33903691339111
30
0
41
1
10
3.30809255953221
20
-5.26533892510486
30
0
41
1
10
3.51309150491355
20
-5.17619782939866
30
0
41
1
10
3.55447624161226
20
-5.15853096289922
30
0
41
1
10
3.61698373849316
20
-5.13231379958981
30
0
41
1
10
3.6378969744257
20
-5.1236194825249
30
0
41
1
10
3.67987360964958
20
-5.10631896302021
30
0
41
1
10
3.7006563094323
20
-5.09731607257243
30
0
41
1
10
3.74351788591758
20
-5.08104344645494
30
0
41
1
10
3.76631427265278
20
-5.07541533487012
30
0
41
1
10
3.81366545304817
20
-5.06742696037136
30
0
41
1
10
3.83834186466982
20
-5.06501963342987
30
0
41
1
10
3.88724552693293
20
-5.06305224078446
30
0
41
1
10
3.91171652758996
20
-5.06336618871944
30
0
41
1
10
3.9606479041939
20
-5.0632749365717
30
0
41
1
10
4.37658229517916
20
-5.06296084836993
30
0
41
1
10
4.79243705986852
20
-5.07050739250346
30
0
41
1
10
5.57378768751559
20
-5.09800871922224
30
0
41
1
10
5.96453223848548
20
-5.11844503653103
30
0
41
1
10
7.13032562503867
20
-5.19791140926728
30
0
41
1
10
7.89813391236373
20
-5.2751910292146
30
0
41
1
10
9.4165264425516
20
-5.46421508624516
30
0
41
1
10
10.1670425815898
20
-5.57604976960502
30
0
41
1
10
11.2814349112997
20
-5.75505090342682
30
0
41
1
10
11.6510105035974
20
-5.81654894898301
30
0
41
1
10
12.3867718625887
20
-5.94033001905467
30
0
41
1
10
12.753278900456
20
-6.00266242215213
30
0
41
1
10
13.8462001687402
20
-6.18584252571367
30
0
41
1
10
14.5638789454605
20
-6.30237771508149
30
0
41
1
10
15.2742579025912
20
-6.40189211494229
30
0
0
SPLINE
5
D7
100
AcDbEntity
8
1
62
256
6
ByLayer
370
18
48
1
60
0
100
AcDbSpline
70
4
71
3
72
18
73
14
40
0
40
0
40
0
40
0
40
0.250000000000016
40
0.250000000000016
40
0.500000000000032
40
0.500000000000032
40
0.625000000000024
40
0.625000000000024
40
0.750000000000016
40
0.750000000000016
40
0.875000000000008
40
0.875000000000008
40
1
40
1
40
1
40
1
41
1
10
3.99999973882379
20
-6.59837544979317
30
0
41
1
10
3.99999973882382
20
-6.57366798660715
30
0
41
1
10
4.00414522815237
20
-6.54781831938209
30
0
41
1
10
4.02539712897706
20
-6.49223230310508
30
0
41
1
10
4.04335483423364
20
-6.46223101417741
30
0
41
1
10
4.08163844538618
20
-6.42269179191652
30
0
41
1
10
4.09651651182787
20
-6.41023933480741
30
0
41
1
10
4.1274522502836
20
-6.38936491851621
30
0
41
1
10
4.14383707219935
20
-6.38065950452884
30
0
41
1
10
4.17569051118505
20
-6.36718214441578
30
0
41
1
10
4.19159896112569
20
-6.36217874834296
30
0
41
1
10
4.22185003414276
20
-6.35514928750791
30
0
41
1
10
4.23639386870019
20
-6.35303349772434
30
0
41
1
10
4.25050496958437
20
-6.35198172089935
30
0
0
SPLINE
5
D8
100
AcDbEntity
8
1
62
256
6
ByLayer
370
18
48
1
60
0
100
AcDbSpline
70
4
71
3
72
14
73
10
40
0
40
0
40
0
40
0
40
0.25
40
0.25
40
0.5
40
0.5
40
0.75
40
0.75
40
1
40
1
40
1
40
1
41
1
10
59.7238156605782
20
-6.40510480503377
30
0
41
1
10
59.727237971162
20
-6.40458523991038
30
0
41
1
10
59.7300288978431
20
-6.40573264983752
30
0
41
1
10
59.7339323383285
20
-6.41244324655727
30
0
41
1
10
59.7349927807052
20
-6.41808486446342
30
0
41
1
10
59.7341764703464
20
-6.43497827877906
30
0
41
1
10
59.7322161198222
20
-6.44628198801695
30
0
41
1
10
59.7252507915099
20
-6.47202364038881
30
0
41
1
10
59.7203353315796
20
-6.4861643083168
30
0
41
1
10
59.7149239749944
20
-6.49950133726765
30
0
0
SPLINE
5
D9
100
AcDbEntity
8
1
62
256
6
ByLayer
370
18
48
1
60
0
100
AcDbSpline
70
4
71
3
72
12
73
8
40
0
40
0
40
0
40
0
40
0.24999999999999
40
0.24999999999999
40
0.499999999999979
40
0.499999999999979
40
1
40
1
40
1
40
1
41
1
10
4.12896380683466
20
-1.22567248688512
30
0
41
1
10
4.10936255465697
20
-1.21500695142422
30
0
41
1
10
4.09163400568377
20
-1.20203228095576
30
0
41
1
10
4.0598166183957
20
-1.17158028714007
30
0
41
1
10
4.04590412409044
20
-1.15412908447686
30
0
41
1
10
4.01223064151586
20
-1.09786584580314
30
0
41
1
10
3.99999973882385
20
-1.05423047701322
30
0
41
1
10
3.99999973882387
20
-1.0099372014628
30
0
0
SPLINE
5
DA
100
AcDbEntity
8
1
62
256
6
ByLayer
370
13
48
1
60
0
100
AcDbSpline
70
4
71
3
72
8
73
4
40
0
40
0
40
0
40
0
40
1
40
1
40
1
40
1
41
1
10
4.12896380683466
20
-1.22567248688512
30
0
41
1
10
4.1299853247674
20
-1.21282598952374
30
0
41
1
10
4.13101867804971
20
-1.19996757745128
30
0
41
1
10
4.13206391958033
20
-1.18709664193148
30
0
0
SPLINE
5
DB
100
AcDbEntity
8
1
62
256
6
ByLayer
370
18
48
1
60
0
100
AcDbSpline
70
4
71
3
72
8
73
4
40
0
40
0
40
0
40
0
40
1
40
1
40
1
40
1
41
1
10
59.7149239749683
20
-6.49950133733211
30
0
41
1
10
59.6823849401893
20
-6.5796982421279
30
0
41
1
10
59.6497798831391
20
-6.65974781182601
30
0
41
1
10
59.6171141113069
20
-6.73965278934858
30
0
0
SPLINE
5
DC
100
AcDbEntity
8
1
62
256
6
ByLayer
370
18
48
1
60
0
100
AcDbSpline
70
4
71
3
72
36
73
32
40
0
40
0
40
0
40
0
40
0.0625000000000024
40
0.0625000000000024
40
0.0937500000000036
40
0.0937500000000036
40
0.125000000000005
40
0.125000000000005
40
0.187500000000007
40
0.187500000000007
40
0.218750000000009
40
0.218750000000009
40
0.25000000000001
40
0.25000000000001
40
0.312500000000012
40
0.312500000000012
40
0.343750000000013
40
0.343750000000013
40
0.375000000000013
40
0.375000000000013
40
0.500000000000012
40
0.500000000000012
40
0.562500000000012
40
0.562500000000012
40
0.625000000000011
40
0.625000000000011
40
0.750000000000008
40
0.750000000000008
40
0.875000000000004
40
0.875000000000004
40
1
40
1
40
1
40
1
41
1
10
53.3150073010653
20
2.61882976669386
30
0
41
1
10
53.2868377183726
20
2.41444229314288
30
0
41
1
10
53.2744245277102
20
2.20423222154346
30
0
41
1
10
53.2806079801062
20
1.87975135543715
30
0
41
1
10
53.2868885383401
20
1.76957596555957
30
0
41
1
10
53.3075070678183
20
1.55049781720928
30
0
41
1
10
53.3218168237358
20
1.44118523269392
30
0
41
1
10
53.3761563616124
20
1.11389347687333
30
0
41
1
10
53.4275622220638
20
0.896558367518082
30
0
41
1
10
53.5258158648835
20
0.571752829077212
30
0
41
1
10
53.5622757902745
20
0.463248292534644
30
0
41
1
10
53.6408842320353
20
0.249739744479058
30
0
41
1
10
53.683061119909
20
0.144532991329328
30
0
41
1
10
53.8174597498763
20
-0.166848753103267
30
0
41
1
10
53.9175151114441
20
-0.368803732210893
30
0
41
1
10
54.0811004499027
20
-0.664462442662057
30
0
41
1
10
54.1378889227295
20
-0.761797857842765
30
0
41
1
10
54.2557171558374
20
-0.954178497204111
30
0
41
1
10
54.3169363917945
20
-1.0494835611058
30
0
41
1
10
54.6305118201036
20
-1.51678287112171
30
0
41
1
10
54.9041182658912
20
-1.86199331906823
30
0
41
1
10
55.3420342317922
20
-2.34518865272361
30
0
41
1
10
55.4925926715189
20
-2.50048110443058
30
0
41
1
10
55.8016244557869
20
-2.80110404604977
30
0
41
1
10
55.96065833494
20
-2.94682346046554
30
0
41
1
10
56.4430544254608
20
-3.36542670242096
30
0
41
1
10
56.7725522790789
20
-3.62105529575103
30
0
41
1
10
57.4441190931629
20
-4.09501469259683
30
0
41
1
10
57.7862186258704
20
-4.31325478993529
30
0
41
1
10
58.4812813584402
20
-4.7175030754363
30
0
41
1
10
58.8346345150707
20
-4.90365404196879
30
0
41
1
10
59.1922708492765
20
-5.0743039927498
30
0
0
SPLINE
5
DD
100
AcDbEntity
8
1
62
256
6
ByLayer
370
18
48
1
60
0
100
AcDbSpline
70
4
71
3
72
14
73
10
40
0
40
0
40
0
40
0
40
0.25
40
0.25
40
0.5
40
0.5
40
0.75
40
0.75
40
1
40
1
40
1
40
1
41
1
10
59.9715931518581
20
-6.56077563792905
30
0
41
1
10
60.1213959486413
20
-6.1363261073858
30
0
41
1
10
60.2751160772979
20
-5.71254866558704
30
0
41
1
10
60.5891851334567
20
-4.86633194592423
30
0
41
1
10
60.7495695944916
20
-4.44389872238014
30
0
41
1
10
61.0762398225833
20
-3.60037865027815
30
0
41
1
10
61.2427202382705
20
-3.1790081267275
30
0
41
1
10
61.5797558868358
20
-2.34064968209017
30
0
41
1
10
61.7504253071269
20
-1.92326813736852
30
0
41
1
10
61.9230546743628
20
-1.50736685457414
30
0
0
SPLINE
5
DE
100
AcDbEntity
8
1
62
256
6
ByLayer
370
18
48
1
60
0
100
AcDbSpline
70
4
71
3
72
8
73
4
40
0
40
0
40
0
40
0
40
1
40
1
40
1
40
1
41
1
10
59.9715931518635
20
6.56077563791166
30
0
41
1
10
59.839719615832
20
6.65955815536131
30
0
41
1
10
59.721859163343
20
6.71990292457608
30
0
41
1
10
59.6171141113069
20
6.73965278934858
30
0
0
SPLINE
5
DF
100
AcDbEntity
8
1
62
256
6
ByLayer
370
18
48
1
60
0
100
AcDbSpline
70
4
71
3
72
94
73
90
40
0
40
0
40
0
40
0
40
0.0333839664990641
40
0.0333839664990641
40
0.0500759497485962
40
0.0500759497485962
40
0.0667679329981278
40
0.0667679329981278
40
0.100151899497191
40
0.100151899497191
40
0.116843882746723
40
0.116843882746723
40
0.133535865996254
40
0.133535865996254
40
0.166919832495319
40
0.166919832495319
40
0.200303798994383
40
0.200303798994383
40
0.216995782243915
40
0.216995782243915
40
0.233687765493447
40
0.233687765493447
40
0.267071731992512
40
0.267071731992512
40
0.283763715242044
40
0.283763715242044
40
0.300455698491576
40
0.300455698491576
40
0.33383966499064
40
0.33383966499064
40
0.367223631489704
40
0.367223631489704
40
0.383915614739236
40
0.383915614739236
40
0.400607597988768
40
0.400607597988768
40
0.4172995812383
40
0.4172995812383
40
0.433991564487832
40
0.433991564487832
40
0.450683547737364
40
0.450683547737364
40
0.467375530986896
40
0.467375530986896
40
0.484067514236428
40
0.484067514236428
40
0.50075949748596
40
0.50075949748596
40
0.534143463985024
40
0.534143463985024
40
0.567527430484089
40
0.567527430484089
40
0.600911396983153
40
0.600911396983153
40
0.617603380232684
40
0.617603380232684
40
0.634295363482216
40
0.634295363482216
40
0.650987346731748
40
0.650987346731748
40
0.667679329981279
40
0.667679329981279
40
0.701063296480343
40
0.701063296480343
40
0.734447262979406
40
0.734447262979406
40
0.767831229478469
40
0.767831229478469
40
0.784523212728001
40
0.784523212728001
40
0.801215195977533
40
0.801215195977533
40
0.817907179227065
40
0.817907179227065
40
0.834599162476598
40
0.834599162476598
40
0.867983128975661
40
0.867983128975661
40
0.901367095474724
40
0.901367095474724
40
0.934751061973787
40
0.934751061973787
40
0.951443045223319
40
0.951443045223319
40
0.968135028472851
40
0.968135028472851
40
0.984827011722383
40
0.984827011722383
40
1
40
1
40
1
40
1
41
1
10
15.2742579025912
20
6.40189211494229
30
0
41
1
10
15.7434655689987
20
6.48177681018512
30
0
41
1
10
16.2118308897678
20
6.54596851803032
30
0
41
1
10
16.9120885861341
20
6.62041972409327
30
0
41
1
10
17.1450856748649
20
6.64159214521069
30
0
41
1
10
17.6099450757617
20
6.67668016916056
30
0
41
1
10
17.8419434354188
20
6.69053706736801
30
0
41
1
10
18.5382524818794
20
6.72085855843636
30
0
41
1
10
19.0024529107253
20
6.72629793495244
30
0
41
1
10
19.6976808053596
20
6.71245373797402
30
0
41
1
10
19.929071696298
20
6.70411611828655
30
0
41
1
10
20.392412796715
20
6.68009394224143
30
0
41
1
10
20.6243821890431
20
6.66443711750563
30
0
41
1
10
21.3210043014187
20
6.60658674528739
30
0
41
1
10
21.786171356142
20
6.55350019722229
30
0
41
1
10
22.7176892221894
20
6.41727316073431
30
0
41
1
10
23.1856700133214
20
6.33494715452218
30
0
41
1
10
23.8906934499703
20
6.18980554075051
30
0
41
1
10
24.1255757469017
20
6.13790035140408
30
0
41
1
10
24.5934093301497
20
6.02712399249697
30
0
41
1
10
24.826778750515
20
5.96835413212395
30
0
41
1
10
25.5265575976507
20
5.78320107930099
30
0
41
1
10
25.9922537061523
20
5.64774392561267
30
0
41
1
10
26.6884404229523
20
5.42562212936133
30
0
41
1
10
26.9199770713776
20
5.34824877093297
30
0
41
1
10
27.3833618882323
20
5.18835241507651
30
0
41
1
10
27.6151502614175
20
5.10578043053687
30
0
41
1
10
28.3106047194105
20
4.85005944220953
30
0
41
1
10
28.7740632279852
20
4.6685536579291
30
0
41
1
10
29.7009371422666
20
4.28346902189227
30
0
41
1
10
30.1659012912536
20
4.08205856016789
30
0
41
1
10
30.8650424979206
20
3.76580573414017
30
0
41
1
10
31.0983334464611
20
3.6579623548065
30
0
41
1
10
31.5652715573357
20
3.43707383031097
30
0
41
1
10
31.7991612274185
20
3.32441086919368
30
0
41
1
10
32.2684677915748
20
3.09578094711395
30
0
41
1
10
32.5037422768742
20
2.97967655945354
30
0
41
1
10
32.9725426387506
20
2.74503886522933
30
0
41
1
10
33.2064495614955
20
2.62635406388969
30
0
41
1
10
33.6729898927199
20
2.38574894851646
30
0
41
1
10
33.9055844372947
20
2.26375623658384
30
0
41
1
10
34.3707498398422
20
2.01875036637159
30
0
41
1
10
34.6032198331098
20
1.89556138418007
30
0
41
1
10
35.0677971153472
20
1.64758209727654
30
0
41
1
10
35.2999029063064
20
1.5227891722887
30
0
41
1
10
35.7635686169211
20
1.27127213275054
30
0
41
1
10
35.9949609034103
20
1.14424284622643
30
0
41
1
10
36.6892472558292
20
0.761924253864834
30
0
41
1
10
37.1528833295004
20
0.506572740328579
30
0
41
1
10
38.0806285879788
20
-0.0070216769409228
30
0
41
1
10
38.5440048077832
20
-0.26664656306022
30
0
41
1
10
39.4751067222542
20
-0.781675184728698
30
0
41
1
10
39.9425250809427
20
-1.03762144545246
30
0
41
1
10
40.6452232582114
20
-1.42159817570391
30
0
41
1
10
40.8800574824917
20
-1.549709629754
30
0
41
1
10
41.34881290664
20
-1.8021361740129
30
0
41
1
10
41.5828615532584
20
-1.92680598850436
30
0
41
1
10
42.0501658219258
20
-2.1733946768222
30
0
41
1
10
42.2834235452041
20
-2.29531009095535
30
0
41
1
10
42.7489527727284
20
-2.53674675288175
30
0
41
1
10
42.9810537235111
20
-2.65655309436582
30
0
41
1
10
43.6771495539415
20
-3.01016027468106
30
0
41
1
10
44.1411891503606
20
-3.23781355729474
30
0
41
1
10
45.0680288477108
20
-3.67919429519407
30
0
41
1
10
45.5301823100177
20
-3.89381477544575
30
0
41
1
10
46.4574099980345
20
-4.30257327939097
30
0
41
1
10
46.9220493171766
20
-4.49748634533637
30
0
41
1
10
47.619247381026
20
-4.77722047686029
30
0
41
1
10
47.8518069187185
20
-4.86817310513729
30
0
41
1
10
48.318276594526
20
-5.04412696924246
30
0
41
1
10
48.5520725747543
20
-5.12928703728639
30
0
41
1
10
49.0206355086569
20
-5.29414858841042
30
0
41
1
10
49.2557636685113
20
-5.37395836158066
30
0
41
1
10
49.7248926352478
20
-5.52763976804187
30
0
41
1
10
49.9585913572231
20
-5.60161416047944
30
0
41
1
10
50.6590708352841
20
-5.81287360678149
30
0
41
1
10
51.1251827380139
20
-5.93972850929848
30
0
41
1
10
52.0544784220816
20
-6.16731952621566
30
0
41
1
10
52.5171158701154
20
-6.26827049914843
30
0
41
1
10
53.4438567754897
20
-6.44080649277421
30
0
41
1
10
53.907397309366
20
-6.51297633114442
30
0
41
1
10
54.6017381451659
20
-6.60042389139235
30
0
41
1
10
54.8332307552061
20
-6.62598326199819
30
0
41
1
10
55.2971285100736
20
-6.66966038565749
30
0
41
1
10
55.5294284333461
20
-6.68782755929681
30
0
41
1
10
55.9945703993039
20
-6.71686271016517
30
0
41
1
10
56.2274225173551
20
-6.72773043064103
30
0
41
1
10
56.6722397736197
20
-6.74142216285867
30
0
41
1
10
56.8840896750437
20
-6.74487306442018
30
0
41
1
10
57.0964970091307
20
-6.7451941690465
30
0
0
SPLINE
5
E0
100
AcDbEntity
8
1
62
256
6
ByLayer
370
18
48
1
60
0
100
AcDbSpline
70
4
71
3
72
8
73
4
40
0
40
0
40
0
40
0
40
1
40
1
40
1
40
1
41
1
10
61.9891251265284
20
0.134063736125512
30
0
41
1
10
61.9898592997674
20
0.109230744285554
30
0
41
1
10
61.9939152523221
20
0.0796267985949441
30
0
41
1
10
61.9999675793802
20
0.0481961167903933
30
0
0
SPLINE
5
E1
100
AcDbEntity
8
1
62
256
6
ByLayer
370
18
48
1
60
0
100
AcDbSpline
70
4
71
3
72
8
73
4
40
0
40
0
40
0
40
0
40
1
40
1
40
1
40
1
41
1
10
61.9999675793801
20
0.0481961167904217
30
0
41
1
10
62.0000108089238
20
0.0160638474344523
30
0
41
1
10
62.0000108046728
20
-0.0160670071059315
30
0
41
1
10
61.9999675793802
20
-0.0481961167904217
30
0
0
SPLINE
5
E2
100
AcDbEntity
8
1
62
256
6
ByLayer
370
18
48
1
60
0
100
AcDbSpline
70
4
71
3
72
34
73
30
40
0
40
0
40
0
40
0
40
0.0340228345897945
40
0.0623984737191639
40
0.083781544241689
40
0.104863814512924
40
0.126535737463418
40
0.148878453018748
40
0.172933300431768
40
0.20987985830711
40
0.250152427865134
40
0.290237354223409
40
0.324967914198008
40
0.380556585320424
40
0.442254271264005
40
0.493907140736542
40
0.54537772675758
40
0.586043923446057
40
0.623788937303146
40
0.664581838159315
40
0.709307850577069
40
0.760710851291344
40
0.822454994444524
40
0.869073087368535
40
0.903107875691944
40
0.927888105276054
40
0.957928217531244
40
0.994822744439937
40
1
40
1
40
1
40
1
41
1
10
21.1366253284876
20
-6.38535167706567
30
0
41
1
10
21.3385700708194
20
-6.38480290833596
30
0
41
1
10
21.7120244837586
20
-6.38431412044525
30
0
41
1
10
22.2330001593021
20
-6.38192744506935
30
0
41
1
10
22.6609122423214
20
-6.38522471131634
30
0
41
1
10
23.0506005343541
20
-6.38618525007388
30
0
41
1
10
23.4501375158157
20
-6.38662320387246
30
0
41
1
10
23.8697359775986
20
-6.38674951983353
30
0
41
1
10
24.3837214980312
20
-6.38735543001877
30
0
41
1
10
25.0083614795315
20
-6.38799287066561
30
0
41
1
10
25.7318289990119
20
-6.38761918027114
30
0
41
1
10
26.4416325936708
20
-6.38736778401815
30
0
41
1
10
27.2459246596801
20
-6.38717722415069
30
0
41
1
10
28.1834887755563
20
-6.39065032908059
30
0
41
1
10
29.2254406666214
20
-6.38878967545838
30
0
41
1
10
30.2419785151517
20
-6.38805318916405
30
0
41
1
10
31.1288045639413
20
-6.39084816494932
30
0
41
1
10
31.929870701653
20
-6.39209409014214
30
0
41
1
10
32.6650746811007
20
-6.39059677227581
30
0
41
1
10
33.4253208161919
20
-6.38971996268251
30
0
41
1
10
34.2697951536653
20
-6.39020846896963
30
0
41
1
10
35.2435229055167
20
-6.39277656484254
30
0
41
1
10
36.2287835652405
20
-6.39426730275025
30
0
41
1
10
37.1073424778323
20
-6.39365605265499
30
0
41
1
10
37.7567985734697
20
-6.39211805454153
30
0
41
1
10
38.3054488190297
20
-6.39130986840803
30
0
41
1
10
38.867784116924
20
-6.3917897521516
30
0
41
1
10
39.3049541963606
20
-6.39230485436977
30
0
41
1
10
39.5645483690799
20
-6.39299897279409
30
0
41
1
10
39.5965171408111
20
-6.39308792242164
30
0
0
SPLINE
5
E3
100
AcDbEntity
8
1
62
256
6
ByLayer
370
18
48
1
60
0
100
AcDbSpline
70
4
71
2
72
6
73
3
40
0
40
0
40
0
40
1
40
1
40
1
41
1
10
59.2432251972674
20
-6.40917690110473
30
0
41
1
10
59.4419666137428
20
-6.40987684998416
30
0
41
1
10
59.6376829335415
20
-6.40775571933102
30
0
0
SPLINE
5
E4
100
AcDbEntity
8
1
62
256
6
ByLayer
370
18
48
1
60
0
100
AcDbSpline
70
4
71
3
72
28
73
24
40
0
40
0
40
0
40
0
40
0.0276744052750756
40
0.0857523057696165
40
0.130317382531408
40
0.172698343936645
40
0.219066819576584
40
0.269449327989394
40
0.306766274745184
40
0.346626508396724
40
0.39237229248149
40
0.438946754323961
40
0.479571104843538
40
0.522626156768044
40
0.592058277379846
40
0.666115204588405
40
0.722350493157083
40
0.767553535982169
40
0.813066213684085
40
0.857023293102306
40
0.901544462166269
40
0.953556224430384
40
1
40
1
40
1
40
1
41
1
10
39.7634061829457
20
6.39029345205785
30
0
41
1
10
39.6279811822031
20
6.39109479484168
30
0
41
1
10
39.2072617473973
20
6.3931250342238
30
0
41
1
10
38.5657926793331
20
6.39108664802197
30
0
41
1
10
37.8391442415363
20
6.39186147135953
30
0
41
1
10
37.1733685647748
20
6.39331632261448
30
0
41
1
10
36.4780326044266
20
6.3948365188767
30
0
41
1
10
35.8076969541204
20
6.39230426268082
30
0
41
1
10
35.1699742693457
20
6.39275662961973
30
0
41
1
10
34.5554189182149
20
6.39116047990828
30
0
41
1
10
33.8945840255556
20
6.38968850477286
30
0
41
1
10
33.2299309099678
20
6.39000368093133
30
0
41
1
10
32.5787270306659
20
6.39071103370898
30
0
41
1
10
31.8132460243364
20
6.3924060309725
30
0
41
1
10
30.8806150966305
20
6.3893047428875
30
0
41
1
10
29.8821114405475
20
6.38837631049933
30
0
41
1
10
29.0047191574145
20
6.38898206327178
30
0
41
1
10
28.2700400154641
20
6.39021052454876
30
0
41
1
10
27.5967584322445
20
6.38808817704185
30
0
41
1
10
26.9268518205653
20
6.38725285973069
30
0
41
1
10
26.2245487158674
20
6.3874082146092
30
0
41
1
10
25.5094151729573
20
6.38776802220866
30
0
41
1
10
25.0179409497
20
6.3878292645463
30
0
41
1
10
24.78573586074
20
6.38768295676385
30
0
0
LINE
5
7B
100
AcDbEntity
8
SK1
62
256
6
ByLayer
370
18
48
1
60
0
100
AcDbLine
10
-43.055
20
7
30
0
11
-43.055
21
-7
31
0
39
0
210
0
220
0
230
1
0
LINE
5
7D
100
AcDbEntity
8
SK1
62
256
6
ByLayer
370
18
48
1
60
0
100
AcDbLine
10
-45
20
5.055
30
0
11
-45
21
-5.055
31
0
39
0
210
0
220
0
230
1
0
LINE
5
7E
100
AcDbEntity
8
SK1
62
256
6
ByLayer
370
18
48
1
60
0
100
AcDbLine
10
0
20
-7
30
0
11
0
21
7
31
0
39
0
210
0
220
0
230
1
0
LINE
5
7F
100
AcDbEntity
8
1
62
256
6
ByLayer
370
13
48
1
60
0
100
AcDbLine
10
0.919009
20
6.710092
30
0
11
0.919009
21
-6.710092
31
0
39
0
210
0
220
0
230
1
0
LINE
5
80
100
AcDbEntity
8
1
62
256
6
ByLayer
370
18
48
1
60
0
100
AcDbLine
10
0
20
-7
30
0
11
0
21
7
31
0
39
0
210
0
220
0
230
1
0
LINE
5
81
100
AcDbEntity
8
1
62
256
6
ByLayer
370
13
48
1
60
0
100
AcDbLine
10
59.717486
20
1.572065
30
0
11
61.989125
21
0.134064
31
0
39
0
210
0
220
0
230
1
0
LINE
5
82
100
AcDbEntity
8
1
62
256
6
ByLayer
370
18
48
1
60
0
100
AcDbLine
10
4
20
-1.009937
30
0
11
4
21
6.676958
31
0
39
0
210
0
220
0
230
1
0
LINE
5
83
100
AcDbEntity
8
1
62
256
6
ByLayer
370
13
48
1
60
0
100
AcDbLine
10
59.538401
20
1.446203
30
0
11
61.950461
21
-0.080688
31
0
39
0
210
0
220
0
230
1
0
LINE
5
84
100
AcDbEntity
8
1
62
256
6
ByLayer
370
13
48
1
60
0
100
AcDbLine
10
0.459255
20
6.855046
30
0
11
0.459255
21
-6.855046
31
0
39
0
210
0
220
0
230
1
0
LINE
5
85
100
AcDbEntity
8
80
62
256
6
ByLayer
370
18
48
1
60
0
100
AcDbLine
10
0
20
0
30
0
11
-5
21
0
31
0
39
0
210
0
220
0
230
1
0
LINE
5
86
100
AcDbEntity
8
4
62
256
6
ByLayer
370
18
48
0.05
60
0
100
AcDbLine
10
62
20
0
30
0
11
0
21
0
31
0
39
0
210
0
220
0
230
1
0
LINE
5
88
100
AcDbEntity
8
SK4
62
256
6
ByLayer
370
18
48
0.05
60
0
100
AcDbLine
10
67
20
0
30
0
11
-50
21
0
31
0
39
0
210
0
220
0
230
1
0
LINE
5
8A
100
AcDbEntity
8
SK1
62
256
6
ByLayer
370
18
48
1
60
0
100
AcDbLine
10
-43.055
20
-7
30
0
11
0
21
-7
31
0
39
0
210
0
220
0
230
1
0
LINE
5
8B
100
AcDbEntity
8
SK1
62
256
6
ByLayer
370
18
48
1
60
0
100
AcDbLine
10
0
20
7
30
0
11
-43.055
21
7
31
0
39
0
210
0
220
0
230
1
0
LINE
5
8C
100
AcDbEntity
8
SK1
62
256
6
ByLayer
370
18
48
1
60
0
100
AcDbLine
10
-45
20
-5.055
30
0
11
-43.055
21
-7
31
0
39
0
210
0
220
0
230
1
0
LINE
5
8D
100
AcDbEntity
8
SK1
62
256
6
ByLayer
370
18
48
1
60
0
100
AcDbLine
10
-43.055
20
7
30
0
11
-45
21
5.055
31
0
39
0
210
0
220
0
230
1
0
LINE
5
8E
100
AcDbEntity
8
1
62
256
6
ByLayer
370
18
48
1
60
0
100
AcDbLine
10
0.919009
20
-6.710092
30
0
11
3.260472
21
-6.711555
31
0
39
0
210
0
220
0
230
1
0
LINE
5
8F
100
AcDbEntity
8
1
62
256
6
ByLayer
370
18
48
1
60
0
100
AcDbLine
10
19.016834
20
-6.721403
30
0
11
20.953879
21
-6.722614
31
0
39
0
210
0
220
0
230
1
0
LINE
5
90
100
AcDbEntity
8
1
62
256
6
ByLayer
370
18
48
1
60
0
100
AcDbLine
10
57.116297
20
-6.745215
30
0
11
59.059907
21
-6.74643
31
0
39
0
210
0
220
0
230
1
0
LINE
5
91
100
AcDbEntity
8
1
62
256
6
ByLayer
370
18
48
1
60
0
100
AcDbLine
10
59.059867
20
6.74643
30
0
11
57.116297
21
6.745215
31
0
39
0
210
0
220
0
230
1
0
LINE
5
92
100
AcDbEntity
8
1
62
256
6
ByLayer
370
18
48
1
60
0
100
AcDbLine
10
20.953721
20
6.722614
30
0
11
19.016834
21
6.721403
31
0
39
0
210
0
220
0
230
1
0
LINE
5
93
100
AcDbEntity
8
1
62
256
6
ByLayer
370
18
48
1
60
0
100
AcDbLine
10
3.260472
20
6.711555
30
0
11
0.919009
21
6.710092
31
0
39
0
210
0
220
0
230
1
0
LINE
5
94
100
AcDbEntity
8
81
62
256
6
ByLayer
370
18
48
1
60
0
100
AcDbLine
10
62
20
0
30
0
11
67
21
0
31
0
39
0
210
0
220
0
230
1
0
LINE
5
95
100
AcDbEntity
8
SK2
62
256
6
ByLayer
370
13
48
1
60
0
100
AcDbLine
10
-53.625163
20
-7
30
0
11
-53.625163
21
38.225706
31
0
39
0
210
0
220
0
230
1
0
LINE
5
97
100
AcDbEntity
8
SK2
62
256
6
ByLayer
370
13
48
1
60
0
100
AcDbLine
10
-46.5875
20
7
30
0
11
-55.625163
21
7
31
0
39
0
210
0
220
0
230
1
0
LINE
5
98
100
AcDbEntity
8
SK2
62
256
6
ByLayer
370
13
48
1
60
0
100
AcDbLine
10
-46.5875
20
-7
30
0
11
-55.625163
21
-7
31
0
39
0
210
0
220
0
230
1
0
LINE
5
99
100
AcDbEntity
8
1
62
256
6
ByLayer
370
18
48
1
60
1
100
AcDbLine
10
-53.625163
20
7
30
0
11
-53.164379
21
3.500002
31
0
39
0
210
0
220
0
230
1
0
LINE
5
9A
100
AcDbEntity
8
1
62
256
6
ByLayer
370
18
48
1
60
1
100
AcDbLine
10
-53.164379
20
3.500002
30
0
11
-54.085946
21
3.499998
31
0
39
0
210
0
220
0
230
1
0
LINE
5
9B
100
AcDbEntity
8
1
62
256
6
ByLayer
370
18
48
1
60
1
100
AcDbLine
10
-54.085946
20
3.499998
30
0
11
-53.625163
21
7
31
0
39
0
210
0
220
0
230
1
0
LINE
5
9C
100
AcDbEntity
8
1
62
256
6
ByLayer
370
18
48
1
60
1
100
AcDbLine
10
-53.625163
20
-7
30
0
11
-54.085946
21
-3.500002
31
0
39
0
210
0
220
0
230
1
0
LINE
5
9D
100
AcDbEntity
8
1
62
256
6
ByLayer
370
18
48
1
60
1
100
AcDbLine
10
-54.085946
20
-3.500002
30
0
11
-53.164379
21
-3.499998
31
0
39
0
210
0
220
0
230
1
0
LINE
5
9E
100
AcDbEntity
8
1
62
256
6
ByLayer
370
18
48
1
60
1
100
AcDbLine
10
-53.164379
20
-3.499998
30
0
11
-53.625163
21
-7
31
0
39
0
210
0
220
0
230
1
0
LINE
5
9F
100
AcDbEntity
8
2
62
256
6
ByLayer
370
13
48
1
60
0
100
AcDbLine
10
74.083343
20
-6.747
30
0
11
74.083343
21
36.934326
31
0
39
0
210
0
220
0
230
1
0
LINE
5
A1
100
AcDbEntity
8
2
62
256
6
ByLayer
370
13
48
1
60
0
100
AcDbLine
10
61.577
20
6.747
30
0
11
76.083343
21
6.747
31
0
39
0
210
0
220
0
230
1
0
LINE
5
A2
100
AcDbEntity
8
2
62
256
6
ByLayer
370
13
48
1
60
0
100
AcDbLine
10
61.577
20
-6.747
30
0
11
76.083343
21
-6.747
31
0
39
0
210
0
220
0
230
1
0
LINE
5
A3
100
AcDbEntity
8
1
62
256
6
ByLayer
370
18
48
1
60
1
100
AcDbLine
10
74.083343
20
6.747
30
0
11
74.544126
21
3.247002
31
0
39
0
210
0
220
0
230
1
0
LINE
5
A4
100
AcDbEntity
8
1
62
256
6
ByLayer
370
18
48
1
60
1
100
AcDbLine
10
74.544126
20
3.247002
30
0
11
73.622559
21
3.246998
31
0
39
0
210
0
220
0
230
1
0
LINE
5
A5
100
AcDbEntity
8
1
62
256
6
ByLayer
370
18
48
1
60
1
100
AcDbLine
10
73.622559
20
3.246998
30
0
11
74.083343
21
6.747
31
0
39
0
210
0
220
0
230
1
0
LINE
5
A6
100
AcDbEntity
8
1
62
256
6
ByLayer
370
18
48
1
60
1
100
AcDbLine
10
74.083343
20
-6.747
30
0
11
73.622559
21
-3.247002
31
0
39
0
210
0
220
0
230
1
0
LINE
5
A7
100
AcDbEntity
8
1
62
256
6
ByLayer
370
18
48
1
60
1
100
AcDbLine
10
73.622559
20
-3.247002
30
0
11
74.544126
21
-3.246998
31
0
39
0
210
0
220
0
230
1
0
LINE
5
A8
100
AcDbEntity
8
1
62
256
6
ByLayer
370
18
48
1
60
1
100
AcDbLine
10
74.544126
20
-3.246998
30
0
11
74.083343
21
-6.747
31
0
39
0
210
0
220
0
230
1
0
LINE
5
EB
100
AcDbEntity
8
1
62
256
6
ByLayer
370
18
48
1
60
1
100
AcDbLine
10
-53.625163
20
7
30
0
11
-53.164379
21
3.500002
31
0
39
0
210
0
220
0
230
1
0
LINE
5
EC
100
AcDbEntity
8
1
62
256
6
ByLayer
370
18
48
1
60
1
100
AcDbLine
10
-53.164379
20
3.500002
30
0
11
-54.085946
21
3.499998
31
0
39
0
210
0
220
0
230
1
0
LINE
5
ED
100
AcDbEntity
8
1
62
256
6
ByLayer
370
18
48
1
60
1
100
AcDbLine
10
-54.085946
20
3.499998
30
0
11
-53.625163
21
7
31
0
39
0
210
0
220
0
230
1
0
LINE
5
EF
100
AcDbEntity
8
1
62
256
6
ByLayer
370
18
48
1
60
1
100
AcDbLine
10
-53.625163
20
-7
30
0
11
-54.085946
21
-3.500002
31
0
39
0
210
0
220
0
230
1
0
LINE
5
F0
100
AcDbEntity
8
1
62
256
6
ByLayer
370
18
48
1
60
1
100
AcDbLine
10
-54.085946
20
-3.500002
30
0
11
-53.164379
21
-3.499998
31
0
39
0
210
0
220
0
230
1
0
LINE
5
F1
100
AcDbEntity
8
1
62
256
6
ByLayer
370
18
48
1
60
1
100
AcDbLine
10
-53.164379
20
-3.499998
30
0
11
-53.625163
21
-7
31
0
39
0
210
0
220
0
230
1
0
LINE
5
F5
100
AcDbEntity
8
1
62
256
6
ByLayer
370
18
48
1
60
1
100
AcDbLine
10
74.083343
20
6.747
30
0
11
74.544126
21
3.247002
31
0
39
0
210
0
220
0
230
1
0
LINE
5
F6
100
AcDbEntity
8
1
62
256
6
ByLayer
370
18
48
1
60
1
100
AcDbLine
10
74.544126
20
3.247002
30
0
11
73.622559
21
3.246998
31
0
39
0
210
0
220
0
230
1
0
LINE
5
F7
100
AcDbEntity
8
1
62
256
6
ByLayer
370
18
48
1
60
1
100
AcDbLine
10
73.622559
20
3.246998
30
0
11
74.083343
21
6.747
31
0
39
0
210
0
220
0
230
1
0
LINE
5
F9
100
AcDbEntity
8
1
62
256
6
ByLayer
370
18
48
1
60
1
100
AcDbLine
10
74.083343
20
-6.747
30
0
11
73.622559
21
-3.247002
31
0
39
0
210
0
220
0
230
1
0
LINE
5
FA
100
AcDbEntity
8
1
62
256
6
ByLayer
370
18
48
1
60
1
100
AcDbLine
10
73.622559
20
-3.247002
30
0
11
74.544126
21
-3.246998
31
0
39
0
210
0
220
0
230
1
0
LINE
5
FB
100
AcDbEntity
8
1
62
256
6
ByLayer
370
18
48
1
60
1
100
AcDbLine
10
74.544126
20
-3.246998
30
0
11
74.083343
21
-6.747
31
0
39
0
210
0
220
0
230
1
0
MTEXT
5
E5
100
AcDbEntity
8
SK6
62
256
6
ByLayer
370
13
48
1
60
0
100
AcDbMText
10
-20.576293
20
39.287328
30
0
210
0
220
0
230
1
1
\W0.7656;462.1-1349-041A0-XM X2BM
40
3.5
41
0
44
1.084337
50
0
71
7
72
5
7
iso_b_vert
0
MTEXT
5
E9
100
AcDbEntity
8
SK2
62
256
6
ByLayer
370
18
48
1
60
0
100
AcDbMText
10
-55.189796
20
20.409024
30
0
210
0
220
0
230
1
1
%%c
40
3.5
41
0
44
1.084337
50
90
71
7
72
5
7
iso_b_vert
0
MTEXT
5
EA
100
AcDbEntity
8
SK2
62
256
6
ByLayer
370
18
48
1
60
0
100
AcDbMText
10
-55.189796
20
25.63168
30
0
210
0
220
0
230
1
1
\W0.7145;14,000
40
3.5
41
0
44
1.084337
50
90
71
7
72
5
7
iso_b_vert
0
MTEXT
5
F3
100
AcDbEntity
8
2
62
256
6
ByLayer
370
18
48
1
60
0
100
AcDbMText
10
72.518709
20
18.74911
30
0
210
0
220
0
230
1
1
%%c
40
3.5
41
0
44
1.084337
50
90
71
7
72
5
7
iso_b_vert
0
MTEXT
5
F4
100
AcDbEntity
8
2
62
256
6
ByLayer
370
18
48
1
60
0
100
AcDbMText
10
72.518709
20
23.971766
30
0
210
0
220
0
230
1
1
\W0.7261;13,494
40
3.5
41
0
44
1.084337
50
90
71
7
72
5
7
iso_b_vert
0
HATCH
5
EE
100
AcDbEntity
8
SK2
62
256
6
ByLayer
370
13
48
1
60
0
100
AcDbHatch
10
0
20
0
30
0
210
0
220
0
230
1
2
ANSI31
70
0
71
0
91
1
92
5
93
3
72
1
10
-53.6251625675374
20
7
11
-53.1643788259847
21
3.50000169255318
72
1
10
-53.1643788259847
20
3.50000169255318
11
-54.0859463090902
21
3.49999830744682
72
1
10
-54.0859463090902
20
3.49999830744682
11
-53.6251625675374
21
7
97
0
75
0
76
1
52
0
41
0.0062
77
0
78
1
53
45
43
0
44
0
45
-0.0139193969876572
46
0.0139193969876572
79
0
47
0
98
1
10
0
20
0
0
HATCH
5
F2
100
AcDbEntity
8
SK2
62
256
6
ByLayer
370
13
48
1
60
0
100
AcDbHatch
10
0
20
0
30
0
210
0
220
0
230
1
2
ANSI31
70
0
71
0
91
1
92
5
93
3
72
1
10
-53.6251625675374
20
-7
11
-54.0859463090902
21
-3.50000169255318
72
1
10
-54.0859463090902
20
-3.50000169255318
11
-53.1643788259847
21
-3.49999830744682
72
1
10
-53.1643788259847
20
-3.49999830744682
11
-53.6251625675374
21
-7
97
0
75
0
76
1
52
0
41
0.0062
77
0
78
1
53
45
43
0
44
0
45
-0.0139193969876572
46
0.0139193969876572
79
0
47
0
98
1
10
0
20
0
0
HATCH
5
F8
100
AcDbEntity
8
2
62
256
6
ByLayer
370
13
48
1
60
0
100
AcDbHatch
10
0
20
0
30
0
210
0
220
0
230
1
2
ANSI31
70
0
71
0
91
1
92
5
93
3
72
1
10
74.083342615295
20
6.74700000000001
11
74.5441263568477
21
3.2470016925532
72
1
10
74.5441263568477
20
3.2470016925532
11
73.6225588737422
21
3.24699830744683
72
1
10
73.6225588737422
20
3.24699830744683
11
74.083342615295
21
6.74700000000001
97
0
75
0
76
1
52
0
41
0.0062
77
0
78
1
53
45
43
0
44
0
45
-0.0139193969876572
46
0.0139193969876572
79
0
47
0
98
1
10
0
20
0
0
HATCH
5
FC
100
AcDbEntity
8
2
62
256
6
ByLayer
370
13
48
1
60
0
100
AcDbHatch
10
0
20
0
30
0
210
0
220
0
230
1
2
ANSI31
70
0
71
0
91
1
92
5
93
3
72
1
10
74.083342615295
20
-6.74699999999999
11
73.6225588737422
21
-3.24700169255317
72
1
10
73.6225588737422
20
-3.24700169255317
11
74.5441263568477
21
-3.2469983074468
72
1
10
74.5441263568477
20
-3.2469983074468
11
74.083342615295
21
-6.74699999999999
97
0
75
0
76
1
52
0
41
0.0062
77
0
78
1
53
45
43
0
44
0
45
-0.0139193969876572
46
0.0139193969876572
79
0
47
0
98
1
10
0
20
0
0
DIMENSION
5
FE
100
AcDbEntity
8
SK2
62
256
6
ByLayer
370
13
48
1
60
0
100
AcDbDimension
2
_U0
10
59.9895
20
-16.960398
30
0
11
29.99475
21
-16.960398
31
0
70
32
71
1
72
1
41
1
210
0
220
0
230
1
3
Standard
100
AcDbAlignedDimension
13
0
23
0
33
0
14
59.9895
24
-6.747
34
0
50
0
100
AcDbRotatedDimension
1001
ACAD
1000
DSTYLE
1002
{
1070
   371
1070
    13
1070
   372
1070
    13
1070
   170
1070
     0
1070
   144
1040
1.0
1070
   277
1070
     2
1070
   278
1070
    44
1070
   146
1040
1.0
1070
   345
1005
16
1070
   347
1005
16
1070
   346
1005
16
1070
   344
1005
0
1070
   343
1005
0
1070
   172
1070
     1
1070
    76
1070
     0
1070
    75
1070
     0
1070
   282
1070
     0
1070
   281
1070
     0
1070
    71
1070
     0
1070
    74
1070
     0
1070
   279
1070
     0
1070
   173
1070
     1
1070
   340
1005
E6
1070
   271
1070
     2
1070
   272
1070
     2
1070
    77
1070
     1
1070
    73
1070
     1
1070
   171
1070
     3
1070
   274
1070
     4
1070
   177
1070
    35
1070
   176
1070
    35
1070
   178
1070
    35
1070
    48
1040
-0.1
1070
    41
1040
3.5
1070
   147
1040
1.75
1070
    42
1040
1.5875
1070
    44
1040
2.0
1070
   140
1040
3.5
1002
}
1001
ACAD_DSTYLE_DIM_LINETYPE
1070
   380
1005
16
1001
ACAD_DSTYLE_DIM_EXT1_LINETYPE
1070
   381
1005
16
1001
ACAD_DSTYLE_DIM_EXT2_LINETYPE
1070
   382
1005
16
0
DIMENSION
5
117
100
AcDbEntity
8
SK2
62
256
6
ByLayer
370
13
48
1
60
0
100
AcDbDimension
2
_U1
10
62
20
-35.692985
30
0
11
8.5
21
-35.692985
31
0
70
32
71
1
72
1
41
1
210
0
220
0
230
1
3
Standard
100
AcDbAlignedDimension
13
-45
23
-7
33
0
14
62
24
0
34
0
50
0
100
AcDbRotatedDimension
1001
ACAD
1000
DSTYLE
1002
{
1070
   371
1070
    13
1070
   372
1070
    13
1070
   170
1070
     0
1070
   144
1040
1.0
1070
   277
1070
     2
1070
   278
1070
    44
1070
   146
1040
1.0
1070
   345
1005
16
1070
   347
1005
16
1070
   346
1005
16
1070
   344
1005
0
1070
   343
1005
0
1070
   172
1070
     1
1070
    76
1070
     0
1070
    75
1070
     0
1070
   282
1070
     0
1070
   281
1070
     0
1070
    71
1070
     0
1070
    74
1070
     0
1070
   279
1070
     0
1070
   173
1070
     1
1070
   340
1005
E6
1070
   271
1070
     2
1070
   272
1070
     2
1070
    77
1070
     1
1070
    73
1070
     1
1070
   171
1070
     3
1070
   274
1070
     4
1070
   177
1070
    35
1070
   176
1070
    35
1070
   178
1070
    35
1070
    48
1040
-0.1
1070
    41
1040
3.5
1070
   147
1040
1.75
1070
    42
1040
1.5875
1070
    44
1040
2.0
1070
   140
1040
3.5
1002
}
1001
ACAD_DSTYLE_DIM_LINETYPE
1070
   380
1005
16
1001
ACAD_DSTYLE_DIM_EXT1_LINETYPE
1070
   381
1005
16
1001
ACAD_DSTYLE_DIM_EXT2_LINETYPE
1070
   382
1005
16
0
DIMENSION
5
12F
100
AcDbEntity
8
SK2
62
256
6
ByLayer
370
13
48
1
60
0
100
AcDbDimension
2
_U2
10
62
20
18.356119
30
0
11
40.755
21
18.356119
31
0
70
32
71
1
72
1
41
1
210
0
220
0
230
1
3
Standard
100
AcDbAlignedDimension
13
19.51
23
6.747
33
0
14
62
24
0
34
0
50
0
100
AcDbRotatedDimension
1001
ACAD
1000
DSTYLE
1002
{
1070
   371
1070
    13
1070
   372
1070
    13
1070
   170
1070
     0
1070
   144
1040
1.0
1070
   277
1070
     2
1070
   278
1070
    44
1070
   146
1040
1.0
1070
   345
1005
16
1070
   347
1005
16
1070
   346
1005
16
1070
   344
1005
0
1070
   343
1005
0
1070
   172
1070
     1
1070
    76
1070
     0
1070
    75
1070
     0
1070
   282
1070
     0
1070
   281
1070
     0
1070
    71
1070
     0
1070
    74
1070
     0
1070
   279
1070
     0
1070
   173
1070
     1
1070
   340
1005
E6
1070
   271
1070
     2
1070
   272
1070
     2
1070
    77
1070
     1
1070
    73
1070
     1
1070
   171
1070
     3
1070
   274
1070
     4
1070
   177
1070
    35
1070
   176
1070
    35
1070
   178
1070
    35
1070
    48
1040
-0.1
1070
    41
1040
3.5
1070
   147
1040
1.75
1070
    42
1040
1.5875
1070
    44
1040
2.0
1070
   140
1040
3.5
1002
}
1001
ACAD_DSTYLE_DIM_LINETYPE
1070
   380
1005
16
1001
ACAD_DSTYLE_DIM_EXT1_LINETYPE
1070
   381
1005
16
1001
ACAD_DSTYLE_DIM_EXT2_LINETYPE
1070
   382
1005
16
0
DIMENSION
5
147
100
AcDbEntity
8
SK2
62
256
6
ByLayer
370
13
48
1
60
0
100
AcDbDimension
2
_U3
10
59.9895
20
-19.549503
30
0
11
79.083333
21
-19.549503
31
0
70
32
71
1
72
1
41
1
210
0
220
0
230
1
3
Standard
100
AcDbAlignedDimension
13
62
23
0
33
0
14
59.9895
24
-6.747
34
0
50
0
100
AcDbRotatedDimension
1001
ACAD
1000
DSTYLE
1002
{
1070
   371
1070
    13
1070
   372
1070
    13
1070
   170
1070
     0
1070
   144
1040
1.0
1070
   277
1070
     2
1070
   278
1070
    44
1070
   146
1040
1.0
1070
   345
1005
16
1070
   347
1005
16
1070
   346
1005
16
1070
   344
1005
0
1070
   343
1005
0
1070
   172
1070
     1
1070
    76
1070
     0
1070
    75
1070
     0
1070
   282
1070
     0
1070
   281
1070
     0
1070
    71
1070
     0
1070
    74
1070
     0
1070
   279
1070
     0
1070
   173
1070
     1
1070
   340
1005
E6
1070
   271
1070
     2
1070
   272
1070
     2
1070
    77
1070
     1
1070
    73
1070
     1
1070
   171
1070
     3
1070
   274
1070
     4
1070
   177
1070
    35
1070
   176
1070
    35
1070
   178
1070
    35
1070
    48
1040
-0.1
1070
    41
1040
3.5
1070
   147
1040
1.75
1070
    42
1040
1.5875
1070
    44
1040
2.0
1070
   140
1040
3.5
1002
}
1001
ACAD_DSTYLE_DIM_LINETYPE
1070
   380
1005
16
1001
ACAD_DSTYLE_DIM_EXT1_LINETYPE
1070
   381
1005
16
1001
ACAD_DSTYLE_DIM_EXT2_LINETYPE
1070
   382
1005
16
0
DIMENSION
5
161
100
AcDbEntity
8
SK2
62
256
6
ByLayer
370
13
48
1
60
0
100
AcDbDimension
2
_U4
10
59.9895
20
-25.343428
30
0
11
7.49475
21
-25.343428
31
0
70
32
71
1
72
1
41
1
210
0
220
0
230
1
3
Standard
100
AcDbAlignedDimension
13
-45
23
-7
33
0
14
59.9895
24
-6.747
34
0
50
0
100
AcDbRotatedDimension
1001
ACAD
1000
DSTYLE
1002
{
1070
   371
1070
    13
1070
   372
1070
    13
1070
   170
1070
     0
1070
   144
1040
1.0
1070
   277
1070
     2
1070
   278
1070
    44
1070
   146
1040
1.0
1070
   345
1005
16
1070
   347
1005
16
1070
   346
1005
16
1070
   344
1005
0
1070
   343
1005
0
1070
   172
1070
     1
1070
    76
1070
     0
1070
    75
1070
     0
1070
   282
1070
     0
1070
   281
1070
     0
1070
    71
1070
     0
1070
    74
1070
     0
1070
   279
1070
     0
1070
   173
1070
     1
1070
   340
1005
E6
1070
   271
1070
     2
1070
   272
1070
     2
1070
    77
1070
     1
1070
    73
1070
     1
1070
   171
1070
     3
1070
   274
1070
     4
1070
   177
1070
    35
1070
   176
1070
    35
1070
   178
1070
    35
1070
    48
1040
-0.1
1070
    41
1040
3.5
1070
   147
1040
1.75
1070
    42
1040
1.5875
1070
    44
1040
2.0
1070
   140
1040
3.5
1002
}
1001
ACAD_DSTYLE_DIM_LINETYPE
1070
   380
1005
16
1001
ACAD_DSTYLE_DIM_EXT1_LINETYPE
1070
   381
1005
16
1001
ACAD_DSTYLE_DIM_EXT2_LINETYPE
1070
   382
1005
16
0
ENDSEC
0
SECTION
2
OBJECTS
0
DICTIONARY
5
1e9
330
0
100
AcDbDictionary
280
0
281
1
3
ACAD_GROUP
350
1ea
3
ACAD_MLINESTYLE
350
1eb
0
DICTIONARY
5
1ea
330
0
100
AcDbDictionary
280
0
281
1
0
DICTIONARY
5
1eb
330
0
100
AcDbDictionary
280
0
281
1
3
Standard
350
18
0
MLINESTYLE
5
18
330
1eb
100
AcDbMlineStyle
2
Standard
70
0
3

62
256
51
90
52
90
71
2
49
-0.5
62
256
6
ByLayer
49
0.5
62
256
6
ByLayer
0
RASTERVARIABLES
5
1d7
330

100
AcDbRasterVariables
90
0
70
1
71
1
72
1
0
ENDSEC
0
EOF
