0
SECTION
2
HEADER
9
$ACADVER
1
AC1015
9
$DWGCODEPAGE
3
ANSI_1252
9
$HANDSEED
5
1fe
9
$ANGBASE
50
0
9
$ANGDIR
70
0
9
$ATTMODE
70
1
9
$AUNITS
70
0
9
$AUPREC
70
0
9
$CECOLOR
62
256
9
$CELTSCALE
40
1
9
$CELTYPE
6
ByLayer
9
$CELWEIGHT
370
18
9
$CLAYER
8
0
9
$CMLJUST
70
0
9
$CMLSCALE
40
1
9
$CMLSTYLE
2
Standard
9
$DIMSTYLE
2
Standard
9
$TEXTSIZE
40
0.2
9
$TEXTSTYLE
7
Standard
9
$LUNITS
70
2
9
$LUPREC
70
4
9
$EXTNAMES
290
1
9
$INSUNITS
70
4
9
$LTSCALE
40
1
9
$LWDISPLAY
290
1
9
$PDMODE
70
0
9
$PDSIZE
40
0
9
$PLINEGEN
70
0
0
ENDSEC
0
SECTION
2
CLASSES
0
CLASS
1
RASTERVARIABLES
2
AcDbRasterVariables
3
ISM
90
0
280
0
281
0
0
ENDSEC
0
SECTION
2
TABLES
0
TABLE
2
VPORT
5
1f4
100
AcDbSymbolTable
0
VPORT
5
1
100
AcDbSymbolTableRecord
100
AcDbViewportTableRecord
2
*Active
70
0
10
0
20
0
11
1
21
1
12
-1
22
1
13
0
23
0
14
0.5
24
0.5
15
10
25
10
16
0
26
0
36
1
17
0
27
0
37
0
0
ENDTAB
0
TABLE
2
LTYPE
5
1f5
100
AcDbSymbolTable
0
LTYPE
5
14
100
AcDbSymbolTableRecord
100
AcDbLinetypeTableRecord
70
0
2
ByBlock
3

72
65
73
0
40
0
0
LTYPE
5
15
100
AcDbSymbolTableRecord
100
AcDbLinetypeTableRecord
70
0
2
ByLayer
3

72
65
73
0
40
0
0
LTYPE
5
16
100
AcDbSymbolTableRecord
100
AcDbLinetypeTableRecord
70
0
2
Continuous
3
Solid line
72
65
73
0
40
0
0
LTYPE
5
6E
100
AcDbSymbolTableRecord
100
AcDbLinetypeTableRecord
70
0
2
CENTER
3
____ _ ____ _ ____ _ ____
72
65
73
4
40
47.5
49
22
74
0
49
-8.5
74
0
49
8.5
74
0
49
-8.5
74
0
0
LTYPE
5
6F
100
AcDbSymbolTableRecord
100
AcDbLinetypeTableRecord
70
0
2
DASHED
3
__ __ __ __ __ __ __ __ __
72
65
73
2
40
25.72
49
12.86
74
0
49
-12.86
74
0
0
ENDTAB
0
TABLE
2
LAYER
5
1f6
100
AcDbSymbolTable
0
LAYER
5
10
100
AcDbSymbolTableRecord
100
AcDbLayerTableRecord
2
0
70
0
62
7
6
Continuous
290
1
370
-3
390
0
0
LAYER
5
71
100
AcDbSymbolTableRecord
100
AcDbLayerTableRecord
2
80
70
0
62
-6
6
Continuous
290
1
370
-3
390
0
0
LAYER
5
73
100
AcDbSymbolTableRecord
100
AcDbLayerTableRecord
2
81
70
0
62
-3
6
Continuous
290
1
370
-3
390
0
0
LAYER
5
75
100
AcDbSymbolTableRecord
100
AcDbLayerTableRecord
2
1
70
0
62
4
6
Continuous
290
1
370
-3
390
0
0
LAYER
5
89
100
AcDbSymbolTableRecord
100
AcDbLayerTableRecord
2
4
70
0
62
-2
6
CENTER
290
1
370
-3
390
0
0
LAYER
5
A4
100
AcDbSymbolTableRecord
100
AcDbLayerTableRecord
2
2
70
0
62
7
6
Continuous
290
1
370
-3
390
0
0
LAYER
5
109
100
AcDbSymbolTableRecord
100
AcDbLayerTableRecord
2
Defpoints
70
0
62
7
6
Continuous
290
0
370
-3
390
0
0
LAYER
5
1e0
100
AcDbSymbolTableRecord
100
AcDbLayerTableRecord
2
SK1
70
0
62
4
6
Continuous
290
1
370
-3
390
0
0
LAYER
5
1e1
100
AcDbSymbolTableRecord
100
AcDbLayerTableRecord
2
SK4
70
0
62
2
6
CENTER
290
1
370
-3
390
0
0
LAYER
5
1e2
100
AcDbSymbolTableRecord
100
AcDbLayerTableRecord
2
SK2
70
0
62
7
6
Continuous
290
1
370
-3
390
0
0
LAYER
5
1e3
100
AcDbSymbolTableRecord
100
AcDbLayerTableRecord
2
SK6
70
0
62
5
6
Continuous
290
1
370
-3
390
0
0
ENDTAB
0
TABLE
2
STYLE
5
1f7
100
AcDbSymbolTable
0
STYLE
5
11
100
AcDbSymbolTableRecord
100
AcDbTextStyleTableRecord
2
Standard
3
txt
70
0
71
0
40
0
41
1
42
0
50
0
0
STYLE
5
EE
100
AcDbSymbolTableRecord
100
AcDbTextStyleTableRecord
2
iso_b_vert
3
simplex.shx
70
0
71
0
40
0
41
1
42
0
50
0
0
STYLE
5
EF
100
AcDbSymbolTableRecord
100
AcDbTextStyleTableRecord
2
DWGDirectTextStyle
3
simplex
70
0
71
0
40
0
41
1
42
0
50
0
0
ENDTAB
0
TABLE
2
DIMSTYLE
5
1f8
100
AcDbSymbolTable
100
AcDbDimStyleTable
0
DIMSTYLE
105
27
100
AcDbSymbolTableRecord
100
AcDbDimStyleTableRecord
2
Standard
70
0
3
<>
41
0.18
42
0.0625
44
0.18
140
0.18
147
0.09
73
0
74
0
77
1
271
2
275
0
278
52
280
0
340
11
0
ENDTAB
0
TABLE
2
VIEW
5
1f9
100
AcDbSymbolTable
0
ENDTAB
0
TABLE
2
UCS
5
1fa
100
AcDbSymbolTable
0
ENDTAB
0
TABLE
2
APPID
5
1fb
100
AcDbSymbolTable
0
APPID
5
12
100
AcDbSymbolTableRecord
100
AcDbRegAppTableRecord
2
ACAD
70
0
0
APPID
5
105
100
AcDbSymbolTableRecord
100
AcDbRegAppTableRecord
2
ACAD_DSTYLE_DIMBREAK
70
0
0
APPID
5
19F
100
AcDbSymbolTableRecord
100
AcDbRegAppTableRecord
2
ACAD_DSTYLE_DIM_LINETYPE
70
0
0
APPID
5
1A0
100
AcDbSymbolTableRecord
100
AcDbRegAppTableRecord
2
ACAD_DSTYLE_DIM_EXT1_LINETYPE
70
0
0
APPID
5
1A1
100
AcDbSymbolTableRecord
100
AcDbRegAppTableRecord
2
ACAD_DSTYLE_DIM_EXT2_LINETYPE
70
0
0
APPID
5
1DC
100
AcDbSymbolTableRecord
100
AcDbRegAppTableRecord
2
ACAD_MLEADERVER
70
0
0
ENDTAB
0
TABLE
2
BLOCK_RECORD
5
1fc
100
AcDbSymbolTable
0
BLOCK_RECORD
5
1F
100
AcDbSymbolTableRecord
100
AcDbBlockTableRecord
2
*Model_Space
340
0
70
0
0
BLOCK_RECORD
5
1B
100
AcDbSymbolTableRecord
100
AcDbBlockTableRecord
2
*Paper_Space
340
0
70
0
0
BLOCK_RECORD
5
23
100
AcDbSymbolTableRecord
100
AcDbBlockTableRecord
2
*Paper_Space0
340
0
70
0
0
BLOCK_RECORD
5
10A
100
AcDbSymbolTableRecord
100
AcDbBlockTableRecord
2
*D1
340
0
70
0
0
BLOCK_RECORD
5
116
100
AcDbSymbolTableRecord
100
AcDbBlockTableRecord
2
_U0
340
0
70
0
0
BLOCK_RECORD
5
122
100
AcDbSymbolTableRecord
100
AcDbBlockTableRecord
2
*D3
340
0
70
0
0
BLOCK_RECORD
5
12E
100
AcDbSymbolTableRecord
100
AcDbBlockTableRecord
2
_U1
340
0
70
0
0
BLOCK_RECORD
5
13A
100
AcDbSymbolTableRecord
100
AcDbBlockTableRecord
2
*D5
340
0
70
0
0
BLOCK_RECORD
5
146
100
AcDbSymbolTableRecord
100
AcDbBlockTableRecord
2
_U2
340
0
70
0
0
BLOCK_RECORD
5
152
100
AcDbSymbolTableRecord
100
AcDbBlockTableRecord
2
*D7
340
0
70
0
0
BLOCK_RECORD
5
160
100
AcDbSymbolTableRecord
100
AcDbBlockTableRecord
2
_U3
340
0
70
0
0
BLOCK_RECORD
5
16C
100
AcDbSymbolTableRecord
100
AcDbBlockTableRecord
2
*D9
340
0
70
0
0
BLOCK_RECORD
5
178
100
AcDbSymbolTableRecord
100
AcDbBlockTableRecord
2
_U4
340
0
70
0
0
ENDTAB
0
ENDSEC
0
SECTION
2
BLOCKS
0
BLOCK
5
20
100
AcDbEntity
8
0
100
AcDbBlockBegin
2
*Model_Space
70
0
10
0
20
0
30
0
3
*Model_Space
0
ENDBLK
5
21
100
AcDbEntity
8
0
100
AcDbBlockEnd
0
BLOCK
5
1C
100
AcDbEntity
8
0
100
AcDbBlockBegin
2
*Paper_Space
70
0
10
0
20
0
30
0
3
*Paper_Space
0
ENDBLK
5
1D
100
AcDbEntity
8
0
100
AcDbBlockEnd
0
BLOCK
5
24
100
AcDbEntity
8
0
100
AcDbBlockBegin
2
*Paper_Space0
70
0
10
0
20
0
30
0
3
*Paper_Space0
0
ENDBLK
5
25
100
AcDbEntity
8
0
100
AcDbBlockEnd
0
BLOCK
5
10B
100
AcDbEntity
8
0
100
AcDbBlockBegin
2
*D1
70
1
10
0
20
0
30
0
3
*D1
0
LINE
5
10D
100
AcDbEntity
8
0
62
256
6
ByLayer
370
-2
48
1
60
0
100
AcDbLine
10
0
20
-1.5875
30
0
11
0
21
-16.182398
31
0
39
0
210
0
220
0
230
1
0
LINE
5
10E
100
AcDbEntity
8
0
62
256
6
ByLayer
370
-2
48
1
60
0
100
AcDbLine
10
41.8267
20
-5.5565
30
0
11
41.8267
21
-16.182398
31
0
39
0
210
0
220
0
230
1
0
LINE
5
10F
100
AcDbEntity
8
0
62
256
6
ByLayer
370
-2
48
1
60
0
100
AcDbLine
10
3.5
20
-14.182398
30
0
11
38.3267
21
-14.182398
31
0
39
0
210
0
220
0
230
1
0
SOLID
5
110
100
AcDbEntity
8
0
62
256
6
ByLayer
370
-1
48
1
60
0
100
AcDbTrace
10
3.5
20
-13.599065
30
0
11
3.5
21
-14.765732
31
0
12
0
22
-14.182398
32
0
13
0
23
-14.182398
33
0
39
0
210
0
220
0
230
1
0
SOLID
5
111
100
AcDbEntity
8
0
62
256
6
ByLayer
370
-1
48
1
60
0
100
AcDbTrace
10
38.3267
20
-14.765732
30
0
11
38.3267
21
-13.599065
31
0
12
41.8267
22
-14.182398
32
0
13
41.8267
23
-14.182398
33
0
39
0
210
0
220
0
230
1
0
MTEXT
5
112
100
AcDbEntity
8
0
62
256
6
ByLayer
370
18
48
1
60
0
100
AcDbMText
10
20.91335
20
-7.182398
30
0
210
0
220
0
230
1
1
\A1;41.83
40
3.5
41
0
44
1
50
0
71
5
72
5
7
iso_b_vert
0
POINT
5
113
100
AcDbEntity
8
Defpoints
62
0
6
ByLayer
370
-1
48
1
60
0
100
AcDbPoint
10
0
20
0
30
0
39
0
210
0
220
0
230
1
50
360
0
POINT
5
114
100
AcDbEntity
8
Defpoints
62
0
6
ByLayer
370
-1
48
1
60
0
100
AcDbPoint
10
41.8267
20
-3.969
30
0
39
0
210
0
220
0
230
1
50
360
0
POINT
5
115
100
AcDbEntity
8
Defpoints
62
0
6
ByLayer
370
-1
48
1
60
0
100
AcDbPoint
10
41.8267
20
-14.182398
30
0
39
0
210
0
220
0
230
1
50
360
0
ENDBLK
5
10C
100
AcDbEntity
8
0
100
AcDbBlockEnd
0
BLOCK
5
11D
100
AcDbEntity
8
0
100
AcDbBlockBegin
2
_U0
70
0
10
0
20
0
30
0
3
_U0
0
MTEXT
5
117
100
AcDbEntity
8
SK2
62
256
6
ByLayer
370
13
48
1
60
0
100
AcDbMText
10
16.029218
20
-13.149765
30
0
210
0
220
0
230
1
1
\W0.6977;41,83
40
3.5
41
0
44
1.084337
50
0
71
7
72
5
7
iso_b_vert
0
LINE
5
118
100
AcDbEntity
8
SK2
62
256
6
ByLayer
370
13
48
1
60
0
100
AcDbLine
10
0
20
-1.5875
30
0
11
0
21
-16.182398
31
0
39
0
210
0
220
0
230
1
0
LINE
5
119
100
AcDbEntity
8
SK2
62
256
6
ByLayer
370
13
48
1
60
0
100
AcDbLine
10
41.8267
20
-5.5565
30
0
11
41.8267
21
-16.182398
31
0
39
0
210
0
220
0
230
1
0
LINE
5
11A
100
AcDbEntity
8
SK2
62
256
6
ByLayer
370
13
48
1
60
0
100
AcDbLine
10
0
20
-14.182398
30
0
11
41.8267
21
-14.182398
31
0
39
0
210
0
220
0
230
1
0
SOLID
5
11B
100
AcDbEntity
8
SK2
62
256
6
ByLayer
370
18
48
1
60
0
100
AcDbTrace
10
0
20
-14.182398
30
0
11
3.499998
21
-13.721615
31
0
12
3.500002
22
-14.643182
32
0
13
3.500002
23
-14.643182
33
0
39
0
210
0
220
0
230
1
0
SOLID
5
11C
100
AcDbEntity
8
SK2
62
256
6
ByLayer
370
18
48
1
60
0
100
AcDbTrace
10
41.8267
20
-14.182398
30
0
11
38.326702
21
-14.643182
31
0
12
38.326698
22
-13.721615
32
0
13
38.326698
23
-13.721615
33
0
39
0
210
0
220
0
230
1
0
ENDBLK
5
11E
100
AcDbEntity
8
0
100
AcDbBlockEnd
0
BLOCK
5
123
100
AcDbEntity
8
0
100
AcDbBlockBegin
2
*D3
70
1
10
0
20
0
30
0
3
*D3
0
LINE
5
125
100
AcDbEntity
8
0
62
256
6
ByLayer
370
-2
48
1
60
0
100
AcDbLine
10
-36
20
-5.5875
30
0
11
-36
21
-34.692985
31
0
39
0
210
0
220
0
230
1
0
LINE
5
126
100
AcDbEntity
8
0
62
256
6
ByLayer
370
-2
48
1
60
0
100
AcDbLine
10
43
20
-1.5875
30
0
11
43
21
-34.692985
31
0
39
0
210
0
220
0
230
1
0
LINE
5
127
100
AcDbEntity
8
0
62
256
6
ByLayer
370
-2
48
1
60
0
100
AcDbLine
10
-32.5
20
-32.692985
30
0
11
39.5
21
-32.692985
31
0
39
0
210
0
220
0
230
1
0
SOLID
5
128
100
AcDbEntity
8
0
62
256
6
ByLayer
370
-1
48
1
60
0
100
AcDbTrace
10
-32.5
20
-32.109652
30
0
11
-32.5
21
-33.276319
31
0
12
-36
22
-32.692985
32
0
13
-36
23
-32.692985
33
0
39
0
210
0
220
0
230
1
0
SOLID
5
129
100
AcDbEntity
8
0
62
256
6
ByLayer
370
-1
48
1
60
0
100
AcDbTrace
10
39.5
20
-33.276319
30
0
11
39.5
21
-32.109652
31
0
12
43
22
-32.692985
32
0
13
43
23
-32.692985
33
0
39
0
210
0
220
0
230
1
0
MTEXT
5
12A
100
AcDbEntity
8
0
62
256
6
ByLayer
370
18
48
1
60
0
100
AcDbMText
10
3.5
20
-25.692985
30
0
210
0
220
0
230
1
1
\A1;79.00
40
3.5
41
0
44
1
50
0
71
5
72
5
7
iso_b_vert
0
POINT
5
12B
100
AcDbEntity
8
Defpoints
62
0
6
ByLayer
370
-1
48
1
60
0
100
AcDbPoint
10
-36
20
-4
30
0
39
0
210
0
220
0
230
1
50
360
0
POINT
5
12C
100
AcDbEntity
8
Defpoints
62
0
6
ByLayer
370
-1
48
1
60
0
100
AcDbPoint
10
43
20
0
30
0
39
0
210
0
220
0
230
1
50
360
0
POINT
5
12D
100
AcDbEntity
8
Defpoints
62
0
6
ByLayer
370
-1
48
1
60
0
100
AcDbPoint
10
43
20
-32.692985
30
0
39
0
210
0
220
0
230
1
50
360
0
ENDBLK
5
124
100
AcDbEntity
8
0
100
AcDbBlockEnd
0
BLOCK
5
135
100
AcDbEntity
8
0
100
AcDbBlockBegin
2
_U1
70
0
10
0
20
0
30
0
3
_U1
0
MTEXT
5
12F
100
AcDbEntity
8
SK2
62
256
6
ByLayer
370
13
48
1
60
0
100
AcDbMText
10
-1.637299
20
-31.660352
30
0
210
0
220
0
230
1
1
\W0.7317;79,00
40
3.5
41
0
44
1.084337
50
0
71
7
72
5
7
iso_b_vert
0
LINE
5
130
100
AcDbEntity
8
SK2
62
256
6
ByLayer
370
13
48
1
60
0
100
AcDbLine
10
-36
20
-5.5875
30
0
11
-36
21
-34.692985
31
0
39
0
210
0
220
0
230
1
0
LINE
5
131
100
AcDbEntity
8
SK2
62
256
6
ByLayer
370
13
48
1
60
0
100
AcDbLine
10
43
20
-1.5875
30
0
11
43
21
-34.692985
31
0
39
0
210
0
220
0
230
1
0
LINE
5
132
100
AcDbEntity
8
SK2
62
256
6
ByLayer
370
13
48
1
60
0
100
AcDbLine
10
-36
20
-32.692985
30
0
11
43
21
-32.692985
31
0
39
0
210
0
220
0
230
1
0
SOLID
5
133
100
AcDbEntity
8
SK2
62
256
6
ByLayer
370
18
48
1
60
0
100
AcDbTrace
10
-36
20
-32.692985
30
0
11
-32.500002
21
-32.232202
31
0
12
-32.499998
22
-33.153769
32
0
13
-32.499998
23
-33.153769
33
0
39
0
210
0
220
0
230
1
0
SOLID
5
134
100
AcDbEntity
8
SK2
62
256
6
ByLayer
370
18
48
1
60
0
100
AcDbTrace
10
43
20
-32.692985
30
0
11
39.500002
21
-33.153769
31
0
12
39.499998
22
-32.232202
32
0
13
39.499998
23
-32.232202
33
0
39
0
210
0
220
0
230
1
0
ENDBLK
5
136
100
AcDbEntity
8
0
100
AcDbBlockEnd
0
BLOCK
5
13B
100
AcDbEntity
8
0
100
AcDbBlockBegin
2
*D5
70
1
10
0
20
0
30
0
3
*D5
0
LINE
5
13D
100
AcDbEntity
8
0
62
256
6
ByLayer
370
-2
48
1
60
0
100
AcDbLine
10
18.01
20
5.5565
30
0
11
18.01
21
17.578119
31
0
39
0
210
0
220
0
230
1
0
LINE
5
13E
100
AcDbEntity
8
0
62
256
6
ByLayer
370
-2
48
1
60
0
100
AcDbLine
10
43
20
1.5875
30
0
11
43
21
17.578119
31
0
39
0
210
0
220
0
230
1
0
LINE
5
13F
100
AcDbEntity
8
0
62
256
6
ByLayer
370
-2
48
1
60
0
100
AcDbLine
10
21.51
20
15.578119
30
0
11
39.5
21
15.578119
31
0
39
0
210
0
220
0
230
1
0
SOLID
5
140
100
AcDbEntity
8
0
62
256
6
ByLayer
370
-1
48
1
60
0
100
AcDbTrace
10
21.51
20
16.161453
30
0
11
21.51
21
14.994786
31
0
12
18.01
22
15.578119
32
0
13
18.01
23
15.578119
33
0
39
0
210
0
220
0
230
1
0
SOLID
5
141
100
AcDbEntity
8
0
62
256
6
ByLayer
370
-1
48
1
60
0
100
AcDbTrace
10
39.5
20
14.994786
30
0
11
39.5
21
16.161453
31
0
12
43
22
15.578119
32
0
13
43
23
15.578119
33
0
39
0
210
0
220
0
230
1
0
MTEXT
5
142
100
AcDbEntity
8
0
62
256
6
ByLayer
370
18
48
1
60
0
100
AcDbMText
10
30.505
20
22.578119
30
0
210
0
220
0
230
1
1
\A1;24.99
40
3.5
41
0
44
1
50
0
71
5
72
5
7
iso_b_vert
0
POINT
5
143
100
AcDbEntity
8
Defpoints
62
0
6
ByLayer
370
-1
48
1
60
0
100
AcDbPoint
10
18.01
20
3.969
30
0
39
0
210
0
220
0
230
1
50
360
0
POINT
5
144
100
AcDbEntity
8
Defpoints
62
0
6
ByLayer
370
-1
48
1
60
0
100
AcDbPoint
10
43
20
0
30
0
39
0
210
0
220
0
230
1
50
360
0
POINT
5
145
100
AcDbEntity
8
Defpoints
62
0
6
ByLayer
370
-1
48
1
60
0
100
AcDbPoint
10
43
20
15.578119
30
0
39
0
210
0
220
0
230
1
50
360
0
ENDBLK
5
13C
100
AcDbEntity
8
0
100
AcDbBlockEnd
0
BLOCK
5
14D
100
AcDbEntity
8
0
100
AcDbBlockBegin
2
_U2
70
0
10
0
20
0
30
0
3
_U2
0
MTEXT
5
147
100
AcDbEntity
8
SK2
62
256
6
ByLayer
370
13
48
1
60
0
100
AcDbMText
10
25.183435
20
16.610753
30
0
210
0
220
0
230
1
1
\W0.7669;24,99
40
3.5
41
0
44
1.084337
50
0
71
7
72
5
7
iso_b_vert
0
LINE
5
148
100
AcDbEntity
8
SK2
62
256
6
ByLayer
370
13
48
1
60
0
100
AcDbLine
10
18.01
20
5.5565
30
0
11
18.01
21
17.578119
31
0
39
0
210
0
220
0
230
1
0
LINE
5
149
100
AcDbEntity
8
SK2
62
256
6
ByLayer
370
13
48
1
60
0
100
AcDbLine
10
43
20
1.5875
30
0
11
43
21
17.578119
31
0
39
0
210
0
220
0
230
1
0
LINE
5
14A
100
AcDbEntity
8
SK2
62
256
6
ByLayer
370
13
48
1
60
0
100
AcDbLine
10
18.01
20
15.578119
30
0
11
43
21
15.578119
31
0
39
0
210
0
220
0
230
1
0
SOLID
5
14B
100
AcDbEntity
8
SK2
62
256
6
ByLayer
370
18
48
1
60
0
100
AcDbTrace
10
18.01
20
15.578119
30
0
11
21.509998
21
16.038903
31
0
12
21.510002
22
15.117335
32
0
13
21.510002
23
15.117335
33
0
39
0
210
0
220
0
230
1
0
SOLID
5
14C
100
AcDbEntity
8
SK2
62
256
6
ByLayer
370
18
48
1
60
0
100
AcDbTrace
10
43
20
15.578119
30
0
11
39.500002
21
15.117335
31
0
12
39.499998
22
16.038903
32
0
13
39.499998
23
16.038903
33
0
39
0
210
0
220
0
230
1
0
ENDBLK
5
14E
100
AcDbEntity
8
0
100
AcDbBlockEnd
0
BLOCK
5
153
100
AcDbEntity
8
0
100
AcDbBlockBegin
2
*D7
70
1
10
0
20
0
30
0
3
*D7
0
LINE
5
155
100
AcDbEntity
8
0
62
256
6
ByLayer
370
-2
48
1
60
0
100
AcDbLine
10
43
20
-1.5875
30
0
11
43
21
-18.771503
31
0
39
0
210
0
220
0
230
1
0
LINE
5
156
100
AcDbEntity
8
0
62
256
6
ByLayer
370
-2
48
1
60
0
100
AcDbLine
10
41.8267
20
-5.5565
30
0
11
41.8267
21
-18.771503
31
0
39
0
210
0
220
0
230
1
0
LINE
5
157
100
AcDbEntity
8
0
62
256
6
ByLayer
370
-2
48
1
60
0
100
AcDbLine
10
43
20
-16.771503
30
0
11
70.666667
21
-16.771503
31
0
39
0
210
0
220
0
230
1
0
LINE
5
158
100
AcDbEntity
8
0
62
256
6
ByLayer
370
-2
48
1
60
0
100
AcDbLine
10
46.5
20
-16.771503
30
0
11
50
21
-16.771503
31
0
39
0
210
0
220
0
230
1
0
LINE
5
159
100
AcDbEntity
8
0
62
256
6
ByLayer
370
-2
48
1
60
0
100
AcDbLine
10
38.3267
20
-16.771503
30
0
11
34.8267
21
-16.771503
31
0
39
0
210
0
220
0
230
1
0
SOLID
5
15A
100
AcDbEntity
8
0
62
256
6
ByLayer
370
-1
48
1
60
0
100
AcDbTrace
10
46.5
20
-16.18817
30
0
11
46.5
21
-17.354837
31
0
12
43
22
-16.771503
32
0
13
43
23
-16.771503
33
0
39
0
210
0
220
0
230
1
0
SOLID
5
15B
100
AcDbEntity
8
0
62
256
6
ByLayer
370
-1
48
1
60
0
100
AcDbTrace
10
38.3267
20
-17.354837
30
0
11
38.3267
21
-16.18817
31
0
12
41.8267
22
-16.771503
32
0
13
41.8267
23
-16.771503
33
0
39
0
210
0
220
0
230
1
0
MTEXT
5
15C
100
AcDbEntity
8
0
62
256
6
ByLayer
370
18
48
1
60
0
100
AcDbMText
10
60.333333
20
-9.771503
30
0
210
0
220
0
230
1
1
\A1;1.17
40
3.5
41
0
44
1
50
0
71
5
72
5
7
iso_b_vert
0
POINT
5
15D
100
AcDbEntity
8
Defpoints
62
0
6
ByLayer
370
-1
48
1
60
0
100
AcDbPoint
10
43
20
0
30
0
39
0
210
0
220
0
230
1
50
360
0
POINT
5
15E
100
AcDbEntity
8
Defpoints
62
0
6
ByLayer
370
-1
48
1
60
0
100
AcDbPoint
10
41.8267
20
-3.969
30
0
39
0
210
0
220
0
230
1
50
360
0
POINT
5
15F
100
AcDbEntity
8
Defpoints
62
0
6
ByLayer
370
-1
48
1
60
0
100
AcDbPoint
10
41.8267
20
-16.771503
30
0
39
0
210
0
220
0
230
1
50
360
0
ENDBLK
5
154
100
AcDbEntity
8
0
100
AcDbBlockEnd
0
BLOCK
5
167
100
AcDbEntity
8
0
100
AcDbBlockBegin
2
_U3
70
0
10
0
20
0
30
0
3
_U3
0
MTEXT
5
161
100
AcDbEntity
8
SK2
62
256
6
ByLayer
370
13
48
1
60
0
100
AcDbMText
10
50.026726
20
-15.73887
30
0
210
0
220
0
230
1
1
\W0.5583;1,17
40
3.5
41
0
44
1.084337
50
0
71
7
72
5
7
iso_b_vert
0
LINE
5
162
100
AcDbEntity
8
SK2
62
256
6
ByLayer
370
13
48
1
60
0
100
AcDbLine
10
43
20
-1.5875
30
0
11
43
21
-18.771503
31
0
39
0
210
0
220
0
230
1
0
LINE
5
163
100
AcDbEntity
8
SK2
62
256
6
ByLayer
370
13
48
1
60
0
100
AcDbLine
10
41.8267
20
-5.5565
30
0
11
41.8267
21
-18.771503
31
0
39
0
210
0
220
0
230
1
0
LINE
5
164
100
AcDbEntity
8
SK2
62
256
6
ByLayer
370
13
48
1
60
0
100
AcDbLine
10
33.0767
20
-16.771503
30
0
11
56.121624
21
-16.771503
31
0
39
0
210
0
220
0
230
1
0
SOLID
5
165
100
AcDbEntity
8
SK2
62
256
6
ByLayer
370
18
48
1
60
0
100
AcDbTrace
10
43
20
-16.771503
30
0
11
46.499998
21
-16.310719
31
0
12
46.500002
22
-17.232287
32
0
13
46.500002
23
-17.232287
33
0
39
0
210
0
220
0
230
1
0
SOLID
5
166
100
AcDbEntity
8
SK2
62
256
6
ByLayer
370
18
48
1
60
0
100
AcDbTrace
10
41.8267
20
-16.771503
30
0
11
38.326702
21
-17.232287
31
0
12
38.326698
22
-16.310719
32
0
13
38.326698
23
-16.310719
33
0
39
0
210
0
220
0
230
1
0
ENDBLK
5
168
100
AcDbEntity
8
0
100
AcDbBlockEnd
0
BLOCK
5
16D
100
AcDbEntity
8
0
100
AcDbBlockBegin
2
*D9
70
1
10
0
20
0
30
0
3
*D9
0
LINE
5
16F
100
AcDbEntity
8
0
62
256
6
ByLayer
370
-2
48
1
60
0
100
AcDbLine
10
-36
20
-5.5875
30
0
11
-36
21
-24.343428
31
0
39
0
210
0
220
0
230
1
0
LINE
5
170
100
AcDbEntity
8
0
62
256
6
ByLayer
370
-2
48
1
60
0
100
AcDbLine
10
41.8267
20
-5.5565
30
0
11
41.8267
21
-24.343428
31
0
39
0
210
0
220
0
230
1
0
LINE
5
171
100
AcDbEntity
8
0
62
256
6
ByLayer
370
-2
48
1
60
0
100
AcDbLine
10
-32.5
20
-22.343428
30
0
11
38.3267
21
-22.343428
31
0
39
0
210
0
220
0
230
1
0
SOLID
5
172
100
AcDbEntity
8
0
62
256
6
ByLayer
370
-1
48
1
60
0
100
AcDbTrace
10
-32.5
20
-21.760095
30
0
11
-32.5
21
-22.926762
31
0
12
-36
22
-22.343428
32
0
13
-36
23
-22.343428
33
0
39
0
210
0
220
0
230
1
0
SOLID
5
173
100
AcDbEntity
8
0
62
256
6
ByLayer
370
-1
48
1
60
0
100
AcDbTrace
10
38.3267
20
-22.926762
30
0
11
38.3267
21
-21.760095
31
0
12
41.8267
22
-22.343428
32
0
13
41.8267
23
-22.343428
33
0
39
0
210
0
220
0
230
1
0
MTEXT
5
174
100
AcDbEntity
8
0
62
256
6
ByLayer
370
18
48
1
60
0
100
AcDbMText
10
2.91335
20
-15.343428
30
0
210
0
220
0
230
1
1
\A1;77.83
40
3.5
41
0
44
1
50
0
71
5
72
5
7
iso_b_vert
0
POINT
5
175
100
AcDbEntity
8
Defpoints
62
0
6
ByLayer
370
-1
48
1
60
0
100
AcDbPoint
10
-36
20
-4
30
0
39
0
210
0
220
0
230
1
50
360
0
POINT
5
176
100
AcDbEntity
8
Defpoints
62
0
6
ByLayer
370
-1
48
1
60
0
100
AcDbPoint
10
41.8267
20
-3.969
30
0
39
0
210
0
220
0
230
1
50
360
0
POINT
5
177
100
AcDbEntity
8
Defpoints
62
0
6
ByLayer
370
-1
48
1
60
0
100
AcDbPoint
10
41.8267
20
-22.343428
30
0
39
0
210
0
220
0
230
1
50
360
0
ENDBLK
5
16E
100
AcDbEntity
8
0
100
AcDbBlockEnd
0
BLOCK
5
17F
100
AcDbEntity
8
0
100
AcDbBlockBegin
2
_U4
70
0
10
0
20
0
30
0
3
_U4
0
MTEXT
5
179
100
AcDbEntity
8
SK2
62
256
6
ByLayer
370
13
48
1
60
0
100
AcDbMText
10
-2.223949
20
-21.310795
30
0
210
0
220
0
230
1
1
\W0.7317;77,83
40
3.5
41
0
44
1.084337
50
0
71
7
72
5
7
iso_b_vert
0
LINE
5
17A
100
AcDbEntity
8
SK2
62
256
6
ByLayer
370
13
48
1
60
0
100
AcDbLine
10
-36
20
-5.5875
30
0
11
-36
21
-24.343428
31
0
39
0
210
0
220
0
230
1
0
LINE
5
17B
100
AcDbEntity
8
SK2
62
256
6
ByLayer
370
13
48
1
60
0
100
AcDbLine
10
41.8267
20
-5.5565
30
0
11
41.8267
21
-24.343428
31
0
39
0
210
0
220
0
230
1
0
LINE
5
17C
100
AcDbEntity
8
SK2
62
256
6
ByLayer
370
13
48
1
60
0
100
AcDbLine
10
-36
20
-22.343428
30
0
11
41.8267
21
-22.343428
31
0
39
0
210
0
220
0
230
1
0
SOLID
5
17D
100
AcDbEntity
8
SK2
62
256
6
ByLayer
370
18
48
1
60
0
100
AcDbTrace
10
-36
20
-22.343428
30
0
11
-32.500002
21
-21.882645
31
0
12
-32.499998
22
-22.804212
32
0
13
-32.499998
23
-22.804212
33
0
39
0
210
0
220
0
230
1
0
SOLID
5
17E
100
AcDbEntity
8
SK2
62
256
6
ByLayer
370
18
48
1
60
0
100
AcDbTrace
10
41.8267
20
-22.343428
30
0
11
38.326702
21
-22.804212
31
0
12
38.326698
22
-21.882645
32
0
13
38.326698
23
-21.882645
33
0
39
0
210
0
220
0
230
1
0
ENDBLK
5
180
100
AcDbEntity
8
0
100
AcDbBlockEnd
0
ENDSEC
0
SECTION
2
ENTITIES
0
ELLIPSE
5
AD
100
AcDbEntity
8
1
62
256
6
ByLayer
370
18
48
1
60
0
100
AcDbEllipse
10
4.25
20
-3.997395
30
0
11
-0.25
21
3.06151588455594E-17
31
0
210
0
220
0
230
1
40
0.999997
41
-1.57186376980407
42
-0.256716977342737
0
ELLIPSE
5
AE
100
AcDbEntity
8
1
62
256
6
ByLayer
370
18
48
1
60
0
100
AcDbEllipse
10
4.25
20
3.997395
30
0
11
-0.25
21
3.06151588455594E-17
31
0
210
0
220
0
230
1
40
0.999997
41
0.25622861361376
42
1.57283721611714
0
POINT
5
70
100
AcDbEntity
8
80
62
256
6
ByLayer
370
18
48
1
60
0
100
AcDbPoint
10
0
20
0
30
0
39
0
210
0
220
0
230
1
50
360
0
POINT
5
72
100
AcDbEntity
8
81
62
256
6
ByLayer
370
18
48
1
60
0
100
AcDbPoint
10
43
20
0
30
0
39
0
210
0
220
0
230
1
50
360
0
POINT
5
74
100
AcDbEntity
8
1
62
256
6
ByLayer
370
18
48
1
60
1
100
AcDbPoint
10
41.8267
20
-3.969
30
0
39
0
210
0
220
0
230
1
50
360
0
POINT
5
76
100
AcDbEntity
8
1
62
256
6
ByLayer
370
18
48
1
60
1
100
AcDbPoint
10
-36
20
-4
30
0
39
0
210
0
220
0
230
1
50
360
0
POINT
5
77
100
AcDbEntity
8
1
62
256
6
ByLayer
370
18
48
1
60
1
100
AcDbPoint
10
18.01
20
3.969
30
0
39
0
210
0
220
0
230
1
50
360
0
POINT
5
78
100
AcDbEntity
8
1
62
256
6
ByLayer
370
18
48
1
60
1
100
AcDbPoint
10
41.8267
20
-3.969
30
0
39
0
210
0
220
0
230
1
50
360
0
POINT
5
79
100
AcDbEntity
8
1
62
256
6
ByLayer
370
18
48
1
60
1
100
AcDbPoint
10
-36
20
-4
30
0
39
0
210
0
220
0
230
1
50
360
0
POINT
5
7A
100
AcDbEntity
8
1
62
256
6
ByLayer
370
18
48
1
60
1
100
AcDbPoint
10
41.8267
20
-3.969
30
0
39
0
210
0
220
0
230
1
50
360
0
SPLINE
5
AF
100
AcDbEntity
8
SK1
62
256
6
ByLayer
370
18
48
1
60
0
100
AcDbSpline
70
4
71
3
72
8
73
4
40
0
40
0
40
0
40
0
40
1
40
1
40
1
40
1
41
1
10
-36
20
1.82028895915789
30
0
41
1
10
-35.8338648929147
20
1.96512110541363
30
0
41
1
10
-35.6671143250832
20
2.10947312702294
30
0
41
1
10
-35.5
20
2.25354137940252
30
0
0
SPLINE
5
B0
100
AcDbEntity
8
SK1
62
256
6
ByLayer
370
18
48
1
60
0
100
AcDbSpline
70
4
71
3
72
12
73
8
40
0
40
0
40
0
40
0
40
0.5
40
0.5
40
0.75
40
0.75
40
1
40
1
40
1
40
1
41
1
10
-35.5
20
2.25354137940246
30
0
41
1
10
-35.4764535706457
20
2.27384061422364
30
0
41
1
10
-35.453758325367
20
2.29933353052419
30
0
41
1
10
-35.4256589034923
20
2.34106992950962
30
0
41
1
10
-35.4170915256394
20
2.35594133389836
30
0
41
1
10
-35.4042768359918
20
2.38530936981101
30
0
41
1
10
-35.4
20
2.40015553261239
30
0
41
1
10
-35.4
20
2.41196988787314
30
0
0
SPLINE
5
B1
100
AcDbEntity
8
SK1
62
256
6
ByLayer
370
18
48
1
60
0
100
AcDbSpline
70
4
71
3
72
8
73
4
40
0
40
0
40
0
40
0
40
1
40
1
40
1
40
1
41
1
10
-35.5
20
3.06980956723771
30
0
41
1
10
-35.6671090516888
20
2.92574586101972
30
0
41
1
10
-35.8338586674301
20
2.78139472045999
30
0
41
1
10
-36
20
2.63655714699308
30
0
0
SPLINE
5
B2
100
AcDbEntity
8
SK1
62
256
6
ByLayer
370
18
48
1
60
0
100
AcDbSpline
70
4
71
3
72
12
73
8
40
0
40
0
40
0
40
0
40
0.25
40
0.25
40
0.5
40
0.5
40
1
40
1
40
1
40
1
41
1
10
-35.4
20
3.11940231733033
30
0
41
1
10
-35.4
20
3.1257166431941
30
0
41
1
10
-35.4042405317345
20
3.12783707102244
30
0
41
1
10
-35.4170629445097
20
3.12618306833343
30
0
41
1
10
-35.4255309618335
20
3.1225861204195
30
0
41
1
10
-35.4538111153162
20
3.10690599769305
30
0
41
1
10
-35.4764597265187
20
3.090103495118
30
0
41
1
10
-35.5
20
3.0698095672378
30
0
0
SPLINE
5
B3
100
AcDbEntity
8
1
62
256
6
ByLayer
370
18
48
1
60
0
100
AcDbSpline
70
4
71
3
72
14
73
10
40
0
40
0
40
0
40
0
40
0.375186317154405
40
0.375186317154405
40
0.670956019189393
40
0.670956019189393
40
0.966725721224381
40
0.966725721224381
40
1
40
1
40
1
40
1
41
1
10
19.7540592037418
20
-3.75687944569202
30
0
41
1
10
19.2601837351431
20
-3.75599293553498
30
0
41
1
10
18.7681144998463
20
-3.72637789559681
30
0
41
1
10
17.8870913152502
20
-3.6234465550518
30
0
41
1
10
17.4982791536247
20
-3.56069980636346
30
0
41
1
10
16.7172958560168
20
-3.40142896911965
30
0
41
1
10
16.3238289530911
20
-3.30442849636671
30
0
41
1
10
15.8895938497369
20
-3.18027986148584
30
0
41
1
10
15.8457068623172
20
-3.16753998329079
30
0
41
1
10
15.8018427573409
20
-3.15461707614685
30
0
0
SPLINE
5
B4
100
AcDbEntity
8
1
62
256
6
ByLayer
370
13
48
1
60
0
100
AcDbSpline
70
4
71
3
72
24
73
20
40
0
40
0
40
0
40
0
40
0.20305541186877
40
0.20305541186877
40
0.310634427377523
40
0.310634427377523
40
0.364423935131899
40
0.364423935131899
40
0.418213442886275
40
0.418213442886275
40
0.63337147390378
40
0.63337147390378
40
0.740950489412532
40
0.740950489412532
40
0.794739997166908
40
0.794739997166908
40
0.848529504921285
40
0.848529504921285
40
1
40
1
40
1
40
1
41
1
10
15.8018437165604
20
-3.15461735874473
30
0
41
1
10
15.0659055749408
20
-2.93780093818972
30
0
41
1
10
14.3364086322819
20
-2.66946356315083
30
0
41
1
10
13.2175087743913
20
-2.19769594555078
30
0
41
1
10
12.8295359762469
20
-2.02290897535266
30
0
41
1
10
12.2449577244991
20
-1.7464519359697
30
0
41
1
10
12.0496645434135
20
-1.65192412745711
30
0
41
1
10
11.6578624265277
20
-1.45860719264391
30
0
41
1
10
11.461386055761
20
-1.35982652983745
30
0
41
1
10
10.4837749223503
20
-0.860985782219473
30
0
41
1
10
9.71070094473907
20
-0.441556560663344
30
0
41
1
10
8.54834084389847
20
0.187571077105361
30
0
41
1
10
8.16056649959086
20
0.39753585549866
30
0
41
1
10
7.57673122118047
20
0.709662493969603
30
0
41
1
10
7.38170932281548
20
0.813145924134574
30
0
41
1
10
6.99057018302011
20
1.01847643754573
30
0
41
1
10
6.79412211758515
20
1.12051571887358
30
0
41
1
10
6.04587750348574
20
1.50340670794543
30
0
41
1
10
5.49632438363597
20
1.77309226236238
30
0
41
1
10
4.94569310157135
20
2.02375612542508
30
0
0
SPLINE
5
B5
100
AcDbEntity
8
1
62
256
6
ByLayer
370
18
48
1
60
0
100
AcDbSpline
70
4
71
3
72
8
73
4
40
0
40
0
40
0
40
0
40
1
40
1
40
1
40
1
41
1
10
41.633930877276
20
-3.86540877200741
30
0
41
1
10
41.6202327277387
20
-3.89886900181418
30
0
41
1
10
41.6065156257189
20
-3.93228362650154
30
0
41
1
10
41.5927821342102
20
-3.96564979810154
30
0
0
SPLINE
5
B6
100
AcDbEntity
8
1
62
256
6
ByLayer
370
18
48
1
60
0
100
AcDbSpline
70
4
71
3
72
10
73
6
40
0
40
0
40
0
40
0
40
0.5
40
0.5
40
1
40
1
40
1
40
1
41
1
10
4.12625435629434
20
2.41580045958409
30
0
41
1
10
4.10034100504615
20
2.4274616373562
30
0
41
1
10
4.07764708807204
20
2.4423842232959
30
0
41
1
10
4.03940669751015
20
2.47798419985895
30
0
41
1
10
4.02463320816901
20
2.49800163981419
30
0
41
1
10
4.01463678921982
20
2.51949123185673
30
0
0
SPLINE
5
B7
100
AcDbEntity
8
1
62
256
6
ByLayer
370
18
48
1
60
0
100
AcDbSpline
70
4
71
3
72
8
73
4
40
0
40
0
40
0
40
0
40
1
40
1
40
1
40
1
41
1
10
41.5927821342103
20
3.96564979810154
30
0
41
1
10
41.4995974573433
20
3.9677473261433
30
0
41
1
10
41.4064319483753
20
3.96876155315982
30
0
41
1
10
41.3132680014917
20
3.96869482945962
30
0
0
SPLINE
5
B8
100
AcDbEntity
8
1
62
256
6
ByLayer
370
18
48
1
60
0
100
AcDbSpline
70
4
71
3
72
32
73
28
40
0
40
0
40
0
40
0
40
0.0695486502234293
40
0.0695486502234293
40
0.102779055572592
40
0.102779055572592
40
0.136009460921756
40
0.136009460921756
40
0.202470271620081
40
0.202470271620081
40
0.335391893016735
40
0.335391893016735
40
0.401852703715061
40
0.401852703715061
40
0.468313514413387
40
0.468313514413387
40
0.534774325111713
40
0.534774325111713
40
0.601235135810039
40
0.601235135810039
40
0.734156757206692
40
0.734156757206692
40
0.800617567905019
40
0.800617567905019
40
0.867078378603347
40
0.867078378603347
40
1
40
1
40
1
40
1
41
1
10
21.7339666323458
20
-3.76369609000261
30
0
41
1
10
21.3284422862482
20
-3.83489421948798
30
0
41
1
10
20.9228524311634
20
-3.88671711623974
30
0
41
1
10
20.3212613715271
20
-3.93348733533185
30
0
41
1
10
20.1263647412574
20
-3.9439841247555
30
0
41
1
10
19.7354573665109
20
-3.95556728911248
30
0
41
1
10
19.5391533066832
20
-3.9566471891192
30
0
41
1
10
18.9500392928145
20
-3.94556387224421
30
0
41
1
10
18.5601815981394
20
-3.91914036097654
30
0
41
1
10
17.3941064036568
20
-3.78538844949
30
0
41
1
10
16.6217451894354
20
-3.62360566085698
30
0
41
1
10
15.4550857313457
20
-3.28204769756735
30
0
41
1
10
15.0648627212022
20
-3.1516840261213
30
0
41
1
10
14.2787769872537
20
-2.86000471793542
30
0
41
1
10
13.8869641726277
20
-2.70019903013926
30
0
41
1
10
13.103513633557
20
-2.35631663931929
30
0
41
1
10
12.7118849582983
20
-2.17212055102326
30
0
41
1
10
11.9257003502915
20
-1.78347558167448
30
0
41
1
10
11.5353059477493
20
-1.58104328899236
30
0
41
1
10
10.3680104707456
20
-0.956820008658781
30
0
41
1
10
9.59574990085173
20
-0.516774528296963
30
0
41
1
10
8.42865241744505
20
0.148167777886357
30
0
41
1
10
8.03839537229317
20
0.371027953557018
30
0
41
1
10
7.25254403452664
20
0.814089616176062
30
0
41
1
10
6.86096005724852
20
1.0318559833608
30
0
41
1
10
5.68961538494094
20
1.66531598581801
30
0
41
1
10
4.91191255650799
20
2.06224912409465
30
0
41
1
10
4.12625435629474
20
2.41580045958392
30
0
0
SPLINE
5
B9
100
AcDbEntity
8
1
62
256
6
ByLayer
370
18
48
1
60
0
100
AcDbSpline
70
4
71
3
72
10
73
6
40
0
40
0
40
0
40
0
40
0.5
40
0.5
40
1
40
1
40
1
40
1
41
1
10
41.8030292937349
20
3.86223981398285
30
0
41
1
10
41.763864216606
20
3.89130669184041
30
0
41
1
10
41.7263130043389
20
3.91483389076768
30
0
41
1
10
41.6562191317485
20
3.94934952966787
30
0
41
1
10
41.6234314339274
20
3.96054391225411
30
0
41
1
10
41.5927821342103
20
3.96564979810154
30
0
0
SPLINE
5
BA
100
AcDbEntity
8
1
62
256
6
ByLayer
370
13
48
1
60
0
100
AcDbSpline
70
4
71
3
72
21
73
17
40
0
40
0
40
0
40
0
40
0.224227203214503
40
0.224227203214503
40
0.336340804821755
40
0.336340804821755
40
0.448454406429006
40
0.560568008036258
40
0.560568008036258
40
0.672681609643509
40
0.672681609643509
40
0.78479521125076
40
0.78479521125076
40
0.896908812858012
40
0.896908812858012
40
1
40
1
40
1
40
1
41
1
10
4.25028911005228
20
2.32939382486185
30
0
41
1
10
4.25031592561638
20
2.52713639761632
30
0
41
1
10
4.25033216341345
20
2.70687200777778
30
0
41
1
10
4.25034714214309
20
2.94972315162954
30
0
41
1
10
4.25035054625931
20
3.02605761556106
30
0
41
1
10
4.25035521549685
20
3.16690156440035
30
0
41
1
10
4.25035779995335
20
3.29672895216356
30
0
41
1
10
4.25035840922919
20
3.40484840370306
30
0
41
1
10
4.25035904286679
20
3.50194924316679
30
0
41
1
10
4.25035937518919
20
3.54513523677059
30
0
41
1
10
4.2503610074483
20
3.61910758368734
30
0
41
1
10
4.25036230548756
20
3.649946877226
30
0
41
1
10
4.2503666706981
20
3.69933413164244
30
0
41
1
10
4.25036974989178
20
3.71780875039937
30
0
41
1
10
4.25037784177189
20
3.74099204580384
30
0
41
1
10
4.25038269762723
20
3.74683142056128
30
0
41
1
10
4.25038865601741
20
3.74740680851565
30
0
0
SPLINE
5
BB
100
AcDbEntity
8
1
62
256
6
ByLayer
370
18
48
1
60
0
100
AcDbSpline
70
4
71
3
72
10
73
6
40
0
40
0
40
0
40
0
40
0.5
40
0.5
40
1
40
1
40
1
40
1
41
1
10
42.999958593232
20
0.0417755601736758
30
0
41
1
10
42.9962264415631
20
0.0264333227881366
30
0
41
1
10
42.9911249500147
20
0.0099851061065124
30
0
41
1
10
42.9788224613574
20
-0.0212428296688643
30
0
41
1
10
42.9715839959445
20
-0.0360479664723528
30
0
41
1
10
42.9642507946351
20
-0.0480571389748263
30
0
0
SPLINE
5
BC
100
AcDbEntity
8
1
62
256
6
ByLayer
370
18
48
1
60
0
100
AcDbSpline
70
4
71
3
72
84
73
80
40
0
40
0
40
0
40
0
40
0.0213407885855114
40
0.0213407885855114
40
0.0562929032788865
40
0.0562929032788865
40
0.0912450179722616
40
0.0912450179722616
40
0.108721075318949
40
0.108721075318949
40
0.126197132665636
40
0.126197132665636
40
0.143673190012322
40
0.143673190012322
40
0.161149247359009
40
0.161149247359009
40
0.196101362052383
40
0.196101362052383
40
0.231053476745757
40
0.231053476745757
40
0.266005591439131
40
0.266005591439131
40
0.300957706132505
40
0.300957706132505
40
0.318433763479192
40
0.318433763479192
40
0.33590982082588
40
0.33590982082588
40
0.370861935519254
40
0.370861935519254
40
0.405814050212629
40
0.405814050212629
40
0.440766164906003
40
0.440766164906003
40
0.475718279599378
40
0.475718279599378
40
0.493194336946065
40
0.493194336946065
40
0.510670394292752
40
0.510670394292752
40
0.545622508986125
40
0.545622508986125
40
0.563098566332812
40
0.563098566332812
40
0.580574623679499
40
0.580574623679499
40
0.615526738372873
40
0.615526738372873
40
0.633002795719561
40
0.633002795719561
40
0.650478853066248
40
0.650478853066248
40
0.685430967759623
40
0.685430967759623
40
0.70290702510631
40
0.70290702510631
40
0.720383082452998
40
0.720383082452998
40
0.755335197146373
40
0.755335197146373
40
0.772811254493061
40
0.772811254493061
40
0.790287311839748
40
0.790287311839748
40
0.825239426533123
40
0.825239426533123
40
0.860191541226498
40
0.860191541226498
40
0.877667598573186
40
0.877667598573186
40
0.895143655919873
40
0.895143655919873
40
0.930095770613249
40
0.930095770613249
40
0.947571827959937
40
0.947571827959937
40
0.965047885306625
40
0.965047885306625
40
1
40
1
40
1
40
1
41
1
10
34.9710942900312
20
-2.89655687638833
30
0
41
1
10
34.7934524383053
20
-2.95836166543126
30
0
41
1
10
34.6156421364032
20
-3.01737558731173
30
0
41
1
10
34.1467655968386
20
-3.16504053196752
30
0
41
1
10
33.8563758790485
20
-3.24734212434524
30
0
41
1
10
33.275286077758
20
-3.39444267572054
30
0
41
1
10
32.9850049154167
20
-3.46051835933727
30
0
41
1
10
32.5490463377466
20
-3.54516450304595
30
0
41
1
10
32.4037640411105
20
-3.57112216969637
30
0
41
1
10
32.1125293944057
20
-3.61817836316121
30
0
41
1
10
31.9668271297448
20
-3.63928888106059
30
0
41
1
10
31.6759871006114
20
-3.67585248351082
30
0
41
1
10
31.5307006701136
20
-3.69104304119611
30
0
41
1
10
31.2400603047204
20
-3.7172474925035
30
0
41
1
10
31.0950052236861
20
-3.72836629834248
30
0
41
1
10
30.6595037909463
20
-3.75483037522997
30
0
41
1
10
30.3691191414445
20
-3.76342186078887
30
0
41
1
10
29.7873173600945
20
-3.76030728979208
30
0
41
1
10
29.4962355014822
20
-3.74835583693528
30
0
41
1
10
28.9147714198089
20
-3.70061374785058
30
0
41
1
10
28.6244011751315
20
-3.66875195264367
30
0
41
1
10
28.0440306518971
20
-3.58618392856772
30
0
41
1
10
27.7534030951573
20
-3.53612861698551
30
0
41
1
10
27.3168207796389
20
-3.44612751008569
30
0
41
1
10
27.1713066003159
20
-3.41376347349305
30
0
41
1
10
26.8806427484114
20
-3.34392099008764
30
0
41
1
10
26.7355869503849
20
-3.30635762184804
30
0
41
1
10
26.3000871633286
20
-3.18880657738626
30
0
41
1
10
26.0099946215264
20
-3.10203283001897
30
0
41
1
10
25.4287738631418
20
-2.91163581197725
30
0
41
1
10
25.1378572258205
20
-2.80877113457444
30
0
41
1
10
24.5560641148673
20
-2.58992481579386
30
0
41
1
10
24.265834568723
20
-2.47369888262688
30
0
41
1
10
23.6860181526586
20
-2.22749168201852
30
0
41
1
10
23.3954123786168
20
-2.09763399658507
30
0
41
1
10
22.9595418676475
20
-1.89536077410631
30
0
41
1
10
22.8139986591818
20
-1.82700567006981
30
0
41
1
10
22.5230291300488
20
-1.68729616147237
30
0
41
1
10
22.3777783201667
20
-1.61631285807772
30
0
41
1
10
21.941981342023
20
-1.40112150155485
30
0
41
1
10
21.6520683341412
20
-1.25366155684102
30
0
41
1
10
21.2166612489406
20
-1.02780033490467
30
0
41
1
10
21.0716578881428
20
-0.951396879680004
30
0
41
1
10
20.7812046909767
20
-0.79809733748823
30
0
41
1
10
20.6358407917852
20
-0.721057845675318
30
0
41
1
10
20.1995502457144
20
-0.48812495487428
30
0
41
1
10
19.9086447948011
20
-0.3308189994099
30
0
41
1
10
19.4735269970553
20
-0.0943935641940072
30
0
41
1
10
19.3284670823069
20
-0.015688484868889
30
0
41
1
10
19.0383082726061
20
0.141483327121563
30
0
41
1
10
18.893231740581
20
0.219975150298524
30
0
41
1
10
18.4578039930809
20
0.454928012951342
30
0
41
1
10
18.1675356935468
20
0.611739293705853
30
0
41
1
10
17.7308517520377
20
0.842991130321309
30
0
41
1
10
17.5854366912292
20
0.919381338900195
30
0
41
1
10
17.2950473381892
20
1.07148254131622
30
0
41
1
10
17.1498374499124
20
1.14667861969445
30
0
41
1
10
16.7146581178319
20
1.37013761304044
30
0
41
1
10
16.4246296928642
20
1.5155226029479
30
0
41
1
10
15.9890994745515
20
1.72754557595351
30
0
41
1
10
15.8438845941689
20
1.79726107989362
30
0
41
1
10
15.552881486657
20
1.93371752961389
30
0
41
1
10
15.4073127890608
20
2.00061850512293
30
0
41
1
10
14.9710009634405
20
2.19692126278235
30
0
41
1
10
14.6805933214662
20
2.32320227003513
30
0
41
1
10
14.0999446029646
20
2.56294265550733
30
0
41
1
10
13.8099833165922
20
2.67686764991251
30
0
41
1
10
13.3736520628298
20
2.83523705667585
30
0
41
1
10
13.227979133946
20
2.88606129257039
30
0
41
1
10
12.9366947350803
20
2.98311972759612
30
0
41
1
10
12.7910981068982
20
3.02960912616422
30
0
41
1
10
12.3554361859375
20
3.16471847917893
30
0
41
1
10
12.0652548469821
20
3.24703621341178
30
0
41
1
10
11.6306331771444
20
3.35752866307089
30
0
41
1
10
11.4857065936982
20
3.39206488842044
30
0
41
1
10
11.1958207013815
20
3.4562607838804
30
0
41
1
10
11.0510012660177
20
3.48594668909305
30
0
41
1
10
10.6156892554377
20
3.5673372669803
30
0
41
1
10
10.3247230247536
20
3.61247891554572
30
0
41
1
10
10.0332529826652
20
3.64900632925293
30
0
0
SPLINE
5
BD
100
AcDbEntity
8
1
62
256
6
ByLayer
370
18
48
1
60
0
100
AcDbSpline
70
4
71
3
72
8
73
4
40
0
40
0
40
0
40
0
40
1
40
1
40
1
40
1
41
1
10
42.9894952910775
20
-0.117775268100672
30
0
41
1
10
42.9901708704495
20
-0.0960903092843637
30
0
41
1
10
42.994141854666
20
-0.069638128179264
30
0
41
1
10
42.9999585932297
20
-0.0417755601421845
30
0
0
SPLINE
5
BE
100
AcDbEntity
8
1
62
256
6
ByLayer
370
18
48
1
60
0
100
AcDbSpline
70
4
71
3
72
8
73
4
40
0
40
0
40
0
40
0
40
1
40
1
40
1
40
1
41
1
10
4.0146367892211
20
2.51949123185506
30
0
41
1
10
4.00861035082579
20
2.53244644143928
30
0
41
1
10
4.00543905538109
20
2.54584424770971
30
0
41
1
10
4.00543955651287
20
2.5594621451979
30
0
0
SPLINE
5
BF
100
AcDbEntity
8
1
62
256
6
ByLayer
370
18
48
1
60
0
100
AcDbSpline
70
4
71
3
72
10
73
6
40
0
40
0
40
0
40
0
40
0.555710393979979
40
0.555710393979979
40
1
40
1
40
1
40
1
41
1
10
41.6434977831363
20
-3.76989787437182
30
0
41
1
10
40.8610988701996
20
-3.77735184838886
30
0
41
1
10
40.0817963284658
20
-3.71190603436648
30
0
41
1
10
38.6708126142403
20
-3.46868294918204
30
0
41
1
10
38.0504519274399
20
-3.31798756932554
30
0
41
1
10
37.4317779639406
20
-3.13020541628134
30
0
0
SPLINE
5
C0
100
AcDbEntity
8
1
62
256
6
ByLayer
370
13
48
1
60
0
100
AcDbSpline
70
4
71
3
72
24
73
20
40
0
40
0
40
0
40
0
40
0.0455995632726537
40
0.0455995632726537
40
0.273027199515701
40
0.273027199515701
40
0.329884108576465
40
0.329884108576465
40
0.386741017637228
40
0.386741017637228
40
0.500454835758752
40
0.500454835758752
40
0.727882472001796
40
0.727882472001796
40
0.841596290123318
40
0.841596290123318
40
0.95531010824484
40
0.95531010824484
40
1
40
1
40
1
40
1
41
1
10
37.4317776854281
20
-3.1302053317462
30
0
41
1
10
37.2766241588404
20
-3.08311257086615
30
0
41
1
10
37.1215767146394
20
-3.03368732604025
30
0
41
1
10
36.1934090536259
20
-2.72431199184007
30
0
41
1
10
35.4205854573132
20
-2.41131672277308
30
0
41
1
10
34.4429411607495
20
-1.96509935701314
30
0
41
1
10
34.2465117461152
20
-1.87297275432562
30
0
41
1
10
33.855476349131
20
-1.68544562091938
30
0
41
1
10
33.6605164794129
20
-1.58988325055171
30
0
41
1
10
33.0769835667996
20
-1.29841204375242
30
0
41
1
10
32.6896857147527
20
-1.09784738555416
30
0
41
1
10
31.5289997194688
20
-0.484691462063921
30
0
41
1
10
30.7572243229477
20
-0.0598346233944937
30
0
41
1
10
29.5872250492495
20
0.57292756177128
30
0
41
1
10
29.1937754591372
20
0.783771443090188
30
0
41
1
10
28.4135280447357
20
1.19290071383378
30
0
41
1
10
28.0253286624277
20
1.39166418003003
30
0
41
1
10
27.4855477307925
20
1.65762262899824
30
0
41
1
10
27.3333680942718
20
1.73143836784052
30
0
41
1
10
27.1812227022046
20
1.80392056392407
30
0
0
SPLINE
5
C1
100
AcDbEntity
8
1
62
256
6
ByLayer
370
18
48
1
60
0
100
AcDbSpline
70
4
71
3
72
38
73
34
40
0
40
0
40
0
40
0
40
0.0720710860544175
40
0.0720710860544175
40
0.13551858009369
40
0.13551858009369
40
0.198966074132962
40
0.198966074132962
40
0.325861062211506
40
0.325861062211506
40
0.389308556250778
40
0.389308556250778
40
0.45275605029005
40
0.45275605029005
40
0.516203544329322
40
0.516203544329322
40
0.547927291348959
40
0.547927291348959
40
0.563789164858777
40
0.563789164858777
40
0.571720101613686
40
0.571720101613686
40
0.579651038368595
40
0.579651038368595
40
0.706546026447139
40
0.706546026447139
40
0.833441014525684
40
0.833441014525684
40
0.896888508564956
40
0.896888508564956
40
0.960336002604228
40
0.960336002604228
40
1
40
1
40
1
40
1
41
1
10
10.0332529826652
20
-1.37423862758817
30
0
41
1
10
10.0332529826652
20
-1.30847467418474
30
0
41
1
10
10.0332529826652
20
-1.24968831762851
30
0
41
1
10
10.0332529826652
20
-1.15177433164104
30
0
41
1
10
10.0332529826652
20
-1.11116734004753
30
0
41
1
10
10.0332529826652
20
-1.04040748784342
30
0
41
1
10
10.0332529826652
20
-1.010554392926
30
0
41
1
10
10.0332529826652
20
-0.937622747845211
30
0
41
1
10
10.0332529826652
20
-0.910561101496796
30
0
41
1
10
10.0332529826652
20
-0.899887494225112
30
0
41
1
10
10.0332529826652
20
-0.901344364543689
30
0
41
1
10
10.0332529826652
20
-0.91418686496732
30
0
41
1
10
10.0332529826652
20
-0.925619288567191
30
0
41
1
10
10.0332529826652
20
-0.958255064655901
30
0
41
1
10
10.0332529826652
20
-0.979406502036966
30
0
41
1
10
10.0332529826652
20
-1.01822891549034
30
0
41
1
10
10.0332529826652
20
-1.03235988830846
30
0
41
1
10
10.0332529826652
20
-1.05529918913354
30
0
41
1
10
10.0332529826651
20
-1.06323550743772
30
0
41
1
10
10.0332529826651
20
-1.07557308385844
30
0
41
1
10
10.0332529826652
20
-1.08346090084956
30
0
41
1
10
10.0332529826652
20
-1.10583686318628
30
0
41
1
10
10.0332529826652
20
-1.120405151955
30
0
41
1
10
10.0332529826652
20
-1.35668398374941
30
0
41
1
10
10.0332529826652
20
-1.59121744396472
30
0
41
1
10
10.0332529826652
20
-2.08202426733561
30
0
41
1
10
10.0332529826652
20
-2.33482340219589
30
0
41
1
10
10.0332529826652
20
-2.72511605695817
30
0
41
1
10
10.0332529826652
20
-2.85710155458335
30
0
41
1
10
10.0332529826652
20
-3.12509005485691
30
0
41
1
10
10.0332529826652
20
-3.2609245173667
30
0
41
1
10
10.0332529826652
20
-3.48033915051164
30
0
41
1
10
10.0332529826652
20
-3.56469602739816
30
0
41
1
10
10.0332529826652
20
-3.64900632925293
30
0
0
SPLINE
5
C2
100
AcDbEntity
8
1
62
256
6
ByLayer
370
18
48
1
60
0
100
AcDbSpline
70
4
71
3
72
26
73
22
40
0
40
0
40
0
40
0
40
0.0625000000000041
40
0.0625000000000041
40
0.125000000000008
40
0.125000000000008
40
0.187500000000012
40
0.187500000000012
40
0.250000000000016
40
0.250000000000016
40
0.375000000000014
40
0.375000000000014
40
0.500000000000011
40
0.500000000000011
40
0.625000000000008
40
0.625000000000008
40
0.750000000000005
40
0.750000000000005
40
0.875000000000003
40
0.875000000000003
40
1
40
1
40
1
40
1
41
1
10
42.4409334443259
20
-0.931711192408642
30
0
41
1
10
42.4384779685286
20
-0.952576247694111
30
0
41
1
10
42.4349242760889
20
-0.9752397324431
30
0
41
1
10
42.4259111871143
20
-1.02199972522982
30
0
41
1
10
42.42046762038
20
-1.04615257765377
30
0
41
1
10
42.407739034389
20
-1.09599298400377
30
0
41
1
10
42.4003902613598
20
-1.12184237499523
30
0
41
1
10
42.3844688276091
20
-1.17300411685127
30
0
41
1
10
42.375843041934
20
-1.19855613644734
30
0
41
1
10
42.3480625391003
20
-1.27513764129074
30
0
41
1
10
42.3276204945862
20
-1.32440665898812
30
0
41
1
10
42.2845942666328
20
-1.41695800468304
30
0
41
1
10
42.2626652042137
20
-1.45889744562208
30
0
41
1
10
42.2185326358439
20
-1.53424426334354
30
0
41
1
10
42.1965620113977
20
-1.56709670432883
30
0
41
1
10
42.1552618517458
20
-1.62036388745233
30
0
41
1
10
42.135525210854
20
-1.64140111699371
30
0
41
1
10
42.0988304529737
20
-1.67102950055255
30
0
41
1
10
42.0823339798374
20
-1.67933182881467
30
0
41
1
10
42.0530747797909
20
-1.68241599395043
30
0
41
1
10
42.0406029666349
20
-1.67696644305545
30
0
41
1
10
42.0309643599591
20
-1.66431716279757
30
0
0
SPLINE
5
C3
100
AcDbEntity
8
1
62
256
6
ByLayer
370
18
48
1
60
0
100
AcDbSpline
70
4
71
3
72
38
73
34
40
0
40
0
40
0
40
0
40
0.0625000000000001
40
0.0625000000000001
40
0.125
40
0.125
40
0.25
40
0.25
40
0.3125
40
0.3125
40
0.375
40
0.375
40
0.40625
40
0.40625
40
0.4375
40
0.4375
40
0.46875
40
0.46875
40
0.5
40
0.5
40
0.53125
40
0.53125
40
0.5625
40
0.5625
40
0.625
40
0.625
40
0.6875
40
0.6875
40
0.75
40
0.75
40
0.875
40
0.875
40
1
40
1
40
1
40
1
41
1
10
42.0309643599591
20
-1.66431716279755
30
0
41
1
10
41.9718166818346
20
-1.64719882441148
30
0
41
1
10
41.912732971856
20
-1.62728457853959
30
0
41
1
10
41.7946933000343
20
-1.58187249572038
30
0
41
1
10
41.7355113722666
20
-1.55626112435578
30
0
41
1
10
41.5602378541169
20
-1.4712525698414
30
0
41
1
10
41.4462093341141
20
-1.40439153768077
30
0
41
1
10
41.2816572996284
20
-1.2806530117189
30
0
41
1
10
41.2282326857453
20
-1.23563708324517
30
0
41
1
10
41.1275258660111
20
-1.1351748423115
30
0
41
1
10
41.0803838144596
20
-1.08044798920992
30
0
41
1
10
41.022009977602
20
-0.986049321766785
30
0
41
1
10
41.0048094283623
20
-0.952581967299096
30
0
41
1
10
40.9797397053563
20
-0.881978023541706
30
0
41
1
10
40.9723025970319
20
-0.845471300151075
30
0
41
1
10
40.9734407649385
20
-0.774914138280735
30
0
41
1
10
40.9824079048722
20
-0.742176919857997
30
0
41
1
10
41.0126953005764
20
-0.68815986948573
30
0
41
1
10
41.0333555876392
20
-0.666786187937504
30
0
41
1
10
41.0796266693896
20
-0.632508953571914
30
0
41
1
10
41.105147739492
20
-0.619613726956089
30
0
41
1
10
41.157953922267
20
-0.599472802778621
30
0
41
1
10
41.1855801223918
20
-0.592135309613496
30
0
41
1
10
41.2702356122619
20
-0.576027747175516
30
0
41
1
10
41.3279830336394
20
-0.573082442842065
30
0
41
1
10
41.4449565491563
20
-0.575985449783303
30
0
41
1
10
41.5044148336225
20
-0.582058644870074
30
0
41
1
10
41.6235487894917
20
-0.60082779924619
30
0
41
1
10
41.6828758343372
20
-0.613472743820466
30
0
41
1
10
41.8602805448079
20
-0.659240403895694
30
0
41
1
10
41.9777970931528
20
-0.699987947160395
30
0
41
1
10
42.2114420103313
20
-0.800346522764016
30
0
41
1
10
42.3283421963728
20
-0.860326972729496
30
0
41
1
10
42.440933444326
20
-0.93171119240921
30
0
0
SPLINE
5
C4
100
AcDbEntity
8
1
62
256
6
ByLayer
370
18
48
1
60
0
100
AcDbSpline
70
4
71
3
72
18
73
14
40
0
40
0
40
0
40
0
40
0.272741019112101
40
0.272741019112101
40
0.409111528668148
40
0.409111528668148
40
0.545482038224196
40
0.545482038224196
40
0.818223057336292
40
0.818223057336292
40
0.95459356689234
40
0.95459356689234
40
1
40
1
40
1
40
1
41
1
10
10.0332529826652
20
-3.64900632925293
30
0
41
1
10
10.3243987829507
20
-3.6125195499601
30
0
41
1
10
10.6152238728401
20
-3.56741471409416
30
0
41
1
10
11.0506061937598
20
-3.48602532857092
30
0
41
1
10
11.195499972557
20
-3.4563297517272
30
0
41
1
10
11.485646502301
20
-3.39208025138501
30
0
41
1
10
11.6307573408198
20
-3.35750065283236
30
0
41
1
10
12.0660828445296
20
-3.24681859011702
30
0
41
1
10
12.3572838925368
20
-3.16417845400468
30
0
41
1
10
12.7935010082073
20
-3.02884724168575
30
0
41
1
10
12.9390244021525
20
-2.98236293959567
30
0
41
1
10
13.1326714532654
20
-2.91781195937941
30
0
41
1
10
13.1810271998215
20
-2.90144122961985
30
0
41
1
10
13.2293724941171
20
-2.88483100154613
30
0
0
SPLINE
5
C5
100
AcDbEntity
8
1
62
256
6
ByLayer
370
18
48
1
60
0
100
AcDbSpline
70
4
71
3
72
32
73
28
40
0
40
0
40
0
40
0
40
0.0785645107732632
40
0.0785645107732632
40
0.136154228849934
40
0.136154228849934
40
0.193743946926605
40
0.193743946926605
40
0.251333665003276
40
0.251333665003276
40
0.308923383079947
40
0.308923383079947
40
0.424102819233288
40
0.424102819233288
40
0.481692537309959
40
0.481692537309959
40
0.53928225538663
40
0.53928225538663
40
0.654461691539971
40
0.654461691539971
40
0.769641127693313
40
0.769641127693313
40
0.827230845769983
40
0.827230845769983
40
0.884820563846654
40
0.884820563846654
40
1
40
1
40
1
40
1
41
1
10
30.3645814086283
20
3.76015579415716
30
0
41
1
10
30.5625346633787
20
3.75675797625507
30
0
41
1
10
30.7604462569769
20
3.74881629376514
30
0
41
1
10
31.1035791294498
20
3.72775279788868
30
0
41
1
10
31.2486777074224
20
3.71654840542072
30
0
41
1
10
31.5395062654463
20
3.69016644260603
30
0
41
1
10
31.6850515918841
20
3.67482599113936
30
0
41
1
10
31.9760469480482
20
3.63800938214797
30
0
41
1
10
32.1213974230735
20
3.61683596757047
30
0
41
1
10
32.4117635192124
20
3.56973378583422
30
0
41
1
10
32.5566755040804
20
3.54375560670056
30
0
41
1
10
32.9917625307938
20
3.45905588006713
30
0
41
1
10
33.2817264023752
20
3.3929286335588
30
0
41
1
10
33.7174209241161
20
3.282457934185
30
0
41
1
10
33.8626735228165
20
3.24357146320548
30
0
41
1
10
34.153335737596
20
3.16080756935798
30
0
41
1
10
34.2989771159146
20
3.11716944455273
30
0
41
1
10
34.7347143377958
20
2.97974053688733
30
0
41
1
10
35.0248984791341
20
2.88022474573722
30
0
41
1
10
35.6047156762694
20
2.66668658497869
30
0
41
1
10
35.8948106033214
20
2.55354172699055
30
0
41
1
10
36.3307694999705
20
2.37407440718926
30
0
41
1
10
36.4763713763227
20
2.31242525179678
30
0
41
1
10
36.7671392816721
20
2.18547456418796
30
0
41
1
10
36.9121707892749
20
2.12017313550751
30
0
41
1
10
37.3476124898275
20
1.92127289446003
30
0
41
1
10
37.6374958658747
20
1.78338679824114
30
0
41
1
10
37.9276673481793
20
1.64199786860402
30
0
0
SPLINE
5
C6
100
AcDbEntity
8
1
62
256
6
ByLayer
370
18
48
1
60
0
100
AcDbSpline
70
4
71
3
72
8
73
4
40
0
40
0
40
0
40
0
40
1
40
1
40
1
40
1
41
1
10
42.0309643599591
20
-1.66431716279757
30
0
41
1
10
41.7961996090298
20
-2.09485154907631
30
0
41
1
10
41.5686003144391
20
-2.53189175558541
30
0
41
1
10
41.3482677831212
20
-2.97552976316629
30
0
0
SPLINE
5
C7
100
AcDbEntity
8
1
62
256
6
ByLayer
370
13
48
1
60
0
100
AcDbSpline
70
4
71
3
72
16
73
12
40
0
40
0
40
0
40
0
40
0.152570312322409
40
0.152570312322409
40
0.293808593602008
40
0.293808593602008
40
0.435046874881606
40
0.435046874881606
40
0.717523437440803
40
0.717523437440803
40
1
40
1
40
1
40
1
41
1
10
4.25038866072631
20
-3.74740726212696
30
0
41
1
10
4.25039566117135
20
-3.74807995502829
30
0
41
1
10
4.25040418326304
20
-3.74148785079433
30
0
41
1
10
4.25042390875979
20
-3.71481046619849
30
0
41
1
10
4.25043492411106
20
-3.69555602388439
30
0
41
1
10
4.25045958970111
20
-3.64481899783991
30
0
41
1
10
4.2504732046803
20
-3.61345534226777
30
0
41
1
10
4.25051746163885
20
-3.50183942406039
30
0
41
1
10
4.25055159486823
20
-3.40423984507237
30
0
41
1
10
4.25062511298438
20
-3.16083959750981
30
0
41
1
10
4.25066326307888
20
-3.01890976925512
30
0
41
1
10
4.25069925202686
20
-2.85790282737756
30
0
0
SPLINE
5
C8
100
AcDbEntity
8
1
62
256
6
ByLayer
370
18
48
1
60
0
100
AcDbSpline
70
4
71
3
72
8
73
4
40
0
40
0
40
0
40
0
40
1
40
1
40
1
40
1
41
1
10
41.7063812985296
20
0.930017159714566
30
0
41
1
10
42.1214654995702
20
0.91812676039541
30
0
41
1
10
42.5365933727908
20
0.905835586038364
30
0
41
1
10
42.9511849440707
20
0.89846599862426
30
0
0
SPLINE
5
C9
100
AcDbEntity
8
1
62
256
6
ByLayer
370
18
48
1
60
0
100
AcDbSpline
70
4
71
3
72
8
73
4
40
0
40
0
40
0
40
0
40
1
40
1
40
1
40
1
41
1
10
42.9511849440707
20
0.89846599862426
30
0
41
1
10
42.9686270521487
20
0.637936525662013
30
0
41
1
10
42.9813973266842
20
0.377706271979179
30
0
41
1
10
42.9894952910775
20
0.117775268100729
30
0
0
SPLINE
5
CA
100
AcDbEntity
8
1
62
256
6
ByLayer
370
18
48
1
60
0
100
AcDbSpline
70
4
71
3
72
18
73
14
40
0
40
0
40
0
40
0
40
0.036597093481147
40
0.036597093481147
40
0.464633476436167
40
0.464633476436167
40
0.571642572174923
40
0.571642572174923
40
0.678651667913679
40
0.678651667913679
40
0.892669859391194
40
0.892669859391194
40
1
40
1
40
1
40
1
41
1
10
8.6938051885075
20
-0.0027308128838399
30
0
41
1
10
8.76013730568886
20
-0.0395817566450489
30
0
41
1
10
8.82645431647646
20
-0.076422554899807
30
0
41
1
10
9.66829491890698
20
-0.543878520563851
30
0
41
1
10
10.4419059133325
20
-0.972857227642265
30
0
41
1
10
11.4207668445246
20
-1.48097724508091
30
0
41
1
10
11.6175408825508
20
-1.58149195971231
30
0
41
1
10
12.0098145427175
20
-1.77790564597356
30
0
41
1
10
12.2053188755821
20
-1.87381626160337
30
0
41
1
10
12.7904687839284
20
-2.15393106207779
30
0
41
1
10
13.1787136673132
20
-2.33051279869838
30
0
41
1
10
13.7610080554017
20
-2.57746475528143
30
0
41
1
10
13.9553546206284
20
-2.65696481468262
30
0
41
1
10
14.1497262523046
20
-2.73326371836339
30
0
0
SPLINE
5
CB
100
AcDbEntity
8
1
62
256
6
ByLayer
370
13
48
1
60
0
100
AcDbSpline
70
4
71
3
72
16
73
12
40
0
40
0
40
0
40
0
40
0.253402537984136
40
0.253402537984136
40
0.422506676705996
40
0.422506676705996
40
0.591610815427856
40
0.591610815427856
40
0.929819092871578
40
0.929819092871578
40
1
40
1
40
1
40
1
41
1
10
14.1497262522886
20
-2.73326371835716
30
0
41
1
10
14.7305155372048
20
-2.96124753125514
30
0
41
1
10
15.3115286242701
20
-3.16065029078436
30
0
41
1
10
16.2879601178732
20
-3.43570712673127
30
0
41
1
10
16.6819901293829
20
-3.53055975709236
30
0
41
1
10
17.4637905665064
20
-3.68420422697278
30
0
41
1
10
17.8529372139524
20
-3.74352414424143
30
0
41
1
10
19.0190928140659
20
-3.86752509232062
30
0
41
1
10
19.7950756663855
20
-3.8784777920622
30
0
41
1
10
20.7421357559671
20
-3.8017508398076
30
0
41
1
10
20.9052704343062
20
-3.78536733291585
30
0
41
1
10
21.0682032537311
20
-3.7659013286042
30
0
0
SPLINE
5
CC
100
AcDbEntity
8
1
62
256
6
ByLayer
370
18
48
1
60
0
100
AcDbSpline
70
4
71
3
72
14
73
10
40
0
40
0
40
0
40
0
40
0.25
40
0.25
40
0.5
40
0.5
40
0.75
40
0.75
40
1
40
1
40
1
40
1
41
1
10
41.6434977831289
20
-3.76989787437191
30
0
41
1
10
41.6468190536176
20
-3.76964944948978
30
0
41
1
10
41.6495223404531
20
-3.77102136716437
30
0
41
1
10
41.653272005922
20
-3.77808438028714
30
0
41
1
10
41.65427096413
20
-3.78384564448788
30
0
41
1
10
41.6533580580151
20
-3.80090044552981
30
0
41
1
10
41.6513587747476
20
-3.81225099455958
30
0
41
1
10
41.6443126676391
20
-3.8380305686893
30
0
41
1
10
41.6393570037333
20
-3.85215446800646
30
0
41
1
10
41.6339308772762
20
-3.86540877200699
30
0
0
SPLINE
5
CD
100
AcDbEntity
8
1
62
256
6
ByLayer
370
18
48
1
60
0
100
AcDbSpline
70
4
71
3
72
16
73
12
40
0
40
0
40
0
40
0
40
0.291504497954965
40
0.291504497954965
40
0.476586751320195
40
0.476586751320195
40
0.569127878002811
40
0.569127878002811
40
0.661669004685428
40
0.661669004685428
40
1
40
1
40
1
40
1
41
1
10
30.4527842375737
20
-0.0076149689039937
30
0
41
1
10
31.0651141054012
20
-0.349248039776569
30
0
41
1
10
31.6735863606536
20
-0.689009842722726
30
0
41
1
10
32.6706971256094
20
-1.22583792693587
30
0
41
1
10
33.0583781017549
20
-1.42994284251642
30
0
41
1
10
33.642638056571
20
-1.72584977600781
30
0
41
1
10
33.8378611163903
20
-1.82275288391349
30
0
41
1
10
34.2294981699789
20
-2.01264385594993
30
0
41
1
10
34.4262037920273
20
-2.10575868483355
30
0
41
1
10
35.3374197347373
20
-2.52481607716788
30
0
41
1
10
36.0448909892341
20
-2.81477502464671
30
0
41
1
10
36.7521055774559
20
-3.05705468084966
30
0
0
SPLINE
5
CE
100
AcDbEntity
8
1
62
256
6
ByLayer
370
13
48
1
60
0
100
AcDbSpline
70
4
71
3
72
12
73
8
40
0
40
0
40
0
40
0
40
0.041226439339834
40
0.041226439339834
40
0.520613219669917
40
0.520613219669917
40
1
40
1
40
1
40
1
41
1
10
36.752105576956
20
-3.05705468067839
30
0
41
1
10
36.8186472891721
20
-3.0798507364002
30
0
41
1
10
36.8851867291476
20
-3.10222469215961
30
0
41
1
10
37.72550919424
20
-3.37934548710348
30
0
41
1
10
38.5001614939798
20
-3.57602520503536
30
0
41
1
10
40.0711421634002
20
-3.83054712846982
30
0
41
1
10
40.8506834454263
20
-3.88549718360568
30
0
41
1
10
41.6339308772753
20
-3.86540877200702
30
0
0
SPLINE
5
CF
100
AcDbEntity
8
1
62
256
6
ByLayer
370
18
48
1
60
0
100
AcDbSpline
70
4
71
3
72
14
73
10
40
0
40
0
40
0
40
0
40
0.25
40
0.25
40
0.5
40
0.5
40
0.75
40
0.75
40
1
40
1
40
1
40
1
41
1
10
4.00555226835695
20
-2.96825813337074
30
0
41
1
10
4.01143408397755
20
-2.94020914319117
30
0
41
1
10
4.02223498588066
20
-2.91401243896681
30
0
41
1
10
4.0542147922248
20
-2.87082838769524
30
0
41
1
10
4.07525439722647
20
-2.8544098868316
30
0
41
1
10
4.12275307862859
20
-2.83542979150602
30
0
41
1
10
4.14883828660794
20
-2.83285395864294
30
0
41
1
10
4.20017101523001
20
-2.83835711746147
30
0
41
1
10
4.22594971317437
20
-2.84633033007671
30
0
41
1
10
4.25069925203226
20
-2.8579028273752
30
0
0
SPLINE
5
D0
100
AcDbEntity
8
1
62
256
6
ByLayer
370
18
48
1
60
0
100
AcDbSpline
70
4
71
3
72
16
73
12
40
0
40
0
40
0
40
0
40
0.268743704839107
40
0.268743704839107
40
0.403115557258661
40
0.403115557258661
40
0.537487409678214
40
0.537487409678214
40
0.80623111451732
40
0.80623111451732
40
1
40
1
40
1
40
1
41
1
10
41.3482677831212
20
-2.97552976316626
30
0
41
1
10
41.3480047111168
20
-3.10786040339624
30
0
41
1
10
41.353752043863
20
-3.22433027534845
30
0
41
1
10
41.3716387885639
20
-3.37569363149183
30
0
41
1
10
41.3791565641545
20
-3.422236737547
30
0
41
1
10
41.3974866048919
20
-3.50731682007728
30
0
41
1
10
41.4082753560672
20
-3.54562235667294
30
0
41
1
10
41.4450877050027
20
-3.64643786009265
30
0
41
1
10
41.4756770192155
20
-3.69572115746738
30
0
41
1
10
41.5394395005067
20
-3.75053191487297
30
0
41
1
10
41.5696646606327
20
-3.76432788761912
30
0
41
1
10
41.6031607683931
20
-3.76883880875684
30
0
0
SPLINE
5
D1
100
AcDbEntity
8
1
62
256
6
ByLayer
370
18
48
1
60
0
100
AcDbSpline
70
4
71
3
72
14
73
10
40
0
40
0
40
0
40
0
40
0.25
40
0.25
40
0.5
40
0.5
40
0.75
40
0.75
40
1
40
1
40
1
40
1
41
1
10
41.5713256773834
20
0.83369782487398
30
0
41
1
10
41.5706859171178
20
0.848928057657474
30
0
41
1
10
41.5741804740435
20
0.864294104861983
30
0
41
1
10
41.5897644053218
20
0.890919326762031
30
0
41
1
10
41.6018319949697
20
0.902070696367332
30
0
41
1
10
41.6289418286863
20
0.91802062951939
30
0
41
1
10
41.6441873045612
20
0.923229452625861
30
0
41
1
10
41.6749094215674
20
0.929404118546813
30
0
41
1
10
41.6906438077688
20
0.930467971981045
30
0
41
1
10
41.7063812985296
20
0.930017159714623
30
0
0
SPLINE
5
D2
100
AcDbEntity
8
1
62
256
6
ByLayer
370
18
48
1
60
0
100
AcDbSpline
70
4
71
3
72
32
73
28
40
0
40
0
40
0
40
0
40
0.0625000000000015
40
0.0625000000000015
40
0.0937500000000023
40
0.0937500000000023
40
0.125000000000003
40
0.125000000000003
40
0.187500000000006
40
0.187500000000006
40
0.218750000000006
40
0.218750000000006
40
0.250000000000007
40
0.250000000000007
40
0.312500000000007
40
0.312500000000007
40
0.375000000000008
40
0.375000000000008
40
0.500000000000007
40
0.500000000000007
40
0.625000000000005
40
0.625000000000005
40
0.750000000000003
40
0.750000000000003
40
0.875000000000002
40
0.875000000000002
40
1
40
1
40
1
40
1
41
1
10
37.9276673481794
20
1.64199786860422
30
0
41
1
10
37.9056882714858
20
1.52244985143318
30
0
41
1
10
37.8929498597581
20
1.39887326151143
30
0
41
1
10
37.8886978961836
20
1.20703188568518
30
0
41
1
10
37.8897994065541
20
1.14187439086922
30
0
41
1
10
37.8969341125765
20
1.01216721262176
30
0
41
1
10
37.9029470534158
20
0.947279067909392
30
0
41
1
10
37.9280304070906
20
0.752515096183117
30
0
41
1
10
37.954125561835
20
0.622540011196691
30
0
41
1
10
38.0065706448732
20
0.427389424585812
30
0
41
1
10
38.0263293214746
20
0.36220783309335
30
0
41
1
10
38.0693631226471
20
0.234088623074058
30
0
41
1
10
38.0927088829428
20
0.170853519290318
30
0
41
1
10
38.1677822096197
20
-0.0165814014418117
30
0
41
1
10
38.2245073175211
20
-0.138528186575314
30
0
41
1
10
38.3497482979331
20
-0.377106149622762
30
0
41
1
10
38.4187495064953
20
-0.494381879476435
30
0
41
1
10
38.637405365963
20
-0.831577654401769
30
0
41
1
10
38.7989077318982
20
-1.03880370737116
30
0
41
1
10
39.1447364286164
20
-1.4277633051299
30
0
41
1
10
39.3303041149804
20
-1.61006750299703
30
0
41
1
10
39.7100268520495
20
-1.94490289532288
30
0
41
1
10
39.9052627867766
20
-2.09873150006587
30
0
41
1
10
40.3044103348785
20
-2.38445306190278
30
0
41
1
10
40.508337617982
20
-2.51630639954283
30
0
41
1
10
40.9238085932312
20
-2.76075569198389
30
0
41
1
10
41.1354375398111
20
-2.8732471857864
30
0
41
1
10
41.3482677831212
20
-2.97552976316626
30
0
0
SPLINE
5
D3
100
AcDbEntity
8
1
62
256
6
ByLayer
370
18
48
1
60
0
100
AcDbSpline
70
4
71
3
72
8
73
4
40
0
40
0
40
0
40
0
40
1
40
1
40
1
40
1
41
1
10
42.9642507946351
20
-0.0480571389748263
30
0
41
1
10
42.7863224252569
20
-0.339440450410422
30
0
41
1
10
42.6118697514371
20
-0.633979492536611
30
0
41
1
10
42.4409334443266
20
-0.931711192407505
30
0
0
SPLINE
5
D4
100
AcDbEntity
8
1
62
256
6
ByLayer
370
18
48
1
60
0
100
AcDbSpline
70
4
71
3
72
62
73
58
40
0
40
0
40
0
40
0
40
0.0625000000000007
40
0.0625000000000007
40
0.125000000000001
40
0.125000000000001
40
0.156250000000002
40
0.156250000000002
40
0.187500000000002
40
0.187500000000002
40
0.203125000000002
40
0.203125000000002
40
0.218750000000002
40
0.218750000000002
40
0.234375000000003
40
0.234375000000003
40
0.250000000000003
40
0.250000000000003
40
0.265625000000003
40
0.265625000000003
40
0.281250000000003
40
0.281250000000003
40
0.296875000000003
40
0.296875000000003
40
0.312500000000004
40
0.312500000000004
40
0.328125000000004
40
0.328125000000004
40
0.343750000000004
40
0.343750000000004
40
0.375000000000006
40
0.375000000000006
40
0.406250000000007
40
0.406250000000007
40
0.421875000000007
40
0.421875000000007
40
0.425781250000007
40
0.425781250000007
40
0.429687500000007
40
0.429687500000007
40
0.433593750000007
40
0.433593750000007
40
0.437500000000007
40
0.437500000000007
40
0.500000000000007
40
0.500000000000007
40
0.562500000000007
40
0.562500000000007
40
0.625000000000007
40
0.625000000000007
40
0.750000000000006
40
0.750000000000006
40
0.812500000000005
40
0.812500000000005
40
0.875000000000003
40
0.875000000000003
40
1
40
1
40
1
40
1
41
1
10
4.00555226835704
20
-2.96825813337034
30
0
41
1
10
3.79628922796721
20
-2.8698620072806
30
0
41
1
10
3.59093705445679
20
-2.76279588365944
30
0
41
1
10
3.19184443737214
20
-2.52569348614298
30
0
41
1
10
2.99793658019826
20
-2.39592097667756
30
0
41
1
10
2.72203198891126
20
-2.17449696332574
30
0
41
1
10
2.63259551048537
20
-2.09616757729123
30
0
41
1
10
2.4612175944942
20
-1.92673757899507
30
0
41
1
10
2.38041204603374
20
-1.8367351665978
30
0
41
1
10
2.27103821147242
20
-1.69184691332762
30
0
41
1
10
2.23652028789681
20
-1.64183758817126
30
0
41
1
10
2.1723456742111
20
-1.53759015070074
30
0
41
1
10
2.14280176464155
20
-1.48345828350281
30
0
41
1
10
2.09093401243217
20
-1.37234402562223
30
0
41
1
10
2.06848478079792
20
-1.31512707551951
30
0
41
1
10
2.03206733874305
20
-1.19671253856217
30
0
41
1
10
2.01804988490051
20
-1.13492339824916
30
0
41
1
10
2.00116025666861
20
-1.01041849404234
30
0
41
1
10
1.9981614329156
20
-0.947576130318197
30
0
41
1
10
2.00406057124974
20
-0.820659374064235
30
0
41
1
10
2.01318530422179
20
-0.756201472811654
30
0
41
1
10
2.04285324631991
20
-0.63145424767302
30
0
41
1
10
2.06333746380031
20
-0.57051760052056
30
0
41
1
10
2.11476010079298
20
-0.451339100920706
30
0
41
1
10
2.145707235337
20
-0.393344085557573
30
0
41
1
10
2.21453980527644
20
-0.283579504561516
30
0
41
1
10
2.2526562937303
20
-0.231241346244104
30
0
41
1
10
2.33502342423591
20
-0.130794187274859
30
0
41
1
10
2.37953156130237
20
-0.0824530614104901
30
0
41
1
10
2.51875568166344
20
0.055102502145246
30
0
41
1
10
2.61884487399789
20
0.137066077091447
30
0
41
1
10
2.82886799023547
20
0.28784402164132
30
0
41
1
10
2.93901999303611
20
0.356657522779386
30
0
41
1
10
3.10937478011203
20
0.452100671910188
30
0
41
1
10
3.16687877064106
20
0.482527637889234
30
0
41
1
10
3.23954451317729
20
0.51905081936934
30
0
41
1
10
3.25416285008498
20
0.52619456977078
30
0
41
1
10
3.28320710038076
20
0.540835193991967
30
0
41
1
10
3.29784435312828
20
0.547852249503762
30
0
41
1
10
3.32870335432108
20
0.556799758952081
30
0
41
1
10
3.34499812973056
20
0.55913884789851
30
0
41
1
10
3.37745935900563
20
0.560938154804006
30
0
41
1
10
3.39357108662341
20
0.559983240128219
30
0
41
1
10
3.66716979907343
20
0.539057998361073
30
0
41
1
10
3.92414758228514
20
0.512556832085778
30
0
41
1
10
4.43622044180563
20
0.446241985376616
30
0
41
1
10
4.69165615772772
20
0.40635324307641
30
0
41
1
10
5.19842935033211
20
0.313977373266397
30
0
41
1
10
5.45004292100452
20
0.261461741754886
30
0
41
1
10
6.19979572897287
20
0.0858072954582099
30
0
41
1
10
6.69282160848564
20
-0.0555310794572677
30
0
41
1
10
7.42363594359719
20
-0.298335946843821
30
0
41
1
10
7.66580334228462
20
-0.384343759003173
30
0
41
1
10
8.14764833319143
20
-0.565089751719427
30
0
41
1
10
8.38754440049135
20
-0.659929762868813
30
0
41
1
10
9.10103927402213
20
-0.953592855195694
30
0
41
1
10
9.56930693617454
20
-1.16183391109675
30
0
41
1
10
10.0332529826652
20
-1.37423862760829
30
0
0
SPLINE
5
D5
100
AcDbEntity
8
1
62
256
6
ByLayer
370
18
48
1
60
0
100
AcDbSpline
70
4
71
3
72
28
73
24
40
0
40
0
40
0
40
0
40
0.118049136124801
40
0.118049136124801
40
0.236098272249602
40
0.236098272249602
40
0.295122840312003
40
0.295122840312003
40
0.354147408374404
40
0.354147408374404
40
0.472196544499207
40
0.472196544499207
40
0.531221112561608
40
0.531221112561608
40
0.59024568062401
40
0.59024568062401
40
0.708294816748811
40
0.708294816748811
40
0.826343952873613
40
0.826343952873613
40
0.944393088998414
40
0.944393088998414
40
1
40
1
40
1
40
1
41
1
10
10.0332529826652
20
-1.37423862760829
30
0
41
1
10
10.3664716001508
20
-1.55438512361576
30
0
41
1
10
10.699185390741
20
-1.72602598332117
30
0
41
1
10
11.3613573284995
20
-2.05711879864367
30
0
41
1
10
11.6904958067548
20
-2.2168727266473
30
0
41
1
10
12.1849395539508
20
-2.44243875394758
30
0
41
1
10
12.3497958531441
20
-2.51543006512708
30
0
41
1
10
12.6791662127301
20
-2.65759539978157
30
0
41
1
10
12.8437161308239
20
-2.72670725547766
30
0
41
1
10
13.3378419344521
20
-2.92691121973508
30
0
41
1
10
13.6684758994938
20
-3.05022538320006
30
0
41
1
10
14.1655651573722
20
-3.22061333195742
30
0
41
1
10
14.3314909010547
20
-3.27491316606657
30
0
41
1
10
14.6642843094324
20
-3.37792703048555
30
0
41
1
10
14.8315118786096
20
-3.42661512417442
30
0
41
1
10
15.3314631533888
20
-3.56282717190666
30
0
41
1
10
15.6625698246067
20
-3.64149602307702
30
0
41
1
10
16.3228741082451
20
-3.77300361366216
30
0
41
1
10
16.6528552731198
20
-3.82551780125323
30
0
41
1
10
17.3110356858266
20
-3.90504098817081
30
0
41
1
10
17.6399900198722
20
-3.93160138308764
30
0
41
1
10
18.1255420653297
20
-3.95092229683527
30
0
41
1
10
18.2810160330716
20
-3.95414837517663
30
0
41
1
10
18.4366890125879
20
-3.9543739273758
30
0
0
SPLINE
5
D6
100
AcDbEntity
8
1
62
256
6
ByLayer
370
18
48
1
60
0
100
AcDbSpline
70
4
71
3
72
24
73
20
40
0
40
0
40
0
40
0
40
0.055438682055448
40
0.055438682055448
40
0.12809724497426
40
0.12809724497426
40
0.200755807893071
40
0.200755807893071
40
0.273414370811882
40
0.273414370811882
40
0.418731496649506
40
0.418731496649506
40
0.564048622487129
40
0.564048622487129
40
0.709365748324753
40
0.709365748324753
40
0.854682874162377
40
0.854682874162377
40
1
40
1
40
1
40
1
41
1
10
34.9679626468852
20
2.88746460544084
30
0
41
1
10
35.0940924212041
20
2.93686439374363
30
0
41
1
10
35.2203950994776
20
2.98487277165248
30
0
41
1
10
35.5124119487101
20
3.09281953400881
30
0
41
1
10
35.6782556250103
20
3.15173199240078
30
0
41
1
10
36.0109145790716
20
3.26420291709226
30
0
41
1
10
36.1779695854931
20
3.31774616559846
30
0
41
1
10
36.5108616994471
20
3.4182958441352
30
0
41
1
10
36.6769278591359
20
3.46549250182585
30
0
41
1
10
37.1734551116261
20
3.59837779211691
30
0
41
1
10
37.502884494906
20
3.67469608994475
30
0
41
1
10
38.1619595636114
20
3.80103824905734
30
0
41
1
10
38.4905137183637
20
3.85174099190536
30
0
41
1
10
39.1483573465841
20
3.92665314982304
30
0
41
1
10
39.478336777569
20
3.95078891482427
30
0
41
1
10
40.1390440817307
20
3.972366552989
30
0
41
1
10
40.4705688967894
20
3.96956974233629
30
0
41
1
10
41.1383395754284
20
3.93642345111539
30
0
41
1
10
41.4704967762045
20
3.90595596234275
30
0
41
1
10
41.8030292937375
20
3.86223981398083
30
0
0
SPLINE
5
D7
100
AcDbEntity
8
1
62
256
6
ByLayer
370
18
48
1
60
0
100
AcDbSpline
70
4
71
3
72
43
73
39
40
0
40
0
40
0
40
0
40
0.124999999999985
40
0.124999999999985
40
0.18749999999998
40
0.18749999999998
40
0.249999999999976
40
0.249999999999976
40
0.374999999999972
40
0.374999999999972
40
0.499999999999969
40
0.499999999999969
40
0.562499999999967
40
0.562499999999967
40
0.624999999999966
40
0.624999999999966
40
0.749999999999969
40
0.749999999999969
40
0.812499999999973
40
0.812499999999973
40
0.843749999999976
40
0.843749999999976
40
0.859374999999977
40
0.867187499999977
40
0.867187499999977
40
0.874999999999978
40
0.874999999999978
40
0.882812499999979
40
0.882812499999979
40
0.886718749999979
40
0.886718749999979
40
0.890624999999979
40
0.890624999999979
40
0.906249999999982
40
0.906249999999982
40
0.937499999999988
40
0.937499999999988
40
1
40
1
40
1
40
1
41
1
10
37.9276673481794
20
1.64199786860411
30
0
41
1
10
38.0768058063519
20
1.49243922289989
30
0
41
1
10
38.2310566238676
20
1.35173722605768
30
0
41
1
10
38.4705506013534
20
1.15474741908204
30
0
41
1
10
38.5517621646706
20
1.09147527285032
30
0
41
1
10
38.7168458935706
20
0.969540206469105
30
0
41
1
10
38.8009962866514
20
0.91065900020908
30
0
41
1
10
39.0553627264389
20
0.742929529851921
30
0
41
1
10
39.2269414475488
20
0.643372362781321
30
0
41
1
10
39.5739753748683
20
0.46801268807431
30
0
41
1
10
39.7493892733893
20
0.391957051624956
30
0
41
1
10
40.0159854968257
20
0.299170303366139
30
0
41
1
10
40.1054069592332
20
0.271648826544748
30
0
41
1
10
40.2854075989854
20
0.223700218256511
30
0
41
1
10
40.3762658672191
20
0.203352274003066
30
0
41
1
10
40.6468684761871
20
0.155387018189288
30
0
41
1
10
40.8256824576383
20
0.140021570839537
30
0
41
1
10
41.0910702908293
20
0.146614176524281
30
0
41
1
10
41.1786097992075
20
0.153806103234246
30
0
41
1
10
41.3076959539708
20
0.173432526364564
30
0
41
1
10
41.3503207993394
20
0.181412653469579
30
0
41
1
10
41.413638780358
20
0.195557465067623
30
0
41
1
10
41.4451237735385
20
0.203169370574187
30
0
41
1
10
41.4763439734875
20
0.211601981350583
30
0
41
1
10
41.4970939436691
20
0.217406463312244
30
0
41
1
10
41.5076320581859
20
0.219914287759792
30
0
41
1
10
41.5277174178963
20
0.227238578332958
30
0
41
1
10
41.5374088887438
20
0.232542484299728
30
0
41
1
10
41.5483143589794
20
0.245287391776799
30
0
41
1
10
41.5514056058356
20
0.250370897989654
30
0
41
1
10
41.5557338423403
20
0.261660996531816
30
0
41
1
10
41.5567679391579
20
0.267960553364588
30
0
41
1
10
41.56012900817
20
0.300506039882777
30
0
41
1
10
41.5624926505498
20
0.326658516792946
30
0
41
1
10
41.5686575366273
20
0.405446506354622
30
0
41
1
10
41.5715275587229
20
0.458336264053543
30
0
41
1
10
41.5767981053589
20
0.617871874929705
30
0
41
1
10
41.575860908949
20
0.725731394043606
30
0
41
1
10
41.5713256773835
20
0.83369782487398
30
0
0
SPLINE
5
D8
100
AcDbEntity
8
1
62
256
6
ByLayer
370
18
48
1
60
0
100
AcDbSpline
70
4
71
3
72
21
73
17
40
0
40
0
40
0
40
0
40
0.115131513531883
40
0.115131513531883
40
0.230263027063767
40
0.230263027063767
40
0.460526054127534
40
0.460526054127534
40
0.575657567659418
40
0.575657567659418
40
0.690789081191302
40
0.805920594723186
40
0.805920594723186
40
0.92105210825507
40
0.92105210825507
40
1
40
1
40
1
40
1
41
1
10
4.00543955651284
20
2.55946214519778
30
0
41
1
10
4.00544322929605
20
2.65926766582621
30
0
41
1
10
4.00544630293999
20
2.75505795225769
30
0
41
1
10
4.00545142635883
20
2.93648446495075
30
0
41
1
10
4.00545347180193
20
3.02183248617854
30
0
41
1
10
4.00545847857256
20
3.26224863660019
30
0
41
1
10
4.00546031429576
20
3.40184080836372
30
0
41
1
10
4.0054623188033
20
3.57927540100909
30
0
41
1
10
4.00546285759748
20
3.63268544631251
30
0
41
1
10
4.0054639057571
20
3.72653525893958
30
0
41
1
10
4.00546493072417
20
3.80800290689231
30
0
41
1
10
4.00546633919612
20
3.86500204758335
30
0
41
1
10
4.00546812981327
20
3.90955393693258
30
0
41
1
10
4.00546922479174
20
3.92562781879678
30
0
41
1
10
4.00547149156472
20
3.94153820899405
30
0
41
1
10
4.00547253242928
20
3.94496840171129
30
0
41
1
10
4.00547370377654
20
3.94537614389358
30
0
0
SPLINE
5
D9
100
AcDbEntity
8
1
62
256
6
ByLayer
370
18
48
1
60
0
100
AcDbSpline
70
4
71
3
72
8
73
4
40
0
40
0
40
0
40
0
40
1
40
1
40
1
40
1
41
1
10
42.9999585932272
20
0.0417755601568501
30
0
41
1
10
43.0000138054489
20
0.0139235767542232
30
0
41
1
10
43.0000137978002
20
-0.013927435198184
30
0
41
1
10
42.9999585932272
20
-0.0417755601457088
30
0
0
SPLINE
5
DA
100
AcDbEntity
8
1
62
256
6
ByLayer
370
18
48
1
60
0
100
AcDbSpline
70
4
71
3
72
14
73
10
40
0
40
0
40
0
40
0
40
0.25
40
0.25
40
0.5
40
0.5
40
0.75
40
0.75
40
1
40
1
40
1
40
1
41
1
10
41.8030292937314
20
-3.86223981399775
30
0
41
1
10
41.8916526060308
20
-3.61327098579869
30
0
41
1
10
41.9824897567686
20
-3.36475490279187
30
0
41
1
10
42.1678316357307
20
-2.86856709217403
30
0
41
1
10
42.2623520399608
20
-2.62089831276961
30
0
41
1
10
42.4545812391686
20
-2.12636627770468
30
0
41
1
10
42.5523502684358
20
-1.87946941018919
30
0
41
1
10
42.7500717917166
20
-1.38777802686232
30
0
41
1
10
42.8501076371757
20
-1.14277892369458
30
0
41
1
10
42.9511849440718
20
-0.898465998621731
30
0
0
SPLINE
5
DB
100
AcDbEntity
8
1
62
256
6
ByLayer
370
18
48
1
60
0
100
AcDbSpline
70
4
71
3
72
44
73
40
40
0
40
0
40
0
40
0
40
0.0531334034265649
40
0.0531334034265649
40
0.0797001051398474
40
0.0797001051398474
40
0.10626680685313
40
0.10626680685313
40
0.212533613706264
40
0.212533613706264
40
0.26566701713283
40
0.26566701713283
40
0.318800420559397
40
0.318800420559397
40
0.425067227412531
40
0.425067227412531
40
0.478200630839098
40
0.478200630839098
40
0.504767332552381
40
0.504767332552381
40
0.531334034265665
40
0.531334034265665
40
0.584467437692231
40
0.584467437692231
40
0.637600841118796
40
0.637600841118796
40
0.690734244545362
40
0.690734244545362
40
0.743867647971927
40
0.743867647971927
40
0.850134454825058
40
0.850134454825058
40
0.903267858251624
40
0.903267858251624
40
0.929834559964906
40
0.929834559964906
40
0.956401261678189
40
0.956401261678189
40
1
40
1
40
1
40
1
41
1
10
41.5927821342102
20
-3.96564979810154
30
0
41
1
10
41.2008649429754
20
-3.97447160578807
30
0
41
1
10
40.8094720241422
20
-3.96412701971457
30
0
41
1
10
40.2212065850202
20
-3.92020344319178
30
0
41
1
10
40.0246623789341
20
-3.90079211587349
30
0
41
1
10
39.6321766568342
20
-3.85268156930101
30
0
41
1
10
39.4365283669765
20
-3.82403127753489
30
0
41
1
10
38.4604458215882
20
-3.65848000370781
30
0
41
1
10
37.685968461115
20
-3.45500582668109
30
0
41
1
10
36.5181785936408
20
-3.05659648757006
30
0
41
1
10
36.1278441310424
20
-2.90830468667943
30
0
41
1
10
35.3421400969408
20
-2.58336336832093
30
0
41
1
10
34.951525159271
20
-2.40859924078794
30
0
41
1
10
33.7847614346731
20
-1.85505040427097
30
0
41
1
10
33.0124437679514
20
-1.44682474733207
30
0
41
1
10
31.846338090104
20
-0.801676423408907
30
0
41
1
10
31.4564119875258
20
-0.581077212264859
30
0
41
1
10
30.8676201989571
20
-0.245210364952385
30
0
41
1
10
30.671105284262
20
-0.132741223749804
30
0
41
1
10
30.2789586957932
20
0.0916484631971173
30
0
41
1
10
30.083067742295
20
0.203715960891202
30
0
41
1
10
29.4954408836769
20
0.538662235786205
30
0
41
1
10
29.1038317152883
20
0.760426092859802
30
0
41
1
10
28.3181399657605
20
1.19605819745323
30
0
41
1
10
27.9259288143239
20
1.40855865391148
30
0
41
1
10
27.1424051890113
20
1.81759439738059
30
0
41
1
10
26.7507144017016
20
2.0142890931817
30
0
41
1
10
25.9648061384617
20
2.38775457115932
30
0
41
1
10
25.5738788105317
20
2.56275480317038
30
0
41
1
10
24.4064594541825
20
3.04670083949938
30
0
41
1
10
23.6336228908157
20
3.31497857217985
30
0
41
1
10
22.4672087842258
20
3.61970585191796
30
0
41
1
10
22.0770591532928
20
3.70486368057848
30
0
41
1
10
21.4878312224848
20
3.80596633684263
30
0
41
1
10
21.291383244132
20
3.8351297990119
30
0
41
1
10
20.9002955846988
20
3.88396891571014
30
0
41
1
10
20.7053296943758
20
3.90370788544178
30
0
41
1
10
20.1913285958959
20
3.94345539686483
30
0
41
1
10
19.8728812126418
20
3.95554770069836
30
0
41
1
10
19.554675607381
20
3.95510786309947
30
0
0
SPLINE
5
DC
100
AcDbEntity
8
1
62
256
6
ByLayer
370
18
48
1
60
0
100
AcDbSpline
70
4
71
3
72
10
73
6
40
0
40
0
40
0
40
0
40
0.5
40
0.5
40
1
40
1
40
1
40
1
41
1
10
41.8030292937355
20
-3.86223981398237
30
0
41
1
10
41.7638642166065
20
-3.89130669184007
30
0
41
1
10
41.7263130043393
20
-3.91483389076745
30
0
41
1
10
41.6562191317487
20
-3.94934952966781
30
0
41
1
10
41.6234314339274
20
-3.96054391225408
30
0
41
1
10
41.5927821342102
20
-3.96564979810154
30
0
0
SPLINE
5
DD
100
AcDbEntity
8
1
62
256
6
ByLayer
370
18
48
1
60
0
100
AcDbSpline
70
4
71
3
72
12
73
8
40
0
40
0
40
0
40
0
40
0.456476904776822
40
0.456476904776822
40
0.912953809553644
40
0.912953809553644
40
1
40
1
40
1
40
1
41
1
10
10.0332529826652
20
3.64900632925293
30
0
41
1
10
9.783745270635
20
3.67989194638363
30
0
41
1
10
9.53628414283199
20
3.70475761802623
30
0
41
1
10
9.04373691735839
20
3.73922391079765
30
0
41
1
10
8.79862478485182
20
3.74866588949823
30
0
41
1
10
8.50722169038306
20
3.75005687346885
30
0
41
1
10
8.46058135941723
20
3.74999969979965
30
0
41
1
10
8.41397491860937
20
3.74966036002942
30
0
0
SPLINE
5
DE
100
AcDbEntity
8
1
62
256
6
ByLayer
370
13
48
1
60
0
100
AcDbSpline
70
4
71
3
72
8
73
4
40
0
40
0
40
0
40
0
40
1
40
1
40
1
40
1
41
1
10
4.00543955651301
20
2.55946214519713
30
0
41
1
10
4.00987854165712
20
2.53681532371394
30
0
41
1
10
4.01698036774775
20
2.51482330483154
30
0
41
1
10
4.0267066827931
20
2.49398208601289
30
0
0
SPLINE
5
DF
100
AcDbEntity
8
1
62
256
6
ByLayer
370
18
48
1
60
0
100
AcDbSpline
70
4
71
3
72
8
73
4
40
0
40
0
40
0
40
0
40
1
40
1
40
1
40
1
41
1
10
42.9894952910775
20
0.117775268100758
30
0
41
1
10
42.9901708704493
20
0.0960903092910144
30
0
41
1
10
42.9941418546636
20
0.0696381281952654
30
0
41
1
10
42.9999585932243
20
0.0417755601675651
30
0
0
SPLINE
5
E0
100
AcDbEntity
8
1
62
256
6
ByLayer
370
18
48
1
60
0
100
AcDbSpline
70
4
71
3
72
78
73
74
40
0
40
0
40
0
40
0
40
0.0283637869066087
40
0.0283637869066087
40
0.0467810350918785
40
0.0467810350918785
40
0.0651982832771482
40
0.0651982832771482
40
0.102032779647688
40
0.102032779647688
40
0.138867276018227
40
0.138867276018227
40
0.175701772388767
40
0.175701772388767
40
0.212536268759307
40
0.212536268759307
40
0.249370765129846
40
0.249370765129846
40
0.267788013315116
40
0.267788013315116
40
0.286205261500386
40
0.286205261500386
40
0.323039757870924
40
0.323039757870924
40
0.341457006056194
40
0.341457006056194
40
0.359874254241463
40
0.359874254241463
40
0.396708750612002
40
0.396708750612002
40
0.415125998797271
40
0.415125998797271
40
0.433543246982541
40
0.433543246982541
40
0.47037774335308
40
0.47037774335308
40
0.48879499153835
40
0.48879499153835
40
0.50721223972362
40
0.50721223972362
40
0.544046736094159
40
0.544046736094159
40
0.580881232464699
40
0.580881232464699
40
0.617715728835239
40
0.617715728835239
40
0.654550225205778
40
0.654550225205778
40
0.691384721576318
40
0.691384721576318
40
0.728219217946857
40
0.728219217946857
40
0.746636466132128
40
0.746636466132128
40
0.765053714317398
40
0.765053714317398
40
0.801888210687939
40
0.801888210687939
40
0.82030545887321
40
0.82030545887321
40
0.838722707058481
40
0.838722707058481
40
0.857139955243752
40
0.857139955243752
40
0.875557203429023
40
0.875557203429023
40
0.912391699799564
40
0.912391699799564
40
0.949226196170105
40
0.949226196170105
40
0.986060692540645
40
0.986060692540645
40
1
40
1
40
1
40
1
41
1
10
13.2358772192452
20
2.88391653036226
30
0
41
1
10
13.489951704838
20
2.98311337927339
30
0
41
1
10
13.7446852339679
20
3.07634775855092
30
0
41
1
10
14.1655651573722
20
3.22061333195742
30
0
41
1
10
14.3314909010547
20
3.27491316606654
30
0
41
1
10
14.6642843094324
20
3.37792703048555
30
0
41
1
10
14.8315118786096
20
3.42661512417439
30
0
41
1
10
15.3314631533887
20
3.56282717190666
30
0
41
1
10
15.6625698246067
20
3.64149602307702
30
0
41
1
10
16.3228741082451
20
3.77300361366213
30
0
41
1
10
16.6528552731198
20
3.82551780125323
30
0
41
1
10
17.3110356858266
20
3.90504098817081
30
0
41
1
10
17.6399900198722
20
3.93160138308764
30
0
41
1
10
18.3001340281965
20
3.95786959792719
30
0
41
1
10
18.6301786600808
20
3.95766030259921
30
0
41
1
10
19.2941375200913
20
3.92979336232548
30
0
41
1
10
19.6292553507534
20
3.90213397218045
30
0
41
1
10
20.1273324167452
20
3.8405224856923
30
0
41
1
10
20.2928896983925
20
3.81665028129521
30
0
41
1
10
20.6237870895138
20
3.76269032530303
30
0
41
1
10
20.7891038918607
20
3.73261068634139
30
0
41
1
10
21.2841658992477
20
3.63289538746304
30
0
41
1
10
21.6126541731765
20
3.55339280897721
30
0
41
1
10
22.106538826663
20
3.41729718994298
30
0
41
1
10
22.2713225406109
20
3.36913263324632
30
0
41
1
10
22.6008200640802
20
3.26683902645828
30
0
41
1
10
22.7654908975046
20
3.2126490327698
30
0
41
1
10
23.2602268036791
20
3.04179808815653
30
0
41
1
10
23.5915057470991
20
2.91749703511823
30
0
41
1
10
24.0904257246211
20
2.71491644883326
30
0
41
1
10
24.2572585109738
20
2.64448480347724
30
0
41
1
10
24.5905866985763
20
2.49935781802967
30
0
41
1
10
24.7571120630963
20
2.42474031611639
30
0
41
1
10
25.2567990710236
20
2.19555622358683
30
0
41
1
10
25.5892104159467
20
2.03443681450736
30
0
41
1
10
26.0882030332291
20
1.78227705605545
30
0
41
1
10
26.2547847365775
20
1.69677225803514
30
0
41
1
10
26.5885355795903
20
1.523022065709
30
0
41
1
10
26.7556585079693
20
1.4346005417049
30
0
41
1
10
27.2544189756539
20
1.16587090211274
30
0
41
1
10
27.5851179961003
20
0.982787826063998
30
0
41
1
10
28.2457958298502
20
0.613904227694235
30
0
41
1
10
28.5746328011844
20
0.426086747506844
30
0
41
1
10
29.232756075729
20
0.0498163103330569
30
0
41
1
10
29.5623760737806
20
-0.138033034222531
30
0
41
1
10
30.2217262933334
20
-0.514970848498251
30
0
41
1
10
30.55233446199
20
-0.702492141747172
30
0
41
1
10
31.2172094932241
20
-1.07242925413695
30
0
41
1
10
31.5511443514401
20
-1.25699151013404
30
0
41
1
10
32.2148506818359
20
-1.61096567568617
30
0
41
1
10
32.5454126951625
20
-1.78189279148194
30
0
41
1
10
33.0394632321004
20
-2.02909163453452
30
0
41
1
10
33.2039608681166
20
-2.10976856587365
30
0
41
1
10
33.5332057104705
20
-2.26678709927501
30
0
41
1
10
33.6978963722873
20
-2.34322537800759
30
0
41
1
10
34.191576370527
20
-2.56718466147592
30
0
41
1
10
34.5201748474282
20
-2.70924738743346
30
0
41
1
10
35.0156378789615
20
-2.90691599425023
30
0
41
1
10
35.1811398028091
20
-2.97036168370724
30
0
41
1
10
35.5124119487101
20
-3.09281953400878
30
0
41
1
10
35.6782556250101
20
-3.15173199240076
30
0
41
1
10
36.0109145790715
20
-3.26420291709223
30
0
41
1
10
36.177969585493
20
-3.31774616559844
30
0
41
1
10
36.510861699447
20
-3.41829584413517
30
0
41
1
10
36.6769278591358
20
-3.46549250182582
30
0
41
1
10
37.1734551116261
20
-3.59837779211685
30
0
41
1
10
37.5028844949059
20
-3.67469608994472
30
0
41
1
10
38.1619595636114
20
-3.80103824905731
30
0
41
1
10
38.4905137183637
20
-3.85174099190533
30
0
41
1
10
39.148357346584
20
-3.92665314982307
30
0
41
1
10
39.4783367775689
20
-3.95078891482427
30
0
41
1
10
39.9337064222768
20
-3.96566055520546
30
0
41
1
10
40.0588901369907
20
-3.96779778036188
30
0
41
1
10
40.1843060312504
20
-3.96797907410249
30
0
0
SPLINE
5
E1
100
AcDbEntity
8
1
62
256
6
ByLayer
370
18
48
1
60
0
100
AcDbSpline
70
4
71
3
72
18
73
14
40
0
40
0
40
0
40
0
40
0.179715719940155
40
0.179715719940155
40
0.316429766616796
40
0.316429766616796
40
0.453143813293437
40
0.453143813293437
40
0.726571906646718
40
0.726571906646718
40
0.863285953323359
40
0.863285953323359
40
1
40
1
40
1
40
1
41
1
10
4.00547370246187
20
-3.94537568494704
30
0
41
1
10
4.00547594777066
20
-3.94616167059101
30
0
41
1
10
4.00547867258277
20
-3.93584022951649
30
0
41
1
10
4.00548445961752
20
-3.89835064537374
30
0
41
1
10
4.00548728103638
20
-3.87575873516636
30
0
41
1
10
4.00549359159655
20
-3.81733144751649
30
0
41
1
10
4.0054970325298
20
-3.78193553110458
30
0
41
1
10
4.0055080867977
20
-3.65806547657235
30
0
41
1
10
4.00551645988594
20
-3.55198658014783
30
0
41
1
10
4.00552981168499
20
-3.35705225419497
30
0
41
1
10
4.00553440330853
20
-3.28578028151452
30
0
41
1
10
4.00554345455558
20
-3.13420525407926
30
0
41
1
10
4.00554793705072
20
-3.05359731937838
30
0
41
1
10
4.00555226835681
20
-2.96825813337043
30
0
0
SPLINE
5
E2
100
AcDbEntity
8
1
62
256
6
ByLayer
370
18
48
1
60
0
100
AcDbSpline
70
4
71
3
72
14
73
10
40
0
40
0
40
0
40
0
40
0.25
40
0.25
40
0.5
40
0.5
40
0.75
40
0.75
40
1
40
1
40
1
40
1
41
1
10
41.8030292937294
20
3.86223981400352
30
0
41
1
10
41.891671992614
20
3.61321652321095
30
0
41
1
10
41.9825114997286
20
3.36469629452603
30
0
41
1
10
42.167830449173
20
2.86857066793431
30
0
41
1
10
42.2623254868647
20
2.62096861474112
30
0
41
1
10
42.4544812079454
20
2.12662162996958
30
0
41
1
10
42.55224256433
20
1.87973924754624
30
0
41
1
10
42.7500219853296
20
1.38789988619894
30
0
41
1
10
42.8500838501014
20
1.1428364191886
30
0
41
1
10
42.9511849440707
20
0.89846599862426
30
0
0
SPLINE
5
E3
100
AcDbEntity
8
1
62
256
6
ByLayer
370
18
48
1
60
0
100
AcDbSpline
70
4
71
3
72
8
73
4
40
0
40
0
40
0
40
0
40
1
40
1
40
1
40
1
41
1
10
42.9511849440707
20
-0.898465998624516
30
0
41
1
10
42.9686229410985
20
-0.637997931642104
30
0
41
1
10
42.9813954170542
20
-0.377767567880141
30
0
41
1
10
42.9894952910775
20
-0.117775268100758
30
0
0
SPLINE
5
E4
100
AcDbEntity
8
1
62
256
6
ByLayer
370
18
48
1
60
0
100
AcDbSpline
70
4
71
3
72
20
73
16
40
0
40
0
40
0
40
0
40
0.125
40
0.125
40
0.250000000000001
40
0.250000000000001
40
0.499999999999999
40
0.499999999999999
40
0.624999999999999
40
0.624999999999999
40
0.749999999999999
40
0.749999999999999
40
0.875
40
0.875
40
1
40
1
40
1
40
1
41
1
10
4.25069925441932
20
-2.85790282849135
30
0
41
1
10
4.47988401188195
20
-2.96506603663002
30
0
41
1
10
4.712593401964
20
-3.05965546874225
30
0
41
1
10
5.18273209484536
20
-3.22903871121844
30
0
41
1
10
5.42046556589312
20
-3.30379344452118
30
0
41
1
10
6.13755650477034
20
-3.50188366393769
30
0
41
1
10
6.61743157646197
20
-3.59872408123022
30
0
41
1
10
7.34167393408609
20
-3.69273138586277
30
0
41
1
10
7.58411213710247
20
-3.71569463252757
30
0
41
1
10
8.07048154515732
20
-3.74468568561264
30
0
41
1
10
8.31365596074559
20
-3.75105715076236
30
0
41
1
10
8.80123145600447
20
-3.74857601613422
30
0
41
1
10
9.04557912719449
20
-3.7391203838136
30
0
41
1
10
9.53695425648903
20
-3.70468521352168
30
0
41
1
10
9.78400427800443
20
-3.67985988483983
30
0
41
1
10
10.0332529826652
20
-3.64900632925293
30
0
0
SPLINE
5
E5
100
AcDbEntity
8
1
62
256
6
ByLayer
370
18
48
1
60
0
100
AcDbSpline
70
4
71
3
72
26
73
22
40
0
40
0
40
0
40
0
40
0.087764327183522
40
0.169420101997532
40
0.229303357212081
40
0.30806837940157
40
0.390371313830496
40
0.461274684188582
40
0.561721834889569
40
0.606708606847141
40
0.64290768615038
40
0.673405744140938
40
0.699500008682658
40
0.734073588214195
40
0.780402110560798
40
0.823072525624532
40
0.856736642807471
40
0.892569974229227
40
0.942040362276343
40
0.996914752901775
40
1
40
1
40
1
40
1
41
1
10
19.7145854462618
20
-3.75690701045022
30
0
41
1
10
20.0257547253835
20
-3.7560969275732
30
0
41
1
10
20.6265230888412
20
-3.75517654803039
30
0
41
1
10
21.4347104123178
20
-3.75838139011057
30
0
41
1
10
22.2199530889596
20
-3.7581975659175
30
0
41
1
10
23.005508994738
20
-3.7569645489364
30
0
41
1
10
23.830854552509
20
-3.76048543099239
30
0
41
1
10
24.7331814103983
20
-3.75837707703678
30
0
41
1
10
25.5028121916754
20
-3.75804118872369
30
0
41
1
10
26.1489578275197
20
-3.76006591617178
30
0
41
1
10
26.5462680041304
20
-3.76001975161887
30
0
41
1
10
26.8763609342718
20
-3.7609198091757
30
0
41
1
10
27.2006047779025
20
-3.76163131491143
30
0
41
1
10
27.5812834440174
20
-3.76093818513431
30
0
41
1
10
28.0207682535923
20
-3.75982481543917
30
0
41
1
10
28.4574886006521
20
-3.75953712326032
30
0
41
1
10
28.8554506566593
20
-3.75923352675099
30
0
41
1
10
29.2804852365542
20
-3.76217492185043
30
0
41
1
10
29.7648602714868
20
-3.762528972051
30
0
41
1
10
30.1541539054991
20
-3.75975221923014
30
0
41
1
10
30.35682069585
20
-3.76003379445788
30
0
41
1
10
30.36760559434
20
-3.76005011453367
30
0
0
SPLINE
5
E6
100
AcDbEntity
8
1
62
256
6
ByLayer
370
18
48
1
60
0
100
AcDbSpline
70
4
71
3
72
16
73
12
40
0
40
0
40
0
40
0
40
0.0539209955721662
40
0.250604577760917
40
0.424608833208906
40
0.532028385525826
40
0.621602275155494
40
0.674503709002214
40
0.7635942556869
40
0.889792639202014
40
1
40
1
40
1
40
1
41
1
10
8.62477801369914
20
3.74882755774917
30
0
41
1
10
8.54702118498355
20
3.7484335016656
30
0
41
1
10
8.18520850396305
20
3.74687513283342
30
0
41
1
10
7.56403147919491
20
3.74977699596226
30
0
41
1
10
6.86910392576542
20
3.74942732476836
30
0
41
1
10
6.32675494271504
20
3.74905131094792
30
0
41
1
10
5.96188370568623
20
3.74819606737867
30
0
41
1
10
5.62366892531631
20
3.74789900630188
30
0
41
1
10
5.23199374345913
20
3.74792408885955
30
0
41
1
10
4.75660850992216
20
3.74801614190383
30
0
41
1
10
4.41134407594893
20
3.74754691797068
30
0
41
1
10
4.25038864464622
20
3.74725593633076
30
0
0
SPLINE
5
E7
100
AcDbEntity
8
1
62
256
6
ByLayer
370
18
48
1
60
0
100
AcDbSpline
70
4
71
1
72
4
73
2
40
0
40
0
40
1
40
1
41
1
10
41.381968312448
20
-3.77016475114624
30
0
41
1
10
41.6046928672024
20
-3.76884794521331
30
0
0
SPLINE
5
E8
100
AcDbEntity
8
1
62
256
6
ByLayer
370
18
48
1
60
0
100
AcDbSpline
70
4
71
2
72
6
73
3
40
0
40
0
40
0
40
1
40
1
40
1
41
1
10
30.4389948906867
20
-7.40036499849E-05
30
0
41
1
10
30.4390088220824
20
-6.71428429371E-05
30
0
41
1
10
30.4390227534542
20
-6.05170284302E-05
30
0
0
SPLINE
5
E9
100
AcDbEntity
8
1
62
256
6
ByLayer
370
18
48
1
60
0
100
AcDbSpline
70
4
71
1
72
4
73
2
40
0
40
0
40
1
40
1
41
1
10
8.68347173040308
20
0.0029918501970485
30
0
41
1
10
8.68345703712521
20
0.0030009468557353
30
0
0
SPLINE
5
EA
100
AcDbEntity
8
1
62
256
6
ByLayer
370
18
48
1
60
0
100
AcDbSpline
70
4
71
3
72
24
73
20
40
0
40
0
40
0
40
0
40
0.0074122542399166
40
0.0791718697758578
40
0.141375038246705
40
0.184953101050426
40
0.233881706682635
40
0.30086881420123
40
0.355270475310945
40
0.392817722661833
40
0.432379214621284
40
0.480294474423649
40
0.540747434469142
40
0.650017621736257
40
0.73202554021409
40
0.814118991224778
40
0.905087534734014
40
0.98016949585288
40
1
40
1
40
1
40
1
41
1
10
30.3622488572773
20
3.7600886346741
30
0
41
1
10
30.3412582887939
20
3.76005417941514
30
0
41
1
10
30.1169504436402
20
3.75972341080689
30
0
41
1
10
29.7041507135126
20
3.76341307872292
30
0
41
1
10
29.2057026465339
20
3.76118767789362
30
0
41
1
10
28.7578546409173
20
3.75925354276805
30
0
41
1
10
28.2995610324786
20
3.7595323115919
30
0
41
1
10
27.808700892844
20
3.76031313468775
30
0
41
1
10
27.3510418136724
20
3.76150833899979
30
0
41
1
10
26.9723404336122
20
3.76133539259945
30
0
41
1
10
26.6123196497996
20
3.75999956701733
30
0
41
1
10
26.1862909112981
20
3.76014796828835
30
0
41
1
10
25.5595206814805
20
3.75821251120166
30
0
41
1
10
24.8345516969544
20
3.75818939829631
30
0
41
1
10
24.0472680038081
20
3.76022179253889
30
0
41
1
10
23.3127202254432
20
3.75791262277133
30
0
41
1
10
22.5980143999581
20
3.7577076733038
30
0
41
1
10
22.0628574806921
20
3.75816899416998
30
0
41
1
10
21.7893610690816
20
3.75815993081952
30
0
41
1
10
21.7322292478256
20
3.75814350079867
30
0
0
SPLINE
5
EB
100
AcDbEntity
8
1
62
256
6
ByLayer
370
18
48
1
60
0
100
AcDbSpline
70
4
71
3
72
18
73
14
40
0
40
0
40
0
40
0
40
0.0843636867565899
40
0.185273064704303
40
0.249814510617808
40
0.318773380885554
40
0.408150416082954
40
0.511201003572181
40
0.602012795417273
40
0.704360200631476
40
0.782529124149707
40
0.87936402790569
40
1
40
1
40
1
40
1
41
1
10
4.25038838362565
20
-3.74729141189721
30
0
41
1
10
4.36993675098233
20
-3.74752067040606
30
0
41
1
10
4.63247930984971
20
-3.74790987945911
30
0
41
1
10
4.98647753229326
20
-3.74794616710884
30
0
41
1
10
5.31864862091086
20
-3.74792765377819
30
0
41
1
10
5.63447857321174
20
-3.74789708361638
30
0
41
1
10
6.0048763731042
20
-3.74824406997621
30
0
41
1
10
6.40624539543154
20
-3.74919657727369
30
0
41
1
10
6.82598087185832
20
-3.74938892849943
30
0
41
1
10
7.21047772251308
20
-3.74942512134834
30
0
41
1
10
7.60320186305395
20
-3.74950684647382
30
0
41
1
10
8.02224340964278
20
-3.74918794399619
30
0
41
1
10
8.3303514594736
20
-3.74963780457421
30
0
41
1
10
8.50127335622835
20
-3.74999789281566
30
0
0
SPLINE
5
EC
100
AcDbEntity
8
1
62
256
6
ByLayer
370
18
48
1
60
0
100
AcDbSpline
70
4
71
2
72
6
73
3
40
0
40
0
40
0
40
1
40
1
40
1
41
1
10
30.4390227538439
20
6.05168431491E-05
30
0
41
1
10
30.4390087895022
20
6.71583401584E-05
30
0
41
1
10
30.4389948251363
20
7.40359429585E-05
30
0
0
LINE
5
7B
100
AcDbEntity
8
SK1
62
256
6
ByLayer
370
18
48
1
60
0
100
AcDbLine
10
-34.76
20
4
30
0
11
-34.76
21
-4
31
0
39
0
210
0
220
0
230
1
0
LINE
5
7D
100
AcDbEntity
8
SK1
62
256
6
ByLayer
370
18
48
1
60
0
100
AcDbLine
10
-36
20
1.820289
30
0
11
-36
21
-2.76
31
0
39
0
210
0
220
0
230
1
0
LINE
5
7E
100
AcDbEntity
8
SK1
62
256
6
ByLayer
370
13
48
1
60
0
100
AcDbLine
10
-35.5
20
3.06981
30
0
11
-35.5
21
2.253507
31
0
39
0
210
0
220
0
230
1
0
LINE
5
7F
100
AcDbEntity
8
SK1
62
256
6
ByLayer
370
18
48
1
60
0
100
AcDbLine
10
-36
20
2.76
30
0
11
-36
21
2.636557
31
0
39
0
210
0
220
0
230
1
0
LINE
5
80
100
AcDbEntity
8
SK1
62
256
6
ByLayer
370
18
48
1
60
0
100
AcDbLine
10
-36
20
2.636557
30
0
11
-36
21
1.820258
31
0
39
0
210
0
220
0
230
1
0
LINE
5
81
100
AcDbEntity
8
SK1
62
256
6
ByLayer
370
18
48
1
60
0
100
AcDbLine
10
-35.4
20
2.41197
30
0
11
-35.4
21
3.119402
31
0
39
0
210
0
220
0
230
1
0
LINE
5
82
100
AcDbEntity
8
SK1
62
256
6
ByLayer
370
18
48
1
60
0
100
AcDbLine
10
0
20
-4
30
0
11
0
21
4
31
0
39
0
210
0
220
0
230
1
0
LINE
5
83
100
AcDbEntity
8
1
62
256
6
ByLayer
370
13
48
1
60
0
100
AcDbLine
10
41.706381
20
0.930017
30
0
11
42.989495
21
0.117775
31
0
39
0
210
0
220
0
230
1
0
LINE
5
84
100
AcDbEntity
8
1
62
256
6
ByLayer
370
13
48
1
60
0
100
AcDbLine
10
41.571326
20
0.833698
30
0
11
42.964251
21
-0.048057
31
0
39
0
210
0
220
0
230
1
0
LINE
5
85
100
AcDbEntity
8
1
62
256
6
ByLayer
370
18
48
1
60
0
100
AcDbLine
10
1.5
20
3.943811
30
0
11
1.5
21
-3.943811
31
0
39
0
210
0
220
0
230
1
0
LINE
5
86
100
AcDbEntity
8
1
62
256
6
ByLayer
370
18
48
1
60
0
100
AcDbLine
10
0
20
-4
30
0
11
0
21
4
31
0
39
0
210
0
220
0
230
1
0
LINE
5
87
100
AcDbEntity
8
80
62
256
6
ByLayer
370
18
48
1
60
0
100
AcDbLine
10
0
20
0
30
0
11
-5
21
0
31
0
39
0
210
0
220
0
230
1
0
LINE
5
88
100
AcDbEntity
8
4
62
256
6
ByLayer
370
18
48
0.05
60
0
100
AcDbLine
10
43
20
0
30
0
11
0
21
0
31
0
39
0
210
0
220
0
230
1
0
LINE
5
8A
100
AcDbEntity
8
SK4
62
256
6
ByLayer
370
18
48
0.05
60
0
100
AcDbLine
10
48
20
0
30
0
11
-41
21
0
31
0
39
0
210
0
220
0
230
1
0
LINE
5
8C
100
AcDbEntity
8
SK1
62
256
6
ByLayer
370
18
48
1
60
0
100
AcDbLine
10
-34.76
20
-4
30
0
11
0
21
-4
31
0
39
0
210
0
220
0
230
1
0
LINE
5
8D
100
AcDbEntity
8
SK1
62
256
6
ByLayer
370
18
48
1
60
0
100
AcDbLine
10
0
20
4
30
0
11
-34.76
21
4
31
0
39
0
210
0
220
0
230
1
0
LINE
5
8E
100
AcDbEntity
8
SK1
62
256
6
ByLayer
370
18
48
1
60
0
100
AcDbLine
10
-36
20
-2.76
30
0
11
-34.76
21
-4
31
0
39
0
210
0
220
0
230
1
0
LINE
5
8F
100
AcDbEntity
8
SK1
62
256
6
ByLayer
370
18
48
1
60
0
100
AcDbLine
10
-34.76
20
4
30
0
11
-36
21
2.76
31
0
39
0
210
0
220
0
230
1
0
LINE
5
90
100
AcDbEntity
8
1
62
256
6
ByLayer
370
18
48
1
60
0
100
AcDbLine
10
1.5
20
3.943811
30
0
11
0
21
4
31
0
39
0
210
0
220
0
230
1
0
LINE
5
91
100
AcDbEntity
8
1
62
256
6
ByLayer
370
18
48
1
60
0
100
AcDbLine
10
0
20
-4
30
0
11
1.5
21
-3.943811
31
0
39
0
210
0
220
0
230
1
0
LINE
5
92
100
AcDbEntity
8
1
62
256
6
ByLayer
370
18
48
1
60
0
100
AcDbLine
10
1.5
20
-3.943811
30
0
11
4.005467
21
-3.945377
31
0
39
0
210
0
220
0
230
1
0
LINE
5
93
100
AcDbEntity
8
1
62
256
6
ByLayer
370
18
48
1
60
0
100
AcDbLine
10
18.446908
20
-3.954403
30
0
11
19.563348
21
-3.9551
31
0
39
0
210
0
220
0
230
1
0
LINE
5
94
100
AcDbEntity
8
1
62
256
6
ByLayer
370
18
48
1
60
0
100
AcDbLine
10
40.194945
20
-3.967995
30
0
11
41.314652
21
-3.968695
31
0
39
0
210
0
220
0
230
1
0
LINE
5
95
100
AcDbEntity
8
1
62
256
6
ByLayer
370
18
48
1
60
0
100
AcDbLine
10
41.314516
20
3.968695
30
0
11
40.194945
21
3.967995
31
0
39
0
210
0
220
0
230
1
0
LINE
5
96
100
AcDbEntity
8
1
62
256
6
ByLayer
370
18
48
1
60
0
100
AcDbLine
10
19.563238
20
3.9551
30
0
11
18.446908
21
3.954403
31
0
39
0
210
0
220
0
230
1
0
LINE
5
97
100
AcDbEntity
8
1
62
256
6
ByLayer
370
18
48
1
60
0
100
AcDbLine
10
4.005467
20
3.945377
30
0
11
1.5
21
3.943811
31
0
39
0
210
0
220
0
230
1
0
LINE
5
98
100
AcDbEntity
8
81
62
256
6
ByLayer
370
18
48
1
60
0
100
AcDbLine
10
43
20
0
30
0
11
48
21
0
31
0
39
0
210
0
220
0
230
1
0
LINE
5
99
100
AcDbEntity
8
SK2
62
256
6
ByLayer
370
13
48
1
60
0
100
AcDbLine
10
-44.625163
20
-4
30
0
11
-44.625163
21
33.117107
31
0
39
0
210
0
220
0
230
1
0
LINE
5
9B
100
AcDbEntity
8
SK2
62
256
6
ByLayer
370
13
48
1
60
0
100
AcDbLine
10
-37.5875
20
4
30
0
11
-46.625163
21
4
31
0
39
0
210
0
220
0
230
1
0
LINE
5
9C
100
AcDbEntity
8
SK2
62
256
6
ByLayer
370
13
48
1
60
0
100
AcDbLine
10
-37.5875
20
-4
30
0
11
-46.625163
21
-4
31
0
39
0
210
0
220
0
230
1
0
LINE
5
9D
100
AcDbEntity
8
1
62
256
6
ByLayer
370
18
48
1
60
1
100
AcDbLine
10
-44.625163
20
4
30
0
11
-44.164379
21
0.500002
31
0
39
0
210
0
220
0
230
1
0
LINE
5
9E
100
AcDbEntity
8
1
62
256
6
ByLayer
370
18
48
1
60
1
100
AcDbLine
10
-44.164379
20
0.500002
30
0
11
-45.085946
21
0.499998
31
0
39
0
210
0
220
0
230
1
0
LINE
5
9F
100
AcDbEntity
8
1
62
256
6
ByLayer
370
18
48
1
60
1
100
AcDbLine
10
-45.085946
20
0.499998
30
0
11
-44.625163
21
4
31
0
39
0
210
0
220
0
230
1
0
LINE
5
A0
100
AcDbEntity
8
1
62
256
6
ByLayer
370
18
48
1
60
1
100
AcDbLine
10
-44.625163
20
-4
30
0
11
-45.085946
21
-0.500002
31
0
39
0
210
0
220
0
230
1
0
LINE
5
A1
100
AcDbEntity
8
1
62
256
6
ByLayer
370
18
48
1
60
1
100
AcDbLine
10
-45.085946
20
-0.500002
30
0
11
-44.164379
21
-0.499998
31
0
39
0
210
0
220
0
230
1
0
LINE
5
A2
100
AcDbEntity
8
1
62
256
6
ByLayer
370
18
48
1
60
1
100
AcDbLine
10
-44.164379
20
-0.499998
30
0
11
-44.625163
21
-4
31
0
39
0
210
0
220
0
230
1
0
LINE
5
A3
100
AcDbEntity
8
2
62
256
6
ByLayer
370
13
48
1
60
0
100
AcDbLine
10
55.083343
20
-3.969
30
0
11
55.083343
21
31.679193
31
0
39
0
210
0
220
0
230
1
0
LINE
5
A5
100
AcDbEntity
8
2
62
256
6
ByLayer
370
13
48
1
60
0
100
AcDbLine
10
43.4142
20
3.969
30
0
11
57.083343
21
3.969
31
0
39
0
210
0
220
0
230
1
0
LINE
5
A6
100
AcDbEntity
8
2
62
256
6
ByLayer
370
13
48
1
60
0
100
AcDbLine
10
43.4142
20
-3.969
30
0
11
57.083343
21
-3.969
31
0
39
0
210
0
220
0
230
1
0
LINE
5
A7
100
AcDbEntity
8
1
62
256
6
ByLayer
370
18
48
1
60
1
100
AcDbLine
10
55.083343
20
3.969
30
0
11
55.544126
21
0.469002
31
0
39
0
210
0
220
0
230
1
0
LINE
5
A8
100
AcDbEntity
8
1
62
256
6
ByLayer
370
18
48
1
60
1
100
AcDbLine
10
55.544126
20
0.469002
30
0
11
54.622559
21
0.468998
31
0
39
0
210
0
220
0
230
1
0
LINE
5
A9
100
AcDbEntity
8
1
62
256
6
ByLayer
370
18
48
1
60
1
100
AcDbLine
10
54.622559
20
0.468998
30
0
11
55.083343
21
3.969
31
0
39
0
210
0
220
0
230
1
0
LINE
5
AA
100
AcDbEntity
8
1
62
256
6
ByLayer
370
18
48
1
60
1
100
AcDbLine
10
55.083343
20
-3.969
30
0
11
54.622559
21
-0.469002
31
0
39
0
210
0
220
0
230
1
0
LINE
5
AB
100
AcDbEntity
8
1
62
256
6
ByLayer
370
18
48
1
60
1
100
AcDbLine
10
54.622559
20
-0.469002
30
0
11
55.544126
21
-0.468998
31
0
39
0
210
0
220
0
230
1
0
LINE
5
AC
100
AcDbEntity
8
1
62
256
6
ByLayer
370
18
48
1
60
1
100
AcDbLine
10
55.544126
20
-0.468998
30
0
11
55.083343
21
-3.969
31
0
39
0
210
0
220
0
230
1
0
LINE
5
F3
100
AcDbEntity
8
1
62
256
6
ByLayer
370
18
48
1
60
1
100
AcDbLine
10
-44.625163
20
4
30
0
11
-44.164379
21
0.500002
31
0
39
0
210
0
220
0
230
1
0
LINE
5
F4
100
AcDbEntity
8
1
62
256
6
ByLayer
370
18
48
1
60
1
100
AcDbLine
10
-44.164379
20
0.500002
30
0
11
-45.085946
21
0.499998
31
0
39
0
210
0
220
0
230
1
0
LINE
5
F5
100
AcDbEntity
8
1
62
256
6
ByLayer
370
18
48
1
60
1
100
AcDbLine
10
-45.085946
20
0.499998
30
0
11
-44.625163
21
4
31
0
39
0
210
0
220
0
230
1
0
LINE
5
F7
100
AcDbEntity
8
1
62
256
6
ByLayer
370
18
48
1
60
1
100
AcDbLine
10
-44.625163
20
-4
30
0
11
-45.085946
21
-0.500002
31
0
39
0
210
0
220
0
230
1
0
LINE
5
F8
100
AcDbEntity
8
1
62
256
6
ByLayer
370
18
48
1
60
1
100
AcDbLine
10
-45.085946
20
-0.500002
30
0
11
-44.164379
21
-0.499998
31
0
39
0
210
0
220
0
230
1
0
LINE
5
F9
100
AcDbEntity
8
1
62
256
6
ByLayer
370
18
48
1
60
1
100
AcDbLine
10
-44.164379
20
-0.499998
30
0
11
-44.625163
21
-4
31
0
39
0
210
0
220
0
230
1
0
LINE
5
FD
100
AcDbEntity
8
1
62
256
6
ByLayer
370
18
48
1
60
1
100
AcDbLine
10
55.083343
20
3.969
30
0
11
55.544126
21
0.469002
31
0
39
0
210
0
220
0
230
1
0
LINE
5
FE
100
AcDbEntity
8
1
62
256
6
ByLayer
370
18
48
1
60
1
100
AcDbLine
10
55.544126
20
0.469002
30
0
11
54.622559
21
0.468998
31
0
39
0
210
0
220
0
230
1
0
LINE
5
FF
100
AcDbEntity
8
1
62
256
6
ByLayer
370
18
48
1
60
1
100
AcDbLine
10
54.622559
20
0.468998
30
0
11
55.083343
21
3.969
31
0
39
0
210
0
220
0
230
1
0
LINE
5
101
100
AcDbEntity
8
1
62
256
6
ByLayer
370
18
48
1
60
1
100
AcDbLine
10
55.083343
20
-3.969
30
0
11
54.622559
21
-0.469002
31
0
39
0
210
0
220
0
230
1
0
LINE
5
102
100
AcDbEntity
8
1
62
256
6
ByLayer
370
18
48
1
60
1
100
AcDbLine
10
54.622559
20
-0.469002
30
0
11
55.544126
21
-0.468998
31
0
39
0
210
0
220
0
230
1
0
LINE
5
103
100
AcDbEntity
8
1
62
256
6
ByLayer
370
18
48
1
60
1
100
AcDbLine
10
55.544126
20
-0.468998
30
0
11
55.083343
21
-3.969
31
0
39
0
210
0
220
0
230
1
0
MTEXT
5
ED
100
AcDbEntity
8
SK6
62
256
6
ByLayer
370
13
48
1
60
0
100
AcDbMText
10
-26.013727
20
36.509328
30
0
210
0
220
0
230
1
1
\W0.7763;462.1-0794-024A1-XM X2BM
40
3.5
41
0
44
1.084337
50
0
71
7
72
5
7
iso_b_vert
0
MTEXT
5
F1
100
AcDbEntity
8
SK2
62
256
6
ByLayer
370
18
48
1
60
0
100
AcDbMText
10
-46.189796
20
17.409024
30
0
210
0
220
0
230
1
1
%%c
40
3.5
41
0
44
1.084337
50
90
71
7
72
5
7
iso_b_vert
0
MTEXT
5
F2
100
AcDbEntity
8
SK2
62
256
6
ByLayer
370
18
48
1
60
0
100
AcDbMText
10
-46.189796
20
22.63168
30
0
210
0
220
0
230
1
1
\W0.7317;8,000
40
3.5
41
0
44
1.084337
50
90
71
7
72
5
7
iso_b_vert
0
MTEXT
5
FB
100
AcDbEntity
8
2
62
256
6
ByLayer
370
18
48
1
60
0
100
AcDbMText
10
53.518709
20
15.97111
30
0
210
0
220
0
230
1
1
%%c
40
3.5
41
0
44
1.084337
50
90
71
7
72
5
7
iso_b_vert
0
MTEXT
5
FC
100
AcDbEntity
8
2
62
256
6
ByLayer
370
18
48
1
60
0
100
AcDbMText
10
53.518709
20
21.193766
30
0
210
0
220
0
230
1
1
\W0.7317;7,938
40
3.5
41
0
44
1.084337
50
90
71
7
72
5
7
iso_b_vert
0
HATCH
5
F6
100
AcDbEntity
8
SK2
62
256
6
ByLayer
370
13
48
1
60
0
100
AcDbHatch
10
0
20
0
30
0
210
0
220
0
230
1
2
ANSI31
70
0
71
0
91
1
92
5
93
3
72
1
10
-44.6251625675374
20
4
11
-44.1643788259847
21
0.500001692553184
72
1
10
-44.1643788259847
20
0.500001692553184
11
-45.0859463090902
21
0.499998307446816
72
1
10
-45.0859463090902
20
0.499998307446816
11
-44.6251625675374
21
4
97
0
75
0
76
1
52
0
41
0.0062
77
0
78
1
53
45
43
0
44
0
45
-0.0139193969876572
46
0.0139193969876572
79
0
47
0
98
1
10
0
20
0
0
HATCH
5
FA
100
AcDbEntity
8
SK2
62
256
6
ByLayer
370
13
48
1
60
0
100
AcDbHatch
10
0
20
0
30
0
210
0
220
0
230
1
2
ANSI31
70
0
71
0
91
1
92
5
93
3
72
1
10
-44.6251625675374
20
-4
11
-45.0859463090902
21
-0.500001692553184
72
1
10
-45.0859463090902
20
-0.500001692553184
11
-44.1643788259847
21
-0.499998307446816
72
1
10
-44.1643788259847
20
-0.499998307446816
11
-44.6251625675374
21
-4
97
0
75
0
76
1
52
0
41
0.0062
77
0
78
1
53
45
43
0
44
0
45
-0.0139193969876572
46
0.0139193969876572
79
0
47
0
98
1
10
0
20
0
0
HATCH
5
100
100
AcDbEntity
8
2
62
256
6
ByLayer
370
13
48
1
60
0
100
AcDbHatch
10
0
20
0
30
0
210
0
220
0
230
1
2
ANSI31
70
0
71
0
91
1
92
5
93
3
72
1
10
55.083342615295
20
3.96900000000002
11
55.5441263568478
21
0.469001692553206
72
1
10
55.5441263568478
20
0.469001692553206
11
54.6225588737423
21
0.468998307446839
72
1
10
54.6225588737423
20
0.468998307446839
11
55.083342615295
21
3.96900000000002
97
0
75
0
76
1
52
0
41
0.0062
77
0
78
1
53
45
43
0
44
0
45
-0.0139193969876572
46
0.0139193969876572
79
0
47
0
98
1
10
0
20
0
0
HATCH
5
104
100
AcDbEntity
8
2
62
256
6
ByLayer
370
13
48
1
60
0
100
AcDbHatch
10
0
20
0
30
0
210
0
220
0
230
1
2
ANSI31
70
0
71
0
91
1
92
5
93
3
72
1
10
55.083342615295
20
-3.96899999999999
11
54.6225588737423
21
-0.469001692553178
72
1
10
54.6225588737423
20
-0.469001692553178
11
55.5441263568478
21
-0.46899830744681
72
1
10
55.5441263568478
20
-0.46899830744681
11
55.083342615295
21
-3.96899999999999
97
0
75
0
76
1
52
0
41
0.0062
77
0
78
1
53
45
43
0
44
0
45
-0.0139193969876572
46
0.0139193969876572
79
0
47
0
98
1
10
0
20
0
0
DIMENSION
5
106
100
AcDbEntity
8
SK2
62
256
6
ByLayer
370
13
48
1
60
0
100
AcDbDimension
2
_U0
10
41.8267
20
-14.182398
30
0
11
20.91335
21
-14.182398
31
0
70
32
71
1
72
1
41
1
210
0
220
0
230
1
3
Standard
100
AcDbAlignedDimension
13
0
23
0
33
0
14
41.8267
24
-3.969
34
0
50
0
100
AcDbRotatedDimension
1001
ACAD
1000
DSTYLE
1002
{
1070
   371
1070
    13
1070
   372
1070
    13
1070
   170
1070
     0
1070
   144
1040
1.0
1070
   277
1070
     2
1070
   278
1070
    44
1070
   146
1040
1.0
1070
   345
1005
16
1070
   347
1005
16
1070
   346
1005
16
1070
   344
1005
0
1070
   343
1005
0
1070
   172
1070
     1
1070
    76
1070
     0
1070
    75
1070
     0
1070
   282
1070
     0
1070
   281
1070
     0
1070
    71
1070
     0
1070
    74
1070
     0
1070
   279
1070
     0
1070
   173
1070
     1
1070
   340
1005
EE
1070
   271
1070
     2
1070
   272
1070
     2
1070
    77
1070
     1
1070
    73
1070
     1
1070
   171
1070
     3
1070
   274
1070
     4
1070
   177
1070
    35
1070
   176
1070
    35
1070
   178
1070
    35
1070
    48
1040
-0.1
1070
    41
1040
3.5
1070
   147
1040
1.75
1070
    42
1040
1.5875
1070
    44
1040
2.0
1070
   140
1040
3.5
1002
}
1001
ACAD_DSTYLE_DIM_LINETYPE
1070
   380
1005
16
1001
ACAD_DSTYLE_DIM_EXT1_LINETYPE
1070
   381
1005
16
1001
ACAD_DSTYLE_DIM_EXT2_LINETYPE
1070
   382
1005
16
0
DIMENSION
5
11F
100
AcDbEntity
8
SK2
62
256
6
ByLayer
370
13
48
1
60
0
100
AcDbDimension
2
_U1
10
43
20
-32.692985
30
0
11
3.5
21
-32.692985
31
0
70
32
71
1
72
1
41
1
210
0
220
0
230
1
3
Standard
100
AcDbAlignedDimension
13
-36
23
-4
33
0
14
43
24
0
34
0
50
0
100
AcDbRotatedDimension
1001
ACAD
1000
DSTYLE
1002
{
1070
   371
1070
    13
1070
   372
1070
    13
1070
   170
1070
     0
1070
   144
1040
1.0
1070
   277
1070
     2
1070
   278
1070
    44
1070
   146
1040
1.0
1070
   345
1005
16
1070
   347
1005
16
1070
   346
1005
16
1070
   344
1005
0
1070
   343
1005
0
1070
   172
1070
     1
1070
    76
1070
     0
1070
    75
1070
     0
1070
   282
1070
     0
1070
   281
1070
     0
1070
    71
1070
     0
1070
    74
1070
     0
1070
   279
1070
     0
1070
   173
1070
     1
1070
   340
1005
EE
1070
   271
1070
     2
1070
   272
1070
     2
1070
    77
1070
     1
1070
    73
1070
     1
1070
   171
1070
     3
1070
   274
1070
     4
1070
   177
1070
    35
1070
   176
1070
    35
1070
   178
1070
    35
1070
    48
1040
-0.1
1070
    41
1040
3.5
1070
   147
1040
1.75
1070
    42
1040
1.5875
1070
    44
1040
2.0
1070
   140
1040
3.5
1002
}
1001
ACAD_DSTYLE_DIM_LINETYPE
1070
   380
1005
16
1001
ACAD_DSTYLE_DIM_EXT1_LINETYPE
1070
   381
1005
16
1001
ACAD_DSTYLE_DIM_EXT2_LINETYPE
1070
   382
1005
16
0
DIMENSION
5
137
100
AcDbEntity
8
SK2
62
256
6
ByLayer
370
13
48
1
60
0
100
AcDbDimension
2
_U2
10
43
20
15.578119
30
0
11
30.505
21
15.578119
31
0
70
32
71
1
72
1
41
1
210
0
220
0
230
1
3
Standard
100
AcDbAlignedDimension
13
18.01
23
3.969
33
0
14
43
24
0
34
0
50
0
100
AcDbRotatedDimension
1001
ACAD
1000
DSTYLE
1002
{
1070
   371
1070
    13
1070
   372
1070
    13
1070
   170
1070
     0
1070
   144
1040
1.0
1070
   277
1070
     2
1070
   278
1070
    44
1070
   146
1040
1.0
1070
   345
1005
16
1070
   347
1005
16
1070
   346
1005
16
1070
   344
1005
0
1070
   343
1005
0
1070
   172
1070
     1
1070
    76
1070
     0
1070
    75
1070
     0
1070
   282
1070
     0
1070
   281
1070
     0
1070
    71
1070
     0
1070
    74
1070
     0
1070
   279
1070
     0
1070
   173
1070
     1
1070
   340
1005
EE
1070
   271
1070
     2
1070
   272
1070
     2
1070
    77
1070
     1
1070
    73
1070
     1
1070
   171
1070
     3
1070
   274
1070
     4
1070
   177
1070
    35
1070
   176
1070
    35
1070
   178
1070
    35
1070
    48
1040
-0.1
1070
    41
1040
3.5
1070
   147
1040
1.75
1070
    42
1040
1.5875
1070
    44
1040
2.0
1070
   140
1040
3.5
1002
}
1001
ACAD_DSTYLE_DIM_LINETYPE
1070
   380
1005
16
1001
ACAD_DSTYLE_DIM_EXT1_LINETYPE
1070
   381
1005
16
1001
ACAD_DSTYLE_DIM_EXT2_LINETYPE
1070
   382
1005
16
0
DIMENSION
5
14F
100
AcDbEntity
8
SK2
62
256
6
ByLayer
370
13
48
1
60
0
100
AcDbDimension
2
_U3
10
41.8267
20
-16.771503
30
0
11
60.333333
21
-16.771503
31
0
70
32
71
1
72
1
41
1
210
0
220
0
230
1
3
Standard
100
AcDbAlignedDimension
13
43
23
0
33
0
14
41.8267
24
-3.969
34
0
50
0
100
AcDbRotatedDimension
1001
ACAD
1000
DSTYLE
1002
{
1070
   371
1070
    13
1070
   372
1070
    13
1070
   170
1070
     0
1070
   144
1040
1.0
1070
   277
1070
     2
1070
   278
1070
    44
1070
   146
1040
1.0
1070
   345
1005
16
1070
   347
1005
16
1070
   346
1005
16
1070
   344
1005
0
1070
   343
1005
0
1070
   172
1070
     1
1070
    76
1070
     0
1070
    75
1070
     0
1070
   282
1070
     0
1070
   281
1070
     0
1070
    71
1070
     0
1070
    74
1070
     0
1070
   279
1070
     0
1070
   173
1070
     1
1070
   340
1005
EE
1070
   271
1070
     2
1070
   272
1070
     2
1070
    77
1070
     1
1070
    73
1070
     1
1070
   171
1070
     3
1070
   274
1070
     4
1070
   177
1070
    35
1070
   176
1070
    35
1070
   178
1070
    35
1070
    48
1040
-0.1
1070
    41
1040
3.5
1070
   147
1040
1.75
1070
    42
1040
1.5875
1070
    44
1040
2.0
1070
   140
1040
3.5
1002
}
1001
ACAD_DSTYLE_DIM_LINETYPE
1070
   380
1005
16
1001
ACAD_DSTYLE_DIM_EXT1_LINETYPE
1070
   381
1005
16
1001
ACAD_DSTYLE_DIM_EXT2_LINETYPE
1070
   382
1005
16
0
DIMENSION
5
169
100
AcDbEntity
8
SK2
62
256
6
ByLayer
370
13
48
1
60
0
100
AcDbDimension
2
_U4
10
41.8267
20
-22.343428
30
0
11
2.91335
21
-22.343428
31
0
70
32
71
1
72
1
41
1
210
0
220
0
230
1
3
Standard
100
AcDbAlignedDimension
13
-36
23
-4
33
0
14
41.8267
24
-3.969
34
0
50
0
100
AcDbRotatedDimension
1001
ACAD
1000
DSTYLE
1002
{
1070
   371
1070
    13
1070
   372
1070
    13
1070
   170
1070
     0
1070
   144
1040
1.0
1070
   277
1070
     2
1070
   278
1070
    44
1070
   146
1040
1.0
1070
   345
1005
16
1070
   347
1005
16
1070
   346
1005
16
1070
   344
1005
0
1070
   343
1005
0
1070
   172
1070
     1
1070
    76
1070
     0
1070
    75
1070
     0
1070
   282
1070
     0
1070
   281
1070
     0
1070
    71
1070
     0
1070
    74
1070
     0
1070
   279
1070
     0
1070
   173
1070
     1
1070
   340
1005
EE
1070
   271
1070
     2
1070
   272
1070
     2
1070
    77
1070
     1
1070
    73
1070
     1
1070
   171
1070
     3
1070
   274
1070
     4
1070
   177
1070
    35
1070
   176
1070
    35
1070
   178
1070
    35
1070
    48
1040
-0.1
1070
    41
1040
3.5
1070
   147
1040
1.75
1070
    42
1040
1.5875
1070
    44
1040
2.0
1070
   140
1040
3.5
1002
}
1001
ACAD_DSTYLE_DIM_LINETYPE
1070
   380
1005
16
1001
ACAD_DSTYLE_DIM_EXT1_LINETYPE
1070
   381
1005
16
1001
ACAD_DSTYLE_DIM_EXT2_LINETYPE
1070
   382
1005
16
0
ENDSEC
0
SECTION
2
OBJECTS
0
DICTIONARY
5
1f1
330
0
100
AcDbDictionary
280
0
281
1
3
ACAD_GROUP
350
1f2
3
ACAD_MLINESTYLE
350
1f3
0
DICTIONARY
5
1f2
330
0
100
AcDbDictionary
280
0
281
1
0
DICTIONARY
5
1f3
330
0
100
AcDbDictionary
280
0
281
1
3
Standard
350
18
0
MLINESTYLE
5
18
330
1f3
100
AcDbMlineStyle
2
Standard
70
0
3

62
256
51
90
52
90
71
2
49
-0.5
62
256
6
ByLayer
49
0.5
62
256
6
ByLayer
0
RASTERVARIABLES
5
1df
330

100
AcDbRasterVariables
90
0
70
1
71
1
72
1
0
ENDSEC
0
EOF
