0
SECTION
2
HEADER
9
$ACADVER
1
AC1015
9
$DWGCODEPAGE
3
ANSI_1252
9
$HANDSEED
5
1ff
9
$ANGBASE
50
0
9
$ANGDIR
70
0
9
$ATTMODE
70
1
9
$AUNITS
70
0
9
$AUPREC
70
0
9
$CECOLOR
62
256
9
$CELTSCALE
40
1
9
$CELTYPE
6
ByLayer
9
$CELWEIGHT
370
18
9
$CLAYER
8
0
9
$CMLJUST
70
0
9
$CMLSCALE
40
1
9
$CMLSTYLE
2
Standard
9
$DIMSTYLE
2
Standard
9
$TEXTSIZE
40
0.2
9
$TEXTSTYLE
7
Standard
9
$LUNITS
70
2
9
$LUPREC
70
4
9
$EXTNAMES
290
1
9
$INSUNITS
70
4
9
$LTSCALE
40
1
9
$LWDISPLAY
290
1
9
$PDMODE
70
0
9
$PDSIZE
40
0
9
$PLINEGEN
70
0
0
ENDSEC
0
SECTION
2
CLASSES
0
CLASS
1
RASTERVARIABLES
2
AcDbRasterVariables
3
ISM
90
0
280
0
281
0
0
ENDSEC
0
SECTION
2
TABLES
0
TABLE
2
VPORT
5
1f5
100
AcDbSymbolTable
0
VPORT
5
1
100
AcDbSymbolTableRecord
100
AcDbViewportTableRecord
2
*Active
70
0
10
0
20
0
11
1
21
1
12
-1
22
1
13
0
23
0
14
0.5
24
0.5
15
10
25
10
16
0
26
0
36
1
17
0
27
0
37
0
0
ENDTAB
0
TABLE
2
LTYPE
5
1f6
100
AcDbSymbolTable
0
LTYPE
5
14
100
AcDbSymbolTableRecord
100
AcDbLinetypeTableRecord
70
0
2
ByBlock
3

72
65
73
0
40
0
0
LTYPE
5
15
100
AcDbSymbolTableRecord
100
AcDbLinetypeTableRecord
70
0
2
ByLayer
3

72
65
73
0
40
0
0
LTYPE
5
16
100
AcDbSymbolTableRecord
100
AcDbLinetypeTableRecord
70
0
2
Continuous
3
Solid line
72
65
73
0
40
0
0
LTYPE
5
6E
100
AcDbSymbolTableRecord
100
AcDbLinetypeTableRecord
70
0
2
CENTER
3
____ _ ____ _ ____ _ ____
72
65
73
4
40
47.5
49
22
74
0
49
-8.5
74
0
49
8.5
74
0
49
-8.5
74
0
0
LTYPE
5
6F
100
AcDbSymbolTableRecord
100
AcDbLinetypeTableRecord
70
0
2
DASHED
3
__ __ __ __ __ __ __ __ __
72
65
73
2
40
25.72
49
12.86
74
0
49
-12.86
74
0
0
ENDTAB
0
TABLE
2
LAYER
5
1f7
100
AcDbSymbolTable
0
LAYER
5
10
100
AcDbSymbolTableRecord
100
AcDbLayerTableRecord
2
0
70
0
62
7
6
Continuous
290
1
370
-3
390
0
0
LAYER
5
71
100
AcDbSymbolTableRecord
100
AcDbLayerTableRecord
2
80
70
0
62
-6
6
Continuous
290
1
370
-3
390
0
0
LAYER
5
73
100
AcDbSymbolTableRecord
100
AcDbLayerTableRecord
2
81
70
0
62
-3
6
Continuous
290
1
370
-3
390
0
0
LAYER
5
75
100
AcDbSymbolTableRecord
100
AcDbLayerTableRecord
2
1
70
0
62
4
6
Continuous
290
1
370
-3
390
0
0
LAYER
5
8A
100
AcDbSymbolTableRecord
100
AcDbLayerTableRecord
2
4
70
0
62
-2
6
CENTER
290
1
370
-3
390
0
0
LAYER
5
A3
100
AcDbSymbolTableRecord
100
AcDbLayerTableRecord
2
2
70
0
62
7
6
Continuous
290
1
370
-3
390
0
0
LAYER
5
109
100
AcDbSymbolTableRecord
100
AcDbLayerTableRecord
2
Defpoints
70
0
62
7
6
Continuous
290
0
370
-3
390
0
0
LAYER
5
1e1
100
AcDbSymbolTableRecord
100
AcDbLayerTableRecord
2
SK1
70
0
62
4
6
Continuous
290
1
370
-3
390
0
0
LAYER
5
1e2
100
AcDbSymbolTableRecord
100
AcDbLayerTableRecord
2
SK4
70
0
62
2
6
CENTER
290
1
370
-3
390
0
0
LAYER
5
1e3
100
AcDbSymbolTableRecord
100
AcDbLayerTableRecord
2
SK2
70
0
62
7
6
Continuous
290
1
370
-3
390
0
0
LAYER
5
1e4
100
AcDbSymbolTableRecord
100
AcDbLayerTableRecord
2
SK6
70
0
62
5
6
Continuous
290
1
370
-3
390
0
0
ENDTAB
0
TABLE
2
STYLE
5
1f8
100
AcDbSymbolTable
0
STYLE
5
11
100
AcDbSymbolTableRecord
100
AcDbTextStyleTableRecord
2
Standard
3
txt
70
0
71
0
40
0
41
1
42
0
50
0
0
STYLE
5
EE
100
AcDbSymbolTableRecord
100
AcDbTextStyleTableRecord
2
iso_b_vert
3
simplex.shx
70
0
71
0
40
0
41
1
42
0
50
0
0
STYLE
5
EF
100
AcDbSymbolTableRecord
100
AcDbTextStyleTableRecord
2
DWGDirectTextStyle
3
simplex
70
0
71
0
40
0
41
1
42
0
50
0
0
ENDTAB
0
TABLE
2
DIMSTYLE
5
1f9
100
AcDbSymbolTable
100
AcDbDimStyleTable
0
DIMSTYLE
105
27
100
AcDbSymbolTableRecord
100
AcDbDimStyleTableRecord
2
Standard
70
0
3
<>
41
0.18
42
0.0625
44
0.18
140
0.18
147
0.09
73
0
74
0
77
1
271
2
275
0
278
52
280
0
340
11
0
ENDTAB
0
TABLE
2
VIEW
5
1fa
100
AcDbSymbolTable
0
ENDTAB
0
TABLE
2
UCS
5
1fb
100
AcDbSymbolTable
0
ENDTAB
0
TABLE
2
APPID
5
1fc
100
AcDbSymbolTable
0
APPID
5
12
100
AcDbSymbolTableRecord
100
AcDbRegAppTableRecord
2
ACAD
70
0
0
APPID
5
105
100
AcDbSymbolTableRecord
100
AcDbRegAppTableRecord
2
ACAD_DSTYLE_DIMBREAK
70
0
0
APPID
5
1A0
100
AcDbSymbolTableRecord
100
AcDbRegAppTableRecord
2
ACAD_DSTYLE_DIM_LINETYPE
70
0
0
APPID
5
1A1
100
AcDbSymbolTableRecord
100
AcDbRegAppTableRecord
2
ACAD_DSTYLE_DIM_EXT1_LINETYPE
70
0
0
APPID
5
1A2
100
AcDbSymbolTableRecord
100
AcDbRegAppTableRecord
2
ACAD_DSTYLE_DIM_EXT2_LINETYPE
70
0
0
APPID
5
1DD
100
AcDbSymbolTableRecord
100
AcDbRegAppTableRecord
2
ACAD_MLEADERVER
70
0
0
ENDTAB
0
TABLE
2
BLOCK_RECORD
5
1fd
100
AcDbSymbolTable
0
BLOCK_RECORD
5
1F
100
AcDbSymbolTableRecord
100
AcDbBlockTableRecord
2
*Model_Space
340
0
70
0
0
BLOCK_RECORD
5
1B
100
AcDbSymbolTableRecord
100
AcDbBlockTableRecord
2
*Paper_Space
340
0
70
0
0
BLOCK_RECORD
5
23
100
AcDbSymbolTableRecord
100
AcDbBlockTableRecord
2
*Paper_Space0
340
0
70
0
0
BLOCK_RECORD
5
10A
100
AcDbSymbolTableRecord
100
AcDbBlockTableRecord
2
*D1
340
0
70
0
0
BLOCK_RECORD
5
116
100
AcDbSymbolTableRecord
100
AcDbBlockTableRecord
2
_U0
340
0
70
0
0
BLOCK_RECORD
5
122
100
AcDbSymbolTableRecord
100
AcDbBlockTableRecord
2
*D3
340
0
70
0
0
BLOCK_RECORD
5
12E
100
AcDbSymbolTableRecord
100
AcDbBlockTableRecord
2
_U1
340
0
70
0
0
BLOCK_RECORD
5
13A
100
AcDbSymbolTableRecord
100
AcDbBlockTableRecord
2
*D5
340
0
70
0
0
BLOCK_RECORD
5
147
100
AcDbSymbolTableRecord
100
AcDbBlockTableRecord
2
_U2
340
0
70
0
0
BLOCK_RECORD
5
153
100
AcDbSymbolTableRecord
100
AcDbBlockTableRecord
2
*D7
340
0
70
0
0
BLOCK_RECORD
5
161
100
AcDbSymbolTableRecord
100
AcDbBlockTableRecord
2
_U3
340
0
70
0
0
BLOCK_RECORD
5
16D
100
AcDbSymbolTableRecord
100
AcDbBlockTableRecord
2
*D9
340
0
70
0
0
BLOCK_RECORD
5
179
100
AcDbSymbolTableRecord
100
AcDbBlockTableRecord
2
_U4
340
0
70
0
0
ENDTAB
0
ENDSEC
0
SECTION
2
BLOCKS
0
BLOCK
5
20
100
AcDbEntity
8
0
100
AcDbBlockBegin
2
*Model_Space
70
0
10
0
20
0
30
0
3
*Model_Space
0
ENDBLK
5
21
100
AcDbEntity
8
0
100
AcDbBlockEnd
0
BLOCK
5
1C
100
AcDbEntity
8
0
100
AcDbBlockBegin
2
*Paper_Space
70
0
10
0
20
0
30
0
3
*Paper_Space
0
ENDBLK
5
1D
100
AcDbEntity
8
0
100
AcDbBlockEnd
0
BLOCK
5
24
100
AcDbEntity
8
0
100
AcDbBlockBegin
2
*Paper_Space0
70
0
10
0
20
0
30
0
3
*Paper_Space0
0
ENDBLK
5
25
100
AcDbEntity
8
0
100
AcDbBlockEnd
0
BLOCK
5
10B
100
AcDbEntity
8
0
100
AcDbBlockBegin
2
*D1
70
1
10
0
20
0
30
0
3
*D1
0
LINE
5
10D
100
AcDbEntity
8
0
62
256
6
ByLayer
370
-2
48
1
60
0
100
AcDbLine
10
0
20
-1.5875
30
0
11
0
21
-14.197898
31
0
39
0
210
0
220
0
230
1
0
LINE
5
10E
100
AcDbEntity
8
0
62
256
6
ByLayer
370
-2
48
1
60
0
100
AcDbLine
10
29.4249
20
-3.572
30
0
11
29.4249
21
-14.197898
31
0
39
0
210
0
220
0
230
1
0
LINE
5
10F
100
AcDbEntity
8
0
62
256
6
ByLayer
370
-2
48
1
60
0
100
AcDbLine
10
3.5
20
-12.197898
30
0
11
25.9249
21
-12.197898
31
0
39
0
210
0
220
0
230
1
0
SOLID
5
110
100
AcDbEntity
8
0
62
256
6
ByLayer
370
-1
48
1
60
0
100
AcDbTrace
10
3.5
20
-11.614565
30
0
11
3.5
21
-12.781232
31
0
12
0
22
-12.197898
32
0
13
0
23
-12.197898
33
0
39
0
210
0
220
0
230
1
0
SOLID
5
111
100
AcDbEntity
8
0
62
256
6
ByLayer
370
-1
48
1
60
0
100
AcDbTrace
10
25.9249
20
-12.781232
30
0
11
25.9249
21
-11.614565
31
0
12
29.4249
22
-12.197898
32
0
13
29.4249
23
-12.197898
33
0
39
0
210
0
220
0
230
1
0
MTEXT
5
112
100
AcDbEntity
8
0
62
256
6
ByLayer
370
18
48
1
60
0
100
AcDbMText
10
14.71245
20
-5.197898
30
0
210
0
220
0
230
1
1
\A1;29.42
40
3.5
41
0
44
1
50
0
71
5
72
5
7
iso_b_vert
0
POINT
5
113
100
AcDbEntity
8
Defpoints
62
0
6
ByLayer
370
-1
48
1
60
0
100
AcDbPoint
10
0
20
0
30
0
39
0
210
0
220
0
230
1
50
360
0
POINT
5
114
100
AcDbEntity
8
Defpoints
62
0
6
ByLayer
370
-1
48
1
60
0
100
AcDbPoint
10
29.4249
20
-1.9845
30
0
39
0
210
0
220
0
230
1
50
360
0
POINT
5
115
100
AcDbEntity
8
Defpoints
62
0
6
ByLayer
370
-1
48
1
60
0
100
AcDbPoint
10
29.4249
20
-12.197898
30
0
39
0
210
0
220
0
230
1
50
360
0
ENDBLK
5
10C
100
AcDbEntity
8
0
100
AcDbBlockEnd
0
BLOCK
5
11D
100
AcDbEntity
8
0
100
AcDbBlockBegin
2
_U0
70
0
10
0
20
0
30
0
3
_U0
0
MTEXT
5
117
100
AcDbEntity
8
SK2
62
256
6
ByLayer
370
13
48
1
60
0
100
AcDbMText
10
9.390885
20
-11.165265
30
0
210
0
220
0
230
1
1
\W0.7581;29,42
40
3.5
41
0
44
1.084337
50
0
71
7
72
5
7
iso_b_vert
0
LINE
5
118
100
AcDbEntity
8
SK2
62
256
6
ByLayer
370
13
48
1
60
0
100
AcDbLine
10
0
20
-1.5875
30
0
11
0
21
-14.197898
31
0
39
0
210
0
220
0
230
1
0
LINE
5
119
100
AcDbEntity
8
SK2
62
256
6
ByLayer
370
13
48
1
60
0
100
AcDbLine
10
29.4249
20
-3.572
30
0
11
29.4249
21
-14.197898
31
0
39
0
210
0
220
0
230
1
0
LINE
5
11A
100
AcDbEntity
8
SK2
62
256
6
ByLayer
370
13
48
1
60
0
100
AcDbLine
10
0
20
-12.197898
30
0
11
29.4249
21
-12.197898
31
0
39
0
210
0
220
0
230
1
0
SOLID
5
11B
100
AcDbEntity
8
SK2
62
256
6
ByLayer
370
18
48
1
60
0
100
AcDbTrace
10
0
20
-12.197898
30
0
11
3.499998
21
-11.737115
31
0
12
3.500002
22
-12.658682
32
0
13
3.500002
23
-12.658682
33
0
39
0
210
0
220
0
230
1
0
SOLID
5
11C
100
AcDbEntity
8
SK2
62
256
6
ByLayer
370
18
48
1
60
0
100
AcDbTrace
10
29.4249
20
-12.197898
30
0
11
25.924902
21
-12.658682
31
0
12
25.924898
22
-11.737115
32
0
13
25.924898
23
-11.737115
33
0
39
0
210
0
220
0
230
1
0
ENDBLK
5
11E
100
AcDbEntity
8
0
100
AcDbBlockEnd
0
BLOCK
5
123
100
AcDbEntity
8
0
100
AcDbBlockBegin
2
*D3
70
1
10
0
20
0
30
0
3
*D3
0
LINE
5
125
100
AcDbEntity
8
0
62
256
6
ByLayer
370
-2
48
1
60
0
100
AcDbLine
10
-36
20
-4.5875
30
0
11
-36
21
-33.692985
31
0
39
0
210
0
220
0
230
1
0
LINE
5
126
100
AcDbEntity
8
0
62
256
6
ByLayer
370
-2
48
1
60
0
100
AcDbLine
10
30
20
-1.5875
30
0
11
30
21
-33.692985
31
0
39
0
210
0
220
0
230
1
0
LINE
5
127
100
AcDbEntity
8
0
62
256
6
ByLayer
370
-2
48
1
60
0
100
AcDbLine
10
-32.5
20
-31.692985
30
0
11
26.5
21
-31.692985
31
0
39
0
210
0
220
0
230
1
0
SOLID
5
128
100
AcDbEntity
8
0
62
256
6
ByLayer
370
-1
48
1
60
0
100
AcDbTrace
10
-32.5
20
-31.109652
30
0
11
-32.5
21
-32.276319
31
0
12
-36
22
-31.692985
32
0
13
-36
23
-31.692985
33
0
39
0
210
0
220
0
230
1
0
SOLID
5
129
100
AcDbEntity
8
0
62
256
6
ByLayer
370
-1
48
1
60
0
100
AcDbTrace
10
26.5
20
-32.276319
30
0
11
26.5
21
-31.109652
31
0
12
30
22
-31.692985
32
0
13
30
23
-31.692985
33
0
39
0
210
0
220
0
230
1
0
MTEXT
5
12A
100
AcDbEntity
8
0
62
256
6
ByLayer
370
18
48
1
60
0
100
AcDbMText
10
-3
20
-24.692985
30
0
210
0
220
0
230
1
1
\A1;66.00
40
3.5
41
0
44
1
50
0
71
5
72
5
7
iso_b_vert
0
POINT
5
12B
100
AcDbEntity
8
Defpoints
62
0
6
ByLayer
370
-1
48
1
60
0
100
AcDbPoint
10
-36
20
-3
30
0
39
0
210
0
220
0
230
1
50
360
0
POINT
5
12C
100
AcDbEntity
8
Defpoints
62
0
6
ByLayer
370
-1
48
1
60
0
100
AcDbPoint
10
30
20
0
30
0
39
0
210
0
220
0
230
1
50
360
0
POINT
5
12D
100
AcDbEntity
8
Defpoints
62
0
6
ByLayer
370
-1
48
1
60
0
100
AcDbPoint
10
30
20
-31.692985
30
0
39
0
210
0
220
0
230
1
50
360
0
ENDBLK
5
124
100
AcDbEntity
8
0
100
AcDbBlockEnd
0
BLOCK
5
135
100
AcDbEntity
8
0
100
AcDbBlockBegin
2
_U1
70
0
10
0
20
0
30
0
3
_U1
0
MTEXT
5
12F
100
AcDbEntity
8
SK2
62
256
6
ByLayer
370
13
48
1
60
0
100
AcDbMText
10
-8.137299
20
-30.660352
30
0
210
0
220
0
230
1
1
\W0.7317;66,00
40
3.5
41
0
44
1.084337
50
0
71
7
72
5
7
iso_b_vert
0
LINE
5
130
100
AcDbEntity
8
SK2
62
256
6
ByLayer
370
13
48
1
60
0
100
AcDbLine
10
-36
20
-4.5875
30
0
11
-36
21
-33.692985
31
0
39
0
210
0
220
0
230
1
0
LINE
5
131
100
AcDbEntity
8
SK2
62
256
6
ByLayer
370
13
48
1
60
0
100
AcDbLine
10
30
20
-1.5875
30
0
11
30
21
-33.692985
31
0
39
0
210
0
220
0
230
1
0
LINE
5
132
100
AcDbEntity
8
SK2
62
256
6
ByLayer
370
13
48
1
60
0
100
AcDbLine
10
-36
20
-31.692985
30
0
11
30
21
-31.692985
31
0
39
0
210
0
220
0
230
1
0
SOLID
5
133
100
AcDbEntity
8
SK2
62
256
6
ByLayer
370
18
48
1
60
0
100
AcDbTrace
10
-36
20
-31.692985
30
0
11
-32.500002
21
-31.232202
31
0
12
-32.499998
22
-32.153769
32
0
13
-32.499998
23
-32.153769
33
0
39
0
210
0
220
0
230
1
0
SOLID
5
134
100
AcDbEntity
8
SK2
62
256
6
ByLayer
370
18
48
1
60
0
100
AcDbTrace
10
30
20
-31.692985
30
0
11
26.500002
21
-32.153769
31
0
12
26.499998
22
-31.232202
32
0
13
26.499998
23
-31.232202
33
0
39
0
210
0
220
0
230
1
0
ENDBLK
5
136
100
AcDbEntity
8
0
100
AcDbBlockEnd
0
BLOCK
5
13B
100
AcDbEntity
8
0
100
AcDbBlockBegin
2
*D5
70
1
10
0
20
0
30
0
3
*D5
0
LINE
5
13D
100
AcDbEntity
8
0
62
256
6
ByLayer
370
-2
48
1
60
0
100
AcDbLine
10
17.52
20
3.572
30
0
11
17.52
21
15.593619
31
0
39
0
210
0
220
0
230
1
0
LINE
5
13E
100
AcDbEntity
8
0
62
256
6
ByLayer
370
-2
48
1
60
0
100
AcDbLine
10
30
20
1.5875
30
0
11
30
21
15.593619
31
0
39
0
210
0
220
0
230
1
0
LINE
5
13F
100
AcDbEntity
8
0
62
256
6
ByLayer
370
-2
48
1
60
0
100
AcDbLine
10
14.02
20
13.593619
30
0
11
10.52
21
13.593619
31
0
39
0
210
0
220
0
230
1
0
LINE
5
140
100
AcDbEntity
8
0
62
256
6
ByLayer
370
-2
48
1
60
0
100
AcDbLine
10
33.5
20
13.593619
30
0
11
37
21
13.593619
31
0
39
0
210
0
220
0
230
1
0
SOLID
5
141
100
AcDbEntity
8
0
62
256
6
ByLayer
370
-1
48
1
60
0
100
AcDbTrace
10
14.02
20
13.010286
30
0
11
14.02
21
14.176953
31
0
12
17.52
22
13.593619
32
0
13
17.52
23
13.593619
33
0
39
0
210
0
220
0
230
1
0
SOLID
5
142
100
AcDbEntity
8
0
62
256
6
ByLayer
370
-1
48
1
60
0
100
AcDbTrace
10
33.5
20
14.176953
30
0
11
33.5
21
13.010286
31
0
12
30
22
13.593619
32
0
13
30
23
13.593619
33
0
39
0
210
0
220
0
230
1
0
MTEXT
5
143
100
AcDbEntity
8
0
62
256
6
ByLayer
370
18
48
1
60
0
100
AcDbMText
10
23.76
20
20.593619
30
0
210
0
220
0
230
1
1
\A1;12.48
40
3.5
41
0
44
1
50
0
71
5
72
5
7
iso_b_vert
0
POINT
5
144
100
AcDbEntity
8
Defpoints
62
0
6
ByLayer
370
-1
48
1
60
0
100
AcDbPoint
10
17.52
20
1.9845
30
0
39
0
210
0
220
0
230
1
50
360
0
POINT
5
145
100
AcDbEntity
8
Defpoints
62
0
6
ByLayer
370
-1
48
1
60
0
100
AcDbPoint
10
30
20
0
30
0
39
0
210
0
220
0
230
1
50
360
0
POINT
5
146
100
AcDbEntity
8
Defpoints
62
0
6
ByLayer
370
-1
48
1
60
0
100
AcDbPoint
10
30
20
13.593619
30
0
39
0
210
0
220
0
230
1
50
360
0
ENDBLK
5
13C
100
AcDbEntity
8
0
100
AcDbBlockEnd
0
BLOCK
5
14E
100
AcDbEntity
8
0
100
AcDbBlockBegin
2
_U2
70
0
10
0
20
0
30
0
3
_U2
0
MTEXT
5
148
100
AcDbEntity
8
SK2
62
256
6
ByLayer
370
13
48
1
60
0
100
AcDbMText
10
18.875868
20
14.626253
30
0
210
0
220
0
230
1
1
\W0.6977;12,48
40
3.5
41
0
44
1.084337
50
0
71
7
72
5
7
iso_b_vert
0
LINE
5
149
100
AcDbEntity
8
SK2
62
256
6
ByLayer
370
13
48
1
60
0
100
AcDbLine
10
17.52
20
3.572
30
0
11
17.52
21
15.593619
31
0
39
0
210
0
220
0
230
1
0
LINE
5
14A
100
AcDbEntity
8
SK2
62
256
6
ByLayer
370
13
48
1
60
0
100
AcDbLine
10
30
20
1.5875
30
0
11
30
21
15.593619
31
0
39
0
210
0
220
0
230
1
0
LINE
5
14B
100
AcDbEntity
8
SK2
62
256
6
ByLayer
370
13
48
1
60
0
100
AcDbLine
10
17.52
20
13.593619
30
0
11
30
21
13.593619
31
0
39
0
210
0
220
0
230
1
0
SOLID
5
14C
100
AcDbEntity
8
SK2
62
256
6
ByLayer
370
18
48
1
60
0
100
AcDbTrace
10
17.52
20
13.593619
30
0
11
21.019998
21
14.054403
31
0
12
21.020002
22
13.132835
32
0
13
21.020002
23
13.132835
33
0
39
0
210
0
220
0
230
1
0
SOLID
5
14D
100
AcDbEntity
8
SK2
62
256
6
ByLayer
370
18
48
1
60
0
100
AcDbTrace
10
30
20
13.593619
30
0
11
26.500002
21
13.132835
31
0
12
26.499998
22
14.054403
32
0
13
26.499998
23
14.054403
33
0
39
0
210
0
220
0
230
1
0
ENDBLK
5
14F
100
AcDbEntity
8
0
100
AcDbBlockEnd
0
BLOCK
5
154
100
AcDbEntity
8
0
100
AcDbBlockBegin
2
*D7
70
1
10
0
20
0
30
0
3
*D7
0
LINE
5
156
100
AcDbEntity
8
0
62
256
6
ByLayer
370
-2
48
1
60
0
100
AcDbLine
10
30
20
-1.5875
30
0
11
30
21
-16.787003
31
0
39
0
210
0
220
0
230
1
0
LINE
5
157
100
AcDbEntity
8
0
62
256
6
ByLayer
370
-2
48
1
60
0
100
AcDbLine
10
29.4249
20
-3.572
30
0
11
29.4249
21
-16.787003
31
0
39
0
210
0
220
0
230
1
0
LINE
5
158
100
AcDbEntity
8
0
62
256
6
ByLayer
370
-2
48
1
60
0
100
AcDbLine
10
30
20
-14.787003
30
0
11
58.166667
21
-14.787003
31
0
39
0
210
0
220
0
230
1
0
LINE
5
159
100
AcDbEntity
8
0
62
256
6
ByLayer
370
-2
48
1
60
0
100
AcDbLine
10
33.5
20
-14.787003
30
0
11
37
21
-14.787003
31
0
39
0
210
0
220
0
230
1
0
LINE
5
15A
100
AcDbEntity
8
0
62
256
6
ByLayer
370
-2
48
1
60
0
100
AcDbLine
10
25.9249
20
-14.787003
30
0
11
22.4249
21
-14.787003
31
0
39
0
210
0
220
0
230
1
0
SOLID
5
15B
100
AcDbEntity
8
0
62
256
6
ByLayer
370
-1
48
1
60
0
100
AcDbTrace
10
33.5
20
-14.20367
30
0
11
33.5
21
-15.370337
31
0
12
30
22
-14.787003
32
0
13
30
23
-14.787003
33
0
39
0
210
0
220
0
230
1
0
SOLID
5
15C
100
AcDbEntity
8
0
62
256
6
ByLayer
370
-1
48
1
60
0
100
AcDbTrace
10
25.9249
20
-15.370337
30
0
11
25.9249
21
-14.20367
31
0
12
29.4249
22
-14.787003
32
0
13
29.4249
23
-14.787003
33
0
39
0
210
0
220
0
230
1
0
MTEXT
5
15D
100
AcDbEntity
8
0
62
256
6
ByLayer
370
18
48
1
60
0
100
AcDbMText
10
47.583333
20
-7.787003
30
0
210
0
220
0
230
1
1
\A1;0.58
40
3.5
41
0
44
1
50
0
71
5
72
5
7
iso_b_vert
0
POINT
5
15E
100
AcDbEntity
8
Defpoints
62
0
6
ByLayer
370
-1
48
1
60
0
100
AcDbPoint
10
30
20
0
30
0
39
0
210
0
220
0
230
1
50
360
0
POINT
5
15F
100
AcDbEntity
8
Defpoints
62
0
6
ByLayer
370
-1
48
1
60
0
100
AcDbPoint
10
29.4249
20
-1.9845
30
0
39
0
210
0
220
0
230
1
50
360
0
POINT
5
160
100
AcDbEntity
8
Defpoints
62
0
6
ByLayer
370
-1
48
1
60
0
100
AcDbPoint
10
29.4249
20
-14.787003
30
0
39
0
210
0
220
0
230
1
50
360
0
ENDBLK
5
155
100
AcDbEntity
8
0
100
AcDbBlockEnd
0
BLOCK
5
168
100
AcDbEntity
8
0
100
AcDbBlockBegin
2
_U3
70
0
10
0
20
0
30
0
3
_U3
0
MTEXT
5
162
100
AcDbEntity
8
SK2
62
256
6
ByLayer
370
13
48
1
60
0
100
AcDbMText
10
36.15186
20
-13.75437
30
0
210
0
220
0
230
1
1
\W0.7150;0,58
40
3.5
41
0
44
1.084337
50
0
71
7
72
5
7
iso_b_vert
0
LINE
5
163
100
AcDbEntity
8
SK2
62
256
6
ByLayer
370
13
48
1
60
0
100
AcDbLine
10
30
20
-1.5875
30
0
11
30
21
-16.787003
31
0
39
0
210
0
220
0
230
1
0
LINE
5
164
100
AcDbEntity
8
SK2
62
256
6
ByLayer
370
13
48
1
60
0
100
AcDbLine
10
29.4249
20
-3.572
30
0
11
29.4249
21
-16.787003
31
0
39
0
210
0
220
0
230
1
0
LINE
5
165
100
AcDbEntity
8
SK2
62
256
6
ByLayer
370
13
48
1
60
0
100
AcDbLine
10
20.6749
20
-14.787003
30
0
11
43.996491
21
-14.787003
31
0
39
0
210
0
220
0
230
1
0
SOLID
5
166
100
AcDbEntity
8
SK2
62
256
6
ByLayer
370
18
48
1
60
0
100
AcDbTrace
10
30
20
-14.787003
30
0
11
33.499998
21
-14.326219
31
0
12
33.500002
22
-15.247787
32
0
13
33.500002
23
-15.247787
33
0
39
0
210
0
220
0
230
1
0
SOLID
5
167
100
AcDbEntity
8
SK2
62
256
6
ByLayer
370
18
48
1
60
0
100
AcDbTrace
10
29.4249
20
-14.787003
30
0
11
25.924902
21
-15.247787
31
0
12
25.924898
22
-14.326219
32
0
13
25.924898
23
-14.326219
33
0
39
0
210
0
220
0
230
1
0
ENDBLK
5
169
100
AcDbEntity
8
0
100
AcDbBlockEnd
0
BLOCK
5
16E
100
AcDbEntity
8
0
100
AcDbBlockBegin
2
*D9
70
1
10
0
20
0
30
0
3
*D9
0
LINE
5
170
100
AcDbEntity
8
0
62
256
6
ByLayer
370
-2
48
1
60
0
100
AcDbLine
10
-36
20
-4.5875
30
0
11
-36
21
-23.343428
31
0
39
0
210
0
220
0
230
1
0
LINE
5
171
100
AcDbEntity
8
0
62
256
6
ByLayer
370
-2
48
1
60
0
100
AcDbLine
10
29.4249
20
-3.572
30
0
11
29.4249
21
-23.343428
31
0
39
0
210
0
220
0
230
1
0
LINE
5
172
100
AcDbEntity
8
0
62
256
6
ByLayer
370
-2
48
1
60
0
100
AcDbLine
10
-32.5
20
-21.343428
30
0
11
25.9249
21
-21.343428
31
0
39
0
210
0
220
0
230
1
0
SOLID
5
173
100
AcDbEntity
8
0
62
256
6
ByLayer
370
-1
48
1
60
0
100
AcDbTrace
10
-32.5
20
-20.760095
30
0
11
-32.5
21
-21.926762
31
0
12
-36
22
-21.343428
32
0
13
-36
23
-21.343428
33
0
39
0
210
0
220
0
230
1
0
SOLID
5
174
100
AcDbEntity
8
0
62
256
6
ByLayer
370
-1
48
1
60
0
100
AcDbTrace
10
25.9249
20
-21.926762
30
0
11
25.9249
21
-20.760095
31
0
12
29.4249
22
-21.343428
32
0
13
29.4249
23
-21.343428
33
0
39
0
210
0
220
0
230
1
0
MTEXT
5
175
100
AcDbEntity
8
0
62
256
6
ByLayer
370
18
48
1
60
0
100
AcDbMText
10
-3.28755
20
-14.343428
30
0
210
0
220
0
230
1
1
\A1;65.42
40
3.5
41
0
44
1
50
0
71
5
72
5
7
iso_b_vert
0
POINT
5
176
100
AcDbEntity
8
Defpoints
62
0
6
ByLayer
370
-1
48
1
60
0
100
AcDbPoint
10
-36
20
-3
30
0
39
0
210
0
220
0
230
1
50
360
0
POINT
5
177
100
AcDbEntity
8
Defpoints
62
0
6
ByLayer
370
-1
48
1
60
0
100
AcDbPoint
10
29.4249
20
-1.9845
30
0
39
0
210
0
220
0
230
1
50
360
0
POINT
5
178
100
AcDbEntity
8
Defpoints
62
0
6
ByLayer
370
-1
48
1
60
0
100
AcDbPoint
10
29.4249
20
-21.343428
30
0
39
0
210
0
220
0
230
1
50
360
0
ENDBLK
5
16F
100
AcDbEntity
8
0
100
AcDbBlockEnd
0
BLOCK
5
180
100
AcDbEntity
8
0
100
AcDbBlockBegin
2
_U4
70
0
10
0
20
0
30
0
3
_U4
0
MTEXT
5
17A
100
AcDbEntity
8
SK2
62
256
6
ByLayer
370
13
48
1
60
0
100
AcDbMText
10
-8.609115
20
-20.310795
30
0
210
0
220
0
230
1
1
\W0.7581;65,42
40
3.5
41
0
44
1.084337
50
0
71
7
72
5
7
iso_b_vert
0
LINE
5
17B
100
AcDbEntity
8
SK2
62
256
6
ByLayer
370
13
48
1
60
0
100
AcDbLine
10
-36
20
-4.5875
30
0
11
-36
21
-23.343428
31
0
39
0
210
0
220
0
230
1
0
LINE
5
17C
100
AcDbEntity
8
SK2
62
256
6
ByLayer
370
13
48
1
60
0
100
AcDbLine
10
29.4249
20
-3.572
30
0
11
29.4249
21
-23.343428
31
0
39
0
210
0
220
0
230
1
0
LINE
5
17D
100
AcDbEntity
8
SK2
62
256
6
ByLayer
370
13
48
1
60
0
100
AcDbLine
10
-36
20
-21.343428
30
0
11
29.4249
21
-21.343428
31
0
39
0
210
0
220
0
230
1
0
SOLID
5
17E
100
AcDbEntity
8
SK2
62
256
6
ByLayer
370
18
48
1
60
0
100
AcDbTrace
10
-36
20
-21.343428
30
0
11
-32.500002
21
-20.882645
31
0
12
-32.499998
22
-21.804212
32
0
13
-32.499998
23
-21.804212
33
0
39
0
210
0
220
0
230
1
0
SOLID
5
17F
100
AcDbEntity
8
SK2
62
256
6
ByLayer
370
18
48
1
60
0
100
AcDbTrace
10
29.4249
20
-21.343428
30
0
11
25.924902
21
-21.804212
31
0
12
25.924898
22
-20.882645
32
0
13
25.924898
23
-20.882645
33
0
39
0
210
0
220
0
230
1
0
ENDBLK
5
181
100
AcDbEntity
8
0
100
AcDbBlockEnd
0
ENDSEC
0
SECTION
2
ENTITIES
0
ARC
5
AC
100
AcDbEntity
8
1
62
256
6
ByLayer
370
18
48
1
60
0
100
AcDbCircle
39
0
10
1.496149
20
-2.767044
30
0
40
0.8
210
0
220
0
230
1
100
AcDbArc
50
89.96419
51
159.243178
0
ARC
5
AD
100
AcDbEntity
8
1
62
256
6
ByLayer
370
18
48
1
60
0
100
AcDbCircle
39
0
10
1.496149
20
2.767044
30
0
40
0.8
210
0
220
0
230
1
100
AcDbArc
50
200.756822
51
270.03581
0
ARC
5
AE
100
AcDbEntity
8
1
62
256
6
ByLayer
370
18
48
1
60
0
100
AcDbCircle
39
0
10
0
20
-2.2
30
0
40
0.8
210
0
220
0
230
1
100
AcDbArc
50
270
51
339.243178
0
ARC
5
AF
100
AcDbEntity
8
1
62
256
6
ByLayer
370
18
48
1
60
0
100
AcDbCircle
39
0
10
0
20
2.2
30
0
40
0.8
210
0
220
0
230
1
100
AcDbArc
50
20.756822
51
90
0
ELLIPSE
5
B0
100
AcDbEntity
8
1
62
256
6
ByLayer
370
18
48
1
60
0
100
AcDbEllipse
10
8.25
20
2.122914
30
0
11
0.25
21
0
31
0
210
0
220
0
230
1
40
1
41
-2.39636094721943
42
-1.55305008283622
0
ELLIPSE
5
B1
100
AcDbEntity
8
1
62
256
6
ByLayer
370
18
48
1
60
0
100
AcDbEllipse
10
8.25
20
-2.122914
30
0
11
0.25
21
0
31
0
210
0
220
0
230
1
40
1
41
1.5819319640406
42
2.40634287898007
0
POINT
5
70
100
AcDbEntity
8
80
62
256
6
ByLayer
370
18
48
1
60
0
100
AcDbPoint
10
0
20
0
30
0
39
0
210
0
220
0
230
1
50
360
0
POINT
5
72
100
AcDbEntity
8
81
62
256
6
ByLayer
370
18
48
1
60
0
100
AcDbPoint
10
30
20
0
30
0
39
0
210
0
220
0
230
1
50
360
0
POINT
5
74
100
AcDbEntity
8
1
62
256
6
ByLayer
370
18
48
1
60
1
100
AcDbPoint
10
29.4249
20
-1.9845
30
0
39
0
210
0
220
0
230
1
50
360
0
POINT
5
76
100
AcDbEntity
8
1
62
256
6
ByLayer
370
18
48
1
60
1
100
AcDbPoint
10
-36
20
-3
30
0
39
0
210
0
220
0
230
1
50
360
0
POINT
5
77
100
AcDbEntity
8
1
62
256
6
ByLayer
370
18
48
1
60
1
100
AcDbPoint
10
17.52
20
1.9845
30
0
39
0
210
0
220
0
230
1
50
360
0
POINT
5
78
100
AcDbEntity
8
1
62
256
6
ByLayer
370
18
48
1
60
1
100
AcDbPoint
10
29.4249
20
-1.9845
30
0
39
0
210
0
220
0
230
1
50
360
0
POINT
5
79
100
AcDbEntity
8
1
62
256
6
ByLayer
370
18
48
1
60
1
100
AcDbPoint
10
-36
20
-3
30
0
39
0
210
0
220
0
230
1
50
360
0
POINT
5
7A
100
AcDbEntity
8
1
62
256
6
ByLayer
370
18
48
1
60
1
100
AcDbPoint
10
29.4249
20
-1.9845
30
0
39
0
210
0
220
0
230
1
50
360
0
SPLINE
5
B2
100
AcDbEntity
8
SK1
62
256
6
ByLayer
370
18
48
1
60
0
100
AcDbSpline
70
4
71
3
72
12
73
8
40
0
40
0
40
0
40
0
40
0.500000000000002
40
0.500000000000002
40
0.750000000000001
40
0.750000000000001
40
1
40
1
40
1
40
1
41
1
10
-35.75
20
-2.28430132840165
30
0
41
1
10
-35.7259913046562
20
-2.30932613029458
30
0
41
1
10
-35.7033433879313
20
-2.3343221130755
30
0
41
1
10
-35.6754686754417
20
-2.36677374356034
30
0
41
1
10
-35.667025596347
20
-2.37696111149043
30
0
41
1
10
-35.6543350076412
20
-2.3933513525009
30
0
41
1
10
-35.65
20
-2.39969198556193
30
0
41
1
10
-35.65
20
-2.40154234294104
30
0
0
SPLINE
5
B3
100
AcDbEntity
8
SK1
62
256
6
ByLayer
370
18
48
1
60
0
100
AcDbSpline
70
4
71
3
72
8
73
4
40
0
40
0
40
0
40
0
40
1
40
1
40
1
40
1
41
1
10
-36
20
-2.02184341573229
30
0
41
1
10
-35.9170322290397
20
-2.10965481643297
30
0
41
1
10
-35.8336571392204
20
-2.19710361499224
30
0
41
1
10
-35.7499999999999
20
-2.28430132840157
30
0
0
SPLINE
5
B4
100
AcDbEntity
8
SK1
62
256
6
ByLayer
370
18
48
1
60
0
100
AcDbSpline
70
4
71
3
72
12
73
8
40
0
40
0
40
0
40
0
40
0.499999999999998
40
0.499999999999998
40
0.749999999999999
40
0.749999999999999
40
1
40
1
40
1
40
1
41
1
10
-35.75
20
2.28430132840165
30
0
41
1
10
-35.7259913046562
20
2.30932613029458
30
0
41
1
10
-35.7033433879313
20
2.3343221130755
30
0
41
1
10
-35.6754686754417
20
2.36677374356032
30
0
41
1
10
-35.667025596347
20
2.37696111149043
30
0
41
1
10
-35.6543350076412
20
2.3933513525009
30
0
41
1
10
-35.65
20
2.39969198556193
30
0
41
1
10
-35.65
20
2.40154234294104
30
0
0
SPLINE
5
B5
100
AcDbEntity
8
SK1
62
256
6
ByLayer
370
18
48
1
60
0
100
AcDbSpline
70
4
71
3
72
8
73
4
40
0
40
0
40
0
40
0
40
1
40
1
40
1
40
1
41
1
10
-35.75
20
-2.03512338192522
30
0
41
1
10
-35.8336559237232
20
-1.94792693545591
30
0
41
1
10
-35.9170308680635
20
-1.86047831038624
30
0
41
1
10
-36
20
-1.77266546925594
30
0
0
SPLINE
5
B6
100
AcDbEntity
8
SK1
62
256
6
ByLayer
370
18
48
1
60
0
100
AcDbSpline
70
4
71
3
72
8
73
4
40
0
40
0
40
0
40
0
40
1
40
1
40
1
40
1
41
1
10
-36
20
2.02184341573229
30
0
41
1
10
-35.9170322290397
20
2.10965481643297
30
0
41
1
10
-35.8336571392204
20
2.19710361499224
30
0
41
1
10
-35.7499999999999
20
2.28430132840157
30
0
0
SPLINE
5
B7
100
AcDbEntity
8
SK1
62
256
6
ByLayer
370
18
48
1
60
0
100
AcDbSpline
70
4
71
3
72
12
73
8
40
0
40
0
40
0
40
0
40
0.250000000000001
40
0.250000000000001
40
0.500000000000002
40
0.500000000000002
40
1
40
1
40
1
40
1
41
1
10
-35.65
20
-2.18558812266159
30
0
41
1
10
-35.65
20
-2.17811048825717
30
0
41
1
10
-35.6543403470551
20
-2.1666372610488
30
0
41
1
10
-35.6670034572333
20
-2.14192041614021
30
0
41
1
10
-35.6754069618005
20
-2.12838988553725
30
0
41
1
10
-35.7033744297257
20
-2.0878226722761
30
0
41
1
10
-35.7260009806423
20
-2.06013809832081
30
0
41
1
10
-35.7500000000001
20
-2.03512338192527
30
0
0
SPLINE
5
B8
100
AcDbEntity
8
1
62
256
6
ByLayer
370
18
48
1
60
0
100
AcDbSpline
70
4
71
3
72
35
73
31
40
0
40
0
40
0
40
0
40
0.146776293168497
40
0.146776293168497
40
0.224656485350412
40
0.224656485350412
40
0.302536677532328
40
0.302536677532328
40
0.458297061896159
40
0.458297061896159
40
0.536177254078075
40
0.536177254078075
40
0.575117350169032
40
0.584852374191772
40
0.584852374191772
40
0.594587398214511
40
0.594587398214511
40
0.599454910225881
40
0.599454910225881
40
0.604322422237251
40
0.604322422237251
40
0.61405744625999
40
0.61405744625999
40
0.769817830623822
40
0.769817830623822
40
0.847698022805738
40
0.847698022805738
40
0.925578214987654
40
0.925578214987654
40
1
40
1
40
1
40
1
41
1
10
10.2266485964324
20
0.726728175876076
30
0
41
1
10
10.2266485964324
20
0.673071925886433
30
0
41
1
10
10.2266485964326
20
0.605884357098375
30
0
41
1
10
10.2266485964326
20
0.483075157159163
30
0
41
1
10
10.2266485964326
20
0.437143075305556
30
0
41
1
10
10.2266485964326
20
0.340140751869029
30
0
41
1
10
10.2266485964326
20
0.288898358564296
30
0
41
1
10
10.2266485964326
20
0.127351019071682
30
0
41
1
10
10.2266485964326
20
0.0092900680601247
30
0
41
1
10
10.2266485964326
20
-0.18304993514559
30
0
41
1
10
10.2266485964326
20
-0.249292783768965
30
0
41
1
10
10.2266485964326
20
-0.351412035918031
30
0
41
1
10
10.2266485964326
20
-0.39457992420472
30
0
41
1
10
10.2266485964326
20
-0.438429635903986
30
0
41
1
10
10.2266485964326
20
-0.45602259478801
30
0
41
1
10
10.2266485964326
20
-0.4645528478041
30
0
41
1
10
10.2266485964326
20
-0.479190850965466
30
0
41
1
10
10.2266485964329
20
-0.484356950993714
30
0
41
1
10
10.2266485964329
20
-0.494475086703659
30
0
41
1
10
10.2266485964326
20
-0.499517458404938
30
0
41
1
10
10.2266485964326
20
-0.514654682551225
30
0
41
1
10
10.2266485964326
20
-0.524737699283435
30
0
41
1
10
10.2266485964326
20
-0.696004461438434
30
0
41
1
10
10.2266485964326
20
-0.854829600175634
30
0
41
1
10
10.2266485964326
20
-1.08311840222208
30
0
41
1
10
10.2266485964326
20
-1.15779782506524
30
0
41
1
10
10.2266485964326
20
-1.3041777700204
30
0
41
1
10
10.2266485964326
20
-1.3761837235395
30
0
41
1
10
10.2266485964326
20
-1.51245369095776
30
0
41
1
10
10.2266485964326
20
-1.57644702088427
30
0
41
1
10
10.2266485964326
20
-1.63777307246082
30
0
0
SPLINE
5
B9
100
AcDbEntity
8
1
62
256
6
ByLayer
370
18
48
1
60
0
100
AcDbSpline
70
4
71
3
72
8
73
4
40
0
40
0
40
0
40
0
40
1
40
1
40
1
40
1
41
1
10
29.9900173719294
20
0.0954170767723781
30
0
41
1
10
29.9906187155119
20
0.0777447393394368
30
0
41
1
10
29.9944468865923
20
0.0554495173822716
30
0
41
1
10
29.9999509734387
20
0.0321430664599518
30
0
0
SPLINE
5
BA
100
AcDbEntity
8
1
62
256
6
ByLayer
370
18
48
1
60
0
100
AcDbSpline
70
4
71
3
72
22
73
18
40
0
40
0
40
0
40
0
40
0.079587379456061
40
0.079587379456061
40
0.163261254050965
40
0.163261254050965
40
0.330609003240772
40
0.330609003240772
40
0.414282877835675
40
0.414282877835675
40
0.497956752430579
40
0.497956752430579
40
0.665304501620386
40
0.665304501620386
40
0.832652250810193
40
0.832652250810193
40
1
40
1
40
1
40
1
41
1
10
8.05134373203444
20
-1.97113987467969
30
0
41
1
10
8.05136436140481
20
-1.97108626082866
30
0
41
1
10
8.0513839163132
20
-1.96837886903447
30
0
41
1
10
8.05142257783655
20
-1.95730055632907
30
0
41
1
10
8.0514417073463
20
-1.94857502959488
30
0
41
1
10
8.05149709025932
20
-1.91365950780315
30
0
41
1
10
8.05153138057364
20
-1.8790231885786
30
0
41
1
10
8.05158283166418
20
-1.81046491356923
30
0
41
1
10
8.05159996412758
20
-1.78482617654544
30
0
41
1
10
8.05163463718324
20
-1.72781983505789
30
0
41
1
10
8.05165212954216
20
-1.69650414559032
30
0
41
1
10
8.05170452305921
20
-1.59595847306704
30
0
41
1
10
8.05173978185164
20
-1.51962550712477
30
0
41
1
10
8.05181095899158
20
-1.34838235498046
30
0
41
1
10
8.0518470037928
20
-1.25286717986145
30
0
41
1
10
8.05191390236544
20
-1.0508869082469
30
0
41
1
10
8.05194515327756
20
-0.943590708526898
30
0
41
1
10
8.05197146436532
20
-0.829842616405671
30
0
0
SPLINE
5
BB
100
AcDbEntity
8
1
62
256
6
ByLayer
370
13
48
1
60
0
100
AcDbSpline
70
4
71
3
72
20
73
16
40
0
40
0
40
0
40
0
40
0.130601050212393
40
0.130601050212393
40
0.304480840169914
40
0.304480840169914
40
0.478360630127436
40
0.478360630127436
40
0.565300525106197
40
0.565300525106197
40
0.652240420084957
40
0.652240420084957
40
0.826120210042479
40
0.826120210042479
40
1
40
1
40
1
40
1
41
1
10
8.25083902761375
20
-1.8729263421813
30
0
41
1
10
8.25086516328571
20
-1.87290077545518
30
0
41
1
10
8.2508890474777
20
-1.86663308089024
30
0
41
1
10
8.25094341017754
20
-1.83764902214938
30
0
41
1
10
8.25097365822037
20
-1.80979476240338
30
0
41
1
10
8.25103631507463
20
-1.73287582597521
30
0
41
1
10
8.25106901149485
20
-1.68356075237938
30
0
41
1
10
8.2511208985317
20
-1.59570535550492
30
0
41
1
10
8.25113869080263
20
-1.56404578530407
30
0
41
1
10
8.25117534726809
20
-1.49594383087711
30
0
41
1
10
8.25119431183097
20
-1.45929406438702
30
0
41
1
10
8.25125166191768
20
-1.34395946367133
30
0
41
1
10
8.25129067340478
20
-1.25984344727203
30
0
41
1
10
8.25136682373071
20
-1.07768544437977
30
0
41
1
10
8.25140415172822
20
-0.979140027370079
30
0
41
1
10
8.25143695763714
20
-0.874243984540186
30
0
0
SPLINE
5
BC
100
AcDbEntity
8
1
62
256
6
ByLayer
370
18
48
1
60
0
100
AcDbSpline
70
4
71
3
72
36
73
32
40
0
40
0
40
0
40
0
40
0.114396842521027
40
0.114396842521027
40
0.171595263781541
40
0.171595263781541
40
0.228793685042056
40
0.228793685042056
40
0.343190527563087
40
0.343190527563087
40
0.371789738193344
40
0.371789738193344
40
0.400388948823602
40
0.400388948823602
40
0.457587370084116
40
0.457587370084116
40
0.571984212605147
40
0.571984212605147
40
0.600583423235406
40
0.600583423235406
40
0.629182633865665
40
0.629182633865665
40
0.686381055126184
40
0.686381055126184
40
0.800777897647223
40
0.800777897647223
40
0.915174740168262
40
0.915174740168262
40
0.972373161428782
40
0.972373161428782
40
1
40
1
40
1
40
1
41
1
10
29.3163370136136
20
-1.97796229008944
30
0
41
1
10
28.8747313269718
20
-1.99750209138136
30
0
41
1
10
28.4362396702647
20
-1.97145868407856
30
0
41
1
10
27.7736840101348
20
-1.86677797932035
30
0
41
1
10
27.5512815132206
20
-1.82057596748623
30
0
41
1
10
27.1101052082903
20
-1.70877861496521
30
0
41
1
10
26.8906652956662
20
-1.64323836593292
30
0
41
1
10
26.2335918026353
20
-1.42050407590904
30
0
41
1
10
25.797137830631
20
-1.23715589168299
30
0
41
1
10
25.2446449577966
20
-0.975733150495756
30
0
41
1
10
25.1335212574232
20
-0.921707037142681
30
0
41
1
10
24.9120072134731
20
-0.811460258069417
30
0
41
1
10
24.8016442807076
20
-0.75526164357791
30
0
41
1
10
24.4713698280072
20
-0.584106714276771
30
0
41
1
10
24.2522364816181
20
-0.466655600171634
30
0
41
1
10
23.5953779247212
20
-0.109030958478797
30
0
41
1
10
23.1585957858445
20
0.137165005676934
30
0
41
1
10
22.6046970259619
20
0.437501999944885
30
0
41
1
10
22.4935371120687
20
0.497191925307106
30
0
41
1
10
22.2724890980597
20
0.614388756613778
30
0
41
1
10
22.1623432025796
20
0.672080673051369
30
0
41
1
10
21.8326388862755
20
0.841764994454564
30
0
41
1
10
21.6136808451113
20
0.950137556457292
30
0
41
1
10
20.9568590071592
20
1.25723489668917
30
0
41
1
10
20.5191658982921
20
1.43839149355887
30
0
41
1
10
19.6311678697289
20
1.73181781336663
30
0
41
1
10
19.1933825590148
20
1.83937049853841
30
0
41
1
10
18.5366057216319
20
1.93695212665685
30
0
41
1
10
18.3175555704901
20
1.95877712812973
30
0
41
1
10
17.9912958512051
20
1.97467908625421
30
0
41
1
10
17.8848195411096
20
1.97726920418179
30
0
41
1
10
17.7780358545999
20
1.97721975797225
30
0
0
SPLINE
5
BD
100
AcDbEntity
8
1
62
256
6
ByLayer
370
18
48
1
60
0
100
AcDbSpline
70
4
71
3
72
34
73
30
40
0
40
0
40
0
40
0
40
0.125
40
0.125
40
0.25
40
0.25
40
0.3125
40
0.3125
40
0.375
40
0.375
40
0.40625
40
0.40625
40
0.4375
40
0.4375
40
0.46875
40
0.46875
40
0.5
40
0.5
40
0.53125
40
0.53125
40
0.5625
40
0.5625
40
0.625
40
0.625
40
0.75
40
0.75
40
0.875
40
0.875
40
1
40
1
40
1
40
1
41
1
10
29.4340354877572
20
-0.971769847077553
30
0
41
1
10
29.3524335527996
20
-0.945290230323849
30
0
41
1
10
29.2703487321525
20
-0.911242340329778
30
0
41
1
10
29.1105724373789
20
-0.828888924575466
30
0
41
1
10
29.0325784836684
20
-0.780882371868984
30
0
41
1
10
28.9200130429463
20
-0.692915669268501
30
0
41
1
10
28.8836061952841
20
-0.661133292665397
30
0
41
1
10
28.8152663095808
20
-0.591048986377473
30
0
41
1
10
28.7826371758287
20
-0.552292982658088
30
0
41
1
10
28.7425412415662
20
-0.486812647509566
30
0
41
1
10
28.7307356669572
20
-0.463755800272651
30
0
41
1
10
28.713238261273
20
-0.415750250774892
30
0
41
1
10
28.7075180460864
20
-0.390302516268321
30
0
41
1
10
28.7070525183879
20
-0.341081081762951
30
0
41
1
10
28.7125637256421
20
-0.318074018662031
30
0
41
1
10
28.7326415789254
20
-0.280087506740529
30
0
41
1
10
28.7468914133626
20
-0.26495766546492
30
0
41
1
10
28.7786126135316
20
-0.241304040265675
30
0
41
1
10
28.7964578047733
20
-0.232414535684654
30
0
41
1
10
28.8331364329008
20
-0.218896967320205
30
0
41
1
10
28.8521823820411
20
-0.214154519042069
30
0
41
1
10
28.9107503190065
20
-0.204007839013769
30
0
41
1
10
28.9511848986459
20
-0.202715788622328
30
0
41
1
10
29.0722376347445
20
-0.207906408862669
30
0
41
1
10
29.1541756713278
20
-0.223274504053308
30
0
41
1
10
29.3188166589305
20
-0.267349409525906
30
0
41
1
10
29.4005270948987
20
-0.296098124856513
30
0
41
1
10
29.5628957098369
20
-0.365171462993459
30
0
41
1
10
29.6432945320337
20
-0.40539257874471
30
0
41
1
10
29.7215822312223
20
-0.452307210399795
30
0
0
SPLINE
5
BE
100
AcDbEntity
8
1
62
256
6
ByLayer
370
18
48
1
60
0
100
AcDbSpline
70
4
71
3
72
8
73
4
40
0
40
0
40
0
40
0
40
1
40
1
40
1
40
1
41
1
10
29.9790629499812
20
-0.017261388257424
30
0
41
1
10
29.8915457915595
20
-0.160737597532346
30
0
41
1
10
29.8057123541606
20
-0.305746924623094
30
0
41
1
10
29.7215822312223
20
-0.452307210399823
30
0
0
SPLINE
5
BF
100
AcDbEntity
8
1
62
256
6
ByLayer
370
18
48
1
60
0
100
AcDbSpline
70
4
71
3
72
50
73
46
40
0
40
0
40
0
40
0
40
0.124999999999998
40
0.124999999999998
40
0.187499999999997
40
0.187499999999997
40
0.249999999999996
40
0.249999999999996
40
0.281249999999997
40
0.281249999999997
40
0.312499999999998
40
0.312499999999998
40
0.343749999999998
40
0.343749999999998
40
0.359374999999999
40
0.359374999999999
40
0.375
40
0.375
40
0.390625
40
0.390625
40
0.406250000000001
40
0.406250000000001
40
0.437500000000004
40
0.437500000000004
40
0.468750000000007
40
0.468750000000007
40
0.50000000000001
40
0.50000000000001
40
0.503906250000009
40
0.503906250000009
40
0.507812500000008
40
0.507812500000008
40
0.515625000000006
40
0.515625000000006
40
0.531250000000005
40
0.531250000000005
40
0.562500000000004
40
0.562500000000004
40
0.625000000000003
40
0.625000000000003
40
0.750000000000002
40
0.750000000000002
40
0.875000000000001
40
0.875000000000001
40
1
40
1
40
1
40
1
41
1
10
8.0519714643728
20
-0.829842616405671
30
0
41
1
10
7.78372220447892
20
-0.68495900390235
30
0
41
1
10
7.51677890005141
20
-0.529269207449914
30
0
41
1
10
7.12010727804793
20
-0.27276734361746
30
0
41
1
10
6.98873946850264
20
-0.183414241845384
30
0
41
1
10
6.73390709779017
20
0.003044358426763
30
0
41
1
10
6.6097561696366
20
0.100339048053598
30
0
41
1
10
6.43253487268257
20
0.257540669576031
30
0
41
1
10
6.37473132233669
20
0.3121238319236
30
0
41
1
10
6.26508712004761
20
0.425933353137111
30
0
41
1
10
6.21354486109831
20
0.484723220988457
30
0
41
1
10
6.12090072294146
20
0.608558911632116
30
0
41
1
10
6.07924190335484
20
0.674511134960596
30
0
41
1
10
6.03376773049936
20
0.77707668254584
30
0
41
1
10
6.02132987589852
20
0.812252423421796
30
0
41
1
10
6.00434298208921
20
0.882988838017098
30
0
41
1
10
5.99985721514361
20
0.918047935050822
30
0
41
1
10
6.00015122247098
20
0.98757549830998
30
0
41
1
10
6.00515822149652
20
1.02249292024496
30
0
41
1
10
6.02449352375635
20
1.0878857179211
30
0
41
1
10
6.03869715640559
20
1.11874620803476
30
0
41
1
10
6.0935737632619
20
1.20655181462308
30
0
41
1
10
6.1437061891076
20
1.25501625428342
30
0
41
1
10
6.25870380502064
20
1.33935022327046
30
0
41
1
10
6.321894416872
20
1.37401751823558
30
0
41
1
10
6.45502551615832
20
1.43497010477989
30
0
41
1
10
6.52526678083882
20
1.46116524024646
30
0
41
1
10
6.60615486381178
20
1.48712494425055
30
0
41
1
10
6.61517129288359
20
1.48996083497923
30
0
41
1
10
6.63325956564182
20
1.4955402297978
30
0
41
1
10
6.6421582346382
20
1.49869525394732
30
0
41
1
10
6.67034837277791
20
1.5043834887845
30
0
41
1
10
6.69071749621014
20
1.50366468078496
30
0
41
1
10
6.74986465990338
20
1.50061958388352
30
0
41
1
10
6.78931671175326
20
1.49875972438807
30
0
41
1
10
6.90755265557971
20
1.49215328578782
30
0
41
1
10
6.98624208200877
20
1.4869885200919
30
0
41
1
10
7.22191483291496
20
1.46916569265508
30
0
41
1
10
7.37871959342408
20
1.45415332811319
30
0
41
1
10
7.84564561815534
20
1.39945243573524
30
0
41
1
10
8.15225798441773
20
1.35004440689408
30
0
41
1
10
8.75732527809981
20
1.22227799698774
30
0
41
1
10
9.05574874386753
20
1.14376539301224
30
0
41
1
10
9.6465777760871
20
0.95650224310026
30
0
41
1
10
9.93848632675508
20
0.847751794909641
30
0
41
1
10
10.2266485964327
20
0.726728175876048
30
0
0
SPLINE
5
C0
100
AcDbEntity
8
1
62
256
6
ByLayer
370
18
48
1
60
0
100
AcDbSpline
70
4
71
3
72
24
73
20
40
0
40
0
40
0
40
0
40
0.0186899217733335
40
0.0186899217733335
40
0.231637359588861
40
0.231637359588861
40
0.338111078496626
40
0.338111078496626
40
0.444584797404391
40
0.444584797404391
40
0.65753223521992
40
0.65753223521992
40
0.764005954127687
40
0.764005954127687
40
0.81724281358157
40
0.81724281358157
40
0.870479673035453
40
0.870479673035453
40
1
40
1
40
1
40
1
41
1
10
9.41377849973085
20
1.36451195804096
30
0
41
1
10
9.45262472407225
20
1.34909035776826
30
0
41
1
10
9.49144292946173
20
1.33343869659114
30
0
41
1
10
9.97203843663817
20
1.13676784591516
30
0
41
1
10
10.4085204763165
20
0.928191037754544
30
0
41
1
10
11.0653924861863
20
0.590623903004172
30
0
41
1
10
11.2846505321924
20
0.473910447024991
30
0
41
1
10
11.7254685144091
20
0.234962310426425
30
0
41
1
10
11.9479279989248
20
0.11229708205434
30
0
41
1
10
12.6093757141102
20
-0.252041481119477
30
0
41
1
10
13.0454665126111
20
-0.49218914862962
30
0
41
1
10
13.7025702319566
20
-0.82958606819264
30
0
41
1
10
13.9221024551449
20
-0.938269139712958
30
0
41
1
10
14.2533763182335
20
-1.0934709587371
30
0
41
1
10
14.3644090247276
20
-1.14401202853753
30
0
41
1
10
14.5857396904622
20
-1.24136682915702
30
0
41
1
10
14.6960208030524
20
-1.28817927204869
30
0
41
1
10
15.0736550418841
20
-1.44202470754968
30
0
41
1
10
15.3398140155512
20
-1.53906305606256
30
0
41
1
10
15.6058977635488
20
-1.62274011883324
30
0
0
SPLINE
5
C1
100
AcDbEntity
8
1
62
256
6
ByLayer
370
13
48
1
60
0
100
AcDbSpline
70
4
71
3
72
18
73
14
40
0
40
0
40
0
40
0
40
0.156910005311669
40
0.156910005311669
40
0.357166152620676
40
0.357166152620676
40
0.457294226275182
40
0.457294226275182
40
0.557422299929687
40
0.557422299929687
40
0.957934594547705
40
0.957934594547705
40
1
40
1
40
1
40
1
41
1
10
15.6058977635725
20
-1.62274011884062
30
0
41
1
10
15.7772886090025
20
-1.67663849722393
30
0
41
1
10
15.9486482436537
20
-1.72499334058801
30
0
41
1
10
16.3394833975179
20
-1.82160966323391
30
0
41
1
10
16.559215059307
20
-1.86601312307775
30
0
41
1
10
16.8912799900071
20
-1.9164303984941
30
0
41
1
10
17.0023002015738
20
-1.93055207370466
30
0
41
1
10
17.2233139580073
20
-1.95314249378947
30
0
41
1
10
17.3335532756758
20
-1.96165041383074
30
0
41
1
10
17.8839315617352
20
-1.99022036708203
30
0
41
1
10
18.3220137688563
20
-1.96833647753471
30
0
41
1
10
18.8110589876168
20
-1.89508654696476
30
0
41
1
10
18.8576008888787
20
-1.88763501871424
30
0
41
1
10
18.9041436443311
20
-1.87971139065294
30
0
0
SPLINE
5
C2
100
AcDbEntity
8
1
62
256
6
ByLayer
370
18
48
1
60
0
100
AcDbSpline
70
4
71
3
72
14
73
10
40
0
40
0
40
0
40
0
40
0.25
40
0.25
40
0.5
40
0.5
40
0.75
40
0.75
40
1
40
1
40
1
40
1
41
1
10
29.1742101069142
20
-1.47654558054415
30
0
41
1
10
29.1737252063126
20
-1.54520764681794
30
0
41
1
10
29.1763949640219
20
-1.60560009952036
30
0
41
1
10
29.1882280255099
20
-1.71012983862397
30
0
41
1
10
29.1975495438001
20
-1.75449570979009
30
0
41
1
10
29.2226116931615
20
-1.82354433004775
30
0
41
1
10
29.2383258191991
20
-1.84869979833889
30
0
41
1
10
29.2766074041643
20
-1.88068104743465
30
0
41
1
10
29.2992878326617
20
-1.88735953122753
30
0
41
1
10
29.325155310846
20
-1.88463015206082
30
0
0
SPLINE
5
C3
100
AcDbEntity
8
1
62
256
6
ByLayer
370
18
48
1
60
0
100
AcDbSpline
70
4
71
3
72
66
73
62
40
0
40
0
40
0
40
0
40
0.0329655023436763
40
0.0329655023436763
40
0.0715427328450367
40
0.0715427328450367
40
0.110119963346397
40
0.110119963346397
40
0.148697193847758
40
0.148697193847758
40
0.167985809098438
40
0.167985809098438
40
0.187274424349119
40
0.187274424349119
40
0.225851654850481
40
0.225851654850481
40
0.245140270101162
40
0.245140270101162
40
0.264428885351842
40
0.264428885351842
40
0.303006115853203
40
0.303006115853203
40
0.341583346354563
40
0.341583346354563
40
0.380160576855924
40
0.380160576855924
40
0.418737807357284
40
0.418737807357284
40
0.457315037858645
40
0.457315037858645
40
0.495892268360005
40
0.495892268360005
40
0.534469498861365
40
0.534469498861365
40
0.573046729362726
40
0.573046729362726
40
0.611623959864086
40
0.611623959864086
40
0.650201190365446
40
0.650201190365446
40
0.688778420866807
40
0.688778420866807
40
0.727355651368167
40
0.727355651368167
40
0.746644266618847
40
0.746644266618847
40
0.765932881869526
40
0.765932881869526
40
0.804510112370884
40
0.804510112370884
40
0.843087342872243
40
0.843087342872243
40
0.881664573373601
40
0.881664573373601
40
0.920241803874959
40
0.920241803874959
40
0.958819034376317
40
0.958819034376317
40
0.997396264877675
40
0.997396264877675
40
1
40
1
40
1
40
1
41
1
10
25.7787785617214
20
-1.44867549063736
30
0
41
1
10
25.6251192398801
20
-1.50023828131449
30
0
41
1
10
25.4711922426774
20
-1.54816267879033
30
0
41
1
10
25.1376547193976
20
-1.64188401914797
30
0
41
1
10
24.9583501690169
20
-1.68590900328095
30
0
41
1
10
24.5992119595076
20
-1.7608323950906
30
0
41
1
10
24.4194063415312
20
-1.7927047027716
30
0
41
1
10
24.0593765161504
20
-1.84207141735121
30
0
41
1
10
23.8798781754662
20
-1.86012329614545
30
0
41
1
10
23.6104514453206
20
-1.87462916592818
30
0
41
1
10
23.5205811519915
20
-1.87740322688435
30
0
41
1
10
23.3411793652801
20
-1.88043421111101
30
0
41
1
10
23.2513885075897
20
-1.88042429661107
30
0
41
1
10
22.9816530761523
20
-1.875393387955
30
0
41
1
10
22.8014933469981
20
-1.86535738435603
30
0
41
1
10
22.5323406794163
20
-1.83908295909666
30
0
41
1
10
22.4426792262771
20
-1.82840243504666
30
0
41
1
10
22.2631878305477
20
-1.80266052544192
30
0
41
1
10
22.1733728173417
20
-1.78791230549564
30
0
41
1
10
21.9038929035366
20
-1.74029109888764
30
0
41
1
10
21.7240748637869
20
-1.70226548349041
30
0
41
1
10
21.3645649731581
20
-1.61418470596689
30
0
41
1
10
21.1852670739146
20
-1.56409751447774
30
0
41
1
10
20.8266053049242
20
-1.4508755082484
30
0
41
1
10
20.6470144806309
20
-1.38853812029009
30
0
41
1
10
20.2868845002617
20
-1.25403854290411
30
0
41
1
10
20.1074878618211
20
-1.18121199558388
30
0
41
1
10
19.7484497992404
20
-1.02940465880508
30
0
41
1
10
19.5691850765776
20
-0.949438019389078
30
0
41
1
10
19.2098916505277
20
-0.781921309490258
30
0
41
1
10
19.0295588608281
20
-0.694684602873963
30
0
41
1
10
18.6701966597258
20
-0.516243198874946
30
0
41
1
10
18.4910241711804
20
-0.424576327369124
30
0
41
1
10
18.1318141599652
20
-0.239397023118841
30
0
41
1
10
17.9517871250654
20
-0.144914348650019
30
0
41
1
10
17.5920270210439
20
0.0436786429607423
30
0
41
1
10
17.4121858336695
20
0.137330931661126
30
0
41
1
10
17.053335420967
20
0.324868141376498
30
0
41
1
10
16.8737987603139
20
0.417710216402014
30
0
41
1
10
16.5135565092244
20
0.599564304727977
30
0
41
1
10
16.3338486443989
20
0.687399100405059
30
0
41
1
10
15.9745780012285
20
0.858701678407357
30
0
41
1
10
15.7948463604125
20
0.941568150401793
30
0
41
1
10
15.5255173098236
20
1.06144495148794
30
0
41
1
10
15.4355014378205
20
1.10038431538973
30
0
41
1
10
15.255503936836
20
1.1757332930224
30
0
41
1
10
15.1656058324873
20
1.21175063993161
30
0
41
1
10
14.8961237428939
20
1.31609716753786
30
0
41
1
10
14.7168662993272
20
1.3817385143943
30
0
41
1
10
14.357563083985
20
1.50106266447958
30
0
41
1
10
14.177404339149
20
1.55625464650973
30
0
41
1
10
13.8181862788494
20
1.65513888719454
30
0
41
1
10
13.6387462335059
20
1.69832416654387
30
0
41
1
10
13.2799994388848
20
1.7699095123649
30
0
41
1
10
13.1005483685688
20
1.79780886174979
30
0
41
1
10
12.7405558659567
20
1.84266159464121
30
0
41
1
10
12.5609175108819
20
1.85946596735161
30
0
41
1
10
12.2023553103473
20
1.87778653398772
30
0
41
1
10
12.0229417374773
20
1.87879311990716
30
0
41
1
10
11.8311860269689
20
1.87210117199339
30
0
41
1
10
11.8190598291835
20
1.87164874170404
30
0
41
1
10
11.8069317821695
20
1.8711669937492
30
0
0
SPLINE
5
C4
100
AcDbEntity
8
1
62
256
6
ByLayer
370
18
48
1
60
0
100
AcDbSpline
70
4
71
3
72
22
73
18
40
0
40
0
40
0
40
0
40
0.125
40
0.125
40
0.25
40
0.25
40
0.375
40
0.375
40
0.5
40
0.5
40
0.625
40
0.625
40
0.75
40
0.75
40
0.875
40
0.875
40
1
40
1
40
1
40
1
41
1
10
29.7215822312223
20
-0.452307210399823
30
0
41
1
10
29.7190627296468
20
-0.480991539050393
30
0
41
1
10
29.713287526083
20
-0.514728880355136
30
0
41
1
10
29.6962416233387
20
-0.585587704442219
30
0
41
1
10
29.6848113275392
20
-0.623482749952245
30
0
41
1
10
29.658673576977
20
-0.697173132545089
30
0
41
1
10
29.643853641676
20
-0.733417146764253
30
0
41
1
10
29.6130373310662
20
-0.800440210418998
30
0
41
1
10
29.597073292421
20
-0.831216377269726
30
0
41
1
10
29.5654413246477
20
-0.885543890957138
30
0
41
1
10
29.5496125993382
20
-0.909294110820071
30
0
41
1
10
29.5201150875701
20
-0.947260211562451
30
0
41
1
10
29.5061800085813
20
-0.961942063380093
30
0
41
1
10
29.4803281471713
20
-0.982087475269793
30
0
41
1
10
29.4688457161566
20
-0.987251624567648
30
0
41
1
10
29.4487449002515
20
-0.987429409615856
30
0
41
1
10
29.4403345651977
20
-0.98228014975976
30
0
41
1
10
29.4340354877572
20
-0.971769847077582
30
0
0
SPLINE
5
C5
100
AcDbEntity
8
1
62
256
6
ByLayer
370
18
48
1
60
0
100
AcDbSpline
70
4
71
3
72
8
73
4
40
0
40
0
40
0
40
0
40
1
40
1
40
1
40
1
41
1
10
29.965603144164
20
-0.542959020657918
30
0
41
1
10
29.9768062481891
20
-0.393626957591664
30
0
41
1
10
29.9849462988781
20
-0.244446212074564
30
0
41
1
10
29.9900173719294
20
-0.0954170767723781
30
0
0
SPLINE
5
C6
100
AcDbEntity
8
1
62
256
6
ByLayer
370
13
48
1
60
0
100
AcDbSpline
70
4
71
3
72
30
73
26
40
0
40
0
40
0
40
0
40
0.0738661565454967
40
0.0738661565454967
40
0.147732313090993
40
0.147732313090993
40
0.29546462618199
40
0.29546462618199
40
0.369330782727489
40
0.369330782727489
40
0.443196939272987
40
0.443196939272987
40
0.590929252363983
40
0.590929252363983
40
0.66479540890948
40
0.66479540890948
40
0.738661565454978
40
0.738661565454978
40
0.886393878545971
40
0.886393878545971
40
0.92332695681872
40
0.92332695681872
40
0.960260035091469
40
0.960260035091469
40
1
40
1
40
1
40
1
41
1
10
29.3251553532266
20
-1.88463015230604
30
0
41
1
10
29.1046478000472
20
-1.88754066802892
30
0
41
1
10
28.8843022695073
20
-1.8796145152194
30
0
41
1
10
28.4424170961462
20
-1.84243105450261
30
0
41
1
10
28.2222085169458
20
-1.81324833679784
30
0
41
1
10
27.5652989001613
20
-1.69650800071111
30
0
41
1
10
27.1307482550355
20
-1.57937908863238
30
0
41
1
10
26.474457330141
20
-1.35410570710931
30
0
41
1
10
26.2549654422971
20
-1.27078539857919
30
0
41
1
10
25.8128584260673
20
-1.08944386842828
30
0
41
1
10
25.5932249279499
20
-0.992586511731474
30
0
41
1
10
24.9366662573967
20
-0.688455571907582
30
0
41
1
10
24.5020264089998
20
-0.467011854456899
30
0
41
1
10
23.845097943503
20
-0.124632848919276
30
0
41
1
10
23.6248468485763
20
-0.0085487865138987
30
0
41
1
10
23.1831816528027
20
0.223412636268762
30
0
41
1
10
22.9637463615869
20
0.337923984504357
30
0
41
1
10
22.3072458722343
20
0.672581707247446
30
0
41
1
10
21.8723174138847
20
0.88434912628145
30
0
41
1
10
21.3239265543905
20
1.12060752618953
30
0
41
1
10
21.2140090336058
20
1.16642092930766
30
0
41
1
10
20.9935245139048
20
1.25488190045692
30
0
41
1
10
20.8827879367498
20
1.29759086099543
30
0
41
1
10
20.6537880042473
20
1.38192397227877
30
0
41
1
10
20.5353976828371
20
1.42330631201406
30
0
41
1
10
20.4171769657773
20
1.46224817681522
30
0
0
SPLINE
5
C7
100
AcDbEntity
8
1
62
256
6
ByLayer
370
18
48
1
60
0
100
AcDbSpline
70
4
71
3
72
14
73
10
40
0
40
0
40
0
40
0
40
0.25
40
0.25
40
0.5
40
0.5
40
0.75
40
0.75
40
1
40
1
40
1
40
1
41
1
10
29.32515530213
20
-1.88463015298046
30
0
41
1
10
29.3284622429031
20
-1.88428122493528
30
0
41
1
10
29.331174138389
20
-1.88549992128898
30
0
41
1
10
29.3350008962248
20
-1.89209609248923
30
0
41
1
10
29.3360746675946
20
-1.89752940010169
30
0
41
1
10
29.3354001988092
20
-1.91385087217103
30
0
41
1
10
29.3335620029026
20
-1.9247775419891
30
0
41
1
10
29.3268781648788
20
-1.94979333174777
30
0
41
1
10
29.3220840114453
20
-1.96369773922999
30
0
41
1
10
29.3167838846653
20
-1.97685317994981
30
0
0
SPLINE
5
C8
100
AcDbEntity
8
1
62
256
6
ByLayer
370
18
48
1
60
0
100
AcDbSpline
70
4
71
3
72
16
73
12
40
0
40
0
40
0
40
0
40
0.20397592196466
40
0.20397592196466
40
0.348026691535045
40
0.348026691535045
40
0.492077461105429
40
0.492077461105429
40
0.780179000246197
40
0.780179000246197
40
1
40
1
40
1
40
1
41
1
10
17.9407726304998
20
-1.87802777973127
30
0
41
1
10
17.7854469642645
20
-1.87695717995601
30
0
41
1
10
17.6301275146391
20
-1.87059196581421
30
0
41
1
10
17.3646611821723
20
-1.85070951602503
30
0
41
1
10
17.2546343371861
20
-1.83985683387124
30
0
41
1
10
17.0340825302472
20
-1.8129061009457
30
0
41
1
10
16.9233288279806
20
-1.79676627399749
30
0
41
1
10
16.5921745596511
20
-1.74082419324162
30
0
41
1
10
16.3728317300369
20
-1.69349536840207
30
0
41
1
10
15.9871301036037
20
-1.59427505267521
30
0
41
1
10
15.8205062072147
20
-1.54614426222406
30
0
41
1
10
15.6538574618524
20
-1.49318731778089
30
0
0
SPLINE
5
C9
100
AcDbEntity
8
1
62
256
6
ByLayer
370
13
48
1
60
0
100
AcDbSpline
70
4
71
3
72
24
73
20
40
0
40
0
40
0
40
0
40
0.127403678916414
40
0.127403678916414
40
0.178900651109841
40
0.178900651109841
40
0.230397623303267
40
0.230397623303267
40
0.33339156769012
40
0.33339156769012
40
0.539379456463825
40
0.539379456463825
40
0.642373400850677
40
0.642373400850677
40
0.745367345237528
40
0.745367345237528
40
0.951355234011228
40
0.951355234011228
40
1
40
1
40
1
40
1
41
1
10
15.6538574621098
20
-1.49318731786266
30
0
41
1
10
15.3836802436382
20
-1.40733152629366
30
0
41
1
10
15.11343771184
20
-1.30879061615721
30
0
41
1
10
14.7319160810722
20
-1.15478247979402
30
0
41
1
10
14.6218325431681
20
-1.10866166303029
30
0
41
1
10
14.4009503996044
20
-1.01312151984848
30
0
41
1
10
14.2902333913259
20
-0.963716757026077
30
0
41
1
10
13.959750004645
20
-0.812372441073109
30
0
41
1
10
13.7406367860732
20
-0.706929941069774
30
0
41
1
10
13.084604079176
20
-0.381186922551649
30
0
41
1
10
12.6489774195599
20
-0.151483107303903
30
0
41
1
10
11.9887976701753
20
0.193841163132646
30
0
41
1
10
11.7668988742955
20
0.309414710151174
30
0
41
1
10
11.3269649340898
20
0.533866155401142
30
0
41
1
10
11.1080702434112
20
0.643105527576239
30
0
41
1
10
10.4521924213751
20
0.957567628052743
30
0
41
1
10
10.0161479823504
20
1.14963511534549
30
0
41
1
10
9.47112605180672
20
1.35277919627893
30
0
41
1
10
9.3667427434448
20
1.39002017194997
30
0
41
1
10
9.26232492215675
20
1.42545950257522
30
0
0
SPLINE
5
CA
100
AcDbEntity
8
1
62
256
6
ByLayer
370
18
48
1
60
0
100
AcDbSpline
70
4
71
3
72
8
73
4
40
0
40
0
40
0
40
0
40
1
40
1
40
1
40
1
41
1
10
8.18569865812393
20
1.76344533435906
30
0
41
1
10
8.16420080285195
20
1.76871696946327
30
0
41
1
10
8.14262250976606
20
1.7738442831749
30
0
41
1
10
8.12224704444017
20
1.77973774368905
30
0
0
SPLINE
5
CB
100
AcDbEntity
8
1
62
256
6
ByLayer
370
18
48
1
60
0
100
AcDbSpline
70
4
71
3
72
12
73
8
40
0
40
0
40
0
40
0
40
0.494038574806432
40
0.494038574806432
40
0.988077149612863
40
0.988077149612863
40
1
40
1
40
1
40
1
41
1
10
8.05099549375979
20
1.82728381376046
30
0
41
1
10
8.05107026254458
20
1.87430640180361
30
0
41
1
10
8.05113442746477
20
1.90999627785189
30
0
41
1
10
8.05124834333304
20
1.95846892913752
30
0
41
1
10
8.05129693452596
20
1.97066707114459
30
0
41
1
10
8.05134159826812
20
1.97113825247533
30
0
41
1
10
8.05134264794242
20
1.97114252726712
30
0
41
1
10
8.05134369484932
20
1.97113996844371
30
0
0
SPLINE
5
CC
100
AcDbEntity
8
1
62
256
6
ByLayer
370
13
48
1
60
0
100
AcDbSpline
70
4
71
3
72
14
73
10
40
0
40
0
40
0
40
0
40
0.444479909847591
40
0.444479909847591
40
0.666719864771386
40
0.666719864771386
40
0.888959819695182
40
0.888959819695182
40
1
40
1
40
1
40
1
41
1
10
8.25050581111782
20
1.70708160968277
30
0
41
1
10
8.25057621818823
20
1.7559807011956
30
0
41
1
10
8.25063391606338
20
1.793885225167
30
0
41
1
10
8.25070842512494
20
1.83491383204427
30
0
41
1
10
8.25073123832615
20
1.84593381362362
30
0
41
1
10
8.25077385464652
20
1.86255625459484
30
0
41
1
10
8.25079372715192
20
1.86814986848825
30
0
41
1
10
8.25082149269915
20
1.87226286389367
30
0
41
1
10
8.25083043260014
20
1.87293981050891
30
0
41
1
10
8.25083912365517
20
1.87292622011785
30
0
0
SPLINE
5
CD
100
AcDbEntity
8
1
62
256
6
ByLayer
370
18
48
1
60
0
100
AcDbSpline
70
4
71
3
72
10
73
6
40
0
40
0
40
0
40
0
40
0.5
40
0.5
40
1
40
1
40
1
40
1
41
1
10
8.0519714643728
20
-0.829842616405614
30
0
41
1
10
8.07701548246013
20
-0.823716155264179
30
0
41
1
10
8.10921936704705
20
-0.825151350844379
30
0
41
1
10
8.17840764451165
20
-0.841078797519003
30
0
41
1
10
8.21517981694902
20
-0.855349270341151
30
0
41
1
10
8.251436957637
20
-0.874243984540101
30
0
0
SPLINE
5
CE
100
AcDbEntity
8
1
62
256
6
ByLayer
370
18
48
1
60
0
100
AcDbSpline
70
4
71
3
72
30
73
26
40
0
40
0
40
0
40
0
40
0.249999999999975
40
0.249999999999975
40
0.374999999999962
40
0.374999999999962
40
0.49999999999995
40
0.49999999999995
40
0.624999999999938
40
0.624999999999938
40
0.749999999999925
40
0.749999999999925
40
0.812499999999919
40
0.812499999999919
40
0.828124999999917
40
0.828124999999917
40
0.843749999999916
40
0.843749999999916
40
0.85156249999992
40
0.85156249999992
40
0.859374999999923
40
0.859374999999923
40
0.874999999999931
40
0.874999999999931
40
1
40
1
40
1
40
1
41
1
10
27.474997720692
20
0.742212822981031
30
0
41
1
10
27.622694369802
20
0.610124001420331
30
0
41
1
10
27.7782907111278
20
0.494864728779305
30
0
41
1
10
28.0239791747734
20
0.348166923873379
30
0
41
1
10
28.1073151549682
20
0.303884354870775
30
0
41
1
10
28.2745736100598
20
0.228235895243728
30
0
41
1
10
28.358829315884
20
0.19621589136969
30
0
41
1
10
28.5286571114159
20
0.144371980037988
30
0
41
1
10
28.614751703348
20
0.124470271527031
30
0
41
1
10
28.7859016324104
20
0.0999764132384655
30
0
41
1
10
28.8705425505211
20
0.0954288303941837
30
0
41
1
10
28.9958021829398
20
0.102634941097847
30
0
41
1
10
29.0370938113282
20
0.107384343030304
30
0
41
1
10
29.087850729255
20
0.116482651147464
30
0
41
1
10
29.0979563602103
20
0.118459545362754
30
0
41
1
10
29.118074493175
20
0.122733378906616
30
0
41
1
10
29.1288654264596
20
0.12387277339792
30
0
41
1
10
29.1402553725974
20
0.134716829753586
30
0
41
1
10
29.1426725965741
20
0.139967738183714
30
0
41
1
10
29.1455346554688
20
0.151328652173134
30
0
41
1
10
29.1465186643951
20
0.157251261265657
30
0
41
1
10
29.15018444459
20
0.174632446590834
30
0
41
1
10
29.1524700571182
20
0.186305231560254
30
0
41
1
10
29.1716415661444
20
0.291909719070105
30
0
41
1
10
29.1788631326336
20
0.390248998398277
30
0
41
1
10
29.1792571138237
20
0.489034863718075
30
0
0
SPLINE
5
CF
100
AcDbEntity
8
1
62
256
6
ByLayer
370
18
48
1
60
0
100
AcDbSpline
70
4
71
3
72
8
73
4
40
0
40
0
40
0
40
0
40
1
40
1
40
1
40
1
41
1
10
8.0509954937497
20
1.82728381377191
30
0
41
1
10
8.05776609219754
20
1.81720240488059
30
0
41
1
10
8.06517360538621
20
1.80756195177548
30
0
41
1
10
8.07319960532547
20
1.79845827356138
30
0
0
SPLINE
5
D0
100
AcDbEntity
8
1
62
256
6
ByLayer
370
18
48
1
60
0
100
AcDbSpline
70
4
71
3
72
8
73
4
40
0
40
0
40
0
40
0
40
1
40
1
40
1
40
1
41
1
10
29.9999509734387
20
0.0321430664599518
30
0
41
1
10
30.0000163511431
20
0.0107114192651636
30
0
41
1
10
30.0000163323687
20
-0.0107175737638556
30
0
41
1
10
29.9999509734388
20
-0.0321430664253626
30
0
0
SPLINE
5
D1
100
AcDbEntity
8
1
62
256
6
ByLayer
370
18
48
1
60
0
100
AcDbSpline
70
4
71
3
72
14
73
10
40
0
40
0
40
0
40
0
40
0.25
40
0.25
40
0.5
40
0.5
40
0.75
40
0.75
40
1
40
1
40
1
40
1
41
1
10
8.25143695791516
20
-0.874243984685194
30
0
41
1
10
8.41350367127592
20
-0.958701947221442
30
0
41
1
10
8.57610276968316
20
-1.03818177237304
30
0
41
1
10
8.90286923592606
20
-1.18719492628759
30
0
41
1
10
9.0672013103935
20
-1.25673902285942
30
0
41
1
10
9.39593052564749
20
-1.38449103336717
30
0
41
1
10
9.56063008945182
20
-1.44276117586949
30
0
41
1
10
9.89191011585879
20
-1.54881049089349
30
0
41
1
10
10.0584710786591
20
-1.59658599942759
30
0
41
1
10
10.2266485964312
20
-1.6377730724615
30
0
0
SPLINE
5
D2
100
AcDbEntity
8
1
62
256
6
ByLayer
370
18
48
1
60
0
100
AcDbSpline
70
4
71
3
72
8
73
4
40
0
40
0
40
0
40
0
40
1
40
1
40
1
40
1
41
1
10
29.4265304956721
20
1.91143410355093
30
0
41
1
10
29.3858139738772
20
1.9451782543548
30
0
41
1
10
29.3491533826743
20
1.96762204954467
30
0
41
1
10
29.3163370136135
20
1.97796229008984
30
0
0
SPLINE
5
D3
100
AcDbEntity
8
1
62
256
6
ByLayer
370
18
48
1
60
0
100
AcDbSpline
70
4
71
3
72
8
73
4
40
0
40
0
40
0
40
0
40
1
40
1
40
1
40
1
41
1
10
29.9900173719294
20
-0.0954170767723213
30
0
41
1
10
29.990618715512
20
-0.0777447393343493
30
0
41
1
10
29.9944468865944
20
-0.0554495173698513
30
0
41
1
10
29.9999509734434
20
-0.0321430664400282
30
0
0
SPLINE
5
D4
100
AcDbEntity
8
1
62
256
6
ByLayer
370
18
48
1
60
0
100
AcDbSpline
70
4
71
3
72
8
73
4
40
0
40
0
40
0
40
0
40
1
40
1
40
1
40
1
41
1
10
29.9999509734387
20
0.0321430664599518
30
0
41
1
10
29.9949110921389
20
0.0145571983556749
30
0
41
1
10
29.987184841694
20
-0.0039463051798805
30
0
41
1
10
29.9790629499812
20
-0.0172613882573955
30
0
0
SPLINE
5
D5
100
AcDbEntity
8
1
62
256
6
ByLayer
370
18
48
1
60
0
100
AcDbSpline
70
4
71
3
72
8
73
4
40
0
40
0
40
0
40
0
40
1
40
1
40
1
40
1
41
1
10
29.3167838846649
20
-1.97685317995095
30
0
41
1
10
29.3166349330605
20
-1.97722289261665
30
0
41
1
10
29.3164859760391
20
-1.97759259600102
30
0
41
1
10
29.3163370136136
20
-1.97796229008938
30
0
0
SPLINE
5
D6
100
AcDbEntity
8
1
62
256
6
ByLayer
370
18
48
1
60
0
100
AcDbSpline
70
4
71
3
72
22
73
18
40
0
40
0
40
0
40
0
40
0.125423283768658
40
0.125423283768658
40
0.250846567537316
40
0.250846567537316
40
0.376269851305974
40
0.376269851305974
40
0.501693135074632
40
0.501693135074632
40
0.62711641884329
40
0.62711641884329
40
0.752539702611949
40
0.752539702611949
40
0.877962986380607
40
0.877962986380607
40
1
40
1
40
1
40
1
41
1
10
10.2266485964326
20
-1.63777307246232
30
0
41
1
10
10.4067631957087
20
-1.68386043338361
30
0
41
1
10
10.5865610285786
20
-1.7234888803911
30
0
41
1
10
10.9451790617736
20
-1.78945818409133
30
0
41
1
10
11.1243659407322
20
-1.81530509819922
30
0
41
1
10
11.4838266501919
20
-1.85357181532578
30
0
41
1
10
11.663916932308
20
-1.86626935585124
30
0
41
1
10
12.0231491153366
20
-1.87879475954216
30
0
41
1
10
12.2025857335286
20
-1.87778330886536
30
0
41
1
10
12.5612804125489
20
-1.8594388626685
30
0
41
1
10
12.7411437520325
20
-1.84260014650869
30
0
41
1
10
13.1010259954426
20
-1.79773751888916
30
0
41
1
10
13.280458031908
20
-1.76983204374366
30
0
41
1
10
13.6392783645068
20
-1.69820390448129
30
0
41
1
10
13.8188079923325
20
-1.65498573521279
30
0
41
1
10
14.1734425467537
20
-1.55732765415181
30
0
41
1
10
14.348647100434
20
-1.50378609115799
30
0
41
1
10
14.5234855920149
20
-1.44595111369623
30
0
0
SPLINE
5
D7
100
AcDbEntity
8
1
62
256
6
ByLayer
370
18
48
1
60
0
100
AcDbSpline
70
4
71
3
72
24
73
20
40
0
40
0
40
0
40
0
40
0.0334420598997945
40
0.0334420598997945
40
0.0978792559064769
40
0.0978792559064769
40
0.226753647919837
40
0.226753647919837
40
0.355628039933198
40
0.355628039933198
40
0.484502431946558
40
0.484502431946558
40
0.613376823959919
40
0.613376823959919
40
0.742251215973279
40
0.742251215973279
40
0.871125607986639
40
0.871125607986639
40
1
40
1
40
1
40
1
41
1
10
23.2916006086709
20
1.88002639269314
30
0
41
1
10
23.3381924678071
20
1.88007855145179
30
0
41
1
10
23.3847582320959
20
1.87970038517071
30
0
41
1
10
23.5209847358775
20
1.87739168049705
30
0
41
1
10
23.6108443452841
20
1.87461430741186
30
0
41
1
10
23.8802721628136
20
1.86008945227687
30
0
41
1
10
24.059941956065
20
1.84200725767278
30
0
41
1
10
24.4198733831816
20
1.79262725181204
30
0
41
1
10
24.5995139810312
20
1.76077543304115
30
0
41
1
10
24.9585795999926
20
1.68585508478716
30
0
41
1
10
25.1379006761358
20
1.64182228965393
30
0
41
1
10
25.4977488619397
20
1.54069308854457
30
0
41
1
10
25.6777854218798
20
1.48370060515705
30
0
41
1
10
26.0370098442139
20
1.3602448218048
30
0
41
1
10
26.2166558381679
20
1.29433615170672
30
0
41
1
10
26.5758679688966
20
1.15056240834304
30
0
41
1
10
26.7560534481243
20
1.07319101347358
30
0
41
1
10
27.1158811487909
20
0.912533807559129
30
0
41
1
10
27.2953423516365
20
0.828597278380386
30
0
41
1
10
27.4749977206919
20
0.742212822981031
30
0
0
SPLINE
5
D8
100
AcDbEntity
8
1
62
256
6
ByLayer
370
18
48
1
60
0
100
AcDbSpline
70
4
71
3
72
24
73
20
40
0
40
0
40
0
40
0
40
0.0670144515090588
40
0.0670144515090588
40
0.124242300905469
40
0.124242300905469
40
0.181470150301879
40
0.181470150301879
40
0.41038154788752
40
0.41038154788752
40
0.524837246680342
40
0.524837246680342
40
0.639292945473163
40
0.639292945473163
40
0.868204343058809
40
0.868204343058809
40
0.982660041851633
40
0.982660041851633
40
1
40
1
40
1
40
1
41
1
10
20.3607512549159
20
1.4850042141619
30
0
41
1
10
20.4896512580728
20
1.43802860152798
30
0
41
1
10
20.6187662345418
20
1.38808856883358
30
0
41
1
10
20.8588805302126
20
1.29031658219765
30
0
41
1
10
20.9698864196973
20
1.24318187825057
30
0
41
1
10
21.1907717286883
20
1.14604122480529
30
0
41
1
10
21.3008762329614
20
1.09593768263878
30
0
41
1
10
21.8501400743337
20
0.838509942391397
30
0
41
1
10
22.2854784449601
20
0.610403547574322
30
0
41
1
10
22.9433077496541
20
0.253697656780446
30
0
41
1
10
23.1632634538183
20
0.132196256674575
30
0
41
1
10
23.6062436309036
20
-0.113069449715511
30
0
41
1
10
23.8266131047399
20
-0.234880099457939
30
0
41
1
10
24.4844666520521
20
-0.592629277358867
30
0
41
1
10
24.9195695149768
20
-0.821626974201905
30
0
41
1
10
25.577509426925
20
-1.13261552774705
30
0
41
1
10
25.7980167972047
20
-1.231168306071
30
0
41
1
10
26.0529897570009
20
-1.33632959436196
30
0
41
1
10
26.0864978930231
20
-1.34997602394725
30
0
41
1
10
26.119971400826
20
-1.36343029920542
30
0
0
SPLINE
5
D9
100
AcDbEntity
8
1
62
256
6
ByLayer
370
13
48
1
60
0
100
AcDbSpline
70
4
71
3
72
14
73
10
40
0
40
0
40
0
40
0
40
0.175002697422937
40
0.175002697422937
40
0.587501348711473
40
0.587501348711473
40
0.793750674355737
40
0.793750674355737
40
1
40
1
40
1
40
1
41
1
10
26.1199714006348
20
-1.36343029912859
30
0
41
1
10
26.3074461612744
20
-1.43878353215644
30
0
41
1
10
26.4938347131021
20
-1.50810931912596
30
0
41
1
10
27.1178363350715
20
-1.71893930750431
30
0
41
1
10
27.5527984295201
20
-1.83072578067632
30
0
41
1
10
28.2112214875666
20
-1.93496046417681
30
0
41
1
10
28.432259505004
20
-1.95924360895907
30
0
41
1
10
28.8750748724199
20
-1.98512272425097
30
0
41
1
10
29.0958309035027
20
-1.98672091779037
30
0
41
1
10
29.3167838846629
20
-1.97685317994987
30
0
0
SPLINE
5
DA
100
AcDbEntity
8
1
62
256
6
ByLayer
370
18
48
1
60
0
100
AcDbSpline
70
4
71
3
72
8
73
4
40
0
40
0
40
0
40
0
40
1
40
1
40
1
40
1
41
1
10
29.3163370136136
20
1.97796229008946
30
0
41
1
10
29.2196075102875
20
1.98224229673619
30
0
41
1
10
29.1230066894975
20
1.98433611444594
30
0
41
1
10
29.0264679030948
20
1.98426034720313
30
0
0
SPLINE
5
DB
100
AcDbEntity
8
1
62
256
6
ByLayer
370
18
48
1
60
0
100
AcDbSpline
70
4
71
3
72
38
73
34
40
0
40
0
40
0
40
0
40
0.0135023426025295
40
0.0135023426025295
40
0.07515844618987
40
0.07515844618987
40
0.105986497983541
40
0.105986497983541
40
0.136814549777212
40
0.136814549777212
40
0.260126756951897
40
0.260126756951897
40
0.321782860539239
40
0.321782860539239
40
0.383438964126581
40
0.383438964126581
40
0.506751171301265
40
0.506751171301265
40
0.568407274888607
40
0.568407274888607
40
0.599235326682277
40
0.599235326682277
40
0.630063378475947
40
0.630063378475947
40
0.753375585650629
40
0.753375585650629
40
0.815031689237971
40
0.815031689237971
40
0.845859741031642
40
0.845859741031642
40
0.876687792825313
40
0.876687792825313
40
1
40
1
40
1
40
1
41
1
10
18.8996179997214
20
-1.88148846160311
30
0
41
1
10
18.8516678789463
20
-1.8896281138866
30
0
41
1
10
18.8037201920498
20
-1.8972634995479
30
0
41
1
10
18.5367956049682
20
-1.93693158162799
30
0
41
1
10
18.3175947295589
20
-1.95878265044689
30
0
41
1
10
17.9872064808032
20
-1.97487468187751
30
0
41
1
10
17.8768180139972
20
-1.97745898006215
30
0
41
1
10
17.655319333814
20
-1.97694735260566
30
0
41
1
10
17.5441438270358
20
-1.97382867096002
30
0
41
1
10
16.9912788953147
20
-1.94421676081282
30
0
41
1
10
16.5542183641911
20
-1.87587889529021
30
0
41
1
10
15.8969198502304
20
-1.71307422524319
30
0
41
1
10
15.6773836320841
20
-1.64887287623068
30
0
41
1
10
15.2358740952293
20
-1.50183166006332
30
0
41
1
10
15.0131562634724
20
-1.41839834222875
30
0
41
1
10
14.3509440402916
20
-1.14757873968
30
0
41
1
10
13.9142047287756
20
-0.939014054314129
30
0
41
1
10
13.2562065420226
20
-0.600605984764144
30
0
41
1
10
13.0364345061693
20
-0.48346439358275
30
0
41
1
10
12.7046720878763
20
-0.303674841072365
30
0
41
1
10
12.593465175965
20
-0.242899751121229
30
0
41
1
10
12.3717566939658
20
-0.121222946345171
30
0
41
1
10
12.2612788968682
20
-0.0603399383505234
30
0
41
1
10
11.7102519126374
20
0.243355207272828
30
0
41
1
10
11.2738425838774
20
0.484080120650248
30
0
41
1
10
10.6150469191659
20
0.82234199698172
30
0
41
1
10
10.39479176322
20
0.931371786845546
30
0
41
1
10
10.0622496933172
20
1.08720638706157
30
0
41
1
10
9.95102132135088
20
1.13783908632885
30
0
41
1
10
9.72961079783872
20
1.23522838542078
30
0
41
1
10
9.61917905148363
20
1.28210934398496
30
0
41
1
10
9.06779947191376
20
1.50671711799078
30
0
41
1
10
8.62895486086995
20
1.65475147029309
30
0
41
1
10
8.18569865814953
20
1.76344533435028
30
0
0
SPLINE
5
DC
100
AcDbEntity
8
1
62
256
6
ByLayer
370
18
48
1
60
0
100
AcDbSpline
70
4
71
3
72
10
73
6
40
0
40
0
40
0
40
0
40
0.5
40
0.5
40
1
40
1
40
1
40
1
41
1
10
8.12224704443986
20
1.77973774368877
30
0
41
1
10
8.10228113636711
20
1.78551274263847
30
0
41
1
10
8.08485586970173
20
1.79273235494276
30
0
41
1
10
8.05928196772066
20
1.80905398032979
30
0
41
1
10
8.05098104556498
20
1.81819725006164
30
0
41
1
10
8.0509954937576
20
1.82728381376018
30
0
0
SPLINE
5
DD
100
AcDbEntity
8
1
62
256
6
ByLayer
370
18
48
1
60
0
100
AcDbSpline
70
4
71
3
72
10
73
6
40
0
40
0
40
0
40
0
40
0.5
40
0.5
40
1
40
1
40
1
40
1
41
1
10
29.426530495672
20
1.91143410355122
30
0
41
1
10
29.5104929283276
20
1.6809817793642
30
0
41
1
10
29.5979144805731
20
1.45187206565359
30
0
41
1
10
29.7781040626485
20
0.995724001732185
30
0
41
1
10
29.8710592909973
20
0.768556774479379
30
0
41
1
10
29.9656031441653
20
0.542959020654706
30
0
0
SPLINE
5
DE
100
AcDbEntity
8
1
62
256
6
ByLayer
370
18
48
1
60
0
100
AcDbSpline
70
4
71
3
72
8
73
4
40
0
40
0
40
0
40
0
40
1
40
1
40
1
40
1
41
1
10
29.9656031441639
20
0.542959020658571
30
0
41
1
10
29.9768122930967
20
0.393546381840736
30
0
41
1
10
29.9849490339095
20
0.244365834733685
30
0
41
1
10
29.9900173719294
20
0.0954170767723497
30
0
0
SPLINE
5
DF
100
AcDbEntity
8
1
62
256
6
ByLayer
370
18
48
1
60
0
100
AcDbSpline
70
4
71
3
72
8
73
4
40
0
40
0
40
0
40
0
40
1
40
1
40
1
40
1
41
1
10
29.4265304956721
20
-1.91143410355093
30
0
41
1
10
29.3858139738773
20
-1.9451782543548
30
0
41
1
10
29.3491533826743
20
-1.96762204954467
30
0
41
1
10
29.3163370136135
20
-1.97796229008984
30
0
0
SPLINE
5
E0
100
AcDbEntity
8
1
62
256
6
ByLayer
370
18
48
1
60
0
100
AcDbSpline
70
4
71
3
72
10
73
6
40
0
40
0
40
0
40
0
40
0.5
40
0.5
40
1
40
1
40
1
40
1
41
1
10
29.4265304956721
20
-1.91143410355093
30
0
41
1
10
29.5109758274074
20
-1.67965636260618
30
0
41
1
10
29.5985561398182
20
-1.45021282722143
30
0
41
1
10
29.7786221242225
20
-0.994447644303762
30
0
41
1
10
29.8712085853504
20
-0.76820053269762
30
0
41
1
10
29.965603144164
20
-0.542959020657918
30
0
0
SPLINE
5
E1
100
AcDbEntity
8
1
62
256
6
ByLayer
370
18
48
1
60
0
100
AcDbSpline
70
4
71
3
72
8
73
4
40
0
40
0
40
0
40
0
40
1
40
1
40
1
40
1
41
1
10
29.4340354877572
20
-0.971769847077553
30
0
41
1
10
29.345304586683
20
-1.13809582932797
30
0
41
1
10
29.2586885122161
20
-1.3063474740276
30
0
41
1
10
29.1742101069142
20
-1.47654558054415
30
0
0
SPLINE
5
E2
100
AcDbEntity
8
1
62
256
6
ByLayer
370
18
48
1
60
0
100
AcDbSpline
70
4
71
3
72
24
73
20
40
0
40
0
40
0
40
0
40
0.0624999999999994
40
0.0624999999999994
40
0.124999999999999
40
0.124999999999999
40
0.187499999999998
40
0.187499999999998
40
0.249999999999998
40
0.249999999999998
40
0.374999999999996
40
0.374999999999996
40
0.499999999999995
40
0.499999999999995
40
0.624999999999994
40
0.624999999999994
40
0.749999999999992
40
0.749999999999992
40
1
40
1
40
1
40
1
41
1
10
27.474997720692
20
0.742212822980861
30
0
41
1
10
27.4683613174328
20
0.682814056742217
30
0
41
1
10
27.4661812170064
20
0.621965060052759
30
0
41
1
10
27.471019942513
20
0.497273427412352
30
0
41
1
10
27.4781678475501
20
0.433347093335413
30
0
41
1
10
27.5008431211343
20
0.30766971341356
30
0
41
1
10
27.5163646271853
20
0.245259015215311
30
0
41
1
10
27.5551124681098
20
0.121225789544695
30
0
41
1
10
27.5785114167073
20
0.0593374517919187
30
0
41
1
10
27.6570271538892
20
-0.119729748440648
30
0
41
1
10
27.7208104251436
20
-0.232285722514547
30
0
41
1
10
27.8660600328179
20
-0.446851995235619
30
0
41
1
10
27.9457034901831
20
-0.546104368331243
30
0
41
1
10
28.113718435123
20
-0.731145406163591
30
0
41
1
10
28.2024050794951
20
-0.817256646203987
30
0
41
1
10
28.3873778175445
20
-0.979069807943944
30
0
41
1
10
28.4823951449425
20
-1.05361610467855
30
0
41
1
10
28.7714260391483
20
-1.26040290453108
30
0
41
1
10
28.9703183477346
20
-1.37702795845584
30
0
41
1
10
29.1742101069142
20
-1.47654558054413
30
0
0
SPLINE
5
E3
100
AcDbEntity
8
1
62
256
6
ByLayer
370
18
48
1
60
0
100
AcDbSpline
70
4
71
3
72
42
73
38
40
0
40
0
40
0
40
0
40
0.0860508774458131
40
0.0860508774458131
40
0.172101754891626
40
0.172101754891626
40
0.258152632337439
40
0.258152632337439
40
0.344203509783252
40
0.344203509783252
40
0.38722894850616
40
0.38722894850616
40
0.430254387229068
40
0.430254387229068
40
0.516305264674881
40
0.516305264674881
40
0.559330703397787
40
0.559330703397787
40
0.602356142120694
40
0.602356142120694
40
0.6453815808436
40
0.6453815808436
40
0.688407019566507
40
0.688407019566507
40
0.731432458289413
40
0.731432458289413
40
0.77445789701232
40
0.77445789701232
40
0.817483335735226
40
0.817483335735226
40
0.860508774458133
40
0.860508774458133
40
0.946559651903948
40
0.946559651903948
40
0.989585090626855
40
0.989585090626855
40
1
40
1
40
1
40
1
41
1
10
10.2266485964324
20
0.726728175876161
30
0
41
1
10
10.427906900034
20
0.622347859063495
30
0
41
1
10
10.6286941425241
20
0.516814185434924
30
0
41
1
10
11.0286909733023
20
0.302313302384334
30
0
41
1
10
11.2271948591268
20
0.192038911829854
30
0
41
1
10
11.6256846912641
20
-0.0263012089542372
30
0
41
1
10
11.8244046714263
20
-0.136705999399169
30
0
41
1
10
12.223413589603
20
-0.355140330481845
30
0
41
1
10
12.424072690775
20
-0.462475188824186
30
0
41
1
10
12.7255766846808
20
-0.622939352554369
30
0
41
1
10
12.8265614354734
20
-0.6756217000314
30
0
41
1
10
13.02769177825
20
-0.778409977539013
30
0
41
1
10
13.1280576275027
20
-0.828662433165903
30
0
41
1
10
13.4279862118413
20
-0.97700997738869
30
0
41
1
10
13.6268852971986
20
-1.07175336692262
30
0
41
1
10
13.9257204352461
20
-1.20457761225208
30
0
41
1
10
14.0253219086432
20
-1.24746263846259
30
0
41
1
10
14.2240443718463
20
-1.33105106526722
30
0
41
1
10
14.3234083001307
20
-1.37139612907922
30
0
41
1
10
14.5227674236818
20
-1.44837511409898
30
0
41
1
10
14.6227117537605
20
-1.48509297548125
30
0
41
1
10
14.8226842194257
20
-1.5555171668698
30
0
41
1
10
14.9227156319337
20
-1.58920319991412
30
0
41
1
10
15.1234119196741
20
-1.65281710777222
30
0
41
1
10
15.2243283967002
20
-1.6827705339546
30
0
41
1
10
15.4259226070097
20
-1.73831307320162
30
0
41
1
10
15.5264678075669
20
-1.76392957240708
30
0
41
1
10
15.7267097697446
20
-1.81117999151343
30
0
41
1
10
15.8263467501014
20
-1.83282144620213
30
0
41
1
10
16.0258390545648
20
-1.87133254290043
30
0
41
1
10
16.1255888487007
20
-1.88830970441433
30
0
41
1
10
16.4244058535857
20
-1.93277003327049
30
0
41
1
10
16.6226836040622
20
-1.95379158294224
30
0
41
1
10
16.9214472263274
20
-1.97138798216432
30
0
41
1
10
17.0212325788484
20
-1.97497922043598
30
0
41
1
10
17.1452115914325
20
-1.97661414873392
30
0
41
1
10
17.1693656674198
20
-1.97679762941266
30
0
41
1
10
17.1935199324643
20
-1.97684550112101
30
0
0
SPLINE
5
E4
100
AcDbEntity
8
1
62
256
6
ByLayer
370
18
48
1
60
0
100
AcDbSpline
70
4
71
3
72
22
73
18
40
0
40
0
40
0
40
0
40
0.0143705075883141
40
0.0143705075883141
40
0.178642089656925
40
0.178642089656925
40
0.342913671725537
40
0.342913671725537
40
0.507185253794148
40
0.507185253794148
40
0.589321044828454
40
0.589321044828454
40
0.67145683586276
40
0.67145683586276
40
0.83572841793138
40
0.83572841793138
40
1
40
1
40
1
40
1
41
1
10
25.7806292559653
20
1.455743192456
30
0
41
1
10
25.7981145831347
20
1.46233047745676
30
0
41
1
10
25.815587372883
20
1.4688675954508
30
0
41
1
10
26.032623586097
20
1.5495105685136
30
0
41
1
10
26.2317151608951
20
1.61611173705197
30
0
41
1
10
26.6296799617472
20
1.73383131370701
30
0
41
1
10
26.8278313464068
20
1.78550830981408
30
0
41
1
10
27.2266659091509
20
1.87087830894379
30
0
41
1
10
27.4260866239473
20
1.90554338098309
30
0
41
1
10
27.7273284979864
20
1.94381883041331
30
0
41
1
10
27.8283627340198
20
1.95429783909526
30
0
41
1
10
28.02966429412
20
1.97058044474053
30
0
41
1
10
28.1299226269471
20
1.97642887542793
30
0
41
1
10
28.429632821101
20
1.98697534306643
30
0
41
1
10
28.629516497324
20
1.98464408294626
30
0
41
1
10
29.0278635256036
20
1.96170085138451
30
0
41
1
10
29.226702496572
20
1.94094531993113
30
0
41
1
10
29.4265304956721
20
1.91143410355093
30
0
0
SPLINE
5
E5
100
AcDbEntity
8
1
62
256
6
ByLayer
370
18
48
1
60
0
100
AcDbSpline
70
4
71
3
72
10
73
6
40
0
40
0
40
0
40
0
40
0.5
40
0.5
40
1
40
1
40
1
40
1
41
1
10
29.2696136209207
20
0.551449906936682
30
0
41
1
10
29.3857711884929
20
0.549083063218973
30
0
41
1
10
29.5019417146889
20
0.546638808263737
30
0
41
1
10
29.7340575983668
20
0.543095394033088
30
0
41
1
10
29.8498519337317
20
0.542898399156684
30
0
41
1
10
29.9656031441728
20
0.542959020657889
30
0
0
SPLINE
5
E6
100
AcDbEntity
8
1
62
256
6
ByLayer
370
18
48
1
60
0
100
AcDbSpline
70
4
71
3
72
74
73
70
40
0
40
0
40
0
40
0
40
0.0144346186171174
40
0.0144346186171174
40
0.035978508973767
40
0.035978508973767
40
0.0575223993304165
40
0.0575223993304165
40
0.0790662896870661
40
0.0790662896870661
40
0.100610180043716
40
0.100610180043716
40
0.122154070400365
40
0.122154070400365
40
0.165241851113665
40
0.165241851113665
40
0.186785741470316
40
0.186785741470316
40
0.208329631826966
40
0.208329631826966
40
0.251417412540265
40
0.251417412540265
40
0.294505193253564
40
0.294505193253564
40
0.337592973966863
40
0.337592973966863
40
0.380680754680162
40
0.380680754680162
40
0.402224645036812
40
0.402224645036812
40
0.423768535393462
40
0.423768535393462
40
0.466856316106764
40
0.466856316106764
40
0.509944096820065
40
0.509944096820065
40
0.531487987176716
40
0.531487987176716
40
0.553031877533366
40
0.553031877533366
40
0.574575767890017
40
0.574575767890017
40
0.596119658246668
40
0.596119658246668
40
0.63920743895997
40
0.63920743895997
40
0.660751329316621
40
0.660751329316621
40
0.682295219673272
40
0.682295219673272
40
0.725383000386572
40
0.725383000386572
40
0.746926890743222
40
0.746926890743222
40
0.768470781099872
40
0.768470781099872
40
0.811558561813173
40
0.811558561813173
40
0.854646342526473
40
0.854646342526473
40
0.897734123239772
40
0.897734123239772
40
0.940821903953071
40
0.940821903953071
40
0.962365794309719
40
0.962365794309719
40
0.983909684666368
40
0.983909684666368
40
1
40
1
40
1
40
1
41
1
10
14.5218461705672
20
1.44741987869409
30
0
41
1
10
14.5887332767663
20
1.47244421160909
30
0
41
1
10
14.6557062263301
20
1.4967126204323
30
0
41
1
10
14.8226842194256
20
1.55551716686975
30
0
41
1
10
14.9227156319335
20
1.58920319991407
30
0
41
1
10
15.123411919674
20
1.65281710777216
30
0
41
1
10
15.2243283967
20
1.68277053395454
30
0
41
1
10
15.4259226070095
20
1.7383130732016
30
0
41
1
10
15.5264678075667
20
1.76392957240705
30
0
41
1
10
15.7267097697444
20
1.8111799915134
30
0
41
1
10
15.8263467501012
20
1.83282144620208
30
0
41
1
10
16.0258390545646
20
1.87133254290038
30
0
41
1
10
16.1255888487005
20
1.8883097044143
30
0
41
1
10
16.4244058535855
20
1.93277003327049
30
0
41
1
10
16.622683604062
20
1.95379158294222
30
0
41
1
10
16.9214472263272
20
1.97138798216429
30
0
41
1
10
17.0212325788482
20
1.97497922043598
30
0
41
1
10
17.2208664359958
20
1.97761181957901
30
0
41
1
10
17.3205466971697
20
1.97662164070221
30
0
41
1
10
17.6209112420424
20
1.9666341790157
30
0
41
1
10
17.8235657282692
20
1.95067900080599
30
0
41
1
10
18.2246308251204
20
1.90035226586295
30
0
41
1
10
18.4243116584902
20
1.86632539582556
30
0
41
1
10
18.8229495712443
20
1.78175789133078
30
0
41
1
10
19.0211060590586
20
1.73049051055983
30
0
41
1
10
19.4193396953088
20
1.61371314731994
30
0
41
1
10
19.618190589779
20
1.54706441854776
30
0
41
1
10
19.9180126870401
20
1.43653845840743
30
0
41
1
10
20.0182858571947
20
1.39805316033127
30
0
41
1
10
20.2194144395433
20
1.31767654220482
30
0
41
1
10
20.3204194281721
20
1.27557820501338
30
0
41
1
10
20.6216566445191
20
1.14437621382757
30
0
41
1
10
20.8220818441504
20
1.05290028747825
30
0
41
1
10
21.220696483575
20
0.859948610481894
30
0
41
1
10
21.4191690463688
20
0.758857255926472
30
0
41
1
10
21.717714712515
20
0.603923815349759
30
0
41
1
10
21.8172771221217
20
0.551581278895185
30
0
41
1
10
22.0160524727601
20
0.444672281734086
30
0
41
1
10
22.1154796753919
20
0.39048039447232
30
0
41
1
10
22.3150982460407
20
0.281882880330358
30
0
41
1
10
22.4152307868812
20
0.227378771121408
30
0
41
1
10
22.615707313849
20
0.117121896120182
30
0
41
1
10
22.7160487057236
20
0.0613549545665535
30
0
41
1
10
23.0182022640596
20
-0.106350923728769
30
0
41
1
10
23.2197314050393
20
-0.216778024736101
30
0
41
1
10
23.5210778851131
20
-0.381410239529942
30
0
41
1
10
23.6212603162703
20
-0.436356752010795
30
0
41
1
10
23.8223249367649
20
-0.544193947801205
30
0
41
1
10
23.9230968416726
20
-0.597286296730147
30
0
41
1
10
24.2256596840905
20
-0.754913917485766
30
0
41
1
10
24.4263968074617
20
-0.857824160443698
30
0
41
1
10
24.7280052701435
20
-1.00375482854216
30
0
41
1
10
24.8286377216219
20
-1.05109638556732
30
0
41
1
10
25.0297387779224
20
-1.14371729757283
30
0
41
1
10
25.1300447112189
20
-1.18922264768438
30
0
41
1
10
25.4320962350369
20
-1.320515523913
30
0
41
1
10
25.6334692526546
20
-1.40119894953062
30
0
41
1
10
26.0326235860965
20
-1.54951056851343
30
0
41
1
10
26.2317151608946
20
-1.6161117370518
30
0
41
1
10
26.6296799617467
20
-1.73383131370687
30
0
41
1
10
26.8278313464063
20
-1.78550830981394
30
0
41
1
10
27.2266659091504
20
-1.8708783089437
30
0
41
1
10
27.4260866239467
20
-1.905543380983
30
0
41
1
10
27.7273284979858
20
-1.94381883041325
30
0
41
1
10
27.8283627340193
20
-1.9542978390952
30
0
41
1
10
28.0296642941195
20
-1.97058044474051
30
0
41
1
10
28.1299226269466
20
-1.9764288754279
30
0
41
1
10
28.3044400873114
20
-1.98256995031957
30
0
41
1
10
28.3790648706155
20
-1.98388996479721
30
0
41
1
10
28.4536593894977
20
-1.9839159626784
30
0
0
SPLINE
5
E7
100
AcDbEntity
8
1
62
256
6
ByLayer
370
18
48
1
60
0
100
AcDbSpline
70
4
71
3
72
12
73
8
40
0
40
0
40
0
40
0
40
0.249999999999927
40
0.249999999999927
40
0.499999999999855
40
0.499999999999855
40
1
40
1
40
1
40
1
41
1
10
29.1792571138238
20
0.489034863718075
30
0
41
1
10
29.1792966243379
20
0.498941631920189
30
0
41
1
10
29.1821132379212
20
0.508813993063171
30
0
41
1
10
29.1929878904779
20
0.525814734590767
30
0
41
1
10
29.2010233279279
20
0.532926525421203
30
0
41
1
10
29.2278950144847
20
0.548439716586927
30
0
41
1
10
29.2489743789678
20
0.551870455172775
30
0
41
1
10
29.2696136209207
20
0.551449906936654
30
0
0
SPLINE
5
E8
100
AcDbEntity
8
1
62
256
6
ByLayer
370
18
48
1
60
0
100
AcDbSpline
70
4
71
3
72
17
73
13
40
0
40
0
40
0
40
0
40
0.131202116279249
40
0.218089866283161
40
0.275042918486848
40
0.332642573837846
40
0.521267826277602
40
0.609206216779084
40
0.693558738773694
40
0.768921380037662
40
0.874717343706128
40
1
40
1
40
1
40
1
41
1
10
17.9548097011677
20
-1.8782448135631
30
0
41
1
10
18.1884456362156
20
-1.87825647885143
30
0
41
1
10
18.5768235933977
20
-1.87843932360406
30
0
41
1
10
19.0666659670773
20
-1.87899337120277
30
0
41
1
10
19.4254389425645
20
-1.87958795239487
30
0
41
1
10
19.9654069658677
20
-1.87862634157116
30
0
41
1
10
20.5605603851168
20
-1.87944856054082
30
0
41
1
10
21.2033599645889
20
-1.88075966596011
30
0
41
1
10
21.644434651975
20
-1.87938603536892
30
0
41
1
10
22.1173142810092
20
-1.87896957851655
30
0
41
1
10
22.6630876252112
20
-1.88244549718519
30
0
41
1
10
23.0746410089401
20
-1.88135977621275
30
0
41
1
10
23.2977706422158
20
-1.88037504870687
30
0
0
SPLINE
5
E9
100
AcDbEntity
8
1
62
256
6
ByLayer
370
18
48
1
60
0
100
AcDbSpline
70
4
71
3
72
15
73
11
40
0
40
0
40
0
40
0
40
0.171060933814101
40
0.307455171849984
40
0.399796638533139
40
0.497191463504943
40
0.593866221977768
40
0.686667668039164
40
0.826747673339122
40
1
40
1
40
1
40
1
41
1
10
12.0427404724808
20
1.87649632092805
30
0
41
1
10
11.8265576714474
20
1.8753249124176
30
0
41
1
10
11.4379969069764
20
1.87389111754953
30
0
41
1
10
10.932567144996
20
1.87560902001698
30
0
41
1
10
10.5204691584769
20
1.87520971248193
30
0
41
1
10
10.1584017609512
20
1.87511556425909
30
0
41
1
10
9.79578309416303
20
1.87342998341268
30
0
41
1
10
9.37919243409664
20
1.87331511554228
30
0
41
1
10
8.8658450907173
20
1.87420687758035
30
0
41
1
10
8.46978261593765
20
1.87335011302056
30
0
41
1
10
8.25078716763772
20
1.87265131516392
30
0
0
SPLINE
5
EA
100
AcDbEntity
8
1
62
256
6
ByLayer
370
18
48
1
60
0
100
AcDbSpline
70
4
71
2
72
6
73
3
40
0
40
0
40
0
40
1
40
1
40
1
41
1
10
28.9999664979084
20
-1.88197317932881
30
0
41
1
10
29.1474982011649
20
-1.88261005400653
30
0
41
1
10
29.2952220217205
20
-1.8831788493263
30
0
0
SPLINE
5
EB
100
AcDbEntity
8
1
62
256
6
ByLayer
370
18
48
1
60
0
100
AcDbSpline
70
4
71
3
72
18
73
14
40
0
40
0
40
0
40
0
40
0.118941184828815
40
0.22828549833099
40
0.30010491647356
40
0.364736070930133
40
0.433020544848789
40
0.502689790646565
40
0.572355754661234
40
0.812987255300121
40
0.868396794442549
40
0.944693990895003
40
1
40
1
40
1
40
1
41
1
10
23.2945210400852
20
1.88035316814006
30
0
41
1
10
23.1199239840763
20
1.88082793619307
30
0
41
1
10
22.7848030884104
20
1.88117905536004
30
0
41
1
10
22.3441194194037
20
1.88111025520323
30
0
41
1
10
21.9832938308376
20
1.87893733215037
30
0
41
1
10
21.6827454189793
20
1.87949126707392
30
0
41
1
10
21.385289796682
20
1.87998531502362
30
0
41
1
10
21.0804494807918
20
1.88072835289273
30
0
41
1
10
20.522553657157
20
1.87918912203278
30
0
41
1
10
19.9856055756088
20
1.8786503390393
30
0
41
1
10
19.4388947090294
20
1.87956884408925
30
0
41
1
10
19.1643546927393
20
1.87914712872512
30
0
41
1
10
18.9711302715465
20
1.87890110148248
30
0
41
1
10
18.8899277801107
20
1.87880815248786
30
0
0
SPLINE
5
EC
100
AcDbEntity
8
1
62
256
6
ByLayer
370
18
48
1
60
0
100
AcDbSpline
70
4
71
3
72
16
73
12
40
0
40
0
40
0
40
0
40
0.127390348173406
40
0.247774786366486
40
0.337054690098164
40
0.423845093943448
40
0.509190102325891
40
0.606563307699243
40
0.703820263515189
40
0.844516563661884
40
1
40
1
40
1
40
1
41
1
10
8.25076854686117
20
-1.87271849263195
30
0
41
1
10
8.41190942009115
20
-1.87331119569407
30
0
41
1
10
8.7253236899856
20
-1.87407652093941
30
0
41
1
10
9.15171492824763
20
-1.87371381075039
30
0
41
1
10
9.52664290525533
20
-1.87321167781485
30
0
41
1
10
9.85733201567848
20
-1.87377086549199
30
0
41
1
10
10.1982561146596
20
-1.87512761521751
30
0
41
1
10
10.5524206159894
20
-1.87527206027295
30
0
41
1
10
10.9766033758077
20
-1.87554780713248
30
0
41
1
10
11.4742856381742
20
-1.87396143353317
30
0
41
1
10
11.84893825787
20
-1.87539458709921
30
0
41
1
10
12.0456156878435
20
-1.87647898996403
30
0
0
LINE
5
7B
100
AcDbEntity
8
SK1
62
256
6
ByLayer
370
18
48
1
60
0
100
AcDbLine
10
-35.65
20
2.415
30
0
11
-35.65
21
2.401542
31
0
39
0
210
0
220
0
230
1
0
LINE
5
7D
100
AcDbEntity
8
SK1
62
256
6
ByLayer
370
18
48
1
60
0
100
AcDbLine
10
-35.065
20
3
30
0
11
-35.065
21
-3
31
0
39
0
210
0
220
0
230
1
0
LINE
5
7E
100
AcDbEntity
8
SK1
62
256
6
ByLayer
370
18
48
1
60
0
100
AcDbLine
10
0
20
-3
30
0
11
0
21
3
31
0
39
0
210
0
220
0
230
1
0
LINE
5
7F
100
AcDbEntity
8
SK1
62
256
6
ByLayer
370
13
48
1
60
0
100
AcDbLine
10
-35.75
20
-2.035057
30
0
11
-35.75
21
-2.284301
31
0
39
0
210
0
220
0
230
1
0
LINE
5
80
100
AcDbEntity
8
SK1
62
256
6
ByLayer
370
18
48
1
60
0
100
AcDbLine
10
-36
20
2.021843
30
0
11
-36
21
-1.772665
31
0
39
0
210
0
220
0
230
1
0
LINE
5
81
100
AcDbEntity
8
SK1
62
256
6
ByLayer
370
18
48
1
60
0
100
AcDbLine
10
-36
20
-1.772651
30
0
11
-36
21
-2.021843
31
0
39
0
210
0
220
0
230
1
0
LINE
5
82
100
AcDbEntity
8
SK1
62
256
6
ByLayer
370
18
48
1
60
0
100
AcDbLine
10
-35.65
20
-2.415
30
0
11
-35.65
21
-2.185588
31
0
39
0
210
0
220
0
230
1
0
LINE
5
83
100
AcDbEntity
8
1
62
256
6
ByLayer
370
13
48
1
60
0
100
AcDbLine
10
29.179257
20
0.489035
30
0
11
29.979063
21
-0.017261
31
0
39
0
210
0
220
0
230
1
0
LINE
5
84
100
AcDbEntity
8
1
62
256
6
ByLayer
370
13
48
1
60
0
100
AcDbLine
10
0.748074
20
2.483522
30
0
11
0.748074
21
-2.483522
31
0
39
0
210
0
220
0
230
1
0
LINE
5
85
100
AcDbEntity
8
1
62
256
6
ByLayer
370
18
48
1
60
0
100
AcDbLine
10
0
20
-3
30
0
11
0
21
3
31
0
39
0
210
0
220
0
230
1
0
LINE
5
86
100
AcDbEntity
8
1
62
256
6
ByLayer
370
13
48
1
60
0
100
AcDbLine
10
29.269614
20
0.55145
30
0
11
29.990017
21
0.095417
31
0
39
0
210
0
220
0
230
1
0
LINE
5
87
100
AcDbEntity
8
1
62
256
6
ByLayer
370
13
48
1
60
0
100
AcDbLine
10
1.496649
20
1.967044
30
0
11
1.496649
21
-1.967044
31
0
39
0
210
0
220
0
230
1
0
LINE
5
88
100
AcDbEntity
8
80
62
256
6
ByLayer
370
18
48
1
60
0
100
AcDbLine
10
0
20
0
30
0
11
-5
21
0
31
0
39
0
210
0
220
0
230
1
0
LINE
5
89
100
AcDbEntity
8
4
62
256
6
ByLayer
370
18
48
0.05
60
0
100
AcDbLine
10
30
20
0
30
0
11
0
21
0
31
0
39
0
210
0
220
0
230
1
0
LINE
5
8B
100
AcDbEntity
8
SK4
62
256
6
ByLayer
370
18
48
0.05
60
0
100
AcDbLine
10
35
20
0
30
0
11
-41
21
0
31
0
39
0
210
0
220
0
230
1
0
LINE
5
8D
100
AcDbEntity
8
SK1
62
256
6
ByLayer
370
18
48
1
60
0
100
AcDbLine
10
-35.65
20
-2.415
30
0
11
-35.065
21
-3
31
0
39
0
210
0
220
0
230
1
0
LINE
5
8E
100
AcDbEntity
8
SK1
62
256
6
ByLayer
370
18
48
1
60
0
100
AcDbLine
10
-35.065
20
3
30
0
11
-35.65
21
2.415
31
0
39
0
210
0
220
0
230
1
0
LINE
5
8F
100
AcDbEntity
8
SK1
62
256
6
ByLayer
370
18
48
1
60
0
100
AcDbLine
10
-35.065
20
-3
30
0
11
0
21
-3
31
0
39
0
210
0
220
0
230
1
0
LINE
5
90
100
AcDbEntity
8
SK1
62
256
6
ByLayer
370
18
48
1
60
0
100
AcDbLine
10
0
20
3
30
0
11
-35.065
21
3
31
0
39
0
210
0
220
0
230
1
0
LINE
5
91
100
AcDbEntity
8
1
62
256
6
ByLayer
370
18
48
1
60
0
100
AcDbLine
10
1.496649
20
-1.967044
30
0
11
8.051314
21
-1.971141
31
0
39
0
210
0
220
0
230
1
0
LINE
5
92
100
AcDbEntity
8
1
62
256
6
ByLayer
370
18
48
1
60
0
100
AcDbLine
10
17.20242
20
-1.97686
30
0
11
17.775965
21
-1.977219
31
0
39
0
210
0
220
0
230
1
0
LINE
5
93
100
AcDbEntity
8
1
62
256
6
ByLayer
370
18
48
1
60
0
100
AcDbLine
10
28.451947
20
-1.983891
30
0
11
29.027598
21
-1.984251
31
0
39
0
210
0
220
0
230
1
0
LINE
5
94
100
AcDbEntity
8
1
62
256
6
ByLayer
370
18
48
1
60
0
100
AcDbLine
10
29.027572
20
1.984251
30
0
11
28.451947
21
1.983891
31
0
39
0
210
0
220
0
230
1
0
LINE
5
95
100
AcDbEntity
8
1
62
256
6
ByLayer
370
18
48
1
60
0
100
AcDbLine
10
17.775733
20
1.977218
30
0
11
17.20242
21
1.97686
31
0
39
0
210
0
220
0
230
1
0
LINE
5
96
100
AcDbEntity
8
1
62
256
6
ByLayer
370
18
48
1
60
0
100
AcDbLine
10
8.051314
20
1.971141
30
0
11
1.496649
21
1.967044
31
0
39
0
210
0
220
0
230
1
0
LINE
5
97
100
AcDbEntity
8
81
62
256
6
ByLayer
370
18
48
1
60
0
100
AcDbLine
10
30
20
0
30
0
11
35
21
0
31
0
39
0
210
0
220
0
230
1
0
LINE
5
98
100
AcDbEntity
8
SK2
62
256
6
ByLayer
370
13
48
1
60
0
100
AcDbLine
10
-44.625163
20
32.117107
30
0
11
-44.625163
21
-11.75
31
0
39
0
210
0
220
0
230
1
0
LINE
5
9A
100
AcDbEntity
8
SK2
62
256
6
ByLayer
370
13
48
1
60
0
100
AcDbLine
10
-37.5875
20
3
30
0
11
-46.625163
21
3
31
0
39
0
210
0
220
0
230
1
0
LINE
5
9B
100
AcDbEntity
8
SK2
62
256
6
ByLayer
370
13
48
1
60
0
100
AcDbLine
10
-37.5875
20
-3
30
0
11
-46.625163
21
-3
31
0
39
0
210
0
220
0
230
1
0
LINE
5
9C
100
AcDbEntity
8
1
62
256
6
ByLayer
370
18
48
1
60
1
100
AcDbLine
10
-44.625163
20
3
30
0
11
-45.085946
21
6.499998
31
0
39
0
210
0
220
0
230
1
0
LINE
5
9D
100
AcDbEntity
8
1
62
256
6
ByLayer
370
18
48
1
60
1
100
AcDbLine
10
-45.085946
20
6.499998
30
0
11
-44.164379
21
6.500002
31
0
39
0
210
0
220
0
230
1
0
LINE
5
9E
100
AcDbEntity
8
1
62
256
6
ByLayer
370
18
48
1
60
1
100
AcDbLine
10
-44.164379
20
6.500002
30
0
11
-44.625163
21
3
31
0
39
0
210
0
220
0
230
1
0
LINE
5
9F
100
AcDbEntity
8
1
62
256
6
ByLayer
370
18
48
1
60
1
100
AcDbLine
10
-44.625163
20
-3
30
0
11
-44.164379
21
-6.499998
31
0
39
0
210
0
220
0
230
1
0
LINE
5
A0
100
AcDbEntity
8
1
62
256
6
ByLayer
370
18
48
1
60
1
100
AcDbLine
10
-44.164379
20
-6.499998
30
0
11
-45.085946
21
-6.500002
31
0
39
0
210
0
220
0
230
1
0
LINE
5
A1
100
AcDbEntity
8
1
62
256
6
ByLayer
370
18
48
1
60
1
100
AcDbLine
10
-45.085946
20
-6.500002
30
0
11
-44.625163
21
-3
31
0
39
0
210
0
220
0
230
1
0
LINE
5
A2
100
AcDbEntity
8
2
62
256
6
ByLayer
370
13
48
1
60
0
100
AcDbLine
10
42.083343
20
29.694693
30
0
11
42.083343
21
-10.7345
31
0
39
0
210
0
220
0
230
1
0
LINE
5
A4
100
AcDbEntity
8
2
62
256
6
ByLayer
370
13
48
1
60
0
100
AcDbLine
10
31.0124
20
1.9845
30
0
11
44.083343
21
1.9845
31
0
39
0
210
0
220
0
230
1
0
LINE
5
A5
100
AcDbEntity
8
2
62
256
6
ByLayer
370
13
48
1
60
0
100
AcDbLine
10
31.0124
20
-1.9845
30
0
11
44.083343
21
-1.9845
31
0
39
0
210
0
220
0
230
1
0
LINE
5
A6
100
AcDbEntity
8
1
62
256
6
ByLayer
370
18
48
1
60
1
100
AcDbLine
10
42.083343
20
1.9845
30
0
11
41.622559
21
5.484498
31
0
39
0
210
0
220
0
230
1
0
LINE
5
A7
100
AcDbEntity
8
1
62
256
6
ByLayer
370
18
48
1
60
1
100
AcDbLine
10
41.622559
20
5.484498
30
0
11
42.544126
21
5.484502
31
0
39
0
210
0
220
0
230
1
0
LINE
5
A8
100
AcDbEntity
8
1
62
256
6
ByLayer
370
18
48
1
60
1
100
AcDbLine
10
42.544126
20
5.484502
30
0
11
42.083343
21
1.9845
31
0
39
0
210
0
220
0
230
1
0
LINE
5
A9
100
AcDbEntity
8
1
62
256
6
ByLayer
370
18
48
1
60
1
100
AcDbLine
10
42.083343
20
-1.9845
30
0
11
42.544126
21
-5.484498
31
0
39
0
210
0
220
0
230
1
0
LINE
5
AA
100
AcDbEntity
8
1
62
256
6
ByLayer
370
18
48
1
60
1
100
AcDbLine
10
42.544126
20
-5.484498
30
0
11
41.622559
21
-5.484502
31
0
39
0
210
0
220
0
230
1
0
LINE
5
AB
100
AcDbEntity
8
1
62
256
6
ByLayer
370
18
48
1
60
1
100
AcDbLine
10
41.622559
20
-5.484502
30
0
11
42.083343
21
-1.9845
31
0
39
0
210
0
220
0
230
1
0
LINE
5
F3
100
AcDbEntity
8
1
62
256
6
ByLayer
370
18
48
1
60
1
100
AcDbLine
10
-44.625163
20
3
30
0
11
-45.085946
21
6.499998
31
0
39
0
210
0
220
0
230
1
0
LINE
5
F4
100
AcDbEntity
8
1
62
256
6
ByLayer
370
18
48
1
60
1
100
AcDbLine
10
-45.085946
20
6.499998
30
0
11
-44.164379
21
6.500002
31
0
39
0
210
0
220
0
230
1
0
LINE
5
F5
100
AcDbEntity
8
1
62
256
6
ByLayer
370
18
48
1
60
1
100
AcDbLine
10
-44.164379
20
6.500002
30
0
11
-44.625163
21
3
31
0
39
0
210
0
220
0
230
1
0
LINE
5
F7
100
AcDbEntity
8
1
62
256
6
ByLayer
370
18
48
1
60
1
100
AcDbLine
10
-44.625163
20
-3
30
0
11
-44.164379
21
-6.499998
31
0
39
0
210
0
220
0
230
1
0
LINE
5
F8
100
AcDbEntity
8
1
62
256
6
ByLayer
370
18
48
1
60
1
100
AcDbLine
10
-44.164379
20
-6.499998
30
0
11
-45.085946
21
-6.500002
31
0
39
0
210
0
220
0
230
1
0
LINE
5
F9
100
AcDbEntity
8
1
62
256
6
ByLayer
370
18
48
1
60
1
100
AcDbLine
10
-45.085946
20
-6.500002
30
0
11
-44.625163
21
-3
31
0
39
0
210
0
220
0
230
1
0
LINE
5
FD
100
AcDbEntity
8
1
62
256
6
ByLayer
370
18
48
1
60
1
100
AcDbLine
10
42.083343
20
1.9845
30
0
11
41.622559
21
5.484498
31
0
39
0
210
0
220
0
230
1
0
LINE
5
FE
100
AcDbEntity
8
1
62
256
6
ByLayer
370
18
48
1
60
1
100
AcDbLine
10
41.622559
20
5.484498
30
0
11
42.544126
21
5.484502
31
0
39
0
210
0
220
0
230
1
0
LINE
5
FF
100
AcDbEntity
8
1
62
256
6
ByLayer
370
18
48
1
60
1
100
AcDbLine
10
42.544126
20
5.484502
30
0
11
42.083343
21
1.9845
31
0
39
0
210
0
220
0
230
1
0
LINE
5
101
100
AcDbEntity
8
1
62
256
6
ByLayer
370
18
48
1
60
1
100
AcDbLine
10
42.083343
20
-1.9845
30
0
11
42.544126
21
-5.484498
31
0
39
0
210
0
220
0
230
1
0
LINE
5
102
100
AcDbEntity
8
1
62
256
6
ByLayer
370
18
48
1
60
1
100
AcDbLine
10
42.544126
20
-5.484498
30
0
11
41.622559
21
-5.484502
31
0
39
0
210
0
220
0
230
1
0
LINE
5
103
100
AcDbEntity
8
1
62
256
6
ByLayer
370
18
48
1
60
1
100
AcDbLine
10
41.622559
20
-5.484502
30
0
11
42.083343
21
-1.9845
31
0
39
0
210
0
220
0
230
1
0
MTEXT
5
ED
100
AcDbEntity
8
SK6
62
256
6
ByLayer
370
13
48
1
60
0
100
AcDbMText
10
-31.70776
20
34.524828
30
0
210
0
220
0
230
1
1
\W0.7563;462.1-0397-012A1-XM X2BM
40
3.5
41
0
44
1.084337
50
0
71
7
72
5
7
iso_b_vert
0
MTEXT
5
F1
100
AcDbEntity
8
SK2
62
256
6
ByLayer
370
18
48
1
60
0
100
AcDbMText
10
-46.189796
20
16.409024
30
0
210
0
220
0
230
1
1
%%c
40
3.5
41
0
44
1.084337
50
90
71
7
72
5
7
iso_b_vert
0
MTEXT
5
F2
100
AcDbEntity
8
SK2
62
256
6
ByLayer
370
18
48
1
60
0
100
AcDbMText
10
-46.189796
20
21.63168
30
0
210
0
220
0
230
1
1
\W0.7317;6,000
40
3.5
41
0
44
1.084337
50
90
71
7
72
5
7
iso_b_vert
0
MTEXT
5
FB
100
AcDbEntity
8
2
62
256
6
ByLayer
370
18
48
1
60
0
100
AcDbMText
10
40.518709
20
13.98661
30
0
210
0
220
0
230
1
1
%%c
40
3.5
41
0
44
1.084337
50
90
71
7
72
5
7
iso_b_vert
0
MTEXT
5
FC
100
AcDbEntity
8
2
62
256
6
ByLayer
370
18
48
1
60
0
100
AcDbMText
10
40.518709
20
19.209266
30
0
210
0
220
0
230
1
1
\W0.7402;3,969
40
3.5
41
0
44
1.084337
50
90
71
7
72
5
7
iso_b_vert
0
HATCH
5
F6
100
AcDbEntity
8
SK2
62
256
6
ByLayer
370
13
48
1
60
0
100
AcDbHatch
10
0
20
0
30
0
210
0
220
0
230
1
2
ANSI31
70
0
71
0
91
1
92
5
93
3
72
1
10
-44.6251625675374
20
3
11
-45.0859463090902
21
6.49999830744682
72
1
10
-45.0859463090902
20
6.49999830744682
11
-44.1643788259847
21
6.50000169255318
72
1
10
-44.1643788259847
20
6.50000169255318
11
-44.6251625675374
21
3
97
0
75
0
76
1
52
0
41
0.0062
77
0
78
1
53
45
43
0
44
0
45
-0.0139193969876572
46
0.0139193969876572
79
0
47
0
98
1
10
0
20
0
0
HATCH
5
FA
100
AcDbEntity
8
SK2
62
256
6
ByLayer
370
13
48
1
60
0
100
AcDbHatch
10
0
20
0
30
0
210
0
220
0
230
1
2
ANSI31
70
0
71
0
91
1
92
5
93
3
72
1
10
-44.6251625675374
20
-3
11
-44.1643788259847
21
-6.49999830744682
72
1
10
-44.1643788259847
20
-6.49999830744682
11
-45.0859463090902
21
-6.50000169255318
72
1
10
-45.0859463090902
20
-6.50000169255318
11
-44.6251625675374
21
-3
97
0
75
0
76
1
52
0
41
0.0062
77
0
78
1
53
45
43
0
44
0
45
-0.0139193969876572
46
0.0139193969876572
79
0
47
0
98
1
10
0
20
0
0
HATCH
5
100
100
AcDbEntity
8
2
62
256
6
ByLayer
370
13
48
1
60
0
100
AcDbHatch
10
0
20
0
30
0
210
0
220
0
230
1
2
ANSI31
70
0
71
0
91
1
92
5
93
3
72
1
10
42.083342615295
20
1.98450000000003
11
41.6225588737423
21
5.48449830744684
72
1
10
41.6225588737423
20
5.48449830744684
11
42.5441263568478
21
5.48450169255321
72
1
10
42.5441263568478
20
5.48450169255321
11
42.083342615295
21
1.98450000000003
97
0
75
0
76
1
52
0
41
0.0062
77
0
78
1
53
45
43
0
44
0
45
-0.0139193969876572
46
0.0139193969876572
79
0
47
0
98
1
10
0
20
0
0
HATCH
5
104
100
AcDbEntity
8
2
62
256
6
ByLayer
370
13
48
1
60
0
100
AcDbHatch
10
0
20
0
30
0
210
0
220
0
230
1
2
ANSI31
70
0
71
0
91
1
92
5
93
3
72
1
10
42.083342615295
20
-1.9845
11
42.5441263568478
21
-5.48449830744681
72
1
10
42.5441263568478
20
-5.48449830744681
11
41.6225588737423
21
-5.48450169255318
72
1
10
41.6225588737423
20
-5.48450169255318
11
42.083342615295
21
-1.9845
97
0
75
0
76
1
52
0
41
0.0062
77
0
78
1
53
45
43
0
44
0
45
-0.0139193969876572
46
0.0139193969876572
79
0
47
0
98
1
10
0
20
0
0
DIMENSION
5
106
100
AcDbEntity
8
SK2
62
256
6
ByLayer
370
13
48
1
60
0
100
AcDbDimension
2
_U0
10
29.4249
20
-12.197898
30
0
11
14.71245
21
-12.197898
31
0
70
32
71
1
72
1
41
1
210
0
220
0
230
1
3
Standard
100
AcDbAlignedDimension
13
0
23
0
33
0
14
29.4249
24
-1.9845
34
0
50
0
100
AcDbRotatedDimension
1001
ACAD
1000
DSTYLE
1002
{
1070
   371
1070
    13
1070
   372
1070
    13
1070
   170
1070
     0
1070
   144
1040
1.0
1070
   277
1070
     2
1070
   278
1070
    44
1070
   146
1040
1.0
1070
   345
1005
16
1070
   347
1005
16
1070
   346
1005
16
1070
   344
1005
0
1070
   343
1005
0
1070
   172
1070
     1
1070
    76
1070
     0
1070
    75
1070
     0
1070
   282
1070
     0
1070
   281
1070
     0
1070
    71
1070
     0
1070
    74
1070
     0
1070
   279
1070
     0
1070
   173
1070
     1
1070
   340
1005
EE
1070
   271
1070
     2
1070
   272
1070
     2
1070
    77
1070
     1
1070
    73
1070
     1
1070
   171
1070
     3
1070
   274
1070
     4
1070
   177
1070
    35
1070
   176
1070
    35
1070
   178
1070
    35
1070
    48
1040
-0.1
1070
    41
1040
3.5
1070
   147
1040
1.75
1070
    42
1040
1.5875
1070
    44
1040
2.0
1070
   140
1040
3.5
1002
}
1001
ACAD_DSTYLE_DIM_LINETYPE
1070
   380
1005
16
1001
ACAD_DSTYLE_DIM_EXT1_LINETYPE
1070
   381
1005
16
1001
ACAD_DSTYLE_DIM_EXT2_LINETYPE
1070
   382
1005
16
0
DIMENSION
5
11F
100
AcDbEntity
8
SK2
62
256
6
ByLayer
370
13
48
1
60
0
100
AcDbDimension
2
_U1
10
30
20
-31.692985
30
0
11
-3
21
-31.692985
31
0
70
32
71
1
72
1
41
1
210
0
220
0
230
1
3
Standard
100
AcDbAlignedDimension
13
-36
23
-3
33
0
14
30
24
0
34
0
50
0
100
AcDbRotatedDimension
1001
ACAD
1000
DSTYLE
1002
{
1070
   371
1070
    13
1070
   372
1070
    13
1070
   170
1070
     0
1070
   144
1040
1.0
1070
   277
1070
     2
1070
   278
1070
    44
1070
   146
1040
1.0
1070
   345
1005
16
1070
   347
1005
16
1070
   346
1005
16
1070
   344
1005
0
1070
   343
1005
0
1070
   172
1070
     1
1070
    76
1070
     0
1070
    75
1070
     0
1070
   282
1070
     0
1070
   281
1070
     0
1070
    71
1070
     0
1070
    74
1070
     0
1070
   279
1070
     0
1070
   173
1070
     1
1070
   340
1005
EE
1070
   271
1070
     2
1070
   272
1070
     2
1070
    77
1070
     1
1070
    73
1070
     1
1070
   171
1070
     3
1070
   274
1070
     4
1070
   177
1070
    35
1070
   176
1070
    35
1070
   178
1070
    35
1070
    48
1040
-0.1
1070
    41
1040
3.5
1070
   147
1040
1.75
1070
    42
1040
1.5875
1070
    44
1040
2.0
1070
   140
1040
3.5
1002
}
1001
ACAD_DSTYLE_DIM_LINETYPE
1070
   380
1005
16
1001
ACAD_DSTYLE_DIM_EXT1_LINETYPE
1070
   381
1005
16
1001
ACAD_DSTYLE_DIM_EXT2_LINETYPE
1070
   382
1005
16
0
DIMENSION
5
137
100
AcDbEntity
8
SK2
62
256
6
ByLayer
370
13
48
1
60
0
100
AcDbDimension
2
_U2
10
30
20
13.593619
30
0
11
23.76
21
13.593619
31
0
70
32
71
1
72
1
41
1
210
0
220
0
230
1
3
Standard
100
AcDbAlignedDimension
13
17.52
23
1.9845
33
0
14
30
24
0
34
0
50
0
100
AcDbRotatedDimension
1001
ACAD
1000
DSTYLE
1002
{
1070
   371
1070
    13
1070
   372
1070
    13
1070
   170
1070
     0
1070
   144
1040
1.0
1070
   277
1070
     2
1070
   278
1070
    44
1070
   146
1040
1.0
1070
   345
1005
16
1070
   347
1005
16
1070
   346
1005
16
1070
   344
1005
0
1070
   343
1005
0
1070
   172
1070
     1
1070
    76
1070
     0
1070
    75
1070
     0
1070
   282
1070
     0
1070
   281
1070
     0
1070
    71
1070
     0
1070
    74
1070
     0
1070
   279
1070
     0
1070
   173
1070
     1
1070
   340
1005
EE
1070
   271
1070
     2
1070
   272
1070
     2
1070
    77
1070
     1
1070
    73
1070
     1
1070
   171
1070
     3
1070
   274
1070
     4
1070
   177
1070
    35
1070
   176
1070
    35
1070
   178
1070
    35
1070
    48
1040
-0.1
1070
    41
1040
3.5
1070
   147
1040
1.75
1070
    42
1040
1.5875
1070
    44
1040
2.0
1070
   140
1040
3.5
1002
}
1001
ACAD_DSTYLE_DIM_LINETYPE
1070
   380
1005
16
1001
ACAD_DSTYLE_DIM_EXT1_LINETYPE
1070
   381
1005
16
1001
ACAD_DSTYLE_DIM_EXT2_LINETYPE
1070
   382
1005
16
0
DIMENSION
5
150
100
AcDbEntity
8
SK2
62
256
6
ByLayer
370
13
48
1
60
0
100
AcDbDimension
2
_U3
10
29.4249
20
-14.787003
30
0
11
47.583333
21
-14.787003
31
0
70
32
71
1
72
1
41
1
210
0
220
0
230
1
3
Standard
100
AcDbAlignedDimension
13
30
23
0
33
0
14
29.4249
24
-1.9845
34
0
50
0
100
AcDbRotatedDimension
1001
ACAD
1000
DSTYLE
1002
{
1070
   371
1070
    13
1070
   372
1070
    13
1070
   170
1070
     0
1070
   144
1040
1.0
1070
   277
1070
     2
1070
   278
1070
    44
1070
   146
1040
1.0
1070
   345
1005
16
1070
   347
1005
16
1070
   346
1005
16
1070
   344
1005
0
1070
   343
1005
0
1070
   172
1070
     1
1070
    76
1070
     0
1070
    75
1070
     0
1070
   282
1070
     0
1070
   281
1070
     0
1070
    71
1070
     0
1070
    74
1070
     0
1070
   279
1070
     0
1070
   173
1070
     1
1070
   340
1005
EE
1070
   271
1070
     2
1070
   272
1070
     2
1070
    77
1070
     1
1070
    73
1070
     1
1070
   171
1070
     3
1070
   274
1070
     4
1070
   177
1070
    35
1070
   176
1070
    35
1070
   178
1070
    35
1070
    48
1040
-0.1
1070
    41
1040
3.5
1070
   147
1040
1.75
1070
    42
1040
1.5875
1070
    44
1040
2.0
1070
   140
1040
3.5
1002
}
1001
ACAD_DSTYLE_DIM_LINETYPE
1070
   380
1005
16
1001
ACAD_DSTYLE_DIM_EXT1_LINETYPE
1070
   381
1005
16
1001
ACAD_DSTYLE_DIM_EXT2_LINETYPE
1070
   382
1005
16
0
DIMENSION
5
16A
100
AcDbEntity
8
SK2
62
256
6
ByLayer
370
13
48
1
60
0
100
AcDbDimension
2
_U4
10
29.4249
20
-21.343428
30
0
11
-3.28755
21
-21.343428
31
0
70
32
71
1
72
1
41
1
210
0
220
0
230
1
3
Standard
100
AcDbAlignedDimension
13
-36
23
-3
33
0
14
29.4249
24
-1.9845
34
0
50
0
100
AcDbRotatedDimension
1001
ACAD
1000
DSTYLE
1002
{
1070
   371
1070
    13
1070
   372
1070
    13
1070
   170
1070
     0
1070
   144
1040
1.0
1070
   277
1070
     2
1070
   278
1070
    44
1070
   146
1040
1.0
1070
   345
1005
16
1070
   347
1005
16
1070
   346
1005
16
1070
   344
1005
0
1070
   343
1005
0
1070
   172
1070
     1
1070
    76
1070
     0
1070
    75
1070
     0
1070
   282
1070
     0
1070
   281
1070
     0
1070
    71
1070
     0
1070
    74
1070
     0
1070
   279
1070
     0
1070
   173
1070
     1
1070
   340
1005
EE
1070
   271
1070
     2
1070
   272
1070
     2
1070
    77
1070
     1
1070
    73
1070
     1
1070
   171
1070
     3
1070
   274
1070
     4
1070
   177
1070
    35
1070
   176
1070
    35
1070
   178
1070
    35
1070
    48
1040
-0.1
1070
    41
1040
3.5
1070
   147
1040
1.75
1070
    42
1040
1.5875
1070
    44
1040
2.0
1070
   140
1040
3.5
1002
}
1001
ACAD_DSTYLE_DIM_LINETYPE
1070
   380
1005
16
1001
ACAD_DSTYLE_DIM_EXT1_LINETYPE
1070
   381
1005
16
1001
ACAD_DSTYLE_DIM_EXT2_LINETYPE
1070
   382
1005
16
0
ENDSEC
0
SECTION
2
OBJECTS
0
DICTIONARY
5
1f2
330
0
100
AcDbDictionary
280
0
281
1
3
ACAD_GROUP
350
1f3
3
ACAD_MLINESTYLE
350
1f4
0
DICTIONARY
5
1f3
330
0
100
AcDbDictionary
280
0
281
1
0
DICTIONARY
5
1f4
330
0
100
AcDbDictionary
280
0
281
1
3
Standard
350
18
0
MLINESTYLE
5
18
330
1f4
100
AcDbMlineStyle
2
Standard
70
0
3

62
256
51
90
52
90
71
2
49
-0.5
62
256
6
ByLayer
49
0.5
62
256
6
ByLayer
0
RASTERVARIABLES
5
1e0
330

100
AcDbRasterVariables
90
0
70
1
71
1
72
1
0
ENDSEC
0
EOF
