0
SECTION
2
HEADER
9
$ACADVER
1
AC1015
9
$DWGCODEPAGE
3
ANSI_1252
9
$HANDSEED
5
215
9
$ANGBASE
50
0
9
$ANGDIR
70
0
9
$ATTMODE
70
1
9
$AUNITS
70
0
9
$AUPREC
70
0
9
$CECOLOR
62
256
9
$CELTSCALE
40
1
9
$CELTYPE
6
ByLayer
9
$CELWEIGHT
370
18
9
$CLAYER
8
0
9
$CMLJUST
70
0
9
$CMLSCALE
40
1
9
$CMLSTYLE
2
Standard
9
$DIMSTYLE
2
Standard
9
$TEXTSIZE
40
0.2
9
$TEXTSTYLE
7
Standard
9
$LUNITS
70
2
9
$LUPREC
70
4
9
$EXTNAMES
290
1
9
$INSUNITS
70
4
9
$LTSCALE
40
1
9
$LWDISPLAY
290
1
9
$PDMODE
70
0
9
$PDSIZE
40
0
9
$PLINEGEN
70
0
0
ENDSEC
0
SECTION
2
CLASSES
0
CLASS
1
RASTERVARIABLES
2
AcDbRasterVariables
3
ISM
90
0
280
0
281
0
0
ENDSEC
0
SECTION
2
TABLES
0
TABLE
2
VPORT
5
20b
100
AcDbSymbolTable
0
VPORT
5
1
100
AcDbSymbolTableRecord
100
AcDbViewportTableRecord
2
*Active
70
0
10
0
20
0
11
1
21
1
12
-1
22
1
13
0
23
0
14
0.5
24
0.5
15
10
25
10
16
0
26
0
36
1
17
0
27
0
37
0
0
ENDTAB
0
TABLE
2
LTYPE
5
20c
100
AcDbSymbolTable
0
LTYPE
5
14
100
AcDbSymbolTableRecord
100
AcDbLinetypeTableRecord
70
0
2
ByBlock
3

72
65
73
0
40
0
0
LTYPE
5
15
100
AcDbSymbolTableRecord
100
AcDbLinetypeTableRecord
70
0
2
ByLayer
3

72
65
73
0
40
0
0
LTYPE
5
16
100
AcDbSymbolTableRecord
100
AcDbLinetypeTableRecord
70
0
2
Continuous
3
Solid line
72
65
73
0
40
0
0
LTYPE
5
6E
100
AcDbSymbolTableRecord
100
AcDbLinetypeTableRecord
70
0
2
CENTER
3
____ _ ____ _ ____ _ ____
72
65
73
4
40
47.5
49
22
74
0
49
-8.5
74
0
49
8.5
74
0
49
-8.5
74
0
0
LTYPE
5
6F
100
AcDbSymbolTableRecord
100
AcDbLinetypeTableRecord
70
0
2
DASHED
3
__ __ __ __ __ __ __ __ __
72
65
73
2
40
25.72
49
12.86
74
0
49
-12.86
74
0
0
ENDTAB
0
TABLE
2
LAYER
5
20d
100
AcDbSymbolTable
0
LAYER
5
10
100
AcDbSymbolTableRecord
100
AcDbLayerTableRecord
2
0
70
0
62
7
6
Continuous
290
1
370
-3
390
0
0
LAYER
5
71
100
AcDbSymbolTableRecord
100
AcDbLayerTableRecord
2
81
70
0
62
-3
6
Continuous
290
1
370
-3
390
0
0
LAYER
5
73
100
AcDbSymbolTableRecord
100
AcDbLayerTableRecord
2
1
70
0
62
4
6
Continuous
290
1
370
-3
390
0
0
LAYER
5
75
100
AcDbSymbolTableRecord
100
AcDbLayerTableRecord
2
80
70
0
62
-6
6
Continuous
290
1
370
-3
390
0
0
LAYER
5
80
100
AcDbSymbolTableRecord
100
AcDbLayerTableRecord
2
4
70
0
62
-2
6
CENTER
290
1
370
-3
390
0
0
LAYER
5
151
100
AcDbSymbolTableRecord
100
AcDbLayerTableRecord
2
Defpoints
70
0
62
7
6
Continuous
290
0
370
-3
390
0
0
LAYER
5
1f7
100
AcDbSymbolTableRecord
100
AcDbLayerTableRecord
2
SK4
70
0
62
2
6
CENTER
290
1
370
-3
390
0
0
LAYER
5
1f8
100
AcDbSymbolTableRecord
100
AcDbLayerTableRecord
2
SK1
70
0
62
4
6
Continuous
290
1
370
-3
390
0
0
LAYER
5
1f9
100
AcDbSymbolTableRecord
100
AcDbLayerTableRecord
2
SK2
70
0
62
7
6
Continuous
290
1
370
-3
390
0
0
LAYER
5
1fa
100
AcDbSymbolTableRecord
100
AcDbLayerTableRecord
2
SK6
70
0
62
5
6
Continuous
290
1
370
-3
390
0
0
ENDTAB
0
TABLE
2
STYLE
5
20e
100
AcDbSymbolTable
0
STYLE
5
11
100
AcDbSymbolTableRecord
100
AcDbTextStyleTableRecord
2
Standard
3
txt
70
0
71
0
40
0
41
1
42
0
50
0
0
STYLE
5
124
100
AcDbSymbolTableRecord
100
AcDbTextStyleTableRecord
2
iso_b_vert
3
simplex.shx
70
0
71
0
40
0
41
1
42
0
50
0
0
STYLE
5
125
100
AcDbSymbolTableRecord
100
AcDbTextStyleTableRecord
2
DWGDirectTextStyle
3
simplex
70
0
71
0
40
0
41
1
42
0
50
0
0
ENDTAB
0
TABLE
2
DIMSTYLE
5
20f
100
AcDbSymbolTable
100
AcDbDimStyleTable
0
DIMSTYLE
105
27
100
AcDbSymbolTableRecord
100
AcDbDimStyleTableRecord
2
Standard
70
0
3
<>
41
0.18
42
0.0625
44
0.18
140
0.18
147
0.09
73
0
74
0
77
1
271
2
275
0
278
52
280
0
340
11
0
ENDTAB
0
TABLE
2
VIEW
5
210
100
AcDbSymbolTable
0
ENDTAB
0
TABLE
2
UCS
5
211
100
AcDbSymbolTable
0
ENDTAB
0
TABLE
2
APPID
5
212
100
AcDbSymbolTable
0
APPID
5
12
100
AcDbSymbolTableRecord
100
AcDbRegAppTableRecord
2
ACAD
70
0
0
APPID
5
14D
100
AcDbSymbolTableRecord
100
AcDbRegAppTableRecord
2
ACAD_DSTYLE_DIMBREAK
70
0
0
APPID
5
1B6
100
AcDbSymbolTableRecord
100
AcDbRegAppTableRecord
2
ACAD_DSTYLE_DIM_LINETYPE
70
0
0
APPID
5
1B7
100
AcDbSymbolTableRecord
100
AcDbRegAppTableRecord
2
ACAD_DSTYLE_DIM_EXT1_LINETYPE
70
0
0
APPID
5
1B8
100
AcDbSymbolTableRecord
100
AcDbRegAppTableRecord
2
ACAD_DSTYLE_DIM_EXT2_LINETYPE
70
0
0
APPID
5
1F3
100
AcDbSymbolTableRecord
100
AcDbRegAppTableRecord
2
ACAD_MLEADERVER
70
0
0
ENDTAB
0
TABLE
2
BLOCK_RECORD
5
213
100
AcDbSymbolTable
0
BLOCK_RECORD
5
1F
100
AcDbSymbolTableRecord
100
AcDbBlockTableRecord
2
*Model_Space
340
0
70
0
0
BLOCK_RECORD
5
1B
100
AcDbSymbolTableRecord
100
AcDbBlockTableRecord
2
*Paper_Space
340
0
70
0
0
BLOCK_RECORD
5
23
100
AcDbSymbolTableRecord
100
AcDbBlockTableRecord
2
*Paper_Space0
340
0
70
0
0
BLOCK_RECORD
5
142
100
AcDbSymbolTableRecord
100
AcDbBlockTableRecord
2
LABLE3D_1
340
0
70
0
0
BLOCK_RECORD
5
152
100
AcDbSymbolTableRecord
100
AcDbBlockTableRecord
2
*D2
340
0
70
0
0
BLOCK_RECORD
5
15E
100
AcDbSymbolTableRecord
100
AcDbBlockTableRecord
2
_U0
340
0
70
0
0
BLOCK_RECORD
5
16A
100
AcDbSymbolTableRecord
100
AcDbBlockTableRecord
2
*D4
340
0
70
0
0
BLOCK_RECORD
5
176
100
AcDbSymbolTableRecord
100
AcDbBlockTableRecord
2
_U1
340
0
70
0
0
BLOCK_RECORD
5
182
100
AcDbSymbolTableRecord
100
AcDbBlockTableRecord
2
*D6
340
0
70
0
0
BLOCK_RECORD
5
18F
100
AcDbSymbolTableRecord
100
AcDbBlockTableRecord
2
_U2
340
0
70
0
0
ENDTAB
0
ENDSEC
0
SECTION
2
BLOCKS
0
BLOCK
5
20
100
AcDbEntity
8
0
100
AcDbBlockBegin
2
*Model_Space
70
0
10
0
20
0
30
0
3
*Model_Space
0
ENDBLK
5
21
100
AcDbEntity
8
0
100
AcDbBlockEnd
0
BLOCK
5
1C
100
AcDbEntity
8
0
100
AcDbBlockBegin
2
*Paper_Space
70
0
10
0
20
0
30
0
3
*Paper_Space
0
ENDBLK
5
1D
100
AcDbEntity
8
0
100
AcDbBlockEnd
0
BLOCK
5
24
100
AcDbEntity
8
0
100
AcDbBlockBegin
2
*Paper_Space0
70
0
10
0
20
0
30
0
3
*Paper_Space0
0
ENDBLK
5
25
100
AcDbEntity
8
0
100
AcDbBlockEnd
0
BLOCK
5
149
100
AcDbEntity
8
0
100
AcDbBlockBegin
2
LABLE3D_1
70
0
10
84.300458
20
-20.39795
30
0
3
LABLE3D_1
0
MTEXT
5
147
100
AcDbEntity
8
1
62
256
6
ByLayer
370
18
48
1
60
0
100
AcDbMText
10
85.959458
20
-22.512836
30
0
210
0
220
0
230
1
1
\W0.7167;R2
40
3
41
0
44
1.084337
50
0
71
7
72
5
7
iso_b_vert
0
ENDBLK
5
14A
100
AcDbEntity
8
0
100
AcDbBlockEnd
0
BLOCK
5
153
100
AcDbEntity
8
0
100
AcDbBlockBegin
2
*D2
70
1
10
0
20
0
30
0
3
*D2
0
LINE
5
155
100
AcDbEntity
8
0
62
256
6
ByLayer
370
-2
48
1
60
0
100
AcDbLine
10
-40
20
3.4125
30
0
11
-40
21
-41.85
31
0
39
0
210
0
220
0
230
1
0
LINE
5
156
100
AcDbEntity
8
0
62
256
6
ByLayer
370
-2
48
1
60
0
100
AcDbLine
10
70
20
0.4125
30
0
11
70
21
-41.85
31
0
39
0
210
0
220
0
230
1
0
LINE
5
157
100
AcDbEntity
8
0
62
256
6
ByLayer
370
-2
48
1
60
0
100
AcDbLine
10
-36.5
20
-39.85
30
0
11
66.5
21
-39.85
31
0
39
0
210
0
220
0
230
1
0
SOLID
5
158
100
AcDbEntity
8
0
62
256
6
ByLayer
370
-1
48
1
60
0
100
AcDbTrace
10
-36.5
20
-39.266667
30
0
11
-36.5
21
-40.433333
31
0
12
-40
22
-39.85
32
0
13
-40
23
-39.85
33
0
39
0
210
0
220
0
230
1
0
SOLID
5
159
100
AcDbEntity
8
0
62
256
6
ByLayer
370
-1
48
1
60
0
100
AcDbTrace
10
66.5
20
-40.433333
30
0
11
66.5
21
-39.266667
31
0
12
70
22
-39.85
32
0
13
70
23
-39.85
33
0
39
0
210
0
220
0
230
1
0
MTEXT
5
15A
100
AcDbEntity
8
0
62
256
6
ByLayer
370
18
48
1
60
0
100
AcDbMText
10
15
20
-33.85
30
0
210
0
220
0
230
1
1
\A1;110
40
3
41
0
44
1
50
0
71
5
72
5
7
iso_b_vert
0
POINT
5
15B
100
AcDbEntity
8
Defpoints
62
0
6
ByLayer
370
-1
48
1
60
0
100
AcDbPoint
10
-40
20
5
30
0
39
0
210
0
220
0
230
1
50
360
0
POINT
5
15C
100
AcDbEntity
8
Defpoints
62
0
6
ByLayer
370
-1
48
1
60
0
100
AcDbPoint
10
70
20
2
30
0
39
0
210
0
220
0
230
1
50
360
0
POINT
5
15D
100
AcDbEntity
8
Defpoints
62
0
6
ByLayer
370
-1
48
1
60
0
100
AcDbPoint
10
70
20
-39.85
30
0
39
0
210
0
220
0
230
1
50
360
0
ENDBLK
5
154
100
AcDbEntity
8
0
100
AcDbBlockEnd
0
BLOCK
5
165
100
AcDbEntity
8
0
100
AcDbBlockBegin
2
_U0
70
0
10
0
20
0
30
0
3
_U0
0
MTEXT
5
15F
100
AcDbEntity
8
SK2
62
256
6
ByLayer
370
18
48
1
60
0
100
AcDbMText
10
12.996143
20
-38.964886
30
0
210
0
220
0
230
1
1
\W0.5296;110
40
3
41
0
44
1.084337
50
0
71
7
72
5
7
iso_b_vert
0
LINE
5
160
100
AcDbEntity
8
SK2
62
256
6
ByLayer
370
13
48
1
60
0
100
AcDbLine
10
-40
20
3.4125
30
0
11
-40
21
-41.85
31
0
39
0
210
0
220
0
230
1
0
LINE
5
161
100
AcDbEntity
8
SK2
62
256
6
ByLayer
370
13
48
1
60
0
100
AcDbLine
10
70
20
0.4125
30
0
11
70
21
-41.85
31
0
39
0
210
0
220
0
230
1
0
LINE
5
162
100
AcDbEntity
8
SK2
62
256
6
ByLayer
370
13
48
1
60
0
100
AcDbLine
10
-40
20
-39.85
30
0
11
70
21
-39.85
31
0
39
0
210
0
220
0
230
1
0
SOLID
5
163
100
AcDbEntity
8
SK2
62
256
6
ByLayer
370
18
48
1
60
0
100
AcDbTrace
10
-40
20
-39.85
30
0
11
-36.500002
21
-39.389216
31
0
12
-36.499998
22
-40.310784
32
0
13
-36.499998
23
-40.310784
33
0
39
0
210
0
220
0
230
1
0
SOLID
5
164
100
AcDbEntity
8
SK2
62
256
6
ByLayer
370
18
48
1
60
0
100
AcDbTrace
10
70
20
-39.85
30
0
11
66.500002
21
-40.310784
31
0
12
66.499998
22
-39.389216
32
0
13
66.499998
23
-39.389216
33
0
39
0
210
0
220
0
230
1
0
ENDBLK
5
166
100
AcDbEntity
8
0
100
AcDbBlockEnd
0
BLOCK
5
16B
100
AcDbEntity
8
0
100
AcDbBlockBegin
2
*D4
70
1
10
0
20
0
30
0
3
*D4
0
LINE
5
16D
100
AcDbEntity
8
0
62
256
6
ByLayer
370
-2
48
1
60
0
100
AcDbLine
10
70
20
-3.5875
30
0
11
70
21
-29.85
31
0
39
0
210
0
220
0
230
1
0
LINE
5
16E
100
AcDbEntity
8
0
62
256
6
ByLayer
370
-2
48
1
60
0
100
AcDbLine
10
0
20
-6.5875
30
0
11
0
21
-29.85
31
0
39
0
210
0
220
0
230
1
0
LINE
5
16F
100
AcDbEntity
8
0
62
256
6
ByLayer
370
-2
48
1
60
0
100
AcDbLine
10
66.5
20
-27.85
30
0
11
3.5
21
-27.85
31
0
39
0
210
0
220
0
230
1
0
SOLID
5
170
100
AcDbEntity
8
0
62
256
6
ByLayer
370
-1
48
1
60
0
100
AcDbTrace
10
66.5
20
-28.433333
30
0
11
66.5
21
-27.266667
31
0
12
70
22
-27.85
32
0
13
70
23
-27.85
33
0
39
0
210
0
220
0
230
1
0
SOLID
5
171
100
AcDbEntity
8
0
62
256
6
ByLayer
370
-1
48
1
60
0
100
AcDbTrace
10
3.5
20
-27.266667
30
0
11
3.5
21
-28.433333
31
0
12
0
22
-27.85
32
0
13
0
23
-27.85
33
0
39
0
210
0
220
0
230
1
0
MTEXT
5
172
100
AcDbEntity
8
0
62
256
6
ByLayer
370
18
48
1
60
0
100
AcDbMText
10
35
20
-21.85
30
0
210
0
220
0
230
1
1
\A1;70
40
3
41
0
44
1
50
0
71
5
72
5
7
iso_b_vert
0
POINT
5
173
100
AcDbEntity
8
Defpoints
62
0
6
ByLayer
370
-1
48
1
60
0
100
AcDbPoint
10
70
20
-2
30
0
39
0
210
0
220
0
230
1
50
360
0
POINT
5
174
100
AcDbEntity
8
Defpoints
62
0
6
ByLayer
370
-1
48
1
60
0
100
AcDbPoint
10
0
20
-5
30
0
39
0
210
0
220
0
230
1
50
360
0
POINT
5
175
100
AcDbEntity
8
Defpoints
62
0
6
ByLayer
370
-1
48
1
60
0
100
AcDbPoint
10
0
20
-27.85
30
0
39
0
210
0
220
0
230
1
50
360
0
ENDBLK
5
16C
100
AcDbEntity
8
0
100
AcDbBlockEnd
0
BLOCK
5
17D
100
AcDbEntity
8
0
100
AcDbBlockBegin
2
_U1
70
0
10
0
20
0
30
0
3
_U1
0
MTEXT
5
177
100
AcDbEntity
8
SK2
62
256
6
ByLayer
370
18
48
1
60
0
100
AcDbMText
10
33.367172
20
-26.964886
30
0
210
0
220
0
230
1
1
\W0.6740;70
40
3
41
0
44
1.084337
50
0
71
7
72
5
7
iso_b_vert
0
LINE
5
178
100
AcDbEntity
8
SK2
62
256
6
ByLayer
370
13
48
1
60
0
100
AcDbLine
10
70
20
-3.5875
30
0
11
70
21
-29.85
31
0
39
0
210
0
220
0
230
1
0
LINE
5
179
100
AcDbEntity
8
SK2
62
256
6
ByLayer
370
13
48
1
60
0
100
AcDbLine
10
0
20
-6.5875
30
0
11
0
21
-29.85
31
0
39
0
210
0
220
0
230
1
0
LINE
5
17A
100
AcDbEntity
8
SK2
62
256
6
ByLayer
370
13
48
1
60
0
100
AcDbLine
10
70
20
-27.85
30
0
11
0
21
-27.85
31
0
39
0
210
0
220
0
230
1
0
SOLID
5
17B
100
AcDbEntity
8
SK2
62
256
6
ByLayer
370
18
48
1
60
0
100
AcDbTrace
10
70
20
-27.85
30
0
11
66.500002
21
-28.310784
31
0
12
66.499998
22
-27.389216
32
0
13
66.499998
23
-27.389216
33
0
39
0
210
0
220
0
230
1
0
SOLID
5
17C
100
AcDbEntity
8
SK2
62
256
6
ByLayer
370
18
48
1
60
0
100
AcDbTrace
10
0
20
-27.85
30
0
11
3.499998
21
-27.389216
31
0
12
3.500002
22
-28.310784
32
0
13
3.500002
23
-28.310784
33
0
39
0
210
0
220
0
230
1
0
ENDBLK
5
17E
100
AcDbEntity
8
0
100
AcDbBlockEnd
0
BLOCK
5
183
100
AcDbEntity
8
0
100
AcDbBlockBegin
2
*D6
70
1
10
0
20
0
30
0
3
*D6
0
LINE
5
185
100
AcDbEntity
8
0
62
256
6
ByLayer
370
-2
48
1
60
0
100
AcDbLine
10
70
20
-3.5875
30
0
11
70
21
-15.85
31
0
39
0
210
0
220
0
230
1
0
LINE
5
186
100
AcDbEntity
8
0
62
256
6
ByLayer
370
-2
48
1
60
0
100
AcDbLine
10
60
20
-6.5875
30
0
11
60
21
-15.85
31
0
39
0
210
0
220
0
230
1
0
LINE
5
187
100
AcDbEntity
8
0
62
256
6
ByLayer
370
-2
48
1
60
0
100
AcDbLine
10
73.5
20
-13.85
30
0
11
77
21
-13.85
31
0
39
0
210
0
220
0
230
1
0
LINE
5
188
100
AcDbEntity
8
0
62
256
6
ByLayer
370
-2
48
1
60
0
100
AcDbLine
10
56.5
20
-13.85
30
0
11
53
21
-13.85
31
0
39
0
210
0
220
0
230
1
0
SOLID
5
189
100
AcDbEntity
8
0
62
256
6
ByLayer
370
-1
48
1
60
0
100
AcDbTrace
10
73.5
20
-13.266667
30
0
11
73.5
21
-14.433333
31
0
12
70
22
-13.85
32
0
13
70
23
-13.85
33
0
39
0
210
0
220
0
230
1
0
SOLID
5
18A
100
AcDbEntity
8
0
62
256
6
ByLayer
370
-1
48
1
60
0
100
AcDbTrace
10
56.5
20
-14.433333
30
0
11
56.5
21
-13.266667
31
0
12
60
22
-13.85
32
0
13
60
23
-13.85
33
0
39
0
210
0
220
0
230
1
0
MTEXT
5
18B
100
AcDbEntity
8
0
62
256
6
ByLayer
370
18
48
1
60
0
100
AcDbMText
10
65
20
-7.85
30
0
210
0
220
0
230
1
1
\A1;10
40
3
41
0
44
1
50
0
71
5
72
5
7
iso_b_vert
0
POINT
5
18C
100
AcDbEntity
8
Defpoints
62
0
6
ByLayer
370
-1
48
1
60
0
100
AcDbPoint
10
70
20
-2
30
0
39
0
210
0
220
0
230
1
50
360
0
POINT
5
18D
100
AcDbEntity
8
Defpoints
62
0
6
ByLayer
370
-1
48
1
60
0
100
AcDbPoint
10
60
20
-5
30
0
39
0
210
0
220
0
230
1
50
360
0
POINT
5
18E
100
AcDbEntity
8
Defpoints
62
0
6
ByLayer
370
-1
48
1
60
0
100
AcDbPoint
10
60
20
-13.85
30
0
39
0
210
0
220
0
230
1
50
360
0
ENDBLK
5
184
100
AcDbEntity
8
0
100
AcDbBlockEnd
0
BLOCK
5
196
100
AcDbEntity
8
0
100
AcDbBlockBegin
2
_U2
70
0
10
0
20
0
30
0
3
_U2
0
MTEXT
5
190
100
AcDbEntity
8
SK2
62
256
6
ByLayer
370
18
48
1
60
0
100
AcDbMText
10
63.742115
20
-12.964886
30
0
210
0
220
0
230
1
1
\W0.5321;10
40
3
41
0
44
1.084337
50
0
71
7
72
5
7
iso_b_vert
0
LINE
5
191
100
AcDbEntity
8
SK2
62
256
6
ByLayer
370
13
48
1
60
0
100
AcDbLine
10
70
20
-3.5875
30
0
11
70
21
-15.85
31
0
39
0
210
0
220
0
230
1
0
LINE
5
192
100
AcDbEntity
8
SK2
62
256
6
ByLayer
370
13
48
1
60
0
100
AcDbLine
10
60
20
-6.5875
30
0
11
60
21
-15.85
31
0
39
0
210
0
220
0
230
1
0
LINE
5
193
100
AcDbEntity
8
SK2
62
256
6
ByLayer
370
13
48
1
60
0
100
AcDbLine
10
70
20
-13.85
30
0
11
60
21
-13.85
31
0
39
0
210
0
220
0
230
1
0
SOLID
5
194
100
AcDbEntity
8
SK2
62
256
6
ByLayer
370
18
48
1
60
0
100
AcDbTrace
10
70
20
-13.85
30
0
11
66.500002
21
-14.310784
31
0
12
66.499998
22
-13.389216
32
0
13
66.499998
23
-13.389216
33
0
39
0
210
0
220
0
230
1
0
SOLID
5
195
100
AcDbEntity
8
SK2
62
256
6
ByLayer
370
18
48
1
60
0
100
AcDbTrace
10
60
20
-13.85
30
0
11
63.499998
21
-13.389216
31
0
12
63.500002
22
-14.310784
32
0
13
63.500002
23
-14.310784
33
0
39
0
210
0
220
0
230
1
0
ENDBLK
5
197
100
AcDbEntity
8
0
100
AcDbBlockEnd
0
ENDSEC
0
SECTION
2
ENTITIES
0
ARC
5
B2
100
AcDbEntity
8
1
62
256
6
ByLayer
370
18
48
1
60
0
100
AcDbCircle
39
0
10
68
20
0
30
0
40
2
210
0
220
0
230
1
100
AcDbArc
50
296.576407
51
350.150005
0
ARC
5
B3
100
AcDbEntity
8
1
62
256
6
ByLayer
370
18
48
1
60
0
100
AcDbCircle
39
0
10
68
20
0
30
0
40
2
210
0
220
0
230
1
100
AcDbArc
50
350.150005
51
10.752846
0
ARC
5
B4
100
AcDbEntity
8
1
62
256
6
ByLayer
370
18
48
1
60
0
100
AcDbCircle
39
0
10
68
20
0
30
0
40
2
210
0
220
0
230
1
100
AcDbArc
50
10.752846
51
63.423185
0
ARC
5
B5
100
AcDbEntity
8
SK2
62
256
6
ByLayer
370
13
48
1
60
0
100
AcDbCircle
39
0
10
82.4
20
0
30
0
40
57.2543831158871
210
0
220
0
230
1
100
AcDbArc
50
172.092837
51
180
0
ARC
5
B6
100
AcDbEntity
8
SK2
62
256
6
ByLayer
370
13
48
1
60
0
100
AcDbCircle
39
0
10
82.4
20
0
30
0
40
57.2543831158871
210
0
220
0
230
1
100
AcDbArc
50
162.594905
51
172.092837
0
POINT
5
70
100
AcDbEntity
8
81
62
256
6
ByLayer
370
18
48
1
60
0
100
AcDbPoint
10
70
20
0
30
0
39
0
210
0
220
0
230
1
50
360
0
POINT
5
72
100
AcDbEntity
8
1
62
256
6
ByLayer
370
18
48
1
60
0
100
AcDbPoint
10
-40
20
0
30
0
39
0
210
0
220
0
230
1
50
360
0
POINT
5
74
100
AcDbEntity
8
80
62
256
6
ByLayer
370
18
48
1
60
0
100
AcDbPoint
10
0
20
0
30
0
39
0
210
0
220
0
230
1
50
360
0
POINT
5
76
100
AcDbEntity
8
1
62
256
6
ByLayer
370
18
48
1
60
1
100
AcDbPoint
10
-40
20
5
30
0
39
0
210
0
220
0
230
1
50
360
0
POINT
5
77
100
AcDbEntity
8
1
62
256
6
ByLayer
370
18
48
1
60
1
100
AcDbPoint
10
70
20
2
30
0
39
0
210
0
220
0
230
1
50
360
0
POINT
5
78
100
AcDbEntity
8
1
62
256
6
ByLayer
370
18
48
1
60
1
100
AcDbPoint
10
70
20
-2
30
0
39
0
210
0
220
0
230
1
50
360
0
POINT
5
79
100
AcDbEntity
8
1
62
256
6
ByLayer
370
18
48
1
60
1
100
AcDbPoint
10
0
20
-5
30
0
39
0
210
0
220
0
230
1
50
360
0
POINT
5
7A
100
AcDbEntity
8
1
62
256
6
ByLayer
370
18
48
1
60
1
100
AcDbPoint
10
70
20
-2
30
0
39
0
210
0
220
0
230
1
50
360
0
POINT
5
7B
100
AcDbEntity
8
1
62
256
6
ByLayer
370
18
48
1
60
1
100
AcDbPoint
10
60
20
-5
30
0
39
0
210
0
220
0
230
1
50
360
0
POINT
5
7C
100
AcDbEntity
8
1
62
256
6
ByLayer
370
18
48
1
60
1
100
AcDbPoint
10
69.7
20
-1.89795
30
0
39
0
210
0
220
0
230
1
50
360
0
SPLINE
5
B7
100
AcDbEntity
8
1
62
256
6
ByLayer
370
18
48
1
60
0
100
AcDbSpline
70
4
71
3
72
28
73
24
40
0
40
0
40
0
40
0
40
0.125000000000016
40
0.125000000000016
40
0.250000000000031
40
0.250000000000031
40
0.375000000000047
40
0.375000000000047
40
0.500000000000063
40
0.500000000000063
40
0.625000000000078
40
0.625000000000078
40
0.750000000000094
40
0.750000000000094
40
0.87500000000011
40
0.87500000000011
40
0.937500000000101
40
0.937500000000101
40
0.968750000000076
40
0.968750000000076
40
0.984375000000038
40
0.984375000000038
40
1
40
1
40
1
40
1
41
1
10
68.6973156389238
20
1.57619172070827
30
0
41
1
10
68.6963054629514
20
1.577417279911
30
0
41
1
10
68.6966749601004
20
1.57929121355298
30
0
41
1
10
68.6994960770517
20
1.58499266607097
30
0
41
1
10
68.7019881167752
20
1.58887641405471
30
0
41
1
10
68.7081903371491
20
1.59865548480394
30
0
41
1
10
68.7119139955273
20
1.60457581186236
30
0
41
1
10
68.7199813001106
20
1.61850171296288
30
0
41
1
10
68.7242237495038
20
1.6263301572377
30
0
41
1
10
68.7327132119897
20
1.64358847611692
30
0
41
1
10
68.7369920972198
20
1.65309840000987
30
0
41
1
10
68.7450921304534
20
1.67308724407127
30
0
41
1
10
68.748930997756
20
1.68359202777262
30
0
41
1
10
68.7561687853058
20
1.70552050734662
30
0
41
1
10
68.7595334503942
20
1.71695865894859
30
0
41
1
10
68.7646243324312
20
1.73474786731899
30
0
41
1
10
68.7663083741176
20
1.74076597499507
30
0
41
1
10
68.7692291355243
20
1.7498182337622
30
0
41
1
10
68.7702612506802
20
1.75283279907214
30
0
41
1
10
68.7721618643501
20
1.75729150525157
30
0
41
1
10
68.7728635250393
20
1.75878101349224
30
0
41
1
10
68.7744847622321
20
1.76160023005858
30
0
41
1
10
68.7754207380382
20
1.76296006269757
30
0
41
1
10
68.7765469673711
20
1.76407758717656
30
0
0
SPLINE
5
B8
100
AcDbEntity
8
1
62
256
6
ByLayer
370
18
48
1
60
0
100
AcDbSpline
70
4
71
3
72
22
73
18
40
0
40
0
40
0
40
0
40
0.125000000000005
40
0.125000000000005
40
0.187500000000005
40
0.187500000000005
40
0.250000000000005
40
0.250000000000005
40
0.312500000000004
40
0.312500000000004
40
0.375000000000004
40
0.375000000000004
40
0.500000000000003
40
0.500000000000003
40
0.750000000000002
40
0.750000000000002
40
1
40
1
40
1
40
1
41
1
10
68.7765469673782
20
1.76407758717943
30
0
41
1
10
68.7795530387004
20
1.76706042396594
30
0
41
1
10
68.782278335307
20
1.77060897653524
30
0
41
1
10
68.7849022502349
20
1.77672853033655
30
0
41
1
10
68.7855105432062
20
1.77886341718991
30
0
41
1
10
68.7861309676697
20
1.78313187736458
30
0
41
1
10
68.7861446736732
20
1.78528077148133
30
0
41
1
10
68.7856948488644
20
1.78936685869667
30
0
41
1
10
68.7852343780645
20
1.79133510497024
30
0
41
1
10
68.7840225476172
20
1.79502162310644
30
0
41
1
10
68.7832674368084
20
1.79676548618974
30
0
41
1
10
68.7806822308312
20
1.80178250883085
30
0
41
1
10
68.7785905026716
20
1.80475533541852
30
0
41
1
10
68.7717919646473
20
1.81299735948266
30
0
41
1
10
68.7665102930044
20
1.81765289896947
30
0
41
1
10
68.7556160370377
20
1.82594133528536
30
0
41
1
10
68.7499291853064
20
1.8295978597539
30
0
41
1
10
68.7441046042085
20
1.83295716303721
30
0
0
SPLINE
5
B9
100
AcDbEntity
8
1
62
256
6
ByLayer
370
18
48
1
60
0
100
AcDbSpline
70
4
71
3
72
11
73
7
40
0
40
0
40
0
40
0
40
0.249999999999998
40
0.249999999999998
40
0.499999999999997
40
1
40
1
40
1
40
1
41
1
10
68.7441046042288
20
1.83295716299682
30
0
41
1
10
68.7412923744506
20
1.83457910500019
30
0
41
1
10
68.7386152875127
20
1.83646033256039
30
0
41
1
10
68.7333411721855
20
1.84039910212644
30
0
41
1
10
68.7255715878881
20
1.8466108889142
30
0
41
1
10
68.7179671612923
20
1.85327435652974
30
0
41
1
10
68.712901392095
20
1.8577970413844
30
0
0
SPLINE
5
BA
100
AcDbEntity
8
1
62
256
6
ByLayer
370
18
48
1
60
0
100
AcDbSpline
70
4
71
3
72
8
73
4
40
0
40
0
40
0
40
0
40
1
40
1
40
1
40
1
41
1
10
60
20
-2.27946047672782
30
0
41
1
10
60
20
-2.32010527067999
30
0
41
1
10
60
20
-2.36075006463216
30
0
41
1
10
60
20
-2.40139485858433
30
0
0
SPLINE
5
BB
100
AcDbEntity
8
1
62
256
6
ByLayer
370
18
48
1
60
0
100
AcDbSpline
70
4
71
3
72
8
73
4
40
0
40
0
40
0
40
0
40
1
40
1
40
1
40
1
41
1
10
68.7129013920951
20
1.8577970413844
30
0
41
1
10
68.7097875255593
20
1.86056989570383
30
0
41
1
10
68.7067426527204
20
1.86343299430837
30
0
41
1
10
68.7037490659866
20
1.86636038479469
30
0
0
SPLINE
5
BC
100
AcDbEntity
8
1
62
256
6
ByLayer
370
18
48
1
60
0
100
AcDbSpline
70
4
71
3
72
14
73
10
40
0
40
0
40
0
40
0
40
0.125
40
0.125
40
0.25
40
0.25
40
0.5
40
0.5
40
1
40
1
40
1
40
1
41
1
10
69.114045160653
20
1.38909034591049
30
0
41
1
10
69.093377513766
20
1.40132440660821
30
0
41
1
10
69.0732455808961
20
1.41296155921594
30
0
41
1
10
69.0339736607695
20
1.43504871153729
30
0
41
1
10
69.0147885764004
20
1.44552174325307
30
1E-16
41
1
10
68.959131997191
20
1.47491829741753
30
0
41
1
10
68.924418595925
20
1.49190652663105
30
-1E-16
41
1
10
68.8252635088867
20
1.53622315021312
30
0
41
1
10
68.7658500038611
20
1.55691188403233
30
0
41
1
10
68.7105249587111
20
1.57107843360751
30
0
0
SPLINE
5
BD
100
AcDbEntity
8
1
62
256
6
ByLayer
370
18
48
1
60
0
100
AcDbSpline
70
4
71
3
72
8
73
4
40
0
40
0
40
0
40
0
40
1
40
1
40
1
40
1
41
0.983049958413954
10
60
20
-2.23323270822693
30
0
41
0.988378541548268
10
60
20
-2.2485730922997
30
0
41
0.994028555410283
10
60
20
-2.26398772269526
30
0
41
1
10
60
20
-2.27946047672782
30
0
0
SPLINE
5
BE
100
AcDbEntity
8
1
62
256
6
ByLayer
370
18
48
1
60
0
100
AcDbSpline
70
4
71
3
72
10
73
6
40
0
40
0
40
0
40
0
40
0.241201020449618
40
0.241201020449618
40
1
40
1
40
1
40
1
41
1
10
60
20
-2.10041170822322
30
0
41
1
10
60
20
-2.11090194896147
30
0
41
1
10
60
20
-2.1214611988222
30
0
41
1
10
60
20
-2.16545356016883
30
0
41
1
10
60
20
-2.19934391634763
30
0
41
1
10
60
20
-2.23323270822692
30
0
0
SPLINE
5
BF
100
AcDbEntity
8
1
62
256
6
ByLayer
370
18
48
1
60
0
100
AcDbSpline
70
4
71
3
72
11
73
7
40
0
40
0
40
0
40
0
40
0.250000000000126
40
0.250000000000126
40
0.500000000000251
40
1
40
1
40
1
40
1
41
1
10
68.7441046042131
20
1.0095915548423
30
1E-16
41
1
10
68.7412923744339
20
1.01270332374841
30
1E-16
41
1
10
68.7386152875185
20
1.01588071118428
30
1E-16
41
1
10
68.73334117219
20
1.02226947093536
30
0
41
1
10
68.7255715878908
20
1.03191447759767
30
0
41
1
10
68.7179671612935
20
1.04161066910427
30
0
41
1
10
68.712901392095
20
1.04806096000283
30
0
0
SPLINE
5
C0
100
AcDbEntity
8
1
62
256
6
ByLayer
370
18
48
1
60
0
100
AcDbSpline
70
4
71
3
72
28
73
24
40
0
40
0
40
0
40
0
40
0.125000000000002
40
0.125000000000002
40
0.250000000000004
40
0.250000000000004
40
0.375000000000007
40
0.375000000000007
40
0.500000000000009
40
0.500000000000009
40
0.625000000000011
40
0.625000000000011
40
0.750000000000013
40
0.750000000000013
40
0.875000000000016
40
0.875000000000016
40
0.937500000000034
40
0.937500000000034
40
0.968750000000043
40
0.968750000000043
40
0.984375000000022
40
0.984375000000022
40
1
40
1
40
1
40
1
41
1
10
68.6973156389238
20
0.668750687198013
30
0
41
1
10
68.6963054629514
20
0.680580064895793
30
0
41
1
10
68.6966749601004
20
0.692552432473178
30
-1E-16
41
1
10
68.6994960770518
20
0.717038807855857
30
1E-16
41
1
10
68.7019881167752
20
0.729650239578575
30
1E-16
41
1
10
68.7081903371489
20
0.754494289495
30
0
41
1
10
68.7119139955271
20
0.76687703624205
30
0
41
1
10
68.7199813001105
20
0.79155793144389
30
-1E-16
41
1
10
68.7242237495038
20
0.803558040931591
30
-1E-16
41
1
10
68.7327132119896
20
0.827082931205496
30
1E-16
41
1
10
68.7369920972197
20
0.838686960551115
30
0
41
1
10
68.7450921304533
20
0.860926131985366
30
0
41
1
10
68.7489309977559
20
0.871618241482707
30
0
41
1
10
68.7561687853056
20
0.892265342580231
30
-1E-16
41
1
10
68.7595334503941
20
0.902258342939348
30
1E-16
41
1
10
68.764624332431
20
0.91644375834403
30
1E-16
41
1
10
68.7663083741176
20
0.921033475629514
30
1E-16
41
1
10
68.769229135524
20
0.927337010081914
30
0
41
1
10
68.7702612506799
20
0.929339836942603
30
0
41
1
10
68.7721618643493
20
0.931965304937165
30
0
41
1
10
68.7728635250388
20
0.932782648734872
30
0
41
1
10
68.7744847622322
20
0.934102809654462
30
0
41
1
10
68.775420738043
20
0.934619924185171
30
0
41
1
10
68.7765469673766
20
0.934789445442249
30
0
0
SPLINE
5
C1
100
AcDbEntity
8
1
62
256
6
ByLayer
370
18
48
1
60
0
100
AcDbSpline
70
4
71
3
72
22
73
18
40
0
40
0
40
0
40
0
40
0.124999999999856
40
0.124999999999856
40
0.187499999999783
40
0.187499999999783
40
0.249999999999709
40
0.249999999999709
40
0.312499999999636
40
0.312499999999636
40
0.374999999999562
40
0.374999999999562
40
0.499999999999567
40
0.499999999999567
40
0.749999999999784
40
0.749999999999784
40
1
40
1
40
1
40
1
41
1
10
68.7765469673782
20
0.934789445439094
30
0
41
1
10
68.7795530387002
20
0.935241922544861
30
0
41
1
10
68.7822783353064
20
0.936312887761005
30
0
41
1
10
68.7849022502343
20
0.93945137734093
30
0
41
1
10
68.7855105432056
20
0.940737376199991
30
0
41
1
10
68.7861309676695
20
0.943680042850247
30
0
41
1
10
68.7861446736733
20
0.945347733137965
30
0
41
1
10
68.7856948488649
20
0.948817294904075
30
0
41
1
10
68.7852343780652
20
0.95064152757584
30
0
41
1
10
68.7840225476182
20
0.954279358300454
30
0
41
1
10
68.7832674368091
20
0.95611525634456
30
0
41
1
10
68.7806822308328
20
0.961660786440632
30
0
41
1
10
68.7785905026738
20
0.965304747381509
30
0
41
1
10
68.7717919646505
20
0.976060394133896
30
-1E-16
41
1
10
68.7665102930084
20
0.983078199290389
30
-1E-16
41
1
10
68.755616037043
20
0.996588822250601
30
1E-16
41
1
10
68.7499291853125
20
1.00314657994085
30
1E-16
41
1
10
68.7441046042152
20
1.00959155484409
30
1E-16
0
SPLINE
5
C2
100
AcDbEntity
8
1
62
256
6
ByLayer
370
18
48
1
60
0
100
AcDbSpline
70
4
71
3
72
8
73
4
40
0
40
0
40
0
40
0
40
1
40
1
40
1
40
1
41
1
10
68.7129013920949
20
1.04806096000289
30
0
41
1
10
68.7097875255591
20
1.05201954060121
30
0
41
1
10
68.7067426527203
20
1.0559918751824
30
0
41
1
10
68.7037490659866
20
1.05997579432483
30
0
0
SPLINE
5
C3
100
AcDbEntity
8
1
62
256
6
ByLayer
370
18
48
1
60
0
100
AcDbSpline
70
4
71
3
72
14
73
10
40
0
40
0
40
0
40
0
40
0.124999999999997
40
0.124999999999997
40
0.249999999999994
40
0.249999999999994
40
0.499999999999989
40
0.499999999999989
40
1
40
1
40
1
40
1
41
1
10
69.1140451606529
20
-0.0941236696004921
30
0
41
1
10
69.093377513766
20
-0.0654457689372805
30
-1E-16
41
1
10
69.0732455808961
20
-0.036402151118466
30
1E-16
41
1
10
69.0339736607694
20
0.0223580038627347
30
-1E-16
41
1
10
69.0147885764005
20
0.0521502629117663
30
1E-16
41
1
10
68.959131997191
20
0.141569379151179
30
-1E-16
41
1
10
68.9244185959249
20
0.20141263154585
30
0
41
1
10
68.8252635088867
20
0.381036404417358
30
0
41
1
10
68.7658500038611
20
0.500932831016144
30
-1E-16
41
1
10
68.7105249587111
20
0.620563808421167
30
1E-16
0
SPLINE
5
C4
100
AcDbEntity
8
1
62
256
6
ByLayer
370
18
48
1
60
0
100
AcDbSpline
70
4
71
3
72
8
73
4
40
0
40
0
40
0
40
0
40
1
40
1
40
1
40
1
41
1
10
68.7105249587086
20
0.620563808426652
30
1E-16
41
1
10
68.7033495184199
20
0.63607947466258
30
1E-16
41
1
10
68.6986960488304
20
0.652060243305868
30
0
41
1
10
68.6973156389238
20
0.668750687197985
30
0
0
SPLINE
5
C5
100
AcDbEntity
8
1
62
256
6
ByLayer
370
18
48
1
60
0
100
AcDbSpline
70
4
71
3
72
14
73
10
40
0
40
0
40
0
40
0
40
0.265154923597487
40
0.265154923597487
40
0.530309847194974
40
0.530309847194974
40
0.79546477079246
40
0.79546477079246
40
1
40
1
40
1
40
1
41
1
10
68.6973156389238
20
-0.907441033510281
30
-1E-16
41
1
10
68.6963054629514
20
-0.896837215015239
30
1E-16
41
1
10
68.6966749601005
20
-0.886738781079828
30
1E-16
41
1
10
68.6994960770518
20
-0.867953858215174
30
0
41
1
10
68.7019881167752
20
-0.859226174476134
30
0
41
1
10
68.7081903371489
20
-0.844161195308857
30
0
41
1
10
68.7119139955272
20
-0.837698775620225
30
0
41
1
10
68.7190591268924
20
-0.828173184402942
30
-1E-16
41
1
10
68.7222948459301
20
-0.824742593033221
30
-1E-16
41
1
10
68.7255600160482
20
-0.821952645155505
30
-1E-16
0
SPLINE
5
C6
100
AcDbEntity
8
1
62
256
6
ByLayer
370
18
48
1
60
0
100
AcDbSpline
70
4
71
3
72
14
73
10
40
0
40
0
40
0
40
0
40
0.125
40
0.125
40
0.25
40
0.25
40
0.5
40
0.5
40
1
40
1
40
1
40
1
41
1
10
69.1140451606531
20
-1.48321401551115
30
0
41
1
10
69.093377513766
20
-1.46677017554552
30
0
41
1
10
69.0732455808959
20
-1.4493637103343
30
0
41
1
10
69.033973660769
20
-1.41269070767413
30
0
41
1
10
69.0147885763998
20
-1.39337148034068
30
0
41
1
10
68.95913199719
20
-1.33334891826519
30
0
41
1
10
68.9244185959237
20
-1.29049389508364
30
0
41
1
10
68.8252635088847
20
-1.15518674579295
30
0
41
1
10
68.7658500038589
20
-1.05597905301238
30
0
41
1
10
68.7105249587085
20
-0.950514625181484
30
0
0
SPLINE
5
C7
100
AcDbEntity
8
1
62
256
6
ByLayer
370
18
48
1
60
0
100
AcDbSpline
70
4
71
3
72
8
73
4
40
0
40
0
40
0
40
0
40
1
40
1
40
1
40
1
41
1
10
68.7105249587086
20
-0.950514625181512
30
0
41
1
10
68.7033495184193
20
-0.936836304585682
30
0
41
1
10
68.6986960488305
20
-0.92249465314228
30
-1E-16
41
1
10
68.6973156389239
20
-0.90744103351031
30
-1E-16
0
SPLINE
5
C8
100
AcDbEntity
8
1
62
256
6
ByLayer
370
18
48
1
60
0
100
AcDbSpline
70
4
71
3
72
38
73
34
40
0
40
0
40
0
40
0
40
0.124999999999998
40
0.124999999999998
40
0.249999999999996
40
0.249999999999996
40
0.312499999999995
40
0.312499999999995
40
0.374999999999995
40
0.374999999999995
40
0.437499999999994
40
0.437499999999994
40
0.499999999999993
40
0.499999999999993
40
0.531249999999997
40
0.531249999999997
40
0.562500000000001
40
0.562500000000001
40
0.625000000000008
40
0.625000000000008
40
0.687500000000016
40
0.687500000000016
40
0.71875000000002
40
0.71875000000002
40
0.750000000000024
40
0.750000000000024
40
0.781250000000028
40
0.781250000000028
40
0.812500000000032
40
0.812500000000032
40
0.875000000000021
40
0.875000000000021
40
1
40
1
40
1
40
1
41
1
10
69.9489200647199
20
0.394280047209747
30
0
41
1
10
69.9521139000924
20
0.38178770523561
30
0
41
1
10
69.9551133061848
20
0.36900522233779
30
0
41
1
10
69.9607289882889
20
0.342819814478361
30
0
41
1
10
69.9633459989861
20
0.329419476017733
30
0
41
1
10
69.9669602131599
20
0.308736493295299
30
0
41
1
10
69.9681187006358
20
0.301704277150321
30
0
41
1
10
69.9702880220841
20
0.287609470719644
30
0
41
1
10
69.9712964397319
20
0.280568884308423
30
0
41
1
10
69.9731467318604
20
0.266506159397949
30
0
41
1
10
69.9739947391344
20
0.259426985937694
30
0
41
1
10
69.9754633280808
20
0.245595792342868
30
0
41
1
10
69.9760826183803
20
0.238873004782874
30
0
41
1
10
69.9768142998989
20
0.229145476495319
30
0
41
1
10
69.977025113675
20
0.225962808574593
30
0
41
1
10
69.9773725182772
20
0.219736169568193
30
0
41
1
10
69.9775094344655
20
0.21667208059759
30
0
41
1
10
69.9777843119484
20
0.207977834126211
30
0
41
1
10
69.9777930336685
20
0.202765435920071
30
0
41
1
10
69.9774105827863
20
0.193830105647265
30
0
41
1
10
69.977028996861
20
0.190308543250325
30
0
41
1
10
69.9761761295228
20
0.186420403184172
30
0
41
1
10
69.9758437790381
20
0.185363936017069
30
0
41
1
10
69.9751087873093
20
0.183766926893128
30
0
41
1
10
69.9747039207253
20
0.183214171091748
30
0
41
1
10
69.9738237332544
20
0.182561714357291
30
0
41
1
10
69.9733452473777
20
0.182464382381085
30
0
41
1
10
69.9723431627652
20
0.182688505642574
30
0
41
1
10
69.9718182560579
20
0.183006106069513
30
0
41
1
10
69.9701779205101
20
0.18449831149303
30
0
41
1
10
69.9689899185805
20
0.18622180233308
30
0
41
1
10
69.9652349887129
20
0.193086149741816
30
0
41
1
10
69.9625473822177
20
0.199717732785189
30
0
41
1
10
69.9596857057494
20
0.207745024094436
30
0
0
SPLINE
5
C9
100
AcDbEntity
8
1
62
256
6
ByLayer
370
18
48
1
60
0
100
AcDbSpline
70
4
71
3
72
34
73
30
40
0
40
0
40
0
40
0
40
0.125000000000027
40
0.125000000000027
40
0.250000000000054
40
0.250000000000054
40
0.312500000000063
40
0.312500000000063
40
0.375000000000072
40
0.375000000000072
40
0.500000000000089
40
0.500000000000089
40
0.531250000000094
40
0.531250000000094
40
0.562500000000098
40
0.625000000000093
40
0.687500000000087
40
0.687500000000087
40
0.718750000000077
40
0.718750000000077
40
0.750000000000067
40
0.750000000000067
40
0.875000000000026
40
0.875000000000026
40
0.937500000000013
40
0.937500000000013
40
0.968750000000006
40
0.968750000000006
40
1
40
1
40
1
40
1
41
1
10
69.9596857057476
20
0.20774502409941
30
0
41
1
10
69.945643999802
20
0.247133426442218
30
0
41
1
10
69.9280743820331
20
0.287587938860412
30
0
41
1
10
69.8859803690605
20
0.371251298673854
30
0
41
1
10
69.8614600223866
20
0.414479086322729
30
0
41
1
10
69.819288781523
20
0.482266933240737
30
0
41
1
10
69.8044515551711
20
0.505157403481263
30
0
41
1
10
69.773372141762
20
0.551456387603054
30
0
41
1
10
69.7571133532808
20
0.574888612465855
30
0
41
1
10
69.7062476167711
20
0.646294026000675
30
0
41
1
10
69.6695708220839
20
0.695387888255624
30
0
41
1
10
69.6202816118345
20
0.759510688239374
30
0
41
1
10
69.6102345045607
20
0.772494234833005
30
0
41
1
10
69.5899925526257
20
0.798505855701677
30
0
41
1
10
69.559343842838
20
0.83767380313563
30
0
41
1
10
69.5069163867884
20
0.903797563597692
30
0
41
1
10
69.4636530612779
20
0.957763390967983
30
0
41
1
10
69.4307309387501
20
0.998698363932533
30
0
41
1
10
69.4196775585912
20
1.01242010920623
30
0
41
1
10
69.3974125368235
20
1.04002715085693
30
0
41
1
10
69.3862169032869
20
1.0538924338766
30
0
41
1
10
69.330532297643
20
1.12279669018096
30
0
41
1
10
69.2864128465981
20
1.17723926586885
30
0
41
1
10
69.2209241597777
20
1.2579388347408
30
1E-16
41
1
10
69.1992073520209
20
1.28467486813628
30
0
41
1
10
69.1667839692729
20
1.32451055490389
30
0
41
1
10
69.1560613669132
20
1.33767025856787
30
0
41
1
10
69.1348829013826
20
1.36362256311546
30
0
41
1
10
69.1244096272026
20
1.37643653735009
30
0
41
1
10
69.1140451606524
20
1.38909034590472
30
0
0
SPLINE
5
CA
100
AcDbEntity
8
1
62
256
6
ByLayer
370
18
48
1
60
0
100
AcDbSpline
70
4
71
3
72
23
73
19
40
0
40
0
40
0
40
0
40
0.124999999999856
40
0.124999999999856
40
0.187499999999818
40
0.187499999999818
40
0.249999999999779
40
0.374999999999701
40
0.374999999999701
40
0.4374999999997
40
0.4374999999997
40
0.499999999999699
40
0.499999999999699
40
0.624999999999774
40
0.624999999999774
40
0.74999999999985
40
0.74999999999985
40
1
40
1
40
1
40
1
41
1
10
69.1140451606392
20
1.38909034591757
30
0
41
1
10
69.1010156112462
20
1.38994943170354
30
0
41
1
10
69.0870247899206
20
1.39176122980248
30
0
41
1
10
69.0645206280994
20
1.39598800895908
30
-1E-16
41
1
10
69.0567820254532
20
1.39764792119718
30
-1E-16
41
1
10
69.0411126305041
20
1.40139412797077
30
0
41
1
10
69.0172093822172
20
1.40767303783304
30
0
41
1
10
68.9921593897567
20
1.41581689406942
30
0
41
1
10
68.9663798712733
20
1.42508031601002
30
0
41
1
10
68.9576652050908
20
1.42835619151356
30
0
41
1
10
68.9402683498879
20
1.43515158004433
30
0
41
1
10
68.9315515551409
20
1.43868319523895
30
0
41
1
10
68.9053441244121
20
1.44963484186098
30
-1E-16
41
1
10
68.8877965978963
20
1.45741015085631
30
-1E-16
41
1
10
68.8525345137767
20
1.47371688720045
30
1E-16
41
1
10
68.8347796508118
20
1.48226902565526
30
1E-16
41
1
10
68.7815011034082
20
1.50870333898786
30
0
41
1
10
68.7464468665239
20
1.52709851820055
30
0
41
1
10
68.7116143759064
20
1.54582422323369
30
-1E-16
0
SPLINE
5
CB
100
AcDbEntity
8
1
62
256
6
ByLayer
370
18
48
1
60
0
100
AcDbSpline
70
4
71
3
72
8
73
4
40
0
40
0
40
0
40
0
40
1
40
1
40
1
40
1
41
1
10
68.7116143759062
20
1.54582422323401
30
-1E-16
41
1
10
68.6780337822444
20
1.56382630139501
30
1E-16
41
1
10
68.6448657353382
20
1.58198009749168
30
1E-16
41
1
10
68.6121382185523
20
1.599954759008
30
0
0
SPLINE
5
CC
100
AcDbEntity
8
1
62
256
6
ByLayer
370
18
48
1
60
0
100
AcDbSpline
70
4
71
3
72
16
73
12
40
0
40
0
40
0
40
0
40
0.249999999999974
40
0.249999999999974
40
0.499999999999948
40
0.499999999999948
40
0.624999999999961
40
0.624999999999961
40
0.749999999999974
40
0.749999999999974
40
1
40
1
40
1
40
1
41
1
10
68.6121382185511
20
1.59995475900877
30
0
41
1
10
68.5661484724038
20
1.62521002483362
30
0
41
1
10
68.5216465943955
20
1.64974801609912
30
-1E-16
41
1
10
68.4344662465636
20
1.69685814622713
30
0
41
1
10
68.3917999975002
20
1.71943367859075
30
0
41
1
10
68.3286711034651
20
1.751508418638
30
0
41
1
10
68.307775631434
20
1.7619023658464
30
0
41
1
10
68.2662146781557
20
1.78204421499677
30
0
41
1
10
68.2455617218748
20
1.79178480279674
30
0
41
1
10
68.184295591919
20
1.81977312026976
30
0
41
1
10
68.1442195049843
20
1.83686301763407
30
0
41
1
10
68.104671912486
20
1.85228121838884
30
0
0
SPLINE
5
CD
100
AcDbEntity
8
1
62
256
6
ByLayer
370
18
48
1
60
0
100
AcDbSpline
70
4
71
3
72
16
73
12
40
0
40
0
40
0
40
0
40
0.250000000000019
40
0.250000000000019
40
0.500000000000038
40
0.500000000000038
40
0.625000000000028
40
0.625000000000028
40
0.750000000000019
40
0.750000000000019
40
1
40
1
40
1
40
1
41
1
10
68.1046719124859
20
1.53342390363818
30
0
41
1
10
68.1553711796574
20
1.50219306262054
30
0
41
1
10
68.205588387763
20
1.46859894395405
30
-1E-16
41
1
10
68.3055611404575
20
1.39716292320588
30
1E-16
41
1
10
68.3553150282345
20
1.3593197459594
30
-1E-16
41
1
10
68.4299565360877
20
1.29962053121298
30
1E-16
41
1
10
68.4548387624204
20
1.27923072427947
30
-1E-16
41
1
10
68.5046685598705
20
1.2375024018618
30
0
41
1
10
68.5296399917316
20
1.21614300798788
30
0
41
1
10
68.6045958463105
20
1.15081434235282
30
0
41
1
10
68.6542225311076
20
1.10594917016544
30
1E-16
41
1
10
68.7037490659812
20
1.05997579432378
30
0
0
SPLINE
5
CE
100
AcDbEntity
8
1
62
256
6
ByLayer
370
18
48
1
60
0
100
AcDbSpline
70
4
71
3
72
8
73
4
40
0
40
0
40
0
40
0
40
1
40
1
40
1
40
1
41
1
10
68.7037490659794
20
1.05997579432116
30
0
41
1
10
68.7139030308896
20
1.05245661585434
30
0
41
1
10
68.7236869400986
20
1.0443115748572
30
0
41
1
10
68.7329987415118
20
1.03568818442682
30
0
0
SPLINE
5
CF
100
AcDbEntity
8
1
62
256
6
ByLayer
370
18
48
1
60
0
100
AcDbSpline
70
4
71
3
72
35
73
31
40
0
40
0
40
0
40
0
40
0.124999999999948
40
0.124999999999948
40
0.187499999999922
40
0.187499999999922
40
0.218749999999909
40
0.218749999999909
40
0.249999999999896
40
0.249999999999896
40
0.374999999999885
40
0.374999999999885
40
0.437499999999886
40
0.437499999999886
40
0.468749999999886
40
0.468749999999886
40
0.499999999999887
40
0.499999999999887
40
0.624999999999913
40
0.624999999999913
40
0.687499999999926
40
0.687499999999926
40
0.74999999999994
40
0.74999999999994
40
0.874999999999966
40
0.874999999999966
40
0.906249999999976
40
0.906249999999976
40
0.937499999999986
40
1
40
1
40
1
40
1
41
1
10
68.7329987415188
20
1.03568818442028
30
0
41
1
10
68.7976254023366
20
0.975839299790294
30
-1E-16
41
1
10
68.8613281196041
20
0.91508510650101
30
1E-16
41
1
10
68.9562535214371
20
0.823399944319192
30
1E-16
41
1
10
68.9877903239931
20
0.792745759399452
30
-1E-16
41
1
10
69.0350360677593
20
0.746730733798273
30
0
41
1
10
69.0507748853212
20
0.731386929409354
30
1E-16
41
1
10
69.0822494838767
20
0.700706134769348
30
-1E-16
41
1
10
69.0980218841893
20
0.685333151662206
30
-1E-16
41
1
10
69.1764609646893
20
0.608972350481309
30
-1E-16
41
1
10
69.2373211478085
20
0.550040308168718
30
0
41
1
10
69.3263923708779
20
0.465772740537403
30
0
41
1
10
69.3557109172141
20
0.438376437288667
30
1E-16
41
1
10
69.3991752605374
20
0.398454864039621
30
0
41
1
10
69.4135996240053
20
0.385322257589138
30
0
41
1
10
69.4421818876582
20
0.359560306966955
30
0
41
1
10
69.4562614339214
20
0.347001252508164
30
1E-16
41
1
10
69.5256376476188
20
0.285830354401554
30
0
41
1
10
69.5779055737179
20
0.242059266083373
30
1E-16
41
1
10
69.6516197045748
20
0.184408678441486
30
0
41
1
10
69.6754005590533
20
0.166523174688223
30
1E-16
41
1
10
69.7213025352614
20
0.133468099405974
30
-1E-16
41
1
10
69.743046004772
20
0.118587484980282
30
1E-16
41
1
10
69.8045963133018
20
0.07857679903762
30
0
41
1
10
69.8408314536246
20
0.0580419388014093
30
0
41
1
10
69.8799016558824
20
0.0387717508982064
30
0
41
1
10
69.8874183297536
20
0.0352284097453719
30
0
41
1
10
69.9016932718615
20
0.0287966038142997
30
0
41
1
10
69.9219900920098
20
0.0201210622497854
30
0
41
1
10
69.9390066611885
20
0.014037616600632
30
0
41
1
10
69.9489200647242
20
0.0108865155105491
30
0
0
SPLINE
5
D0
100
AcDbEntity
8
1
62
256
6
ByLayer
370
18
48
1
60
0
100
AcDbSpline
70
4
71
3
72
38
73
34
40
0
40
0
40
0
40
0
40
0.125000000000012
40
0.125000000000012
40
0.250000000000024
40
0.250000000000024
40
0.312500000000031
40
0.312500000000031
40
0.375000000000037
40
0.375000000000037
40
0.437500000000044
40
0.437500000000044
40
0.50000000000005
40
0.50000000000005
40
0.531250000000049
40
0.531250000000049
40
0.562500000000048
40
0.562500000000048
40
0.625000000000049
40
0.625000000000049
40
0.68750000000005
40
0.68750000000005
40
0.71875000000005
40
0.71875000000005
40
0.750000000000051
40
0.750000000000051
40
0.781250000000051
40
0.781250000000051
40
0.812500000000052
40
0.812500000000052
40
0.875000000000035
40
0.875000000000035
40
1
40
1
40
1
40
1
41
1
10
69.9489200647199
20
0.0108865155117712
30
0
41
1
10
69.9521139000922
20
0.0098713144168698
30
0
41
1
10
69.955113306188
20
0.0079438222728641
30
0
41
1
10
69.9607289882915
20
0.0021173099400755
30
0
41
1
10
69.9633459989885
20
-0.0017729451429602
30
0
41
1
10
69.966960213162
20
-0.0094898502235878
30
0
41
1
10
69.9681187006377
20
-0.0123982470427109
30
0
41
1
10
69.9702880220858
20
-0.0188993923537737
30
0
41
1
10
69.9712964397334
20
-0.0224776964446392
30
0
41
1
10
69.9731467318616
20
-0.0304165846599176
30
0
41
1
10
69.9739947391355
20
-0.0348157576327992
30
0
41
1
10
69.9754633280816
20
-0.0444102893922604
30
0
41
1
10
69.976082618381
20
-0.0495760527271045
30
0
41
1
10
69.9768142998994
20
-0.0580033949918288
30
0
41
1
10
69.9770251136754
20
-0.0609263820824708
30
0
41
1
10
69.9773725182775
20
-0.067035819043781
30
0
41
1
10
69.9775094344658
20
-0.070246883811393
30
0
41
1
10
69.9777843119484
20
-0.080060890874222
30
0
41
1
10
69.9777930336684
20
-0.0869115947872956
30
0
41
1
10
69.977410582786
20
-0.101193593273592
30
0
41
1
10
69.9770289968606
20
-0.108298074315599
30
0
41
1
10
69.9761761295223
20
-0.118900983441563
30
0
41
1
10
69.9758437790376
20
-0.122424464906146
30
0
41
1
10
69.9751087873088
20
-0.12922927836388
30
0
41
1
10
69.9747039207248
20
-0.132540998653297
30
0
41
1
10
69.9738237332538
20
-0.138997098306277
30
0
41
1
10
69.9733452473772
20
-0.14215822747687
30
0
41
1
10
69.9723431627647
20
-0.148186837675354
30
0
41
1
10
69.9718182560573
20
-0.151067834090583
30
0
41
1
10
69.9701779205096
20
-0.159360564667196
30
0
41
1
10
69.9689899185801
20
-0.164452066998649
30
0
41
1
10
69.9652349887126
20
-0.17837726108479
30
0
41
1
10
69.9625473822157
20
-0.185701805915613
30
0
41
1
10
69.9596857057475
20
-0.191687050032129
30
0
0
SPLINE
5
D1
100
AcDbEntity
8
1
62
256
6
ByLayer
370
18
48
1
60
0
100
AcDbSpline
70
4
71
3
72
34
73
30
40
0
40
0
40
0
40
0
40
0.124999999999998
40
0.124999999999998
40
0.249999999999995
40
0.249999999999995
40
0.312499999999989
40
0.312499999999989
40
0.374999999999983
40
0.374999999999983
40
0.499999999999984
40
0.499999999999984
40
0.531249999999983
40
0.531249999999983
40
0.562499999999983
40
0.624999999999968
40
0.687499999999953
40
0.687499999999953
40
0.718749999999953
40
0.718749999999953
40
0.749999999999953
40
0.749999999999953
40
0.874999999999969
40
0.874999999999969
40
0.937499999999984
40
0.937499999999984
40
0.968749999999992
40
0.968749999999992
40
1
40
1
40
1
40
1
41
1
10
69.9596857057476
20
-0.191687050031874
30
0
41
1
10
69.9456439998019
20
-0.221055512480405
30
0
41
1
10
69.9280743820331
20
-0.248069276344864
30
0
41
1
10
69.8859803690604
20
-0.296689525497783
30
0
41
1
10
69.8614600223865
20
-0.318275068198375
30
0
41
1
10
69.819288781523
20
-0.345510837087318
30
0
41
1
10
69.8044515551711
20
-0.353647431470279
30
1E-16
41
1
10
69.773372141762
20
-0.367869127566422
30
0
41
1
10
69.7571133532808
20
-0.373968455239122
30
0
41
1
10
69.7062476167711
20
-0.388869454419961
30
0
41
1
10
69.6695708220837
20
-0.394270342197188
30
0
41
1
10
69.6202816118345
20
-0.393943419919452
30
0
41
1
10
69.6102345045606
20
-0.393518488739062
30
0
41
1
10
69.5899925526256
20
-0.391929944937004
30
0
41
1
10
69.5593438428381
20
-0.388441163441343
30
0
41
1
10
69.5069163867884
20
-0.376981191865724
30
0
41
1
10
69.4636530612779
20
-0.361501829170152
30
0
41
1
10
69.4307309387501
20
-0.347375299861454
30
-1E-16
41
1
10
69.419677558591
20
-0.342246488018077
30
-1E-16
41
1
10
69.3974125368235
20
-0.331117399329685
30
1E-16
41
1
10
69.386216903287
20
-0.325122332259383
30
1E-16
41
1
10
69.330532297643
20
-0.293312325420487
30
0
41
1
10
69.286412846598
20
-0.261763819195039
30
-1E-16
41
1
10
69.2209241597777
20
-0.205374185978002
30
0
41
1
10
69.1992073520208
20
-0.185060399321628
30
0
41
1
10
69.1667839692728
20
-0.152271255903088
30
-1E-16
41
1
10
69.1560613669132
20
-0.141014221493663
30
1E-16
41
1
10
69.1348829013826
20
-0.117980193536539
30
1E-16
41
1
10
69.1244096272026
20
-0.106185680145245
30
0
41
1
10
69.1140451606524
20
-0.0941236695973089
30
0
0
SPLINE
5
D2
100
AcDbEntity
8
1
62
256
6
ByLayer
370
18
48
1
60
0
100
AcDbSpline
70
4
71
3
72
23
73
19
40
0
40
0
40
0
40
0
40
0.125000000000086
40
0.125000000000086
40
0.18750000000013
40
0.18750000000013
40
0.250000000000174
40
0.37500000000026
40
0.37500000000026
40
0.437500000000266
40
0.437500000000266
40
0.500000000000271
40
0.500000000000271
40
0.625000000000203
40
0.625000000000203
40
0.750000000000136
40
0.750000000000136
40
1
40
1
40
1
40
1
41
1
10
69.1140451606393
20
-0.0941236695861392
30
0
41
1
10
69.1010156112463
20
-0.106363093016142
30
0
41
1
10
69.0870247899207
20
-0.117341614206964
30
1E-16
41
1
10
69.0645206280994
20
-0.131815761145674
30
1E-16
41
1
10
69.0567820254531
20
-0.136291397764296
30
1E-16
41
1
10
69.041112630504
20
-0.144411138557189
30
-1E-16
41
1
10
69.0172093822173
20
-0.155415844006967
30
-1E-16
41
1
10
68.9921593897566
20
-0.163072756546967
30
-1E-16
41
1
10
68.9663798712733
20
-0.168661389330936
30
0
41
1
10
68.9576652050908
20
-0.170175100423165
30
0
41
1
10
68.940268349888
20
-0.172508557735256
30
0
41
1
10
68.9315515551409
20
-0.173336672495907
30
0
41
1
10
68.9053441244121
20
-0.174890317965861
30
0
41
1
10
68.8877965978963
20
-0.17468881545247
30
0
41
1
10
68.8525345137767
20
-0.172151161283949
30
0
41
1
10
68.8347796508118
20
-0.169805746241451
30
0
41
1
10
68.7815011034081
20
-0.159971526687229
30
-1E-16
41
1
10
68.7464468665238
20
-0.149837357664808
30
-1E-16
41
1
10
68.7116143759064
20
-0.137046314988311
30
1E-16
0
SPLINE
5
D3
100
AcDbEntity
8
1
62
256
6
ByLayer
370
18
48
1
60
0
100
AcDbSpline
70
4
71
3
72
8
73
4
40
0
40
0
40
0
40
0
40
1
40
1
40
1
40
1
41
1
10
68.7116143759062
20
-0.137046314988083
30
1E-16
41
1
10
68.6780337822377
20
-0.124804785592289
30
1E-16
41
1
10
68.644865735325
20
-0.110239437243365
30
0
41
1
10
68.6121382185327
20
-0.0939318316964375
30
0
0
SPLINE
5
D4
100
AcDbEntity
8
1
62
256
6
ByLayer
370
18
48
1
60
0
100
AcDbSpline
70
4
71
3
72
8
73
4
40
0
40
0
40
0
40
0
40
1
40
1
40
1
40
1
41
1
10
68.7037490659794
20
-0.806384590468298
30
-1E-16
41
1
10
68.7139030308896
20
-0.810606796143276
30
-1E-16
41
1
10
68.7236869400986
20
-0.815525081143988
30
-1E-16
41
1
10
68.7329987415117
20
-0.821016289673196
30
-1E-16
0
SPLINE
5
D5
100
AcDbEntity
8
1
62
256
6
ByLayer
370
18
48
1
60
0
100
AcDbSpline
70
4
71
3
72
35
73
31
40
0
40
0
40
0
40
0
40
0.125000000000026
40
0.125000000000026
40
0.187500000000032
40
0.187500000000032
40
0.218750000000028
40
0.218750000000028
40
0.250000000000024
40
0.250000000000024
40
0.375000000000008
40
0.375000000000008
40
0.437500000000007
40
0.437500000000007
40
0.46875
40
0.46875
40
0.499999999999993
40
0.499999999999993
40
0.624999999999989
40
0.624999999999989
40
0.687499999999987
40
0.687499999999987
40
0.749999999999985
40
0.749999999999985
40
0.87499999999999
40
0.87499999999999
40
0.906249999999991
40
0.906249999999991
40
0.937499999999992
40
1
40
1
40
1
40
1
41
1
10
68.7329987415188
20
-0.821016289677402
30
-1E-16
41
1
10
68.7976254023361
20
-0.859126903872891
30
0
41
1
10
68.8613281196031
20
-0.892038081187621
30
1E-16
41
1
10
68.9562535214354
20
-0.932602193786295
30
0
41
1
10
68.9877903239911
20
-0.944649928394568
30
0
41
1
10
69.035036067757
20
-0.960309489761357
30
0
41
1
10
69.0507748853187
20
-0.965126565611257
30
0
41
1
10
69.0822494838741
20
-0.973913976567729
30
1E-16
41
1
10
69.0980218841864
20
-0.977892520109151
30
1E-16
41
1
10
69.1764609646859
20
-0.995453616922816
30
-1E-16
41
1
10
69.2373211478047
20
-1.00199105187016
30
-1E-16
41
1
10
69.3263923708735
20
-0.999702946033921
30
-1E-16
41
1
10
69.3557109172096
20
-0.996912070275528
30
-1E-16
41
1
10
69.3991752605326
20
-0.989482093206618
30
1E-16
41
1
10
69.4135996240004
20
-0.986459317980916
30
1E-16
41
1
10
69.4421818876532
20
-0.979313770154363
30
0
41
1
10
69.4562614339164
20
-0.975212424409051
30
0
41
1
10
69.5256376476135
20
-0.952074158228385
30
0
41
1
10
69.5779055737124
20
-0.925206983926785
30
-1E-16
41
1
10
69.651619704569
20
-0.872203827343299
30
0
41
1
10
69.6754005590475
20
-0.852415307983648
30
0
41
1
10
69.7213025352555
20
-0.808475576385121
30
0
41
1
10
69.7430460047662
20
-0.78467140046638
30
0
41
1
10
69.8045963132961
20
-0.708287097411187
30
0
41
1
10
69.8408314536191
20
-0.650667622409912
30
0
41
1
10
69.8799016558773
20
-0.571143375997735
30
0
41
1
10
69.8874183297486
20
-0.554822629375394
30
0
41
1
10
69.9016932718567
20
-0.521722733853466
30
0
41
1
10
69.9219900920054
20
-0.471353819473308
30
0
41
1
10
69.9390066611845
20
-0.419017637421575
30
0
41
1
10
69.9489200647204
20
-0.383393531697578
30
0
0
SPLINE
5
D6
100
AcDbEntity
8
1
62
256
6
ByLayer
370
18
48
1
60
0
100
AcDbSpline
70
4
71
3
72
38
73
34
40
0
40
0
40
0
40
0
40
0.125000000000017
40
0.125000000000017
40
0.250000000000034
40
0.250000000000034
40
0.312500000000032
40
0.312500000000032
40
0.37500000000003
40
0.37500000000003
40
0.437500000000029
40
0.437500000000029
40
0.500000000000027
40
0.500000000000027
40
0.531250000000022
40
0.531250000000022
40
0.562500000000016
40
0.562500000000016
40
0.625000000000006
40
0.625000000000006
40
0.687499999999996
40
0.687499999999996
40
0.718749999999991
40
0.718749999999991
40
0.749999999999985
40
0.749999999999985
40
0.78124999999998
40
0.78124999999998
40
0.812499999999975
40
0.812499999999975
40
0.874999999999984
40
0.874999999999984
40
1
40
1
40
1
40
1
41
1
10
69.9489200647199
20
-0.383393531697976
30
0
41
1
10
69.9521139000924
20
-0.371916390818768
30
0
41
1
10
69.9551133061848
20
-0.361061400062482
30
0
41
1
10
69.9607289882889
20
-0.340702504534733
30
0
41
1
10
69.9633459989861
20
-0.331192421156629
30
0
41
1
10
69.9669602131599
20
-0.318226343514055
30
0
41
1
10
69.9681187006358
20
-0.314102524187888
30
0
41
1
10
69.9702880220841
20
-0.306508863067876
30
0
41
1
10
69.9712964397316
20
-0.303046580749225
30
0
41
1
10
69.9731467318601
20
-0.296922744053688
30
0
41
1
10
69.9739947391344
20
-0.294242743564183
30
0
41
1
10
69.9754633280808
20
-0.29000608172862
30
0
41
1
10
69.9760826183803
20
-0.288449057503357
30
0
41
1
10
69.9768142998989
20
-0.287148871480383
30
0
41
1
10
69.977025113675
20
-0.2868891906503
30
0
41
1
10
69.9773725182772
20
-0.286771988605125
30
0
41
1
10
69.9775094344656
20
-0.286918964402076
30
0
41
1
10
69.9777843119484
20
-0.288038724993726
30
0
41
1
10
69.9777930336684
20
-0.289677030700659
30
0
41
1
10
69.9774105827863
20
-0.295023698914917
30
0
41
1
10
69.977028996861
20
-0.298606617560324
30
0
41
1
10
69.9761761295228
20
-0.305321386620733
30
0
41
1
10
69.9758437790381
20
-0.307788400918469
30
0
41
1
10
69.9751087873093
20
-0.312996205252773
30
0
41
1
10
69.9747039207253
20
-0.315755169741067
30
0
41
1
10
69.9738237332543
20
-0.321558812660044
30
0
41
1
10
69.9733452473777
20
-0.324622609854686
30
0
41
1
10
69.9723431627651
20
-0.330875343315142
30
0
41
1
10
69.9718182560578
20
-0.334073940157509
30
0
41
1
10
69.9701779205101
20
-0.343858876158294
30
0
41
1
10
69.9689899185805
20
-0.350673869330109
30
0
41
1
10
69.9652349887128
20
-0.371463410825982
30
0
41
1
10
69.9625473822159
20
-0.385419538705264
30
0
41
1
10
69.9596857057475
20
-0.399432074131909
30
0
0
SPLINE
5
D7
100
AcDbEntity
8
1
62
256
6
ByLayer
370
18
48
1
60
0
100
AcDbSpline
70
4
71
3
72
34
73
30
40
0
40
0
40
0
40
0
40
0.124999999999995
40
0.124999999999995
40
0.24999999999999
40
0.24999999999999
40
0.312499999999988
40
0.312499999999988
40
0.374999999999986
40
0.374999999999986
40
0.499999999999981
40
0.499999999999981
40
0.531249999999979
40
0.531249999999979
40
0.562499999999978
40
0.62499999999999
40
0.687500000000002
40
0.687500000000002
40
0.71875
40
0.71875
40
0.749999999999999
40
0.749999999999999
40
0.874999999999992
40
0.874999999999992
40
0.937499999999996
40
0.937499999999996
40
0.968749999999998
40
0.968749999999998
40
1
40
1
40
1
40
1
41
1
10
69.9596857057476
20
-0.399432074131227
30
0
41
1
10
69.9456439998019
20
-0.468188938922623
30
0
41
1
10
69.9280743820331
20
-0.535657215205219
30
0
41
1
10
69.8859803690605
20
-0.667940824171581
30
0
41
1
10
69.8614600223866
20
-0.732754154521047
30
0
41
1
10
69.819288781523
20
-0.82777777032797
30
0
41
1
10
69.8044515551711
20
-0.858804834951457
30
0
41
1
10
69.7733721417621
20
-0.91932551516939
30
0
41
1
10
69.7571133532808
20
-0.948857067704864
30
0
41
1
10
69.7062476167711
20
-1.03516348042052
30
0
41
1
10
69.6695708220839
20
-1.0896582304527
30
0
41
1
10
69.6202816118346
20
-1.15345410815871
30
0
41
1
10
69.6102345045607
20
-1.16601272357195
30
0
41
1
10
69.5899925526257
20
-1.1904358006386
30
0
41
1
10
69.5593438428381
20
-1.22611496657686
30
0
41
1
10
69.5069163867885
20
-1.28077875546336
30
0
41
1
10
69.4636530612781
20
-1.31926522013808
30
0
41
1
10
69.4307309387503
20
-1.34607366379393
30
0
41
1
10
69.4196775585913
20
-1.35466659722425
30
0
41
1
10
69.3974125368236
20
-1.37114455018656
30
0
41
1
10
69.3862169032871
20
-1.37901476613592
30
0
41
1
10
69.3305322976431
20
-1.41610901560139
30
0
41
1
10
69.2864128465981
20
-1.43900308506386
30
0
41
1
10
69.2209241597778
20
-1.4633130207188
30
0
41
1
10
69.1992073520209
20
-1.46973526745791
30
0
41
1
10
69.166783969273
20
-1.47678181080696
30
0
41
1
10
69.1560613669133
20
-1.47868448006153
30
0
41
1
10
69.1348829013827
20
-1.48160275665199
30
0
41
1
10
69.1244096272027
20
-1.48262221749539
30
0
41
1
10
69.1140451606526
20
-1.48321401550206
30
0
0
SPLINE
5
D8
100
AcDbEntity
8
1
62
256
6
ByLayer
370
18
48
1
60
0
100
AcDbSpline
70
4
71
3
72
22
73
18
40
0
40
0
40
0
40
0
40
0.125000000000008
40
0.125000000000008
40
0.187500000000012
40
0.187500000000012
40
0.250000000000017
40
0.375000000000025
40
0.375000000000025
40
0.437499999999992
40
0.437499999999992
40
0.499999999999958
40
0.624999999999968
40
0.624999999999968
40
0.749999999999979
40
0.749999999999979
40
1
40
1
40
1
40
1
41
1
10
69.1140451606392
20
-1.48321401550373
30
0
41
1
10
69.1010156112462
20
-1.49631252471971
30
0
41
1
10
69.0870247899207
20
-1.50910284400945
30
0
41
1
10
69.0645206280994
20
-1.52780377010478
30
0
41
1
10
69.0567820254531
20
-1.53393931896156
30
0
41
1
10
69.041112630504
20
-1.54580526652802
30
0
41
1
10
69.0172093822171
20
-1.56308888183997
30
0
41
1
10
68.9921593897567
20
-1.57888965061645
30
0
41
1
10
68.9663798712733
20
-1.59374170534099
30
0
41
1
10
68.9576652050908
20
-1.59853129193675
30
0
41
1
10
68.9402683498878
20
-1.60766013777962
30
0
41
1
10
68.9141178876699
20
-1.62073825658587
30
0
41
1
10
68.8877965978962
20
-1.63209896630877
30
0
41
1
10
68.8525345137766
20
-1.64586804848443
30
0
41
1
10
68.8347796508117
20
-1.65207477189674
30
0
41
1
10
68.7815011034081
20
-1.66867486567511
30
0
41
1
10
68.7464468665237
20
-1.67693587586535
30
0
41
1
10
68.7116143759063
20
-1.68287053822201
30
-1E-16
0
SPLINE
5
D9
100
AcDbEntity
8
1
62
256
6
ByLayer
370
18
48
1
60
0
100
AcDbSpline
70
4
71
3
72
16
73
12
40
0
40
0
40
0
40
0
40
0.250000000000014
40
0.250000000000014
40
0.500000000000027
40
0.500000000000027
40
0.625000000000008
40
0.625000000000008
40
0.749999999999989
40
0.749999999999989
40
1
40
1
40
1
40
1
41
1
10
68.6121382185511
20
-0.0939318317051061
30
0
41
1
10
68.5661484724053
20
-0.0710219453095533
30
-1E-16
41
1
10
68.5216465943809
20
-0.045051182590214
30
1E-16
41
1
10
68.4344662465523
20
0.011147020280049
30
0
41
1
10
68.3917999974904
20
0.0413952825133208
30
-1E-16
41
1
10
68.3286711034575
20
0.0891951801187645
30
0
41
1
10
68.3077756314271
20
0.105537271760937
30
0
41
1
10
68.2662146781503
20
0.138943525245367
30
-1E-16
41
1
10
68.24556172187
20
0.155999512238338
30
1E-16
41
1
10
68.1842955919163
20
0.207752911713129
30
0
41
1
10
68.144219504983
20
0.243150912773501
30
1E-16
41
1
10
68.104671912486
20
0.279167998448571
30
0
0
SPLINE
5
DA
100
AcDbEntity
8
1
62
256
6
ByLayer
370
18
48
1
60
0
100
AcDbSpline
70
4
71
3
72
16
73
12
40
0
40
0
40
0
40
0
40
0.249999999999981
40
0.249999999999981
40
0.499999999999962
40
0.499999999999962
40
0.624999999999972
40
0.624999999999972
40
0.749999999999981
40
0.749999999999981
40
1
40
1
40
1
40
1
41
1
10
68.1046719124859
20
-0.341548483216684
30
-1E-16
41
1
10
68.1553711796574
20
-0.385981585615383
30
0
41
1
10
68.205588387763
20
-0.429372147741247
30
-1E-16
41
1
10
68.3055611404575
20
-0.51358388918797
30
1E-16
41
1
10
68.3553150282346
20
-0.554406905762221
30
0
41
1
10
68.4299565360877
20
-0.613300138906226
30
1E-16
41
1
10
68.4548387624204
20
-0.632540310189597
30
-1E-16
41
1
10
68.5046685598705
20
-0.670157368942711
30
0
41
1
10
68.5296399917316
20
-0.688551406497794
30
1E-16
41
1
10
68.6045958463104
20
-0.742188577621533
30
0
41
1
10
68.6542225311076
20
-0.775610171364974
30
0
41
1
10
68.7037490659812
20
-0.806384590464091
30
-1E-16
0
SPLINE
5
DB
100
AcDbEntity
8
1
62
256
6
ByLayer
370
18
48
1
60
0
100
AcDbSpline
70
4
71
3
72
8
73
4
40
0
40
0
40
0
40
0
40
1
40
1
40
1
40
1
41
1
10
68.7116143759062
20
-1.68287053822212
30
-1E-16
41
1
10
68.6780337822377
20
-1.68863108699094
30
0
41
1
10
68.644865735325
20
-1.69221953474226
30
0
41
1
10
68.6121382185327
20
-1.69388659071521
30
0
0
SPLINE
5
DC
100
AcDbEntity
8
1
62
256
6
ByLayer
370
18
48
1
60
0
100
AcDbSpline
70
4
71
3
72
16
73
12
40
0
40
0
40
0
40
0
40
0.25
40
0.25
40
0.5
40
0.5
40
0.625
40
0.625
40
0.75
40
0.75
40
1
40
1
40
1
40
1
41
1
10
68.6121382185511
20
-1.6938865907139
30
0
41
1
10
68.5661484724053
20
-1.69623197014238
30
0
41
1
10
68.521646594381
20
-1.6947991986973
30
0
41
1
10
68.4344662465522
20
-1.68571112595313
30
0
41
1
10
68.3917999974904
20
-1.67803839608248
30
-1E-16
41
1
10
68.3286711034575
20
-1.66231323852301
30
-1E-16
41
1
10
68.3077756314271
20
-1.65636509408887
30
1E-16
41
1
10
68.2662146781503
20
-1.64310068975399
30
1E-16
41
1
10
68.24556172187
20
-1.63578529056062
30
1E-16
41
1
10
68.1842955919162
20
-1.61202020855774
30
0
41
1
10
68.144219504983
20
-1.59371210486114
30
0
41
1
10
68.104671912486
20
-1.5731132199403
30
-1E-16
0
SPLINE
5
DD
100
AcDbEntity
8
1
62
256
6
ByLayer
370
18
48
1
60
0
100
AcDbSpline
70
4
71
3
72
8
73
4
40
0
40
0
40
0
40
0
40
1
40
1
40
1
40
1
41
1
10
60
20
2.00361806663517
30
0
41
0.880978269556134
10
60
20
1.70664448205598
30
0
41
0.880978269556134
10
60
20
1.37160028873444
30
-1E-16
41
1
10
60
20
1.11811810566343
30
0
0
SPLINE
5
DE
100
AcDbEntity
8
1
62
256
6
ByLayer
370
18
48
1
60
0
100
AcDbSpline
70
4
71
3
72
12
73
8
40
0
40
0
40
0
40
0
40
0.412795780984721
40
0.412795780984721
40
0.825591561969443
40
0.825591561969443
40
1
40
1
40
1
40
1
41
1
10
60
20
1.11811810566343
30
0
41
1
10
60
20
1.09217785630381
30
1E-16
41
1
10
60
20
1.06721358567057
30
-1E-16
41
1
10
60
20
1.02019989698624
30
1E-16
41
1
10
60
20
0.998153772551433
30
1E-16
41
1
10
59.9999999999999
20
0.969519662034372
30
0
41
1
10
59.9999999999999
20
0.961357662933779
30
0
41
1
10
59.9999999999999
20
0.953567105664092
30
0
0
SPLINE
5
DF
100
AcDbEntity
8
1
62
256
6
ByLayer
370
18
48
1
60
0
100
AcDbSpline
70
4
71
3
72
8
73
4
40
0
40
0
40
0
40
0
40
1
40
1
40
1
40
1
41
1
10
60
20
2.09168662047318
30
0
41
1
10
60
20
2.06233043586053
30
1E-16
41
1
10
60
20
2.03297425124785
30
-1E-16
41
1
10
60
20
2.00361806663517
30
0
0
SPLINE
5
E0
100
AcDbEntity
8
1
62
256
6
ByLayer
370
18
48
1
60
0
100
AcDbSpline
70
4
71
3
72
8
73
4
40
0
40
0
40
0
40
0
40
1
40
1
40
1
40
1
41
1
10
60
20
-1.39096917480117
30
-1E-16
41
1
10
60
20
-1.41856736501262
30
0
41
1
10
60
20
-1.44616555522407
30
1E-16
41
1
10
60
20
-1.47376374543552
30
-1E-16
0
SPLINE
5
E1
100
AcDbEntity
8
1
62
256
6
ByLayer
370
18
48
1
60
0
100
AcDbSpline
70
4
71
3
72
8
73
4
40
0
40
0
40
0
40
0
40
1
40
1
40
1
40
1
41
1
10
60
20
-0.0116175516581905
30
0
41
1
10
60
20
-0.012621063456379
30
0
41
1
10
60
20
-0.013624575254596
30
0
41
1
10
60
20
-0.014628087052813
30
0
0
SPLINE
5
E2
100
AcDbEntity
8
1
62
256
6
ByLayer
370
18
48
1
60
0
100
AcDbSpline
70
4
71
3
72
8
73
4
40
0
40
0
40
0
40
0
40
1
40
1
40
1
40
1
41
1
10
60
20
-0.014628087052813
30
0
41
0.880978269556134
10
60
20
-0.0247798319002651
30
1E-16
41
0.880978269556134
10
60
20
-0.225326301307997
30
1E-16
41
1
10
60
20
-0.544659331806088
30
-1E-16
0
SPLINE
5
E3
100
AcDbEntity
8
1
62
256
6
ByLayer
370
18
48
1
60
0
100
AcDbSpline
70
4
71
3
72
8
73
4
40
0
40
0
40
0
40
0
40
1
40
1
40
1
40
1
41
0.983049958413954
10
60
20
-1.35831985098246
30
1E-16
41
0.988378541548268
10
60
20
-1.36957853967706
30
1E-16
41
0.994028555410283
10
60
20
-1.3804630320123
30
-1E-16
41
1
10
60
20
-1.39096917480117
30
-1E-16
0
SPLINE
5
E4
100
AcDbEntity
8
1
62
256
6
ByLayer
370
18
48
1
60
0
100
AcDbSpline
70
4
71
3
72
22
73
18
40
0
40
0
40
0
40
0
40
0.125
40
0.125
40
0.25
40
0.25
40
0.375
40
0.375
40
0.5
40
0.5
40
0.625
40
0.625
40
0.75
40
0.75
40
0.875
40
0.875
40
1
40
1
40
1
40
1
41
1
10
60
20
-0.544659331806088
30
-1E-16
41
1
10
60
20
-0.577338466645216
30
0
41
1
10
60
20
-0.611394967328806
30
1E-16
41
1
10
60
20
-0.681552241455165
30
0
41
1
10
60
20
-0.71765150173141
30
-1E-16
41
1
10
60
20
-0.790963448014224
30
1E-16
41
1
10
60
20
-0.828173366195102
30
-1E-16
41
1
10
60
20
-0.902620525713075
30
-1E-16
41
1
10
60
20
-0.939854139880708
30
0
41
1
10
60
20
-1.01320515629053
30
-1E-16
41
1
10
60
20
-1.04931876832879
30
0
41
1
10
60
20
-1.11934298855212
30
0
41
1
10
60
20
-1.15325042561457
30
0
41
1
10
60
20
-1.21793965546885
30
0
41
1
10
60
20
-1.24871949665092
30
0
41
1
10
60
20
-1.30647393114259
30
0
41
1
10
60
20
-1.33344802533614
30
0
41
1
10
60
20
-1.35831985098244
30
1E-16
0
SPLINE
5
E5
100
AcDbEntity
8
1
62
256
6
ByLayer
370
18
48
1
60
0
100
AcDbSpline
70
4
71
3
72
14
73
10
40
0
40
0
40
0
40
0
40
0.25
40
0.25
40
0.5
40
0.5
40
0.75
40
0.75
40
1
40
1
40
1
40
1
41
1
10
60.0000000000001
20
0.927631113148834
30
0
41
1
10
59.9306794099821
20
0.98702456057012
30
-1E-16
41
1
10
59.8615453995445
20
1.04549417260031
30
2E-16
41
1
10
59.7219321865594
20
1.15883467615413
30
-1E-16
41
1
10
59.6514534484555
20
1.21370992605947
30
-2E-16
41
1
10
59.5079433800936
20
1.31886657926137
30
0
41
1
10
59.4349387171995
20
1.3691866437274
30
-1E-16
41
1
10
59.2869349822401
20
1.46607101047613
30
-1E-16
41
1
10
59.211892208326
20
1.51258959595947
30
0
41
1
10
59.1358785360145
20
1.5573516587969
30
-1E-16
0
SPLINE
5
E6
100
AcDbEntity
8
1
62
256
6
ByLayer
370
18
48
1
60
0
100
AcDbSpline
70
4
71
3
72
34
73
30
40
0
40
0
40
0
40
0
40
0.124999999999994
40
0.124999999999994
40
0.249999999999988
40
0.249999999999988
40
0.312499999999995
40
0.312499999999995
40
0.375000000000002
40
0.375000000000002
40
0.499999999999998
40
0.499999999999998
40
0.562500000000003
40
0.562500000000003
40
0.593750000000006
40
0.593750000000006
40
0.625000000000008
40
0.625000000000008
40
0.749999999999997
40
0.749999999999997
40
0.812499999999995
40
0.812499999999995
40
0.843749999999994
40
0.843749999999994
40
0.874999999999994
40
0.874999999999994
40
0.937499999999997
40
0.937499999999997
40
1
40
1
40
1
40
1
41
1
10
59.1358785360145
20
1.55735165879687
30
-1E-16
41
1
10
59.0815213045181
20
1.58936092420822
30
1E-16
41
1
10
59.0273919083411
20
1.62102161797031
30
0
41
1
10
58.9212192490762
20
1.68502427694207
30
0
41
1
10
58.8691794004147
20
1.71737037384128
30
0
41
1
10
58.7938401175574
20
1.76716703588565
30
1E-16
41
1
10
58.7691297194172
20
1.78401314946805
30
0
41
1
10
58.7211839301222
20
1.81793588269772
30
0
41
1
10
58.6979205567852
20
1.83502756335181
30
-1E-16
41
1
10
58.6305001140541
20
1.88670495347037
30
0
41
1
10
58.5887096381051
20
1.92170014956349
30
-1E-16
41
1
10
58.5315703985788
20
1.9748283864233
30
0
41
1
10
58.5134446235797
20
1.99263968758663
30
0
41
1
10
58.4877082367103
20
2.01945247634583
30
-1E-16
41
1
10
58.4793626473863
20
2.02841670360215
30
-1E-16
41
1
10
58.4633124509428
20
2.04619742113079
30
1E-16
41
1
10
58.4555883504234
20
2.05503340651686
30
1E-16
41
1
10
58.4184457251661
20
2.09891258825542
30
0
41
1
10
58.3934344337251
20
2.13305184252241
30
1E-16
41
1
10
58.3626834494395
20
2.18227492372449
30
0
41
1
10
58.3535638025388
20
2.19835173706062
30
0
41
1
10
58.3416082556568
20
2.2219048670664
30
-1E-16
41
1
10
58.3379077222503
20
2.22967248541343
30
1E-16
41
1
10
58.331151323073
20
2.24488874909616
30
1E-16
41
1
10
58.328087709961
20
2.25235130406492
30
1E-16
41
1
10
58.3198481755741
20
2.27429745819131
30
0
41
1
10
58.315617687344
20
2.28833986191901
30
0
41
1
10
58.3098491113739
20
2.31521623036403
30
0
41
1
10
58.3083075645852
20
2.3280503965602
30
0
41
1
10
58.3083075639784
20
2.34025843490312
30
0
0
SPLINE
5
E7
100
AcDbEntity
8
1
62
256
6
ByLayer
370
18
48
1
60
0
100
AcDbSpline
70
4
71
3
72
41
73
37
40
0
40
0
40
0
40
0
40
0.124999999999934
40
0.124999999999934
40
0.187499999999901
40
0.187499999999901
40
0.249999999999869
40
0.249999999999869
40
0.281249999999853
40
0.281249999999853
40
0.312499999999836
40
0.312499999999836
40
0.374999999999804
40
0.374999999999804
40
0.390624999999808
40
0.390624999999808
40
0.406249999999812
40
0.406249999999812
40
0.43749999999982
40
0.468749999999829
40
0.468749999999829
40
0.499999999999837
40
0.499999999999837
40
0.562499999999822
40
0.562499999999822
40
0.593749999999831
40
0.593749999999831
40
0.624999999999839
40
0.624999999999839
40
0.687499999999856
40
0.687499999999856
40
0.749999999999873
40
0.749999999999873
40
0.874999999999937
40
0.874999999999937
40
1
40
1
40
1
40
1
41
1
10
58.3083075639786
20
2.34025843490269
30
0
41
1
10
58.3083075630109
20
2.35972832546693
30
0
41
1
10
58.3121904563656
20
2.37713521388668
30
0
41
1
10
58.3255865367238
20
2.40017619276594
30
0
41
1
10
58.3313291828356
20
2.40734338512945
30
0
41
1
10
58.3460865258856
20
2.42062149948504
30
0
41
1
10
58.3551818982164
20
2.42676278175273
30
0
41
1
10
58.3717115639524
20
2.43487345654424
30
0
41
1
10
58.3777129592804
20
2.43740385358578
30
0
41
1
10
58.3908625980488
20
2.44211302179048
30
1E-16
41
1
10
58.3980344961589
20
2.44429821942134
30
0
41
1
10
58.4214438525521
20
2.45026820657492
30
0
41
1
10
58.4391854994529
20
2.45338222624952
30
0
41
1
10
58.4646393779632
20
2.45624700864991
30
0
41
1
10
58.4698952192474
20
2.45676828209358
30
0
41
1
10
58.4807577696507
20
2.45770748042969
30
0
41
1
10
58.4863926738475
20
2.45812705643522
30
0
41
1
10
58.5036350117024
20
2.45921639761522
30
0
41
1
10
58.5274029262965
20
2.46021674779911
30
0
41
1
10
58.5526599475942
20
2.46043027540279
30
0
41
1
10
58.5786311609227
20
2.46029343980882
30
0
41
1
10
58.592028995379
20
2.46004601516444
30
0
41
1
10
58.6320087760294
20
2.45887369495583
30
0
41
1
10
58.6587666047995
20
2.45753161053764
30
0
41
1
10
58.6990184636285
20
2.454910957924
30
0
41
1
10
58.7124755844058
20
2.45393125330733
30
0
41
1
10
58.738985232347
20
2.45182159677086
30
0
41
1
10
58.7520978154876
20
2.45068803803989
30
0
41
1
10
58.7910798721633
20
2.44707711684106
30
0
41
1
10
58.8165970547526
20
2.44439122543489
30
0
41
1
10
58.8669426249334
20
2.43852945752659
30
0
41
1
10
58.8918295437772
20
2.43534333376013
30
0
41
1
10
58.965234302057
20
2.42514405479832
30
0
41
1
10
59.0123402752746
20
2.41752372537664
30
0
41
1
10
59.1044394840157
20
2.40069010874308
30
0
41
1
10
59.1494190276875
20
2.39147564217143
30
-1E-16
41
1
10
59.1937481139824
20
2.38146723393075
30
0
0
SPLINE
5
E8
100
AcDbEntity
8
1
62
256
6
ByLayer
370
18
48
1
60
0
100
AcDbSpline
70
4
71
3
72
14
73
10
40
0
40
0
40
0
40
0
40
0.25
40
0.25
40
0.5
40
0.5
40
0.75
40
0.75
40
1
40
1
40
1
40
1
41
1
10
59.1937481139824
20
2.38146723393075
30
0
41
1
10
59.2654400171735
20
2.36528098028424
30
0
41
1
10
59.3357294000635
20
2.34732831990854
30
1E-16
41
1
10
59.4737601331495
20
2.30737716518539
30
0
41
1
10
59.5415243811961
20
2.28537867602486
30
0
41
1
10
59.6751903186328
20
2.23707173934162
30
0
41
1
10
59.7408717196407
20
2.21081217118152
30
-1E-16
41
1
10
59.8710069457682
20
2.15419219790013
30
1E-16
41
1
10
59.9354546777449
20
2.12382468832217
30
-1E-16
41
1
10
60
20
2.09168662047318
30
0
0
SPLINE
5
E9
100
AcDbEntity
8
1
62
256
6
ByLayer
370
18
48
1
60
0
100
AcDbSpline
70
4
71
3
72
34
73
30
40
0
40
0
40
0
40
0
40
0.12499999999999
40
0.12499999999999
40
0.24999999999998
40
0.24999999999998
40
0.312499999999985
40
0.312499999999985
40
0.37499999999999
40
0.37499999999999
40
0.499999999999999
40
0.499999999999999
40
0.562500000000004
40
0.562500000000004
40
0.593750000000006
40
0.593750000000006
40
0.625000000000009
40
0.625000000000009
40
0.750000000000017
40
0.750000000000017
40
0.812500000000018
40
0.812500000000018
40
0.843750000000015
40
0.843750000000015
40
0.875000000000012
40
0.875000000000012
40
0.937500000000006
40
0.937500000000006
40
1
40
1
40
1
40
1
41
1
10
59.1358785360145
20
-2.43597640216834
30
0
41
1
10
59.0815213045181
20
-2.43260268513637
30
0
41
1
10
59.0273919083411
20
-2.42827648694009
30
0
41
1
10
58.9212192490761
20
-2.41703832480917
30
0
41
1
10
58.8691794004147
20
-2.41012690764066
30
0
41
1
10
58.7938401175575
20
-2.39700411377572
30
0
41
1
10
58.7691297194172
20
-2.39215428396847
30
1E-16
41
1
10
58.7211839301223
20
-2.38144165398748
30
0
41
1
10
58.6979205567851
20
-2.37557673020891
30
0
41
1
10
58.6305001140541
20
-2.35624065897173
30
0
41
1
10
58.5887096381051
20
-2.3410404136888
30
0
41
1
10
58.5315703985789
20
-2.31376715802469
30
0
41
1
10
58.5134446235797
20
-2.303928985158
30
0
41
1
10
58.4877082367103
20
-2.28790907353459
30
0
41
1
10
58.4793626473864
20
-2.28235053548263
30
0
41
1
10
58.4633124509429
20
-2.27089854770182
30
0
41
1
10
58.4555883504234
20
-2.26499400511679
30
0
41
1
10
58.4184457251661
20
-2.23455878018771
30
-1E-16
41
1
10
58.3934344337251
20
-2.20729934822475
30
1E-16
41
1
10
58.3626834494396
20
-2.16158622919576
30
0
41
1
10
58.3535638025388
20
-2.14554340594373
30
-1E-16
41
1
10
58.3416082556568
20
-2.12019048501787
30
1E-16
41
1
10
58.3379077222503
20
-2.11151139690037
30
1E-16
41
1
10
58.3311513230729
20
-2.09385033979507
30
0
41
1
10
58.3280877099611
20
-2.0848542936215
30
0
41
1
10
58.3198481755741
20
-2.05736447425735
30
-1E-16
41
1
10
58.3156176873439
20
-2.03836995100249
30
-1E-16
41
1
10
58.3098491113739
20
-1.9989980058298
30
0
41
1
10
58.3083075645852
20
-1.97862114633972
30
0
41
1
10
58.3083075639784
20
-1.9575116112876
30
-1E-16
0
SPLINE
5
EA
100
AcDbEntity
8
1
62
256
6
ByLayer
370
18
48
1
60
0
100
AcDbSpline
70
4
71
3
72
41
73
37
40
0
40
0
40
0
40
0
40
0.125000000000025
40
0.125000000000025
40
0.18750000000004
40
0.18750000000004
40
0.250000000000055
40
0.250000000000055
40
0.28125000000007
40
0.28125000000007
40
0.312500000000084
40
0.312500000000084
40
0.375000000000093
40
0.375000000000093
40
0.390625000000108
40
0.390625000000108
40
0.406250000000123
40
0.406250000000123
40
0.437500000000125
40
0.468750000000127
40
0.468750000000127
40
0.500000000000129
40
0.500000000000129
40
0.562500000000101
40
0.562500000000101
40
0.593750000000103
40
0.593750000000103
40
0.625000000000105
40
0.625000000000105
40
0.687500000000078
40
0.687500000000078
40
0.750000000000051
40
0.750000000000051
40
0.875000000000025
40
0.875000000000025
40
1
40
1
40
1
40
1
41
1
10
58.3083075639786
20
-1.95751161128732
30
-1E-16
41
1
10
58.3083075630109
20
-1.92384524116446
30
1E-16
41
1
10
58.3121904563656
20
-1.88912631167781
30
0
41
1
10
58.3255865367238
20
-1.83573466147826
30
1E-16
41
1
10
58.3313291828356
20
-1.81771950653513
30
0
41
1
10
58.3460865258856
20
-1.78133110238821
30
0
41
1
10
58.3551818982165
20
-1.76283435386182
30
-1E-16
41
1
10
58.3717115639525
20
-1.73582716615053
30
1E-16
41
1
10
58.3777129592804
20
-1.72692391610374
30
0
41
1
10
58.3908625980488
20
-1.70938482809151
30
0
41
1
10
58.398034496159
20
-1.70072181877759
30
0
41
1
10
58.4214438525521
20
-1.67544594897041
30
-1E-16
41
1
10
58.4391854994529
20
-1.65992728830429
30
-1E-16
41
1
10
58.4646393779634
20
-1.64276275593076
30
1E-16
41
1
10
58.4698952192475
20
-1.63944242953363
30
1E-16
41
1
10
58.4807577696508
20
-1.63304518677521
30
1E-16
41
1
10
58.4863926738476
20
-1.62995440119531
30
0
41
1
10
58.5036350117025
20
-1.62118854340972
30
0
41
1
10
58.5274029262967
20
-1.61089291604168
30
0
41
1
10
58.5526599475943
20
-1.60330412010791
30
0
41
1
10
58.5786311609228
20
-1.59702823529008
30
0
41
1
10
58.5920289953791
20
-1.59454895575519
30
0
41
1
10
58.6320087760295
20
-1.58911790399048
30
-1E-16
41
1
10
58.6587666047996
20
-1.58802786085383
30
-1E-16
41
1
10
58.6990184636285
20
-1.5891722327182
30
-1E-16
41
1
10
58.7124755844058
20
-1.59002853257465
30
0
41
1
10
58.738985232347
20
-1.59250350007079
30
0
41
1
10
58.7520978154876
20
-1.59412222956752
30
0
41
1
10
58.7910798721632
20
-1.59992074680466
30
0
41
1
10
58.8165970547526
20
-1.60503360787152
30
0
41
1
10
58.8669426249334
20
-1.61701579248853
30
0
41
1
10
58.8918295437772
20
-1.62391086366489
30
0
41
1
10
58.965234302057
20
-1.64637591384087
30
1E-16
41
1
10
59.0123402752746
20
-1.66360775563115
30
-1E-16
41
1
10
59.1044394840156
20
-1.70016799610747
30
0
41
1
10
59.1494190276875
20
-1.71951715201587
30
0
41
1
10
59.1937481139824
20
-1.73927378646997
30
1E-16
0
SPLINE
5
EB
100
AcDbEntity
8
1
62
256
6
ByLayer
370
18
48
1
60
0
100
AcDbSpline
70
4
71
3
72
14
73
10
40
0
40
0
40
0
40
0
40
0.25
40
0.25
40
0.5
40
0.5
40
0.75
40
0.75
40
1
40
1
40
1
40
1
41
1
10
59.1937481139824
20
-1.73927378646997
30
1E-16
41
1
10
59.2654400171734
20
-1.77122551033918
30
-1E-16
41
1
10
59.3357294000635
20
-1.80339719743375
30
0
41
1
10
59.4737601331495
20
-1.86742177076633
30
-1E-16
41
1
10
59.5415243811961
20
-1.89925487837462
30
0
41
1
10
59.6751903186329
20
-1.96149216234213
30
-1E-16
41
1
10
59.7408717196408
20
-1.9918321587073
30
0
41
1
10
59.8710069457682
20
-2.04983937184747
30
-1E-16
41
1
10
59.9354546777449
20
-2.07750647968896
30
0
41
1
10
60
20
-2.10330417213137
30
0
0
SPLINE
5
EC
100
AcDbEntity
8
1
62
256
6
ByLayer
370
18
48
1
60
0
100
AcDbSpline
70
4
71
3
72
14
73
10
40
0
40
0
40
0
40
0
40
0.25
40
0.25
40
0.5
40
0.5
40
0.75
40
0.75
40
1
40
1
40
1
40
1
41
1
10
60.0000000000001
20
-1.47376374543566
30
-1E-16
41
1
10
59.9306794099821
20
-1.42614664231436
30
0
41
1
10
59.8615453995445
20
-1.37700329616848
30
1E-16
41
1
10
59.7219321865595
20
-1.27756235380335
30
-1E-16
41
1
10
59.6514534484554
20
-1.22726884865173
30
2E-16
41
1
10
59.5079433800937
20
-1.12714017245781
30
0
41
1
10
59.4349387171995
20
-1.07728915457193
30
-1E-16
41
1
10
59.2869349822401
20
-0.977747953328134
30
1E-16
41
1
10
59.211892208326
20
-0.928104644367295
30
0
41
1
10
59.1358785360145
20
-0.878624743371461
30
-2E-16
0
SPLINE
5
ED
100
AcDbEntity
8
1
62
256
6
ByLayer
370
18
48
1
60
0
100
AcDbSpline
70
4
71
3
72
34
73
30
40
0
40
0
40
0
40
0
40
0.125
40
0.125
40
0.25
40
0.25
40
0.3125
40
0.3125
40
0.375
40
0.375
40
0.5
40
0.5
40
0.5625
40
0.5625
40
0.59375
40
0.59375
40
0.625
40
0.625
40
0.75
40
0.75
40
0.8125
40
0.8125
40
0.84375
40
0.84375
40
0.875
40
0.875
40
0.9375
40
0.9375
40
1
40
1
40
1
40
1
41
1
10
59.1358785360145
20
-0.878624743371461
30
-2E-16
41
1
10
59.0815213045181
20
-0.843241760928152
30
2E-16
41
1
10
59.0273919083411
20
-0.80725486896975
30
1E-16
41
1
10
58.9212192490761
20
-0.732014047867096
30
-1E-16
41
1
10
58.8691794004147
20
-0.692756533799411
30
-2E-16
41
1
10
58.7938401175574
20
-0.629837077890045
30
1E-16
41
1
10
58.7691297194172
20
-0.608141134500386
30
1E-16
41
1
10
58.7211839301222
20
-0.563505771289726
30
0
41
1
10
58.6979205567852
20
-0.540549166857062
30
-1E-16
41
1
10
58.6305001140541
20
-0.469535705501357
30
2E-16
41
1
10
58.5887096381051
20
-0.419340264125253
30
1E-16
41
1
10
58.5315703985789
20
-0.338938771601363
30
-1E-16
41
1
10
58.5134446235797
20
-0.311289297571335
30
-2E-16
41
1
10
58.4877082367103
20
-0.268456597188703
30
2E-16
41
1
10
58.4793626473863
20
-0.253933831880431
30
2E-16
41
1
10
58.4633124509428
20
-0.224701126571034
30
1E-16
41
1
10
58.4555883504233
20
-0.209960598599935
30
0
41
1
10
58.4184457251661
20
-0.135646191932267
30
-1E-16
41
1
10
58.3934344337252
20
-0.0742475057023171
30
2E-16
41
1
10
58.3626834494395
20
0.0206886945287295
30
0
41
1
10
58.3535638025388
20
0.0528083311169212
30
-1E-16
41
1
10
58.3416082556568
20
0.101714382048556
30
2E-16
41
1
10
58.3379077222503
20
0.118161088513091
30
2E-16
41
1
10
58.331151323073
20
0.151038409301123
30
1E-16
41
1
10
58.3280877099611
20
0.167497010443441
30
1E-16
41
1
10
58.319848175574
20
0.216932983933958
30
-1E-16
41
1
10
58.315617687344
20
0.249969910916548
30
-1E-16
41
1
10
58.3098491113739
20
0.316218224534225
30
1E-16
41
1
10
58.3083075645852
20
0.349429250220481
30
1E-16
41
1
10
58.3083075639784
20
0.382746823615491
30
0
0
SPLINE
5
EE
100
AcDbEntity
8
1
62
256
6
ByLayer
370
18
48
1
60
0
100
AcDbSpline
70
4
71
3
72
41
73
37
40
0
40
0
40
0
40
0
40
0.125000000000074
40
0.125000000000074
40
0.187500000000112
40
0.187500000000112
40
0.250000000000149
40
0.250000000000149
40
0.281250000000174
40
0.281250000000174
40
0.3125000000002
40
0.3125000000002
40
0.37500000000025
40
0.37500000000025
40
0.390625000000269
40
0.390625000000269
40
0.406250000000287
40
0.406250000000287
40
0.437500000000297
40
0.468750000000307
40
0.468750000000307
40
0.500000000000318
40
0.500000000000318
40
0.562500000000306
40
0.562500000000306
40
0.593750000000284
40
0.593750000000284
40
0.625000000000262
40
0.625000000000262
40
0.687500000000219
40
0.687500000000219
40
0.750000000000175
40
0.750000000000175
40
0.875000000000087
40
0.875000000000087
40
1
40
1
40
1
40
1
41
1
10
58.3083075639786
20
0.382746823615349
30
0
41
1
10
58.3083075630109
20
0.435883084302475
30
-1E-16
41
1
10
58.3121904563656
20
0.488008902208833
30
2E-16
41
1
10
58.3255865367238
20
0.564441531287656
30
0
41
1
10
58.3313291828355
20
0.589623878594324
30
0
41
1
10
58.3460865258857
20
0.639290397096801
30
-2E-16
41
1
10
58.3551818982164
20
0.66392842789088
30
2E-16
41
1
10
58.3717115639524
20
0.699046290393682
30
1E-16
41
1
10
58.3777129592804
20
0.710479937482035
30
1E-16
41
1
10
58.3908625980488
20
0.732728193698932
30
1E-16
41
1
10
58.398034496159
20
0.743576400643718
30
0
41
1
10
58.4214438525522
20
0.774822257604484
30
0
41
1
10
58.4391854994529
20
0.793454937945199
30
-1E-16
41
1
10
58.4646393779633
20
0.813484252719121
30
-1E-16
41
1
10
58.4698952192474
20
0.817325852559918
30
-1E-16
41
1
10
58.4807577696507
20
0.824662293654455
30
-2E-16
41
1
10
58.4863926738475
20
0.828172655239854
30
-2E-16
41
1
10
58.5036350117024
20
0.838027854205478
30
-2E-16
41
1
10
58.5274029262968
20
0.849323831757431
30
-2E-16
41
1
10
58.5526599475942
20
0.857126155294878
30
2E-16
41
1
10
58.5786311609227
20
0.863265204518711
30
2E-16
41
1
10
58.592028995379
20
0.865497059409222
30
2E-16
41
1
10
58.6320087760294
20
0.869755790965343
30
2E-16
41
1
10
58.6587666047996
20
0.869503749683787
30
2E-16
41
1
10
58.6990184636285
20
0.865738725205802
30
2E-16
41
1
10
58.7124755844058
20
0.863902720732682
30
2E-16
41
1
10
58.738985232347
20
0.859318096700065
30
2E-16
41
1
10
58.7520978154876
20
0.856565808472368
30
2E-16
41
1
10
58.7910798721633
20
0.847156370036402
30
-2E-16
41
1
10
58.8165970547527
20
0.839357617563365
30
-2E-16
41
1
10
58.8669426249335
20
0.821513665038026
30
-1E-16
41
1
10
58.8918295437772
20
0.811432470095241
30
-1E-16
41
1
10
58.965234302057
20
0.778768140957453
30
0
41
1
10
59.0123402752747
20
0.753915969745492
30
0
41
1
10
59.1044394840157
20
0.700522112635639
30
1E-16
41
1
10
59.1494190276875
20
0.671958490155561
30
2E-16
41
1
10
59.1937481139824
20
0.642193447460784
30
-2E-16
0
SPLINE
5
EF
100
AcDbEntity
8
1
62
256
6
ByLayer
370
18
48
1
60
0
100
AcDbSpline
70
4
71
3
72
14
73
10
40
0
40
0
40
0
40
0
40
0.25
40
0.25
40
0.5
40
0.5
40
0.75
40
0.75
40
1
40
1
40
1
40
1
41
1
10
59.1937481139824
20
0.642193447460784
30
-2E-16
41
1
10
59.2654400171734
20
0.594055469945062
30
-1E-16
41
1
10
59.3357294000635
20
0.543931122474788
30
1E-16
41
1
10
59.4737601331495
20
0.43995539441903
30
-1E-16
41
1
10
59.5415243811961
20
0.386123797650242
30
0
41
1
10
59.6751903186328
20
0.27557957699949
30
-2E-16
41
1
10
59.7408717196407
20
0.218980012474248
30
-1E-16
41
1
10
59.8710069457682
20
0.104352826052605
30
2E-16
41
1
10
59.9354546777448
20
0.0463182086332097
30
-1E-16
41
1
10
60
20
-0.0116175516581905
30
0
0
SPLINE
5
F0
100
AcDbEntity
8
1
62
256
6
ByLayer
370
18
48
1
60
0
100
AcDbSpline
70
4
71
3
72
24
73
20
40
0
40
0
40
0
40
0
40
0.0380232113798169
40
0.0995558552765581
40
0.161088499173299
40
0.222621143070041
40
0.284153786966782
40
0.345686430863523
40
0.407219074760264
40
0.468751718657006
40
0.530284362553747
40
0.591817006450488
40
0.653349650347229
40
0.714882294243971
40
0.776414938140712
40
0.837947582037453
40
0.899480225934195
40
0.961012869830936
40
1
40
1
40
1
40
1
41
1
10
62.9318951242121
20
0.654643366097417
30
1E-16
41
1
10
62.996263416142
20
0.600371331576099
30
1E-16
41
1
10
63.1647983747449
20
0.45675781622424
30
1E-16
41
1
10
63.4374999999836
20
0.219775091709551
30
-1E-16
41
1
10
63.7500000038024
20
-0.053986402058996
30
1E-16
41
1
10
64.0624999848066
20
-0.325496595967394
30
-1E-16
41
1
10
64.3750000000161
20
-0.590101227658579
30
1E-16
41
1
10
64.6875000151312
20
-0.843354488546709
30
0
41
1
10
64.9999999992041
20
-1.08058996244756
30
1E-16
41
1
10
65.3124999880502
20
-1.29753062244472
30
-1E-16
41
1
10
65.6250000000053
20
-1.48979349685612
30
-1E-16
41
1
10
65.9375000119303
20
-1.65396654245646
30
1E-16
41
1
10
66.2499999970232
20
-1.78655940963313
30
0
41
1
10
66.5624999999754
20
-1.88514792002221
30
0
41
1
10
66.8750000000118
20
-1.94734941995455
30
0
41
1
10
67.1874999999774
20
-1.97199784473545
30
0
41
1
10
67.5000000000131
20
-1.95811107787529
30
0
41
1
10
67.7743334128672
20
-1.91231476930682
30
0
41
1
10
67.9445001599124
20
-1.8671572608865
30
0
41
1
10
68.0105002393711
20
-1.84719700586305
30
0
0
SPLINE
5
F1
100
AcDbEntity
8
1
62
256
6
ByLayer
370
18
48
1
60
0
100
AcDbSpline
70
4
71
3
72
23
73
19
40
0
40
0
40
0
40
0
40
0.0531989149524373
40
0.11980696636463
40
0.186415017776823
40
0.253023069189016
40
0.319631120601208
40
0.386239172013401
40
0.452847223425594
40
0.519455274837786
40
0.586063326249979
40
0.652671377662172
40
0.719279429074365
40
0.785887480486557
40
0.85249553189875
40
0.919103583310943
40
0.985711634723135
40
1
40
1
40
1
40
1
41
1
10
60.6879106340425
20
2.21029262976589
30
0
41
1
10
60.7711070921555
20
2.22457031479834
30
0
41
1
10
60.9584702304559
20
2.24920327461797
30
0
41
1
10
61.2500000010737
20
2.26084813907269
30
0
41
1
10
61.5624999774307
20
2.24088992983175
30
0
41
1
10
61.8750000077599
20
2.18880031103308
30
0
41
1
10
62.1874999999874
20
2.10505556867076
30
0
41
1
10
62.5000000000077
20
1.99068273880417
30
0
41
1
10
62.8124999999819
20
1.84733804469494
30
-1E-16
41
1
10
63.1250000000086
20
1.67686439152479
30
1E-16
41
1
10
63.4374999999835
20
1.48189359241377
30
1E-16
41
1
10
63.7500000038024
20
1.26516178355118
30
-1E-16
41
1
10
64.062499984807
20
1.03009454092617
30
0
41
1
10
64.3750000000151
20
0.780239320484583
30
-1E-16
41
1
10
64.6875000151314
20
0.519626031297094
30
1E-16
41
1
10
64.999999999205
20
0.252450118385923
30
-1E-16
41
1
10
65.2306785416081
20
0.0537621758148532
30
0
41
1
10
65.3571904267441
20
-0.054521851206033
30
1E-16
41
1
10
65.3795356443932
20
-0.073618806992414
30
1E-16
0
SPLINE
5
F2
100
AcDbEntity
8
1
62
256
6
ByLayer
370
18
48
1
60
0
100
AcDbSpline
70
4
71
3
72
9
73
5
40
0
40
0
40
0
40
0
40
0.913406199965726
40
1
40
1
40
1
40
1
41
1
10
60.5692669171706
20
1.67793822223098
30
0
41
1
10
60.587844608304
20
1.67726711238399
30
0
41
1
10
60.608183523577
20
1.67640852379748
30
0
41
1
10
60.6285224391854
20
1.67541503586057
30
0
41
1
10
60.6302836631789
20
1.67532799495817
30
0
0
SPLINE
5
F3
100
AcDbEntity
8
1
62
256
6
ByLayer
370
18
48
1
60
0
100
AcDbSpline
70
4
71
3
72
23
73
19
40
0
40
0
40
0
40
0
40
0.020708067068093
40
0.0889381972905755
40
0.157168327513058
40
0.22539845773554
40
0.293628587958023
40
0.361858718180506
40
0.430088848402988
40
0.498318978625471
40
0.566549108847953
40
0.634779239070436
40
0.703009369292918
40
0.771239499515401
40
0.839469629737883
40
0.907699759960366
40
0.975929890182848
40
1
40
1
40
1
40
1
41
1
10
62.0926552333297
20
1.38123085578255
30
0
41
1
10
62.1242701560051
20
1.37033979825387
30
0
41
1
10
62.2600517435672
20
1.32239237452254
30
0
41
1
10
62.5000000000073
20
1.22892561569816
30
0
41
1
10
62.8124999999818
20
1.09104845446811
30
1E-16
41
1
10
63.1250000000087
20
0.938353862085165
30
0
41
1
10
63.4374999999834
20
0.772563146163151
30
0
41
1
10
63.7500000038025
20
0.595446242260294
30
-1E-16
41
1
10
64.0624999848075
20
0.409114505637774
30
-1E-16
41
1
10
64.3750000000139
20
0.215824413664592
30
-1E-16
41
1
10
64.6875000151317
20
0.0180682235323388
30
0
41
1
10
64.9999999992059
20
-0.181408949343677
30
0
41
1
10
65.3124999880496
20
-0.379640036857239
30
0
41
1
10
65.6250000000038
20
-0.573347856832697
30
0
41
1
10
65.9375000119306
20
-0.759458925672732
30
0
41
1
10
66.2499999970245
20
-0.934561629702358
30
0
41
1
10
66.49508107297
20
-1.06080081844996
30
-1E-16
41
1
10
66.6359954803772
20
-1.1280292837682
30
-1E-16
41
1
10
66.6727432207514
20
-1.14517540317607
30
-1E-16
0
SPLINE
5
F4
100
AcDbEntity
8
1
62
256
6
ByLayer
370
18
48
1
60
0
100
AcDbSpline
70
4
71
3
72
24
73
20
40
0
40
0
40
0
40
0
40
0.0394680386549669
40
0.101451371548669
40
0.163434704442372
40
0.225418037336075
40
0.287401370229778
40
0.34938470312348
40
0.411368036017183
40
0.473351368910886
40
0.535334701804588
40
0.597318034698291
40
0.659301367591994
40
0.721284700485696
40
0.783268033379399
40
0.845251366273102
40
0.907234699166805
40
0.969218032060507
40
1
40
1
40
1
40
1
41
0.986748205624079
10
62.9260846079938
20
0.660385205050143
30
1E-16
41
0.986888404392548
10
62.9924044271697
20
0.606053304585999
30
1E-16
41
0.987255478541053
10
63.1628619095347
20
0.464827588544546
30
1E-16
41
0.987871819919242
10
63.4374999999836
20
0.232553029216932
30
-1E-16
41
0.988601818580574
10
63.7500000038024
20
-0.0341926157450463
30
1E-16
41
0.989354611072345
10
64.0624999848066
20
-0.299136849330417
30
-2E-16
41
0.990124187141127
10
64.3750000000159
20
-0.557821600796303
30
0
41
0.990904609876347
10
64.6875000151313
20
-0.805976278817616
30
-1E-16
41
0.991689863084029
10
64.9999999992043
20
-1.03910284915564
30
0
41
0.992473880147369
10
65.3124999880502
20
-1.25305741896558
30
0
41
0.993250520026837
10
65.6250000000052
20
-1.4435704653022
30
1E-16
41
0.994013838477356
10
65.9375000119304
20
-1.60729256741408
30
0
41
0.994757817059469
10
66.2499999970234
20
-1.74077081503555
30
0
41
0.995476509870307
10
66.5624999999754
20
-1.84156428862091
30
0
41
0.996163909951528
10
66.8750000000118
20
-1.90724361169088
30
0
41
0.996814052196051
10
67.1874999999773
20
-1.93654320928297
30
0
41
0.997420934966789
10
67.5000000000131
20
-1.92835148794862
30
0
41
0.997885017356409
10
67.7600886419488
20
-1.89039835560999
30
0
41
0.99814260276172
10
67.9160109416247
20
-1.85383358548206
30
0
41
0.998225684204821
10
67.9677451605201
20
-1.84021209623815
30
0
0
SPLINE
5
F5
100
AcDbEntity
8
1
62
256
6
ByLayer
370
18
48
1
60
0
100
AcDbSpline
70
4
71
3
72
8
73
4
40
0
40
0
40
0
40
0
40
1
40
1
40
1
40
1
41
0.999013482736167
10
68.5177867655737
20
-1.64083109072658
30
0
41
0.99902770135686
10
68.5291747728973
20
-1.63561128575936
30
0
41
0.999041783019147
10
68.5405629440334
20
-1.63032636537101
30
0
41
0.999055726412689
10
68.5519512692465
20
-1.62497696683827
30
0
0
SPLINE
5
F6
100
AcDbEntity
8
1
62
256
6
ByLayer
370
18
48
1
60
0
100
AcDbSpline
70
4
71
3
72
16
73
12
40
0
40
0
40
0
40
0
40
0.11114348504549
40
0.222286970090979
40
0.333430455136469
40
0.444573940181958
40
0.555717425227448
40
0.666860910272938
40
0.778004395318427
40
0.889147880363917
40
1
40
1
40
1
40
1
41
1
10
60
20
2.00361806663517
30
0
41
1
10
60.104166640402
20
1.95361264402118
30
1E-16
41
1
10
60.3124999993233
20
1.84490441760042
30
-1E-16
41
1
10
60.6249999824098
20
1.65773304815733
30
-1E-16
41
1
10
60.9375000182761
20
1.44882987557713
30
-1E-16
41
1
10
61.2500000010737
20
1.2212115635306
30
0
41
1
10
61.5624999774307
20
0.9778421618594
30
-1E-16
41
1
10
61.8750000077599
20
0.722271329884876
30
1E-16
41
1
10
62.1874999999874
20
0.458097029210535
30
-2E-16
41
1
10
62.4997269245011
20
0.189438368904462
30
0
41
1
10
62.7077871823108
20
0.0099372639141109
30
1E-16
41
1
10
62.811680773471
20
-0.0791343018032933
30
1E-16
0
SPLINE
5
F7
100
AcDbEntity
8
1
62
256
6
ByLayer
370
18
48
1
60
0
100
AcDbSpline
70
4
71
3
72
20
73
16
40
0
40
0
40
0
40
0
40
0.0430498655444004
40
0.123621227800875
40
0.204192590057348
40
0.284763952313823
40
0.365335314570297
40
0.445906676826771
40
0.526478039083245
40
0.607049401339719
40
0.687620763596193
40
0.768192125852667
40
0.848763488109141
40
0.929334850365615
40
1
40
1
40
1
40
1
41
0.991270398573668
10
64.8331114322402
20
1.12142672867787
30
0
41
0.991410107399127
10
64.8887606234849
20
1.08036361592536
30
1E-16
41
0.991811566763187
10
65.048542049486
20
0.959983238145765
30
1E-16
41
0.992473880147369
10
65.3124999880502
20
0.750745108712073
30
0
41
0.993250520026837
10
65.6250000000052
20
0.491291499162504
30
0
41
0.994013838477356
10
65.9375000119304
20
0.224663358791873
30
-1E-16
41
0.994757817059469
10
66.2499999970234
20
-0.0443568667140282
30
1E-16
41
0.995476509870307
10
66.5624999999754
20
-0.310885052800661
30
1E-16
41
0.996163909951528
10
66.8750000000118
20
-0.569842161487395
30
0
41
0.996814052196051
10
67.1874999999773
20
-0.816346850015516
30
-1E-16
41
0.997420934966789
10
67.5000000000131
20
-1.04541849430662
30
0
41
0.997978588483072
10
67.8124999999706
20
-1.25256776672285
30
0
41
0.998481026601064
10
68.1250000018243
20
-1.43338634494597
30
0
41
0.998904162867026
10
68.4246981736099
20
-1.57793151885703
30
-1E-16
41
0.999140762305838
10
68.6202479215886
20
-1.65258649621978
30
0
41
0.999242020914438
10
68.7116143759064
20
-1.68287053822211
30
-1E-16
0
SPLINE
5
F8
100
AcDbEntity
8
1
62
256
6
ByLayer
370
18
48
1
60
0
100
AcDbSpline
70
4
71
3
72
21
73
17
40
0
40
0
40
0
40
0
40
0.0747386939799946
40
0.149477387959989
40
0.224216081939984
40
0.298954775919978
40
0.373693469899973
40
0.448432163879968
40
0.523170857859962
40
0.597909551839957
40
0.672648245819951
40
0.747386939799946
40
0.822125633779941
40
0.896864327759935
40
0.97160302173993
40
1
40
1
40
1
40
1
41
1
10
60
20
1.11811810566343
30
0
41
1
10
60.1041666404229
20
1.06660264676984
30
-1E-16
41
1
10
60.3124999993137
20
0.959928040173224
30
0
41
1
10
60.6249999824116
20
0.789213920285164
30
-1E-16
41
1
10
60.9375000182743
20
0.610372897575189
30
-1E-16
41
1
10
61.2500000010762
20
0.425442397042332
30
-1E-16
41
1
10
61.5624999774303
20
0.236356143281086
30
-1E-16
41
1
10
61.875000007758
20
0.0452226057761322
30
-1E-16
41
1
10
62.1874999999891
20
-0.145878538889605
30
-1E-16
41
1
10
62.5000000000073
20
-0.334759881716309
30
-1E-16
41
1
10
62.8124999999818
20
-0.519240004384926
30
1E-16
41
1
10
63.1250000000087
20
-0.697014456440996
30
1E-16
41
1
10
63.4374999999834
20
-0.865880349970041
30
0
41
1
10
63.7500000038025
20
-1.02341118801385
30
0
41
1
10
63.9979114630702
20
-1.13768967258457
30
0
41
1
10
64.1416562728578
20
-1.19889812709661
30
1E-16
41
1
10
64.1812344149537
20
-1.2153498005282
30
1E-16
0
SPLINE
5
F9
100
AcDbEntity
8
1
62
256
6
ByLayer
370
18
48
1
60
0
100
AcDbSpline
70
4
71
3
72
23
73
19
40
0
40
0
40
0
40
0
40
0.0361974963948953
40
0.101311813428911
40
0.166426130462927
40
0.231540447496943
40
0.296654764530959
40
0.361769081564974
40
0.42688339859899
40
0.491997715633006
40
0.557112032667022
40
0.622226349701038
40
0.687340666735053
40
0.752454983769069
40
0.817569300803085
40
0.882683617837101
40
0.947797934871117
40
1
40
1
40
1
40
1
41
0.983431409258677
10
60.7638056390617
20
0.248215917460099
30
1E-16
41
0.983477801477154
10
60.8217114505363
20
0.199587598704798
30
1E-16
41
0.983619185035914
10
60.9837730299657
20
0.0631889892423012
30
2E-16
41
0.983902270746431
10
61.2500000010726
20
-0.160939301169763
30
-1E-16
41
0.98430524144906
10
61.562499977431
20
-0.420412709732442
30
1E-16
41
0.984772894670945
10
61.8750000077609
20
-0.672509029712257
30
-2E-16
41
0.985299249516789
10
62.1874999999867
20
-0.913471131805901
30
-1E-16
41
0.985878302995326
10
62.5000000000078
20
-1.13954723087767
30
0
41
0.986504071945235
10
62.812499999982
20
-1.34723214054089
30
0
41
0.987170569356503
10
63.1250000000086
20
-1.53299783066385
30
0
41
0.987871819919242
10
63.4374999999836
20
-1.69386047701432
30
0
41
0.988601818580574
10
63.7500000038024
20
-1.82675503755899
30
1E-16
41
0.989354611072345
10
64.0624999848066
20
-1.92946343495504
30
0
41
0.990124187141127
10
64.3750000000159
20
-1.99967727162544
30
0
41
0.990904609876347
10
64.6875000151313
20
-2.03614766654285
30
0
41
0.991689863084029
10
64.9999999992043
20
-2.03756512625393
30
0
41
0.992422056287011
10
65.2918588462183
20
-2.0060326032319
30
0
41
0.992888919266945
10
65.4795846094649
20
-1.96671174942182
30
0
41
0.993095357744221
10
65.5631118866221
20
-1.94554984662828
30
0
0
SPLINE
5
FA
100
AcDbEntity
8
1
62
256
6
ByLayer
370
18
48
1
60
0
100
AcDbSpline
70
4
71
3
72
20
73
16
40
0
40
0
40
0
40
0
40
0.0463230865852774
40
0.128829352194524
40
0.211335617803771
40
0.293841883413017
40
0.376348149022264
40
0.458854414631511
40
0.541360680240757
40
0.623866945850004
40
0.706373211459251
40
0.788879477068498
40
0.871385742677744
40
0.953892008286991
40
1
40
1
40
1
40
1
41
1
10
64.8245470953159
20
1.12720319644777
30
0
41
1
10
64.8830313973307
20
1.08268380121126
30
-1E-16
41
1
10
65.0456823602463
20
0.956186355641677
30
-1E-16
41
1
10
65.3124999880502
20
0.738013782330711
30
0
41
1
10
65.6250000000053
20
0.470991075598022
30
0
41
1
10
65.9375000119303
20
0.197249590361679
30
0
41
1
10
66.2499999970232
20
-0.078212664708559
30
2E-16
41
1
10
66.5624999999754
20
-0.350322598279774
30
-1E-16
41
1
10
66.8750000000118
20
-0.613824298978358
30
1E-16
41
1
10
67.1874999999774
20
-0.86370208885802
30
0
41
1
10
67.5000000000131
20
-1.09486469251371
30
-1E-16
41
1
10
67.8124999999705
20
-1.30276488811563
30
-1E-16
41
1
10
68.1250000018243
20
-1.4829699956974
30
-1E-16
41
1
10
68.391546067586
20
-1.60986464706673
30
0
41
1
10
68.5539254773081
20
-1.6731001795923
30
0
41
1
10
68.6121382185339
20
-1.69388659070762
30
0
0
SPLINE
5
FB
100
AcDbEntity
8
1
62
256
6
ByLayer
370
18
48
1
60
0
100
AcDbSpline
70
4
71
3
72
12
73
8
40
0
40
0
40
0
40
0
40
0.206795027662927
40
0.413590055325854
40
0.620385082988782
40
0.827180110651709
40
1
40
1
40
1
40
1
41
1
10
60
20
-0.544659331806088
30
-1E-16
41
1
10
60.1041666404229
20
-0.605407152723217
30
1E-16
41
1
10
60.3124999993137
20
-0.723666262135907
30
-1E-16
41
1
10
60.6249999824116
20
-0.889910603790241
30
1E-16
41
1
10
60.9375000182743
20
-1.04305120848093
30
0
41
1
10
61.2328860658283
20
-1.17412006407221
30
1E-16
41
1
10
61.424105448827
20
-1.24996158756434
30
0
41
1
10
61.5111581779915
20
-1.282502333243
30
0
0
SPLINE
5
FC
100
AcDbEntity
8
1
62
256
6
ByLayer
370
18
48
1
60
0
100
AcDbSpline
70
4
71
3
72
8
73
4
40
0
40
0
40
0
40
0
40
1
40
1
40
1
40
1
41
1
10
68.7037490659794
20
1.86636038478946
30
0
41
1
10
68.7139030308949
20
1.86306341199594
30
0
41
1
10
68.7236869400937
20
1.85983665600287
30
0
41
1
10
68.7329987415117
20
1.85670447410007
30
0
0
SPLINE
5
FD
100
AcDbEntity
8
1
62
256
6
ByLayer
370
18
48
1
60
0
100
AcDbSpline
70
4
71
3
72
35
73
31
40
0
40
0
40
0
40
0
40
0.125000000000056
40
0.125000000000056
40
0.187500000000077
40
0.187500000000077
40
0.218750000000081
40
0.218750000000081
40
0.250000000000084
40
0.250000000000084
40
0.375000000000126
40
0.375000000000126
40
0.43750000000014
40
0.43750000000014
40
0.468750000000141
40
0.468750000000141
40
0.500000000000142
40
0.500000000000142
40
0.625000000000121
40
0.625000000000121
40
0.687500000000105
40
0.687500000000105
40
0.750000000000089
40
0.750000000000089
40
0.875000000000048
40
0.875000000000048
40
0.906250000000035
40
0.906250000000035
40
0.937500000000021
40
1
40
1
40
1
40
1
41
1
10
68.7329987415344
20
1.85670447409243
30
0
41
1
10
68.7976254023508
20
1.83496620365764
30
0
41
1
10
68.8613281196172
20
1.80712318768292
30
0
41
1
10
68.9562535214484
20
1.75600213809966
30
0
41
1
10
68.9877903240039
20
1.73739568778822
30
0
41
1
10
69.0350360677692
20
1.70704022355383
30
0
41
1
10
69.0507748853307
20
1.69651349501484
30
0
41
1
10
69.0822494838858
20
1.67462011133134
30
0
41
1
10
69.098021884198
20
1.66322567176565
30
0
41
1
10
69.1764609646964
20
1.60442596739867
30
0
41
1
10
69.2373211478144
20
1.55203136003374
30
0
41
1
10
69.326392370882
20
1.46547568656672
30
0
41
1
10
69.3557109172178
20
1.43528850755979
30
0
41
1
10
69.3991752605403
20
1.38793695724209
30
0
41
1
10
69.4135996240079
20
1.37178157556596
30
0
41
1
10
69.4421818876602
20
1.33887407711748
30
0
41
1
10
69.4562614339233
20
1.32221367691349
30
0
41
1
10
69.5256376476193
20
1.23790451262681
30
0
41
1
10
69.5779055737175
20
1.16726625000752
30
0
41
1
10
69.6516197045731
20
1.05661250578282
30
0
41
1
10
69.6754005590512
20
1.01893848267008
30
0
41
1
10
69.7213025352586
20
0.94194367578973
30
0
41
1
10
69.743046004769
20
0.903258885445524
30
0
41
1
10
69.804596313298
20
0.786863896448267
30
0
41
1
10
69.8408314536205
20
0.708709561211123
30
0
41
1
10
69.879901655878
20
0.609915126896169
30
0
41
1
10
69.8874183297494
20
0.590051039121079
30
0
41
1
10
69.9016932718573
20
0.55051933766822
30
0
41
1
10
69.9219900920057
20
0.491474881723775
30
0
41
1
10
69.9390066611846
20
0.433055254023202
30
0
41
1
10
69.9489200647205
20
0.394280047209293
30
0
0
SPLINE
5
FE
100
AcDbEntity
8
1
62
256
6
ByLayer
370
18
48
1
60
0
100
AcDbSpline
70
4
71
3
72
16
73
12
40
0
40
0
40
0
40
0
40
0.249999999999981
40
0.249999999999981
40
0.499999999999962
40
0.499999999999962
40
0.624999999999971
40
0.624999999999971
40
0.749999999999981
40
0.749999999999981
40
1
40
1
40
1
40
1
41
1
10
68.1046719124859
20
-1.87497238685486
30
0
41
1
10
68.1553711796574
20
-1.88817464823595
30
0
41
1
10
68.205588387763
20
-1.89797109169527
30
0
41
1
10
68.3055611404574
20
-1.91074681239382
30
0
41
1
10
68.3553150282345
20
-1.91372665172159
30
0
41
1
10
68.4299565360877
20
-1.91292067011921
30
0
41
1
10
68.4548387624204
20
-1.91177103446904
30
0
41
1
10
68.5046685598705
20
-1.90765977080449
30
0
41
1
10
68.5296399917317
20
-1.90469441448568
30
0
41
1
10
68.6045958463105
20
-1.89300291997435
30
0
41
1
10
68.6542225311077
20
-1.88155934153039
30
0
41
1
10
68.7037490659812
20
-1.86636038478787
30
0
0
SPLINE
5
FF
100
AcDbEntity
8
1
62
256
6
ByLayer
370
18
48
1
60
0
100
AcDbSpline
70
4
71
3
72
8
73
4
40
0
40
0
40
0
40
0
40
1
40
1
40
1
40
1
41
1
10
68.7037490659795
20
-1.86636038478946
30
0
41
1
10
68.7139030308949
20
-1.86306341199594
30
0
41
1
10
68.7236869400938
20
-1.85983665600284
30
0
41
1
10
68.7329987415118
20
-1.85670447410004
30
0
0
SPLINE
5
100
100
AcDbEntity
8
1
62
256
6
ByLayer
370
18
48
1
60
0
100
AcDbSpline
70
4
71
3
72
8
73
4
40
0
40
0
40
0
40
0
40
1
40
1
40
1
40
1
41
1
10
68.7329987415344
20
-1.85670447409243
30
0
41
1
10
68.7853787629963
20
-1.83908556793921
30
0
41
1
10
68.837151833854
20
-1.81745637458425
30
0
41
1
10
68.8885867390116
20
-1.79174611384411
30
0
0
SPLINE
5
101
100
AcDbEntity
8
1
62
256
6
ByLayer
370
18
48
1
60
0
100
AcDbSpline
70
4
71
3
72
24
73
20
40
0
40
0
40
0
40
0
40
0.0354131747410943
40
0.0997179740316149
40
0.164022773322135
40
0.228327572612656
40
0.292632371903176
40
0.356937171193697
40
0.421241970484218
40
0.485546769774738
40
0.549851569065259
40
0.614156368355779
40
0.6784611676463
40
0.74276596693682
40
0.807070766227341
40
0.871375565517861
40
0.935680364808382
40
0.999985164098902
40
1
40
1
40
1
40
1
41
1
10
60.7654037135534
20
0.245905644835318
30
1E-16
41
1
10
60.8227691462309
20
0.196588377962797
30
1E-16
41
1
10
60.9843012538212
20
0.057402744947467
30
2E-16
41
1
10
61.2500000010723
20
-0.171640604902564
30
0
41
1
10
61.5624999774311
20
-0.437325484615201
30
1E-16
41
1
10
61.8750000077611
20
-0.695375544691331
30
-1E-16
41
1
10
62.1874999999865
20
-0.941863728395361
30
0
41
1
10
62.5000000000079
20
-1.17286962629501
30
1E-16
41
1
10
62.812499999982
20
-1.38473115864326
30
-1E-16
41
1
10
63.1250000000086
20
-1.57377212721269
30
-1E-16
41
1
10
63.4374999999836
20
-1.73688842088478
30
1E-16
41
1
10
63.7500000038024
20
-1.87091035767617
30
-1E-16
41
1
10
64.0624999848066
20
-1.9735560878072
30
0
41
1
10
64.3750000000161
20
-2.04247548585917
30
0
41
1
10
64.6875000151312
20
-2.07642577602405
30
0
41
1
10
64.9999999992041
20
-2.07413006546162
30
0
41
1
10
65.3124999880502
20
-2.03554440477544
30
0
41
1
10
65.5208573618744
20
-1.98569876722635
30
0
41
1
10
65.6250480650418
20
-1.95496896199978
30
0
41
1
10
65.6250720975626
20
-1.9549618735856
30
0
0
SPLINE
5
102
100
AcDbEntity
8
1
62
256
6
ByLayer
370
18
48
1
60
0
100
AcDbSpline
70
4
71
3
72
8
73
4
40
0
40
0
40
0
40
0
40
1
40
1
40
1
40
1
41
1
10
60
20
-0.014628087052813
30
0
41
1
10
60.0264109628117
20
-0.0374180437340499
30
0
41
1
10
60.0528219281342
20
-0.060185212642466
30
-1E-16
41
1
10
60.0792328951808
20
-0.0829195608359896
30
-1E-16
0
SPLINE
5
103
100
AcDbEntity
8
1
62
256
6
ByLayer
370
18
48
1
60
0
100
AcDbSpline
70
4
71
3
72
17
73
13
40
0
40
0
40
0
40
0
40
0.105256862366018
40
0.210520515603543
40
0.315784168841068
40
0.421047822078592
40
0.526311475316117
40
0.631575128553641
40
0.736838781791166
40
0.842102435028691
40
0.947366088266215
40
1
40
1
40
1
40
1
41
0.983049961506914
10
60.0000201606276
20
-1.35833272226478
30
1E-16
41
0.983065942959687
10
60.1041800816313
20
-1.4248320223989
30
0
41
0.983141558267186
10
60.3125067206105
20
-1.55149432832991
30
1E-16
41
0.983314421686535
10
60.624999982409
20
-1.71924651731824
30
0
41
0.983569998416639
10
60.937500018277
20
-1.8622608508999
30
-1E-16
41
0.983902270746431
10
61.2500000010726
20
-1.97852765908157
30
0
41
0.98430524144906
10
61.562499977431
20
-2.06586629599583
30
0
41
0.984772894670945
10
61.8750000077609
20
-2.12286600707874
30
0
41
0.985299249516789
10
62.1874999999867
20
-2.14826513378134
30
0
41
0.985878302995326
10
62.5000000000078
20
-2.14128365691967
30
0
41
0.986399781252098
10
62.7604462637527
20
-2.10837193898093
30
0
41
0.986727943435297
10
62.9167345736705
20
-2.07644498051128
30
0
41
0.986838906371995
10
62.9688264838321
20
-2.06447076358418
30
0
0
SPLINE
5
104
100
AcDbEntity
8
1
62
256
6
ByLayer
370
18
48
1
60
0
100
AcDbSpline
70
4
71
3
72
17
73
13
40
0
40
0
40
0
40
0
40
0.102353723647792
40
0.204707447295584
40
0.307061170943376
40
0.409414894591168
40
0.51176861823896
40
0.614122341886752
40
0.716476065534543
40
0.818829789182335
40
0.921183512830127
40
1
40
1
40
1
40
1
41
1
10
60
20
-1.39096917480117
30
-1E-16
41
1
10
60.10416664039
20
-1.45876482396864
30
1E-16
41
1
10
60.3124999993289
20
-1.5879168077567
30
-1E-16
41
1
10
60.6249999824088
20
-1.75889423727133
30
-1E-16
41
1
10
60.9375000182772
20
-1.90452192645455
30
0
41
1
10
61.2500000010723
20
-2.02266875867033
30
0
41
1
10
61.5624999774311
20
-2.11103442934782
30
-1E-16
41
1
10
61.8750000077611
20
-2.16811923894099
30
0
41
1
10
62.1874999999865
20
-2.19259252377273
30
0
41
1
10
62.5000000000079
20
-2.18363579898406
30
0
41
1
10
62.7885458595866
20
-2.14437752952404
30
0
41
1
10
62.9729250525347
20
-2.10180640838865
30
0
41
1
10
63.0531375788066
20
-2.08005582742095
30
0
0
SPLINE
5
105
100
AcDbEntity
8
1
62
256
6
ByLayer
370
18
48
1
60
0
100
AcDbSpline
70
4
71
3
72
8
73
4
40
0
40
0
40
0
40
0
40
1
40
1
40
1
40
1
41
0.983049961506914
10
60.0000201606276
20
-2.23322964648293
30
0
41
0.983060849480819
10
60.0709834450047
20
-2.22245241392365
30
0
41
0.983081867596263
10
60.1419492907341
20
-2.20938924583985
30
0
41
0.983109246740837
10
60.21291766295
20
-2.19405236599424
30
0
0
SPLINE
5
106
100
AcDbEntity
8
1
62
256
6
ByLayer
370
18
48
1
60
0
100
AcDbSpline
70
4
71
3
72
9
73
5
40
0
40
0
40
0
40
0
40
0.426115645709244
40
1
40
1
40
1
40
1
41
1
10
68.2330113390271
20
1.80763471658489
30
0
41
1
10
68.3011742242236
20
1.82098779639827
30
0
41
1
10
68.4611375718131
20
1.84620865090324
30
0
41
1
10
68.6211009267743
20
1.85670187812556
30
0
41
1
10
68.7129013920951
20
1.8577970413844
30
0
0
SPLINE
5
107
100
AcDbEntity
8
1
62
256
6
ByLayer
370
18
48
1
60
0
100
AcDbSpline
70
4
71
3
72
16
73
12
40
0
40
0
40
0
40
0
40
0.249999999999981
40
0.249999999999981
40
0.499999999999962
40
0.499999999999962
40
0.624999999999971
40
0.624999999999971
40
0.749999999999981
40
0.749999999999981
40
1
40
1
40
1
40
1
41
1
10
68.1046719124859
20
1.87497238685486
30
0
41
1
10
68.1553711796574
20
1.88817464823595
30
0
41
1
10
68.2055883877631
20
1.89797109169527
30
0
41
1
10
68.3055611404575
20
1.91074681239382
30
0
41
1
10
68.3553150282346
20
1.91372665172159
30
0
41
1
10
68.4299565360877
20
1.91292067011921
30
0
41
1
10
68.4548387624204
20
1.91177103446904
30
0
41
1
10
68.5046685598705
20
1.90765977080449
30
0
41
1
10
68.5296399917316
20
1.90469441448568
30
0
41
1
10
68.6045958463105
20
1.89300291997435
30
0
41
1
10
68.6542225311076
20
1.88155934153039
30
0
41
1
10
68.7037490659812
20
1.86636038478787
30
0
0
SPLINE
5
108
100
AcDbEntity
8
1
62
256
6
ByLayer
370
18
48
1
60
0
100
AcDbSpline
70
4
71
3
72
15
73
11
40
0
40
0
40
0
40
0
40
0.0284347352050304
40
0.170655046703759
40
0.312875358202489
40
0.455095669701218
40
0.597315981199947
40
0.739536292698676
40
0.881756604197405
40
1
40
1
40
1
40
1
41
1
10
66.5000204935399
20
1.58987863795056
30
0
41
1
10
66.5208469955239
20
1.58705220877937
30
0
41
1
10
66.6458401647779
20
1.5690004897148
30
0
41
1
10
66.8750000000121
20
1.52388611641027
30
0
41
1
10
67.1874999999774
20
1.43549061048898
30
0
41
1
10
67.5000000000131
20
1.32081960305101
30
0
41
1
10
67.8124999999704
20
1.1813646582205
30
-1E-16
41
1
10
68.1250000018244
20
1.01895337304111
30
1E-16
41
1
10
68.4199385397582
20
0.846510392833636
30
0
41
1
10
68.6107104245399
20
0.725364350952475
30
1E-16
41
1
10
68.6973156389491
20
0.668750687181472
30
0
0
SPLINE
5
109
100
AcDbEntity
8
1
62
256
6
ByLayer
370
18
48
1
60
0
100
AcDbSpline
70
4
71
3
72
8
73
4
40
0
40
0
40
0
40
0
40
1
40
1
40
1
40
1
41
1
10
60
20
-2.27946047672782
30
0
41
1
10
60.0949577017044
20
-2.26453873635919
30
0
41
1
10
60.1899154358837
20
-2.24540939653303
30
0
41
1
10
60.2848731659486
20
-2.22211337607493
30
0
0
SPLINE
5
10A
100
AcDbEntity
8
1
62
256
6
ByLayer
370
18
48
1
60
0
100
AcDbSpline
70
4
71
3
72
14
73
10
40
0
40
0
40
0
40
0
40
0.0621717568777868
40
0.221746402507023
40
0.38132104813626
40
0.540895693765496
40
0.700470339394732
40
0.860044985023969
40
1
40
1
40
1
40
1
41
0.99589437189914
10
66.7533185510044
20
1.41148114824577
30
0
41
0.995983051433293
10
66.7938987485567
20
1.38607464200845
30
0
41
0.996296190223803
10
66.9386154198309
20
1.29318515244907
30
0
41
0.996814052196051
10
67.1874999999773
20
1.12019635926746
30
0
41
0.997420934966789
10
67.5000000000131
20
0.882932993642023
30
-1E-16
41
0.997978588483072
10
67.8124999999706
20
0.63018252247318
30
1E-16
41
0.998481026601064
10
68.1250000018243
20
0.366776604489622
30
0
41
0.998904162867026
10
68.4246981736099
20
0.109017029721662
30
0
41
0.999140762305838
10
68.6202479215886
20
-0.059127162022803
30
-1E-16
41
0.999242020914438
10
68.7116143759064
20
-0.137046314988288
30
1E-16
0
SPLINE
5
10B
100
AcDbEntity
8
1
62
256
6
ByLayer
370
18
48
1
60
0
100
AcDbSpline
70
4
71
3
72
17
73
13
40
0
40
0
40
0
40
0
40
0.0290748878145913
40
0.138397488278769
40
0.247720088742947
40
0.357042689207125
40
0.466365289671303
40
0.575687890135481
40
0.685010490599659
40
0.794333091063837
40
0.903655691528015
40
1
40
1
40
1
40
1
41
1
10
65.854389082044
20
1.93049608147379
30
0
41
1
10
65.8820927241091
20
1.93578653608225
30
0
41
1
10
66.0139630333012
20
1.95901594183266
30
0
41
1
10
66.2499999970239
20
1.98374023688808
30
0
41
1
10
66.562499999975
20
1.98072911342192
30
0
41
1
10
66.8750000000119
20
1.94153481905951
30
0
41
1
10
67.1874999999773
20
1.86691840068448
30
0
41
1
10
67.5000000000131
20
1.75780415227649
30
0
41
1
10
67.8124999999705
20
1.61621356523506
30
0
41
1
10
68.1250000018244
20
1.4444659426573
30
-1E-16
41
1
10
68.4251337905856
20
1.25366985295165
30
-1E-16
41
1
10
68.6211009267741
20
1.11536841548869
30
1E-16
41
1
10
68.7129013920949
20
1.04806096000289
30
0
0
SPLINE
5
10C
100
AcDbEntity
8
1
62
256
6
ByLayer
370
18
48
1
60
0
100
AcDbSpline
70
4
71
3
72
22
73
18
40
0
40
0
40
0
40
0
40
0.0128136229539982
40
0.0841864167417653
40
0.155559210529532
40
0.226932004317299
40
0.298304798105066
40
0.369677591892833
40
0.4410503856806
40
0.512423179468367
40
0.583795973256134
40
0.655168767043901
40
0.726541560831668
40
0.797914354619435
40
0.869287148407202
40
0.940659942194969
40
1
40
1
40
1
40
1
41
1
10
64.3188965864624
20
1.52103441122407
30
0
41
1
10
64.3375977242864
20
1.51670643736949
30
0
41
1
10
64.4604655338663
20
1.48747847026848
30
0
41
1
10
64.6875000151317
20
1.42388445684145
30
0
41
1
10
64.9999999992059
20
1.31440980254842
30
0
41
1
10
65.3124999880496
20
1.18420586911452
30
-1E-16
41
1
10
65.6250000000038
20
1.03459744477175
30
0
41
1
10
65.9375000119306
20
0.867511240034958
30
0
41
1
10
66.2499999970245
20
0.685049745373448
30
-1E-16
41
1
10
66.5624999999745
20
0.489879812963153
30
0
41
1
10
66.8750000000121
20
0.284950722011132
30
0
41
1
10
67.1874999999774
20
0.0736523727355518
30
0
41
1
10
67.5000000000131
20
-0.140299513985866
30
1E-16
41
1
10
67.8124999999704
20
-0.352942378805579
30
-1E-16
41
1
10
68.1250000018244
20
-0.560029746561753
30
0
41
1
10
68.4199385397582
20
-0.746134756448384
30
0
41
1
10
68.6107104245399
20
-0.858500753120126
30
0
41
1
10
68.6973156389491
20
-0.907441033524549
30
-1E-16
0
SPLINE
5
10D
100
AcDbEntity
8
1
62
256
6
ByLayer
370
18
48
1
60
0
100
AcDbSpline
70
4
71
3
72
14
73
10
40
0
40
0
40
0
40
0
40
0.0747335005380192
40
0.241182996416443
40
0.407632492294866
40
0.57408198817329
40
0.740531484051714
40
0.906980979930138
40
1
40
1
40
1
40
1
41
1
10
66.7346918614665
20
1.42281984449772
30
0
41
1
10
66.7814612410086
20
1.39256822701606
30
0
41
1
10
66.9323972871778
20
1.29215694642193
30
0
41
1
10
67.1874999999774
20
1.10829575587743
30
1E-16
41
1
10
67.5000000000131
20
0.863246385361578
30
0
41
1
10
67.8124999999705
20
0.603178477934819
30
-1E-16
41
1
10
68.1250000018243
20
0.333145205508401
30
1E-16
41
1
10
68.3915460675859
20
0.0990008142057377
30
0
41
1
10
68.553925477308
20
-0.0431846892674059
30
1E-16
41
1
10
68.6121382185338
20
-0.0939318316900994
30
0
0
SPLINE
5
10E
100
AcDbEntity
8
1
62
256
6
ByLayer
370
18
48
1
60
0
100
AcDbSpline
70
4
71
3
72
22
73
18
40
0
40
0
40
0
40
0
40
0.016907472674543
40
0.0873545147322489
40
0.157801556789955
40
0.22824859884766
40
0.298695640905366
40
0.369142682963073
40
0.439589725020778
40
0.510036767078484
40
0.58048380913619
40
0.650930851193896
40
0.721377893251602
40
0.791824935309308
40
0.862271977367013
40
0.932719019424719
40
1
40
1
40
1
40
1
41
1
10
63.3624991903507
20
2.06942172066366
30
0
41
1
10
63.3874994604109
20
2.07382460255204
30
0
41
1
10
63.5166663976443
20
2.09493202532218
30
0
41
1
10
63.7500000038024
20
2.11758746247349
30
0
41
1
10
64.062499984807
20
2.11407891228734
30
0
41
1
10
64.3750000000151
20
2.07626283808159
30
0
41
1
10
64.6875000151314
20
2.00480189882629
30
0
41
1
10
64.999999999205
20
1.90035128039651
30
0
41
1
10
65.3124999880499
20
1.76473394470923
30
1E-16
41
1
10
65.6250000000045
20
1.59992421003506
30
0
41
1
10
65.9375000119305
20
1.4088324226534
30
0
41
1
10
66.2499999970239
20
1.19449096252077
30
1E-16
41
1
10
66.562499999975
20
0.960715423347835
30
0
41
1
10
66.8750000000119
20
0.711498612541732
30
1E-16
41
1
10
67.1874999999773
20
0.451388980013291
30
1E-16
41
1
10
67.4953184965533
20
0.189104983955787
30
0
41
1
10
67.6989703264009
20
0.0148296399473793
30
0
41
1
10
67.79845548987
20
-0.0697407595435777
30
0
0
SPLINE
5
10F
100
AcDbEntity
8
1
62
256
6
ByLayer
370
18
48
1
60
0
100
AcDbSpline
70
4
71
3
72
50
73
46
40
0
40
0
40
0
40
0
40
0.0248010105488976
40
0.0248010105488976
40
0.113455464135351
40
0.113455464135351
40
0.135619077531963
40
0.135619077531963
40
0.157782690928575
40
0.157782690928575
40
0.202109917721804
40
0.202109917721804
40
0.290764371308256
40
0.290764371308256
40
0.31292798470487
40
0.32400979140318
40
0.32400979140318
40
0.335091598101489
40
0.335091598101489
40
0.379418824894725
40
0.379418824894725
40
0.468073278481197
40
0.468073278481197
40
0.512400505274432
40
0.512400505274432
40
0.534564118671049
40
0.534564118671049
40
0.556727732067666
40
0.556727732067666
40
0.645382185654134
40
0.645382185654134
40
0.734036639240602
40
0.734036639240602
40
0.756200252637219
40
0.756200252637219
40
0.778363866033835
40
0.822691092827067
40
0.822691092827067
40
0.911345546413531
40
0.911345546413531
40
0.955672773206766
40
0.955672773206766
40
0.977836386603383
40
0.977836386603383
40
1
40
1
40
1
40
1
41
1
10
65.7076145260157
20
-1.9870434884669
30
0
41
1
10
65.6606691323279
20
-2.00466725555469
30
0
41
1
10
65.6137807826253
20
-2.02104849136606
30
0
41
1
10
65.3993522862687
20
-2.090281077783
30
0
41
1
10
65.2319894920324
20
-2.12843858710869
30
0
41
1
10
65.0206572969614
20
-2.15515009408514
30
0
41
1
10
64.9781985162502
20
-2.15944432275629
30
0
41
1
10
64.8935739519237
20
-2.16585217727814
30
0
41
1
10
64.851383732862
20
-2.1679739366441
30
0
41
1
10
64.725082708917
20
-2.1711440127246
30
0
41
1
10
64.6412364484855
20
-2.16900034705455
30
0
41
1
10
64.3900663444792
20
-2.15010943542396
30
0
41
1
10
64.2231305004336
20
-2.12093402933868
30
0
41
1
10
64.0128371442096
20
-2.06417236708941
30
0
41
1
10
63.9496273237836
20
-2.04561766512074
30
0
41
1
10
63.8861733102802
20
-2.02477097703331
30
0
41
1
10
63.8438089736479
20
-2.01036314190628
30
0
41
1
10
63.8226005359189
20
-2.00290515988493
30
0
41
1
10
63.7168060583854
20
-1.96449797888681
30
-1E-16
41
1
10
63.6326268874211
20
-1.93008927906166
30
1E-16
41
1
10
63.3807656891114
20
-1.816474885064
30
0
41
1
10
63.2137539329017
20
-1.72691380152534
30
0
41
1
10
62.9620450946639
20
-1.57378628172364
30
-1E-16
41
1
10
62.877943902551
20
-1.51960533338888
30
0
41
1
10
62.7511696278501
20
-1.43381249970389
30
0
41
1
10
62.7087703617675
20
-1.40443397259003
30
0
41
1
10
62.6238732419298
20
-1.34430843943426
30
0
41
1
10
62.5815382627114
20
-1.3136782468419
30
0
41
1
10
62.370290834691
20
-1.15785684407504
30
0
41
1
10
62.2026447353467
20
-1.02468890976661
30
2E-16
41
1
10
61.8667778456015
20
-0.744973985816046
30
0
41
1
10
61.6985705995042
20
-0.598412469178669
30
1E-16
41
1
10
61.4859869638158
20
-0.408759371691445
30
1E-16
41
1
10
61.4433073538615
20
-0.370463575856292
30
0
41
1
10
61.3582673444063
20
-0.29382102344124
30
-2E-16
41
1
10
61.2309816302662
20
-0.178599350815148
30
0
41
1
10
61.1042841807853
20
-0.0628615733132563
30
1E-16
41
1
10
60.8511056726423
20
0.168678043078444
30
0
41
1
10
60.6825937401035
20
0.323107290691695
30
1E-16
41
1
10
60.4280572788801
20
0.552453536773925
30
0
41
1
10
60.3429267435289
20
0.628529940960561
30
-1E-16
41
1
10
60.2145374454276
20
0.741791864885471
30
0
41
1
10
60.1716235634661
20
0.779400615047848
30
0
41
1
10
60.0858504675742
20
0.853963436887199
30
2E-16
41
1
10
60.0429477712085
20
0.890956008400167
30
1E-16
41
1
10
60
20
0.927631113148863
30
0
0
SPLINE
5
110
100
AcDbEntity
8
1
62
256
6
ByLayer
370
18
48
1
60
0
100
AcDbSpline
70
4
71
3
72
52
73
48
40
0
40
0
40
0
40
0
40
0.0775524467988654
40
0.0775524467988654
40
0.116328670198296
40
0.116328670198296
40
0.135716781898012
40
0.135716781898012
40
0.155104893597727
40
0.155104893597727
40
0.232657340396593
40
0.232657340396593
40
0.310209787195458
40
0.310209787195458
40
0.329597898895174
40
0.329597898895174
40
0.348986010594891
40
0.348986010594891
40
0.387762233994327
40
0.387762233994327
40
0.465314680793199
40
0.465314680793199
40
0.504090904192637
40
0.504090904192637
40
0.523479015892356
40
0.533173071742214
40
0.533173071742214
40
0.542867127592072
40
0.542867127592072
40
0.62041957439093
40
0.62041957439093
40
0.697972021189788
40
0.697972021189788
40
0.736748244589218
40
0.736748244589218
40
0.775524467988647
40
0.775524467988647
40
0.853076914787505
40
0.853076914787505
40
0.891853138186934
40
0.891853138186934
40
0.911241249886649
40
0.920935305736508
40
0.920935305736508
40
0.930629361586367
40
0.930629361586367
40
1
40
1
40
1
40
1
41
1
10
59.9999999999995
20
2.09168662047324
30
0
41
1
10
60.1701263554821
20
2.00676222731286
30
0
41
1
10
60.3390773607293
20
1.9103489262742
30
0
41
1
10
60.5928014476159
20
1.750069823133
30
-1E-16
41
1
10
60.6774261131298
20
1.69402926813072
30
0
41
1
10
60.8046967599166
20
1.60620183697034
30
0
41
1
10
60.8471899546483
20
1.57628794541594
30
1E-16
41
1
10
60.9322753135579
20
1.51526892571854
30
0
41
1
10
60.9747036260711
20
1.48428177335535
30
1E-16
41
1
10
61.1863890395143
20
1.32708779544069
30
0
41
1
10
61.3542843000029
20
1.19412615737025
30
-1E-16
41
1
10
61.689959969088
20
0.916736805770199
30
1E-16
41
1
10
61.8577324888345
20
0.77230141845925
30
0
41
1
10
62.0691601021703
20
0.586260445790771
30
0
41
1
10
62.1115320965898
20
0.54877743913724
30
0
41
1
10
62.1964979079704
20
0.473304333082808
30
-2E-16
41
1
10
62.2391226580934
20
0.435286091660828
30
-1E-16
41
1
10
62.3664401222078
20
0.321400873146103
30
1E-16
41
1
10
62.4508866483307
20
0.245429313640983
30
-1E-16
41
1
10
62.7034974144484
20
0.0179918157207055
30
0
41
1
10
62.8709366862141
20
-0.132995868968237
30
-1E-16
41
1
10
63.1228442119262
20
-0.356048847670848
30
-1E-16
41
1
10
63.2069371223481
20
-0.429828716359964
30
1E-16
41
1
10
63.3335564523283
20
-0.53930335900813
30
-1E-16
41
1
10
63.3969864859778
20
-0.593741390090941
30
1E-16
41
1
10
63.460654574142
20
-0.647663669316984
30
2E-16
41
1
10
63.503159335639
20
-0.683489669665306
30
-2E-16
41
1
10
63.5244626555237
20
-0.701359281170937
30
-1E-16
41
1
10
63.7159180763852
20
-0.861125502323318
30
-2E-16
41
1
10
63.884131920587
20
-0.995619498720714
30
-1E-16
41
1
10
64.2198432642656
20
-1.24686724979861
30
0
41
1
10
64.3873162215564
20
-1.36364597288596
30
1E-16
41
1
10
64.6403431082525
20
-1.52308076572851
30
0
41
1
10
64.7250318814638
20
-1.57361708774366
30
-1E-16
41
1
10
64.8953038707966
20
-1.66882616912514
30
-1E-16
41
1
10
64.9799155507401
20
-1.71295575606692
30
0
41
1
10
65.2328456756653
20
-1.83473242899979
30
1E-16
41
1
10
65.4002786459005
20
-1.90178527069602
30
0
41
1
10
65.6521747145112
20
-1.97995377743837
30
0
41
1
10
65.736260705646
20
-2.00226874174018
30
0
41
1
10
65.8629044772039
20
-2.02989501012777
30
0
41
1
10
65.9263554169568
20
-2.04224569266862
30
0
41
1
10
65.9900647960483
20
-2.05235027732877
30
0
41
1
10
66.0326023990348
20
-2.05858108196409
30
0
41
1
10
66.0539234806457
20
-2.06144581685746
30
0
41
1
10
66.2274529817796
20
-2.0826461734124
30
0
41
1
10
66.3780813829697
20
-2.08782260325228
30
0
41
1
10
66.5283848452092
20
-2.0798698773963
30
0
0
SPLINE
5
111
100
AcDbEntity
8
1
62
256
6
ByLayer
370
18
48
1
60
0
100
AcDbSpline
70
4
71
3
72
67
73
63
40
0
40
0
40
0
40
0
40
0.0624999999999818
40
0.0624999999999818
40
0.0937499999999713
40
0.0937499999999713
40
0.109374999999966
40
0.109374999999966
40
0.124999999999961
40
0.124999999999961
40
0.187499999999943
40
0.187499999999943
40
0.218749999999933
40
0.218749999999933
40
0.234374999999928
40
0.242187499999923
40
0.242187499999923
40
0.249999999999919
40
0.249999999999919
40
0.312499999999903
40
0.312499999999903
40
0.374999999999888
40
0.374999999999888
40
0.390624999999886
40
0.390624999999886
40
0.406249999999884
40
0.406249999999884
40
0.437499999999883
40
0.437499999999883
40
0.499999999999882
40
0.499999999999882
40
0.515624999999882
40
0.523437499999882
40
0.523437499999882
40
0.531249999999883
40
0.531249999999883
40
0.562499999999891
40
0.562499999999891
40
0.624999999999909
40
0.624999999999909
40
0.656249999999919
40
0.656249999999919
40
0.671874999999925
40
0.671874999999925
40
0.68749999999993
40
0.68749999999993
40
0.749999999999945
40
0.749999999999945
40
0.81249999999996
40
0.81249999999996
40
0.828124999999963
40
0.828124999999963
40
0.843749999999966
40
0.874999999999972
40
0.874999999999972
40
0.937499999999985
40
0.937499999999985
40
0.968749999999992
40
0.968749999999992
40
0.984374999999996
40
0.984374999999996
40
1
40
1
40
1
40
1
41
1
10
68.1046719124859
20
-1.8522812183889
30
0
41
1
10
67.9334060387201
20
-1.91905169561261
30
1E-16
41
1
10
67.7643441340166
20
-1.96850953725513
30
0
41
1
10
67.5108830968085
20
-2.01674361952101
30
0
41
1
10
67.4264271056958
20
-2.02848527669252
30
0
41
1
10
67.2994067533822
20
-2.03948935444328
30
0
41
1
10
67.2570105008103
20
-2.04205522439315
30
0
41
1
10
67.172037257002
20
-2.04495691122693
30
0
41
1
10
67.1294114198246
20
-2.0452918378582
30
0
41
1
10
66.916205125168
20
-2.04132185207342
30
0
41
1
10
66.7477272690504
20
-2.02022738476546
30
0
41
1
10
66.4950283985725
20
-1.96318301468341
30
0
41
1
10
66.4107982412776
20
-1.93992477395349
30
0
41
1
10
66.2841126543893
20
-1.8987407114974
30
0
41
1
10
66.2206835703635
20
-1.87657382182906
30
0
41
1
10
66.1570537103287
20
-1.85205049729032
30
0
41
1
10
66.1145812191233
20
-1.83517793370581
30
1E-16
41
1
10
66.0933009621555
20
-1.82647207277668
30
1E-16
41
1
10
65.9022085957992
20
-1.74606530244327
30
1E-16
41
1
10
65.7344624781442
20
-1.65972975259965
30
-1E-16
41
1
10
65.3993522862687
20
-1.46083070267366
30
1E-16
41
1
10
65.2319894920323
20
-1.34826248473198
30
1E-16
41
1
10
65.0206572969614
20
-1.19266337595482
30
-1E-16
41
1
10
64.9781985162502
20
-1.16073070209831
30
1E-16
41
1
10
64.8935739519237
20
-1.095847917002
30
-1E-16
41
1
10
64.851383732862
20
-1.06288255710831
30
0
41
1
10
64.7250827089169
20
-0.962525412887516
30
0
41
1
10
64.6412364484854
20
-0.89367860013428
30
1E-16
41
1
10
64.3900663444791
20
-0.682087523705093
30
-2E-16
41
1
10
64.2231305004337
20
-0.534286296831823
30
-1E-16
41
1
10
64.0128371442096
20
-0.34341629627545
30
-1E-16
41
1
10
63.9496273237836
20
-0.285694843569104
30
-2E-16
41
1
10
63.8861733102802
20
-0.227339941758061
30
1E-16
41
1
10
63.843808973648
20
-0.1883026455221
30
0
41
1
10
63.8226005359188
20
-0.168721068727706
30
0
41
1
10
63.7168060583854
20
-0.0708850968848651
30
2E-16
41
1
10
63.6326268874211
20
0.0074591165111428
30
0
41
1
10
63.3807656891113
20
0.241997045663737
30
-1E-16
41
1
10
63.2137539329017
20
0.397693100534923
30
0
41
1
10
62.9620450946639
20
0.627547337745909
30
-1E-16
41
1
10
62.8779439025509
20
0.703549858536547
30
1E-16
41
1
10
62.75116962785
20
0.816276786596944
30
-1E-16
41
1
10
62.7087703617674
20
0.853672662716292
30
2E-16
41
1
10
62.6238732419298
20
0.927838423966136
30
0
41
1
10
62.5815382627114
20
0.964466389537336
30
0
41
1
10
62.370290834691
20
1.14523972726729
30
0
41
1
10
62.2026447353468
20
1.28229413158215
30
1E-16
41
1
10
61.8667778456014
20
1.53882444220133
30
-1E-16
41
1
10
61.6985705995041
20
1.65831110883613
30
-1E-16
41
1
10
61.4859869638157
20
1.79488010582958
30
0
41
1
10
61.4433073538615
20
1.821578223057
30
0
41
1
10
61.3582673444063
20
1.87328043187239
30
1E-16
41
1
10
61.2309816302662
20
1.94842831445055
30
1E-16
41
1
10
61.1042841807853
20
2.0163356945086
30
-1E-16
41
1
10
60.8511056726424
20
2.14238439869925
30
1E-16
41
1
10
60.6825937401035
20
2.21341118722648
30
0
41
1
10
60.4280572788801
20
2.29959508298552
30
1E-16
41
1
10
60.3429267435289
20
2.32492780791969
30
0
41
1
10
60.2145374454276
20
2.35767039103641
30
0
41
1
10
60.1716235634661
20
2.36770500074923
30
0
41
1
10
60.0858504675742
20
2.38592197431183
30
0
41
1
10
60.0429477712085
20
2.39411602321158
30
0
41
1
10
59.9999999999999
20
2.4013948585845
30
0
0
SPLINE
5
112
100
AcDbEntity
8
1
62
256
6
ByLayer
370
18
48
1
60
0
100
AcDbSpline
70
4
71
3
72
10
73
6
40
0
40
0
40
0
40
0
40
0.58137482534195
40
0.58137482534195
40
1
40
1
40
1
40
1
41
1
10
60.0000000000001
20
2.4013948585845
30
0
41
1
10
59.9306794099821
20
2.41317120288446
30
0
41
1
10
59.8615453995445
20
2.4224974687688
30
0
41
1
10
59.7414737978003
20
2.43445151337375
30
0
41
1
10
59.690860310751
20
2.43822798054626
30
0
41
1
10
59.6396727716694
20
2.44088875799528
30
0
0
SPLINE
5
113
100
AcDbEntity
8
1
62
256
6
ByLayer
370
18
48
1
60
0
100
AcDbSpline
70
4
71
3
72
63
73
59
40
0
40
0
40
0
40
0
40
0.0016140653695196
40
0.0016140653695196
40
0.0348935965238674
40
0.0348935965238674
40
0.0515333621010414
40
0.0515333621010414
40
0.0681731276782153
40
0.0681731276782153
40
0.134732189986914
40
0.134732189986914
40
0.201291252295613
40
0.201291252295613
40
0.217931017872788
40
0.217931017872788
40
0.234570783449962
40
0.234570783449962
40
0.267850314604309
40
0.267850314604309
40
0.334409376912998
40
0.334409376912998
40
0.367688908067345
40
0.367688908067345
40
0.384328673644516
40
0.392648556433104
40
0.392648556433104
40
0.400968439221691
40
0.400968439221691
40
0.467527501530387
40
0.467527501530387
40
0.534086563839083
40
0.534086563839083
40
0.567366094993431
40
0.567366094993431
40
0.600645626147779
40
0.600645626147779
40
0.667204688456475
40
0.667204688456475
40
0.700484219610823
40
0.700484219610823
40
0.717123985187999
40
0.725443867976588
40
0.725443867976588
40
0.733763750765178
40
0.733763750765178
40
0.800322813073883
40
0.800322813073883
40
0.866881875382588
40
0.866881875382588
40
0.883521640959765
40
0.883521640959765
40
0.891841523748353
40
0.891841523748353
40
0.900161406536941
40
0.933440937691294
40
0.933440937691294
40
1
40
1
40
1
40
1
41
1
10
60.4959214023565
20
2.26400668600903
30
0
41
1
10
60.5000230819625
20
2.26501182283587
30
0
41
1
10
60.5041248586425
20
2.26600876927341
30
0
41
1
10
60.592801447616
20
2.28738400975107
30
0
41
1
10
60.6774261131298
20
2.30427976254481
30
0
41
1
10
60.8046967599166
20
2.32424807182849
30
0
41
1
10
60.8471899546482
20
2.33000942735541
30
0
41
1
10
60.9322753135579
20
2.33970390242709
30
0
41
1
10
60.9747036260711
20
2.34361894760076
30
0
41
1
10
61.1863890395143
20
2.35857579043898
30
0
41
1
10
61.3542843000028
20
2.35579651386874
30
0
41
1
10
61.689959969088
20
2.321292045832
30
0
41
1
10
61.8577324888346
20
2.28956698716848
30
0
41
1
10
62.0691601021704
20
2.23162229851462
30
0
41
1
10
62.1115320965898
20
2.21911682461385
30
0
41
1
10
62.1964979079704
20
2.19225919595689
30
0
41
1
10
62.2391226580934
20
2.17789241404935
30
0
41
1
10
62.3664401222078
20
2.13236237884956
30
0
41
1
10
62.4508866483307
20
2.09867983864194
30
0
41
1
10
62.7034974144484
20
1.98809905197569
30
0
41
1
10
62.8709366862142
20
1.90169275618288
30
0
41
1
10
63.1228442119262
20
1.75440646760941
30
1E-16
41
1
10
63.2069371223481
20
1.70235822002797
30
0
41
1
10
63.3335564523283
20
1.61998338903794
30
0
41
1
10
63.3969864859779
20
1.57772005866857
30
1E-16
41
1
10
63.4606545741421
20
1.53386272708522
30
0
41
1
10
63.503159335639
20
1.50427211195273
30
0
41
1
10
63.5244626555237
20
1.48928540304448
30
1E-16
41
1
10
63.7159180763852
20
1.35323505463532
30
-1E-16
41
1
10
63.884131920587
20
1.22404508611626
30
0
41
1
10
64.2198432642656
20
0.952607215859359
30
0
41
1
10
64.3873162215565
20
0.810335941841316
30
-1E-16
41
1
10
64.6403431082525
20
0.589356260664658
30
0
41
1
10
64.7250318814637
20
0.514399816509439
30
1E-16
41
1
10
64.8953038707966
20
0.36248521373102
30
0
41
1
10
64.97991555074
20
0.286398135400475
30
2E-16
41
1
10
65.2328456756653
20
0.0584786727565358
30
-1E-16
41
1
10
65.4002786459005
20
-0.0929935191384459
30
2E-16
41
1
10
65.6521747145112
20
-0.316662812224422
30
-1E-16
41
1
10
65.7362607056459
20
-0.39063269442272
30
0
41
1
10
65.8629044772039
20
-0.500325079198859
30
-2E-16
41
1
10
65.9263554169569
20
-0.554855171496143
30
0
41
1
10
65.9900647960483
20
-0.60883593335609
30
1E-16
41
1
10
66.0326023990348
20
-0.64469255525313
30
2E-16
41
1
10
66.0539234806458
20
-0.662572081070778
30
0
41
1
10
66.2454102399552
20
-0.822255743191562
30
-1E-16
41
1
10
66.4135900301213
20
-0.956170961421037
30
0
41
1
10
66.7495206057052
20
-1.20488673892641
30
-1E-16
41
1
10
66.9172402036527
20
-1.31971831154522
30
0
41
1
10
67.1288762153262
20
-1.44895174074895
30
1E-16
41
1
10
67.1713041207623
20
-1.47408000953632
30
-1E-16
41
1
10
67.2351436457892
20
-1.51064063745034
30
0
41
1
10
67.2564750468138
20
-1.52264892439499
30
0
41
1
10
67.2990711158502
20
-1.54620168028609
30
1E-16
41
1
10
67.4054429805458
20
-1.60395300714336
30
0
41
1
10
67.5113180760331
20
-1.65602266750881
30
1E-16
41
1
10
67.7651838387191
20
-1.76972613711482
30
0
41
1
10
67.9341043005828
20
-1.83055600135029
30
0
41
1
10
68.1046719124859
20
-1.87497238685489
30
0
0
SPLINE
5
114
100
AcDbEntity
8
1
62
256
6
ByLayer
370
18
48
1
60
0
100
AcDbSpline
70
4
71
3
72
52
73
48
40
0
40
0
40
0
40
0
40
0.0881290198772768
40
0.0881290198772768
40
0.132193529815915
40
0.132193529815915
40
0.154225784785236
40
0.154225784785236
40
0.176258039754558
40
0.176258039754558
40
0.264387059631842
40
0.264387059631842
40
0.308451569570486
40
0.308451569570486
40
0.33048382453981
40
0.341499952024472
40
0.341499952024472
40
0.352516079509134
40
0.352516079509134
40
0.440645099386454
40
0.440645099386454
40
0.528774119263774
40
0.528774119263774
40
0.550806374233104
40
0.550806374233104
40
0.572838629202434
40
0.572838629202434
40
0.616903139141094
40
0.616903139141094
40
0.705032159018413
40
0.705032159018413
40
0.727064413987744
40
0.738080541472409
40
0.738080541472409
40
0.749096668957075
40
0.749096668957075
40
0.793161178895748
40
0.793161178895748
40
0.881290198773094
40
0.881290198773094
40
0.925354708711766
40
0.925354708711766
40
0.947386963681101
40
0.947386963681101
40
0.969419218650437
40
0.969419218650437
40
1
40
1
40
1
40
1
41
1
10
68.1046719124859
20
-1.57311321994044
30
-1E-16
41
1
10
67.93340603872
20
-1.48390713173578
30
-1E-16
41
1
10
67.7643441340168
20
-1.38066128688053
30
-1E-16
41
1
10
67.5108830968086
20
-1.20783676226691
30
-1E-16
41
1
10
67.4264271056957
20
-1.1472196385107
30
0
41
1
10
67.2994067533822
20
-1.05208226558096
30
0
41
1
10
67.2570105008103
20
-1.01966741397558
30
-1E-16
41
1
10
67.172037257002
20
-0.953481952633666
30
0
41
1
10
67.1294114198246
20
-0.919673450592427
30
-1E-16
41
1
10
66.916205125168
20
-0.74776604152089
30
0
41
1
10
66.7477272690503
20
-0.602994784078447
30
1E-16
41
1
10
66.4950283985725
20
-0.378426460955012
30
0
41
1
10
66.4107982412775
20
-0.302332479317073
30
-2E-16
41
1
10
66.2841126543893
20
-0.18668969775311
30
0
41
1
10
66.2206835703635
20
-0.128493825614385
30
-1E-16
41
1
10
66.1570537103287
20
-0.0698073123944596
30
2E-16
41
1
10
66.1145812191232
20
-0.0305816790529434
30
1E-16
41
1
10
66.0933009621555
20
-0.0109018432756898
30
0
41
1
10
65.9022085957991
20
0.16598328884271
30
1E-16
41
1
10
65.7344624781442
20
0.322354207205024
30
1E-16
41
1
10
65.3993522862686
20
0.629450375109371
30
-1E-16
41
1
10
65.2319894920323
20
0.780176102376714
30
-1E-16
41
1
10
65.0206572969614
20
0.96248671813035
30
0
41
1
10
64.9781985162502
20
0.998713620657981
30
1E-16
41
1
10
64.8935739519236
20
1.07000426027614
30
-1E-16
41
1
10
64.8513837328619
20
1.10509137953579
30
1E-16
41
1
10
64.7250827089169
20
1.20861859983714
30
1E-16
41
1
10
64.6412364484855
20
1.2753217469203
30
-1E-16
41
1
10
64.3900663444792
20
1.46802191171886
30
-1E-16
41
1
10
64.2231305004336
20
1.58664773250686
30
1E-16
41
1
10
64.0128371442096
20
1.72075607081399
30
0
41
1
10
63.9496273237836
20
1.75992282155164
30
1E-16
41
1
10
63.8861733102802
20
1.79743103527525
30
0
41
1
10
63.843808973648
20
1.82206049638418
30
-1E-16
41
1
10
63.8226005359188
20
1.8341840911572
30
-1E-16
41
1
10
63.7168060583854
20
1.89361288200192
30
0
41
1
10
63.632626887421
20
1.9375483955728
30
-1E-16
41
1
10
63.3807656891113
20
2.05847193072776
30
0
41
1
10
63.2137539329016
20
2.12460690206027
30
0
41
1
10
62.9620450946639
20
2.20133361946955
30
-1E-16
41
1
10
62.8779439025509
20
2.2231551919254
30
0
41
1
10
62.75116962785
20
2.25008928630081
30
0
41
1
10
62.7087703617674
20
2.25810663530632
30
0
41
1
10
62.6238732419298
20
2.27214686340037
30
0
41
1
10
62.5815382627114
20
2.27814463637924
30
0
41
1
10
62.480646469128
20
2.29006168311156
30
0
41
1
10
62.4221669353431
20
2.29505275733899
30
0
41
1
10
62.3637816872237
20
2.29813316069678
30
0
0
SPLINE
5
115
100
AcDbEntity
8
1
62
256
6
ByLayer
370
18
48
1
60
0
100
AcDbSpline
70
4
71
3
72
43
73
39
40
0
40
0
40
0
40
0
40
0.0155694703081844
40
0.0155694703081844
40
0.0414755368790146
40
0.054428570164432
40
0.054428570164432
40
0.0673816034498495
40
0.0673816034498495
40
0.171005869733184
40
0.171005869733184
40
0.274630136016519
40
0.274630136016519
40
0.326442269158184
40
0.326442269158184
40
0.37825440229985
40
0.37825440229985
40
0.481878668583175
40
0.481878668583175
40
0.533690801724838
40
0.533690801724838
40
0.559596868295672
40
0.572549901581091
40
0.572549901581091
40
0.58550293486651
40
0.58550293486651
40
0.689127201149883
40
0.689127201149883
40
0.792751467433256
40
0.792751467433256
40
0.818657534004096
40
0.818657534004096
40
0.831610567289517
40
0.831610567289517
40
0.844563600574937
40
0.896375733716623
40
0.896375733716623
40
1
40
1
40
1
40
1
41
1
10
63.2153335176725
20
2.13297753635777
30
0
41
1
10
63.240647004441
20
2.13906458465959
30
0
41
1
10
63.2659840598949
20
2.14482450828757
30
0
41
1
10
63.3335564523283
20
2.1592867480461
30
0
41
1
10
63.3969864859778
20
2.17146144875954
30
0
41
1
10
63.460654574142
20
2.18152639640223
30
0
41
1
10
63.503159335639
20
2.18776178161807
30
0
41
1
10
63.5244626555237
20
2.19064468421541
30
0
41
1
10
63.7159180763852
20
2.21436055695867
30
0
41
1
10
63.884131920587
20
2.219664584837
30
0
41
1
10
64.2198432642656
20
2.19947446565803
30
0
41
1
10
64.3873162215564
20
2.17398191472731
30
0
41
1
10
64.6403431082525
20
2.1124370263932
30
0
41
1
10
64.7250318814638
20
2.0880169042531
30
0
41
1
10
64.8953038707966
20
2.03131138285613
30
0
41
1
10
64.97991555074
20
1.99935389146742
30
0
41
1
10
65.2328456756652
20
1.89321110175629
30
0
41
1
10
65.4002786459005
20
1.80879175155761
30
0
41
1
10
65.6521747145112
20
1.66329096521397
30
1E-16
41
1
10
65.7362607056459
20
1.61163604731746
30
0
41
1
10
65.8629044772039
20
1.52956993092894
30
0
41
1
10
65.9263554169568
20
1.4873905211725
30
1E-16
41
1
10
65.9900647960484
20
1.44351434397265
30
-1E-16
41
1
10
66.0326023990348
20
1.41388852671093
30
0
41
1
10
66.0539234806457
20
1.39887373578668
30
1E-16
41
1
10
66.2454102399552
20
1.26258429508866
30
-1E-16
41
1
10
66.4135900301213
20
1.13268594882393
30
0
41
1
10
66.7495206057051
20
0.859273436163249
30
0
41
1
10
66.9172402036526
20
0.715729066695332
30
1E-16
41
1
10
67.1288762153262
20
0.529892942628919
30
1E-16
41
1
10
67.1713041207623
20
0.492405589494581
30
0
41
1
10
67.2351436457892
20
0.435734240820693
30
1E-16
41
1
10
67.2564750468136
20
0.416753754583311
30
-1E-16
41
1
10
67.29907111585
20
0.378778206249933
30
0
41
1
10
67.4054429805458
20
0.283760238100399
30
-2E-16
41
1
10
67.5113180760331
20
0.18845171880011
30
0
41
1
10
67.7651838387191
20
-0.0400440521621306
30
1E-16
41
1
10
67.9341043005826
20
-0.192062137783836
30
0
41
1
10
68.1046719124859
20
-0.341548483216655
30
-1E-16
0
SPLINE
5
116
100
AcDbEntity
8
1
62
256
6
ByLayer
370
18
48
1
60
0
100
AcDbSpline
70
4
71
3
72
31
73
27
40
0
40
0
40
0
40
0
40
0.157158594301837
40
0.157158594301837
40
0.235737891452755
40
0.235737891452755
40
0.275027540028211
40
0.275027540028211
40
0.314317188603667
40
0.314317188603667
40
0.471475782905483
40
0.471475782905483
40
0.550055080056391
40
0.550055080056391
40
0.589344728631849
40
0.608989552919574
40
0.608989552919574
40
0.628634377207299
40
0.628634377207299
40
0.785792971509151
40
0.785792971509151
40
0.942951565811002
40
0.942951565811002
40
0.98224121438647
40
0.98224121438647
40
1
40
1
40
1
40
1
41
1
10
68.1046719124859
20
0.279167998448429
30
0
41
1
10
67.93340603872
20
0.435144563876832
30
1E-16
41
1
10
67.7643441340168
20
0.58784825037435
30
0
41
1
10
67.5108830968086
20
0.808906857253817
30
1E-16
41
1
10
67.4264271056958
20
0.881265638181816
30
-1E-16
41
1
10
67.2994067533822
20
0.987407088862312
30
-1E-16
41
1
10
67.2570105008103
20
1.02238781041754
30
0
41
1
10
67.172037257002
20
1.09147495859324
30
1E-16
41
1
10
67.1294114198246
20
1.12561838726577
30
0
41
1
10
66.916205125168
20
1.29355581055253
30
1E-16
41
1
10
66.7477272690504
20
1.41723260068702
30
0
41
1
10
66.4950283985725
20
1.58475655372837
30
1E-16
41
1
10
66.4107982412775
20
1.63759229463642
30
-1E-16
41
1
10
66.2841126543893
20
1.71205101374426
30
0
41
1
10
66.2206835703634
20
1.74807999621464
30
-1E-16
41
1
10
66.1570537103287
20
1.78224318489586
30
0
41
1
10
66.1145812191234
20
1.80459625465284
30
0
41
1
10
66.0933009621555
20
1.81557022950099
30
0
41
1
10
65.9022085957992
20
1.91204859128595
30
0
41
1
10
65.7344624781443
20
1.98208395980464
30
0
41
1
10
65.3993522862687
20
2.09028107778298
30
0
41
1
10
65.2319894920323
20
2.12843858710869
30
0
41
1
10
65.0206572969615
20
2.15515009408514
30
0
41
1
10
64.9781985162502
20
2.15944432275629
30
0
41
1
10
64.9167612285193
20
2.16409641408615
30
0
41
1
10
64.8976611605509
20
2.16532349030035
30
0
41
1
10
64.87858305808
20
2.16633105778146
30
0
0
SPLINE
5
117
100
AcDbEntity
8
1
62
256
6
ByLayer
370
18
48
1
60
0
100
AcDbSpline
70
4
71
3
72
26
73
22
40
0
40
0
40
0
40
0
40
0.0472662427072584
40
0.0472662427072584
40
0.10019589589017
40
0.126660722481631
40
0.126660722481631
40
0.153125549073091
40
0.153125549073091
40
0.364844161804823
40
0.364844161804823
40
0.576562774536555
40
0.576562774536555
40
0.629492427719488
40
0.629492427719488
40
0.655957254310955
40
0.655957254310955
40
0.682422080902421
40
0.788281387268277
40
0.788281387268277
40
1
40
1
40
1
40
1
41
1
10
65.7077822963568
20
1.99369885162767
30
0
41
1
10
65.7453629477498
20
2.0034623869731
30
0
41
1
10
65.7829922075711
20
2.0124628239162
30
0
41
1
10
65.8629044772039
20
2.02989501012777
30
0
41
1
10
65.9263554169569
20
2.04224569266862
30
0
41
1
10
65.9900647960484
20
2.05235027732877
30
0
41
1
10
66.0326023990348
20
2.05858108196409
30
0
41
1
10
66.0539234806457
20
2.06144581685746
30
0
41
1
10
66.2454102399552
20
2.08484003828025
30
0
41
1
10
66.4135900301213
20
2.08885691024497
30
0
41
1
10
66.7495206057052
20
2.0641601750896
30
0
41
1
10
66.9172402036527
20
2.03544737824055
30
0
41
1
10
67.1288762153262
20
1.97884468337784
30
0
41
1
10
67.1713041207623
20
1.9664855990309
30
-1E-16
41
1
10
67.2351436457892
20
1.94637487827103
30
0
41
1
10
67.2564750468137
20
1.93940267897827
30
0
41
1
10
67.2990711158502
20
1.92497988653599
30
0
41
1
10
67.4054429805458
20
1.88771324524373
30
0
41
1
10
67.5113180760331
20
1.84447438630889
30
0
41
1
10
67.7651838387191
20
1.72968208495266
30
-1E-16
41
1
10
67.9341043005827
20
1.63849386356642
30
-1E-16
41
1
10
68.1046719124859
20
1.53342390363818
30
0
0
SPLINE
5
118
100
AcDbEntity
8
1
62
256
6
ByLayer
370
18
48
1
60
0
100
AcDbSpline
70
4
71
3
72
12
73
8
40
0
40
0
40
0
40
0
40
0.601503535097966
40
0.601503535097966
40
0.902255302646948
40
0.902255302646948
40
1
40
1
40
1
40
1
41
1
10
68.1046719124859
20
1.85228121838887
30
0
41
1
10
67.9334060387201
20
1.91905169561261
30
-1E-16
41
1
10
67.7643441340166
20
1.9685095372551
30
0
41
1
10
67.5108830968085
20
2.01674361952098
30
0
41
1
10
67.4264271056958
20
2.02848527669249
30
0
41
1
10
67.3142256894911
20
2.03820555446822
30
0
41
1
10
67.2866807908872
20
2.04012411596105
30
0
41
1
10
67.2591027733338
20
2.04157347838506
30
0
0
SPLINE
5
119
100
AcDbEntity
8
1
62
256
6
ByLayer
370
18
48
1
60
0
100
AcDbSpline
70
4
71
3
72
12
73
8
40
0
40
0
40
0
40
0
40
0.482936822300625
40
0.482936822300625
40
0.741468411150313
40
0.741468411150313
40
1
40
1
40
1
40
1
41
1
10
60.496099492093
20
-2.27651088495173
30
0
41
1
10
60.4168179731436
20
-2.30292375581558
30
0
41
1
10
60.3372775836772
20
-2.3263684894151
30
0
41
1
10
60.2145374454276
20
-2.35767039103644
30
0
41
1
10
60.1716235634661
20
-2.36770500074925
30
0
41
1
10
60.0858504675743
20
-2.38592197431183
30
0
41
1
10
60.0429477712085
20
-2.39411602321158
30
0
41
1
10
60
20
-2.4013948585845
30
0
0
SPLINE
5
11A
100
AcDbEntity
8
1
62
256
6
ByLayer
370
18
48
1
60
0
100
AcDbSpline
70
4
71
3
72
14
73
10
40
0
40
0
40
0
40
0
40
0.25
40
0.25
40
0.5
40
0.5
40
0.75
40
0.75
40
1
40
1
40
1
40
1
41
1
10
60.0000000000001
20
-2.4013948585845
30
0
41
1
10
59.9306794099821
20
-2.41317120288446
30
0
41
1
10
59.8615453995446
20
-2.4224974687688
30
0
41
1
10
59.7219321865595
20
-2.43639702995745
30
0
41
1
10
59.6514534484555
20
-2.44097877471111
30
0
41
1
10
59.5079433800937
20
-2.44600675171927
30
0
41
1
10
59.4349387171995
20
-2.4464757982993
30
0
41
1
10
59.2869349822401
20
-2.44381896380423
30
0
41
1
10
59.211892208326
20
-2.44069424032676
30
0
41
1
10
59.1358785360144
20
-2.43597640216839
30
0
0
SPLINE
5
11B
100
AcDbEntity
8
1
62
256
6
ByLayer
370
18
48
1
60
0
100
AcDbSpline
70
4
71
3
72
16
73
12
40
0
40
0
40
0
40
0
40
0.368697651421867
40
0.368697651421867
40
0.553046477132801
40
0.553046477132801
40
0.645220889988276
40
0.645220889988276
40
0.737395302843751
40
0.737395302843751
40
1
40
1
40
1
40
1
41
1
10
59.9999999999995
20
-2.1033041721314
30
0
41
1
10
60.1701263554821
20
-2.17151326130039
30
0
41
1
10
60.3390773607293
20
-2.22622453761795
30
0
41
1
10
60.592801447616
20
-2.28738400975107
30
0
41
1
10
60.6774261131298
20
-2.30427976254481
30
0
41
1
10
60.8046967599166
20
-2.32424807182849
30
0
41
1
10
60.8471899546483
20
-2.33000942735541
30
0
41
1
10
60.9322753135579
20
-2.33970390242709
30
0
41
1
10
60.9747036260711
20
-2.34361894760073
30
0
41
1
10
61.1376589631485
20
-2.35513271856246
30
0
41
1
10
61.2575400760517
20
-2.35617511961573
30
0
41
1
10
61.3771883267315
20
-2.34983572470165
30
0
0
SPLINE
5
11C
100
AcDbEntity
8
1
62
256
6
ByLayer
370
18
48
1
60
0
100
AcDbSpline
70
4
71
3
72
31
73
27
40
0
40
0
40
0
40
0
40
0.0531797652675865
40
0.0531797652675865
40
0.132081451495291
40
0.132081451495291
40
0.171532294609143
40
0.171532294609143
40
0.210983137722996
40
0.210983137722996
40
0.368786510178398
40
0.368786510178398
40
0.5265898826338
40
0.5265898826338
40
0.566040725747651
40
0.566040725747651
40
0.605491568861502
40
0.684393255089203
40
0.684393255089203
40
0.842196627544605
40
0.842196627544605
40
0.921098313772303
40
0.921098313772303
40
0.960549156886151
40
0.960549156886151
40
1
40
1
40
1
40
1
41
1
10
63.2153939965994
20
-2.1189583667946
30
0
41
1
10
63.1589590838798
20
-2.13958045665259
30
0
41
1
10
63.102498656973
20
-2.15852010183596
30
0
41
1
10
62.9620450946639
20
-2.20133361946955
30
1E-16
41
1
10
62.8779439025509
20
-2.2231551919254
30
0
41
1
10
62.7511696278501
20
-2.25008928630081
30
0
41
1
10
62.7087703617674
20
-2.25810663530632
30
0
41
1
10
62.6238732419298
20
-2.27214686340037
30
0
41
1
10
62.5815382627114
20
-2.27814463637924
30
0
41
1
10
62.3702908346911
20
-2.30309657134231
30
0
41
1
10
62.2026447353467
20
-2.30698304134876
30
0
41
1
10
61.8667778456014
20
-2.28379842801738
30
0
41
1
10
61.6985705995041
20
-2.2567235780148
30
0
41
1
10
61.4859869638157
20
-2.20363947752105
30
-1E-16
41
1
10
61.4433073538615
20
-2.19204179891329
30
0
41
1
10
61.3582673444063
20
-2.1671014553136
30
0
41
1
10
61.2309816302662
20
-2.12702766526573
30
1E-16
41
1
10
61.1042841807853
20
-2.07919726782185
30
0
41
1
10
60.8511056726423
20
-1.97370635562078
30
0
41
1
10
60.6825937401035
20
-1.89030389653476
30
0
41
1
10
60.42805727888
20
-1.74714154621159
30
1E-16
41
1
10
60.3429267435289
20
-1.69639786695913
30
0
41
1
10
60.2145374454276
20
-1.61587852615094
30
0
41
1
10
60.1716235634661
20
-1.58830438570138
30
-1E-16
41
1
10
60.0858504675742
20
-1.5319585374246
30
0
41
1
10
60.0429477712085
20
-1.50316001481139
30
0
41
1
10
60
20
-1.47376374543563
30
-1E-16
0
SPLINE
5
11D
100
AcDbEntity
8
1
62
256
6
ByLayer
370
18
48
1
60
0
100
AcDbSpline
70
4
71
3
72
35
73
31
40
0
40
0
40
0
40
0
40
0.125616317089957
40
0.125616317089957
40
0.188424475634933
40
0.188424475634933
40
0.219828554907418
40
0.219828554907418
40
0.251232634179903
40
0.251232634179903
40
0.376848951269854
40
0.376848951269854
40
0.502465268359805
40
0.502465268359805
40
0.533869347632293
40
0.533869347632293
40
0.565273426904781
40
0.565273426904781
40
0.628081585449757
40
0.628081585449757
40
0.753697902539708
40
0.753697902539708
40
0.816506061084687
40
0.816506061084687
40
0.847910140357176
40
0.863612179993418
40
0.863612179993418
40
0.879314219629659
40
0.879314219629659
40
1
40
1
40
1
40
1
41
1
10
59.9999999999995
20
-0.0116175516581905
30
0
41
1
10
60.1701263554821
20
-0.164751033987528
30
-1E-16
41
1
10
60.3390773607293
20
-0.315875611343756
30
-1E-16
41
1
10
60.592801447616
20
-0.53731418661809
30
-1E-16
41
1
10
60.6774261131298
20
-0.610250494414089
30
1E-16
41
1
10
60.8046967599166
20
-0.71804623485815
30
-1E-16
41
1
10
60.8471899546483
20
-0.753721481939465
30
0
41
1
10
60.9322753135579
20
-0.824434976708517
30
2E-16
41
1
10
60.9747036260711
20
-0.859337174245411
30
-2E-16
41
1
10
61.1863890395143
20
-1.03148799499829
30
2E-16
41
1
10
61.3542843000028
20
-1.16167035649846
30
1E-16
41
1
10
61.6899599690879
20
-1.4045552400618
30
0
41
1
10
61.8577324888345
20
-1.51726556870921
30
0
41
1
10
62.0691601021704
20
-1.64536185272385
30
1E-16
41
1
10
62.1115320965899
20
-1.67033938547661
30
-1E-16
41
1
10
62.1964979079705
20
-1.71895486287411
30
0
41
1
10
62.2391226580934
20
-1.74260632238853
30
1E-16
41
1
10
62.3664401222078
20
-1.81096150570343
30
0
41
1
10
62.4508866483307
20
-1.85325052500099
30
-1E-16
41
1
10
62.7034974144484
20
-1.97010723625499
30
0
41
1
10
62.8709366862141
20
-2.03468862515112
30
1E-16
41
1
10
63.1228442119262
20
-2.11045531528029
30
-1E-16
41
1
10
63.206937122348
20
-2.13218693638794
30
0
41
1
10
63.3335564523283
20
-2.1592867480461
30
0
41
1
10
63.3969864859779
20
-2.17146144875954
30
0
41
1
10
63.4606545741421
20
-2.18152639640223
30
0
41
1
10
63.503159335639
20
-2.18776178161807
30
0
41
1
10
63.5244626555237
20
-2.19064468421541
30
0
41
1
10
63.7092382790496
20
-2.21353312035308
30
0
41
1
10
63.870923842871
20
-2.21922390450305
30
0
41
1
10
64.0322204483095
20
-2.21068704633828
30
0
0
SPLINE
5
11E
100
AcDbEntity
8
1
62
256
6
ByLayer
370
18
48
1
60
0
100
AcDbSpline
70
4
71
2
72
6
73
3
40
0
40
0
40
0
40
1
40
1
40
1
41
1
10
66.7157167415266
20
1.43483849016803
30
0
41
1
10
66.7235608027837
20
1.43000810651577
30
0
41
1
10
66.7314651703878
20
1.42490558145332
30
0
0
SPLINE
5
11F
100
AcDbEntity
8
1
62
256
6
ByLayer
370
18
48
1
60
0
100
AcDbSpline
70
4
71
2
72
6
73
3
40
0
40
0
40
0
40
1
40
1
40
1
41
1
10
66.7303556269736
20
1.42562215883498
30
0
41
1
10
66.7303552493677
20
1.42561196620497
30
0
41
1
10
66.7303548717618
20
1.42560182491101
30
0
0
SPLINE
5
120
100
AcDbEntity
8
1
62
256
6
ByLayer
370
18
48
1
60
0
100
AcDbSpline
70
4
71
2
72
6
73
3
40
0
40
0
40
0
40
1
40
1
40
1
41
1
10
64.8218336380108
20
1.12926804021245
30
0
41
1
10
64.8218247284794
20
1.12929112570254
30
0
41
1
10
64.8218158189385
20
1.12931538951119
30
0
0
SPLINE
5
121
100
AcDbEntity
8
1
62
256
6
ByLayer
370
18
48
1
60
0
100
AcDbSpline
70
4
71
2
72
6
73
3
40
0
40
0
40
0
40
1
40
1
40
1
41
1
10
62.8119769106316
20
-0.0793881889036072
30
2E-16
41
1
10
62.8119824985894
20
-0.0793981613844892
30
2E-16
41
1
10
62.8119880865494
20
-0.0794086404331438
30
2E-16
0
SPLINE
5
122
100
AcDbEntity
8
1
62
256
6
ByLayer
370
18
48
1
60
0
100
AcDbSpline
70
4
71
2
72
6
73
3
40
0
40
0
40
0
40
1
40
1
40
1
41
1
10
60.7637675495227
20
0.247312230371279
30
-1E-16
41
1
10
60.7638292314422
20
0.247818857707102
30
-1E-16
41
1
10
60.7638909138149
20
0.248318986223381
30
-1E-16
0
INSERT
5
148
100
AcDbEntity
8
1
62
256
6
ByLayer
370
18
48
1
60
0
100
AcDbBlockReference
2
LABLE3D_1
10
84.300458
20
-20.39795
30
0
41
1
42
1
43
1
50
0
210
0
220
0
230
1
0
LINE
5
7D
100
AcDbEntity
8
80
62
256
6
ByLayer
370
18
48
1
60
0
100
AcDbLine
10
0
20
0
30
0
11
-3
21
0
31
0
39
0
210
0
220
0
230
1
0
LINE
5
7E
100
AcDbEntity
8
81
62
256
6
ByLayer
370
18
48
1
60
0
100
AcDbLine
10
70
20
0
30
0
11
73
21
0
31
0
39
0
210
0
220
0
230
1
0
LINE
5
7F
100
AcDbEntity
8
4
62
256
6
ByLayer
370
18
48
0.05
60
0
100
AcDbLine
10
0
20
0
30
0
11
73
21
0
31
0
39
0
210
0
220
0
230
1
0
LINE
5
81
100
AcDbEntity
8
SK4
62
256
6
ByLayer
370
18
48
0.05
60
0
100
AcDbLine
10
-43
20
0
30
0
11
73
21
0
31
0
39
0
210
0
220
0
230
1
0
LINE
5
83
100
AcDbEntity
8
1
62
256
6
ByLayer
370
18
48
1
60
0
100
AcDbLine
10
0
20
-5
30
0
11
0
21
5
31
0
39
0
210
0
220
0
230
1
0
LINE
5
84
100
AcDbEntity
8
1
62
256
6
ByLayer
370
18
48
1
60
0
100
AcDbLine
10
10.808962
20
-5
30
0
11
10.808962
21
5
31
0
39
0
210
0
220
0
230
1
0
LINE
5
85
100
AcDbEntity
8
SK1
62
256
6
ByLayer
370
18
48
1
60
0
100
AcDbLine
10
-40
20
-4.4
30
0
11
-40
21
4.4
31
0
39
0
210
0
220
0
230
1
0
LINE
5
87
100
AcDbEntity
8
SK1
62
256
6
ByLayer
370
18
48
1
60
0
100
AcDbLine
10
0
20
-5
30
0
11
0
21
5
31
0
39
0
210
0
220
0
230
1
0
LINE
5
88
100
AcDbEntity
8
SK1
62
256
6
ByLayer
370
18
48
1
60
0
100
AcDbLine
10
-39.4
20
-5
30
0
11
-39.4
21
5
31
0
39
0
210
0
220
0
230
1
0
LINE
5
89
100
AcDbEntity
8
1
62
256
6
ByLayer
370
18
48
1
60
0
100
AcDbLine
10
10.808962
20
5
30
0
11
0
21
5
31
0
39
0
210
0
220
0
230
1
0
LINE
5
8A
100
AcDbEntity
8
1
62
256
6
ByLayer
370
18
48
1
60
0
100
AcDbLine
10
0
20
-5
30
0
11
10.808962
21
-5
31
0
39
0
210
0
220
0
230
1
0
LINE
5
8B
100
AcDbEntity
8
1
62
256
6
ByLayer
370
18
48
1
60
0
100
AcDbLine
10
67.260061
20
2.041523
30
0
11
66.528749
21
2.07985
31
0
39
0
210
0
220
0
230
1
0
LINE
5
8C
100
AcDbEntity
8
1
62
256
6
ByLayer
370
18
48
1
60
0
100
AcDbLine
10
64.878938
20
2.166313
30
0
11
64.032498
21
2.210673
31
0
39
0
210
0
220
0
230
1
0
LINE
5
8D
100
AcDbEntity
8
1
62
256
6
ByLayer
370
18
48
1
60
0
100
AcDbLine
10
62.364482
20
2.29809
30
0
11
61.377537
21
2.349813
31
0
39
0
210
0
220
0
230
1
0
LINE
5
8E
100
AcDbEntity
8
1
62
256
6
ByLayer
370
18
48
1
60
0
100
AcDbLine
10
59.638718
20
2.440941
30
0
11
10.808962
21
5
31
0
39
0
210
0
220
0
230
1
0
LINE
5
8F
100
AcDbEntity
8
1
62
256
6
ByLayer
370
18
48
1
60
0
100
AcDbLine
10
10.808962
20
-5
30
0
11
59.638718
21
-2.440941
31
0
39
0
210
0
220
0
230
1
0
LINE
5
90
100
AcDbEntity
8
1
62
256
6
ByLayer
370
18
48
1
60
0
100
AcDbLine
10
61.377537
20
-2.349813
30
0
11
62.364482
21
-2.29809
31
0
39
0
210
0
220
0
230
1
0
LINE
5
91
100
AcDbEntity
8
1
62
256
6
ByLayer
370
18
48
1
60
0
100
AcDbLine
10
64.032498
20
-2.210673
30
0
11
64.878938
21
-2.166313
31
0
39
0
210
0
220
0
230
1
0
LINE
5
92
100
AcDbEntity
8
1
62
256
6
ByLayer
370
18
48
1
60
0
100
AcDbLine
10
66.528749
20
-2.07985
30
0
11
67.260061
21
-2.041523
31
0
39
0
210
0
220
0
230
1
0
LINE
5
93
100
AcDbEntity
8
SK1
62
256
6
ByLayer
370
18
48
1
60
0
100
AcDbLine
10
-40
20
-4.4
30
0
11
-39.4
21
-5
31
0
39
0
210
0
220
0
230
1
0
LINE
5
94
100
AcDbEntity
8
SK1
62
256
6
ByLayer
370
18
48
1
60
0
100
AcDbLine
10
-39.4
20
5
30
0
11
-40
21
4.4
31
0
39
0
210
0
220
0
230
1
0
LINE
5
95
100
AcDbEntity
8
SK1
62
256
6
ByLayer
370
18
48
1
60
0
100
AcDbLine
10
0
20
5
30
0
11
-39.4
21
5
31
0
39
0
210
0
220
0
230
1
0
LINE
5
96
100
AcDbEntity
8
SK1
62
256
6
ByLayer
370
18
48
1
60
0
100
AcDbLine
10
-39.4
20
-5
30
0
11
0
21
-5
31
0
39
0
210
0
220
0
230
1
0
LINE
5
97
100
AcDbEntity
8
SK2
62
256
6
ByLayer
370
13
48
1
60
0
100
AcDbLine
10
-46.5
20
-5
30
0
11
-46.5
21
24.625256
31
0
39
0
210
0
220
0
230
1
0
LINE
5
99
100
AcDbEntity
8
SK2
62
256
6
ByLayer
370
13
48
1
60
0
100
AcDbLine
10
-41.5875
20
-5
30
0
11
-48.5
21
-5
31
0
39
0
210
0
220
0
230
1
0
LINE
5
9A
100
AcDbEntity
8
SK2
62
256
6
ByLayer
370
13
48
1
60
0
100
AcDbLine
10
-41.5875
20
5
30
0
11
-48.5
21
5
31
0
39
0
210
0
220
0
230
1
0
LINE
5
9B
100
AcDbEntity
8
1
62
256
6
ByLayer
370
18
48
1
60
1
100
AcDbLine
10
-46.5
20
-5
30
0
11
-46.960784
21
-1.500002
31
0
39
0
210
0
220
0
230
1
0
LINE
5
9C
100
AcDbEntity
8
1
62
256
6
ByLayer
370
18
48
1
60
1
100
AcDbLine
10
-46.960784
20
-1.500002
30
0
11
-46.039216
21
-1.499998
31
0
39
0
210
0
220
0
230
1
0
LINE
5
9D
100
AcDbEntity
8
1
62
256
6
ByLayer
370
18
48
1
60
1
100
AcDbLine
10
-46.039216
20
-1.499998
30
0
11
-46.5
21
-5
31
0
39
0
210
0
220
0
230
1
0
LINE
5
9E
100
AcDbEntity
8
1
62
256
6
ByLayer
370
18
48
1
60
1
100
AcDbLine
10
-46.5
20
5
30
0
11
-46.039216
21
1.500002
31
0
39
0
210
0
220
0
230
1
0
LINE
5
9F
100
AcDbEntity
8
1
62
256
6
ByLayer
370
18
48
1
60
1
100
AcDbLine
10
-46.039216
20
1.500002
30
0
11
-46.960784
21
1.499998
31
0
39
0
210
0
220
0
230
1
0
LINE
5
A0
100
AcDbEntity
8
1
62
256
6
ByLayer
370
18
48
1
60
1
100
AcDbLine
10
-46.960784
20
1.499998
30
0
11
-46.5
21
5
31
0
39
0
210
0
220
0
230
1
0
LINE
5
A1
100
AcDbEntity
8
SK2
62
256
6
ByLayer
370
13
48
1
60
0
100
AcDbLine
10
86.5
20
-9.5
30
0
11
86.5
21
20.449199
31
0
39
0
210
0
220
0
230
1
0
LINE
5
A2
100
AcDbEntity
8
SK2
62
256
6
ByLayer
370
13
48
1
60
0
100
AcDbLine
10
71.5875
20
-2
30
0
11
88.5
21
-2
31
0
39
0
210
0
220
0
230
1
0
LINE
5
A3
100
AcDbEntity
8
SK2
62
256
6
ByLayer
370
13
48
1
60
0
100
AcDbLine
10
71.5875
20
2
30
0
11
88.5
21
2
31
0
39
0
210
0
220
0
230
1
0
LINE
5
A4
100
AcDbEntity
8
1
62
256
6
ByLayer
370
18
48
1
60
1
100
AcDbLine
10
86.5
20
-2
30
0
11
86.960784
21
-5.499998
31
0
39
0
210
0
220
0
230
1
0
LINE
5
A5
100
AcDbEntity
8
1
62
256
6
ByLayer
370
18
48
1
60
1
100
AcDbLine
10
86.960784
20
-5.499998
30
0
11
86.039216
21
-5.500002
31
0
39
0
210
0
220
0
230
1
0
LINE
5
A6
100
AcDbEntity
8
1
62
256
6
ByLayer
370
18
48
1
60
1
100
AcDbLine
10
86.039216
20
-5.500002
30
0
11
86.5
21
-2
31
0
39
0
210
0
220
0
230
1
0
LINE
5
A7
100
AcDbEntity
8
1
62
256
6
ByLayer
370
18
48
1
60
1
100
AcDbLine
10
86.5
20
2
30
0
11
86.039216
21
5.499998
31
0
39
0
210
0
220
0
230
1
0
LINE
5
A8
100
AcDbEntity
8
1
62
256
6
ByLayer
370
18
48
1
60
1
100
AcDbLine
10
86.039216
20
5.499998
30
0
11
86.960784
21
5.500002
31
0
39
0
210
0
220
0
230
1
0
LINE
5
A9
100
AcDbEntity
8
1
62
256
6
ByLayer
370
18
48
1
60
1
100
AcDbLine
10
86.960784
20
5.500002
30
0
11
86.5
21
2
31
0
39
0
210
0
220
0
230
1
0
LINE
5
AA
100
AcDbEntity
8
SK2
62
256
6
ByLayer
370
13
48
1
60
0
100
AcDbLine
10
-28.4125
20
0
30
0
11
27.145617
21
0
31
0
39
0
210
0
220
0
230
1
0
LINE
5
AB
100
AcDbEntity
8
SK2
62
256
6
ByLayer
370
13
48
1
60
0
100
AcDbLine
10
48.427594
20
4.71839
30
0
11
23.708991
21
8.151529
31
0
39
0
210
0
220
0
230
1
0
LINE
5
AC
100
AcDbEntity
8
1
62
256
6
ByLayer
370
18
48
1
60
1
100
AcDbLine
10
25.145617
20
0
30
0
11
24.738358
21
3.506629
31
0
39
0
210
0
220
0
230
1
0
LINE
5
AD
100
AcDbEntity
8
1
62
256
6
ByLayer
370
18
48
1
60
1
100
AcDbLine
10
24.738358
20
3.506629
30
0
11
25.659818
21
3.492554
31
0
39
0
210
0
220
0
230
1
0
LINE
5
AE
100
AcDbEntity
8
1
62
256
6
ByLayer
370
18
48
1
60
1
100
AcDbLine
10
25.659818
20
3.492554
30
0
11
25.145617
21
0
31
0
39
0
210
0
220
0
230
1
0
LINE
5
AF
100
AcDbEntity
8
1
62
256
6
ByLayer
370
18
48
1
60
1
100
AcDbLine
10
25.689976
20
7.876392
30
0
11
25.718823
21
4.34631
31
0
39
0
210
0
220
0
230
1
0
LINE
5
B0
100
AcDbEntity
8
1
62
256
6
ByLayer
370
18
48
1
60
1
100
AcDbLine
10
25.718823
20
4.34631
30
0
11
24.804187
21
4.459126
31
0
39
0
210
0
220
0
230
1
0
LINE
5
B1
100
AcDbEntity
8
1
62
256
6
ByLayer
370
18
48
1
60
1
100
AcDbLine
10
24.804187
20
4.459126
30
0
11
25.689976
21
7.876392
31
0
39
0
210
0
220
0
230
1
0
LINE
5
127
100
AcDbEntity
8
1
62
256
6
ByLayer
370
18
48
1
60
1
100
AcDbLine
10
-46.5
20
-5
30
0
11
-46.960784
21
-1.500002
31
0
39
0
210
0
220
0
230
1
0
LINE
5
128
100
AcDbEntity
8
1
62
256
6
ByLayer
370
18
48
1
60
1
100
AcDbLine
10
-46.960784
20
-1.500002
30
0
11
-46.039216
21
-1.499998
31
0
39
0
210
0
220
0
230
1
0
LINE
5
129
100
AcDbEntity
8
1
62
256
6
ByLayer
370
18
48
1
60
1
100
AcDbLine
10
-46.039216
20
-1.499998
30
0
11
-46.5
21
-5
31
0
39
0
210
0
220
0
230
1
0
LINE
5
12B
100
AcDbEntity
8
1
62
256
6
ByLayer
370
18
48
1
60
1
100
AcDbLine
10
-46.5
20
5
30
0
11
-46.039216
21
1.500002
31
0
39
0
210
0
220
0
230
1
0
LINE
5
12C
100
AcDbEntity
8
1
62
256
6
ByLayer
370
18
48
1
60
1
100
AcDbLine
10
-46.039216
20
1.500002
30
0
11
-46.960784
21
1.499998
31
0
39
0
210
0
220
0
230
1
0
LINE
5
12D
100
AcDbEntity
8
1
62
256
6
ByLayer
370
18
48
1
60
1
100
AcDbLine
10
-46.960784
20
1.499998
30
0
11
-46.5
21
5
31
0
39
0
210
0
220
0
230
1
0
LINE
5
131
100
AcDbEntity
8
1
62
256
6
ByLayer
370
18
48
1
60
1
100
AcDbLine
10
86.5
20
-2
30
0
11
86.960784
21
-5.499998
31
0
39
0
210
0
220
0
230
1
0
LINE
5
132
100
AcDbEntity
8
1
62
256
6
ByLayer
370
18
48
1
60
1
100
AcDbLine
10
86.960784
20
-5.499998
30
0
11
86.039216
21
-5.500002
31
0
39
0
210
0
220
0
230
1
0
LINE
5
133
100
AcDbEntity
8
1
62
256
6
ByLayer
370
18
48
1
60
1
100
AcDbLine
10
86.039216
20
-5.500002
30
0
11
86.5
21
-2
31
0
39
0
210
0
220
0
230
1
0
LINE
5
135
100
AcDbEntity
8
1
62
256
6
ByLayer
370
18
48
1
60
1
100
AcDbLine
10
86.5
20
2
30
0
11
86.039216
21
5.499998
31
0
39
0
210
0
220
0
230
1
0
LINE
5
136
100
AcDbEntity
8
1
62
256
6
ByLayer
370
18
48
1
60
1
100
AcDbLine
10
86.039216
20
5.499998
30
0
11
86.960784
21
5.500002
31
0
39
0
210
0
220
0
230
1
0
LINE
5
137
100
AcDbEntity
8
1
62
256
6
ByLayer
370
18
48
1
60
1
100
AcDbLine
10
86.960784
20
5.500002
30
0
11
86.5
21
2
31
0
39
0
210
0
220
0
230
1
0
LINE
5
13A
100
AcDbEntity
8
1
62
256
6
ByLayer
370
18
48
1
60
1
100
AcDbLine
10
25.145617
20
0
30
0
11
24.738358
21
3.506629
31
0
39
0
210
0
220
0
230
1
0
LINE
5
13B
100
AcDbEntity
8
1
62
256
6
ByLayer
370
18
48
1
60
1
100
AcDbLine
10
24.738358
20
3.506629
30
0
11
25.659818
21
3.492554
31
0
39
0
210
0
220
0
230
1
0
LINE
5
13C
100
AcDbEntity
8
1
62
256
6
ByLayer
370
18
48
1
60
1
100
AcDbLine
10
25.659818
20
3.492554
30
0
11
25.145617
21
0
31
0
39
0
210
0
220
0
230
1
0
LINE
5
13E
100
AcDbEntity
8
1
62
256
6
ByLayer
370
18
48
1
60
1
100
AcDbLine
10
25.689976
20
7.876392
30
0
11
25.718823
21
4.34631
31
0
39
0
210
0
220
0
230
1
0
LINE
5
13F
100
AcDbEntity
8
1
62
256
6
ByLayer
370
18
48
1
60
1
100
AcDbLine
10
25.718823
20
4.34631
30
0
11
24.804187
21
4.459126
31
0
39
0
210
0
220
0
230
1
0
LINE
5
140
100
AcDbEntity
8
1
62
256
6
ByLayer
370
18
48
1
60
1
100
AcDbLine
10
24.804187
20
4.459126
30
0
11
25.689976
21
7.876392
31
0
39
0
210
0
220
0
230
1
0
LINE
5
143
100
AcDbEntity
8
1
62
256
6
ByLayer
370
13
48
1
60
0
100
AcDbLine
10
85.800458
20
-20.39795
30
0
11
85.800458
21
-20.39795
31
0
39
0
210
0
220
0
230
1
0
MTEXT
5
123
100
AcDbEntity
8
SK2
62
256
6
ByLayer
370
18
48
1
60
0
100
AcDbMText
10
-47.841114
20
9.658437
30
0
210
0
220
0
230
1
1
%%c
40
3
41
0
44
1.084337
50
90
71
7
72
5
7
iso_b_vert
0
MTEXT
5
126
100
AcDbEntity
8
SK2
62
256
6
ByLayer
370
18
48
1
60
0
100
AcDbMText
10
-47.841114
20
15.635
30
0
210
0
220
0
230
1
1
\W0.6563;10 h6
40
3
41
0
44
1.084337
50
90
71
7
72
5
7
iso_b_vert
0
MTEXT
5
12F
100
AcDbEntity
8
SK2
62
256
6
ByLayer
370
18
48
1
60
0
100
AcDbMText
10
85.158886
20
6.658437
30
0
210
0
220
0
230
1
1
%%c
40
3
41
0
44
1.084337
50
90
71
7
72
5
7
iso_b_vert
0
MTEXT
5
130
100
AcDbEntity
8
SK2
62
256
6
ByLayer
370
18
48
1
60
0
100
AcDbMText
10
85.158886
20
12.635
30
0
210
0
220
0
230
1
1
\W0.7202;4 h6
40
3
41
0
44
1.084337
50
90
71
7
72
5
7
iso_b_vert
0
MTEXT
5
139
100
AcDbEntity
8
SK2
62
256
6
ByLayer
370
18
48
1
60
0
100
AcDbMText
10
25.299354
20
11.06344
30
0
210
0
220
0
230
1
1
\W0.8531;3.0%%d
40
3
41
0
44
1.084337
50
72.5891568782854
71
7
72
5
7
iso_b_vert
0
MTEXT
5
14B
100
AcDbEntity
8
SK6
62
256
6
ByLayer
370
18
48
1
60
0
100
AcDbMText
10
-11.885796
20
-57.114886
30
0
210
0
220
0
230
1
1
\W0.7769;2T346-0400-RA1000   R2AH
40
3
41
0
44
1.084337
50
0
71
7
72
5
7
iso_b_vert
0
HATCH
5
12A
100
AcDbEntity
8
SK2
62
256
6
ByLayer
370
13
48
1
60
0
100
AcDbHatch
10
0
20
0
30
0
210
0
220
0
230
1
2
ANSI31
70
0
71
0
91
1
92
5
93
3
72
1
10
-46.5
20
-5
11
-46.9607837415528
21
-1.50000169255318
72
1
10
-46.9607837415528
20
-1.50000169255318
11
-46.0392162584472
21
-1.49999830744682
72
1
10
-46.0392162584472
20
-1.49999830744682
11
-46.5
21
-5
97
0
75
0
76
1
52
0
41
0.0062
77
0
78
1
53
45
43
0
44
0
45
-0.0139193969876572
46
0.0139193969876572
79
0
47
0
98
1
10
0
20
0
0
HATCH
5
12E
100
AcDbEntity
8
SK2
62
256
6
ByLayer
370
13
48
1
60
0
100
AcDbHatch
10
0
20
0
30
0
210
0
220
0
230
1
2
ANSI31
70
0
71
0
91
1
92
5
93
3
72
1
10
-46.5
20
5
11
-46.0392162584472
21
1.50000169255318
72
1
10
-46.0392162584472
20
1.50000169255318
11
-46.9607837415528
21
1.49999830744682
72
1
10
-46.9607837415528
20
1.49999830744682
11
-46.5
21
5
97
0
75
0
76
1
52
0
41
0.0062
77
0
78
1
53
45
43
0
44
0
45
-0.0139193969876572
46
0.0139193969876572
79
0
47
0
98
1
10
0
20
0
0
HATCH
5
134
100
AcDbEntity
8
SK2
62
256
6
ByLayer
370
13
48
1
60
0
100
AcDbHatch
10
0
20
0
30
0
210
0
220
0
230
1
2
ANSI31
70
0
71
0
91
1
92
5
93
3
72
1
10
86.5
20
-2
11
86.9607837415528
21
-5.49999830744682
72
1
10
86.9607837415528
20
-5.49999830744682
11
86.0392162584472
21
-5.50000169255318
72
1
10
86.0392162584472
20
-5.50000169255318
11
86.5
21
-2
97
0
75
0
76
1
52
0
41
0.0062
77
0
78
1
53
45
43
0
44
0
45
-0.0139193969876572
46
0.0139193969876572
79
0
47
0
98
1
10
0
20
0
0
HATCH
5
138
100
AcDbEntity
8
SK2
62
256
6
ByLayer
370
13
48
1
60
0
100
AcDbHatch
10
0
20
0
30
0
210
0
220
0
230
1
2
ANSI31
70
0
71
0
91
1
92
5
93
3
72
1
10
86.5
20
2
11
86.0392162584472
21
5.49999830744682
72
1
10
86.0392162584472
20
5.49999830744682
11
86.9607837415528
21
5.50000169255318
72
1
10
86.9607837415528
20
5.50000169255318
11
86.5
21
2
97
0
75
0
76
1
52
0
41
0.0062
77
0
78
1
53
45
43
0
44
0
45
-0.0139193969876572
46
0.0139193969876572
79
0
47
0
98
1
10
0
20
0
0
HATCH
5
13D
100
AcDbEntity
8
SK2
62
256
6
ByLayer
370
13
48
1
60
0
100
AcDbHatch
10
0
20
0
30
0
210
0
220
0
230
1
2
ANSI31
70
0
71
0
91
1
92
5
93
3
72
1
10
25.1456168841139
20
0
11
24.7383575189278
21
3.50662938134019
72
1
10
24.7383575189278
20
3.50662938134019
11
25.6598175021315
21
3.49255368302119
72
1
10
25.6598175021315
20
3.49255368302119
11
25.1456168841139
21
0
97
0
75
0
76
1
52
0
41
0.0062
77
0
78
1
53
45
43
0
44
0
45
-0.0139193969876572
46
0.0139193969876572
79
0
47
0
98
1
10
0
20
0
0
HATCH
5
141
100
AcDbEntity
8
SK2
62
256
6
ByLayer
370
13
48
1
60
0
100
AcDbHatch
10
0
20
0
30
0
210
0
220
0
230
1
2
ANSI31
70
0
71
0
91
1
92
5
93
3
72
1
10
25.6899759181561
20
7.87639223358957
11
25.7188231498088
21
4.34631041501427
72
1
10
25.7188231498088
20
4.34631041501427
11
24.8041869566995
21
4.45912557438425
72
1
10
24.8041869566995
20
4.45912557438425
11
25.6899759181561
21
7.87639223358957
97
0
75
0
76
1
52
0
41
0.0062
77
0
78
1
53
45
43
0
44
0
45
-0.0139193969876572
46
0.0139193969876572
79
0
47
0
98
1
10
0
20
0
0
DIMENSION
5
14E
100
AcDbEntity
8
SK2
62
256
6
ByLayer
370
18
48
1
60
0
100
AcDbDimension
2
_U0
10
70
20
-39.85
30
0
11
15
21
-39.85
31
0
70
32
71
1
72
1
41
1
210
0
220
0
230
1
3
Standard
100
AcDbAlignedDimension
13
-40
23
5
33
0
14
70
24
2
34
0
50
0
100
AcDbRotatedDimension
1001
ACAD
1000
DSTYLE
1002
{
1070
   371
1070
    13
1070
   372
1070
    13
1070
     3
1000

1070
   170
1070
     0
1070
   144
1040
1.0
1070
   277
1070
     2
1070
   284
1070
     8
1070
   278
1070
    46
1070
   146
1040
1.166667
1070
   345
1005
16
1070
   347
1005
16
1070
   346
1005
16
1070
   344
1005
0
1070
   343
1005
0
1070
   172
1070
     1
1070
    76
1070
     0
1070
    75
1070
     0
1070
   282
1070
     0
1070
   281
1070
     0
1070
    71
1070
     0
1070
    74
1070
     0
1070
   279
1070
     0
1070
   173
1070
     1
1070
   340
1005
124
1070
   271
1070
     2
1070
   272
1070
     2
1070
    77
1070
     1
1070
    73
1070
     1
1070
   171
1070
     3
1070
   274
1070
     4
1070
   177
1070
     2
1070
   176
1070
     2
1070
   178
1070
     2
1070
    78
1070
     8
1070
    48
1040
-0.1
1070
    41
1040
3.5
1070
   147
1040
1.5
1070
    42
1040
1.5875
1070
    44
1040
2.0
1070
   140
1040
3.0
1002
}
1001
ACAD_DSTYLE_DIM_LINETYPE
1070
   380
1005
16
1001
ACAD_DSTYLE_DIM_EXT1_LINETYPE
1070
   381
1005
16
1001
ACAD_DSTYLE_DIM_EXT2_LINETYPE
1070
   382
1005
16
0
DIMENSION
5
167
100
AcDbEntity
8
SK2
62
256
6
ByLayer
370
18
48
1
60
0
100
AcDbDimension
2
_U1
10
0
20
-27.85
30
0
11
35
21
-27.85
31
0
70
32
71
1
72
1
41
1
210
0
220
0
230
1
3
Standard
100
AcDbAlignedDimension
13
70
23
-2
33
0
14
0
24
-5
34
0
50
0
100
AcDbRotatedDimension
1001
ACAD
1000
DSTYLE
1002
{
1070
   371
1070
    13
1070
   372
1070
    13
1070
     3
1000

1070
   170
1070
     0
1070
   144
1040
1.0
1070
   277
1070
     2
1070
   284
1070
     8
1070
   278
1070
    46
1070
   146
1040
1.166667
1070
   345
1005
16
1070
   347
1005
16
1070
   346
1005
16
1070
   344
1005
0
1070
   343
1005
0
1070
   172
1070
     1
1070
    76
1070
     0
1070
    75
1070
     0
1070
   282
1070
     0
1070
   281
1070
     0
1070
    71
1070
     0
1070
    74
1070
     0
1070
   279
1070
     0
1070
   173
1070
     1
1070
   340
1005
124
1070
   271
1070
     2
1070
   272
1070
     2
1070
    77
1070
     1
1070
    73
1070
     1
1070
   171
1070
     3
1070
   274
1070
     4
1070
   177
1070
     2
1070
   176
1070
     2
1070
   178
1070
     2
1070
    78
1070
     8
1070
    48
1040
-0.1
1070
    41
1040
3.5
1070
   147
1040
1.5
1070
    42
1040
1.5875
1070
    44
1040
2.0
1070
   140
1040
3.0
1002
}
1001
ACAD_DSTYLE_DIM_LINETYPE
1070
   380
1005
16
1001
ACAD_DSTYLE_DIM_EXT1_LINETYPE
1070
   381
1005
16
1001
ACAD_DSTYLE_DIM_EXT2_LINETYPE
1070
   382
1005
16
0
DIMENSION
5
17F
100
AcDbEntity
8
SK2
62
256
6
ByLayer
370
18
48
1
60
0
100
AcDbDimension
2
_U2
10
60
20
-13.85
30
0
11
65
21
-13.85
31
0
70
32
71
1
72
1
41
1
210
0
220
0
230
1
3
Standard
100
AcDbAlignedDimension
13
70
23
-2
33
0
14
60
24
-5
34
0
50
0
100
AcDbRotatedDimension
1001
ACAD
1000
DSTYLE
1002
{
1070
   371
1070
    13
1070
   372
1070
    13
1070
     3
1000

1070
   170
1070
     0
1070
   144
1040
1.0
1070
   277
1070
     2
1070
   284
1070
     8
1070
   278
1070
    46
1070
   146
1040
1.166667
1070
   345
1005
16
1070
   347
1005
16
1070
   346
1005
16
1070
   344
1005
0
1070
   343
1005
0
1070
   172
1070
     1
1070
    76
1070
     0
1070
    75
1070
     0
1070
   282
1070
     0
1070
   281
1070
     0
1070
    71
1070
     0
1070
    74
1070
     0
1070
   279
1070
     0
1070
   173
1070
     1
1070
   340
1005
124
1070
   271
1070
     2
1070
   272
1070
     2
1070
    77
1070
     1
1070
    73
1070
     1
1070
   171
1070
     3
1070
   274
1070
     4
1070
   177
1070
     2
1070
   176
1070
     2
1070
   178
1070
     2
1070
    78
1070
     8
1070
    48
1040
-0.1
1070
    41
1040
3.5
1070
   147
1040
1.5
1070
    42
1040
1.5875
1070
    44
1040
2.0
1070
   140
1040
3.0
1002
}
1001
ACAD_DSTYLE_DIM_LINETYPE
1070
   380
1005
16
1001
ACAD_DSTYLE_DIM_EXT1_LINETYPE
1070
   381
1005
16
1001
ACAD_DSTYLE_DIM_EXT2_LINETYPE
1070
   382
1005
16
0
ENDSEC
0
SECTION
2
OBJECTS
0
DICTIONARY
5
208
330
0
100
AcDbDictionary
280
0
281
1
3
ACAD_GROUP
350
209
3
ACAD_MLINESTYLE
350
20a
0
DICTIONARY
5
209
330
0
100
AcDbDictionary
280
0
281
1
0
DICTIONARY
5
20a
330
0
100
AcDbDictionary
280
0
281
1
3
Standard
350
18
0
MLINESTYLE
5
18
330
20a
100
AcDbMlineStyle
2
Standard
70
0
3

62
256
51
90
52
90
71
2
49
-0.5
62
256
6
ByLayer
49
0.5
62
256
6
ByLayer
0
RASTERVARIABLES
5
1f6
330

100
AcDbRasterVariables
90
0
70
1
71
1
72
1
0
ENDSEC
0
EOF
