0
SECTION
2
HEADER
9
$ACADVER
1
AC1015
9
$DWGCODEPAGE
3
ANSI_1252
9
$HANDSEED
5
215
9
$ANGBASE
50
0
9
$ANGDIR
70
0
9
$ATTMODE
70
1
9
$AUNITS
70
0
9
$AUPREC
70
0
9
$CECOLOR
62
256
9
$CELTSCALE
40
1
9
$CELTYPE
6
ByLayer
9
$CELWEIGHT
370
18
9
$CLAYER
8
0
9
$CMLJUST
70
0
9
$CMLSCALE
40
1
9
$CMLSTYLE
2
Standard
9
$DIMSTYLE
2
Standard
9
$TEXTSIZE
40
0.2
9
$TEXTSTYLE
7
Standard
9
$LUNITS
70
2
9
$LUPREC
70
4
9
$EXTNAMES
290
1
9
$INSUNITS
70
4
9
$LTSCALE
40
1
9
$LWDISPLAY
290
1
9
$PDMODE
70
0
9
$PDSIZE
40
0
9
$PLINEGEN
70
0
0
ENDSEC
0
SECTION
2
CLASSES
0
CLASS
1
RASTERVARIABLES
2
AcDbRasterVariables
3
ISM
90
0
280
0
281
0
0
ENDSEC
0
SECTION
2
TABLES
0
TABLE
2
VPORT
5
20b
100
AcDbSymbolTable
0
VPORT
5
1
100
AcDbSymbolTableRecord
100
AcDbViewportTableRecord
2
*Active
70
0
10
0
20
0
11
1
21
1
12
-1
22
1
13
0
23
0
14
0.5
24
0.5
15
10
25
10
16
0
26
0
36
1
17
0
27
0
37
0
0
ENDTAB
0
TABLE
2
LTYPE
5
20c
100
AcDbSymbolTable
0
LTYPE
5
14
100
AcDbSymbolTableRecord
100
AcDbLinetypeTableRecord
70
0
2
ByBlock
3

72
65
73
0
40
0
0
LTYPE
5
15
100
AcDbSymbolTableRecord
100
AcDbLinetypeTableRecord
70
0
2
ByLayer
3

72
65
73
0
40
0
0
LTYPE
5
16
100
AcDbSymbolTableRecord
100
AcDbLinetypeTableRecord
70
0
2
Continuous
3
Solid line
72
65
73
0
40
0
0
LTYPE
5
6E
100
AcDbSymbolTableRecord
100
AcDbLinetypeTableRecord
70
0
2
CENTER
3
____ _ ____ _ ____ _ ____
72
65
73
4
40
47.5
49
22
74
0
49
-8.5
74
0
49
8.5
74
0
49
-8.5
74
0
0
LTYPE
5
6F
100
AcDbSymbolTableRecord
100
AcDbLinetypeTableRecord
70
0
2
DASHED
3
__ __ __ __ __ __ __ __ __
72
65
73
2
40
25.72
49
12.86
74
0
49
-12.86
74
0
0
ENDTAB
0
TABLE
2
LAYER
5
20d
100
AcDbSymbolTable
0
LAYER
5
10
100
AcDbSymbolTableRecord
100
AcDbLayerTableRecord
2
0
70
0
62
7
6
Continuous
290
1
370
-3
390
0
0
LAYER
5
71
100
AcDbSymbolTableRecord
100
AcDbLayerTableRecord
2
81
70
0
62
-3
6
Continuous
290
1
370
-3
390
0
0
LAYER
5
73
100
AcDbSymbolTableRecord
100
AcDbLayerTableRecord
2
1
70
0
62
4
6
Continuous
290
1
370
-3
390
0
0
LAYER
5
75
100
AcDbSymbolTableRecord
100
AcDbLayerTableRecord
2
80
70
0
62
-6
6
Continuous
290
1
370
-3
390
0
0
LAYER
5
80
100
AcDbSymbolTableRecord
100
AcDbLayerTableRecord
2
4
70
0
62
-2
6
CENTER
290
1
370
-3
390
0
0
LAYER
5
151
100
AcDbSymbolTableRecord
100
AcDbLayerTableRecord
2
Defpoints
70
0
62
7
6
Continuous
290
0
370
-3
390
0
0
LAYER
5
1f7
100
AcDbSymbolTableRecord
100
AcDbLayerTableRecord
2
SK4
70
0
62
2
6
CENTER
290
1
370
-3
390
0
0
LAYER
5
1f8
100
AcDbSymbolTableRecord
100
AcDbLayerTableRecord
2
SK1
70
0
62
4
6
Continuous
290
1
370
-3
390
0
0
LAYER
5
1f9
100
AcDbSymbolTableRecord
100
AcDbLayerTableRecord
2
SK2
70
0
62
7
6
Continuous
290
1
370
-3
390
0
0
LAYER
5
1fa
100
AcDbSymbolTableRecord
100
AcDbLayerTableRecord
2
SK6
70
0
62
5
6
Continuous
290
1
370
-3
390
0
0
ENDTAB
0
TABLE
2
STYLE
5
20e
100
AcDbSymbolTable
0
STYLE
5
11
100
AcDbSymbolTableRecord
100
AcDbTextStyleTableRecord
2
Standard
3
txt
70
0
71
0
40
0
41
1
42
0
50
0
0
STYLE
5
124
100
AcDbSymbolTableRecord
100
AcDbTextStyleTableRecord
2
iso_b_vert
3
simplex.shx
70
0
71
0
40
0
41
1
42
0
50
0
0
STYLE
5
125
100
AcDbSymbolTableRecord
100
AcDbTextStyleTableRecord
2
DWGDirectTextStyle
3
simplex
70
0
71
0
40
0
41
1
42
0
50
0
0
ENDTAB
0
TABLE
2
DIMSTYLE
5
20f
100
AcDbSymbolTable
100
AcDbDimStyleTable
0
DIMSTYLE
105
27
100
AcDbSymbolTableRecord
100
AcDbDimStyleTableRecord
2
Standard
70
0
3
<>
41
0.18
42
0.0625
44
0.18
140
0.18
147
0.09
73
0
74
0
77
1
271
2
275
0
278
52
280
0
340
11
0
ENDTAB
0
TABLE
2
VIEW
5
210
100
AcDbSymbolTable
0
ENDTAB
0
TABLE
2
UCS
5
211
100
AcDbSymbolTable
0
ENDTAB
0
TABLE
2
APPID
5
212
100
AcDbSymbolTable
0
APPID
5
12
100
AcDbSymbolTableRecord
100
AcDbRegAppTableRecord
2
ACAD
70
0
0
APPID
5
14D
100
AcDbSymbolTableRecord
100
AcDbRegAppTableRecord
2
ACAD_DSTYLE_DIMBREAK
70
0
0
APPID
5
1B6
100
AcDbSymbolTableRecord
100
AcDbRegAppTableRecord
2
ACAD_DSTYLE_DIM_LINETYPE
70
0
0
APPID
5
1B7
100
AcDbSymbolTableRecord
100
AcDbRegAppTableRecord
2
ACAD_DSTYLE_DIM_EXT1_LINETYPE
70
0
0
APPID
5
1B8
100
AcDbSymbolTableRecord
100
AcDbRegAppTableRecord
2
ACAD_DSTYLE_DIM_EXT2_LINETYPE
70
0
0
APPID
5
1F3
100
AcDbSymbolTableRecord
100
AcDbRegAppTableRecord
2
ACAD_MLEADERVER
70
0
0
ENDTAB
0
TABLE
2
BLOCK_RECORD
5
213
100
AcDbSymbolTable
0
BLOCK_RECORD
5
1F
100
AcDbSymbolTableRecord
100
AcDbBlockTableRecord
2
*Model_Space
340
0
70
0
0
BLOCK_RECORD
5
1B
100
AcDbSymbolTableRecord
100
AcDbBlockTableRecord
2
*Paper_Space
340
0
70
0
0
BLOCK_RECORD
5
23
100
AcDbSymbolTableRecord
100
AcDbBlockTableRecord
2
*Paper_Space0
340
0
70
0
0
BLOCK_RECORD
5
142
100
AcDbSymbolTableRecord
100
AcDbBlockTableRecord
2
LABLE3D_1
340
0
70
0
0
BLOCK_RECORD
5
152
100
AcDbSymbolTableRecord
100
AcDbBlockTableRecord
2
*D2
340
0
70
0
0
BLOCK_RECORD
5
15E
100
AcDbSymbolTableRecord
100
AcDbBlockTableRecord
2
_U0
340
0
70
0
0
BLOCK_RECORD
5
16A
100
AcDbSymbolTableRecord
100
AcDbBlockTableRecord
2
*D4
340
0
70
0
0
BLOCK_RECORD
5
176
100
AcDbSymbolTableRecord
100
AcDbBlockTableRecord
2
_U1
340
0
70
0
0
BLOCK_RECORD
5
182
100
AcDbSymbolTableRecord
100
AcDbBlockTableRecord
2
*D6
340
0
70
0
0
BLOCK_RECORD
5
18F
100
AcDbSymbolTableRecord
100
AcDbBlockTableRecord
2
_U2
340
0
70
0
0
ENDTAB
0
ENDSEC
0
SECTION
2
BLOCKS
0
BLOCK
5
20
100
AcDbEntity
8
0
100
AcDbBlockBegin
2
*Model_Space
70
0
10
0
20
0
30
0
3
*Model_Space
0
ENDBLK
5
21
100
AcDbEntity
8
0
100
AcDbBlockEnd
0
BLOCK
5
1C
100
AcDbEntity
8
0
100
AcDbBlockBegin
2
*Paper_Space
70
0
10
0
20
0
30
0
3
*Paper_Space
0
ENDBLK
5
1D
100
AcDbEntity
8
0
100
AcDbBlockEnd
0
BLOCK
5
24
100
AcDbEntity
8
0
100
AcDbBlockBegin
2
*Paper_Space0
70
0
10
0
20
0
30
0
3
*Paper_Space0
0
ENDBLK
5
25
100
AcDbEntity
8
0
100
AcDbBlockEnd
0
BLOCK
5
149
100
AcDbEntity
8
0
100
AcDbBlockBegin
2
LABLE3D_1
70
0
10
48.300458
20
-20.39795
30
0
3
LABLE3D_1
0
MTEXT
5
147
100
AcDbEntity
8
1
62
256
6
ByLayer
370
18
48
1
60
0
100
AcDbMText
10
49.959458
20
-22.512836
30
0
210
0
220
0
230
1
1
\W0.7167;R2
40
3
41
0
44
1.084337
50
0
71
7
72
5
7
iso_b_vert
0
ENDBLK
5
14A
100
AcDbEntity
8
0
100
AcDbBlockEnd
0
BLOCK
5
153
100
AcDbEntity
8
0
100
AcDbBlockBegin
2
*D2
70
1
10
0
20
0
30
0
3
*D2
0
LINE
5
155
100
AcDbEntity
8
0
62
256
6
ByLayer
370
-2
48
1
60
0
100
AcDbLine
10
-36
20
1.4125
30
0
11
-36
21
-40.315264
31
0
39
0
210
0
220
0
230
1
0
LINE
5
156
100
AcDbEntity
8
0
62
256
6
ByLayer
370
-2
48
1
60
0
100
AcDbLine
10
34
20
0.4125
30
0
11
34
21
-40.315264
31
0
39
0
210
0
220
0
230
1
0
LINE
5
157
100
AcDbEntity
8
0
62
256
6
ByLayer
370
-2
48
1
60
0
100
AcDbLine
10
-32.5
20
-38.315264
30
0
11
30.5
21
-38.315264
31
0
39
0
210
0
220
0
230
1
0
SOLID
5
158
100
AcDbEntity
8
0
62
256
6
ByLayer
370
-1
48
1
60
0
100
AcDbTrace
10
-32.5
20
-37.73193
30
0
11
-32.5
21
-38.898597
31
0
12
-36
22
-38.315264
32
0
13
-36
23
-38.315264
33
0
39
0
210
0
220
0
230
1
0
SOLID
5
159
100
AcDbEntity
8
0
62
256
6
ByLayer
370
-1
48
1
60
0
100
AcDbTrace
10
30.5
20
-38.898597
30
0
11
30.5
21
-37.73193
31
0
12
34
22
-38.315264
32
0
13
34
23
-38.315264
33
0
39
0
210
0
220
0
230
1
0
MTEXT
5
15A
100
AcDbEntity
8
0
62
256
6
ByLayer
370
18
48
1
60
0
100
AcDbMText
10
-1
20
-32.315264
30
0
210
0
220
0
230
1
1
\A1;70
40
3
41
0
44
1
50
0
71
5
72
5
7
iso_b_vert
0
POINT
5
15B
100
AcDbEntity
8
Defpoints
62
0
6
ByLayer
370
-1
48
1
60
0
100
AcDbPoint
10
-36
20
3
30
0
39
0
210
0
220
0
230
1
50
360
0
POINT
5
15C
100
AcDbEntity
8
Defpoints
62
0
6
ByLayer
370
-1
48
1
60
0
100
AcDbPoint
10
34
20
2
30
0
39
0
210
0
220
0
230
1
50
360
0
POINT
5
15D
100
AcDbEntity
8
Defpoints
62
0
6
ByLayer
370
-1
48
1
60
0
100
AcDbPoint
10
34
20
-38.315264
30
0
39
0
210
0
220
0
230
1
50
360
0
ENDBLK
5
154
100
AcDbEntity
8
0
100
AcDbBlockEnd
0
BLOCK
5
165
100
AcDbEntity
8
0
100
AcDbBlockBegin
2
_U0
70
0
10
0
20
0
30
0
3
_U0
0
MTEXT
5
15F
100
AcDbEntity
8
SK2
62
256
6
ByLayer
370
18
48
1
60
0
100
AcDbMText
10
-2.632828
20
-37.430149
30
0
210
0
220
0
230
1
1
\W0.6740;70
40
3
41
0
44
1.084337
50
0
71
7
72
5
7
iso_b_vert
0
LINE
5
160
100
AcDbEntity
8
SK2
62
256
6
ByLayer
370
13
48
1
60
0
100
AcDbLine
10
-36
20
1.4125
30
0
11
-36
21
-40.315264
31
0
39
0
210
0
220
0
230
1
0
LINE
5
161
100
AcDbEntity
8
SK2
62
256
6
ByLayer
370
13
48
1
60
0
100
AcDbLine
10
34
20
0.4125
30
0
11
34
21
-40.315264
31
0
39
0
210
0
220
0
230
1
0
LINE
5
162
100
AcDbEntity
8
SK2
62
256
6
ByLayer
370
13
48
1
60
0
100
AcDbLine
10
-36
20
-38.315264
30
0
11
34
21
-38.315264
31
0
39
0
210
0
220
0
230
1
0
SOLID
5
163
100
AcDbEntity
8
SK2
62
256
6
ByLayer
370
18
48
1
60
0
100
AcDbTrace
10
-36
20
-38.315264
30
0
11
-32.500002
21
-37.85448
31
0
12
-32.499998
22
-38.776047
32
0
13
-32.499998
23
-38.776047
33
0
39
0
210
0
220
0
230
1
0
SOLID
5
164
100
AcDbEntity
8
SK2
62
256
6
ByLayer
370
18
48
1
60
0
100
AcDbTrace
10
34
20
-38.315264
30
0
11
30.500002
21
-38.776047
31
0
12
30.499998
22
-37.85448
32
0
13
30.499998
23
-37.85448
33
0
39
0
210
0
220
0
230
1
0
ENDBLK
5
166
100
AcDbEntity
8
0
100
AcDbBlockEnd
0
BLOCK
5
16B
100
AcDbEntity
8
0
100
AcDbBlockBegin
2
*D4
70
1
10
0
20
0
30
0
3
*D4
0
LINE
5
16D
100
AcDbEntity
8
0
62
256
6
ByLayer
370
-2
48
1
60
0
100
AcDbLine
10
34
20
-3.5875
30
0
11
34
21
-28.315264
31
0
39
0
210
0
220
0
230
1
0
LINE
5
16E
100
AcDbEntity
8
0
62
256
6
ByLayer
370
-2
48
1
60
0
100
AcDbLine
10
0
20
-4.5875
30
0
11
0
21
-28.315264
31
0
39
0
210
0
220
0
230
1
0
LINE
5
16F
100
AcDbEntity
8
0
62
256
6
ByLayer
370
-2
48
1
60
0
100
AcDbLine
10
30.5
20
-26.315264
30
0
11
3.5
21
-26.315264
31
0
39
0
210
0
220
0
230
1
0
SOLID
5
170
100
AcDbEntity
8
0
62
256
6
ByLayer
370
-1
48
1
60
0
100
AcDbTrace
10
30.5
20
-26.898597
30
0
11
30.5
21
-25.73193
31
0
12
34
22
-26.315264
32
0
13
34
23
-26.315264
33
0
39
0
210
0
220
0
230
1
0
SOLID
5
171
100
AcDbEntity
8
0
62
256
6
ByLayer
370
-1
48
1
60
0
100
AcDbTrace
10
3.5
20
-25.73193
30
0
11
3.5
21
-26.898597
31
0
12
0
22
-26.315264
32
0
13
0
23
-26.315264
33
0
39
0
210
0
220
0
230
1
0
MTEXT
5
172
100
AcDbEntity
8
0
62
256
6
ByLayer
370
18
48
1
60
0
100
AcDbMText
10
17
20
-20.315264
30
0
210
0
220
0
230
1
1
\A1;34
40
3
41
0
44
1
50
0
71
5
72
5
7
iso_b_vert
0
POINT
5
173
100
AcDbEntity
8
Defpoints
62
0
6
ByLayer
370
-1
48
1
60
0
100
AcDbPoint
10
34
20
-2
30
0
39
0
210
0
220
0
230
1
50
360
0
POINT
5
174
100
AcDbEntity
8
Defpoints
62
0
6
ByLayer
370
-1
48
1
60
0
100
AcDbPoint
10
0
20
-3
30
0
39
0
210
0
220
0
230
1
50
360
0
POINT
5
175
100
AcDbEntity
8
Defpoints
62
0
6
ByLayer
370
-1
48
1
60
0
100
AcDbPoint
10
0
20
-26.315264
30
0
39
0
210
0
220
0
230
1
50
360
0
ENDBLK
5
16C
100
AcDbEntity
8
0
100
AcDbBlockEnd
0
BLOCK
5
17D
100
AcDbEntity
8
0
100
AcDbBlockBegin
2
_U1
70
0
10
0
20
0
30
0
3
_U1
0
MTEXT
5
177
100
AcDbEntity
8
SK2
62
256
6
ByLayer
370
18
48
1
60
0
100
AcDbMText
10
15.209229
20
-25.430149
30
0
210
0
220
0
230
1
1
\W0.7167;34
40
3
41
0
44
1.084337
50
0
71
7
72
5
7
iso_b_vert
0
LINE
5
178
100
AcDbEntity
8
SK2
62
256
6
ByLayer
370
13
48
1
60
0
100
AcDbLine
10
34
20
-3.5875
30
0
11
34
21
-28.315264
31
0
39
0
210
0
220
0
230
1
0
LINE
5
179
100
AcDbEntity
8
SK2
62
256
6
ByLayer
370
13
48
1
60
0
100
AcDbLine
10
0
20
-4.5875
30
0
11
0
21
-28.315264
31
0
39
0
210
0
220
0
230
1
0
LINE
5
17A
100
AcDbEntity
8
SK2
62
256
6
ByLayer
370
13
48
1
60
0
100
AcDbLine
10
34
20
-26.315264
30
0
11
0
21
-26.315264
31
0
39
0
210
0
220
0
230
1
0
SOLID
5
17B
100
AcDbEntity
8
SK2
62
256
6
ByLayer
370
18
48
1
60
0
100
AcDbTrace
10
34
20
-26.315264
30
0
11
30.500002
21
-26.776047
31
0
12
30.499998
22
-25.85448
32
0
13
30.499998
23
-25.85448
33
0
39
0
210
0
220
0
230
1
0
SOLID
5
17C
100
AcDbEntity
8
SK2
62
256
6
ByLayer
370
18
48
1
60
0
100
AcDbTrace
10
0
20
-26.315264
30
0
11
3.499998
21
-25.85448
31
0
12
3.500002
22
-26.776047
32
0
13
3.500002
23
-26.776047
33
0
39
0
210
0
220
0
230
1
0
ENDBLK
5
17E
100
AcDbEntity
8
0
100
AcDbBlockEnd
0
BLOCK
5
183
100
AcDbEntity
8
0
100
AcDbBlockBegin
2
*D6
70
1
10
0
20
0
30
0
3
*D6
0
LINE
5
185
100
AcDbEntity
8
0
62
256
6
ByLayer
370
-2
48
1
60
0
100
AcDbLine
10
34
20
-3.5875
30
0
11
34
21
-14.315264
31
0
39
0
210
0
220
0
230
1
0
LINE
5
186
100
AcDbEntity
8
0
62
256
6
ByLayer
370
-2
48
1
60
0
100
AcDbLine
10
24
20
-4.5875
30
0
11
24
21
-14.315264
31
0
39
0
210
0
220
0
230
1
0
LINE
5
187
100
AcDbEntity
8
0
62
256
6
ByLayer
370
-2
48
1
60
0
100
AcDbLine
10
37.5
20
-12.315264
30
0
11
41
21
-12.315264
31
0
39
0
210
0
220
0
230
1
0
LINE
5
188
100
AcDbEntity
8
0
62
256
6
ByLayer
370
-2
48
1
60
0
100
AcDbLine
10
20.5
20
-12.315264
30
0
11
17
21
-12.315264
31
0
39
0
210
0
220
0
230
1
0
SOLID
5
189
100
AcDbEntity
8
0
62
256
6
ByLayer
370
-1
48
1
60
0
100
AcDbTrace
10
37.5
20
-11.73193
30
0
11
37.5
21
-12.898597
31
0
12
34
22
-12.315264
32
0
13
34
23
-12.315264
33
0
39
0
210
0
220
0
230
1
0
SOLID
5
18A
100
AcDbEntity
8
0
62
256
6
ByLayer
370
-1
48
1
60
0
100
AcDbTrace
10
20.5
20
-12.898597
30
0
11
20.5
21
-11.73193
31
0
12
24
22
-12.315264
32
0
13
24
23
-12.315264
33
0
39
0
210
0
220
0
230
1
0
MTEXT
5
18B
100
AcDbEntity
8
0
62
256
6
ByLayer
370
18
48
1
60
0
100
AcDbMText
10
29
20
-6.315264
30
0
210
0
220
0
230
1
1
\A1;10
40
3
41
0
44
1
50
0
71
5
72
5
7
iso_b_vert
0
POINT
5
18C
100
AcDbEntity
8
Defpoints
62
0
6
ByLayer
370
-1
48
1
60
0
100
AcDbPoint
10
34
20
-2
30
0
39
0
210
0
220
0
230
1
50
360
0
POINT
5
18D
100
AcDbEntity
8
Defpoints
62
0
6
ByLayer
370
-1
48
1
60
0
100
AcDbPoint
10
24
20
-3
30
0
39
0
210
0
220
0
230
1
50
360
0
POINT
5
18E
100
AcDbEntity
8
Defpoints
62
0
6
ByLayer
370
-1
48
1
60
0
100
AcDbPoint
10
24
20
-12.315264
30
0
39
0
210
0
220
0
230
1
50
360
0
ENDBLK
5
184
100
AcDbEntity
8
0
100
AcDbBlockEnd
0
BLOCK
5
196
100
AcDbEntity
8
0
100
AcDbBlockBegin
2
_U2
70
0
10
0
20
0
30
0
3
_U2
0
MTEXT
5
190
100
AcDbEntity
8
SK2
62
256
6
ByLayer
370
18
48
1
60
0
100
AcDbMText
10
27.742115
20
-11.430149
30
0
210
0
220
0
230
1
1
\W0.5321;10
40
3
41
0
44
1.084337
50
0
71
7
72
5
7
iso_b_vert
0
LINE
5
191
100
AcDbEntity
8
SK2
62
256
6
ByLayer
370
13
48
1
60
0
100
AcDbLine
10
34
20
-3.5875
30
0
11
34
21
-14.315264
31
0
39
0
210
0
220
0
230
1
0
LINE
5
192
100
AcDbEntity
8
SK2
62
256
6
ByLayer
370
13
48
1
60
0
100
AcDbLine
10
24
20
-4.5875
30
0
11
24
21
-14.315264
31
0
39
0
210
0
220
0
230
1
0
LINE
5
193
100
AcDbEntity
8
SK2
62
256
6
ByLayer
370
13
48
1
60
0
100
AcDbLine
10
34
20
-12.315264
30
0
11
24
21
-12.315264
31
0
39
0
210
0
220
0
230
1
0
SOLID
5
194
100
AcDbEntity
8
SK2
62
256
6
ByLayer
370
18
48
1
60
0
100
AcDbTrace
10
34
20
-12.315264
30
0
11
30.500002
21
-12.776047
31
0
12
30.499998
22
-11.85448
32
0
13
30.499998
23
-11.85448
33
0
39
0
210
0
220
0
230
1
0
SOLID
5
195
100
AcDbEntity
8
SK2
62
256
6
ByLayer
370
18
48
1
60
0
100
AcDbTrace
10
24
20
-12.315264
30
0
11
27.499998
21
-11.85448
31
0
12
27.500002
22
-12.776047
32
0
13
27.500002
23
-12.776047
33
0
39
0
210
0
220
0
230
1
0
ENDBLK
5
197
100
AcDbEntity
8
0
100
AcDbBlockEnd
0
ENDSEC
0
SECTION
2
ENTITIES
0
ARC
5
B2
100
AcDbEntity
8
1
62
256
6
ByLayer
370
18
48
1
60
0
100
AcDbCircle
39
0
10
32
20
0
30
0
40
2
210
0
220
0
230
1
100
AcDbArc
50
296.576407
51
350.150005
0
ARC
5
B3
100
AcDbEntity
8
1
62
256
6
ByLayer
370
18
48
1
60
0
100
AcDbCircle
39
0
10
32
20
0
30
0
40
2
210
0
220
0
230
1
100
AcDbArc
50
350.150005
51
10.752846
0
ARC
5
B4
100
AcDbEntity
8
1
62
256
6
ByLayer
370
18
48
1
60
0
100
AcDbCircle
39
0
10
32
20
0
30
0
40
2
210
0
220
0
230
1
100
AcDbArc
50
10.752846
51
63.423185
0
ARC
5
B5
100
AcDbEntity
8
SK2
62
256
6
ByLayer
370
13
48
1
60
0
100
AcDbCircle
39
0
10
104
20
0
30
0
40
113.449725148303
210
0
220
0
230
1
100
AcDbArc
50
178.40886
51
183.782239
0
ARC
5
B6
100
AcDbEntity
8
SK2
62
256
6
ByLayer
370
13
48
1
60
0
100
AcDbCircle
39
0
10
104
20
0
30
0
40
113.449725148303
210
0
220
0
230
1
100
AcDbArc
50
171.104882
51
178.40886
0
POINT
5
70
100
AcDbEntity
8
81
62
256
6
ByLayer
370
18
48
1
60
0
100
AcDbPoint
10
34
20
0
30
0
39
0
210
0
220
0
230
1
50
360
0
POINT
5
72
100
AcDbEntity
8
1
62
256
6
ByLayer
370
18
48
1
60
0
100
AcDbPoint
10
-36
20
0
30
0
39
0
210
0
220
0
230
1
50
360
0
POINT
5
74
100
AcDbEntity
8
80
62
256
6
ByLayer
370
18
48
1
60
0
100
AcDbPoint
10
0
20
0
30
0
39
0
210
0
220
0
230
1
50
360
0
POINT
5
76
100
AcDbEntity
8
1
62
256
6
ByLayer
370
18
48
1
60
1
100
AcDbPoint
10
-36
20
3
30
0
39
0
210
0
220
0
230
1
50
360
0
POINT
5
77
100
AcDbEntity
8
1
62
256
6
ByLayer
370
18
48
1
60
1
100
AcDbPoint
10
34
20
2
30
0
39
0
210
0
220
0
230
1
50
360
0
POINT
5
78
100
AcDbEntity
8
1
62
256
6
ByLayer
370
18
48
1
60
1
100
AcDbPoint
10
34
20
-2
30
0
39
0
210
0
220
0
230
1
50
360
0
POINT
5
79
100
AcDbEntity
8
1
62
256
6
ByLayer
370
18
48
1
60
1
100
AcDbPoint
10
0
20
-3
30
0
39
0
210
0
220
0
230
1
50
360
0
POINT
5
7A
100
AcDbEntity
8
1
62
256
6
ByLayer
370
18
48
1
60
1
100
AcDbPoint
10
34
20
-2
30
0
39
0
210
0
220
0
230
1
50
360
0
POINT
5
7B
100
AcDbEntity
8
1
62
256
6
ByLayer
370
18
48
1
60
1
100
AcDbPoint
10
24
20
-3
30
0
39
0
210
0
220
0
230
1
50
360
0
POINT
5
7C
100
AcDbEntity
8
1
62
256
6
ByLayer
370
18
48
1
60
1
100
AcDbPoint
10
33.7
20
-1.89795
30
0
39
0
210
0
220
0
230
1
50
360
0
SPLINE
5
B7
100
AcDbEntity
8
1
62
256
6
ByLayer
370
18
48
1
60
0
100
AcDbSpline
70
4
71
3
72
8
73
4
40
0
40
0
40
0
40
0
40
1
40
1
40
1
40
1
41
1
10
24.0000000000001
20
-2.27946047672782
30
0
41
1
10
24.0000000000001
20
-2.32010527067999
30
0
41
1
10
24.0000000000001
20
-2.36075006463216
30
0
41
1
10
24.0000000000001
20
-2.40139485858433
30
0
0
SPLINE
5
B8
100
AcDbEntity
8
1
62
256
6
ByLayer
370
18
48
1
60
0
100
AcDbSpline
70
4
71
3
72
28
73
24
40
0
40
0
40
0
40
0
40
0.124999999999994
40
0.124999999999994
40
0.249999999999988
40
0.249999999999988
40
0.374999999999982
40
0.374999999999982
40
0.499999999999977
40
0.499999999999977
40
0.624999999999971
40
0.624999999999971
40
0.749999999999965
40
0.749999999999965
40
0.874999999999959
40
0.874999999999959
40
0.937499999999973
40
0.937499999999973
40
0.968749999999962
40
0.968749999999962
40
0.984374999999981
40
0.984374999999981
40
1
40
1
40
1
40
1
41
1
10
32.6973156389239
20
1.57619172070827
30
0
41
1
10
32.6963054629515
20
1.577417279911
30
0
41
1
10
32.6966749601005
20
1.57929121355295
30
0
41
1
10
32.6994960770519
20
1.58499266607095
30
0
41
1
10
32.7019881167753
20
1.58887641405465
30
0
41
1
10
32.7081903371492
20
1.59865548480383
30
0
41
1
10
32.7119139955274
20
1.60457581186225
30
0
41
1
10
32.7199813001108
20
1.61850171296274
30
0
41
1
10
32.7242237495042
20
1.6263301572375
30
0
41
1
10
32.73271321199
20
1.64358847611666
30
0
41
1
10
32.7369920972202
20
1.65309840000955
30
0
41
1
10
32.7450921304538
20
1.6730872440709
30
0
41
1
10
32.7489309977565
20
1.68359202777219
30
0
41
1
10
32.7561687853063
20
1.70552050734611
30
0
41
1
10
32.7595334503948
20
1.71695865894802
30
0
41
1
10
32.7646243324318
20
1.73474786731836
30
0
41
1
10
32.7663083741181
20
1.74076597499439
30
0
41
1
10
32.7692291355248
20
1.74981823376157
30
0
41
1
10
32.7702612506809
20
1.75283279907151
30
0
41
1
10
32.7721618643508
20
1.75729150525103
30
0
41
1
10
32.7728635250404
20
1.75878101349147
30
0
41
1
10
32.7744847622332
20
1.76160023005755
30
0
41
1
10
32.7754207380386
20
1.76296006269612
30
0
41
1
10
32.7765469673713
20
1.76407758717514
30
0
0
SPLINE
5
B9
100
AcDbEntity
8
1
62
256
6
ByLayer
370
18
48
1
60
0
100
AcDbSpline
70
4
71
3
72
22
73
18
40
0
40
0
40
0
40
0
40
0.125000000000097
40
0.125000000000097
40
0.187500000000146
40
0.187500000000146
40
0.250000000000194
40
0.250000000000194
40
0.312500000000243
40
0.312500000000243
40
0.375000000000291
40
0.375000000000291
40
0.500000000000231
40
0.500000000000231
40
0.750000000000116
40
0.750000000000116
40
1
40
1
40
1
40
1
41
1
10
32.7765469673791
20
1.76407758717835
30
0
41
1
10
32.7795530387015
20
1.76706042396478
30
0
41
1
10
32.7822783353081
20
1.77060897653416
30
0
41
1
10
32.7849022502363
20
1.77672853033547
30
0
41
1
10
32.785510543208
20
1.77886341718897
30
0
41
1
10
32.7861309676717
20
1.78313187736384
30
0
41
1
10
32.7861446736749
20
1.78528077148053
30
0
41
1
10
32.7856948488662
20
1.78936685869607
30
0
41
1
10
32.7852343780662
20
1.79133510496973
30
0
41
1
10
32.7840225476189
20
1.79502162310607
30
0
41
1
10
32.7832674368099
20
1.79676548618934
30
0
41
1
10
32.7806822308328
20
1.8017825088306
30
0
41
1
10
32.778590502673
20
1.80475533541838
30
0
41
1
10
32.7717919646484
20
1.81299735948275
30
0
41
1
10
32.7665102930053
20
1.81765289896967
30
0
41
1
10
32.7556160370382
20
1.82594133528573
30
0
41
1
10
32.7499291853067
20
1.82959785975422
30
0
41
1
10
32.7441046042086
20
1.8329571630376
30
0
0
SPLINE
5
BA
100
AcDbEntity
8
1
62
256
6
ByLayer
370
18
48
1
60
0
100
AcDbSpline
70
4
71
3
72
11
73
7
40
0
40
0
40
0
40
0
40
0.250000000000129
40
0.250000000000129
40
0.500000000000257
40
1
40
1
40
1
40
1
41
1
10
32.7441046042288
20
1.83295716299747
30
0
41
1
10
32.7412923744506
20
1.83457910500078
30
0
41
1
10
32.738615287513
20
1.8364603325609
30
0
41
1
10
32.7333411721857
20
1.84039910212687
30
0
41
1
10
32.7255715878883
20
1.8466108889146
30
0
41
1
10
32.7179671612927
20
1.8532743565298
30
0
41
1
10
32.7129013920954
20
1.8577970413844
30
0
0
SPLINE
5
BB
100
AcDbEntity
8
1
62
256
6
ByLayer
370
18
48
1
60
0
100
AcDbSpline
70
4
71
3
72
14
73
10
40
0
40
0
40
0
40
0
40
0.125
40
0.125
40
0.25
40
0.25
40
0.5
40
0.5
40
1
40
1
40
1
40
1
41
1
10
33.114045160653
20
1.38909034591046
30
0
41
1
10
33.093377513766
20
1.40132440660827
30
0
41
1
10
33.073245580896
20
1.41296155921606
30
0
41
1
10
33.0339736607693
20
1.43504871153758
30
0
41
1
10
33.0147885764002
20
1.44552174325335
30
1E-16
41
1
10
32.9591319971904
20
1.47491829741801
30
0
41
1
10
32.924418595924
20
1.49190652663165
30
-1E-16
41
1
10
32.825263508885
20
1.53622315021386
30
0
41
1
10
32.7658500038585
20
1.55691188403307
30
0
41
1
10
32.7105249587083
20
1.57107843360816
30
0
0
SPLINE
5
BC
100
AcDbEntity
8
1
62
256
6
ByLayer
370
18
48
1
60
0
100
AcDbSpline
70
4
71
3
72
8
73
4
40
0
40
0
40
0
40
0
40
1
40
1
40
1
40
1
41
1
10
32.7129013920955
20
1.8577970413844
30
0
41
1
10
32.7097875255596
20
1.86056989570378
30
0
41
1
10
32.7067426527209
20
1.86343299430837
30
0
41
1
10
32.7037490659871
20
1.86636038479466
30
0
0
SPLINE
5
BD
100
AcDbEntity
8
1
62
256
6
ByLayer
370
18
48
1
60
0
100
AcDbSpline
70
4
71
3
72
8
73
4
40
0
40
0
40
0
40
0
40
1
40
1
40
1
40
1
41
0.983049958413853
10
24
20
-2.23323270822664
30
0
41
0.988378541548197
10
24
20
-2.24857309229951
30
0
41
0.994028555410246
10
24
20
-2.26398772269517
30
0
41
1
10
24.0000000000001
20
-2.27946047672782
30
0
0
SPLINE
5
BE
100
AcDbEntity
8
1
62
256
6
ByLayer
370
18
48
1
60
0
100
AcDbSpline
70
4
71
3
72
10
73
6
40
0
40
0
40
0
40
0
40
0.241201020420339
40
0.241201020420339
40
1
40
1
40
1
40
1
41
1
10
24.0000000000001
20
-2.10041170822802
30
0
41
1
10
24.0000000000001
20
-2.1109019489646
30
0
41
1
10
24.0000000000001
20
-2.12146119882365
30
0
41
1
10
24.0000000000001
20
-2.16545356016857
30
0
41
1
10
24.0000000000001
20
-2.19934391634734
30
0
41
1
10
24.0000000000001
20
-2.23323270822664
30
0
0
SPLINE
5
BF
100
AcDbEntity
8
1
62
256
6
ByLayer
370
18
48
1
60
0
100
AcDbSpline
70
4
71
3
72
11
73
7
40
0
40
0
40
0
40
0
40
0.25
40
0.25
40
0.5
40
1
40
1
40
1
40
1
41
1
10
32.744104604213
20
1.0095915548429
30
1E-16
41
1
10
32.7412923744339
20
1.01270332374892
30
1E-16
41
1
10
32.7386152875185
20
1.01588071118474
30
1E-16
41
1
10
32.7333411721901
20
1.02226947093564
30
0
41
1
10
32.7255715878952
20
1.03191447760176
30
0
41
1
10
32.7179671612938
20
1.04161066910413
30
0
41
1
10
32.7129013920954
20
1.04806096000255
30
0
0
SPLINE
5
C0
100
AcDbEntity
8
1
62
256
6
ByLayer
370
18
48
1
60
0
100
AcDbSpline
70
4
71
3
72
28
73
24
40
0
40
0
40
0
40
0
40
0.124999999999984
40
0.124999999999984
40
0.249999999999968
40
0.249999999999968
40
0.374999999999952
40
0.374999999999952
40
0.499999999999936
40
0.499999999999936
40
0.62499999999992
40
0.62499999999992
40
0.749999999999904
40
0.749999999999904
40
0.874999999999888
40
0.874999999999888
40
0.937499999999898
40
0.937499999999898
40
0.968749999999923
40
0.968749999999923
40
0.984374999999961
40
0.984374999999961
40
1
40
1
40
1
40
1
41
1
10
32.6973156389238
20
0.668750687197985
30
0
41
1
10
32.6963054629515
20
0.680580064895736
30
0
41
1
10
32.6966749601005
20
0.692552432473065
30
-1E-16
41
1
10
32.6994960770519
20
0.71703880785563
30
1E-16
41
1
10
32.7019881167753
20
0.729650239578319
30
1E-16
41
1
10
32.7081903371492
20
0.75449428949463
30
0
41
1
10
32.7119139955274
20
0.766877036241624
30
0
41
1
10
32.7199813001108
20
0.79155793144335
30
-1E-16
41
1
10
32.7242237495041
20
0.803558040930994
30
-1E-16
41
1
10
32.7327132119899
20
0.827082931204757
30
1E-16
41
1
10
32.73699209722
20
0.838686960550348
30
0
41
1
10
32.7450921304536
20
0.860926131984485
30
0
41
1
10
32.7489309977563
20
0.871618241481798
30
0
41
1
10
32.7561687853061
20
0.892265342579236
30
-1E-16
41
1
10
32.7595334503946
20
0.902258342938296
30
1E-16
41
1
10
32.7646243324317
20
0.916443758342893
30
1E-16
41
1
10
32.766308374118
20
0.921033475628491
30
1E-16
41
1
10
32.7692291355245
20
0.927337010080834
30
0
41
1
10
32.7702612506804
20
0.929339836941608
30
0
41
1
10
32.7721618643498
20
0.931965304936142
30
0
41
1
10
32.7728635250397
20
0.932782648733451
30
0
41
1
10
32.7744847622332
20
0.934102809652956
30
0
41
1
10
32.7754207380439
20
0.934619924183636
30
0
41
1
10
32.7765469673776
20
0.934789445440657
30
0
0
SPLINE
5
C1
100
AcDbEntity
8
1
62
256
6
ByLayer
370
18
48
1
60
0
100
AcDbSpline
70
4
71
3
72
22
73
18
40
0
40
0
40
0
40
0
40
0.125000000000042
40
0.125000000000042
40
0.187500000000063
40
0.187500000000063
40
0.250000000000084
40
0.250000000000084
40
0.312500000000105
40
0.312500000000105
40
0.375000000000126
40
0.375000000000126
40
0.500000000000018
40
0.500000000000018
40
0.750000000000009
40
0.750000000000009
40
1
40
1
40
1
40
1
41
1
10
32.776546967379
20
0.934789445437588
30
0
41
1
10
32.7795530387011
20
0.935241922543241
30
0
41
1
10
32.7822783353076
20
0.936312887759271
30
0
41
1
10
32.7849022502359
20
0.939451377339083
30
0
41
1
10
32.7855105432075
20
0.940737376198001
30
0
41
1
10
32.7861309676714
20
0.943680042848285
30
0
41
1
10
32.7861446736752
20
0.945347733136146
30
0
41
1
10
32.7856948488668
20
0.948817294902341
30
0
41
1
10
32.7852343780669
20
0.95064152757422
30
0
41
1
10
32.7840225476199
20
0.954279358298976
30
0
41
1
10
32.783267436811
20
0.956115256343139
30
0
41
1
10
32.7806822308345
20
0.961660786439467
30
0
41
1
10
32.7785905026752
20
0.965304747380458
30
0
41
1
10
32.7717919646517
20
0.97606039413327
30
-1E-16
41
1
10
32.7665102930094
20
0.983078199290077
30
-1E-16
41
1
10
32.7556160370434
20
0.996588822250772
30
1E-16
41
1
10
32.7499291853127
20
1.00314657994119
30
1E-16
41
1
10
32.7441046042152
20
1.00959155484466
30
1E-16
0
SPLINE
5
C2
100
AcDbEntity
8
1
62
256
6
ByLayer
370
18
48
1
60
0
100
AcDbSpline
70
4
71
3
72
8
73
4
40
0
40
0
40
0
40
0
40
1
40
1
40
1
40
1
41
1
10
32.7129013920954
20
1.04806096000249
30
0
41
1
10
32.7097875255596
20
1.05201954060075
30
0
41
1
10
32.7067426527208
20
1.05599187518186
30
0
41
1
10
32.7037490659871
20
1.05997579432426
30
0
0
SPLINE
5
C3
100
AcDbEntity
8
1
62
256
6
ByLayer
370
18
48
1
60
0
100
AcDbSpline
70
4
71
3
72
14
73
10
40
0
40
0
40
0
40
0
40
0.124999999999997
40
0.124999999999997
40
0.249999999999994
40
0.249999999999994
40
0.499999999999989
40
0.499999999999989
40
1
40
1
40
1
40
1
41
1
10
33.1140451606529
20
-0.0941236696004921
30
0
41
1
10
33.0933775137659
20
-0.0654457689370531
30
-1E-16
41
1
10
33.073245580896
20
-0.0364021511179544
30
1E-16
41
1
10
33.0339736607692
20
0.0223580038638147
30
-1E-16
41
1
10
33.0147885764001
20
0.0521502629131021
30
1E-16
41
1
10
32.9591319971903
20
0.141569379153225
30
-1E-16
41
1
10
32.9244185959238
20
0.201412631548266
30
0
41
1
10
32.825263508885
20
0.381036404421138
30
0
41
1
10
32.7658500038585
20
0.500932831020634
30
-1E-16
41
1
10
32.7105249587083
20
0.620563808426681
30
1E-16
0
SPLINE
5
C4
100
AcDbEntity
8
1
62
256
6
ByLayer
370
18
48
1
60
0
100
AcDbSpline
70
4
71
3
72
8
73
4
40
0
40
0
40
0
40
0
40
1
40
1
40
1
40
1
41
1
10
32.7105249587084
20
0.620563808426596
30
1E-16
41
1
10
32.7033495184192
20
0.636079474664086
30
1E-16
41
1
10
32.6986960488304
20
0.652060243304192
30
0
41
1
10
32.6973156389238
20
0.668750687197985
30
0
0
SPLINE
5
C5
100
AcDbEntity
8
1
62
256
6
ByLayer
370
18
48
1
60
0
100
AcDbSpline
70
4
71
3
72
14
73
10
40
0
40
0
40
0
40
0
40
0.26515492359694
40
0.26515492359694
40
0.53030984719388
40
0.53030984719388
40
0.79546477079082
40
0.79546477079082
40
1
40
1
40
1
40
1
41
1
10
32.6973156389238
20
-0.907441033510281
30
-1E-16
41
1
10
32.6963054629515
20
-0.896837215015267
30
1E-16
41
1
10
32.6966749601005
20
-0.886738781079885
30
1E-16
41
1
10
32.6994960770519
20
-0.867953858215287
30
0
41
1
10
32.7019881167753
20
-0.859226174476305
30
0
41
1
10
32.7081903371492
20
-0.844161195309113
30
0
41
1
10
32.7119139955273
20
-0.837698775620481
30
0
41
1
10
32.7190591268926
20
-0.828173184403141
30
-1E-16
41
1
10
32.7222948459304
20
-0.82474259303342
30
-1E-16
41
1
10
32.7255600160486
20
-0.821952645155733
30
-1E-16
0
SPLINE
5
C6
100
AcDbEntity
8
1
62
256
6
ByLayer
370
18
48
1
60
0
100
AcDbSpline
70
4
71
3
72
14
73
10
40
0
40
0
40
0
40
0
40
0.125000000000007
40
0.125000000000007
40
0.250000000000013
40
0.250000000000013
40
0.500000000000001
40
0.500000000000001
40
1
40
1
40
1
40
1
41
1
10
33.1140451606529
20
-1.48321401551104
30
0
41
1
10
33.0933775137661
20
-1.46677017554549
30
0
41
1
10
33.0732455808962
20
-1.44936371033433
30
0
41
1
10
33.0339736607698
20
-1.41269070767436
30
0
41
1
10
33.0147885764009
20
-1.39337148034102
30
0
41
1
10
32.9591319971915
20
-1.3333489182661
30
0
41
1
10
32.9244185959253
20
-1.29049389508506
30
0
41
1
10
32.8252635088869
20
-1.15518674579568
30
0
41
1
10
32.7658500038607
20
-1.05597905301633
30
0
41
1
10
32.7105249587109
20
-0.950514625186401
30
0
0
SPLINE
5
C7
100
AcDbEntity
8
1
62
256
6
ByLayer
370
18
48
1
60
0
100
AcDbSpline
70
4
71
3
72
8
73
4
40
0
40
0
40
0
40
0
40
1
40
1
40
1
40
1
41
1
10
32.7105249587084
20
-0.950514625181569
30
0
41
1
10
32.7033495184198
20
-0.936836304587075
30
0
41
1
10
32.6986960488303
20
-0.922494653140774
30
-1E-16
41
1
10
32.6973156389238
20
-0.907441033510281
30
-1E-16
0
SPLINE
5
C8
100
AcDbEntity
8
1
62
256
6
ByLayer
370
18
48
1
60
0
100
AcDbSpline
70
4
71
3
72
38
73
34
40
0
40
0
40
0
40
0
40
0.125000000000016
40
0.125000000000016
40
0.250000000000032
40
0.250000000000032
40
0.31250000000004
40
0.31250000000004
40
0.375000000000047
40
0.375000000000047
40
0.437500000000055
40
0.437500000000055
40
0.500000000000063
40
0.500000000000063
40
0.531250000000063
40
0.531250000000063
40
0.562500000000062
40
0.562500000000062
40
0.625000000000062
40
0.625000000000062
40
0.687500000000061
40
0.687500000000061
40
0.71875000000006
40
0.71875000000006
40
0.75000000000006
40
0.75000000000006
40
0.78125000000006
40
0.78125000000006
40
0.812500000000059
40
0.812500000000059
40
0.875000000000039
40
0.875000000000039
40
1
40
1
40
1
40
1
41
1
10
33.9489200647199
20
-0.383393531698204
30
0
41
1
10
33.9521139000923
20
-0.371916390818996
30
0
41
1
10
33.9551133061848
20
-0.361061400062709
30
0
41
1
10
33.9607289882889
20
-0.34070250453496
30
0
41
1
10
33.9633459989861
20
-0.331192421156857
30
0
41
1
10
33.9669602131599
20
-0.318226343514311
30
0
41
1
10
33.9681187006358
20
-0.314102524188144
30
0
41
1
10
33.9702880220841
20
-0.306508863068132
30
0
41
1
10
33.9712964397317
20
-0.303046580749452
30
0
41
1
10
33.9731467318601
20
-0.296922744053944
30
0
41
1
10
33.9739947391343
20
-0.294242743564439
30
0
41
1
10
33.9754633280808
20
-0.290006081728848
30
0
41
1
10
33.9760826183803
20
-0.288449057503641
30
0
41
1
10
33.9768142998988
20
-0.287148871480667
30
0
41
1
10
33.9770251136749
20
-0.286889190650555
30
0
41
1
10
33.9773725182772
20
-0.286771988605381
30
0
41
1
10
33.9775094344655
20
-0.286918964402361
30
0
41
1
10
33.9777843119483
20
-0.28803872499401
30
0
41
1
10
33.9777930336684
20
-0.289677030700915
30
0
41
1
10
33.9774105827862
20
-0.295023698915173
30
0
41
1
10
33.977028996861
20
-0.298606617560637
30
0
41
1
10
33.9761761295227
20
-0.305321386621046
30
0
41
1
10
33.975843779038
20
-0.307788400918753
30
0
41
1
10
33.9751087873093
20
-0.312996205253086
30
0
41
1
10
33.9747039207253
20
-0.315755169741379
30
0
41
1
10
33.9738237332543
20
-0.321558812660385
30
0
41
1
10
33.9733452473776
20
-0.324622609855027
30
0
41
1
10
33.9723431627651
20
-0.330875343315483
30
0
41
1
10
33.9718182560578
20
-0.334073940157879
30
0
41
1
10
33.97017792051
20
-0.343858876158634
30
0
41
1
10
33.9689899185804
20
-0.350673869330478
30
0
41
1
10
33.9652349887128
20
-0.371463410826351
30
0
41
1
10
33.9625473822158
20
-0.385419538705577
30
0
41
1
10
33.9596857057474
20
-0.399432074132221
30
0
0
SPLINE
5
C9
100
AcDbEntity
8
1
62
256
6
ByLayer
370
18
48
1
60
0
100
AcDbSpline
70
4
71
3
72
34
73
30
40
0
40
0
40
0
40
0
40
0.124999999999988
40
0.124999999999988
40
0.249999999999977
40
0.249999999999977
40
0.312499999999971
40
0.312499999999971
40
0.374999999999966
40
0.374999999999966
40
0.499999999999943
40
0.499999999999943
40
0.531249999999947
40
0.531249999999947
40
0.562499999999952
40
0.624999999999961
40
0.68749999999997
40
0.68749999999997
40
0.718749999999974
40
0.718749999999974
40
0.749999999999979
40
0.749999999999979
40
0.874999999999997
40
0.874999999999997
40
0.937499999999998
40
0.937499999999998
40
0.968749999999999
40
0.968749999999999
40
1
40
1
40
1
40
1
41
1
10
33.9596857057475
20
-0.399432074131596
30
0
41
1
10
33.9456439998019
20
-0.468188938922907
30
0
41
1
10
33.9280743820331
20
-0.535657215205504
30
0
41
1
10
33.8859803690604
20
-0.667940824171723
30
0
41
1
10
33.8614600223866
20
-0.732754154521103
30
0
41
1
10
33.819288781523
20
-0.827777770327884
30
0
41
1
10
33.8044515551712
20
-0.858804834951371
30
0
41
1
10
33.7733721417621
20
-0.919325515169305
30
0
41
1
10
33.7571133532808
20
-0.948857067704836
30
0
41
1
10
33.7062476167711
20
-1.03516348042058
30
0
41
1
10
33.6695708220839
20
-1.08965823045273
30
0
41
1
10
33.6202816118346
20
-1.15345410815868
30
0
41
1
10
33.6102345045607
20
-1.16601272357187
30
0
41
1
10
33.5899925526257
20
-1.19043580063851
30
0
41
1
10
33.5593438428381
20
-1.22611496657677
30
0
41
1
10
33.5069163867885
20
-1.28077875546336
30
0
41
1
10
33.463653061278
20
-1.31926522013813
30
0
41
1
10
33.4307309387501
20
-1.34607366379402
30
0
41
1
10
33.4196775585911
20
-1.35466659722439
30
0
41
1
10
33.3974125368235
20
-1.37114455018667
30
0
41
1
10
33.3862169032869
20
-1.37901476613604
30
0
41
1
10
33.330532297643
20
-1.41610901560148
30
0
41
1
10
33.2864128465981
20
-1.43900308506372
30
0
41
1
10
33.2209241597777
20
-1.46331302071869
30
0
41
1
10
33.1992073520208
20
-1.46973526745785
30
0
41
1
10
33.1667839692728
20
-1.47678181080698
30
0
41
1
10
33.1560613669132
20
-1.47868448006156
30
0
41
1
10
33.1348829013825
20
-1.48160275665205
30
0
41
1
10
33.1244096272026
20
-1.48262221749542
30
0
41
1
10
33.1140451606524
20
-1.48321401550206
30
0
0
SPLINE
5
CA
100
AcDbEntity
8
1
62
256
6
ByLayer
370
18
48
1
60
0
100
AcDbSpline
70
4
71
3
72
22
73
18
40
0
40
0
40
0
40
0
40
0.124999999999914
40
0.124999999999914
40
0.187499999999871
40
0.187499999999871
40
0.249999999999828
40
0.374999999999741
40
0.374999999999741
40
0.437499999999735
40
0.437499999999735
40
0.49999999999973
40
0.624999999999798
40
0.624999999999798
40
0.749999999999865
40
0.749999999999865
40
1
40
1
40
1
40
1
41
1
10
33.1140451606393
20
-1.48321401550371
30
0
41
1
10
33.1010156112463
20
-1.49631252471971
30
0
41
1
10
33.0870247899207
20
-1.50910284400942
30
0
41
1
10
33.0645206280994
20
-1.52780377010475
30
0
41
1
10
33.0567820254531
20
-1.53393931896153
30
0
41
1
10
33.041112630504
20
-1.54580526652799
30
0
41
1
10
33.0172093822172
20
-1.56308888183997
30
0
41
1
10
32.9921593897567
20
-1.57888965061642
30
0
41
1
10
32.9663798712734
20
-1.59374170534096
30
0
41
1
10
32.9576652050908
20
-1.59853129193678
30
0
41
1
10
32.940268349888
20
-1.60766013777962
30
0
41
1
10
32.9141178876699
20
-1.62073825658584
30
0
41
1
10
32.8877965978964
20
-1.63209896630877
30
0
41
1
10
32.8525345137767
20
-1.6458680484844
30
0
41
1
10
32.8347796508118
20
-1.65207477189674
30
0
41
1
10
32.7815011034082
20
-1.66867486567511
30
0
41
1
10
32.7464468665238
20
-1.67693587586538
30
0
41
1
10
32.7116143759064
20
-1.68287053822203
30
-1E-16
0
SPLINE
5
CB
100
AcDbEntity
8
1
62
256
6
ByLayer
370
18
48
1
60
0
100
AcDbSpline
70
4
71
3
72
38
73
34
40
0
40
0
40
0
40
0
40
0.124999999999999
40
0.124999999999999
40
0.249999999999997
40
0.249999999999997
40
0.312499999999997
40
0.312499999999997
40
0.374999999999996
40
0.374999999999996
40
0.437499999999995
40
0.437499999999995
40
0.499999999999995
40
0.499999999999995
40
0.531249999999999
40
0.531249999999999
40
0.562500000000003
40
0.562500000000003
40
0.625000000000011
40
0.625000000000011
40
0.687500000000019
40
0.687500000000019
40
0.718750000000023
40
0.718750000000023
40
0.750000000000026
40
0.750000000000026
40
0.78125000000003
40
0.78125000000003
40
0.812500000000034
40
0.812500000000034
40
0.875000000000023
40
0.875000000000023
40
1
40
1
40
1
40
1
41
1
10
33.9489200647199
20
0.394280047209975
30
0
41
1
10
33.9521139000923
20
0.381787705235837
30
0
41
1
10
33.9551133061848
20
0.369005222337989
30
0
41
1
10
33.9607289882888
20
0.34281981447856
30
0
41
1
10
33.9633459989861
20
0.329419476017932
30
0
41
1
10
33.9669602131599
20
0.308736493295498
30
0
41
1
10
33.9681187006358
20
0.30170427715052
30
0
41
1
10
33.970288022084
20
0.287609470719843
30
0
41
1
10
33.9712964397318
20
0.280568884308622
30
0
41
1
10
33.9731467318604
20
0.266506159398148
30
0
41
1
10
33.9739947391343
20
0.259426985937921
30
0
41
1
10
33.9754633280808
20
0.245595792343096
30
0
41
1
10
33.9760826183802
20
0.238873004783073
30
0
41
1
10
33.9768142998988
20
0.229145476495546
30
0
41
1
10
33.9770251136749
20
0.225962808574792
30
0
41
1
10
33.9773725182772
20
0.219736169568392
30
0
41
1
10
33.9775094344655
20
0.21667208059776
30
0
41
1
10
33.9777843119483
20
0.20797783412641
30
0
41
1
10
33.9777930336684
20
0.20276543592027
30
0
41
1
10
33.9774105827863
20
0.193830105647493
30
0
41
1
10
33.977028996861
20
0.190308543250552
30
0
41
1
10
33.9761761295227
20
0.186420403184428
30
0
41
1
10
33.9758437790381
20
0.185363936017296
30
0
41
1
10
33.9751087873093
20
0.183766926893355
30
0
41
1
10
33.9747039207253
20
0.183214171091976
30
0
41
1
10
33.9738237332543
20
0.182561714357547
30
0
41
1
10
33.9733452473777
20
0.182464382381369
30
0
41
1
10
33.9723431627651
20
0.182688505642858
30
0
41
1
10
33.9718182560578
20
0.183006106069797
30
0
41
1
10
33.9701779205101
20
0.184498311493343
30
0
41
1
10
33.9689899185805
20
0.186221802333392
30
0
41
1
10
33.9652349887128
20
0.193086149742129
30
0
41
1
10
33.9625473822177
20
0.199717732785388
30
0
41
1
10
33.9596857057493
20
0.207745024094635
30
0
0
SPLINE
5
CC
100
AcDbEntity
8
1
62
256
6
ByLayer
370
18
48
1
60
0
100
AcDbSpline
70
4
71
3
72
34
73
30
40
0
40
0
40
0
40
0
40
0.125000000000029
40
0.125000000000029
40
0.250000000000058
40
0.250000000000058
40
0.312500000000072
40
0.312500000000072
40
0.375000000000087
40
0.375000000000087
40
0.500000000000104
40
0.500000000000104
40
0.531250000000104
40
0.531250000000104
40
0.562500000000105
40
0.625000000000092
40
0.687500000000079
40
0.687500000000079
40
0.718750000000073
40
0.718750000000073
40
0.750000000000067
40
0.750000000000067
40
0.875000000000041
40
0.875000000000041
40
0.937500000000021
40
0.937500000000021
40
0.96875000000001
40
0.96875000000001
40
1
40
1
40
1
40
1
41
1
10
33.9596857057475
20
0.207745024099722
30
0
41
1
10
33.9456439998019
20
0.247133426442531
30
0
41
1
10
33.928074382033
20
0.287587938860611
30
0
41
1
10
33.8859803690603
20
0.371251298673826
30
0
41
1
10
33.8614600223866
20
0.414479086322757
30
0
41
1
10
33.819288781523
20
0.482266933240879
30
0
41
1
10
33.8044515551712
20
0.505157403481491
30
0
41
1
10
33.7733721417621
20
0.551456387603253
30
0
41
1
10
33.7571133532808
20
0.574888612465998
30
0
41
1
10
33.7062476167711
20
0.646294026000618
30
0
41
1
10
33.6695708220838
20
0.695387888255539
30
0
41
1
10
33.6202816118346
20
0.759510688239288
30
0
41
1
10
33.6102345045608
20
0.772494234832948
30
0
41
1
10
33.5899925526258
20
0.798505855701649
30
0
41
1
10
33.5593438428382
20
0.837673803135658
30
0
41
1
10
33.5069164748916
20
0.903797474509219
30
0
41
1
10
33.463653061278
20
0.957763390967926
30
0
41
1
10
33.4307309387502
20
0.998698363932419
30
0
41
1
10
33.4196775585912
20
1.01242010920615
30
0
41
1
10
33.3974125368235
20
1.04002715085679
30
0
41
1
10
33.3862169032871
20
1.05389243387648
30
0
41
1
10
33.3305322976431
20
1.12279669018091
30
0
41
1
10
33.2864128465982
20
1.17723926586888
30
0
41
1
10
33.2209241597778
20
1.25793883474083
30
1E-16
41
1
10
33.1992073520209
20
1.28467486813628
30
0
41
1
10
33.1667839692729
20
1.32451055490384
30
0
41
1
10
33.1560613669133
20
1.33767025856781
30
0
41
1
10
33.1348829013826
20
1.3636225631154
30
0
41
1
10
33.1244096272027
20
1.37643653735003
30
0
41
1
10
33.1140451606525
20
1.38909034590463
30
0
0
SPLINE
5
CD
100
AcDbEntity
8
1
62
256
6
ByLayer
370
18
48
1
60
0
100
AcDbSpline
70
4
71
3
72
23
73
19
40
0
40
0
40
0
40
0
40
0.124999999999914
40
0.124999999999914
40
0.18749999999987
40
0.18749999999987
40
0.249999999999827
40
0.374999999999741
40
0.374999999999741
40
0.437499999999736
40
0.437499999999736
40
0.499999999999731
40
0.499999999999731
40
0.624999999999798
40
0.624999999999798
40
0.749999999999865
40
0.749999999999865
40
1
40
1
40
1
40
1
41
1
10
33.1140451606392
20
1.38909034591757
30
0
41
1
10
33.1010156112462
20
1.38994943170354
30
0
41
1
10
33.0870247899206
20
1.39176122980248
30
0
41
1
10
33.0645206280994
20
1.39598800895911
30
-1E-16
41
1
10
33.0567820254531
20
1.39764792119721
30
-1E-16
41
1
10
33.0411126305041
20
1.40139412797077
30
0
41
1
10
33.0172093822171
20
1.40767303783304
30
0
41
1
10
32.9921593897566
20
1.41581689406942
30
0
41
1
10
32.9663798712733
20
1.42508031601005
30
0
41
1
10
32.9576652050908
20
1.42835619151359
30
0
41
1
10
32.940268349888
20
1.43515158004436
30
0
41
1
10
32.931551555141
20
1.43868319523895
30
0
41
1
10
32.9053441244121
20
1.44963484186098
30
-1E-16
41
1
10
32.8877965978963
20
1.45741015085631
30
-1E-16
41
1
10
32.8525345137767
20
1.47371688720045
30
1E-16
41
1
10
32.8347796508119
20
1.48226902565523
30
1E-16
41
1
10
32.7815011034082
20
1.50870333898783
30
0
41
1
10
32.7464468665238
20
1.52709851820049
30
0
41
1
10
32.7116143759064
20
1.54582422323364
30
-1E-16
0
SPLINE
5
CE
100
AcDbEntity
8
1
62
256
6
ByLayer
370
18
48
1
60
0
100
AcDbSpline
70
4
71
3
72
8
73
4
40
0
40
0
40
0
40
0
40
1
40
1
40
1
40
1
41
1
10
32.7116143759062
20
1.54582422323398
30
-1E-16
41
1
10
32.6780337822375
20
1.56382630139871
30
1E-16
41
1
10
32.6448657353246
20
1.5819800974991
30
1E-16
41
1
10
32.612138218532
20
1.59995475901908
30
0
0
SPLINE
5
CF
100
AcDbEntity
8
1
62
256
6
ByLayer
370
18
48
1
60
0
100
AcDbSpline
70
4
71
3
72
16
73
12
40
0
40
0
40
0
40
0
40
0.250000000000013
40
0.250000000000013
40
0.500000000000027
40
0.500000000000027
40
0.625000000000008
40
0.625000000000008
40
0.749999999999989
40
0.749999999999989
40
1
40
1
40
1
40
1
41
1
10
32.6121382185505
20
1.59995475900908
30
0
41
1
10
32.5661484724047
20
1.62521002483308
30
0
41
1
10
32.5216465943804
20
1.64974801610734
30
-1E-16
41
1
10
32.4344662465518
20
1.69685814623335
30
0
41
1
10
32.3917999974901
20
1.719433678596
30
0
41
1
10
32.3286711034573
20
1.75150841864192
30
0
41
1
10
32.3077756314269
20
1.76190236584989
30
0
41
1
10
32.2662146781501
20
1.78204421499945
30
0
41
1
10
32.2455617218699
20
1.79178480279904
30
0
41
1
10
32.1842955919162
20
1.81977312027095
30
0
41
1
10
32.1442195049829
20
1.83686301763464
30
0
41
1
10
32.104671912486
20
1.85228121838887
30
0
0
SPLINE
5
D0
100
AcDbEntity
8
1
62
256
6
ByLayer
370
18
48
1
60
0
100
AcDbSpline
70
4
71
3
72
16
73
12
40
0
40
0
40
0
40
0
40
0.249999999999981
40
0.249999999999981
40
0.499999999999961
40
0.499999999999961
40
0.624999999999971
40
0.624999999999971
40
0.74999999999998
40
0.74999999999998
40
1
40
1
40
1
40
1
41
1
10
32.1046719124859
20
1.53342390363812
30
0
41
1
10
32.1553711796575
20
1.50219306262045
30
0
41
1
10
32.2055883877632
20
1.46859894395391
30
-1E-16
41
1
10
32.3055611404577
20
1.39716292320566
30
1E-16
41
1
10
32.3553150282348
20
1.35931974595914
30
-1E-16
41
1
10
32.4299565360881
20
1.29962053121267
30
1E-16
41
1
10
32.4548387624208
20
1.27923072427913
30
-1E-16
41
1
10
32.5046685598709
20
1.23750240186141
30
0
41
1
10
32.5296399917321
20
1.21614300798745
30
0
41
1
10
32.604595846311
20
1.15081434235233
30
0
41
1
10
32.6542225311082
20
1.1059491701649
30
1E-16
41
1
10
32.7037490659818
20
1.05997579432321
30
0
0
SPLINE
5
D1
100
AcDbEntity
8
1
62
256
6
ByLayer
370
18
48
1
60
0
100
AcDbSpline
70
4
71
3
72
8
73
4
40
0
40
0
40
0
40
0
40
1
40
1
40
1
40
1
41
1
10
32.70374906598
20
1.05997579432062
30
0
41
1
10
32.7139030308954
20
1.05245661584993
30
0
41
1
10
32.7236869400941
20
1.04431157486127
30
0
41
1
10
32.732998741512
20
1.0356881844265
30
0
0
SPLINE
5
D2
100
AcDbEntity
8
1
62
256
6
ByLayer
370
18
48
1
60
0
100
AcDbSpline
70
4
71
3
72
35
73
31
40
0
40
0
40
0
40
0
40
0.125000000000056
40
0.125000000000056
40
0.187500000000077
40
0.187500000000077
40
0.218750000000081
40
0.218750000000081
40
0.250000000000084
40
0.250000000000084
40
0.375000000000098
40
0.375000000000098
40
0.437500000000106
40
0.437500000000106
40
0.468750000000109
40
0.468750000000109
40
0.500000000000112
40
0.500000000000112
40
0.625000000000102
40
0.625000000000102
40
0.687500000000091
40
0.687500000000091
40
0.75000000000008
40
0.75000000000008
40
0.87500000000005
40
0.87500000000005
40
0.906250000000039
40
0.906250000000039
40
0.937500000000028
40
1
40
1
40
1
40
1
41
1
10
32.7329987415347
20
1.03568818440544
30
0
41
1
10
32.7976254023512
20
0.975839299776396
30
-1E-16
41
1
10
32.8613281196173
20
0.915085106488078
30
1E-16
41
1
10
32.9562535214486
20
0.823399944307823
30
1E-16
41
1
10
32.9877903240039
20
0.792745759388652
30
-1E-16
41
1
10
33.0350360677693
20
0.746730733788297
30
0
41
1
10
33.0507748853308
20
0.731386929399662
30
1E-16
41
1
10
33.0822494838859
20
0.700706134760253
30
-1E-16
41
1
10
33.0980218841981
20
0.685333151653396
30
-1E-16
41
1
10
33.1764609646966
20
0.608972350474176
30
-1E-16
41
1
10
33.2373211478145
20
0.550040308162863
30
0
41
1
10
33.3263923708822
20
0.465772740533311
30
0
41
1
10
33.3557109172179
20
0.438376437285143
30
1E-16
41
1
10
33.3991752605403
20
0.398454864036893
30
0
41
1
10
33.4135996240079
20
0.385322257586665
30
0
41
1
10
33.4421818876603
20
0.359560306964994
30
0
41
1
10
33.4562614339233
20
0.347001252506487
30
1E-16
41
1
10
33.5256376476193
20
0.285830354401071
30
0
41
1
10
33.5779055737175
20
0.242059266083714
30
1E-16
41
1
10
33.6516197045731
20
0.184408678442765
30
0
41
1
10
33.6754005590512
20
0.166523174689757
30
1E-16
41
1
10
33.7213025352586
20
0.133468099407935
30
-1E-16
41
1
10
33.7430460047689
20
0.118587484982328
30
1E-16
41
1
10
33.8045963132979
20
0.0785767990399222
30
0
41
1
10
33.8408314536204
20
0.0580419388036546
30
0
41
1
10
33.8799016558781
20
0.0387717509002243
30
0
41
1
10
33.8874183297493
20
0.0352284097473614
30
0
41
1
10
33.9016932718572
20
0.0287966038161187
30
0
41
1
10
33.9219900920057
20
0.020121062251377
30
0
41
1
10
33.9390066611845
20
0.0140376166019678
30
0
41
1
10
33.9489200647204
20
0.0108865155117428
30
0
0
SPLINE
5
D3
100
AcDbEntity
8
1
62
256
6
ByLayer
370
18
48
1
60
0
100
AcDbSpline
70
4
71
3
72
38
73
34
40
0
40
0
40
0
40
0
40
0.125000000000002
40
0.125000000000002
40
0.250000000000003
40
0.250000000000003
40
0.312500000000004
40
0.312500000000004
40
0.375000000000005
40
0.375000000000005
40
0.437500000000005
40
0.437500000000005
40
0.500000000000006
40
0.500000000000006
40
0.531250000000002
40
0.531250000000002
40
0.562499999999998
40
0.562499999999998
40
0.624999999999991
40
0.624999999999991
40
0.687499999999983
40
0.687499999999983
40
0.718749999999979
40
0.718749999999979
40
0.749999999999975
40
0.749999999999975
40
0.781249999999971
40
0.781249999999971
40
0.812499999999967
40
0.812499999999967
40
0.874999999999978
40
0.874999999999978
40
1
40
1
40
1
40
1
41
1
10
33.9489200647198
20
0.0108865155117712
30
0
41
1
10
33.9521139000923
20
0.0098713144168414
30
0
41
1
10
33.9551133061848
20
0.0079438222752799
30
0
41
1
10
33.9607289882889
20
0.0021173099435714
30
0
41
1
10
33.9633459989861
20
-0.0017729451389812
30
0
41
1
10
33.96696021316
20
-0.0094898502188698
30
0
41
1
10
33.9681187006358
20
-0.0123982470377371
30
0
41
1
10
33.9702880220841
20
-0.018899392348402
30
0
41
1
10
33.9712964397319
20
-0.0224776964390685
30
0
41
1
10
33.9731467318604
20
-0.030416584653949
30
0
41
1
10
33.9739947391343
20
-0.0348157576266317
30
0
41
1
10
33.9754633280808
20
-0.044410289385894
30
0
41
1
10
33.9760826183802
20
-0.0495760527206812
30
0
41
1
10
33.9768142998988
20
-0.0580033949852634
30
0
41
1
10
33.977025113675
20
-0.060926382075877
30
0
41
1
10
33.9773725182772
20
-0.0670358190371019
30
0
41
1
10
33.9775094344655
20
-0.0702468838046855
30
0
41
1
10
33.9777843119484
20
-0.080060890867685
30
0
41
1
10
33.9777930336684
20
-0.0869115947807302
30
0
41
1
10
33.9774105827862
20
-0.101193593267737
30
0
41
1
10
33.977028996861
20
-0.108298074310142
30
0
41
1
10
33.9761761295227
20
-0.118900983436646
30
0
41
1
10
33.975843779038
20
-0.122424464901457
30
0
41
1
10
33.9751087873093
20
-0.129229278359702
30
0
41
1
10
33.9747039207253
20
-0.132540998649347
30
0
41
1
10
33.9738237332543
20
-0.138997098302752
30
0
41
1
10
33.9733452473776
20
-0.142158227473601
30
0
41
1
10
33.9723431627651
20
-0.148186837672569
30
0
41
1
10
33.9718182560578
20
-0.151067834087996
30
0
41
1
10
33.97017792051
20
-0.159360564665207
30
0
41
1
10
33.9689899185804
20
-0.164452066997001
30
0
41
1
10
33.9652349887128
20
-0.178377261084108
30
0
41
1
10
33.9625473822158
20
-0.185701805915329
30
0
41
1
10
33.9596857057474
20
-0.191687050032129
30
0
0
SPLINE
5
D4
100
AcDbEntity
8
1
62
256
6
ByLayer
370
18
48
1
60
0
100
AcDbSpline
70
4
71
3
72
34
73
30
40
0
40
0
40
0
40
0
40
0.125000000000005
40
0.125000000000005
40
0.250000000000009
40
0.250000000000009
40
0.312500000000012
40
0.312500000000012
40
0.375000000000014
40
0.375000000000014
40
0.500000000000007
40
0.500000000000007
40
0.531250000000002
40
0.531250000000002
40
0.562499999999997
40
0.624999999999986
40
0.687499999999976
40
0.687499999999976
40
0.718749999999979
40
0.718749999999979
40
0.749999999999981
40
0.749999999999981
40
0.874999999999991
40
0.874999999999991
40
0.937499999999988
40
0.937499999999988
40
0.968749999999994
40
0.968749999999994
40
1
40
1
40
1
40
1
41
1
10
33.9596857057475
20
-0.191687050031874
30
0
41
1
10
33.9456439998019
20
-0.221055512480348
30
0
41
1
10
33.928074382033
20
-0.248069276344864
30
0
41
1
10
33.8859803690603
20
-0.29668952549784
30
0
41
1
10
33.8614600223866
20
-0.318275068198346
30
0
41
1
10
33.8192887815231
20
-0.345510837087005
30
0
41
1
10
33.8044515551712
20
-0.353647431469881
30
1E-16
41
1
10
33.7733721417621
20
-0.367869127566024
30
0
41
1
10
33.7571133532808
20
-0.37396845523881
30
0
41
1
10
33.7062476167711
20
-0.388869454419904
30
0
41
1
10
33.6695708220838
20
-0.39427034219716
30
0
41
1
10
33.6202816118346
20
-0.393943419919367
30
0
41
1
10
33.6102345045608
20
-0.39351848873892
30
0
41
1
10
33.5899925526258
20
-0.391929944936834
30
0
41
1
10
33.5593438428381
20
-0.388441163441087
30
0
41
1
10
33.5069163867885
20
-0.37698119186561
30
0
41
1
10
33.4636530612779
20
-0.361501829170123
30
0
41
1
10
33.4307309387501
20
-0.347375299861511
30
-1E-16
41
1
10
33.4196775585911
20
-0.342246488018191
30
-1E-16
41
1
10
33.3974125368235
20
-0.331117399329827
30
1E-16
41
1
10
33.3862169032869
20
-0.325122332259468
30
1E-16
41
1
10
33.3305322976429
20
-0.293312325420459
30
0
41
1
10
33.2864128465981
20
-0.261763819194755
30
-1E-16
41
1
10
33.2209241597778
20
-0.205374185977774
30
0
41
1
10
33.1992073520208
20
-0.185060399321486
30
0
41
1
10
33.1667839692728
20
-0.152271255903003
30
-1E-16
41
1
10
33.1560613669132
20
-0.141014221493634
30
1E-16
41
1
10
33.1348829013825
20
-0.117980193536539
30
1E-16
41
1
10
33.1244096272026
20
-0.106185680145245
30
0
41
1
10
33.1140451606524
20
-0.0941236695973089
30
0
0
SPLINE
5
D5
100
AcDbEntity
8
1
62
256
6
ByLayer
370
18
48
1
60
0
100
AcDbSpline
70
4
71
3
72
23
73
19
40
0
40
0
40
0
40
0
40
0.124999999999914
40
0.124999999999914
40
0.187499999999871
40
0.187499999999871
40
0.249999999999828
40
0.374999999999743
40
0.374999999999743
40
0.437499999999737
40
0.437499999999737
40
0.499999999999731
40
0.499999999999731
40
0.624999999999799
40
0.624999999999799
40
0.749999999999866
40
0.749999999999866
40
1
40
1
40
1
40
1
41
1
10
33.1140451606393
20
-0.0941236695861392
30
0
41
1
10
33.1010156112463
20
-0.106363093016142
30
0
41
1
10
33.0870247899207
20
-0.117341614206936
30
1E-16
41
1
10
33.0645206280994
20
-0.131815761145646
30
1E-16
41
1
10
33.0567820254531
20
-0.136291397764296
30
1E-16
41
1
10
33.041112630504
20
-0.144411138557189
30
-1E-16
41
1
10
33.0172093822172
20
-0.15541584400691
30
-1E-16
41
1
10
32.9921593897567
20
-0.163072756546967
30
-1E-16
41
1
10
32.9663798712733
20
-0.168661389330936
30
0
41
1
10
32.9576652050908
20
-0.170175100423165
30
0
41
1
10
32.940268349888
20
-0.172508557735256
30
0
41
1
10
32.9315515551409
20
-0.173336672495907
30
0
41
1
10
32.9053441244121
20
-0.174890317965833
30
0
41
1
10
32.8877965978964
20
-0.17468881545247
30
0
41
1
10
32.8525345137768
20
-0.172151161283978
30
0
41
1
10
32.8347796508119
20
-0.169805746241508
30
0
41
1
10
32.7815011034082
20
-0.159971526687315
30
-1E-16
41
1
10
32.7464468665238
20
-0.149837357664865
30
-1E-16
41
1
10
32.7116143759064
20
-0.137046314988396
30
1E-16
0
SPLINE
5
D6
100
AcDbEntity
8
1
62
256
6
ByLayer
370
18
48
1
60
0
100
AcDbSpline
70
4
71
3
72
8
73
4
40
0
40
0
40
0
40
0
40
1
40
1
40
1
40
1
41
1
10
32.7116143759062
20
-0.13704631498814
30
1E-16
41
1
10
32.6780337822442
20
-0.124804785594733
30
1E-16
41
1
10
32.6448657353378
20
-0.110239437248993
30
0
41
1
10
32.6121382185517
20
-0.0939318317059303
30
0
0
SPLINE
5
D7
100
AcDbEntity
8
1
62
256
6
ByLayer
370
18
48
1
60
0
100
AcDbSpline
70
4
71
3
72
8
73
4
40
0
40
0
40
0
40
0
40
1
40
1
40
1
40
1
41
1
10
32.7037490659799
20
-0.806384590468667
30
-1E-16
41
1
10
32.7139030308867
20
-0.810606796142253
30
-1E-16
41
1
10
32.723686940102
20
-0.81552508114612
30
-1E-16
41
1
10
32.732998741512
20
-0.82101628967348
30
-1E-16
0
SPLINE
5
D8
100
AcDbEntity
8
1
62
256
6
ByLayer
370
18
48
1
60
0
100
AcDbSpline
70
4
71
3
72
35
73
31
40
0
40
0
40
0
40
0
40
0.125000000000014
40
0.125000000000014
40
0.187500000000022
40
0.187500000000022
40
0.218750000000018
40
0.218750000000018
40
0.250000000000015
40
0.250000000000015
40
0.375000000000016
40
0.375000000000016
40
0.437500000000016
40
0.437500000000016
40
0.468750000000017
40
0.468750000000017
40
0.500000000000017
40
0.500000000000017
40
0.625000000000007
40
0.625000000000007
40
0.687500000000001
40
0.687500000000001
40
0.749999999999996
40
0.749999999999996
40
0.874999999999995
40
0.874999999999995
40
0.906249999999996
40
0.906249999999996
40
0.937499999999997
40
1
40
1
40
1
40
1
41
1
10
32.7329987415092
20
-0.821016289671775
30
-1E-16
41
1
10
32.7976254023268
20
-0.859126903868059
30
0
41
1
10
32.8613281195943
20
-0.892038081183557
30
1E-16
41
1
10
32.9562535214272
20
-0.93260219378331
30
0
41
1
10
32.9877903239832
20
-0.944649928391925
30
0
41
1
10
33.0350360677493
20
-0.960309489759197
30
0
41
1
10
33.0507748853111
20
-0.965126565609239
30
0
41
1
10
33.0822494838666
20
-0.973913976565996
30
1E-16
41
1
10
33.0980218841791
20
-0.977892520107559
30
1E-16
41
1
10
33.1764609646793
20
-0.995453616921964
30
-1E-16
41
1
10
33.2373211477985
20
-1.00199105186982
30
-1E-16
41
1
10
33.3263923708681
20
-0.999702946034347
30
-1E-16
41
1
10
33.3557109172044
20
-0.99691207027621
30
-1E-16
41
1
10
33.3991752605277
20
-0.989482093207641
30
1E-16
41
1
10
33.4135996239956
20
-0.986459317982053
30
1E-16
41
1
10
33.4421818876486
20
-0.979313770155699
30
0
41
1
10
33.4562614339119
20
-0.975212424410444
30
0
41
1
10
33.5256376476097
20
-0.952074158230204
30
0
41
1
10
33.5779055737091
20
-0.925206983928774
30
-1E-16
41
1
10
33.6516197045663
20
-0.872203827345459
30
0
41
1
10
33.675400559045
20
-0.852415307985837
30
0
41
1
10
33.7213025352535
20
-0.808475576387337
30
0
41
1
10
33.7430460047644
20
-0.784671400468511
30
0
41
1
10
33.8045963132948
20
-0.70828709741312
30
0
41
1
10
33.8408314536181
20
-0.650667622411618
30
0
41
1
10
33.8799016558767
20
-0.5711433759991
30
0
41
1
10
33.887418329748
20
-0.554822629376645
30
0
41
1
10
33.9016932718563
20
-0.521722733854517
30
0
41
1
10
33.9219900920052
20
-0.471353819474075
30
0
41
1
10
33.9390066611844
20
-0.41901763742203
30
0
41
1
10
33.9489200647204
20
-0.383393531697806
30
0
0
SPLINE
5
D9
100
AcDbEntity
8
1
62
256
6
ByLayer
370
18
48
1
60
0
100
AcDbSpline
70
4
71
3
72
8
73
4
40
0
40
0
40
0
40
0
40
1
40
1
40
1
40
1
41
1
10
32.7116143759062
20
-1.68287053822212
30
-1E-16
41
1
10
32.6780337822375
20
-1.688631086991
30
0
41
1
10
32.6448657353246
20
-1.69221953474235
30
0
41
1
10
32.612138218532
20
-1.69388659071527
30
0
0
SPLINE
5
DA
100
AcDbEntity
8
1
62
256
6
ByLayer
370
18
48
1
60
0
100
AcDbSpline
70
4
71
3
72
8
73
4
40
0
40
0
40
0
40
0
40
1
40
1
40
1
40
1
41
1
10
24
20
2.00361806663517
30
0
41
0.880978269556134
10
24
20
1.70664448205598
30
0
41
0.880978269556134
10
24
20
1.37160028873444
30
-1E-16
41
1
10
24
20
1.11811810566343
30
0
0
SPLINE
5
DB
100
AcDbEntity
8
1
62
256
6
ByLayer
370
18
48
1
60
0
100
AcDbSpline
70
4
71
3
72
16
73
12
40
0
40
0
40
0
40
0
40
0.249999999999962
40
0.249999999999962
40
0.499999999999923
40
0.499999999999923
40
0.62499999999993
40
0.62499999999993
40
0.749999999999937
40
0.749999999999937
40
1
40
1
40
1
40
1
41
1
10
32.6121382185505
20
-0.0939318317048787
30
0
41
1
10
32.5661484724032
20
-0.0710219453085585
30
-1E-16
41
1
10
32.521646594395
20
-0.0450511825987974
30
1E-16
41
1
10
32.4344662465632
20
0.011147020272432
30
0
41
1
10
32.3917999974999
20
0.0413952825064428
30
-1E-16
41
1
10
32.3286711034648
20
0.0891951801130801
30
0
41
1
10
32.3077756314337
20
0.105537271755679
30
0
41
1
10
32.2662146781555
20
0.138943525241075
30
-1E-16
41
1
10
32.2455617218745
20
0.155999512234558
30
1E-16
41
1
10
32.1842955919188
20
0.207752911710912
30
0
41
1
10
32.1442195049842
20
0.243150912772393
30
1E-16
41
1
10
32.104671912486
20
0.2791679984486
30
0
0
SPLINE
5
DC
100
AcDbEntity
8
1
62
256
6
ByLayer
370
18
48
1
60
0
100
AcDbSpline
70
4
71
3
72
8
73
4
40
0
40
0
40
0
40
0
40
1
40
1
40
1
40
1
41
1
10
24.0000000000001
20
-1.39096917480117
30
-1E-16
41
1
10
24
20
-1.41856736501262
30
0
41
1
10
24
20
-1.44616555522407
30
1E-16
41
1
10
24
20
-1.47376374543552
30
-1E-16
0
SPLINE
5
DD
100
AcDbEntity
8
1
62
256
6
ByLayer
370
18
48
1
60
0
100
AcDbSpline
70
4
71
3
72
16
73
12
40
0
40
0
40
0
40
0
40
0.25000000000001
40
0.25000000000001
40
0.50000000000002
40
0.50000000000002
40
0.625000000000005
40
0.625000000000005
40
0.749999999999991
40
0.749999999999991
40
1
40
1
40
1
40
1
41
1
10
32.1046719124859
20
-0.341548483216769
30
-1E-16
41
1
10
32.1553711796574
20
-0.385981585615525
30
0
41
1
10
32.2055883877631
20
-0.42937214774139
30
-1E-16
41
1
10
32.3055611404576
20
-0.513583889188169
30
1E-16
41
1
10
32.3553150282348
20
-0.554406905762477
30
0
41
1
10
32.429956536088
20
-0.61330013890651
30
1E-16
41
1
10
32.4548387624207
20
-0.632540310189881
30
-1E-16
41
1
10
32.5046685598709
20
-0.670157368942995
30
0
41
1
10
32.529639991732
20
-0.688551406498107
30
1E-16
41
1
10
32.604595846311
20
-0.742188577621874
30
0
41
1
10
32.6542225311081
20
-0.775610171365315
30
0
41
1
10
32.7037490659817
20
-0.806384590464461
30
-1E-16
0
SPLINE
5
DE
100
AcDbEntity
8
1
62
256
6
ByLayer
370
18
48
1
60
0
100
AcDbSpline
70
4
71
3
72
12
73
8
40
0
40
0
40
0
40
0
40
0.383454363405303
40
0.383454363405303
40
0.766908726810607
40
0.766908726810607
40
1
40
1
40
1
40
1
41
1
10
24
20
1.11811810566343
30
0
41
1
10
24
20
1.09217785630381
30
1E-16
41
1
10
24
20
1.0672135856706
30
-1E-16
41
1
10
24
20
1.02019989698627
30
1E-16
41
1
10
24
20
0.99815377255149
30
1E-16
41
1
10
24
20
0.965788346830976
30
0
41
1
10
24.0000000000001
20
0.954261769227486
30
0
41
1
10
24.0000000000001
20
0.943530105663172
30
0
0
SPLINE
5
DF
100
AcDbEntity
8
1
62
256
6
ByLayer
370
18
48
1
60
0
100
AcDbSpline
70
4
71
3
72
16
73
12
40
0
40
0
40
0
40
0
40
0.250000000000026
40
0.250000000000026
40
0.500000000000052
40
0.500000000000052
40
0.625000000000039
40
0.625000000000039
40
0.750000000000026
40
0.750000000000026
40
1
40
1
40
1
40
1
41
1
10
32.6121382185505
20
-1.69388659071396
30
0
41
1
10
32.5661484724047
20
-1.69623197014241
30
0
41
1
10
32.5216465943804
20
-1.6947991986973
30
0
41
1
10
32.4344662465518
20
-1.68571112595308
30
0
41
1
10
32.3917999974901
20
-1.67803839608246
30
-1E-16
41
1
10
32.3286711034572
20
-1.66231323852296
30
-1E-16
41
1
10
32.3077756314269
20
-1.65636509408881
30
1E-16
41
1
10
32.2662146781501
20
-1.64310068975394
30
1E-16
41
1
10
32.2455617218699
20
-1.63578529056056
30
1E-16
41
1
10
32.1842955919162
20
-1.61202020855774
30
0
41
1
10
32.1442195049829
20
-1.59371210486108
30
0
41
1
10
32.104671912486
20
-1.57311321994027
30
-1E-16
0
SPLINE
5
E0
100
AcDbEntity
8
1
62
256
6
ByLayer
370
18
48
1
60
0
100
AcDbSpline
70
4
71
3
72
8
73
4
40
0
40
0
40
0
40
0
40
1
40
1
40
1
40
1
41
1
10
24
20
2.09168662047321
30
0
41
1
10
24
20
2.06233043586053
30
1E-16
41
1
10
24
20
2.03297425124785
30
-1E-16
41
1
10
24
20
2.00361806663517
30
0
0
SPLINE
5
E1
100
AcDbEntity
8
1
62
256
6
ByLayer
370
18
48
1
60
0
100
AcDbSpline
70
4
71
3
72
8
73
4
40
0
40
0
40
0
40
0
40
1
40
1
40
1
40
1
41
1
10
24
20
-0.0116175516581905
30
0
41
1
10
24
20
-0.012621063456379
30
0
41
1
10
24
20
-0.013624575254596
30
0
41
1
10
24
20
-0.014628087052813
30
0
0
SPLINE
5
E2
100
AcDbEntity
8
1
62
256
6
ByLayer
370
18
48
1
60
0
100
AcDbSpline
70
4
71
3
72
16
73
12
40
0
40
0
40
0
40
0
40
0.125
40
0.125
40
0.25
40
0.25
40
0.5
40
0.5
40
0.75
40
0.75
40
1
40
1
40
1
40
1
41
1
10
24.0000000000001
20
0.927631113148834
30
0
41
1
10
23.9658698189582
20
0.956902050869644
30
0
41
1
10
23.9317715403715
20
0.985949944689935
30
-1E-16
41
1
10
23.8631367555246
20
1.04300062183654
30
2E-16
41
1
10
23.8285974612255
20
1.07100051145221
30
2E-16
41
1
10
23.72373586942
20
1.15279489936108
30
0
41
1
10
23.6520802049327
20
1.2042787641378
30
-2E-16
41
1
10
23.5044210710281
20
1.30065377696573
30
1E-16
41
1
10
23.4284704395114
20
1.34561910557178
30
0
41
1
10
23.273576492811
20
1.43093009474785
30
2E-16
41
1
10
23.1945847215082
20
1.47121764473755
30
1E-16
41
1
10
23.1144363298481
20
1.50969933100339
30
0
0
SPLINE
5
E3
100
AcDbEntity
8
1
62
256
6
ByLayer
370
18
48
1
60
0
100
AcDbSpline
70
4
71
3
72
30
73
26
40
0
40
0
40
0
40
0
40
0.125000000000001
40
0.125000000000001
40
0.250000000000002
40
0.250000000000002
40
0.375000000000003
40
0.375000000000003
40
0.437500000000008
40
0.437500000000008
40
0.500000000000013
40
0.500000000000013
40
0.625000000000016
40
0.625000000000016
40
0.687500000000016
40
0.687500000000016
40
0.718750000000017
40
0.718750000000017
40
0.750000000000017
40
0.750000000000017
40
0.875000000000009
40
0.875000000000009
40
0.937500000000005
40
0.937500000000005
40
1
40
1
40
1
40
1
41
1
10
23.1144363298482
20
1.5096993310033
30
0
41
1
10
23.0529850174846
20
1.53920397949369
30
-1E-16
41
1
10
22.9915110417736
20
1.56823601255073
30
1E-16
41
1
10
22.870087559127
20
1.62701104679752
30
0
41
1
10
22.8101390068711
20
1.65675529760557
30
-1E-16
41
1
10
22.6931785389387
20
1.71818734518968
30
0
41
1
10
22.6362025850024
20
1.74991564132145
30
-1E-16
41
1
10
22.5540665048656
20
1.79972965342085
30
0
41
1
10
22.5272415736946
20
1.81670121649432
30
0
41
1
10
22.4749058200317
20
1.85148485778873
30
1E-16
41
1
10
22.4493431951667
20
1.8693415457611
30
1E-16
41
1
10
22.3762925047653
20
1.92328223738707
30
-1E-16
41
1
10
22.3320125351443
20
1.96002505881782
30
1E-16
41
1
10
22.2730315797534
20
2.01587890378943
30
-1E-16
41
1
10
22.2546091910013
20
2.03461677527722
30
-1E-16
41
1
10
22.228928669385
20
2.06282084877682
30
1E-16
41
1
10
22.2206714844162
20
2.07226564819928
30
0
41
1
10
22.2049621332856
20
2.09100980536704
30
0
41
1
10
22.1975082352753
20
2.10030802998244
30
0
41
1
10
22.162218337552
20
2.14639602475336
30
1E-16
41
1
10
22.1402262910593
20
2.18197273003801
30
0
41
1
10
22.1171396179097
20
2.23280399668778
30
1E-16
41
1
10
22.111111672728
20
2.24938040364654
30
1E-16
41
1
10
22.1029642986229
20
2.28100593794608
30
0
41
1
10
22.1007990221119
20
2.2961233029599
30
-1E-16
41
1
10
22.1007990218355
20
2.31052091503995
30
-1E-16
0
SPLINE
5
E4
100
AcDbEntity
8
1
62
256
6
ByLayer
370
18
48
1
60
0
100
AcDbSpline
70
4
71
3
72
46
73
42
40
0
40
0
40
0
40
0
40
0.0625000000000192
40
0.0625000000000192
40
0.125000000000038
40
0.125000000000038
40
0.156250000000048
40
0.156250000000048
40
0.187500000000058
40
0.187500000000058
40
0.250000000000077
40
0.250000000000077
40
0.265625000000081
40
0.265625000000081
40
0.281250000000086
40
0.281250000000086
40
0.312500000000087
40
0.312500000000087
40
0.375000000000098
40
0.375000000000098
40
0.43750000000011
40
0.43750000000011
40
0.468750000000116
40
0.468750000000116
40
0.500000000000121
40
0.500000000000121
40
0.562500000000119
40
0.562500000000119
40
0.59375000000011
40
0.59375000000011
40
0.625000000000102
40
0.625000000000102
40
0.687500000000085
40
0.687500000000085
40
0.750000000000068
40
0.750000000000068
40
0.812500000000051
40
0.812500000000051
40
0.875000000000034
40
0.875000000000034
40
1
40
1
40
1
40
1
41
1
10
22.1007990218355
20
2.31052091503995
30
-1E-16
41
1
10
22.1007990216012
20
2.32272862096892
30
0
41
1
10
22.1023740530491
20
2.3342361056001
30
0
41
1
10
22.1089759617211
20
2.35587620582049
30
0
41
1
10
22.1139968668643
20
2.36600916672504
30
0
41
1
10
22.124583443442
20
2.38017266859347
30
0
41
1
10
22.1286244817675
20
2.38472090548183
30
0
41
1
10
22.1378631653305
20
2.3934661447833
30
1E-16
41
1
10
22.1430883127779
20
2.39767843482315
30
0
41
1
10
22.1604388516582
20
2.40956290583287
30
0
41
1
10
22.1742608622026
20
2.41654546311375
30
0
41
1
10
22.1949735352782
20
2.42412880513339
30
0
41
1
10
22.1992894224578
20
2.42558799809675
30
0
41
1
10
22.2082907342802
20
2.42839114716455
30
0
41
1
10
22.2129877084876
20
2.42973751309023
30
0
41
1
10
22.2274752225812
20
2.43355420441438
30
0
41
1
10
22.2377100970551
20
2.43581947203268
30
0
41
1
10
22.2701979631532
20
2.44183824863444
30
1E-16
41
1
10
22.2942582614879
20
2.44481890599434
30
0
41
1
10
22.3474283915211
20
2.44894080502675
30
0
41
1
10
22.3753709733866
20
2.45000249553786
30
0
41
1
10
22.4190111923446
20
2.45050210440283
30
0
41
1
10
22.4339206187771
20
2.45048278507426
30
0
41
1
10
22.4638965316079
20
2.45012414184848
30
0
41
1
10
22.4789152611685
20
2.44978762390986
30
0
41
1
10
22.5240511310977
20
2.44838803798885
30
0
41
1
10
22.5542475275332
20
2.44693940157995
30
0
41
1
10
22.599664320286
20
2.44418012711617
30
0
41
1
10
22.614849053227
20
2.44315935837253
30
0
41
1
10
22.6451434411052
20
2.44094411566817
30
1E-16
41
1
10
22.6601770790891
20
2.43975557407197
30
-1E-16
41
1
10
22.7049839228895
20
2.43597191302558
30
0
41
1
10
22.7344655358459
20
2.43316061333999
30
0
41
1
10
22.7928234715448
20
2.42703228032613
30
0
41
1
10
22.8216986326197
20
2.42371425332237
30
0
41
1
10
22.8789534846641
20
2.41659661147071
30
0
41
1
10
22.9073326730479
20
2.41279654943514
30
0
41
1
10
22.9636773944127
20
2.4047212446647
30
0
41
1
10
22.9916211712426
20
2.40044714282155
30
0
41
1
10
23.0744755046974
20
2.38697750815499
30
0
41
1
10
23.1285874330692
20
2.37711365099335
30
0
41
1
10
23.181899257819
20
2.36634273915391
30
0
0
SPLINE
5
E5
100
AcDbEntity
8
1
62
256
6
ByLayer
370
18
48
1
60
0
100
AcDbSpline
70
4
71
3
72
14
73
10
40
0
40
0
40
0
40
0
40
0.25
40
0.25
40
0.5
40
0.5
40
0.75
40
0.75
40
1
40
1
40
1
40
1
41
1
10
23.181899257819
20
2.36634273915391
30
0
41
1
10
23.2568142338218
20
2.35120721142121
30
0
41
1
10
23.3301201034929
20
2.33461902074532
30
0
41
1
10
23.4730941142065
20
2.2977281309289
30
-1E-16
41
1
10
23.542735270541
20
2.27740994812581
30
0
41
1
10
23.6783749973089
20
2.2322704560315
30
0
41
1
10
23.7443686399969
20
2.20743696880135
30
-1E-16
41
1
10
23.8735201155841
20
2.15289002111729
30
1E-16
41
1
10
23.9367301443454
20
2.1231757226123
30
-1E-16
41
1
10
24.0000000000001
20
2.09168662047318
30
0
0
SPLINE
5
E6
100
AcDbEntity
8
1
62
256
6
ByLayer
370
18
48
1
60
0
100
AcDbSpline
70
4
71
3
72
30
73
26
40
0
40
0
40
0
40
0
40
0.125000000000004
40
0.125000000000004
40
0.250000000000009
40
0.250000000000009
40
0.375000000000013
40
0.375000000000013
40
0.437500000000011
40
0.437500000000011
40
0.500000000000008
40
0.500000000000008
40
0.625000000000011
40
0.625000000000011
40
0.687500000000013
40
0.687500000000013
40
0.718750000000014
40
0.718750000000014
40
0.750000000000014
40
0.750000000000014
40
0.875000000000007
40
0.875000000000007
40
0.937500000000004
40
0.937500000000004
40
1
40
1
40
1
40
1
41
1
10
23.1144363298482
20
-2.44612702709392
30
0
41
1
10
23.0529850174846
20
-2.44465187825563
30
0
41
1
10
22.9915110417737
20
-2.4424706429636
30
0
41
1
10
22.870087559127
20
-2.43613812377095
30
0
41
1
10
22.810139006871
20
-2.43198688637634
30
0
41
1
10
22.6931785389387
20
-2.42080296887596
30
0
41
1
10
22.6362025850024
20
-2.41376158023348
30
0
41
1
10
22.5540665048656
20
-2.39996460115589
30
0
41
1
10
22.5272415736946
20
-2.39482288645783
30
-1E-16
41
1
10
22.4749058200317
20
-2.38320357702156
30
0
41
1
10
22.4493431951667
20
-2.37670322914596
30
0
41
1
10
22.3762925047653
20
-2.35516879975302
30
0
41
1
10
22.3320125351443
20
-2.33803041797907
30
0
41
1
10
22.2730315797534
20
-2.30692507469604
30
0
41
1
10
22.2546091910013
20
-2.29565446308988
30
0
41
1
10
22.228928669385
20
-2.27721114065878
30
0
41
1
10
22.2206714844163
20
-2.27078697296699
30
0
41
1
10
22.2049621332857
20
-2.25750727336828
30
0
41
1
10
22.1975082352753
20
-2.25065447192267
30
-1E-16
41
1
10
22.162218337552
20
-2.21529878189963
30
1E-16
41
1
10
22.1402262910593
20
-2.18354924865668
30
0
41
1
10
22.1171396179098
20
-2.12992696630354
30
1E-16
41
1
10
22.111111672728
20
-2.1109678161778
30
1E-16
41
1
10
22.1029642986229
20
-2.07157836826931
30
0
41
1
10
22.1007990221119
20
-2.0510871850604
30
-1E-16
41
1
10
22.1007990218355
20
-2.0297558371015
30
1E-16
0
SPLINE
5
E7
100
AcDbEntity
8
1
62
256
6
ByLayer
370
18
48
1
60
0
100
AcDbSpline
70
4
71
3
72
46
73
42
40
0
40
0
40
0
40
0
40
0.0624999999999886
40
0.0624999999999886
40
0.124999999999977
40
0.124999999999977
40
0.156249999999974
40
0.156249999999974
40
0.18749999999997
40
0.18749999999997
40
0.249999999999957
40
0.249999999999957
40
0.265624999999954
40
0.265624999999954
40
0.28124999999995
40
0.28124999999995
40
0.312499999999943
40
0.312499999999943
40
0.374999999999939
40
0.374999999999939
40
0.437499999999935
40
0.437499999999935
40
0.468749999999933
40
0.468749999999933
40
0.499999999999931
40
0.499999999999931
40
0.562499999999927
40
0.562499999999927
40
0.593749999999932
40
0.593749999999932
40
0.624999999999938
40
0.624999999999938
40
0.687499999999948
40
0.687499999999948
40
0.749999999999958
40
0.749999999999958
40
0.812499999999969
40
0.812499999999969
40
0.874999999999979
40
0.874999999999979
40
1
40
1
40
1
40
1
41
1
10
22.1007990218355
20
-2.0297558371015
30
1E-16
41
1
10
22.1007990216012
20
-2.01166903065732
30
1E-16
41
1
10
22.1023740530492
20
-1.99324567785135
30
0
41
1
10
22.1089759617211
20
-1.95579250034308
30
-1E-16
41
1
10
22.1139968668643
20
-1.93676205603737
30
1E-16
41
1
10
22.124583443442
20
-1.90782811907295
30
0
41
1
10
22.1286244817675
20
-1.89811898697136
30
0
41
1
10
22.1378631653305
20
-1.87858733624771
30
0
41
1
10
22.1430883127779
20
-1.86872412733769
30
-1E-16
41
1
10
22.1604388516582
20
-1.83953188385877
30
1E-16
41
1
10
22.1742608622027
20
-1.82047295871897
30
0
41
1
10
22.1949735352783
20
-1.79747294603442
30
0
41
1
10
22.1992894224578
20
-1.79291472641412
30
0
41
1
10
22.2082907342802
20
-1.78389268187539
30
0
41
1
10
22.2129877084876
20
-1.77941974598465
30
0
41
1
10
22.2274752225812
20
-1.76633182689451
30
-1E-16
41
1
10
22.2377100970551
20
-1.75799498987516
30
-1E-16
41
1
10
22.2701979631532
20
-1.73424324989077
30
1E-16
41
1
10
22.2942582614879
20
-1.72007740762734
30
0
41
1
10
22.3474283915211
20
-1.69569581920089
30
0
41
1
10
22.3753709733866
20
-1.68600485219639
30
0
41
1
10
22.4190111923446
20
-1.67474855422202
30
-1E-16
41
1
10
22.4339206187771
20
-1.67153229055825
30
-1E-16
41
1
10
22.4638965316079
20
-1.6661911156643
30
-1E-16
41
1
10
22.4789152611685
20
-1.66406677363892
30
-1E-16
41
1
10
22.5240511310977
20
-1.6591045457167
30
-1E-16
41
1
10
22.5542475275333
20
-1.65766942518778
30
1E-16
41
1
10
22.599664320286
20
-1.65767781974836
30
1E-16
41
1
10
22.614849053227
20
-1.65804464860355
30
1E-16
41
1
10
22.6451434411052
20
-1.65942227822433
30
-1E-16
41
1
10
22.6601770790891
20
-1.66042805448106
30
-1E-16
41
1
10
22.7049839228895
20
-1.66425874604869
30
-1E-16
41
1
10
22.734465535846
20
-1.66789018919235
30
-1E-16
41
1
10
22.7928234715448
20
-1.67677717131735
30
-1E-16
41
1
10
22.8216986326198
20
-1.68203580696093
30
-1E-16
41
1
10
22.8789534846641
20
-1.69382306673404
30
0
41
1
10
22.9073326730479
20
-1.70035301541424
30
0
41
1
10
22.9636773944127
20
-1.71440891364023
30
0
41
1
10
22.9916211712426
20
-1.72193442466866
30
0
41
1
10
23.0744755046974
20
-1.74556528403392
30
1E-16
41
1
10
23.1285874330692
20
-1.76274483042556
30
-1E-16
41
1
10
23.181899257819
20
-1.78070641744864
30
0
0
SPLINE
5
E8
100
AcDbEntity
8
1
62
256
6
ByLayer
370
18
48
1
60
0
100
AcDbSpline
70
4
71
3
72
14
73
10
40
0
40
0
40
0
40
0
40
0.25
40
0.25
40
0.5
40
0.5
40
0.75
40
0.75
40
1
40
1
40
1
40
1
41
1
10
23.181899257819
20
-1.78070641744864
30
0
41
1
10
23.2568142338218
20
-1.80594644378664
30
0
41
1
10
23.3301201034929
20
-1.83195618696769
30
1E-16
41
1
10
23.4730941142065
20
-1.88530776391158
30
0
41
1
10
23.542735270541
20
-1.91267092062887
30
0
41
1
10
23.6783749973089
20
-1.96798828847579
30
-1E-16
41
1
10
23.7443686399969
20
-1.99593753034927
30
0
41
1
10
23.8735201155841
20
-2.05099356271373
30
-1E-16
41
1
10
23.9367301443454
20
-2.07802992563455
30
0
41
1
10
24.0000000000001
20
-2.10330417213137
30
0
0
SPLINE
5
E9
100
AcDbEntity
8
1
62
256
6
ByLayer
370
18
48
1
60
0
100
AcDbSpline
70
4
71
3
72
16
73
12
40
0
40
0
40
0
40
0
40
0.124999999999995
40
0.124999999999995
40
0.24999999999999
40
0.24999999999999
40
0.499999999999993
40
0.499999999999993
40
0.749999999999996
40
0.749999999999996
40
1
40
1
40
1
40
1
41
1
10
24.0000000000001
20
-1.47376374543566
30
-1E-16
41
1
10
23.9658698189582
20
-1.45029492706027
30
1E-16
41
1
10
23.9317715403715
20
-1.42645627504564
30
0
41
1
10
23.8631367555246
20
-1.37863086438577
30
1E-16
41
1
10
23.8285974612255
20
-1.35464794188567
30
1E-16
41
1
10
23.72373586942
20
-1.28324688463366
30
-1E-16
41
1
10
23.6520802049327
20
-1.23648417722941
30
-2E-16
41
1
10
23.5044210710282
20
-1.14629424110791
30
0
41
1
10
23.4284704395114
20
-1.10281891981918
30
-1E-16
41
1
10
23.273576492811
20
-1.01806011581593
30
2E-16
41
1
10
23.1945847215082
20
-0.976833357651685
30
1E-16
41
1
10
23.1144363298481
20
-0.93642769609059
30
0
0
SPLINE
5
EA
100
AcDbEntity
8
1
62
256
6
ByLayer
370
18
48
1
60
0
100
AcDbSpline
70
4
71
3
72
14
73
10
40
0
40
0
40
0
40
0
40
0.25
40
0.25
40
0.5
40
0.5
40
0.75
40
0.75
40
1
40
1
40
1
40
1
41
1
10
23.181899257819
20
0.585636321705238
30
0
41
1
10
23.2568142338218
20
0.545260767634574
30
1E-16
41
1
10
23.330120103493
20
0.502662833777634
30
2E-16
41
1
10
23.4730941142065
20
0.412420367017319
30
-1E-16
41
1
10
23.542735270541
20
0.364739027496938
30
0
41
1
10
23.6783749973089
20
0.264282167555706
30
-2E-16
41
1
10
23.7443686399969
20
0.21149943845208
30
-1E-16
41
1
10
23.8735201155841
20
0.101896458403559
30
2E-16
41
1
10
23.9367301443454
20
0.0451457969777493
30
-1E-16
41
1
10
24
20
-0.0116175516581905
30
0
0
SPLINE
5
EB
100
AcDbEntity
8
1
62
256
6
ByLayer
370
18
48
1
60
0
100
AcDbSpline
70
4
71
3
72
8
73
4
40
0
40
0
40
0
40
0
40
1
40
1
40
1
40
1
41
1
10
24
20
-0.014628087052813
30
0
41
0.880978269556134
10
24
20
-0.0247798319002651
30
1E-16
41
0.880978269556134
10
24
20
-0.225326301307997
30
1E-16
41
1
10
24
20
-0.544659331806088
30
-1E-16
0
SPLINE
5
EC
100
AcDbEntity
8
1
62
256
6
ByLayer
370
18
48
1
60
0
100
AcDbSpline
70
4
71
3
72
46
73
42
40
0
40
0
40
0
40
0
40
0.0625000000000182
40
0.0625000000000182
40
0.125000000000036
40
0.125000000000036
40
0.156250000000047
40
0.156250000000047
40
0.187500000000058
40
0.187500000000058
40
0.250000000000079
40
0.250000000000079
40
0.265625000000084
40
0.265625000000084
40
0.281250000000089
40
0.281250000000089
40
0.312500000000091
40
0.312500000000091
40
0.375000000000084
40
0.375000000000084
40
0.437500000000077
40
0.437500000000077
40
0.468750000000074
40
0.468750000000074
40
0.50000000000007
40
0.50000000000007
40
0.562500000000049
40
0.562500000000049
40
0.593750000000046
40
0.593750000000046
40
0.625000000000042
40
0.625000000000042
40
0.687500000000035
40
0.687500000000035
40
0.750000000000028
40
0.750000000000028
40
0.812500000000021
40
0.812500000000021
40
0.875000000000014
40
0.875000000000014
40
1
40
1
40
1
40
1
41
1
10
22.1007990218355
20
0.28076507793844
30
-2E-16
41
1
10
22.1007990216012
20
0.311059590311629
30
2E-16
41
1
10
22.1023740530492
20
0.34099042774875
30
1E-16
41
1
10
22.1089759617212
20
0.400083705477442
30
0
41
1
10
22.1139968668643
20
0.429247110687697
30
-1E-16
41
1
10
22.1245834434421
20
0.472344549520528
30
-2E-16
41
1
10
22.1286244817675
20
0.486601918510473
30
2E-16
41
1
10
22.1378631653304
20
0.514878808535627
30
1E-16
41
1
10
22.1430883127779
20
0.528954307485492
30
1E-16
41
1
10
22.1604388516582
20
0.570031021974103
30
0
41
1
10
22.1742608622027
20
0.596072504394812
30
-1E-16
41
1
10
22.1949735352783
20
0.626655859099003
30
-1E-16
41
1
10
22.1992894224578
20
0.63267327168262
30
-2E-16
41
1
10
22.2082907342802
20
0.644498465289189
30
-2E-16
41
1
10
22.2129877084876
20
0.650317767105577
30
-2E-16
41
1
10
22.2274752225812
20
0.667222377519863
30
2E-16
41
1
10
22.2377100970552
20
0.677824482157547
30
2E-16
41
1
10
22.2701979631532
20
0.707594998743701
30
1E-16
41
1
10
22.2942582614879
20
0.724741498366996
30
1E-16
41
1
10
22.3474283915211
20
0.753244985825859
30
0
41
1
10
22.3753709733867
20
0.763997643341469
30
0
41
1
10
22.4190111923447
20
0.775753550180838
30
0
41
1
10
22.4339206187771
20
0.77895049451601
30
0
41
1
10
22.4638965316079
20
0.783933026184201
30
-1E-16
41
1
10
22.4789152611685
20
0.785720850270934
30
-1E-16
41
1
10
22.5240511310977
20
0.789283492272148
30
-1E-16
41
1
10
22.5542475275333
20
0.789269976392177
30
-1E-16
41
1
10
22.599664320286
20
0.786502307367812
30
-1E-16
41
1
10
22.614849053227
20
0.785114709768976
30
-1E-16
41
1
10
22.6451434411052
20
0.781521837443847
30
-1E-16
41
1
10
22.6601770790891
20
0.779327519590908
30
0
41
1
10
22.7049839228895
20
0.771713166976895
30
0
41
1
10
22.7344655358459
20
0.765270424147644
30
0
41
1
10
22.7928234715448
20
0.750255109008805
30
0
41
1
10
22.8216986326198
20
0.741678446361448
30
0
41
1
10
22.8789534846641
20
0.722773544736668
30
1E-16
41
1
10
22.9073326730479
20
0.712443534020906
30
1E-16
41
1
10
22.9636773944127
20
0.690312331024472
30
2E-16
41
1
10
22.9916211712426
20
0.678512718152859
30
2E-16
41
1
10
23.0744755046974
20
0.641412224121041
30
-2E-16
41
1
10
23.1285874330692
20
0.61436882056779
30
-1E-16
41
1
10
23.181899257819
20
0.585636321705238
30
0
0
SPLINE
5
ED
100
AcDbEntity
8
1
62
256
6
ByLayer
370
18
48
1
60
0
100
AcDbSpline
70
4
71
3
72
8
73
4
40
0
40
0
40
0
40
0
40
1
40
1
40
1
40
1
41
0.983049958413853
10
24
20
-1.35831985098222
30
1E-16
41
0.988378541548197
10
24
20
-1.36957853967693
30
1E-16
41
0.994028555410246
10
24
20
-1.38046303201223
30
-1E-16
41
1
10
24.0000000000001
20
-1.39096917480117
30
-1E-16
0
SPLINE
5
EE
100
AcDbEntity
8
1
62
256
6
ByLayer
370
18
48
1
60
0
100
AcDbSpline
70
4
71
3
72
22
73
18
40
0
40
0
40
0
40
0
40
0.125
40
0.125
40
0.25
40
0.25
40
0.375
40
0.375
40
0.5
40
0.5
40
0.625
40
0.625
40
0.75
40
0.75
40
0.875
40
0.875
40
1
40
1
40
1
40
1
41
1
10
24
20
-0.544659331806088
30
-1E-16
41
1
10
24
20
-0.577338466645188
30
0
41
1
10
24
20
-0.611394967328778
30
1E-16
41
1
10
24
20
-0.681552241455137
30
0
41
1
10
24
20
-0.717651501731353
30
-1E-16
41
1
10
24
20
-0.790963448014139
30
1E-16
41
1
10
24.0000000000001
20
-0.828173366195017
30
-1E-16
41
1
10
24.0000000000001
20
-0.902620525712962
30
-1E-16
41
1
10
24
20
-0.939854139880566
30
0
41
1
10
24
20
-1.01320515629035
30
-1E-16
41
1
10
24.0000000000001
20
-1.04931876832862
30
0
41
1
10
24
20
-1.11934298855192
30
0
41
1
10
24.0000000000001
20
-1.15325042561437
30
0
41
1
10
24.0000000000001
20
-1.21793965546863
30
0
41
1
10
24
20
-1.24871949665069
30
0
41
1
10
24
20
-1.30647393114239
30
0
41
1
10
24
20
-1.33344802533591
30
0
41
1
10
24.0000000000001
20
-1.35831985098224
30
1E-16
0
SPLINE
5
EF
100
AcDbEntity
8
1
62
256
6
ByLayer
370
18
48
1
60
0
100
AcDbSpline
70
4
71
3
72
30
73
26
40
0
40
0
40
0
40
0
40
0.125000000000001
40
0.125000000000001
40
0.250000000000003
40
0.250000000000003
40
0.375000000000004
40
0.375000000000004
40
0.437500000000004
40
0.437500000000004
40
0.500000000000005
40
0.500000000000005
40
0.625000000000006
40
0.625000000000006
40
0.687500000000007
40
0.687500000000007
40
0.718750000000007
40
0.718750000000007
40
0.750000000000008
40
0.750000000000008
40
0.875000000000004
40
0.875000000000004
40
0.937500000000002
40
0.937500000000002
40
1
40
1
40
1
40
1
41
1
10
23.1144363298482
20
-0.936427696090618
30
0
41
1
10
23.0529850174845
20
-0.905447898761935
30
-1E-16
41
1
10
22.9915110417736
20
-0.874234630412872
30
-2E-16
41
1
10
22.870087559127
20
-0.809127076973425
30
1E-16
41
1
10
22.810139006871
20
-0.775231588770737
30
0
41
1
10
22.6931785389387
20
-0.702615623686285
30
-1E-16
41
1
10
22.6362025850024
20
-0.663845938912033
30
-2E-16
41
1
10
22.5540665048656
20
-0.600234947735032
30
1E-16
41
1
10
22.5272415736945
20
-0.57812166996348
30
0
41
1
10
22.4749058200317
20
-0.531718719232828
30
-1E-16
41
1
10
22.4493431951667
20
-0.507361683384829
30
-1E-16
41
1
10
22.3762925047653
20
-0.431886562365918
30
1E-16
41
1
10
22.3320125351443
20
-0.37800535916125
30
0
41
1
10
22.2730315797534
20
-0.291046170906611
30
-2E-16
41
1
10
22.2546091910013
20
-0.261037687812632
30
2E-16
41
1
10
22.228928669385
20
-0.214390291881955
30
1E-16
41
1
10
22.2206714844162
20
-0.198521324767711
30
0
41
1
10
22.2049621332856
20
-0.166497468001211
30
-1E-16
41
1
10
22.1975082352753
20
-0.150346441940201
30
-1E-16
41
1
10
22.1622183375521
20
-0.0689027571462475
30
2E-16
41
1
10
22.1402262910593
20
-0.0015765186186627
30
0
41
1
10
22.1171396179098
20
0.102877030384263
30
2E-16
41
1
10
22.111111672728
20
0.138412587468764
30
1E-16
41
1
10
22.1029642986229
20
0.209427569676762
30
0
41
1
10
22.1007990221119
20
0.245036117899531
30
-1E-16
41
1
10
22.1007990218355
20
0.28076507793844
30
-2E-16
0
SPLINE
5
F0
100
AcDbEntity
8
1
62
256
6
ByLayer
370
18
48
1
60
0
100
AcDbSpline
70
4
71
3
72
24
73
20
40
0
40
0
40
0
40
0
40
0.0380232113864839
40
0.0995558552830098
40
0.161088499179536
40
0.222621143076062
40
0.284153786972588
40
0.345686430869114
40
0.40721907476564
40
0.468751718662166
40
0.530284362558691
40
0.591817006455218
40
0.653349650351743
40
0.71488229424827
40
0.776414938144795
40
0.837947582041321
40
0.899480225937847
40
0.961012869834373
40
1
40
1
40
1
40
1
41
1
10
26.9318951241777
20
0.654643366126464
30
1E-16
41
1
10
26.996263416119
20
0.600371331595596
30
1E-16
41
1
10
27.1647983747334
20
0.456757816234159
30
1E-16
41
1
10
27.4374999999836
20
0.219775091709465
30
-1E-16
41
1
10
27.7500000038023
20
-0.0539864020590812
30
1E-16
41
1
10
28.0624999848068
20
-0.325496595967707
30
-1E-16
41
1
10
28.375000000016
20
-0.590101227658664
30
1E-16
41
1
10
28.6875000151313
20
-0.843354488546936
30
0
41
1
10
28.9999999992041
20
-1.08058996244773
30
1E-16
41
1
10
29.3124999880503
20
-1.29753062244495
30
-1E-16
41
1
10
29.6250000000053
20
-1.48979349685632
30
-1E-16
41
1
10
29.9375000119303
20
-1.65396654245669
30
1E-16
41
1
10
30.2499999970232
20
-1.78655940963336
30
0
41
1
10
30.5624999999756
20
-1.88514792002243
30
0
41
1
10
30.8750000000118
20
-1.94734941995475
30
0
41
1
10
31.1874999999774
20
-1.97199784473563
30
0
41
1
10
31.500000000013
20
-1.95811107787546
30
0
41
1
10
31.7743334128618
20
-1.91231476930787
30
0
41
1
10
31.9445001599013
20
-1.86715726088954
30
0
41
1
10
32.0105002393545
20
-1.84719700586825
30
0
0
SPLINE
5
F1
100
AcDbEntity
8
1
62
256
6
ByLayer
370
18
48
1
60
0
100
AcDbSpline
70
4
71
3
72
9
73
5
40
0
40
0
40
0
40
0
40
0.913406197805441
40
1
40
1
40
1
40
1
41
1
10
24.5692669173021
20
1.67793822222623
30
0
41
1
10
24.5878446083915
20
1.67726711238029
30
0
41
1
10
24.6081835236647
20
1.67640852379353
30
0
41
1
10
24.628522439273
20
1.6754150358563
30
0
41
1
10
24.6302836633105
20
1.67532799495169
30
0
0
SPLINE
5
F2
100
AcDbEntity
8
1
62
256
6
ByLayer
370
18
48
1
60
0
100
AcDbSpline
70
4
71
3
72
23
73
19
40
0
40
0
40
0
40
0
40
0.0207080670406601
40
0.088938197263145
40
0.15716832748563
40
0.225398457708115
40
0.293628587930599
40
0.361858718153084
40
0.430088848375569
40
0.498318978598054
40
0.566549108820539
40
0.634779239043024
40
0.703009369265509
40
0.771239499487993
40
0.839469629710478
40
0.907699759932963
40
0.975929890155448
40
1
40
1
40
1
40
1
41
1
10
26.0926552334554
20
1.38123085573926
30
0
41
1
10
26.1242701560889
20
1.37033979822428
30
0
41
1
10
26.2600517436089
20
1.32239237450625
30
0
41
1
10
26.5000000000074
20
1.22892561569816
30
0
41
1
10
26.812499999982
20
1.09104845446811
30
1E-16
41
1
10
27.1250000000086
20
0.938353862085137
30
0
41
1
10
27.4374999999833
20
0.772563146163151
30
0
41
1
10
27.7500000038026
20
0.595446242260294
30
-1E-16
41
1
10
28.0624999848077
20
0.409114505637632
30
-1E-16
41
1
10
28.3750000000136
20
0.21582441366462
30
-1E-16
41
1
10
28.6875000151318
20
0.018068223532282
30
0
41
1
10
28.999999999206
20
-0.181408949343677
30
0
41
1
10
29.3124999880497
20
-0.379640036857268
30
0
41
1
10
29.6250000000038
20
-0.573347856832697
30
0
41
1
10
29.9375000119307
20
-0.759458925672732
30
0
41
1
10
30.2499999970245
20
-0.93456162970233
30
0
41
1
10
30.4950810730118
20
-1.06080081847153
30
-1E-16
41
1
10
30.6359954804608
20
-1.12802928380816
30
-1E-16
41
1
10
30.6727432208768
20
-1.14517540323465
30
-1E-16
0
SPLINE
5
F3
100
AcDbEntity
8
1
62
256
6
ByLayer
370
18
48
1
60
0
100
AcDbSpline
70
4
71
3
72
24
73
20
40
0
40
0
40
0
40
0
40
0.0394680386054982
40
0.101451371498156
40
0.163434704390813
40
0.22541803728347
40
0.287401370176128
40
0.349384703068785
40
0.411368035961443
40
0.4733513688541
40
0.535334701746757
40
0.597318034639415
40
0.659301367532072
40
0.72128470042473
40
0.783268033317387
40
0.845251366210045
40
0.907234699102702
40
0.96921803199536
40
1
40
1
40
1
40
1
41
0.98674820562452
10
26.92608460824
20
0.660385204848541
30
1E-16
41
0.986888404392823
10
26.9924044273339
20
0.606053304450128
30
1E-16
41
0.987255478541161
10
27.1628619096167
20
0.464827588475114
30
1E-16
41
0.98787181991917
10
27.4374999999836
20
0.232553029216949
30
-1E-16
41
0.988601818580505
10
27.7500000038023
20
-0.0341926157449912
30
1E-16
41
0.989354611072282
10
28.0624999848069
20
-0.299136849330551
30
-2E-16
41
0.990124187141068
10
28.3750000000158
20
-0.557821600796165
30
0
41
0.990904609876292
10
28.6875000151313
20
-0.805976278817574
30
-1E-16
41
0.991689863083979
10
28.9999999992042
20
-1.03910284915555
30
0
41
0.992473880147324
10
29.3124999880502
20
-1.25305741896553
30
0
41
0.993250520026796
10
29.6250000000052
20
-1.44357046530211
30
1E-16
41
0.99401383847732
10
29.9375000119304
20
-1.60729256741403
30
0
41
0.994757817059438
10
30.2499999970233
20
-1.74077081503546
30
0
41
0.99547650987028
10
30.5624999999755
20
-1.84156428862084
30
0
41
0.996163909951506
10
30.8750000000118
20
-1.90724361169081
30
0
41
0.996814052196032
10
31.1874999999774
20
-1.93654320928289
30
0
41
0.997420934966774
10
31.5000000000129
20
-1.92835148794859
30
0
41
0.997885017356594
10
31.7600886420591
20
-1.89039835559383
30
0
41
0.998142602762074
10
31.9160109418454
20
-1.85383358543029
30
0
41
0.998225684205342
10
31.9677451608512
20
-1.840212096151
30
0
0
SPLINE
5
F4
100
AcDbEntity
8
1
62
256
6
ByLayer
370
18
48
1
60
0
100
AcDbSpline
70
4
71
3
72
8
73
4
40
0
40
0
40
0
40
0
40
1
40
1
40
1
40
1
41
0.999013482736601
10
32.517786765926
20
-1.64083109056507
30
0
41
0.999027701357291
10
32.5291747732491
20
-1.63561128559669
30
0
41
0.999041783019575
10
32.5405629443847
20
-1.63032636520727
30
0
41
0.999055726413113
10
32.5519512695972
20
-1.62497696667343
30
0
0
SPLINE
5
F5
100
AcDbEntity
8
1
62
256
6
ByLayer
370
18
48
1
60
0
100
AcDbSpline
70
4
71
3
72
23
73
19
40
0
40
0
40
0
40
0
40
0.0531989149731196
40
0.119806966384517
40
0.186415017795913
40
0.25302306920731
40
0.319631120618707
40
0.386239172030104
40
0.452847223441501
40
0.519455274852897
40
0.586063326264294
40
0.652671377675691
40
0.719279429087088
40
0.785887480498485
40
0.852495531909882
40
0.919103583321278
40
0.985711634732675
40
1
40
1
40
1
40
1
41
1
10
24.6879106339423
20
2.21029262974864
30
0
41
1
10
24.7711070920889
20
2.22457031478953
30
0
41
1
10
24.9584702304235
20
2.24920327461663
30
0
41
1
10
25.2500000010738
20
2.26084813907272
30
0
41
1
10
25.5624999774298
20
2.24088992983175
30
0
41
1
10
25.8750000077604
20
2.18880031103302
30
0
41
1
10
26.1874999999873
20
2.10505556867085
30
0
41
1
10
26.5000000000077
20
1.99068273880414
30
0
41
1
10
26.812499999982
20
1.84733804469496
30
-1E-16
41
1
10
27.1250000000086
20
1.67686439152476
30
1E-16
41
1
10
27.4374999999835
20
1.48189359241383
30
1E-16
41
1
10
27.7500000038024
20
1.26516178355118
30
-1E-16
41
1
10
28.0624999848072
20
1.030094540926
30
0
41
1
10
28.375000000015
20
0.78023932048464
30
-1E-16
41
1
10
28.6875000151315
20
0.519626031297037
30
1E-16
41
1
10
28.999999999205
20
0.252450118385923
30
-1E-16
41
1
10
29.2306785415934
20
0.053762175827444
30
0
41
1
10
29.3571904267149
20
-0.0545218511809935
30
1E-16
41
1
10
29.3795356443492
20
-0.0736188069548689
30
1E-16
0
SPLINE
5
F6
100
AcDbEntity
8
1
62
256
6
ByLayer
370
18
48
1
60
0
100
AcDbSpline
70
4
71
3
72
16
73
12
40
0
40
0
40
0
40
0
40
0.111143485045287
40
0.222286970090573
40
0.33343045513586
40
0.444573940181146
40
0.555717425226433
40
0.66686091027172
40
0.778004395317006
40
0.889147880362293
40
1
40
1
40
1
40
1
41
1
10
24
20
2.00361806663517
30
0
41
1
10
24.1041666404013
20
1.95361264402155
30
1E-16
41
1
10
24.3124999993233
20
1.84490441760053
30
-1E-16
41
1
10
24.6249999824091
20
1.65773304815778
30
-1E-16
41
1
10
24.9375000182771
20
1.44882987557639
30
-1E-16
41
1
10
25.2500000010738
20
1.22121156353057
30
0
41
1
10
25.5624999774298
20
0.977842161860139
30
-1E-16
41
1
10
25.8750000077604
20
0.722271329884478
30
1E-16
41
1
10
26.1874999999873
20
0.45809702921062
30
-2E-16
41
1
10
26.4997269245029
20
0.189438368902927
30
0
41
1
10
26.7077871823143
20
0.0099372639110982
30
1E-16
41
1
10
26.8116807734761
20
-0.0791343018077839
30
1E-16
0
SPLINE
5
F7
100
AcDbEntity
8
1
62
256
6
ByLayer
370
18
48
1
60
0
100
AcDbSpline
70
4
71
3
72
20
73
16
40
0
40
0
40
0
40
0
40
0.0430498655443024
40
0.123621227800783
40
0.204192590057263
40
0.284763952313743
40
0.365335314570224
40
0.445906676826704
40
0.526478039083184
40
0.607049401339664
40
0.687620763596145
40
0.768192125852625
40
0.848763488109105
40
0.929334850365586
40
1
40
1
40
1
40
1
41
0.991270398573617
10
28.8331114322406
20
1.12142672867744
30
0
41
0.991410107399076
10
28.8887606234852
20
1.0803636159251
30
1E-16
41
0.991811566763139
10
29.0485420494862
20
0.959983238145583
30
1E-16
41
0.992473880147324
10
29.3124999880502
20
0.750745108711992
30
0
41
0.993250520026796
10
29.6250000000052
20
0.491291499162495
30
0
41
0.99401383847732
10
29.9375000119304
20
0.224663358791881
30
-1E-16
41
0.994757817059438
10
30.2499999970233
20
-0.044356866714001
30
1E-16
41
0.99547650987028
10
30.5624999999755
20
-0.31088505280067
30
1E-16
41
0.996163909951506
10
30.8750000000118
20
-0.569842161487379
30
0
41
0.996814052196032
10
31.1874999999774
20
-0.816346850015475
30
-1E-16
41
0.997420934966774
10
31.5000000000129
20
-1.04541849430661
30
0
41
0.99797858848306
10
31.8124999999707
20
-1.25256776672286
30
0
41
0.998481026601055
10
32.1250000018244
20
-1.43338634494596
30
0
41
0.99890416286702
10
32.4246981736098
20
-1.57793151885696
30
-1E-16
41
0.999140762305833
10
32.6202479215886
20
-1.65258649621981
30
0
41
0.999242020914434
10
32.7116143759064
20
-1.68287053822212
30
-1E-16
0
SPLINE
5
F8
100
AcDbEntity
8
1
62
256
6
ByLayer
370
18
48
1
60
0
100
AcDbSpline
70
4
71
3
72
21
73
17
40
0
40
0
40
0
40
0
40
0.0747386939799332
40
0.149477387959867
40
0.2242160819398
40
0.298954775919733
40
0.373693469899666
40
0.4484321638796
40
0.523170857859533
40
0.597909551839466
40
0.672648245819399
40
0.747386939799332
40
0.822125633779266
40
0.896864327759199
40
0.971603021739132
40
1
40
1
40
1
40
1
41
1
10
24
20
1.11811810566343
30
0
41
1
10
24.1041666404221
20
1.06660264677021
30
-1E-16
41
1
10
24.3124999993136
20
0.959928040173281
30
0
41
1
10
24.6249999824109
20
0.789213920285533
30
-1E-16
41
1
10
24.9375000182753
20
0.610372897574592
30
-1E-16
41
1
10
25.2500000010762
20
0.425442397042303
30
-1E-16
41
1
10
25.5624999774294
20
0.236356143281654
30
-1E-16
41
1
10
25.8750000077586
20
0.0452226057758196
30
-1E-16
41
1
10
26.1874999999888
20
-0.145878538889576
30
-1E-16
41
1
10
26.5000000000074
20
-0.334759881716309
30
-1E-16
41
1
10
26.812499999982
20
-0.519240004384983
30
1E-16
41
1
10
27.1250000000086
20
-0.697014456440996
30
1E-16
41
1
10
27.4374999999833
20
-0.86588034997007
30
0
41
1
10
27.7500000038026
20
-1.02341118801385
30
0
41
1
10
27.9979114630716
20
-1.1376896725852
30
0
41
1
10
28.1416562728601
20
-1.19889812709769
30
1E-16
41
1
10
28.1812344149571
20
-1.21534980052974
30
1E-16
0
SPLINE
5
F9
100
AcDbEntity
8
1
62
256
6
ByLayer
370
18
48
1
60
0
100
AcDbSpline
70
4
71
3
72
23
73
19
40
0
40
0
40
0
40
0
40
0.0361974963868288
40
0.101311813420317
40
0.166426130453804
40
0.231540447487292
40
0.296654764520779
40
0.361769081554267
40
0.426883398587755
40
0.491997715621243
40
0.55711203265473
40
0.622226349688218
40
0.687340666721706
40
0.752454983755193
40
0.817569300788681
40
0.882683617822169
40
0.947797934855656
40
1
40
1
40
1
40
1
41
0.983431409258608
10
24.763805639099
20
0.248215917428701
30
1E-16
41
0.983477801477078
10
24.8217114505614
20
0.19958759868363
30
1E-16
41
0.983619185035831
10
24.9837730299789
20
0.0631889892311531
30
2E-16
41
0.983902270746335
10
25.2500000010726
20
-0.160939301169692
30
-1E-16
41
0.984305241448966
10
25.56249997743
20
-0.420412709731558
30
1E-16
41
0.984772894670854
10
25.8750000077614
20
-0.672509029712608
30
-2E-16
41
0.985299249516701
10
26.1874999999866
20
-0.913471131805723
30
-1E-16
41
0.985878302995242
10
26.5000000000079
20
-1.13954723087748
30
0
41
0.986504071945154
10
26.812499999982
20
-1.34723214054082
30
0
41
0.987170569356426
10
27.1250000000086
20
-1.53299783066366
30
0
41
0.98787181991917
10
27.4374999999836
20
-1.69386047701421
30
0
41
0.988601818580505
10
27.7500000038023
20
-1.82675503755878
30
1E-16
41
0.989354611072282
10
28.0624999848069
20
-1.92946343495496
30
0
41
0.990124187141068
10
28.3750000000158
20
-1.99967727162521
30
0
41
0.990904609876292
10
28.6875000151313
20
-2.03614766654274
30
0
41
0.991689863083979
10
28.9999999992042
20
-2.03756512625377
30
0
41
0.99242205628703
10
29.2918588462438
20
-2.006032603229
30
0
41
0.992888919267029
10
29.4795846095157
20
-1.96671174941107
30
0
41
0.993095357744368
10
29.5631118866984
20
-1.94554984660876
30
0
0
SPLINE
5
FA
100
AcDbEntity
8
1
62
256
6
ByLayer
370
18
48
1
60
0
100
AcDbSpline
70
4
71
3
72
12
73
8
40
0
40
0
40
0
40
0
40
0.2067950276627
40
0.413590055325401
40
0.620385082988101
40
0.827180110650802
40
1
40
1
40
1
40
1
41
1
10
24
20
-0.544659331806088
30
-1E-16
41
1
10
24.1041666404221
20
-0.605407152722762
30
1E-16
41
1
10
24.3124999993136
20
-0.723666262135907
30
-1E-16
41
1
10
24.6249999824109
20
-0.889910603789929
30
1E-16
41
1
10
24.9375000182753
20
-1.0430512084813
30
0
41
1
10
25.232886065829
20
-1.1741200640725
30
1E-16
41
1
10
25.4241054488277
20
-1.24996158756451
30
0
41
1
10
25.5111581779929
20
-1.28250233324334
30
0
0
SPLINE
5
FB
100
AcDbEntity
8
1
62
256
6
ByLayer
370
18
48
1
60
0
100
AcDbSpline
70
4
71
3
72
16
73
12
40
0
40
0
40
0
40
0
40
0.250000000000019
40
0.250000000000019
40
0.500000000000038
40
0.500000000000038
40
0.625000000000028
40
0.625000000000028
40
0.750000000000019
40
0.750000000000019
40
1
40
1
40
1
40
1
41
1
10
32.1046719124859
20
-1.87497238685489
30
0
41
1
10
32.1553711796575
20
-1.88817464823597
30
0
41
1
10
32.2055883877631
20
-1.8979710916953
30
0
41
1
10
32.3055611404576
20
-1.91074681239385
30
0
41
1
10
32.3553150282348
20
-1.91372665172162
30
0
41
1
10
32.429956536088
20
-1.91292067011921
30
0
41
1
10
32.4548387624208
20
-1.91177103446904
30
0
41
1
10
32.5046685598709
20
-1.90765977080446
30
0
41
1
10
32.5296399917321
20
-1.90469441448562
30
0
41
1
10
32.604595846311
20
-1.89300291997424
30
0
41
1
10
32.6542225311082
20
-1.88155934153028
30
0
41
1
10
32.7037490659817
20
-1.8663603847877
30
0
0
SPLINE
5
FC
100
AcDbEntity
8
1
62
256
6
ByLayer
370
18
48
1
60
0
100
AcDbSpline
70
4
71
3
72
8
73
4
40
0
40
0
40
0
40
0
40
1
40
1
40
1
40
1
41
1
10
32.70374906598
20
-1.86636038478929
30
0
41
1
10
32.7139030308867
20
-1.86306341199861
30
0
41
1
10
32.7236869401022
20
-1.85983665600003
30
0
41
1
10
32.7329987415121
20
-1.85670447409996
30
0
0
SPLINE
5
FD
100
AcDbEntity
8
1
62
256
6
ByLayer
370
18
48
1
60
0
100
AcDbSpline
70
4
71
3
72
8
73
4
40
0
40
0
40
0
40
0
40
1
40
1
40
1
40
1
41
1
10
32.7329987415088
20
-1.85670447410101
30
0
41
1
10
32.7853787629713
20
-1.83908556794904
30
0
41
1
10
32.8371518338294
20
-1.81745637459517
30
0
41
1
10
32.8885867389874
20
-1.79174611385605
30
0
0
SPLINE
5
FE
100
AcDbEntity
8
1
62
256
6
ByLayer
370
18
48
1
60
0
100
AcDbSpline
70
4
71
3
72
8
73
4
40
0
40
0
40
0
40
0
40
1
40
1
40
1
40
1
41
1
10
32.7037490659799
20
1.86636038478932
30
0
41
1
10
32.7139030308859
20
1.86306341199884
30
0
41
1
10
32.7236869401027
20
1.85983665599986
30
0
41
1
10
32.7329987415121
20
1.85670447409996
30
0
0
SPLINE
5
FF
100
AcDbEntity
8
1
62
256
6
ByLayer
370
18
48
1
60
0
100
AcDbSpline
70
4
71
3
72
35
73
31
40
0
40
0
40
0
40
0
40
0.125000000000009
40
0.125000000000009
40
0.187500000000014
40
0.187500000000014
40
0.218750000000023
40
0.218750000000023
40
0.250000000000033
40
0.250000000000033
40
0.375000000000043
40
0.375000000000043
40
0.437500000000048
40
0.437500000000048
40
0.46875000000005
40
0.46875000000005
40
0.500000000000053
40
0.500000000000053
40
0.625000000000051
40
0.625000000000051
40
0.687500000000044
40
0.687500000000044
40
0.750000000000037
40
0.750000000000037
40
0.875000000000016
40
0.875000000000016
40
0.906250000000012
40
0.906250000000012
40
0.937500000000008
40
1
40
1
40
1
40
1
41
1
10
32.732998741507
20
1.85670447410166
30
0
41
1
10
32.7976254023248
20
1.83496620366825
30
0
41
1
10
32.8613281195923
20
1.80712318769466
30
0
41
1
10
32.9562535214254
20
1.75600213811288
30
0
41
1
10
32.9877903239814
20
1.73739568780187
30
0
41
1
10
33.0350360677476
20
1.70704022356807
30
0
41
1
10
33.0507748853094
20
1.69651349502928
30
0
41
1
10
33.082249483865
20
1.67462011134614
30
0
41
1
10
33.0980218841775
20
1.66322567178062
30
0
41
1
10
33.1764609646779
20
1.60442596741405
30
0
41
1
10
33.2373211477973
20
1.5520313600492
30
0
41
1
10
33.3263923708669
20
1.46547568658207
30
0
41
1
10
33.3557109172033
20
1.43528850757508
30
0
41
1
10
33.3991752605266
20
1.38793695725721
30
0
41
1
10
33.4135996239945
20
1.37178157558111
30
0
41
1
10
33.4421818876476
20
1.33887407713229
30
0
41
1
10
33.456261433911
20
1.32221367692813
30
0
41
1
10
33.5256376476089
20
1.23790451264051
30
0
41
1
10
33.5779055737084
20
1.16726625002036
30
0
41
1
10
33.6516197045658
20
1.05661250579422
30
0
41
1
10
33.6754005590445
20
1.01893848268102
30
0
41
1
10
33.721302535253
20
0.941943675799621
30
0
41
1
10
33.743046004764
20
0.903258885454591
30
0
41
1
10
33.8045963132946
20
0.786863896455372
30
0
41
1
10
33.840831453618
20
0.708709561216864
30
0
41
1
10
33.8799016558766
20
0.609915126900233
30
0
41
1
10
33.887418329748
20
0.590051039124802
30
0
41
1
10
33.9016932718563
20
0.550519337671233
30
0
41
1
10
33.9219900920051
20
0.491474881725708
30
0
41
1
10
33.9390066611844
20
0.433055254024083
30
0
41
1
10
33.9489200647204
20
0.394280047209492
30
0
0
SPLINE
5
100
100
AcDbEntity
8
1
62
256
6
ByLayer
370
18
48
1
60
0
100
AcDbSpline
70
4
71
3
72
17
73
13
40
0
40
0
40
0
40
0
40
0.10525686236594
40
0.210520515603387
40
0.315784168840834
40
0.421047822078281
40
0.526311475315728
40
0.631575128553174
40
0.736838781790621
40
0.842102435028068
40
0.947366088265515
40
1
40
1
40
1
40
1
41
0.983049961506813
10
24.0000201606276
20
-1.3583327222646
30
1E-16
41
0.983065942959586
10
24.1041800816305
20
-1.42483202239818
30
0
41
0.983141558267086
10
24.3125067206105
20
-1.55149432832976
30
1E-16
41
0.983314421686436
10
24.6249999824083
20
-1.71924651731772
30
0
41
0.983569998416542
10
24.9375000182779
20
-1.86226085089992
30
-1E-16
41
0.983902270746335
10
25.2500000010726
20
-1.9785276590813
30
0
41
0.984305241448966
10
25.56249997743
20
-2.06586629599522
30
0
41
0.984772894670854
10
25.8750000077614
20
-2.12286600707862
30
0
41
0.985299249516701
10
26.1874999999866
20
-2.14826513378113
30
0
41
0.985878302995242
10
26.5000000000079
20
-2.14128365691939
30
0
41
0.986399781252018
10
26.7604462637535
20
-2.10837193898069
30
0
41
0.986727943435221
10
26.916734573672
20
-2.07644498051077
30
0
41
0.986838906371921
10
26.9688264838343
20
-2.06447076358347
30
0
0
SPLINE
5
101
100
AcDbEntity
8
1
62
256
6
ByLayer
370
18
48
1
60
0
100
AcDbSpline
70
4
71
3
72
8
73
4
40
0
40
0
40
0
40
0
40
1
40
1
40
1
40
1
41
0.983049961506813
10
24.0000201606276
20
-2.23322964648267
30
0
41
0.983060849480719
10
24.0709834450043
20
-2.2224524139235
30
0
41
0.983081867596163
10
24.141949290734
20
-2.20938924583959
30
0
41
0.983109246740737
10
24.2129176629499
20
-2.194052365994
30
0
0
SPLINE
5
102
100
AcDbEntity
8
1
62
256
6
ByLayer
370
18
48
1
60
0
100
AcDbSpline
70
4
71
3
72
20
73
16
40
0
40
0
40
0
40
0
40
0.0463230865616928
40
0.128829352172994
40
0.211335617784296
40
0.293841883395597
40
0.376348149006899
40
0.458854414618201
40
0.541360680229502
40
0.623866945840804
40
0.706373211452105
40
0.788879477063407
40
0.871385742674708
40
0.95389200828601
40
1
40
1
40
1
40
1
41
1
10
28.8245470954096
20
1.12720319637634
30
0
41
1
10
28.8830313973932
20
1.08268380116255
30
-1E-16
41
1
10
29.0456823602775
20
0.95618635561604
30
-1E-16
41
1
10
29.3124999880503
20
0.738013782330569
30
0
41
1
10
29.6250000000053
20
0.47099107559788
30
0
41
1
10
29.9375000119303
20
0.19724959036148
30
0
41
1
10
30.2499999970232
20
-0.078212664708758
30
2E-16
41
1
10
30.5624999999756
20
-0.350322598280059
30
-1E-16
41
1
10
30.8750000000118
20
-0.613824298978614
30
1E-16
41
1
10
31.1874999999774
20
-0.863702088858275
30
0
41
1
10
31.500000000013
20
-1.09486469251402
30
-1E-16
41
1
10
31.8124999999707
20
-1.302764888116
30
-1E-16
41
1
10
32.1250000018244
20
-1.48296999569771
30
-1E-16
41
1
10
32.3915460675856
20
-1.60986464706687
30
0
41
1
10
32.5539254773076
20
-1.67310017959241
30
0
41
1
10
32.6121382185332
20
-1.69388659070768
30
0
0
SPLINE
5
103
100
AcDbEntity
8
1
62
256
6
ByLayer
370
18
48
1
60
0
100
AcDbSpline
70
4
71
3
72
15
73
11
40
0
40
0
40
0
40
0
40
0.0284347352067646
40
0.170655046705242
40
0.31287535820372
40
0.455095669702198
40
0.597315981200676
40
0.739536292699153
40
0.881756604197631
40
1
40
1
40
1
40
1
41
1
10
30.500020493536
20
1.5898786379511
30
0
41
1
10
30.5208469955214
20
1.58705220877977
30
0
41
1
10
30.6458401647766
20
1.56900048971505
30
0
41
1
10
30.8750000000121
20
1.52388611641027
30
0
41
1
10
31.1874999999774
20
1.43549061048898
30
0
41
1
10
31.5000000000131
20
1.32081960305101
30
0
41
1
10
31.8124999999706
20
1.18136465822045
30
-1E-16
41
1
10
32.1250000018244
20
1.01895337304111
30
1E-16
41
1
10
32.4199385397581
20
0.846510392833721
30
0
41
1
10
32.6107104245398
20
0.725364350952475
30
1E-16
41
1
10
32.6973156389491
20
0.6687506871815
30
0
0
SPLINE
5
104
100
AcDbEntity
8
1
62
256
6
ByLayer
370
18
48
1
60
0
100
AcDbSpline
70
4
71
3
72
24
73
20
40
0
40
0
40
0
40
0
40
0.035413174694138
40
0.0997179739834184
40
0.164022773272699
40
0.228327572561979
40
0.29263237185126
40
0.35693717114054
40
0.421241970429821
40
0.485546769719101
40
0.549851569008381
40
0.614156368297662
40
0.678461167586942
40
0.742765966876223
40
0.807070766165503
40
0.871375565454783
40
0.935680364744064
40
0.999985164033344
40
1
40
1
40
1
40
1
41
1
10
24.7654037137784
20
0.245905644641937
30
1E-16
41
1
10
24.8227691463811
20
0.196588377833422
30
1E-16
41
1
10
24.9843012538969
20
0.0574027448821539
30
2E-16
41
1
10
25.2500000010723
20
-0.171640604902621
30
0
41
1
10
25.56249997743
20
-0.437325484614377
30
1E-16
41
1
10
25.8750000077616
20
-0.695375544691785
30
-1E-16
41
1
10
26.1874999999864
20
-0.94186372839539
30
0
41
1
10
26.5000000000079
20
-1.17286962629507
30
1E-16
41
1
10
26.812499999982
20
-1.38473115864343
30
-1E-16
41
1
10
27.1250000000086
20
-1.57377212721278
30
-1E-16
41
1
10
27.4374999999836
20
-1.73688842088492
30
1E-16
41
1
10
27.7500000038023
20
-1.87091035767625
30
-1E-16
41
1
10
28.0624999848068
20
-1.97355608780742
30
0
41
1
10
28.375000000016
20
-2.04247548585923
30
0
41
1
10
28.6875000151313
20
-2.0764257760242
30
0
41
1
10
28.9999999992041
20
-2.0741300654617
30
0
41
1
10
29.3124999880503
20
-2.03554440477552
30
0
41
1
10
29.5208573619806
20
-1.98569876720097
30
0
41
1
10
29.6250480652542
20
-1.95496896193717
30
0
41
1
10
29.6250720978811
20
-1.9549618734917
30
0
0
SPLINE
5
105
100
AcDbEntity
8
1
62
256
6
ByLayer
370
18
48
1
60
0
100
AcDbSpline
70
4
71
3
72
14
73
10
40
0
40
0
40
0
40
0
40
0.0621717569868081
40
0.221746402597487
40
0.381321048208164
40
0.540895693818843
40
0.700470339429521
40
0.860044985040199
40
1
40
1
40
1
40
1
41
0.995894371898618
10
30.7533185507768
20
1.41148114838826
30
0
41
0.995983051432941
10
30.7938987484049
20
1.38607464210585
30
0
41
0.996296190223623
10
30.938615419755
20
1.29318515250185
30
0
41
0.996814052196032
10
31.1874999999774
20
1.12019635926745
30
0
41
0.997420934966774
10
31.5000000000129
20
0.882932993641979
30
-1E-16
41
0.99797858848306
10
31.8124999999707
20
0.630182522473074
30
1E-16
41
0.998481026601055
10
32.1250000018244
20
0.366776604489625
30
0
41
0.99890416286702
10
32.4246981736098
20
0.109017029721777
30
0
41
0.999140762305833
10
32.6202479215886
20
-0.0591271620228602
30
-1E-16
41
0.999242020914434
10
32.7116143759064
20
-0.137046314988374
30
1E-16
0
SPLINE
5
106
100
AcDbEntity
8
1
62
256
6
ByLayer
370
18
48
1
60
0
100
AcDbSpline
70
4
71
3
72
8
73
4
40
0
40
0
40
0
40
0
40
1
40
1
40
1
40
1
41
1
10
24
20
-0.014628087052813
30
0
41
1
10
24.0264109628116
20
-0.0374180437340215
30
0
41
1
10
24.0528219281342
20
-0.0601852126424376
30
-1E-16
41
1
10
24.0792328951808
20
-0.0829195608359612
30
-1E-16
0
SPLINE
5
107
100
AcDbEntity
8
1
62
256
6
ByLayer
370
18
48
1
60
0
100
AcDbSpline
70
4
71
3
72
22
73
18
40
0
40
0
40
0
40
0
40
0.0128136229580532
40
0.0841864167455272
40
0.155559210533001
40
0.226932004320475
40
0.298304798107949
40
0.369677591895422
40
0.441050385682896
40
0.51242317947037
40
0.583795973257844
40
0.655168767045318
40
0.726541560832792
40
0.797914354620266
40
0.869287148407739
40
0.940659942195213
40
1
40
1
40
1
40
1
41
1
10
28.3188965864442
20
1.52103441122821
30
0
41
1
10
28.3375977242743
20
1.51670643737236
30
0
41
1
10
28.4604655338602
20
1.48747847027019
30
0
41
1
10
28.6875000151318
20
1.42388445684142
30
0
41
1
10
28.999999999206
20
1.3144098025484
30
0
41
1
10
29.3124999880497
20
1.18420586911449
30
-1E-16
41
1
10
29.6250000000038
20
1.03459744477175
30
0
41
1
10
29.9375000119307
20
0.867511240034958
30
0
41
1
10
30.2499999970245
20
0.685049745373448
30
-1E-16
41
1
10
30.5624999999746
20
0.489879812963125
30
0
41
1
10
30.8750000000121
20
0.284950722011132
30
0
41
1
10
31.1874999999774
20
0.0736523727355518
30
0
41
1
10
31.5000000000131
20
-0.140299513985866
30
1E-16
41
1
10
31.8124999999706
20
-0.352942378805636
30
-1E-16
41
1
10
32.1250000018244
20
-0.560029746561753
30
0
41
1
10
32.4199385397581
20
-0.746134756448299
30
0
41
1
10
32.6107104245398
20
-0.858500753120126
30
0
41
1
10
32.6973156389491
20
-0.907441033524577
30
-1E-16
0
SPLINE
5
108
100
AcDbEntity
8
1
62
256
6
ByLayer
370
18
48
1
60
0
100
AcDbSpline
70
4
71
3
72
17
73
13
40
0
40
0
40
0
40
0
40
0.102353723647078
40
0.204707447294157
40
0.307061170941235
40
0.409414894588314
40
0.511768618235392
40
0.61412234188247
40
0.716476065529549
40
0.818829789176627
40
0.921183512823706
40
1
40
1
40
1
40
1
41
1
10
24.0000000000001
20
-1.39096917480117
30
-1E-16
41
1
10
24.1041666403893
20
-1.45876482396812
30
1E-16
41
1
10
24.3124999993288
20
-1.58791680775673
30
-1E-16
41
1
10
24.6249999824082
20
-1.75889423727105
30
-1E-16
41
1
10
24.9375000182781
20
-1.90452192645483
30
0
41
1
10
25.2500000010723
20
-2.02266875867036
30
0
41
1
10
25.56249997743
20
-2.11103442934748
30
-1E-16
41
1
10
25.8750000077616
20
-2.16811923894113
30
0
41
1
10
26.1874999999864
20
-2.19259252377282
30
0
41
1
10
26.5000000000079
20
-2.18363579898406
30
0
41
1
10
26.7885458595937
20
-2.14437752952316
30
0
41
1
10
26.972925052549
20
-2.10180640838544
30
0
41
1
10
27.053137578828
20
-2.08005582741527
30
0
0
SPLINE
5
109
100
AcDbEntity
8
1
62
256
6
ByLayer
370
18
48
1
60
0
100
AcDbSpline
70
4
71
3
72
9
73
5
40
0
40
0
40
0
40
0
40
0.426115645679175
40
1
40
1
40
1
40
1
41
1
10
32.2330113390519
20
1.80763471658975
30
0
41
1
10
32.3011742242401
20
1.82098779640083
30
0
41
1
10
32.4611375718215
20
1.8462086509038
30
0
41
1
10
32.6211009267745
20
1.85670187812556
30
0
41
1
10
32.7129013920955
20
1.8577970413844
30
0
0
SPLINE
5
10A
100
AcDbEntity
8
1
62
256
6
ByLayer
370
18
48
1
60
0
100
AcDbSpline
70
4
71
3
72
16
73
12
40
0
40
0
40
0
40
0
40
0.250000000000028
40
0.250000000000028
40
0.500000000000056
40
0.500000000000056
40
0.625000000000052
40
0.625000000000052
40
0.750000000000047
40
0.750000000000047
40
1
40
1
40
1
40
1
41
1
10
32.1046719124859
20
1.87497238685489
30
0
41
1
10
32.1553711796574
20
1.88817464823597
30
0
41
1
10
32.2055883877631
20
1.8979710916953
30
0
41
1
10
32.3055611404576
20
1.91074681239385
30
0
41
1
10
32.3553150282347
20
1.91372665172162
30
0
41
1
10
32.429956536088
20
1.91292067011921
30
0
41
1
10
32.4548387624207
20
1.91177103446904
30
0
41
1
10
32.5046685598709
20
1.90765977080446
30
0
41
1
10
32.529639991732
20
1.90469441448562
30
0
41
1
10
32.604595846311
20
1.89300291997427
30
0
41
1
10
32.6542225311081
20
1.88155934153028
30
0
41
1
10
32.7037490659817
20
1.86636038478773
30
0
0
SPLINE
5
10B
100
AcDbEntity
8
1
62
256
6
ByLayer
370
18
48
1
60
0
100
AcDbSpline
70
4
71
3
72
8
73
4
40
0
40
0
40
0
40
0
40
1
40
1
40
1
40
1
41
1
10
24.0000000000001
20
-2.27946047672782
30
0
41
1
10
24.0949577017038
20
-2.26453873635927
30
0
41
1
10
24.1899154358837
20
-2.24540939653306
30
0
41
1
10
24.2848731659487
20
-2.22211337607493
30
0
0
SPLINE
5
10C
100
AcDbEntity
8
1
62
256
6
ByLayer
370
18
48
1
60
0
100
AcDbSpline
70
4
71
3
72
17
73
13
40
0
40
0
40
0
40
0
40
0.0290748877942667
40
0.138397488260712
40
0.247720088727157
40
0.357042689193603
40
0.466365289660048
40
0.575687890126494
40
0.68501049059294
40
0.794333091059385
40
0.90365569152583
40
1
40
1
40
1
40
1
41
1
10
29.8543890821039
20
1.93049608148524
30
0
41
1
10
29.882092724149
20
1.9357865360893
30
0
41
1
10
30.0139630333211
20
1.95901594183479
30
0
41
1
10
30.2499999970239
20
1.98374023688808
30
0
41
1
10
30.562499999975
20
1.98072911342192
30
0
41
1
10
30.8750000000119
20
1.94153481905954
30
0
41
1
10
31.1874999999774
20
1.86691840068446
30
0
41
1
10
31.5000000000131
20
1.75780415227649
30
0
41
1
10
31.8124999999706
20
1.61621356523497
30
0
41
1
10
32.1250000018244
20
1.44446594265733
30
-1E-16
41
1
10
32.4251337905857
20
1.25366985295159
30
-1E-16
41
1
10
32.6211009267745
20
1.11536841548843
30
1E-16
41
1
10
32.7129013920954
20
1.04806096000249
30
0
0
SPLINE
5
10D
100
AcDbEntity
8
1
62
256
6
ByLayer
370
18
48
1
60
0
100
AcDbSpline
70
4
71
3
72
14
73
10
40
0
40
0
40
0
40
0
40
0.0747335005222457
40
0.241182996401797
40
0.407632492281349
40
0.574081988160901
40
0.740531484040453
40
0.906980979920005
40
1
40
1
40
1
40
1
41
1
10
30.7346918614971
20
1.42281984447789
30
0
41
1
10
30.7814612410291
20
1.39256822700241
30
0
41
1
10
30.932397287188
20
1.29215694641454
30
0
41
1
10
31.1874999999774
20
1.10829575587735
30
1E-16
41
1
10
31.500000000013
20
0.863246385361435
30
0
41
1
10
31.8124999999707
20
0.603178477934534
30
-1E-16
41
1
10
32.1250000018244
20
0.333145205508174
30
1E-16
41
1
10
32.3915460675918
20
0.0990008142003376
30
0
41
1
10
32.5539254773199
20
-0.0431846892780641
30
1E-16
41
1
10
32.6121382185517
20
-0.0939318317059303
30
0
0
SPLINE
5
10E
100
AcDbEntity
8
1
62
256
6
ByLayer
370
18
48
1
60
0
100
AcDbSpline
70
4
71
3
72
22
73
18
40
0
40
0
40
0
40
0
40
0.0169074726812126
40
0.0873545147387705
40
0.157801556796328
40
0.228248598853886
40
0.298695640911444
40
0.369142682969002
40
0.43958972502656
40
0.510036767084118
40
0.580483809141676
40
0.650930851199234
40
0.721377893256792
40
0.79182493531435
40
0.862271977371907
40
0.932719019429465
40
1
40
1
40
1
40
1
41
1
10
27.3624991903209
20
2.06942172065843
30
0
41
1
10
27.387499460391
20
2.0738246025488
30
0
41
1
10
27.5166663976344
20
2.09493202532127
30
0
41
1
10
27.7500000038024
20
2.11758746247347
30
0
41
1
10
28.0624999848072
20
2.11407891228737
30
0
41
1
10
28.375000000015
20
2.07626283808159
30
0
41
1
10
28.6875000151315
20
2.00480189882629
30
0
41
1
10
28.999999999205
20
1.90035128039648
30
0
41
1
10
29.31249998805
20
1.76473394470921
30
1E-16
41
1
10
29.6250000000046
20
1.59992421003506
30
0
41
1
10
29.9375000119305
20
1.40883242265338
30
0
41
1
10
30.2499999970239
20
1.19449096252077
30
1E-16
41
1
10
30.562499999975
20
0.960715423347779
30
0
41
1
10
30.8750000000119
20
0.71149861254176
30
1E-16
41
1
10
31.1874999999774
20
0.451388980013291
30
1E-16
41
1
10
31.4953184965465
20
0.189104983961528
30
0
41
1
10
31.6989703263872
20
0.0148296399590038
30
0
41
1
10
31.7984554898497
20
-0.0697407595262973
30
0
0
SPLINE
5
10F
100
AcDbEntity
8
1
62
256
6
ByLayer
370
18
48
1
60
0
100
AcDbSpline
70
4
71
3
72
50
73
46
40
0
40
0
40
0
40
0
40
0.0248010105312201
40
0.0248010105312201
40
0.113455464119299
40
0.113455464119299
40
0.135619077516318
40
0.135619077516318
40
0.157782690913337
40
0.157782690913337
40
0.20210991770737
40
0.20210991770737
40
0.290764371295442
40
0.290764371295442
40
0.312927984692461
40
0.32400979139097
40
0.32400979139097
40
0.335091598089479
40
0.335091598089479
40
0.379418824883517
40
0.379418824883517
40
0.468073278471589
40
0.468073278471589
40
0.512400505265625
40
0.512400505265625
40
0.534564118662643
40
0.534564118662643
40
0.556727732059661
40
0.556727732059661
40
0.64538218564773
40
0.64538218564773
40
0.7340366392358
40
0.7340366392358
40
0.756200252632817
40
0.756200252632817
40
0.778363866029834
40
0.822691092823866
40
0.822691092823866
40
0.911345546411932
40
0.911345546411932
40
0.955672773205966
40
0.955672773205966
40
0.977836386602983
40
0.977836386602983
40
1
40
1
40
1
40
1
41
1
10
29.7076145259126
20
-1.98704348850558
30
0
41
1
10
29.6606691322592
20
-2.00466725557865
30
0
41
1
10
29.6137807825909
20
-2.02104849137712
30
0
41
1
10
29.3993522862686
20
-2.090281077783
30
0
41
1
10
29.2319894920322
20
-2.12843858710869
30
0
41
1
10
29.0206572969614
20
-2.15515009408514
30
0
41
1
10
28.9781985162501
20
-2.15944432275629
30
0
41
1
10
28.8935739519235
20
-2.16585217727814
30
0
41
1
10
28.8513837328619
20
-2.1679739366441
30
0
41
1
10
28.7250827089168
20
-2.17114401272462
30
0
41
1
10
28.6412364484854
20
-2.16900034705455
30
0
41
1
10
28.3900663444792
20
-2.15010943542396
30
0
41
1
10
28.2231305004336
20
-2.12093402933868
30
0
41
1
10
28.0128371442096
20
-2.06417236708941
30
0
41
1
10
27.9496273237835
20
-2.04561766512074
30
0
41
1
10
27.8861733102801
20
-2.02477097703329
30
0
41
1
10
27.8438089736479
20
-2.01036314190625
30
0
41
1
10
27.8226005359187
20
-2.0029051598849
30
0
41
1
10
27.7168060583853
20
-1.96449797888681
30
-1E-16
41
1
10
27.632626887421
20
-1.93008927906166
30
1E-16
41
1
10
27.3807656891112
20
-1.81647488506405
30
0
41
1
10
27.2137539329016
20
-1.72691380152534
30
0
41
1
10
26.9620450946638
20
-1.57378628172364
30
-1E-16
41
1
10
26.8779439025508
20
-1.51960533338891
30
0
41
1
10
26.7511696278499
20
-1.43381249970395
30
0
41
1
10
26.7087703617673
20
-1.40443397259008
30
0
41
1
10
26.6238732419296
20
-1.34430843943431
30
0
41
1
10
26.5815382627113
20
-1.31367824684199
30
0
41
1
10
26.370290834691
20
-1.15785684407507
30
0
41
1
10
26.2026447353468
20
-1.02468890976647
30
2E-16
41
1
10
25.8667778456013
20
-0.744973985816131
30
0
41
1
10
25.6985705995041
20
-0.598412469178726
30
1E-16
41
1
10
25.4859869638157
20
-0.408759371691474
30
1E-16
41
1
10
25.4433073538615
20
-0.370463575856292
30
0
41
1
10
25.3582673444063
20
-0.29382102344124
30
-2E-16
41
1
10
25.2309816302661
20
-0.178599350815205
30
0
41
1
10
25.1042841807853
20
-0.0628615733133131
30
1E-16
41
1
10
24.8511056726424
20
0.168678043078387
30
0
41
1
10
24.6825937401035
20
0.323107290691695
30
1E-16
41
1
10
24.4280572788802
20
0.552453536773925
30
0
41
1
10
24.3429267435289
20
0.62852994096059
30
-1E-16
41
1
10
24.2145374454276
20
0.741791864885556
30
0
41
1
10
24.1716235634662
20
0.779400615047933
30
0
41
1
10
24.0858504675744
20
0.853963436887256
30
2E-16
41
1
10
24.0429477712086
20
0.890956008400195
30
1E-16
41
1
10
24.0000000000001
20
0.927631113148863
30
0
0
SPLINE
5
110
100
AcDbEntity
8
1
62
256
6
ByLayer
370
18
48
1
60
0
100
AcDbSpline
70
4
71
3
72
52
73
48
40
0
40
0
40
0
40
0
40
0.0775524467969442
40
0.0775524467969442
40
0.116328670195416
40
0.116328670195416
40
0.135716781894652
40
0.135716781894652
40
0.155104893593888
40
0.155104893593888
40
0.232657340390833
40
0.232657340390833
40
0.310209787187777
40
0.310209787187777
40
0.329597898887013
40
0.329597898887013
40
0.348986010586248
40
0.348986010586248
40
0.387762233984721
40
0.387762233984721
40
0.465314680781667
40
0.465314680781667
40
0.50409090418014
40
0.50409090418014
40
0.523479015879377
40
0.533173071728997
40
0.533173071728997
40
0.542867127578617
40
0.542867127578617
40
0.620419574375577
40
0.620419574375577
40
0.697972021172537
40
0.697972021172537
40
0.736748244571016
40
0.736748244571016
40
0.775524467969496
40
0.775524467969496
40
0.85307691476646
40
0.85307691476646
40
0.891853138164941
40
0.891853138164941
40
0.911241249864182
40
0.920935305713804
40
0.920935305713804
40
0.930629361563426
40
0.930629361563426
40
1
40
1
40
1
40
1
41
1
10
23.9999999999994
20
2.09168662047324
30
0
41
1
10
24.1701263554818
20
2.00676222731272
30
0
41
1
10
24.3390773607294
20
1.91034892627417
30
0
41
1
10
24.592801447616
20
1.75006982313295
30
-1E-16
41
1
10
24.6774261131298
20
1.69402926813066
30
0
41
1
10
24.8046967599166
20
1.60620183697031
30
0
41
1
10
24.8471899546483
20
1.57628794541594
30
1E-16
41
1
10
24.9322753135579
20
1.51526892571857
30
0
41
1
10
24.9747036260711
20
1.48428177335535
30
1E-16
41
1
10
25.1863890395144
20
1.32708779544072
30
0
41
1
10
25.3542843000029
20
1.19412615737022
30
-1E-16
41
1
10
25.689959969088
20
0.916736805770171
30
1E-16
41
1
10
25.8577324888346
20
0.772301418459278
30
0
41
1
10
26.0691601021704
20
0.586260445790742
30
0
41
1
10
26.1115320965899
20
0.548777439137183
30
0
41
1
10
26.1964979079705
20
0.473304333082723
30
-2E-16
41
1
10
26.2391226580934
20
0.435286091660743
30
-1E-16
41
1
10
26.3664401222078
20
0.321400873146018
30
1E-16
41
1
10
26.4508866483307
20
0.245429313640898
30
-1E-16
41
1
10
26.7034974144484
20
0.0179918157206203
30
0
41
1
10
26.8709366862142
20
-0.132995868968294
30
-1E-16
41
1
10
27.1228442119262
20
-0.356048847670934
30
-1E-16
41
1
10
27.2069371223481
20
-0.429828716360021
30
1E-16
41
1
10
27.3335564523282
20
-0.539303359008215
30
-1E-16
41
1
10
27.396986485978
20
-0.593741390091026
30
1E-16
41
1
10
27.4606545741422
20
-0.647663669317069
30
2E-16
41
1
10
27.5031593356391
20
-0.683489669665391
30
-2E-16
41
1
10
27.5244626555237
20
-0.701359281170994
30
-1E-16
41
1
10
27.7159180763852
20
-0.861125502323347
30
-2E-16
41
1
10
27.8841319205871
20
-0.995619498720743
30
-1E-16
41
1
10
28.2198432642657
20
-1.24686724979867
30
0
41
1
10
28.3873162215565
20
-1.36364597288596
30
1E-16
41
1
10
28.6403431082526
20
-1.52308076572854
30
0
41
1
10
28.7250318814638
20
-1.57361708774369
30
-1E-16
41
1
10
28.8953038707966
20
-1.66882616912514
30
-1E-16
41
1
10
28.9799155507401
20
-1.71295575606695
30
0
41
1
10
29.2328456756653
20
-1.83473242899979
30
1E-16
41
1
10
29.4002786459005
20
-1.90178527069605
30
0
41
1
10
29.6521747145112
20
-1.9799537774384
30
0
41
1
10
29.736260705646
20
-2.00226874174021
30
0
41
1
10
29.8629044772039
20
-2.0298950101278
30
0
41
1
10
29.9263554169569
20
-2.04224569266864
30
0
41
1
10
29.9900647960484
20
-2.05235027732877
30
0
41
1
10
30.0326023990349
20
-2.05858108196409
30
0
41
1
10
30.0539234806458
20
-2.06144581685749
30
0
41
1
10
30.2274529818338
20
-2.08264617341902
30
0
41
1
10
30.3780813830767
20
-2.08782260325594
30
0
41
1
10
30.5283848453695
20
-2.07986987738784
30
0
0
SPLINE
5
111
100
AcDbEntity
8
1
62
256
6
ByLayer
370
18
48
1
60
0
100
AcDbSpline
70
4
71
3
72
67
73
63
40
0
40
0
40
0
40
0
40
0.0625000000000008
40
0.0625000000000008
40
0.0937500000000011
40
0.0937500000000011
40
0.109375000000001
40
0.109375000000001
40
0.125000000000001
40
0.125000000000001
40
0.1875
40
0.1875
40
0.21875
40
0.21875
40
0.234375
40
0.242187499999999
40
0.242187499999999
40
0.249999999999998
40
0.249999999999998
40
0.312499999999993
40
0.312499999999993
40
0.374999999999988
40
0.374999999999988
40
0.390624999999989
40
0.390624999999989
40
0.40624999999999
40
0.40624999999999
40
0.437499999999992
40
0.437499999999992
40
0.499999999999995
40
0.499999999999995
40
0.515624999999996
40
0.523437499999997
40
0.523437499999997
40
0.531249999999997
40
0.531249999999997
40
0.562499999999999
40
0.562499999999999
40
0.625000000000002
40
0.625000000000002
40
0.656250000000004
40
0.656250000000004
40
0.671875000000005
40
0.671875000000005
40
0.687500000000006
40
0.687500000000006
40
0.750000000000007
40
0.750000000000007
40
0.812500000000007
40
0.812500000000007
40
0.828125000000007
40
0.828125000000007
40
0.843750000000007
40
0.875000000000005
40
0.875000000000005
40
0.937500000000002
40
0.937500000000002
40
0.96875
40
0.96875
40
0.984375
40
0.984375
40
1
40
1
40
1
40
1
41
1
10
32.1046719124859
20
-1.8522812183889
30
0
41
1
10
31.93340603872
20
-1.91905169561261
30
1E-16
41
1
10
31.7643441340165
20
-1.9685095372551
30
0
41
1
10
31.5108830968084
20
-2.01674361952101
30
0
41
1
10
31.4264271056957
20
-2.02848527669252
30
0
41
1
10
31.2994067533822
20
-2.03948935444328
30
0
41
1
10
31.2570105008103
20
-2.04205522439318
30
0
41
1
10
31.1720372570019
20
-2.04495691122696
30
0
41
1
10
31.1294114198245
20
-2.0452918378582
30
0
41
1
10
30.9162051251679
20
-2.04132185207345
30
0
41
1
10
30.7477272690502
20
-2.02022738476549
30
0
41
1
10
30.4950283985725
20
-1.96318301468338
30
0
41
1
10
30.4107982412776
20
-1.93992477395346
30
0
41
1
10
30.2841126543893
20
-1.89874071149737
30
0
41
1
10
30.2206835703635
20
-1.876573821829
30
0
41
1
10
30.1570537103286
20
-1.85205049729032
30
0
41
1
10
30.1145812191232
20
-1.83517793370581
30
1E-16
41
1
10
30.0933009621555
20
-1.82647207277668
30
1E-16
41
1
10
29.902208595799
20
-1.7460653024433
30
1E-16
41
1
10
29.7344624781441
20
-1.65972975259967
30
-1E-16
41
1
10
29.3993522862686
20
-1.46083070267363
30
1E-16
41
1
10
29.2319894920323
20
-1.348262484732
30
1E-16
41
1
10
29.0206572969613
20
-1.19266337595485
30
-1E-16
41
1
10
28.9781985162501
20
-1.16073070209836
30
1E-16
41
1
10
28.8935739519235
20
-1.09584791700206
30
-1E-16
41
1
10
28.8513837328619
20
-1.06288255710834
30
0
41
1
10
28.7250827089168
20
-0.962525412887544
30
0
41
1
10
28.6412364484853
20
-0.893678600134308
30
1E-16
41
1
10
28.3900663444791
20
-0.682087523705036
30
-2E-16
41
1
10
28.2231305004336
20
-0.534286296831795
30
-1E-16
41
1
10
28.0128371442096
20
-0.343416296275421
30
-1E-16
41
1
10
27.9496273237835
20
-0.285694843569132
30
-2E-16
41
1
10
27.8861733102801
20
-0.227339941758061
30
1E-16
41
1
10
27.8438089736479
20
-0.1883026455221
30
0
41
1
10
27.8226005359187
20
-0.168721068727706
30
0
41
1
10
27.7168060583853
20
-0.0708850968849219
30
2E-16
41
1
10
27.632626887421
20
0.007459116511086
30
0
41
1
10
27.3807656891112
20
0.24199704566368
30
-1E-16
41
1
10
27.2137539329016
20
0.397693100534923
30
0
41
1
10
26.9620450946638
20
0.627547337745881
30
-1E-16
41
1
10
26.8779439025508
20
0.703549858536491
30
1E-16
41
1
10
26.7511696278499
20
0.816276786596859
30
-1E-16
41
1
10
26.7087703617673
20
0.853672662716235
30
2E-16
41
1
10
26.6238732419296
20
0.927838423966023
30
0
41
1
10
26.5815382627113
20
0.96446638953725
30
0
41
1
10
26.3702908346909
20
1.14523972726727
30
0
41
1
10
26.2026447353468
20
1.28229413158226
30
1E-16
41
1
10
25.8667778456013
20
1.53882444220127
30
-1E-16
41
1
10
25.6985705995041
20
1.6583111088361
30
-1E-16
41
1
10
25.4859869638157
20
1.79488010582958
30
0
41
1
10
25.4433073538615
20
1.821578223057
30
0
41
1
10
25.3582673444063
20
1.87328043187236
30
1E-16
41
1
10
25.2309816302662
20
1.94842831445052
30
1E-16
41
1
10
25.1042841807853
20
2.01633569450857
30
-1E-16
41
1
10
24.8511056726424
20
2.14238439869922
30
1E-16
41
1
10
24.6825937401035
20
2.21341118722648
30
0
41
1
10
24.4280572788802
20
2.29959508298552
30
1E-16
41
1
10
24.342926743529
20
2.32492780791969
30
0
41
1
10
24.2145374454276
20
2.35767039103644
30
0
41
1
10
24.1716235634662
20
2.36770500074925
30
0
41
1
10
24.0858504675744
20
2.38592197431183
30
0
41
1
10
24.0429477712086
20
2.39411602321158
30
0
41
1
10
24.0000000000001
20
2.4013948585845
30
0
0
SPLINE
5
112
100
AcDbEntity
8
1
62
256
6
ByLayer
370
18
48
1
60
0
100
AcDbSpline
70
4
71
3
72
12
73
8
40
0
40
0
40
0
40
0
40
0.278077392440883
40
0.278077392440883
40
0.556154784881767
40
0.556154784881767
40
1
40
1
40
1
40
1
41
1
10
24.0000000000001
20
2.4013948585845
30
0
41
1
10
23.9658698189582
20
2.40719697792991
30
0
41
1
10
23.9317715403715
20
2.4124062197356
30
0
41
1
10
23.8631367555246
20
2.42163148622234
30
0
41
1
10
23.8285974612255
20
2.42564845333791
30
0
41
1
10
23.7378529948205
20
2.43464256861296
30
0
41
1
10
23.6809491302897
20
2.43876613571621
30
0
41
1
10
23.6227154914975
20
2.44177795169171
30
0
0
SPLINE
5
113
100
AcDbEntity
8
1
62
256
6
ByLayer
370
18
48
1
60
0
100
AcDbSpline
70
4
71
3
72
63
73
59
40
0
40
0
40
0
40
0
40
0.00161406536333
40
0.00161406536333
40
0.0348935965178838
40
0.0348935965178838
40
0.0515333620951607
40
0.0515333620951607
40
0.0681731276724376
40
0.0681731276724376
40
0.134732189981544
40
0.134732189981544
40
0.20129125229065
40
0.20129125229065
40
0.217931017867926
40
0.217931017867926
40
0.234570783445202
40
0.234570783445202
40
0.267850314599753
40
0.267850314599753
40
0.334409376908857
40
0.334409376908857
40
0.36768890806341
40
0.36768890806341
40
0.384328673640686
40
0.392648556429325
40
0.392648556429325
40
0.400968439217965
40
0.400968439217965
40
0.467527501527085
40
0.467527501527085
40
0.534086563836205
40
0.534086563836205
40
0.567366094990763
40
0.567366094990763
40
0.600645626145322
40
0.600645626145322
40
0.667204688454435
40
0.667204688454435
40
0.700484219608992
40
0.700484219608992
40
0.717123985186271
40
0.72544386797491
40
0.72544386797491
40
0.73376375076355
40
0.73376375076355
40
0.800322813072658
40
0.800322813072658
40
0.866881875381766
40
0.866881875381766
40
0.883521640959043
40
0.883521640959043
40
0.891841523747681
40
0.891841523747681
40
0.90016140653632
40
0.93344093769088
40
0.93344093769088
40
1
40
1
40
1
40
1
41
1
10
24.4959214024039
20
2.26400668602068
30
0
41
1
10
24.5000230819941
20
2.26501182284358
30
0
41
1
10
24.5041248586583
20
2.26600876927722
30
0
41
1
10
24.592801447616
20
2.28738400975109
30
0
41
1
10
24.6774261131298
20
2.30427976254481
30
0
41
1
10
24.8046967599167
20
2.32424807182849
30
0
41
1
10
24.8471899546483
20
2.33000942735541
30
0
41
1
10
24.9322753135579
20
2.33970390242706
30
0
41
1
10
24.9747036260712
20
2.34361894760073
30
0
41
1
10
25.1863890395144
20
2.35857579043898
30
0
41
1
10
25.3542843000029
20
2.35579651386874
30
0
41
1
10
25.689959969088
20
2.321292045832
30
0
41
1
10
25.8577324888346
20
2.28956698716848
30
0
41
1
10
26.0691601021704
20
2.23162229851462
30
0
41
1
10
26.1115320965899
20
2.21911682461382
30
0
41
1
10
26.1964979079705
20
2.19225919595689
30
0
41
1
10
26.2391226580934
20
2.17789241404933
30
0
41
1
10
26.3664401222078
20
2.13236237884951
30
0
41
1
10
26.4508866483307
20
2.09867983864191
30
0
41
1
10
26.7034974144485
20
1.98809905197564
30
0
41
1
10
26.8709366862142
20
1.90169275618288
30
0
41
1
10
27.1228442119262
20
1.75440646760938
30
1E-16
41
1
10
27.206937122348
20
1.70235822002792
30
0
41
1
10
27.3335564523282
20
1.61998338903791
30
0
41
1
10
27.3969864859779
20
1.57772005866855
30
1E-16
41
1
10
27.4606545741421
20
1.53386272708517
30
0
41
1
10
27.503159335639
20
1.50427211195267
30
0
41
1
10
27.5244626555237
20
1.48928540304442
30
1E-16
41
1
10
27.7159180763852
20
1.35323505463529
30
-1E-16
41
1
10
27.884131920587
20
1.22404508611626
30
0
41
1
10
28.2198432642657
20
0.952607215859359
30
0
41
1
10
28.3873162215565
20
0.810335941841316
30
-1E-16
41
1
10
28.6403431082525
20
0.589356260664601
30
0
41
1
10
28.7250318814638
20
0.514399816509382
30
1E-16
41
1
10
28.8953038707967
20
0.362485213730935
30
0
41
1
10
28.9799155507401
20
0.286398135400447
30
2E-16
41
1
10
29.2328456756653
20
0.058478672756479
30
-1E-16
41
1
10
29.4002786459005
20
-0.0929935191384743
30
2E-16
41
1
10
29.6521747145112
20
-0.316662812224479
30
-1E-16
41
1
10
29.736260705646
20
-0.390632694422806
30
0
41
1
10
29.8629044772039
20
-0.500325079198916
30
-2E-16
41
1
10
29.9263554169569
20
-0.554855171496229
30
0
41
1
10
29.9900647960484
20
-0.608835933356147
30
1E-16
41
1
10
30.0326023990349
20
-0.644692555253187
30
2E-16
41
1
10
30.0539234806458
20
-0.662572081070834
30
0
41
1
10
30.2454102399553
20
-0.822255743191619
30
-1E-16
41
1
10
30.4135900301213
20
-0.956170961421179
30
0
41
1
10
30.7495206057052
20
-1.20488673892643
30
-1E-16
41
1
10
30.9172402036527
20
-1.31971831154519
30
0
41
1
10
31.1288762153262
20
-1.44895174074898
30
1E-16
41
1
10
31.1713041207624
20
-1.47408000953638
30
-1E-16
41
1
10
31.2351436457892
20
-1.51064063745039
30
0
41
1
10
31.2564750468138
20
-1.52264892439501
30
0
41
1
10
31.2990711158501
20
-1.54620168028612
30
1E-16
41
1
10
31.4054429805458
20
-1.60395300714336
30
0
41
1
10
31.5113180760332
20
-1.65602266750881
30
1E-16
41
1
10
31.7651838387191
20
-1.76972613711487
30
0
41
1
10
31.9341043005827
20
-1.83055600135032
30
0
41
1
10
32.1046719124859
20
-1.87497238685489
30
0
0
SPLINE
5
114
100
AcDbEntity
8
1
62
256
6
ByLayer
370
18
48
1
60
0
100
AcDbSpline
70
4
71
3
72
52
73
48
40
0
40
0
40
0
40
0
40
0.08812901987865
40
0.08812901987865
40
0.132193529817975
40
0.132193529817975
40
0.154225784787639
40
0.154225784787639
40
0.176258039757304
40
0.176258039757304
40
0.264387059635965
40
0.264387059635965
40
0.308451569575294
40
0.308451569575294
40
0.330483824544957
40
0.341499952029786
40
0.341499952029786
40
0.352516079514615
40
0.352516079514615
40
0.440645099393258
40
0.440645099393258
40
0.5287741192719
40
0.5287741192719
40
0.550806374241558
40
0.550806374241558
40
0.572838629211217
40
0.572838629211217
40
0.616903139150538
40
0.616903139150538
40
0.705032159029184
40
0.705032159029184
40
0.727064413998846
40
0.738080541483676
40
0.738080541483676
40
0.749096668968507
40
0.749096668968507
40
0.79316117890783
40
0.79316117890783
40
0.881290198786481
40
0.881290198786481
40
0.925354708725806
40
0.925354708725806
40
0.947386963695469
40
0.947386963695469
40
0.969419218665131
40
0.969419218665131
40
1
40
1
40
1
40
1
41
1
10
32.1046719124859
20
-1.57311321994044
30
-1E-16
41
1
10
31.93340603872
20
-1.48390713173581
30
-1E-16
41
1
10
31.7643441340168
20
-1.38066128688058
30
-1E-16
41
1
10
31.5108830968086
20
-1.20783676226697
30
-1E-16
41
1
10
31.4264271056957
20
-1.1472196385107
30
0
41
1
10
31.2994067533822
20
-1.05208226558096
30
0
41
1
10
31.2570105008103
20
-1.01966741397564
30
-1E-16
41
1
10
31.1720372570019
20
-0.953481952633723
30
0
41
1
10
31.1294114198245
20
-0.919673450592455
30
-1E-16
41
1
10
30.9162051251679
20
-0.747766041520947
30
0
41
1
10
30.7477272690502
20
-0.602994784078504
30
1E-16
41
1
10
30.4950283985725
20
-0.378426460954984
30
0
41
1
10
30.4107982412776
20
-0.302332479317044
30
-2E-16
41
1
10
30.2841126543893
20
-0.186689697753053
30
0
41
1
10
30.2206835703633
20
-0.128493825614328
30
-1E-16
41
1
10
30.1570537103286
20
-0.0698073123944027
30
2E-16
41
1
10
30.1145812191232
20
-0.030581679052915
30
1E-16
41
1
10
30.0933009621554
20
-0.0109018432756898
30
0
41
1
10
29.902208595799
20
0.165983288842597
30
1E-16
41
1
10
29.7344624781441
20
0.322354207204967
30
1E-16
41
1
10
29.3993522862686
20
0.629450375109343
30
-1E-16
41
1
10
29.2319894920322
20
0.780176102376686
30
-1E-16
41
1
10
29.0206572969614
20
0.962486718130293
30
0
41
1
10
28.9781985162501
20
0.998713620657924
30
1E-16
41
1
10
28.8935739519235
20
1.07000426027611
30
-1E-16
41
1
10
28.8513837328618
20
1.10509137953574
30
1E-16
41
1
10
28.7250827089168
20
1.20861859983708
30
1E-16
41
1
10
28.6412364484854
20
1.27532174692027
30
-1E-16
41
1
10
28.3900663444791
20
1.46802191171886
30
-1E-16
41
1
10
28.2231305004336
20
1.58664773250689
30
1E-16
41
1
10
28.0128371442096
20
1.72075607081399
30
0
41
1
10
27.9496273237835
20
1.75992282155161
30
1E-16
41
1
10
27.8861733102801
20
1.79743103527525
30
0
41
1
10
27.8438089736479
20
1.82206049638418
30
-1E-16
41
1
10
27.8226005359187
20
1.8341840911572
30
-1E-16
41
1
10
27.7168060583853
20
1.89361288200189
30
0
41
1
10
27.6326268874209
20
1.93754839557278
30
-1E-16
41
1
10
27.3807656891112
20
2.05847193072771
30
0
41
1
10
27.2137539329017
20
2.12460690206027
30
0
41
1
10
26.9620450946639
20
2.20133361946955
30
-1E-16
41
1
10
26.8779439025508
20
2.2231551919254
30
0
41
1
10
26.7511696278499
20
2.25008928630081
30
0
41
1
10
26.7087703617673
20
2.25810663530632
30
0
41
1
10
26.6238732419296
20
2.27214686340037
30
0
41
1
10
26.5815382627113
20
2.27814463637924
30
0
41
1
10
26.480646469157
20
2.29006168310815
30
0
41
1
10
26.4221669354011
20
2.29505275733402
30
0
41
1
10
26.3637816873106
20
2.2981331606922
30
0
0
SPLINE
5
115
100
AcDbEntity
8
1
62
256
6
ByLayer
370
18
48
1
60
0
100
AcDbSpline
70
4
71
3
72
43
73
39
40
0
40
0
40
0
40
0
40
0.0155694703351926
40
0.0155694703351926
40
0.0414755369053123
40
0.0544285701903744
40
0.0544285701903744
40
0.0673816034754366
40
0.0673816034754366
40
0.171005869755939
40
0.171005869755939
40
0.27463013603644
40
0.27463013603644
40
0.326442269176691
40
0.326442269176691
40
0.378254402316942
40
0.378254402316942
40
0.481878668597444
40
0.481878668597444
40
0.533690801737692
40
0.533690801737692
40
0.559596868307817
40
0.572549901592881
40
0.572549901592881
40
0.585502934877945
40
0.585502934877945
40
0.689127201158452
40
0.689127201158452
40
0.792751467438959
40
0.792751467438959
40
0.818657534009086
40
0.818657534009086
40
0.831610567294149
40
0.831610567294149
40
0.844563600579212
40
0.896375733719475
40
0.896375733719475
40
1
40
1
40
1
40
1
41
1
10
27.2153335175386
20
2.13297753632565
30
0
41
1
10
27.2406470043517
20
2.13906458463936
30
0
41
1
10
27.2659840598502
20
2.14482450827805
30
0
41
1
10
27.3335564523282
20
2.15928674804613
30
0
41
1
10
27.3969864859779
20
2.17146144875957
30
0
41
1
10
27.4606545741421
20
2.18152639640223
30
0
41
1
10
27.503159335639
20
2.18776178161807
30
0
41
1
10
27.5244626555237
20
2.19064468421541
30
0
41
1
10
27.7159180763852
20
2.21436055695867
30
0
41
1
10
27.884131920587
20
2.219664584837
30
0
41
1
10
28.2198432642657
20
2.199474465658
30
0
41
1
10
28.3873162215565
20
2.17398191472728
30
0
41
1
10
28.6403431082525
20
2.11243702639317
30
0
41
1
10
28.7250318814638
20
2.08801690425307
30
0
41
1
10
28.8953038707967
20
2.0313113828561
30
0
41
1
10
28.9799155507401
20
1.99935389146739
30
0
41
1
10
29.2328456756654
20
1.89321110175626
30
0
41
1
10
29.4002786459005
20
1.80879175155758
30
0
41
1
10
29.6521747145112
20
1.66329096521392
30
1E-16
41
1
10
29.736260705646
20
1.6116360473174
30
0
41
1
10
29.8629044772039
20
1.52956993092889
30
0
41
1
10
29.9263554169569
20
1.48739052117241
30
1E-16
41
1
10
29.9900647960484
20
1.44351434397262
30
-1E-16
41
1
10
30.0326023990349
20
1.41388852671091
30
0
41
1
10
30.0539234806458
20
1.39887373578662
30
1E-16
41
1
10
30.2454102399553
20
1.26258429508863
30
-1E-16
41
1
10
30.4135900301213
20
1.13268594882382
30
0
41
1
10
30.7495206057052
20
0.859273436163164
30
0
41
1
10
30.9172402036527
20
0.715729066695332
30
1E-16
41
1
10
31.1288762153262
20
0.529892942628834
30
1E-16
41
1
10
31.1713041207624
20
0.492405589494467
30
0
41
1
10
31.2351436457892
20
0.435734240820579
30
1E-16
41
1
10
31.2564750468137
20
0.416753754583226
30
-1E-16
41
1
10
31.2990711158501
20
0.378778206249848
30
0
41
1
10
31.4054429805458
20
0.283760238100342
30
-2E-16
41
1
10
31.5113180760332
20
0.188451718800025
30
0
41
1
10
31.7651838387192
20
-0.0400440521622443
30
1E-16
41
1
10
31.9341043005827
20
-0.19206213778395
30
0
41
1
10
32.1046719124859
20
-0.341548483216798
30
-1E-16
0
SPLINE
5
116
100
AcDbEntity
8
1
62
256
6
ByLayer
370
18
48
1
60
0
100
AcDbSpline
70
4
71
3
72
31
73
27
40
0
40
0
40
0
40
0
40
0.157158594300799
40
0.157158594300799
40
0.235737891451195
40
0.235737891451195
40
0.27502754002639
40
0.27502754002639
40
0.314317188601584
40
0.314317188601584
40
0.471475782902348
40
0.471475782902348
40
0.550055080052727
40
0.550055080052727
40
0.589344728627913
40
0.608989552915503
40
0.608989552915503
40
0.628634377203092
40
0.628634377203092
40
0.785792971503835
40
0.785792971503835
40
0.942951565804578
40
0.942951565804578
40
0.982241214379763
40
0.982241214379763
40
1
40
1
40
1
40
1
41
1
10
32.1046719124859
20
0.279167998448486
30
0
41
1
10
31.93340603872
20
0.435144563876861
30
1E-16
41
1
10
31.7643441340167
20
0.587848250374293
30
0
41
1
10
31.5108830968086
20
0.808906857253817
30
1E-16
41
1
10
31.4264271056957
20
0.881265638181844
30
-1E-16
41
1
10
31.2994067533821
20
0.987407088862341
30
-1E-16
41
1
10
31.2570105008102
20
1.02238781041757
30
0
41
1
10
31.1720372570019
20
1.09147495859327
30
1E-16
41
1
10
31.1294114198245
20
1.12561838726577
30
0
41
1
10
30.9162051251679
20
1.2935558105525
30
1E-16
41
1
10
30.7477272690502
20
1.41723260068702
30
0
41
1
10
30.4950283985725
20
1.58475655372842
30
1E-16
41
1
10
30.4107982412775
20
1.63759229463645
30
-1E-16
41
1
10
30.2841126543893
20
1.71205101374434
30
0
41
1
10
30.2206835703633
20
1.74807999621467
30
-1E-16
41
1
10
30.1570537103286
20
1.78224318489592
30
0
41
1
10
30.1145812191232
20
1.80459625465286
30
0
41
1
10
30.0933009621554
20
1.81557022950102
30
0
41
1
10
29.9022085957989
20
1.91204859128592
30
0
41
1
10
29.7344624781441
20
1.98208395980464
30
0
41
1
10
29.3993522862686
20
2.090281077783
30
0
41
1
10
29.2319894920321
20
2.12843858710869
30
0
41
1
10
29.0206572969613
20
2.15515009408514
30
0
41
1
10
28.9781985162501
20
2.15944432275629
30
0
41
1
10
28.9167612285117
20
2.16409641408671
30
0
41
1
10
28.8976611605361
20
2.16532349030132
30
0
41
1
10
28.8785830580579
20
2.16633105778268
30
0
0
SPLINE
5
117
100
AcDbEntity
8
1
62
256
6
ByLayer
370
18
48
1
60
0
100
AcDbSpline
70
4
71
3
72
26
73
22
40
0
40
0
40
0
40
0
40
0.0472662427544804
40
0.0472662427544804
40
0.100195895934789
40
0.126660722524943
40
0.126660722524943
40
0.153125549115097
40
0.153125549115097
40
0.364844161836311
40
0.364844161836311
40
0.576562774557524
40
0.576562774557524
40
0.62949242773783
40
0.62949242773783
40
0.655957254327983
40
0.655957254327983
40
0.682422080918136
40
0.788281387278758
40
0.788281387278758
40
1
40
1
40
1
40
1
41
1
10
29.7077822962388
20
1.99369885159703
30
0
41
1
10
29.745362947671
20
2.00346238695428
30
0
41
1
10
29.7829922075316
20
2.01246282390761
30
0
41
1
10
29.8629044772039
20
2.0298950101278
30
0
41
1
10
29.9263554169569
20
2.04224569266864
30
0
41
1
10
29.9900647960484
20
2.05235027732877
30
0
41
1
10
30.0326023990348
20
2.05858108196409
30
0
41
1
10
30.0539234806458
20
2.06144581685749
30
0
41
1
10
30.2454102399553
20
2.08484003828025
30
0
41
1
10
30.4135900301213
20
2.08885691024497
30
0
41
1
10
30.7495206057052
20
2.0641601750896
30
0
41
1
10
30.9172402036527
20
2.03544737824055
30
0
41
1
10
31.1288762153262
20
1.97884468337784
30
0
41
1
10
31.1713041207623
20
1.96648559903087
30
-1E-16
41
1
10
31.2351436457892
20
1.946374878271
30
0
41
1
10
31.2564750468137
20
1.93940267897824
30
0
41
1
10
31.2990711158501
20
1.92497988653597
30
0
41
1
10
31.4054429805458
20
1.8877132452437
30
0
41
1
10
31.5113180760332
20
1.84447438630886
30
0
41
1
10
31.7651838387192
20
1.72968208495263
30
-1E-16
41
1
10
31.9341043005827
20
1.63849386356637
30
-1E-16
41
1
10
32.1046719124859
20
1.53342390363812
30
0
0
SPLINE
5
118
100
AcDbEntity
8
1
62
256
6
ByLayer
370
18
48
1
60
0
100
AcDbSpline
70
4
71
3
72
12
73
8
40
0
40
0
40
0
40
0
40
0.601503535097698
40
0.601503535097698
40
0.902255302646546
40
0.902255302646546
40
1
40
1
40
1
40
1
41
1
10
32.1046719124859
20
1.8522812183889
30
0
41
1
10
31.93340603872
20
1.91905169561261
30
-1E-16
41
1
10
31.7643441340165
20
1.9685095372551
30
0
41
1
10
31.5108830968084
20
2.01674361952101
30
0
41
1
10
31.4264271056957
20
2.02848527669252
30
0
41
1
10
31.314225689491
20
2.03820555446828
30
0
41
1
10
31.2866807908868
20
2.04012411596108
30
0
41
1
10
31.2591027733333
20
2.04157347838509
30
0
0
SPLINE
5
119
100
AcDbEntity
8
1
62
256
6
ByLayer
370
18
48
1
60
0
100
AcDbSpline
70
4
71
3
72
12
73
8
40
0
40
0
40
0
40
0
40
0.482936821899285
40
0.482936821899285
40
0.741468410949641
40
0.741468410949641
40
1
40
1
40
1
40
1
41
1
10
24.4960994917108
20
-2.27651088507903
30
0
41
1
10
24.416817972888
20
-2.30292375589093
30
0
41
1
10
24.3372775835487
20
-2.32636848944787
30
0
41
1
10
24.2145374454276
20
-2.35767039103644
30
0
41
1
10
24.1716235634662
20
-2.36770500074925
30
0
41
1
10
24.0858504675744
20
-2.38592197431183
30
0
41
1
10
24.0429477712086
20
-2.39411602321158
30
0
41
1
10
24.0000000000001
20
-2.4013948585845
30
0
0
SPLINE
5
11A
100
AcDbEntity
8
1
62
256
6
ByLayer
370
18
48
1
60
0
100
AcDbSpline
70
4
71
3
72
16
73
12
40
0
40
0
40
0
40
0
40
0.125
40
0.125
40
0.25
40
0.25
40
0.5
40
0.5
40
0.75
40
0.75
40
1
40
1
40
1
40
1
41
1
10
24.0000000000001
20
-2.4013948585845
30
0
41
1
10
23.9658698189582
20
-2.40719697792991
30
0
41
1
10
23.9317715403715
20
-2.4124062197356
30
0
41
1
10
23.8631367555246
20
-2.42163148622234
30
0
41
1
10
23.8285974612255
20
-2.42564845333791
30
0
41
1
10
23.72373586942
20
-2.43604178399474
30
0
41
1
10
23.6520802049328
20
-2.44076294136713
30
0
41
1
10
23.5044210710281
20
-2.4469480180737
30
0
41
1
10
23.4284704395114
20
-2.44843802539097
30
0
41
1
10
23.273576492811
20
-2.44899021056378
30
0
41
1
10
23.1945847215081
20
-2.44805100238924
30
0
41
1
10
23.1144363298481
20
-2.44612702709401
30
0
0
SPLINE
5
11B
100
AcDbEntity
8
1
62
256
6
ByLayer
370
18
48
1
60
0
100
AcDbSpline
70
4
71
3
72
16
73
12
40
0
40
0
40
0
40
0
40
0.3686976514222
40
0.3686976514222
40
0.553046477133296
40
0.553046477133296
40
0.645220889988844
40
0.645220889988844
40
0.737395302844392
40
0.737395302844392
40
1
40
1
40
1
40
1
41
1
10
23.9999999999994
20
-2.1033041721314
30
0
41
1
10
24.1701263554818
20
-2.1715132613005
30
0
41
1
10
24.3390773607294
20
-2.22622453761795
30
0
41
1
10
24.592801447616
20
-2.28738400975109
30
0
41
1
10
24.6774261131299
20
-2.30427976254481
30
0
41
1
10
24.8046967599167
20
-2.32424807182849
30
0
41
1
10
24.8471899546483
20
-2.33000942735541
30
0
41
1
10
24.9322753135579
20
-2.33970390242709
30
0
41
1
10
24.9747036260711
20
-2.34361894760073
30
0
41
1
10
25.1376589631481
20
-2.3551327185624
30
0
41
1
10
25.2575400760509
20
-2.3561751196157
30
0
41
1
10
25.3771883267303
20
-2.34983572470165
30
0
0
SPLINE
5
11C
100
AcDbEntity
8
1
62
256
6
ByLayer
370
18
48
1
60
0
100
AcDbSpline
70
4
71
3
72
31
73
27
40
0
40
0
40
0
40
0
40
0.0531797652873763
40
0.0531797652873763
40
0.132081451513423
40
0.132081451513423
40
0.171532294626447
40
0.171532294626447
40
0.210983137739471
40
0.210983137739471
40
0.368786510191583
40
0.368786510191583
40
0.526589882643695
40
0.526589882643695
40
0.566040725756723
40
0.566040725756723
40
0.60549156886975
40
0.684393255095801
40
0.684393255095801
40
0.842196627547902
40
0.842196627547902
40
0.921098313773953
40
0.921098313773953
40
0.960549156886976
40
0.960549156886976
40
1
40
1
40
1
40
1
41
1
10
27.215393996666
20
-2.11895836677027
30
0
41
1
10
27.1589590839243
20
-2.13958045663767
30
0
41
1
10
27.1024986569953
20
-2.1585201018292
30
0
41
1
10
26.9620450946639
20
-2.20133361946955
30
1E-16
41
1
10
26.8779439025508
20
-2.2231551919254
30
0
41
1
10
26.7511696278499
20
-2.25008928630081
30
0
41
1
10
26.7087703617673
20
-2.25810663530632
30
0
41
1
10
26.6238732419297
20
-2.27214686340037
30
0
41
1
10
26.5815382627113
20
-2.27814463637924
30
0
41
1
10
26.3702908346911
20
-2.30309657134234
30
0
41
1
10
26.2026447353468
20
-2.30698304134876
30
0
41
1
10
25.8667778456014
20
-2.28379842801741
30
0
41
1
10
25.6985705995041
20
-2.25672357801483
30
0
41
1
10
25.4859869638157
20
-2.20363947752105
30
-1E-16
41
1
10
25.4433073538615
20
-2.19204179891332
30
0
41
1
10
25.3582673444063
20
-2.16710145531363
30
0
41
1
10
25.2309816302662
20
-2.12702766526576
30
1E-16
41
1
10
25.1042841807853
20
-2.07919726782188
30
0
41
1
10
24.8511056726424
20
-1.97370635562083
30
0
41
1
10
24.6825937401035
20
-1.89030389653479
30
0
41
1
10
24.4280572788802
20
-1.74714154621159
30
1E-16
41
1
10
24.342926743529
20
-1.6963978669591
30
0
41
1
10
24.2145374454277
20
-1.61587852615091
30
0
41
1
10
24.1716235634662
20
-1.58830438570132
30
-1E-16
41
1
10
24.0858504675744
20
-1.53195853742457
30
0
41
1
10
24.0429477712086
20
-1.50316001481139
30
0
41
1
10
24.0000000000001
20
-1.47376374543563
30
-1E-16
0
SPLINE
5
11D
100
AcDbEntity
8
1
62
256
6
ByLayer
370
18
48
1
60
0
100
AcDbSpline
70
4
71
3
72
35
73
31
40
0
40
0
40
0
40
0
40
0.125616317089182
40
0.125616317089182
40
0.188424475633773
40
0.188424475633773
40
0.219828554906067
40
0.219828554906067
40
0.251232634178361
40
0.251232634178361
40
0.376848951267535
40
0.376848951267535
40
0.502465268356708
40
0.502465268356708
40
0.533869347629001
40
0.533869347629001
40
0.565273426901293
40
0.565273426901293
40
0.628081585445879
40
0.628081585445879
40
0.753697902535049
40
0.753697902535049
40
0.816506061079632
40
0.816506061079632
40
0.84791014035192
40
0.863612179988067
40
0.863612179988067
40
0.879314219624214
40
0.879314219624214
40
1
40
1
40
1
40
1
41
1
10
23.9999999999994
20
-0.011617551658162
30
0
41
1
10
24.1701263554818
20
-0.164751033987784
30
-1E-16
41
1
10
24.3390773607294
20
-0.315875611343785
30
-1E-16
41
1
10
24.592801447616
20
-0.537314186618147
30
-1E-16
41
1
10
24.6774261131298
20
-0.610250494414146
30
1E-16
41
1
10
24.8046967599167
20
-0.718046234858178
30
-1E-16
41
1
10
24.8471899546483
20
-0.753721481939465
30
0
41
1
10
24.9322753135579
20
-0.824434976708517
30
2E-16
41
1
10
24.9747036260711
20
-0.859337174245383
30
-2E-16
41
1
10
25.1863890395144
20
-1.03148799499826
30
2E-16
41
1
10
25.3542843000029
20
-1.16167035649852
30
1E-16
41
1
10
25.689959969088
20
-1.40455524006183
30
0
41
1
10
25.8577324888346
20
-1.51726556870923
30
0
41
1
10
26.0691601021704
20
-1.64536185272388
30
1E-16
41
1
10
26.1115320965898
20
-1.67033938547664
30
-1E-16
41
1
10
26.1964979079705
20
-1.71895486287417
30
0
41
1
10
26.2391226580934
20
-1.74260632238861
30
1E-16
41
1
10
26.3664401222078
20
-1.81096150570349
30
0
41
1
10
26.4508866483307
20
-1.85325052500102
30
-1E-16
41
1
10
26.7034974144484
20
-1.97010723625502
30
0
41
1
10
26.8709366862142
20
-2.03468862515115
30
1E-16
41
1
10
27.1228442119262
20
-2.11045531528029
30
-1E-16
41
1
10
27.2069371223481
20
-2.13218693638797
30
0
41
1
10
27.3335564523282
20
-2.15928674804613
30
0
41
1
10
27.3969864859779
20
-2.17146144875957
30
0
41
1
10
27.4606545741421
20
-2.18152639640223
30
0
41
1
10
27.503159335639
20
-2.18776178161807
30
0
41
1
10
27.5244626555237
20
-2.19064468421541
30
0
41
1
10
27.7092382790581
20
-2.2135331203541
30
0
41
1
10
27.8709238428876
20
-2.21922390450365
30
0
41
1
10
28.0322204483343
20
-2.21068704633697
30
0
0
SPLINE
5
11E
100
AcDbEntity
8
1
62
256
6
ByLayer
370
18
48
1
60
0
100
AcDbSpline
70
4
71
2
72
6
73
3
40
0
40
0
40
0
40
1
40
1
40
1
41
1
10
30.7157167415272
20
1.43483849016766
30
0
41
1
10
30.7235608027836
20
1.43000810651577
30
0
41
1
10
30.7314651703872
20
1.42490558145369
30
0
0
SPLINE
5
11F
100
AcDbEntity
8
1
62
256
6
ByLayer
370
18
48
1
60
0
100
AcDbSpline
70
4
71
2
72
6
73
3
40
0
40
0
40
0
40
1
40
1
40
1
41
1
10
30.7303556269739
20
1.42562215883476
30
0
41
1
10
30.7303552493684
20
1.42561196620446
30
0
41
1
10
30.730354871763
20
1.42560182491008
30
0
0
SPLINE
5
120
100
AcDbEntity
8
1
62
256
6
ByLayer
370
18
48
1
60
0
100
AcDbSpline
70
4
71
2
72
6
73
3
40
0
40
0
40
0
40
1
40
1
40
1
41
1
10
28.8218336380107
20
1.12926804021242
30
0
41
1
10
28.8218247284793
20
1.12929112570259
30
0
41
1
10
28.8218158189383
20
1.12931538951133
30
0
0
SPLINE
5
121
100
AcDbEntity
8
1
62
256
6
ByLayer
370
18
48
1
60
0
100
AcDbSpline
70
4
71
2
72
6
73
3
40
0
40
0
40
0
40
1
40
1
40
1
41
1
10
26.8119769106313
20
-0.0793881889033514
30
2E-16
41
1
10
26.8119824985878
20
-0.0793981613831249
30
2E-16
41
1
10
26.8119880865465
20
-0.0794086404306142
30
2E-16
0
SPLINE
5
122
100
AcDbEntity
8
1
62
256
6
ByLayer
370
18
48
1
60
0
100
AcDbSpline
70
4
71
2
72
6
73
3
40
0
40
0
40
0
40
1
40
1
40
1
41
1
10
24.7637675495238
20
0.247312230370341
30
-1E-16
41
1
10
24.7638292314423
20
0.247818857706932
30
-1E-16
41
1
10
24.763890913814
20
0.248318986224092
30
-1E-16
0
INSERT
5
148
100
AcDbEntity
8
1
62
256
6
ByLayer
370
18
48
1
60
0
100
AcDbBlockReference
2
LABLE3D_1
10
48.300458
20
-20.39795
30
0
41
1
42
1
43
1
50
0
210
0
220
0
230
1
0
LINE
5
7D
100
AcDbEntity
8
80
62
256
6
ByLayer
370
18
48
1
60
0
100
AcDbLine
10
0
20
0
30
0
11
-3
21
0
31
0
39
0
210
0
220
0
230
1
0
LINE
5
7E
100
AcDbEntity
8
81
62
256
6
ByLayer
370
18
48
1
60
0
100
AcDbLine
10
34
20
0
30
0
11
37
21
0
31
0
39
0
210
0
220
0
230
1
0
LINE
5
7F
100
AcDbEntity
8
4
62
256
6
ByLayer
370
18
48
0.05
60
0
100
AcDbLine
10
0
20
0
30
0
11
37
21
0
31
0
39
0
210
0
220
0
230
1
0
LINE
5
81
100
AcDbEntity
8
SK4
62
256
6
ByLayer
370
18
48
0.05
60
0
100
AcDbLine
10
-39
20
0
30
0
11
37
21
0
31
0
39
0
210
0
220
0
230
1
0
LINE
5
83
100
AcDbEntity
8
1
62
256
6
ByLayer
370
18
48
1
60
0
100
AcDbLine
10
0
20
-3
30
0
11
0
21
3
31
0
39
0
210
0
220
0
230
1
0
LINE
5
84
100
AcDbEntity
8
1
62
256
6
ByLayer
370
18
48
1
60
0
100
AcDbLine
10
12.971235
20
-3
30
0
11
12.971235
21
3
31
0
39
0
210
0
220
0
230
1
0
LINE
5
85
100
AcDbEntity
8
SK1
62
256
6
ByLayer
370
18
48
1
60
0
100
AcDbLine
10
-36
20
-2.6
30
0
11
-36
21
2.6
31
0
39
0
210
0
220
0
230
1
0
LINE
5
87
100
AcDbEntity
8
SK1
62
256
6
ByLayer
370
18
48
1
60
0
100
AcDbLine
10
0
20
-3
30
0
11
0
21
3
31
0
39
0
210
0
220
0
230
1
0
LINE
5
88
100
AcDbEntity
8
SK1
62
256
6
ByLayer
370
18
48
1
60
0
100
AcDbLine
10
-35.6
20
-3
30
0
11
-35.6
21
3
31
0
39
0
210
0
220
0
230
1
0
LINE
5
89
100
AcDbEntity
8
1
62
256
6
ByLayer
370
18
48
1
60
0
100
AcDbLine
10
12.971235
20
3
30
0
11
0
21
3
31
0
39
0
210
0
220
0
230
1
0
LINE
5
8A
100
AcDbEntity
8
1
62
256
6
ByLayer
370
18
48
1
60
0
100
AcDbLine
10
0
20
-3
30
0
11
12.971235
21
-3
31
0
39
0
210
0
220
0
230
1
0
LINE
5
8B
100
AcDbEntity
8
1
62
256
6
ByLayer
370
18
48
1
60
0
100
AcDbLine
10
31.260061
20
2.041523
30
0
11
30.528749
21
2.07985
31
0
39
0
210
0
220
0
230
1
0
LINE
5
8C
100
AcDbEntity
8
1
62
256
6
ByLayer
370
18
48
1
60
0
100
AcDbLine
10
28.878938
20
2.166313
30
0
11
28.032498
21
2.210673
31
0
39
0
210
0
220
0
230
1
0
LINE
5
8D
100
AcDbEntity
8
1
62
256
6
ByLayer
370
18
48
1
60
0
100
AcDbLine
10
26.364482
20
2.29809
30
0
11
25.377537
21
2.349813
31
0
39
0
210
0
220
0
230
1
0
LINE
5
8E
100
AcDbEntity
8
1
62
256
6
ByLayer
370
18
48
1
60
0
100
AcDbLine
10
23.621089
20
2.441865
30
0
11
12.971235
21
3
31
0
39
0
210
0
220
0
230
1
0
LINE
5
8F
100
AcDbEntity
8
1
62
256
6
ByLayer
370
18
48
1
60
0
100
AcDbLine
10
12.971235
20
-3
30
0
11
23.621089
21
-2.441865
31
0
39
0
210
0
220
0
230
1
0
LINE
5
90
100
AcDbEntity
8
1
62
256
6
ByLayer
370
18
48
1
60
0
100
AcDbLine
10
25.377537
20
-2.349813
30
0
11
26.364482
21
-2.29809
31
0
39
0
210
0
220
0
230
1
0
LINE
5
91
100
AcDbEntity
8
1
62
256
6
ByLayer
370
18
48
1
60
0
100
AcDbLine
10
28.032498
20
-2.210673
30
0
11
28.878938
21
-2.166313
31
0
39
0
210
0
220
0
230
1
0
LINE
5
92
100
AcDbEntity
8
1
62
256
6
ByLayer
370
18
48
1
60
0
100
AcDbLine
10
30.528749
20
-2.07985
30
0
11
31.260061
21
-2.041523
31
0
39
0
210
0
220
0
230
1
0
LINE
5
93
100
AcDbEntity
8
SK1
62
256
6
ByLayer
370
18
48
1
60
0
100
AcDbLine
10
-36
20
-2.6
30
0
11
-35.6
21
-3
31
0
39
0
210
0
220
0
230
1
0
LINE
5
94
100
AcDbEntity
8
SK1
62
256
6
ByLayer
370
18
48
1
60
0
100
AcDbLine
10
-35.6
20
3
30
0
11
-36
21
2.6
31
0
39
0
210
0
220
0
230
1
0
LINE
5
95
100
AcDbEntity
8
SK1
62
256
6
ByLayer
370
18
48
1
60
0
100
AcDbLine
10
0
20
3
30
0
11
-35.6
21
3
31
0
39
0
210
0
220
0
230
1
0
LINE
5
96
100
AcDbEntity
8
SK1
62
256
6
ByLayer
370
18
48
1
60
0
100
AcDbLine
10
-35.6
20
-3
30
0
11
0
21
-3
31
0
39
0
210
0
220
0
230
1
0
LINE
5
97
100
AcDbEntity
8
SK2
62
256
6
ByLayer
370
13
48
1
60
0
100
AcDbLine
10
-42.5
20
-10.5
30
0
11
-42.5
21
21.133313
31
0
39
0
210
0
220
0
230
1
0
LINE
5
99
100
AcDbEntity
8
SK2
62
256
6
ByLayer
370
13
48
1
60
0
100
AcDbLine
10
-37.5875
20
-3
30
0
11
-44.5
21
-3
31
0
39
0
210
0
220
0
230
1
0
LINE
5
9A
100
AcDbEntity
8
SK2
62
256
6
ByLayer
370
13
48
1
60
0
100
AcDbLine
10
-37.5875
20
3
30
0
11
-44.5
21
3
31
0
39
0
210
0
220
0
230
1
0
LINE
5
9B
100
AcDbEntity
8
1
62
256
6
ByLayer
370
18
48
1
60
1
100
AcDbLine
10
-42.5
20
-3
30
0
11
-42.039216
21
-6.499998
31
0
39
0
210
0
220
0
230
1
0
LINE
5
9C
100
AcDbEntity
8
1
62
256
6
ByLayer
370
18
48
1
60
1
100
AcDbLine
10
-42.039216
20
-6.499998
30
0
11
-42.960784
21
-6.500002
31
0
39
0
210
0
220
0
230
1
0
LINE
5
9D
100
AcDbEntity
8
1
62
256
6
ByLayer
370
18
48
1
60
1
100
AcDbLine
10
-42.960784
20
-6.500002
30
0
11
-42.5
21
-3
31
0
39
0
210
0
220
0
230
1
0
LINE
5
9E
100
AcDbEntity
8
1
62
256
6
ByLayer
370
18
48
1
60
1
100
AcDbLine
10
-42.5
20
3
30
0
11
-42.960784
21
6.499998
31
0
39
0
210
0
220
0
230
1
0
LINE
5
9F
100
AcDbEntity
8
1
62
256
6
ByLayer
370
18
48
1
60
1
100
AcDbLine
10
-42.960784
20
6.499998
30
0
11
-42.039216
21
6.500002
31
0
39
0
210
0
220
0
230
1
0
LINE
5
A0
100
AcDbEntity
8
1
62
256
6
ByLayer
370
18
48
1
60
1
100
AcDbLine
10
-42.039216
20
6.500002
30
0
11
-42.5
21
3
31
0
39
0
210
0
220
0
230
1
0
LINE
5
A1
100
AcDbEntity
8
SK2
62
256
6
ByLayer
370
13
48
1
60
0
100
AcDbLine
10
50.5
20
-9.5
30
0
11
50.5
21
20.449199
31
0
39
0
210
0
220
0
230
1
0
LINE
5
A2
100
AcDbEntity
8
SK2
62
256
6
ByLayer
370
13
48
1
60
0
100
AcDbLine
10
35.5875
20
-2
30
0
11
52.5
21
-2
31
0
39
0
210
0
220
0
230
1
0
LINE
5
A3
100
AcDbEntity
8
SK2
62
256
6
ByLayer
370
13
48
1
60
0
100
AcDbLine
10
35.5875
20
2
30
0
11
52.5
21
2
31
0
39
0
210
0
220
0
230
1
0
LINE
5
A4
100
AcDbEntity
8
1
62
256
6
ByLayer
370
18
48
1
60
1
100
AcDbLine
10
50.5
20
-2
30
0
11
50.960784
21
-5.499998
31
0
39
0
210
0
220
0
230
1
0
LINE
5
A5
100
AcDbEntity
8
1
62
256
6
ByLayer
370
18
48
1
60
1
100
AcDbLine
10
50.960784
20
-5.499998
30
0
11
50.039216
21
-5.500002
31
0
39
0
210
0
220
0
230
1
0
LINE
5
A6
100
AcDbEntity
8
1
62
256
6
ByLayer
370
18
48
1
60
1
100
AcDbLine
10
50.039216
20
-5.500002
30
0
11
50.5
21
-2
31
0
39
0
210
0
220
0
230
1
0
LINE
5
A7
100
AcDbEntity
8
1
62
256
6
ByLayer
370
18
48
1
60
1
100
AcDbLine
10
50.5
20
2
30
0
11
50.039216
21
5.499998
31
0
39
0
210
0
220
0
230
1
0
LINE
5
A8
100
AcDbEntity
8
1
62
256
6
ByLayer
370
18
48
1
60
1
100
AcDbLine
10
50.039216
20
5.499998
30
0
11
50.960784
21
5.500002
31
0
39
0
210
0
220
0
230
1
0
LINE
5
A9
100
AcDbEntity
8
1
62
256
6
ByLayer
370
18
48
1
60
1
100
AcDbLine
10
50.960784
20
5.500002
30
0
11
50.5
21
2
31
0
39
0
210
0
220
0
230
1
0
LINE
5
AA
100
AcDbEntity
8
SK2
62
256
6
ByLayer
370
13
48
1
60
0
100
AcDbLine
10
-24.4125
20
0
30
0
11
-7.449725
21
0
31
0
39
0
210
0
220
0
230
1
0
LINE
5
AB
100
AcDbEntity
8
SK2
62
256
6
ByLayer
370
13
48
1
60
0
100
AcDbLine
10
12.413112
20
2.54408
30
0
11
-11.40521
21
3.2057
31
0
39
0
210
0
220
0
230
1
0
LINE
5
AC
100
AcDbEntity
8
1
62
256
6
ByLayer
370
18
48
1
60
1
100
AcDbLine
10
-9.449725
20
0
30
0
11
-8.961963
21
-3.496341
31
0
39
0
210
0
220
0
230
1
0
LINE
5
AD
100
AcDbEntity
8
1
62
256
6
ByLayer
370
18
48
1
60
1
100
AcDbLine
10
-8.961963
20
-3.496341
30
0
11
-9.883503
21
-3.503451
31
0
39
0
210
0
220
0
230
1
0
LINE
5
AE
100
AcDbEntity
8
1
62
256
6
ByLayer
370
18
48
1
60
1
100
AcDbLine
10
-9.883503
20
-3.503451
30
0
11
-9.449725
21
0
31
0
39
0
210
0
220
0
230
1
0
LINE
5
AF
100
AcDbEntity
8
1
62
256
6
ByLayer
370
18
48
1
60
1
100
AcDbLine
10
-9.405981
20
3.150166
30
0
11
-9.742312
21
6.664308
31
0
39
0
210
0
220
0
230
1
0
LINE
5
B0
100
AcDbEntity
8
1
62
256
6
ByLayer
370
18
48
1
60
1
100
AcDbLine
10
-9.742312
20
6.664308
30
0
11
-8.821324
21
6.631618
31
0
39
0
210
0
220
0
230
1
0
LINE
5
B1
100
AcDbEntity
8
1
62
256
6
ByLayer
370
18
48
1
60
1
100
AcDbLine
10
-8.821324
20
6.631618
30
0
11
-9.405981
21
3.150166
31
0
39
0
210
0
220
0
230
1
0
LINE
5
127
100
AcDbEntity
8
1
62
256
6
ByLayer
370
18
48
1
60
1
100
AcDbLine
10
-42.5
20
-3
30
0
11
-42.039216
21
-6.499998
31
0
39
0
210
0
220
0
230
1
0
LINE
5
128
100
AcDbEntity
8
1
62
256
6
ByLayer
370
18
48
1
60
1
100
AcDbLine
10
-42.039216
20
-6.499998
30
0
11
-42.960784
21
-6.500002
31
0
39
0
210
0
220
0
230
1
0
LINE
5
129
100
AcDbEntity
8
1
62
256
6
ByLayer
370
18
48
1
60
1
100
AcDbLine
10
-42.960784
20
-6.500002
30
0
11
-42.5
21
-3
31
0
39
0
210
0
220
0
230
1
0
LINE
5
12B
100
AcDbEntity
8
1
62
256
6
ByLayer
370
18
48
1
60
1
100
AcDbLine
10
-42.5
20
3
30
0
11
-42.960784
21
6.499998
31
0
39
0
210
0
220
0
230
1
0
LINE
5
12C
100
AcDbEntity
8
1
62
256
6
ByLayer
370
18
48
1
60
1
100
AcDbLine
10
-42.960784
20
6.499998
30
0
11
-42.039216
21
6.500002
31
0
39
0
210
0
220
0
230
1
0
LINE
5
12D
100
AcDbEntity
8
1
62
256
6
ByLayer
370
18
48
1
60
1
100
AcDbLine
10
-42.039216
20
6.500002
30
0
11
-42.5
21
3
31
0
39
0
210
0
220
0
230
1
0
LINE
5
131
100
AcDbEntity
8
1
62
256
6
ByLayer
370
18
48
1
60
1
100
AcDbLine
10
50.5
20
-2
30
0
11
50.960784
21
-5.499998
31
0
39
0
210
0
220
0
230
1
0
LINE
5
132
100
AcDbEntity
8
1
62
256
6
ByLayer
370
18
48
1
60
1
100
AcDbLine
10
50.960784
20
-5.499998
30
0
11
50.039216
21
-5.500002
31
0
39
0
210
0
220
0
230
1
0
LINE
5
133
100
AcDbEntity
8
1
62
256
6
ByLayer
370
18
48
1
60
1
100
AcDbLine
10
50.039216
20
-5.500002
30
0
11
50.5
21
-2
31
0
39
0
210
0
220
0
230
1
0
LINE
5
135
100
AcDbEntity
8
1
62
256
6
ByLayer
370
18
48
1
60
1
100
AcDbLine
10
50.5
20
2
30
0
11
50.039216
21
5.499998
31
0
39
0
210
0
220
0
230
1
0
LINE
5
136
100
AcDbEntity
8
1
62
256
6
ByLayer
370
18
48
1
60
1
100
AcDbLine
10
50.039216
20
5.499998
30
0
11
50.960784
21
5.500002
31
0
39
0
210
0
220
0
230
1
0
LINE
5
137
100
AcDbEntity
8
1
62
256
6
ByLayer
370
18
48
1
60
1
100
AcDbLine
10
50.960784
20
5.500002
30
0
11
50.5
21
2
31
0
39
0
210
0
220
0
230
1
0
LINE
5
13A
100
AcDbEntity
8
1
62
256
6
ByLayer
370
18
48
1
60
1
100
AcDbLine
10
-9.449725
20
0
30
0
11
-8.961963
21
-3.496341
31
0
39
0
210
0
220
0
230
1
0
LINE
5
13B
100
AcDbEntity
8
1
62
256
6
ByLayer
370
18
48
1
60
1
100
AcDbLine
10
-8.961963
20
-3.496341
30
0
11
-9.883503
21
-3.503451
31
0
39
0
210
0
220
0
230
1
0
LINE
5
13C
100
AcDbEntity
8
1
62
256
6
ByLayer
370
18
48
1
60
1
100
AcDbLine
10
-9.883503
20
-3.503451
30
0
11
-9.449725
21
0
31
0
39
0
210
0
220
0
230
1
0
LINE
5
13E
100
AcDbEntity
8
1
62
256
6
ByLayer
370
18
48
1
60
1
100
AcDbLine
10
-9.405981
20
3.150166
30
0
11
-9.742312
21
6.664308
31
0
39
0
210
0
220
0
230
1
0
LINE
5
13F
100
AcDbEntity
8
1
62
256
6
ByLayer
370
18
48
1
60
1
100
AcDbLine
10
-9.742312
20
6.664308
30
0
11
-8.821324
21
6.631618
31
0
39
0
210
0
220
0
230
1
0
LINE
5
140
100
AcDbEntity
8
1
62
256
6
ByLayer
370
18
48
1
60
1
100
AcDbLine
10
-8.821324
20
6.631618
30
0
11
-9.405981
21
3.150166
31
0
39
0
210
0
220
0
230
1
0
LINE
5
143
100
AcDbEntity
8
1
62
256
6
ByLayer
370
13
48
1
60
0
100
AcDbLine
10
49.800458
20
-20.39795
30
0
11
49.800458
21
-20.39795
31
0
39
0
210
0
220
0
230
1
0
MTEXT
5
123
100
AcDbEntity
8
SK2
62
256
6
ByLayer
370
18
48
1
60
0
100
AcDbMText
10
-43.841114
20
7.658437
30
0
210
0
220
0
230
1
1
%%c
40
3
41
0
44
1.084337
50
90
71
7
72
5
7
iso_b_vert
0
MTEXT
5
126
100
AcDbEntity
8
SK2
62
256
6
ByLayer
370
18
48
1
60
0
100
AcDbMText
10
-43.841114
20
13.635
30
0
210
0
220
0
230
1
1
\W0.6903;6 h6
40
3
41
0
44
1.084337
50
90
71
7
72
5
7
iso_b_vert
0
MTEXT
5
12F
100
AcDbEntity
8
SK2
62
256
6
ByLayer
370
18
48
1
60
0
100
AcDbMText
10
49.158886
20
6.658437
30
0
210
0
220
0
230
1
1
%%c
40
3
41
0
44
1.084337
50
90
71
7
72
5
7
iso_b_vert
0
MTEXT
5
130
100
AcDbEntity
8
SK2
62
256
6
ByLayer
370
18
48
1
60
0
100
AcDbMText
10
49.158886
20
12.635
30
0
210
0
220
0
230
1
1
\W0.7202;4 h6
40
3
41
0
44
1.084337
50
90
71
7
72
5
7
iso_b_vert
0
MTEXT
5
139
100
AcDbEntity
8
SK2
62
256
6
ByLayer
370
18
48
1
60
0
100
AcDbMText
10
-9.65512
20
11.162171
30
0
210
0
220
0
230
1
1
\W0.8531;3.0%%d
40
3
41
0
44
1.084337
50
81.1041430303379
71
7
72
5
7
iso_b_vert
0
MTEXT
5
14B
100
AcDbEntity
8
SK6
62
256
6
ByLayer
370
18
48
1
60
0
100
AcDbMText
10
-28.260739
20
-57.114886
30
0
210
0
220
0
230
1
1
\W0.7876;2T346-0400-RA0600   R2AH
40
3
41
0
44
1.084337
50
0
71
7
72
5
7
iso_b_vert
0
HATCH
5
12A
100
AcDbEntity
8
SK2
62
256
6
ByLayer
370
13
48
1
60
0
100
AcDbHatch
10
0
20
0
30
0
210
0
220
0
230
1
2
ANSI31
70
0
71
0
91
1
92
5
93
3
72
1
10
-42.5
20
-3
11
-42.0392162584472
21
-6.49999830744682
72
1
10
-42.0392162584472
20
-6.49999830744682
11
-42.9607837415528
21
-6.50000169255318
72
1
10
-42.9607837415528
20
-6.50000169255318
11
-42.5
21
-3
97
0
75
0
76
1
52
0
41
0.0062
77
0
78
1
53
45
43
0
44
0
45
-0.0139193969876572
46
0.0139193969876572
79
0
47
0
98
1
10
0
20
0
0
HATCH
5
12E
100
AcDbEntity
8
SK2
62
256
6
ByLayer
370
13
48
1
60
0
100
AcDbHatch
10
0
20
0
30
0
210
0
220
0
230
1
2
ANSI31
70
0
71
0
91
1
92
5
93
3
72
1
10
-42.5
20
3
11
-42.9607837415528
21
6.49999830744682
72
1
10
-42.9607837415528
20
6.49999830744682
11
-42.0392162584472
21
6.50000169255318
72
1
10
-42.0392162584472
20
6.50000169255318
11
-42.5
21
3
97
0
75
0
76
1
52
0
41
0.0062
77
0
78
1
53
45
43
0
44
0
45
-0.0139193969876572
46
0.0139193969876572
79
0
47
0
98
1
10
0
20
0
0
HATCH
5
134
100
AcDbEntity
8
SK2
62
256
6
ByLayer
370
13
48
1
60
0
100
AcDbHatch
10
0
20
0
30
0
210
0
220
0
230
1
2
ANSI31
70
0
71
0
91
1
92
5
93
3
72
1
10
50.5
20
-2
11
50.9607837415528
21
-5.49999830744682
72
1
10
50.9607837415528
20
-5.49999830744682
11
50.0392162584472
21
-5.50000169255318
72
1
10
50.0392162584472
20
-5.50000169255318
11
50.5
21
-2
97
0
75
0
76
1
52
0
41
0.0062
77
0
78
1
53
45
43
0
44
0
45
-0.0139193969876572
46
0.0139193969876572
79
0
47
0
98
1
10
0
20
0
0
HATCH
5
138
100
AcDbEntity
8
SK2
62
256
6
ByLayer
370
13
48
1
60
0
100
AcDbHatch
10
0
20
0
30
0
210
0
220
0
230
1
2
ANSI31
70
0
71
0
91
1
92
5
93
3
72
1
10
50.5
20
2
11
50.0392162584472
21
5.49999830744682
72
1
10
50.0392162584472
20
5.49999830744682
11
50.9607837415528
21
5.50000169255318
72
1
10
50.9607837415528
20
5.50000169255318
11
50.5
21
2
97
0
75
0
76
1
52
0
41
0.0062
77
0
78
1
53
45
43
0
44
0
45
-0.0139193969876572
46
0.0139193969876572
79
0
47
0
98
1
10
0
20
0
0
HATCH
5
13D
100
AcDbEntity
8
SK2
62
256
6
ByLayer
370
13
48
1
60
0
100
AcDbHatch
10
0
20
0
30
0
210
0
220
0
230
1
2
ANSI31
70
0
71
0
91
1
92
5
93
3
72
1
10
-9.44972514828612
20
0
11
-8.96196319473486
21
-3.49634067065523
72
1
10
-8.96196319473486
20
-3.49634067065523
11
-9.8835032463866
21
-3.50345116506037
72
1
10
-9.8835032463866
20
-3.50345116506037
11
-9.44972514828612
21
0
97
0
75
0
76
1
52
0
41
0.0062
77
0
78
1
53
45
43
0
44
0
45
-0.0139193969876572
46
0.0139193969876572
79
0
47
0
98
1
10
0
20
0
0
HATCH
5
141
100
AcDbEntity
8
SK2
62
256
6
ByLayer
370
13
48
1
60
0
100
AcDbHatch
10
0
20
0
30
0
210
0
220
0
230
1
2
ANSI31
70
0
71
0
91
1
92
5
93
3
72
1
10
-9.40598127731414
20
3.15016614659251
11
-9.74231167555271
21
6.66430781588113
72
1
10
-9.74231167555271
20
6.66430781588113
11
-8.82132414811386
21
6.63161836450817
72
1
10
-8.82132414811386
20
6.63161836450817
11
-9.40598127731414
21
3.15016614659251
97
0
75
0
76
1
52
0
41
0.0062
77
0
78
1
53
45
43
0
44
0
45
-0.0139193969876572
46
0.0139193969876572
79
0
47
0
98
1
10
0
20
0
0
DIMENSION
5
14E
100
AcDbEntity
8
SK2
62
256
6
ByLayer
370
18
48
1
60
0
100
AcDbDimension
2
_U0
10
34
20
-38.315264
30
0
11
-1
21
-38.315264
31
0
70
32
71
1
72
1
41
1
210
0
220
0
230
1
3
Standard
100
AcDbAlignedDimension
13
-36
23
3
33
0
14
34
24
2
34
0
50
0
100
AcDbRotatedDimension
1001
ACAD
1000
DSTYLE
1002
{
1070
   371
1070
    13
1070
   372
1070
    13
1070
     3
1000

1070
   170
1070
     0
1070
   144
1040
1.0
1070
   277
1070
     2
1070
   284
1070
     8
1070
   278
1070
    46
1070
   146
1040
1.166667
1070
   345
1005
16
1070
   347
1005
16
1070
   346
1005
16
1070
   344
1005
0
1070
   343
1005
0
1070
   172
1070
     1
1070
    76
1070
     0
1070
    75
1070
     0
1070
   282
1070
     0
1070
   281
1070
     0
1070
    71
1070
     0
1070
    74
1070
     0
1070
   279
1070
     0
1070
   173
1070
     1
1070
   340
1005
124
1070
   271
1070
     2
1070
   272
1070
     2
1070
    77
1070
     1
1070
    73
1070
     1
1070
   171
1070
     3
1070
   274
1070
     4
1070
   177
1070
     2
1070
   176
1070
     2
1070
   178
1070
     2
1070
    78
1070
     8
1070
    48
1040
-0.1
1070
    41
1040
3.5
1070
   147
1040
1.5
1070
    42
1040
1.5875
1070
    44
1040
2.0
1070
   140
1040
3.0
1002
}
1001
ACAD_DSTYLE_DIM_LINETYPE
1070
   380
1005
16
1001
ACAD_DSTYLE_DIM_EXT1_LINETYPE
1070
   381
1005
16
1001
ACAD_DSTYLE_DIM_EXT2_LINETYPE
1070
   382
1005
16
0
DIMENSION
5
167
100
AcDbEntity
8
SK2
62
256
6
ByLayer
370
18
48
1
60
0
100
AcDbDimension
2
_U1
10
0
20
-26.315264
30
0
11
17
21
-26.315264
31
0
70
32
71
1
72
1
41
1
210
0
220
0
230
1
3
Standard
100
AcDbAlignedDimension
13
34
23
-2
33
0
14
0
24
-3
34
0
50
0
100
AcDbRotatedDimension
1001
ACAD
1000
DSTYLE
1002
{
1070
   371
1070
    13
1070
   372
1070
    13
1070
     3
1000

1070
   170
1070
     0
1070
   144
1040
1.0
1070
   277
1070
     2
1070
   284
1070
     8
1070
   278
1070
    46
1070
   146
1040
1.166667
1070
   345
1005
16
1070
   347
1005
16
1070
   346
1005
16
1070
   344
1005
0
1070
   343
1005
0
1070
   172
1070
     1
1070
    76
1070
     0
1070
    75
1070
     0
1070
   282
1070
     0
1070
   281
1070
     0
1070
    71
1070
     0
1070
    74
1070
     0
1070
   279
1070
     0
1070
   173
1070
     1
1070
   340
1005
124
1070
   271
1070
     2
1070
   272
1070
     2
1070
    77
1070
     1
1070
    73
1070
     1
1070
   171
1070
     3
1070
   274
1070
     4
1070
   177
1070
     2
1070
   176
1070
     2
1070
   178
1070
     2
1070
    78
1070
     8
1070
    48
1040
-0.1
1070
    41
1040
3.5
1070
   147
1040
1.5
1070
    42
1040
1.5875
1070
    44
1040
2.0
1070
   140
1040
3.0
1002
}
1001
ACAD_DSTYLE_DIM_LINETYPE
1070
   380
1005
16
1001
ACAD_DSTYLE_DIM_EXT1_LINETYPE
1070
   381
1005
16
1001
ACAD_DSTYLE_DIM_EXT2_LINETYPE
1070
   382
1005
16
0
DIMENSION
5
17F
100
AcDbEntity
8
SK2
62
256
6
ByLayer
370
18
48
1
60
0
100
AcDbDimension
2
_U2
10
24
20
-12.315264
30
0
11
29
21
-12.315264
31
0
70
32
71
1
72
1
41
1
210
0
220
0
230
1
3
Standard
100
AcDbAlignedDimension
13
34
23
-2
33
0
14
24
24
-3
34
0
50
0
100
AcDbRotatedDimension
1001
ACAD
1000
DSTYLE
1002
{
1070
   371
1070
    13
1070
   372
1070
    13
1070
     3
1000

1070
   170
1070
     0
1070
   144
1040
1.0
1070
   277
1070
     2
1070
   284
1070
     8
1070
   278
1070
    46
1070
   146
1040
1.166667
1070
   345
1005
16
1070
   347
1005
16
1070
   346
1005
16
1070
   344
1005
0
1070
   343
1005
0
1070
   172
1070
     1
1070
    76
1070
     0
1070
    75
1070
     0
1070
   282
1070
     0
1070
   281
1070
     0
1070
    71
1070
     0
1070
    74
1070
     0
1070
   279
1070
     0
1070
   173
1070
     1
1070
   340
1005
124
1070
   271
1070
     2
1070
   272
1070
     2
1070
    77
1070
     1
1070
    73
1070
     1
1070
   171
1070
     3
1070
   274
1070
     4
1070
   177
1070
     2
1070
   176
1070
     2
1070
   178
1070
     2
1070
    78
1070
     8
1070
    48
1040
-0.1
1070
    41
1040
3.5
1070
   147
1040
1.5
1070
    42
1040
1.5875
1070
    44
1040
2.0
1070
   140
1040
3.0
1002
}
1001
ACAD_DSTYLE_DIM_LINETYPE
1070
   380
1005
16
1001
ACAD_DSTYLE_DIM_EXT1_LINETYPE
1070
   381
1005
16
1001
ACAD_DSTYLE_DIM_EXT2_LINETYPE
1070
   382
1005
16
0
ENDSEC
0
SECTION
2
OBJECTS
0
DICTIONARY
5
208
330
0
100
AcDbDictionary
280
0
281
1
3
ACAD_GROUP
350
209
3
ACAD_MLINESTYLE
350
20a
0
DICTIONARY
5
209
330
0
100
AcDbDictionary
280
0
281
1
0
DICTIONARY
5
20a
330
0
100
AcDbDictionary
280
0
281
1
3
Standard
350
18
0
MLINESTYLE
5
18
330
20a
100
AcDbMlineStyle
2
Standard
70
0
3

62
256
51
90
52
90
71
2
49
-0.5
62
256
6
ByLayer
49
0.5
62
256
6
ByLayer
0
RASTERVARIABLES
5
1f6
330

100
AcDbRasterVariables
90
0
70
1
71
1
72
1
0
ENDSEC
0
EOF
