0
SECTION
2
HEADER
9
$ACADVER
1
AC1015
9
$DWGCODEPAGE
3
ANSI_1252
9
$HANDSEED
5
239
9
$ANGBASE
50
0
9
$ANGDIR
70
0
9
$ATTMODE
70
1
9
$AUNITS
70
0
9
$AUPREC
70
0
9
$CECOLOR
62
256
9
$CELTSCALE
40
1
9
$CELTYPE
6
ByLayer
9
$CELWEIGHT
370
18
9
$CLAYER
8
0
9
$CMLJUST
70
0
9
$CMLSCALE
40
1
9
$CMLSTYLE
2
Standard
9
$DIMSTYLE
2
Standard
9
$TEXTSIZE
40
0.2
9
$TEXTSTYLE
7
Standard
9
$LUNITS
70
2
9
$LUPREC
70
4
9
$EXTNAMES
290
1
9
$INSUNITS
70
4
9
$LTSCALE
40
1
9
$LWDISPLAY
290
1
9
$PDMODE
70
0
9
$PDSIZE
40
0
9
$PLINEGEN
70
0
0
ENDSEC
0
SECTION
2
CLASSES
0
CLASS
1
RASTERVARIABLES
2
AcDbRasterVariables
3
ISM
90
0
280
0
281
0
0
ENDSEC
0
SECTION
2
TABLES
0
TABLE
2
VPORT
5
22f
100
AcDbSymbolTable
0
VPORT
5
1
100
AcDbSymbolTableRecord
100
AcDbViewportTableRecord
2
*Active
70
0
10
0
20
0
11
1
21
1
12
-1
22
1
13
0
23
0
14
0.5
24
0.5
15
10
25
10
16
0
26
0
36
1
17
0
27
0
37
0
0
ENDTAB
0
TABLE
2
LTYPE
5
230
100
AcDbSymbolTable
0
LTYPE
5
14
100
AcDbSymbolTableRecord
100
AcDbLinetypeTableRecord
70
0
2
ByBlock
3

72
65
73
0
40
0
0
LTYPE
5
15
100
AcDbSymbolTableRecord
100
AcDbLinetypeTableRecord
70
0
2
ByLayer
3

72
65
73
0
40
0
0
LTYPE
5
16
100
AcDbSymbolTableRecord
100
AcDbLinetypeTableRecord
70
0
2
Continuous
3
Solid line
72
65
73
0
40
0
0
LTYPE
5
6E
100
AcDbSymbolTableRecord
100
AcDbLinetypeTableRecord
70
0
2
CENTER
3
____ _ ____ _ ____ _ ____
72
65
73
4
40
47.5
49
22
74
0
49
-8.5
74
0
49
8.5
74
0
49
-8.5
74
0
0
LTYPE
5
6F
100
AcDbSymbolTableRecord
100
AcDbLinetypeTableRecord
70
0
2
DASHED
3
__ __ __ __ __ __ __ __ __
72
65
73
2
40
25.72
49
12.86
74
0
49
-12.86
74
0
0
ENDTAB
0
TABLE
2
LAYER
5
231
100
AcDbSymbolTable
0
LAYER
5
10
100
AcDbSymbolTableRecord
100
AcDbLayerTableRecord
2
0
70
0
62
7
6
Continuous
290
1
370
-3
390
0
0
LAYER
5
71
100
AcDbSymbolTableRecord
100
AcDbLayerTableRecord
2
81
70
0
62
-3
6
Continuous
290
1
370
-3
390
0
0
LAYER
5
73
100
AcDbSymbolTableRecord
100
AcDbLayerTableRecord
2
1
70
0
62
4
6
Continuous
290
1
370
-3
390
0
0
LAYER
5
75
100
AcDbSymbolTableRecord
100
AcDbLayerTableRecord
2
80
70
0
62
-6
6
Continuous
290
1
370
-3
390
0
0
LAYER
5
82
100
AcDbSymbolTableRecord
100
AcDbLayerTableRecord
2
4
70
0
62
-2
6
CENTER
290
1
370
-3
390
0
0
LAYER
5
176
100
AcDbSymbolTableRecord
100
AcDbLayerTableRecord
2
Defpoints
70
0
62
7
6
Continuous
290
0
370
-3
390
0
0
LAYER
5
21b
100
AcDbSymbolTableRecord
100
AcDbLayerTableRecord
2
SK4
70
0
62
2
6
CENTER
290
1
370
-3
390
0
0
LAYER
5
21c
100
AcDbSymbolTableRecord
100
AcDbLayerTableRecord
2
SK1
70
0
62
4
6
Continuous
290
1
370
-3
390
0
0
LAYER
5
21d
100
AcDbSymbolTableRecord
100
AcDbLayerTableRecord
2
SK2
70
0
62
7
6
Continuous
290
1
370
-3
390
0
0
LAYER
5
21e
100
AcDbSymbolTableRecord
100
AcDbLayerTableRecord
2
SK6
70
0
62
5
6
Continuous
290
1
370
-3
390
0
0
ENDTAB
0
TABLE
2
STYLE
5
232
100
AcDbSymbolTable
0
STYLE
5
11
100
AcDbSymbolTableRecord
100
AcDbTextStyleTableRecord
2
Standard
3
txt
70
0
71
0
40
0
41
1
42
0
50
0
0
STYLE
5
149
100
AcDbSymbolTableRecord
100
AcDbTextStyleTableRecord
2
iso_b_vert
3
simplex.shx
70
0
71
0
40
0
41
1
42
0
50
0
0
STYLE
5
14A
100
AcDbSymbolTableRecord
100
AcDbTextStyleTableRecord
2
DWGDirectTextStyle
3
simplex
70
0
71
0
40
0
41
1
42
0
50
0
0
ENDTAB
0
TABLE
2
DIMSTYLE
5
233
100
AcDbSymbolTable
100
AcDbDimStyleTable
0
DIMSTYLE
105
27
100
AcDbSymbolTableRecord
100
AcDbDimStyleTableRecord
2
Standard
70
0
3
<>
41
0.18
42
0.0625
44
0.18
140
0.18
147
0.09
73
0
74
0
77
1
271
2
275
0
278
52
280
0
340
11
0
ENDTAB
0
TABLE
2
VIEW
5
234
100
AcDbSymbolTable
0
ENDTAB
0
TABLE
2
UCS
5
235
100
AcDbSymbolTable
0
ENDTAB
0
TABLE
2
APPID
5
236
100
AcDbSymbolTable
0
APPID
5
12
100
AcDbSymbolTableRecord
100
AcDbRegAppTableRecord
2
ACAD
70
0
0
APPID
5
172
100
AcDbSymbolTableRecord
100
AcDbRegAppTableRecord
2
ACAD_DSTYLE_DIMBREAK
70
0
0
APPID
5
1DA
100
AcDbSymbolTableRecord
100
AcDbRegAppTableRecord
2
ACAD_DSTYLE_DIM_LINETYPE
70
0
0
APPID
5
1DB
100
AcDbSymbolTableRecord
100
AcDbRegAppTableRecord
2
ACAD_DSTYLE_DIM_EXT1_LINETYPE
70
0
0
APPID
5
1DC
100
AcDbSymbolTableRecord
100
AcDbRegAppTableRecord
2
ACAD_DSTYLE_DIM_EXT2_LINETYPE
70
0
0
APPID
5
217
100
AcDbSymbolTableRecord
100
AcDbRegAppTableRecord
2
ACAD_MLEADERVER
70
0
0
ENDTAB
0
TABLE
2
BLOCK_RECORD
5
237
100
AcDbSymbolTable
0
BLOCK_RECORD
5
1F
100
AcDbSymbolTableRecord
100
AcDbBlockTableRecord
2
*Model_Space
340
0
70
0
0
BLOCK_RECORD
5
1B
100
AcDbSymbolTableRecord
100
AcDbBlockTableRecord
2
*Paper_Space
340
0
70
0
0
BLOCK_RECORD
5
23
100
AcDbSymbolTableRecord
100
AcDbBlockTableRecord
2
*Paper_Space0
340
0
70
0
0
BLOCK_RECORD
5
167
100
AcDbSymbolTableRecord
100
AcDbBlockTableRecord
2
LABLE3D_1
340
0
70
0
0
BLOCK_RECORD
5
177
100
AcDbSymbolTableRecord
100
AcDbBlockTableRecord
2
*D2
340
0
70
0
0
BLOCK_RECORD
5
183
100
AcDbSymbolTableRecord
100
AcDbBlockTableRecord
2
_U0
340
0
70
0
0
BLOCK_RECORD
5
18F
100
AcDbSymbolTableRecord
100
AcDbBlockTableRecord
2
*D4
340
0
70
0
0
BLOCK_RECORD
5
19B
100
AcDbSymbolTableRecord
100
AcDbBlockTableRecord
2
_U1
340
0
70
0
0
BLOCK_RECORD
5
1A7
100
AcDbSymbolTableRecord
100
AcDbBlockTableRecord
2
*D6
340
0
70
0
0
BLOCK_RECORD
5
1B3
100
AcDbSymbolTableRecord
100
AcDbBlockTableRecord
2
_U2
340
0
70
0
0
ENDTAB
0
ENDSEC
0
SECTION
2
BLOCKS
0
BLOCK
5
20
100
AcDbEntity
8
0
100
AcDbBlockBegin
2
*Model_Space
70
0
10
0
20
0
30
0
3
*Model_Space
0
ENDBLK
5
21
100
AcDbEntity
8
0
100
AcDbBlockEnd
0
BLOCK
5
1C
100
AcDbEntity
8
0
100
AcDbBlockBegin
2
*Paper_Space
70
0
10
0
20
0
30
0
3
*Paper_Space
0
ENDBLK
5
1D
100
AcDbEntity
8
0
100
AcDbBlockEnd
0
BLOCK
5
24
100
AcDbEntity
8
0
100
AcDbBlockBegin
2
*Paper_Space0
70
0
10
0
20
0
30
0
3
*Paper_Space0
0
ENDBLK
5
25
100
AcDbEntity
8
0
100
AcDbBlockEnd
0
BLOCK
5
16E
100
AcDbEntity
8
0
100
AcDbBlockBegin
2
LABLE3D_1
70
0
10
62.601373
20
-20.8724
30
0
3
LABLE3D_1
0
MTEXT
5
16C
100
AcDbEntity
8
1
62
256
6
ByLayer
370
18
48
1
60
0
100
AcDbMText
10
64.260373
20
-22.987286
30
0
210
0
220
0
230
1
1
\W0.7607;R2.50
40
3
41
0
44
1.084337
50
0
71
7
72
5
7
iso_b_vert
0
ENDBLK
5
16F
100
AcDbEntity
8
0
100
AcDbBlockEnd
0
BLOCK
5
178
100
AcDbEntity
8
0
100
AcDbBlockBegin
2
*D2
70
1
10
0
20
0
30
0
3
*D2
0
LINE
5
17A
100
AcDbEntity
8
0
62
256
6
ByLayer
370
-2
48
1
60
0
100
AcDbLine
10
-36
20
2.4125
30
0
11
-36
21
-42.349648
31
0
39
0
210
0
220
0
230
1
0
LINE
5
17B
100
AcDbEntity
8
0
62
256
6
ByLayer
370
-2
48
1
60
0
100
AcDbLine
10
54
20
0.9125
30
0
11
54
21
-42.349648
31
0
39
0
210
0
220
0
230
1
0
LINE
5
17C
100
AcDbEntity
8
0
62
256
6
ByLayer
370
-2
48
1
60
0
100
AcDbLine
10
-32.5
20
-40.349648
30
0
11
50.5
21
-40.349648
31
0
39
0
210
0
220
0
230
1
0
SOLID
5
17D
100
AcDbEntity
8
0
62
256
6
ByLayer
370
-1
48
1
60
0
100
AcDbTrace
10
-32.5
20
-39.766315
30
0
11
-32.5
21
-40.932981
31
0
12
-36
22
-40.349648
32
0
13
-36
23
-40.349648
33
0
39
0
210
0
220
0
230
1
0
SOLID
5
17E
100
AcDbEntity
8
0
62
256
6
ByLayer
370
-1
48
1
60
0
100
AcDbTrace
10
50.5
20
-40.932981
30
0
11
50.5
21
-39.766315
31
0
12
54
22
-40.349648
32
0
13
54
23
-40.349648
33
0
39
0
210
0
220
0
230
1
0
MTEXT
5
17F
100
AcDbEntity
8
0
62
256
6
ByLayer
370
18
48
1
60
0
100
AcDbMText
10
9
20
-34.349648
30
0
210
0
220
0
230
1
1
\A1;90
40
3
41
0
44
1
50
0
71
5
72
5
7
iso_b_vert
0
POINT
5
180
100
AcDbEntity
8
Defpoints
62
0
6
ByLayer
370
-1
48
1
60
0
100
AcDbPoint
10
-36
20
4
30
0
39
0
210
0
220
0
230
1
50
360
0
POINT
5
181
100
AcDbEntity
8
Defpoints
62
0
6
ByLayer
370
-1
48
1
60
0
100
AcDbPoint
10
54
20
2.5
30
0
39
0
210
0
220
0
230
1
50
360
0
POINT
5
182
100
AcDbEntity
8
Defpoints
62
0
6
ByLayer
370
-1
48
1
60
0
100
AcDbPoint
10
54
20
-40.349648
30
0
39
0
210
0
220
0
230
1
50
360
0
ENDBLK
5
179
100
AcDbEntity
8
0
100
AcDbBlockEnd
0
BLOCK
5
18A
100
AcDbEntity
8
0
100
AcDbBlockBegin
2
_U0
70
0
10
0
20
0
30
0
3
_U0
0
MTEXT
5
184
100
AcDbEntity
8
SK2
62
256
6
ByLayer
370
18
48
1
60
0
100
AcDbMText
10
7.367172
20
-39.464533
30
0
210
0
220
0
230
1
1
\W0.6740;90
40
3
41
0
44
1.084337
50
0
71
7
72
5
7
iso_b_vert
0
LINE
5
185
100
AcDbEntity
8
SK2
62
256
6
ByLayer
370
13
48
1
60
0
100
AcDbLine
10
-36
20
2.4125
30
0
11
-36
21
-42.349648
31
0
39
0
210
0
220
0
230
1
0
LINE
5
186
100
AcDbEntity
8
SK2
62
256
6
ByLayer
370
13
48
1
60
0
100
AcDbLine
10
54
20
0.9125
30
0
11
54
21
-42.349648
31
0
39
0
210
0
220
0
230
1
0
LINE
5
187
100
AcDbEntity
8
SK2
62
256
6
ByLayer
370
13
48
1
60
0
100
AcDbLine
10
-36
20
-40.349648
30
0
11
54
21
-40.349648
31
0
39
0
210
0
220
0
230
1
0
SOLID
5
188
100
AcDbEntity
8
SK2
62
256
6
ByLayer
370
18
48
1
60
0
100
AcDbTrace
10
-36
20
-40.349648
30
0
11
-32.500002
21
-39.888864
31
0
12
-32.499998
22
-40.810432
32
0
13
-32.499998
23
-40.810432
33
0
39
0
210
0
220
0
230
1
0
SOLID
5
189
100
AcDbEntity
8
SK2
62
256
6
ByLayer
370
18
48
1
60
0
100
AcDbTrace
10
54
20
-40.349648
30
0
11
50.500002
21
-40.810432
31
0
12
50.499998
22
-39.888864
32
0
13
50.499998
23
-39.888864
33
0
39
0
210
0
220
0
230
1
0
ENDBLK
5
18B
100
AcDbEntity
8
0
100
AcDbBlockEnd
0
BLOCK
5
190
100
AcDbEntity
8
0
100
AcDbBlockBegin
2
*D4
70
1
10
0
20
0
30
0
3
*D4
0
LINE
5
192
100
AcDbEntity
8
0
62
256
6
ByLayer
370
-2
48
1
60
0
100
AcDbLine
10
54
20
-4.0875
30
0
11
54
21
-30.349648
31
0
39
0
210
0
220
0
230
1
0
LINE
5
193
100
AcDbEntity
8
0
62
256
6
ByLayer
370
-2
48
1
60
0
100
AcDbLine
10
0
20
-5.5875
30
0
11
0
21
-30.349648
31
0
39
0
210
0
220
0
230
1
0
LINE
5
194
100
AcDbEntity
8
0
62
256
6
ByLayer
370
-2
48
1
60
0
100
AcDbLine
10
50.5
20
-28.349648
30
0
11
3.5
21
-28.349648
31
0
39
0
210
0
220
0
230
1
0
SOLID
5
195
100
AcDbEntity
8
0
62
256
6
ByLayer
370
-1
48
1
60
0
100
AcDbTrace
10
50.5
20
-28.932981
30
0
11
50.5
21
-27.766315
31
0
12
54
22
-28.349648
32
0
13
54
23
-28.349648
33
0
39
0
210
0
220
0
230
1
0
SOLID
5
196
100
AcDbEntity
8
0
62
256
6
ByLayer
370
-1
48
1
60
0
100
AcDbTrace
10
3.5
20
-27.766315
30
0
11
3.5
21
-28.932981
31
0
12
0
22
-28.349648
32
0
13
0
23
-28.349648
33
0
39
0
210
0
220
0
230
1
0
MTEXT
5
197
100
AcDbEntity
8
0
62
256
6
ByLayer
370
18
48
1
60
0
100
AcDbMText
10
27
20
-22.349648
30
0
210
0
220
0
230
1
1
\A1;54
40
3
41
0
44
1
50
0
71
5
72
5
7
iso_b_vert
0
POINT
5
198
100
AcDbEntity
8
Defpoints
62
0
6
ByLayer
370
-1
48
1
60
0
100
AcDbPoint
10
54
20
-2.5
30
0
39
0
210
0
220
0
230
1
50
360
0
POINT
5
199
100
AcDbEntity
8
Defpoints
62
0
6
ByLayer
370
-1
48
1
60
0
100
AcDbPoint
10
0
20
-4
30
0
39
0
210
0
220
0
230
1
50
360
0
POINT
5
19A
100
AcDbEntity
8
Defpoints
62
0
6
ByLayer
370
-1
48
1
60
0
100
AcDbPoint
10
0
20
-28.349648
30
0
39
0
210
0
220
0
230
1
50
360
0
ENDBLK
5
191
100
AcDbEntity
8
0
100
AcDbBlockEnd
0
BLOCK
5
1A2
100
AcDbEntity
8
0
100
AcDbBlockBegin
2
_U1
70
0
10
0
20
0
30
0
3
_U1
0
MTEXT
5
19C
100
AcDbEntity
8
SK2
62
256
6
ByLayer
370
18
48
1
60
0
100
AcDbMText
10
25.209229
20
-27.464533
30
0
210
0
220
0
230
1
1
\W0.7167;54
40
3
41
0
44
1.084337
50
0
71
7
72
5
7
iso_b_vert
0
LINE
5
19D
100
AcDbEntity
8
SK2
62
256
6
ByLayer
370
13
48
1
60
0
100
AcDbLine
10
54
20
-4.0875
30
0
11
54
21
-30.349648
31
0
39
0
210
0
220
0
230
1
0
LINE
5
19E
100
AcDbEntity
8
SK2
62
256
6
ByLayer
370
13
48
1
60
0
100
AcDbLine
10
0
20
-5.5875
30
0
11
0
21
-30.349648
31
0
39
0
210
0
220
0
230
1
0
LINE
5
19F
100
AcDbEntity
8
SK2
62
256
6
ByLayer
370
13
48
1
60
0
100
AcDbLine
10
54
20
-28.349648
30
0
11
0
21
-28.349648
31
0
39
0
210
0
220
0
230
1
0
SOLID
5
1A0
100
AcDbEntity
8
SK2
62
256
6
ByLayer
370
18
48
1
60
0
100
AcDbTrace
10
54
20
-28.349648
30
0
11
50.500002
21
-28.810432
31
0
12
50.499998
22
-27.888864
32
0
13
50.499998
23
-27.888864
33
0
39
0
210
0
220
0
230
1
0
SOLID
5
1A1
100
AcDbEntity
8
SK2
62
256
6
ByLayer
370
18
48
1
60
0
100
AcDbTrace
10
0
20
-28.349648
30
0
11
3.499998
21
-27.888864
31
0
12
3.500002
22
-28.810432
32
0
13
3.500002
23
-28.810432
33
0
39
0
210
0
220
0
230
1
0
ENDBLK
5
1A3
100
AcDbEntity
8
0
100
AcDbBlockEnd
0
BLOCK
5
1A8
100
AcDbEntity
8
0
100
AcDbBlockBegin
2
*D6
70
1
10
0
20
0
30
0
3
*D6
0
LINE
5
1AA
100
AcDbEntity
8
0
62
256
6
ByLayer
370
-2
48
1
60
0
100
AcDbLine
10
54
20
-4.0875
30
0
11
54
21
-16.349648
31
0
39
0
210
0
220
0
230
1
0
LINE
5
1AB
100
AcDbEntity
8
0
62
256
6
ByLayer
370
-2
48
1
60
0
100
AcDbLine
10
24
20
-5.5875
30
0
11
24
21
-16.349648
31
0
39
0
210
0
220
0
230
1
0
LINE
5
1AC
100
AcDbEntity
8
0
62
256
6
ByLayer
370
-2
48
1
60
0
100
AcDbLine
10
50.5
20
-14.349648
30
0
11
27.5
21
-14.349648
31
0
39
0
210
0
220
0
230
1
0
SOLID
5
1AD
100
AcDbEntity
8
0
62
256
6
ByLayer
370
-1
48
1
60
0
100
AcDbTrace
10
50.5
20
-14.932981
30
0
11
50.5
21
-13.766315
31
0
12
54
22
-14.349648
32
0
13
54
23
-14.349648
33
0
39
0
210
0
220
0
230
1
0
SOLID
5
1AE
100
AcDbEntity
8
0
62
256
6
ByLayer
370
-1
48
1
60
0
100
AcDbTrace
10
27.5
20
-13.766315
30
0
11
27.5
21
-14.932981
31
0
12
24
22
-14.349648
32
0
13
24
23
-14.349648
33
0
39
0
210
0
220
0
230
1
0
MTEXT
5
1AF
100
AcDbEntity
8
0
62
256
6
ByLayer
370
18
48
1
60
0
100
AcDbMText
10
39
20
-8.349648
30
0
210
0
220
0
230
1
1
\A1;30
40
3
41
0
44
1
50
0
71
5
72
5
7
iso_b_vert
0
POINT
5
1B0
100
AcDbEntity
8
Defpoints
62
0
6
ByLayer
370
-1
48
1
60
0
100
AcDbPoint
10
54
20
-2.5
30
0
39
0
210
0
220
0
230
1
50
360
0
POINT
5
1B1
100
AcDbEntity
8
Defpoints
62
0
6
ByLayer
370
-1
48
1
60
0
100
AcDbPoint
10
24
20
-4
30
0
39
0
210
0
220
0
230
1
50
360
0
POINT
5
1B2
100
AcDbEntity
8
Defpoints
62
0
6
ByLayer
370
-1
48
1
60
0
100
AcDbPoint
10
24
20
-14.349648
30
0
39
0
210
0
220
0
230
1
50
360
0
ENDBLK
5
1A9
100
AcDbEntity
8
0
100
AcDbBlockEnd
0
BLOCK
5
1BA
100
AcDbEntity
8
0
100
AcDbBlockBegin
2
_U2
70
0
10
0
20
0
30
0
3
_U2
0
MTEXT
5
1B4
100
AcDbEntity
8
SK2
62
256
6
ByLayer
370
18
48
1
60
0
100
AcDbMText
10
37.367172
20
-13.464533
30
0
210
0
220
0
230
1
1
\W0.6740;30
40
3
41
0
44
1.084337
50
0
71
7
72
5
7
iso_b_vert
0
LINE
5
1B5
100
AcDbEntity
8
SK2
62
256
6
ByLayer
370
13
48
1
60
0
100
AcDbLine
10
54
20
-4.0875
30
0
11
54
21
-16.349648
31
0
39
0
210
0
220
0
230
1
0
LINE
5
1B6
100
AcDbEntity
8
SK2
62
256
6
ByLayer
370
13
48
1
60
0
100
AcDbLine
10
24
20
-5.5875
30
0
11
24
21
-16.349648
31
0
39
0
210
0
220
0
230
1
0
LINE
5
1B7
100
AcDbEntity
8
SK2
62
256
6
ByLayer
370
13
48
1
60
0
100
AcDbLine
10
54
20
-14.349648
30
0
11
24
21
-14.349648
31
0
39
0
210
0
220
0
230
1
0
SOLID
5
1B8
100
AcDbEntity
8
SK2
62
256
6
ByLayer
370
18
48
1
60
0
100
AcDbTrace
10
54
20
-14.349648
30
0
11
50.500002
21
-14.810432
31
0
12
50.499998
22
-13.888864
32
0
13
50.499998
23
-13.888864
33
0
39
0
210
0
220
0
230
1
0
SOLID
5
1B9
100
AcDbEntity
8
SK2
62
256
6
ByLayer
370
18
48
1
60
0
100
AcDbTrace
10
24
20
-14.349648
30
0
11
27.499998
21
-13.888864
31
0
12
27.500002
22
-14.810432
32
0
13
27.500002
23
-14.810432
33
0
39
0
210
0
220
0
230
1
0
ENDBLK
5
1BB
100
AcDbEntity
8
0
100
AcDbBlockEnd
0
ENDSEC
0
SECTION
2
ENTITIES
0
ARC
5
BE
100
AcDbEntity
8
1
62
256
6
ByLayer
370
18
48
1
60
0
100
AcDbCircle
39
0
10
51.5
20
0
30
0
40
2.5
210
0
220
0
230
1
100
AcDbArc
50
296.391432
51
347.229367
0
ARC
5
BF
100
AcDbEntity
8
1
62
256
6
ByLayer
370
18
48
1
60
0
100
AcDbCircle
39
0
10
51.5
20
0
30
0
40
2.5
210
0
220
0
230
1
100
AcDbArc
50
347.229367
51
349.13682
0
ARC
5
C0
100
AcDbEntity
8
1
62
256
6
ByLayer
370
18
48
1
60
0
100
AcDbCircle
39
0
10
51.5
20
0
30
0
40
2.5
210
0
220
0
230
1
100
AcDbArc
50
349.13682
51
10.856252
0
ARC
5
C1
100
AcDbEntity
8
1
62
256
6
ByLayer
370
18
48
1
60
0
100
AcDbCircle
39
0
10
51.5
20
0
30
0
40
2.5
210
0
220
0
230
1
100
AcDbArc
50
10.856252
51
12.721431
0
ARC
5
C2
100
AcDbEntity
8
1
62
256
6
ByLayer
370
18
48
1
60
0
100
AcDbCircle
39
0
10
51.5
20
0
30
0
40
2.5
210
0
220
0
230
1
100
AcDbArc
50
12.721431
51
63.618352
0
ARC
5
C3
100
AcDbEntity
8
SK2
62
256
6
ByLayer
370
13
48
1
60
0
100
AcDbCircle
39
0
10
145.25
20
0
30
0
40
154.263385131005
210
0
220
0
230
1
100
AcDbArc
50
178.472475
51
182.783423
0
ARC
5
C4
100
AcDbEntity
8
SK2
62
256
6
ByLayer
370
13
48
1
60
0
100
AcDbCircle
39
0
10
145.25
20
0
30
0
40
154.263385131005
210
0
220
0
230
1
100
AcDbArc
50
173.609799
51
178.472475
0
POINT
5
70
100
AcDbEntity
8
81
62
256
6
ByLayer
370
18
48
1
60
0
100
AcDbPoint
10
54
20
0
30
0
39
0
210
0
220
0
230
1
50
360
0
POINT
5
72
100
AcDbEntity
8
1
62
256
6
ByLayer
370
18
48
1
60
0
100
AcDbPoint
10
-36
20
0
30
0
39
0
210
0
220
0
230
1
50
360
0
POINT
5
74
100
AcDbEntity
8
80
62
256
6
ByLayer
370
18
48
1
60
0
100
AcDbPoint
10
0
20
0
30
0
39
0
210
0
220
0
230
1
50
360
0
POINT
5
76
100
AcDbEntity
8
1
62
256
6
ByLayer
370
18
48
1
60
1
100
AcDbPoint
10
-36
20
4
30
0
39
0
210
0
220
0
230
1
50
360
0
POINT
5
77
100
AcDbEntity
8
1
62
256
6
ByLayer
370
18
48
1
60
1
100
AcDbPoint
10
54
20
2.5
30
0
39
0
210
0
220
0
230
1
50
360
0
POINT
5
78
100
AcDbEntity
8
1
62
256
6
ByLayer
370
18
48
1
60
1
100
AcDbPoint
10
54
20
-2.5
30
0
39
0
210
0
220
0
230
1
50
360
0
POINT
5
79
100
AcDbEntity
8
1
62
256
6
ByLayer
370
18
48
1
60
1
100
AcDbPoint
10
0
20
-4
30
0
39
0
210
0
220
0
230
1
50
360
0
POINT
5
7A
100
AcDbEntity
8
1
62
256
6
ByLayer
370
18
48
1
60
1
100
AcDbPoint
10
54
20
-2.5
30
0
39
0
210
0
220
0
230
1
50
360
0
POINT
5
7B
100
AcDbEntity
8
1
62
256
6
ByLayer
370
18
48
1
60
1
100
AcDbPoint
10
24
20
-4
30
0
39
0
210
0
220
0
230
1
50
360
0
POINT
5
7C
100
AcDbEntity
8
1
62
256
6
ByLayer
370
18
48
1
60
1
100
AcDbPoint
10
53.7
20
-2.3724
30
0
39
0
210
0
220
0
230
1
50
360
0
SPLINE
5
C5
100
AcDbEntity
8
1
62
256
6
ByLayer
370
18
48
1
60
0
100
AcDbSpline
70
4
71
3
72
38
73
34
40
0
40
0
40
0
40
0
40
0.125000000000007
40
0.125000000000007
40
0.250000000000014
40
0.250000000000014
40
0.312500000000017
40
0.312500000000017
40
0.37500000000002
40
0.37500000000002
40
0.437500000000024
40
0.437500000000024
40
0.500000000000027
40
0.500000000000027
40
0.531250000000029
40
0.531250000000029
40
0.562500000000031
40
0.562500000000031
40
0.625000000000034
40
0.625000000000034
40
0.687500000000038
40
0.687500000000038
40
0.718750000000036
40
0.718750000000036
40
0.750000000000034
40
0.750000000000034
40
0.781250000000032
40
0.781250000000032
40
0.81250000000003
40
0.81250000000003
40
0.875000000000026
40
0.875000000000026
40
1
40
1
40
1
40
1
41
1
10
53.9358413905523
20
-0.480355574305605
30
0
41
1
10
53.9398438264081
20
-0.466011684306039
30
0
41
1
10
53.9436030785589
20
-0.4524441555088
30
0
41
1
10
53.950642295253
20
-0.426996125566575
30
0
41
1
10
53.9539231792491
20
-0.415107905600621
30
0
41
1
10
53.9584550604473
20
-0.398898281691146
30
0
41
1
10
53.9599077726534
20
-0.393742880724403
30
0
41
1
10
53.9626292713502
20
-0.384246026919499
30
0
41
1
10
53.9638945497435
20
-0.379915713683431
30
0
41
1
10
53.9662165851365
20
-0.372255653315989
30
0
41
1
10
53.9672809967591
20
-0.368902923558835
30
0
41
1
10
53.9691255404597
20
-0.363599540735663
30
0
41
1
10
53.9699037602444
20
-0.361649342229782
30
0
41
1
10
53.970824023962
20
-0.360017846384949
30
0
41
1
10
53.9710893450277
20
-0.35969109186928
30
0
41
1
10
53.9715270270212
20
-0.359540091310919
30
0
41
1
10
53.9716998125543
20
-0.359721431518267
30
0
41
1
10
53.9720479066689
20
-0.361114086646495
30
0
41
1
10
53.9720612677208
20
-0.363157008214927
30
0
41
1
10
53.97158660753
20
-0.36983218593187
30
0
41
1
10
53.97111049671
20
-0.37430744702931
30
0
41
1
10
53.97004445409
20
-0.382697191154108
30
0
41
1
10
53.9696287873663
20
-0.385780140959838
30
0
41
1
10
53.9687092004075
20
-0.392288677820204
30
0
41
1
10
53.9682024990781
20
-0.395736983731979
30
0
41
1
10
53.9671006692615
20
-0.402991128921485
30
0
41
1
10
53.9665015716294
20
-0.406820900426141
30
0
41
1
10
53.9652467147116
20
-0.414637121548168
30
0
41
1
10
53.9645893215458
20
-0.418635632053935
30
0
41
1
10
53.9625347711493
20
-0.430867878848744
30
0
41
1
10
53.9610464563293
20
-0.439388110582513
30
0
41
1
10
53.95634237803
20
-0.465377272981584
30
0
41
1
10
53.9529750089499
20
-0.482823786541843
30
0
41
1
10
53.9493894093166
20
-0.500340657989085
30
0
0
SPLINE
5
C6
100
AcDbEntity
8
1
62
256
6
ByLayer
370
18
48
1
60
0
100
AcDbSpline
70
4
71
3
72
37
73
33
40
0
40
0
40
0
40
0
40
0.125000000000004
40
0.125000000000004
40
0.250000000000008
40
0.250000000000008
40
0.281250000000007
40
0.281250000000007
40
0.312500000000006
40
0.375000000000003
40
0.375000000000003
40
0.500000000000008
40
0.500000000000008
40
0.531250000000009
40
0.531250000000009
40
0.56250000000001
40
0.56250000000001
40
0.625000000000013
40
0.625000000000013
40
0.750000000000017
40
0.750000000000017
40
0.781250000000018
40
0.781250000000018
40
0.81250000000002
40
0.81250000000002
40
0.875000000000009
40
0.875000000000009
40
0.937499999999998
40
0.937499999999998
40
0.968749999999999
40
0.968749999999999
40
1
40
1
40
1
40
1
41
1
10
53.9493894093139
20
-0.500340658002273
30
0
41
1
10
53.9325864673317
20
-0.58242873384296
30
0
41
1
10
53.9117586905852
20
-0.66304377979759
30
0
41
1
10
53.8621689510783
20
-0.821251994518803
30
0
41
1
10
53.8334101751488
20
-0.898845984072977
30
0
41
1
10
53.7923604329822
20
-0.993774012798326
30
0
41
1
10
53.7838843599869
20
-1.01267534664351
30
0
41
1
10
53.7665363108912
20
-1.05000451923758
30
0
41
1
10
53.7398833932322
20
-1.10537694160209
30
0
41
1
10
53.71137528106
20
-1.15887483664716
30
0
41
1
10
53.6519572360975
20
-1.26330029081686
30
0
41
1
10
53.6091566837249
20
-1.32951135667841
30
0
41
1
10
53.5517503907009
20
-1.40746126321693
30
0
41
1
10
53.5400725154352
20
-1.42280955231357
30
0
41
1
10
53.5163197179402
20
-1.45300366229645
30
0
41
1
10
53.5042749567295
20
-1.46780886927314
30
0
41
1
10
53.4678872050858
20
-1.51104756203125
30
0
41
1
10
53.443199904047
20
-1.53842327153765
30
0
41
1
10
53.3679637130888
20
-1.6161297129392
30
0
41
1
10
53.3162537814627
20
-1.66207969453171
30
0
41
1
10
53.2498384028854
20
-1.71149893889762
30
0
41
1
10
53.2364687209819
20
-1.72097265775039
30
0
41
1
10
53.20986788988
20
-1.73888307232704
30
0
41
1
10
53.1965973105291
20
-1.74735004500221
30
0
41
1
10
53.1568771874261
20
-1.77130741386327
30
0
41
1
10
53.1305183619052
20
-1.78535880878019
30
0
41
1
10
53.0780484559773
20
-1.80966106766928
30
0
41
1
10
53.0519389890336
20
-1.81990965887695
30
0
41
1
10
53.0129594000538
20
-1.83239043810059
30
0
41
1
10
52.9999967701244
20
-1.83606814648692
30
0
41
1
10
52.9741301446704
20
-1.84244451586528
30
0
41
1
10
52.9612008347479
20
-1.84514524821856
30
0
41
1
10
52.9484381868068
20
-1.84732761089532
30
0
0
SPLINE
5
C7
100
AcDbEntity
8
1
62
256
6
ByLayer
370
18
48
1
60
0
100
AcDbSpline
70
4
71
3
72
31
73
27
40
0
40
0
40
0
40
0
40
0.0624999999999954
40
0.0624999999999954
40
0.124999999999991
40
0.124999999999991
40
0.249999999999982
40
0.249999999999982
40
0.312499999999978
40
0.312499999999978
40
0.343749999999975
40
0.343749999999975
40
0.374999999999973
40
0.374999999999973
40
0.499999999999952
40
0.499999999999952
40
0.624999999999932
40
0.624999999999932
40
0.656249999999934
40
0.656249999999934
40
0.687499999999936
40
0.749999999999948
40
0.749999999999948
40
0.874999999999974
40
0.874999999999974
40
1
40
1
40
1
40
1
41
1
10
52.7356496933959
20
2.17044237888692
30
0
41
1
10
52.768460600125
20
2.15046981384052
30
0
41
1
10
52.8012149485768
20
2.1291098194676
30
0
41
1
10
52.8667075671539
20
2.08348959677724
30
0
41
1
10
52.8995484372933
20
2.05913819891151
30
0
41
1
10
52.9965314958983
20
1.9828332572763
30
0
41
1
10
53.0596072460381
20
1.92736266451399
30
0
41
1
10
53.1522716283827
20
1.83726770743215
30
0
41
1
10
53.1828338382255
20
1.80608294000879
30
0
41
1
10
53.2282236737887
20
1.75753089402647
30
0
41
1
10
53.2432774985938
20
1.74105087262453
30
0
41
1
10
53.2732360996604
20
1.70748711112381
30
0
41
1
10
53.2881699375396
20
1.69036794569314
30
0
41
1
10
53.3617985082961
20
1.60402956458611
30
0
41
1
10
53.417822060957
20
1.53215739080139
30
0
41
1
10
53.5244374467798
20
1.3830494690929
30
0
41
1
10
53.5750411054987
20
1.30581699005847
30
0
41
1
10
53.6347143524772
20
1.20575533265904
30
0
41
1
10
53.6464133838397
20
1.18565676662263
30
0
41
1
10
53.6692469441034
20
1.14545939805507
30
0
41
1
10
53.702698125121
20
1.08508114626707
30
0
41
1
10
53.7337805068923
20
1.0244340491694
30
0
41
1
10
53.7928019000329
20
0.902723558508825
30
0
41
1
10
53.8279813266246
20
0.821048526505336
30
0
41
1
10
53.8895416147926
20
0.656036429608093
30
0
41
1
10
53.9151632010154
20
0.574742037822006
30
0
41
1
10
53.9358413905547
20
0.494050652430729
30
0
0
SPLINE
5
C8
100
AcDbEntity
8
1
62
256
6
ByLayer
370
18
48
1
60
0
100
AcDbSpline
70
4
71
3
72
38
73
34
40
0
40
0
40
0
40
0
40
0.125000000000007
40
0.125000000000007
40
0.250000000000015
40
0.250000000000015
40
0.312500000000018
40
0.312500000000018
40
0.375000000000021
40
0.375000000000021
40
0.437500000000025
40
0.437500000000025
40
0.500000000000029
40
0.500000000000029
40
0.531250000000027
40
0.531250000000027
40
0.562500000000025
40
0.562500000000025
40
0.625000000000021
40
0.625000000000021
40
0.687500000000017
40
0.687500000000017
40
0.718750000000015
40
0.718750000000015
40
0.750000000000013
40
0.750000000000013
40
0.781250000000012
40
0.781250000000012
40
0.81250000000001
40
0.81250000000001
40
0.875000000000007
40
0.875000000000007
40
1
40
1
40
1
40
1
41
1
10
53.9358413905372
20
0.494050652451307
30
0
41
1
10
53.939843826393
20
0.478432162567742
30
0
41
1
10
53.9436030785589
20
0.462451905227511
30
0
41
1
10
53.9506422952529
20
0.429717414453961
30
0
41
1
10
53.9539231792489
20
0.412966407636333
30
0
41
1
10
53.9584550604471
20
0.387113111608272
30
0
41
1
10
53.9599077726532
20
0.378323782546033
30
0
41
1
10
53.9626292713501
20
0.360701716324599
30
0
41
1
10
53.9638945497434
20
0.351899388912159
30
0
41
1
10
53.9662165851364
20
0.334318241184803
30
0
41
1
10
53.967280996759
20
0.325468679380407
30
0
41
1
10
53.9691255404596
20
0.308173613444978
30
0
41
1
10
53.9699037602443
20
0.299767030159899
30
0
41
1
10
53.9708240239619
20
0.287602820754188
30
0
41
1
10
53.9710893450277
20
0.283622860553408
30
0
41
1
10
53.9715270270212
20
0.275836239615018
30
0
41
1
10
53.9716998125543
20
0.272004317527234
30
0
41
1
10
53.9720479066689
20
0.261130060393924
30
0
41
1
10
53.9720612677209
20
0.254610296567506
30
0
41
1
10
53.97158660753
20
0.243430471465416
30
0
41
1
10
53.97111049671
20
0.239023496648997
30
0
41
1
10
53.9700444540901
20
0.23415660113389
30
0
41
1
10
53.9696287873663
20
0.232833839693143
30
0
41
1
10
53.9687092004076
20
0.230833831811111
30
0
41
1
10
53.9682024990781
20
0.230141269899576
30
0
41
1
10
53.9671006692615
20
0.229322944297962
30
0
41
1
10
53.9665015716294
20
0.229200139568178
30
0
41
1
10
53.9652467147117
20
0.229478519276398
30
0
41
1
10
53.9645893215458
20
0.229874872183814
30
0
41
1
10
53.9625347711493
20
0.231738786313571
30
0
41
1
10
53.9610464563293
20
0.233893192521123
30
0
41
1
10
53.9563423780299
20
0.242474573044405
30
0
41
1
10
53.9529750089498
20
0.250766314672887
30
0
41
1
10
53.9493894093165
20
0.260803325654024
30
0
0
SPLINE
5
C9
100
AcDbEntity
8
1
62
256
6
ByLayer
370
18
48
1
60
0
100
AcDbSpline
70
4
71
3
72
37
73
33
40
0
40
0
40
0
40
0
40
0.12500000000001
40
0.12500000000001
40
0.250000000000021
40
0.250000000000021
40
0.281250000000023
40
0.281250000000023
40
0.312500000000026
40
0.375000000000031
40
0.375000000000031
40
0.500000000000032
40
0.500000000000032
40
0.53125000000003
40
0.53125000000003
40
0.562500000000027
40
0.562500000000027
40
0.625000000000034
40
0.625000000000034
40
0.750000000000048
40
0.750000000000048
40
0.781250000000045
40
0.781250000000045
40
0.812500000000042
40
0.812500000000042
40
0.875000000000024
40
0.875000000000024
40
0.937500000000005
40
0.937500000000005
40
0.968750000000003
40
0.968750000000003
40
1
40
1
40
1
40
1
41
1
10
53.9493894093139
20
0.260803325661215
30
0
41
1
10
53.9325864673316
20
0.307839060392126
30
0
41
1
10
53.9117586905849
20
0.356107567570774
30
1E-16
41
1
10
53.8621689510776
20
0.455759003452243
30
0
41
1
10
53.8334101751477
20
0.507142958371219
30
0
41
1
10
53.7923604329806
20
0.574079637752618
30
0
41
1
10
53.7838843599853
20
0.587618014458968
30
0
41
1
10
53.7665363108894
20
0.614799727394313
30
0
41
1
10
53.73988339323
20
0.655791819075858
30
0
41
1
10
53.7113752810575
20
0.697509232787581
30
0
41
1
10
53.6519572360943
20
0.782125051936475
30
-1E-16
41
1
10
53.6091566837213
20
0.840092741882899
30
0
41
1
10
53.5517503906967
20
0.915542367081912
30
1E-16
41
1
10
53.5400725154307
20
0.930781717453328
30
0
41
1
10
53.5163197179356
20
0.961586442433855
30
0
41
1
10
53.5042749567248
20
0.977112369067811
30
-1E-16
41
1
10
53.4678872050808
20
1.0237769154723
30
0
41
1
10
53.4431999040418
20
1.05512188982396
30
0
41
1
10
53.3679637130827
20
1.15000347688357
30
0
41
1
10
53.3162537814561
20
1.21438167222411
30
0
41
1
10
53.2498384028781
20
1.29673269889193
30
1E-16
41
1
10
53.2364687209746
20
1.31329265390838
30
0
41
1
10
53.2098678898726
20
1.3462166862021
30
0
41
1
10
53.1965973105216
20
1.36262943051139
30
-1E-16
41
1
10
53.1568771874182
20
1.41172453633715
30
0
41
1
10
53.1305183618972
20
1.44426376486155
30
-1E-16
41
1
10
53.0780484559689
20
1.50897031751884
30
0
41
1
10
53.051938989025
20
1.5411385200305
30
-1E-16
41
1
10
53.012959400045
20
1.58910487195249
30
1E-16
41
1
10
52.9999967701156
20
1.60504576708476
30
0
41
1
10
52.9741301446614
20
1.63682785536054
30
-1E-16
41
1
10
52.9612008347389
20
1.65270001563127
30
-1E-16
41
1
10
52.9484381867978
20
1.66834873062356
30
1E-16
0
SPLINE
5
CA
100
AcDbEntity
8
1
62
256
6
ByLayer
370
18
48
1
60
0
100
AcDbSpline
70
4
71
3
72
31
73
27
40
0
40
0
40
0
40
0
40
0.0625000000000042
40
0.0625000000000042
40
0.125000000000008
40
0.125000000000008
40
0.25000000000003
40
0.25000000000003
40
0.312500000000041
40
0.312500000000041
40
0.343750000000046
40
0.343750000000046
40
0.375000000000052
40
0.375000000000052
40
0.500000000000062
40
0.500000000000062
40
0.625000000000072
40
0.625000000000072
40
0.656250000000069
40
0.656250000000069
40
0.687500000000067
40
0.750000000000054
40
0.750000000000054
40
0.875000000000027
40
0.875000000000027
40
1
40
1
40
1
40
1
41
1
10
52.7356496933958
20
0.988980416603368
30
-1E-16
41
1
10
52.768460600125
20
0.95712309125912
30
0
41
1
10
52.8012149485768
20
0.925228052079575
30
1E-16
41
1
10
52.8667075671539
20
0.861467672599844
30
0
41
1
10
52.8995484372933
20
0.829500924401117
30
1E-16
41
1
10
52.9965314958983
20
0.735406341664941
30
1E-16
41
1
10
53.0596072460381
20
0.674639932519938
30
0
41
1
10
53.1522716283826
20
0.587081201633822
30
0
41
1
10
53.1828338382255
20
0.558496564357654
30
0
41
1
10
53.2282236737887
20
0.516620984590389
30
-1E-16
41
1
10
53.2432774985938
20
0.502828691816859
30
-1E-16
41
1
10
53.2732360996604
20
0.475592851879583
30
0
41
1
10
53.2881699375396
20
0.462123719804083
30
0
41
1
10
53.3617985082961
20
0.396298957639573
30
0
41
1
10
53.417822060957
20
0.348131857876694
30
1E-16
41
1
10
53.5244374467798
20
0.260873196357011
30
1E-16
41
1
10
53.5750411054987
20
0.221826008582241
30
-1E-16
41
1
10
53.6347143524771
20
0.178883868909935
30
0
41
1
10
53.6464133838397
20
0.170630443477677
30
0
41
1
10
53.6692469441034
20
0.154850249303109
30
1E-16
41
1
10
53.7026981251209
20
0.13223317196551
30
-1E-16
41
1
10
53.7337805068923
20
0.112634513407102
30
0
41
1
10
53.792801900033
20
0.0771982144140111
30
0
41
1
10
53.8279813266246
20
0.0586322544904192
30
0
41
1
10
53.8895416147925
20
0.029988691980634
30
0
41
1
10
53.9151632010154
20
0.0202801725464212
30
0
41
1
10
53.9358413905547
20
0.0136950781336225
30
0
0
SPLINE
5
CB
100
AcDbEntity
8
1
62
256
6
ByLayer
370
18
48
1
60
0
100
AcDbSpline
70
4
71
3
72
38
73
34
40
0
40
0
40
0
40
0
40
0.125000000000008
40
0.125000000000008
40
0.250000000000015
40
0.250000000000015
40
0.312500000000019
40
0.312500000000019
40
0.375000000000023
40
0.375000000000023
40
0.437500000000027
40
0.437500000000027
40
0.500000000000031
40
0.500000000000031
40
0.531250000000033
40
0.531250000000033
40
0.562500000000035
40
0.562500000000035
40
0.625000000000038
40
0.625000000000038
40
0.687500000000042
40
0.687500000000042
40
0.718750000000044
40
0.718750000000044
40
0.750000000000046
40
0.750000000000046
40
0.781250000000048
40
0.781250000000048
40
0.81250000000005
40
0.81250000000005
40
0.875000000000039
40
0.875000000000039
40
1
40
1
40
1
40
1
41
1
10
53.9358413905646
20
0.0136950781333383
30
0
41
1
10
53.9398438264203
20
0.0124204782492257
30
0
41
1
10
53.9436030785596
20
0.010007749717829
30
0
41
1
10
53.9506422952535
20
0.0027212888859083
30
0
41
1
10
53.9539231792496
20
-0.0021414979661074
30
0
41
1
10
53.9584550604478
20
-0.0117851700852043
30
0
41
1
10
53.959907772654
20
-0.0154190981810132
30
0
41
1
10
53.9626292713506
20
-0.0235443105973161
30
0
41
1
10
53.9638945497439
20
-0.0280163247736311
30
0
41
1
10
53.9662165851368
20
-0.0379374121335161
30
0
41
1
10
53.9672809967594
20
-0.0434342441808724
30
0
41
1
10
53.9691255404599
20
-0.0554259272928164
30
0
41
1
10
53.9699037602446
20
-0.0618823120718446
30
0
41
1
10
53.9708240239621
20
-0.0724150256324947
30
0
41
1
10
53.9710893450278
20
-0.0760682313175494
30
0
41
1
10
53.9715270270214
20
-0.0837038516974644
30
0
41
1
10
53.9716998125543
20
-0.0877171139925395
30
0
41
1
10
53.972047906669
20
-0.0999840262541056
30
0
41
1
10
53.9720612677208
20
-0.108546711648756
30
0
41
1
10
53.97158660753
20
-0.126401714467789
30
0
41
1
10
53.97111049671
20
-0.135283950381563
30
0
41
1
10
53.97004445409
20
-0.148540590021327
30
0
41
1
10
53.9696287873663
20
-0.152946301267718
30
0
41
1
10
53.9687092004074
20
-0.161454846010003
30
0
41
1
10
53.968202499078
20
-0.165595713833255
30
0
41
1
10
53.9671006692614
20
-0.17366818462429
30
0
41
1
10
53.9665015716293
20
-0.177620760858701
30
0
41
1
10
53.9652467147115
20
-0.185158602272395
30
0
41
1
10
53.9645893215457
20
-0.188760759870718
30
0
41
1
10
53.9625347711492
20
-0.199129092535628
30
0
41
1
10
53.9610464563293
20
-0.205494918061817
30
0
41
1
10
53.9563423780299
20
-0.22290269993735
30
0
41
1
10
53.9529750089497
20
-0.232057471869695
30
0
41
1
10
53.9493894093165
20
-0.239537332335743
30
0
0
SPLINE
5
CC
100
AcDbEntity
8
1
62
256
6
ByLayer
370
18
48
1
60
0
100
AcDbSpline
70
4
71
3
72
37
73
33
40
0
40
0
40
0
40
0
40
0.125000000000008
40
0.125000000000008
40
0.250000000000016
40
0.250000000000016
40
0.281250000000016
40
0.281250000000016
40
0.312500000000015
40
0.375000000000015
40
0.375000000000015
40
0.500000000000014
40
0.500000000000014
40
0.531250000000017
40
0.531250000000017
40
0.56250000000002
40
0.56250000000002
40
0.625000000000013
40
0.625000000000013
40
0.75
40
0.75
40
0.78125
40
0.78125
40
0.8125
40
0.8125
40
0.875
40
0.875
40
0.9375
40
0.9375
40
0.96875
40
0.96875
40
1
40
1
40
1
40
1
41
1
10
53.9493894093139
20
-0.239537332341087
30
0
41
1
10
53.9325864673318
20
-0.274589673451004
30
0
41
1
10
53.9117586905855
20
-0.306936212227185
30
1E-16
41
1
10
53.862168951079
20
-0.365492991067441
30
0
41
1
10
53.8334101751496
20
-0.391703025702981
30
0
41
1
10
53.7923604329833
20
-0.41969437504747
30
0
41
1
10
53.7838843599882
20
-0.425057332186384
30
0
41
1
10
53.7665363108926
20
-0.435204791845308
30
0
41
1
10
53.7398833932338
20
-0.449585122528674
30
-1E-16
41
1
10
53.7113752810618
20
-0.461365603862418
30
0
41
1
10
53.6519572360997
20
-0.481175238884049
30
0
41
1
10
53.6091566837276
20
-0.489418614799916
30
0
41
1
10
53.5517503907041
20
-0.491918896140476
30
0
41
1
10
53.5400725154384
20
-0.492027834865894
30
0
41
1
10
53.5163197179437
20
-0.491417219868765
30
0
41
1
10
53.5042749567331
20
-0.490696500211698
30
0
41
1
10
53.4678872050897
20
-0.487270646565975
30
0
41
1
10
53.4431999040511
20
-0.483301381721191
30
0
41
1
10
53.3679637130933
20
-0.466126236064639
30
0
41
1
10
53.3162537814677
20
-0.447698022317752
30
-1E-16
41
1
10
53.2498384028909
20
-0.414766240017457
30
1E-16
41
1
10
53.2364687209874
20
-0.407680003854068
30
1E-16
41
1
10
53.2098678898857
20
-0.392666386137563
30
0
41
1
10
53.1965973105349
20
-0.384720614503692
30
0
41
1
10
53.156877187432
20
-0.359582877539822
30
0
41
1
10
53.1305183619112
20
-0.341095043932938
30
-1E-16
41
1
10
53.0780484559835
20
-0.300690750165842
30
0
41
1
10
53.05193898904
20
-0.278771138862481
30
0
41
1
10
53.0129594000604
20
-0.243285566165099
30
-1E-16
41
1
10
52.9999967701311
20
-0.231022379419443
30
1E-16
41
1
10
52.9741301446772
20
-0.205616660522679
30
0
41
1
10
52.9612008347548
20
-0.192445232605507
30
0
41
1
10
52.9484381868138
20
-0.178978880290202
30
0
0
SPLINE
5
CD
100
AcDbEntity
8
1
62
256
6
ByLayer
370
18
48
1
60
0
100
AcDbSpline
70
4
71
3
72
31
73
27
40
0
40
0
40
0
40
0
40
0.0624999999999985
40
0.0624999999999985
40
0.124999999999997
40
0.124999999999997
40
0.250000000000007
40
0.250000000000007
40
0.312500000000012
40
0.312500000000012
40
0.343750000000015
40
0.343750000000015
40
0.375000000000017
40
0.375000000000017
40
0.500000000000016
40
0.500000000000016
40
0.625000000000015
40
0.625000000000015
40
0.65625000000001
40
0.65625000000001
40
0.687500000000005
40
0.750000000000004
40
0.750000000000004
40
0.875000000000002
40
0.875000000000002
40
1
40
1
40
1
40
1
41
1
10
52.7356496933958
20
-1.18146196228355
30
1E-16
41
1
10
52.7684606001248
20
-1.1933467225814
30
-1E-16
41
1
10
52.8012149485768
20
-1.20388176738805
30
-1E-16
41
1
10
52.8667075671539
20
-1.22202192417743
30
0
41
1
10
52.8995484372932
20
-1.22963727451042
30
0
41
1
10
52.9965314958983
20
-1.24742691561139
30
0
41
1
10
53.0596072460381
20
-1.25272273199408
30
0
41
1
10
53.1522716283827
20
-1.25018650579835
30
0
41
1
10
53.1828338382254
20
-1.24758637565117
30
0
41
1
10
53.2282236737886
20
-1.24090990943608
30
0
41
1
10
53.2432774985938
20
-1.2382221808077
30
0
41
1
10
53.2732360996605
20
-1.23189425924426
30
0
41
1
10
53.2881699375396
20
-1.22824422588909
30
0
41
1
10
53.3617985082961
20
-1.20773060694657
30
-1E-16
41
1
10
53.417822060957
20
-1.18402553292475
30
1E-16
41
1
10
53.5244374467798
20
-1.12217627273591
30
0
41
1
10
53.5750411054987
20
-1.08399098147623
30
0
41
1
10
53.6347143524772
20
-1.02687146374905
30
0
41
1
10
53.6464133838397
20
-1.01502632314492
30
0
41
1
10
53.6692469441034
20
-0.990609148751957
30
0
41
1
10
53.702698125121
20
-0.952847974301534
30
0
41
1
10
53.7337805068923
20
-0.911799535762299
30
0
41
1
10
53.7928019000329
20
-0.825525344094757
30
0
41
1
10
53.8279813266247
20
-0.76241627201486
30
0
41
1
10
53.8895416147926
20
-0.626047737627403
30
0
41
1
10
53.9151632010154
20
-0.554461865275528
30
0
41
1
10
53.9358413905548
20
-0.480355574297022
30
0
0
SPLINE
5
CE
100
AcDbEntity
8
1
62
256
6
ByLayer
370
18
48
1
60
0
100
AcDbSpline
70
4
71
3
72
8
73
4
40
0
40
0
40
0
40
0
40
1
40
1
40
1
40
1
41
1
10
24
20
-3.65630703093802
30
0
41
1
10
24
20
-3.72705980954674
30
0
41
1
10
24
20
-3.79781258815549
30
0
41
1
10
24
20
-3.86856536676422
30
0
0
SPLINE
5
CF
100
AcDbEntity
8
1
62
256
6
ByLayer
370
18
48
1
60
0
100
AcDbSpline
70
4
71
3
72
30
73
26
40
0
40
0
40
0
40
0
40
0.124999999999971
40
0.124999999999971
40
0.187499999999966
40
0.187499999999966
40
0.24999999999996
40
0.24999999999996
40
0.37499999999995
40
0.37499999999995
40
0.499999999999939
40
0.499999999999939
40
0.624999999999928
40
0.624999999999928
40
0.749999999999918
40
0.749999999999918
40
0.812499999999911
40
0.812499999999911
40
0.874999999999904
40
0.874999999999904
40
0.906249999999899
40
0.906249999999899
40
0.937499999999894
40
0.937499999999894
40
1
40
1
40
1
40
1
41
1
10
52.4079491149348
20
1.90266384391742
30
0
41
1
10
52.4075695362085
20
1.90409302213885
30
0
41
1
10
52.4083710841754
20
1.90604251411844
30
0
41
1
10
52.4110297123617
20
1.91007100257235
30
0
41
1
10
52.4121599690866
20
1.91159738555399
30
0
41
1
10
52.4148714057363
20
1.91506876196758
30
0
41
1
10
52.4164629499956
20
1.9170262057803
30
0
41
1
10
52.4217785627403
20
1.92349107415745
30
0
41
1
10
52.4260278226698
20
1.92858476352771
30
0
41
1
10
52.4356186211256
20
1.94044365373244
30
0
41
1
10
52.4410146413245
20
1.9472825777905
30
0
41
1
10
52.4524432929153
20
1.96222677051807
30
0
41
1
10
52.4584854700355
20
1.97034818799
30
0
41
1
10
52.4714368119306
20
1.9878273008477
30
0
41
1
10
52.4783531215838
20
1.99724380737371
30
0
41
1
10
52.4897396016684
20
2.01163324463573
30
0
41
1
10
52.493750820649
20
2.01652019321315
30
0
41
1
10
52.5022766093022
20
2.02604186681779
30
0
41
1
10
52.5068302278419
20
2.03073465069733
30
0
41
1
10
52.5143645992412
20
2.03721581724164
30
0
41
1
10
52.5169531781598
20
2.03924315469382
30
0
41
1
10
52.522339973271
20
2.04294736977161
30
0
41
1
10
52.5251709881162
20
2.04463555706448
30
0
41
1
10
52.5336575947342
20
2.04883555065987
30
0
41
1
10
52.5394834077516
20
2.05054947724671
30
0
41
1
10
52.5451117316092
20
2.05123718424235
30
0
0
SPLINE
5
D0
100
AcDbEntity
8
1
62
256
6
ByLayer
370
18
48
1
60
0
100
AcDbSpline
70
4
71
3
72
30
73
26
40
0
40
0
40
0
40
0
40
0.250000000000065
40
0.250000000000065
40
0.375000000000032
40
0.375000000000032
40
0.5
40
0.5
40
0.624999999999967
40
0.624999999999967
40
0.687500000000014
40
0.687500000000014
40
0.75000000000006
40
0.75000000000006
40
0.812500000000106
40
0.812500000000106
40
0.843750000000088
40
0.843750000000088
40
0.875000000000071
40
0.875000000000071
40
0.906250000000053
40
0.906250000000053
40
0.937500000000035
40
0.937500000000035
40
1
40
1
40
1
40
1
41
1
10
52.545111731603
20
2.05123718424161
30
0
41
1
10
52.5644401809697
20
2.05359886601047
30
0
41
1
10
52.5839718381532
20
2.05657022549502
30
0
41
1
10
52.6132606419425
20
2.06259918788635
30
0
41
1
10
52.6230161138476
20
2.06487289264007
30
0
41
1
10
52.6424838555776
20
2.07017249393152
30
0
41
1
10
52.6521968352063
20
2.07319218201468
30
0
41
1
10
52.6715287660928
20
2.08039879266275
30
0
41
1
10
52.6812305770219
20
2.08461104994484
30
0
41
1
10
52.6952488971962
20
2.09232500119759
30
0
41
1
10
52.6998314889207
20
2.09512973250608
30
0
41
1
10
52.7087348481655
20
2.10140662081841
30
0
41
1
10
52.7130918471844
20
2.10491163379976
30
0
41
1
10
52.7211348039257
20
2.11270920344654
30
0
41
1
10
52.724881190045
20
2.11706478388618
30
0
41
1
10
52.7296144670507
20
2.12427266899169
30
0
41
1
10
52.7310341408311
20
2.12676921102278
30
0
41
1
10
52.7335160112733
20
2.13197466439272
30
0
41
1
10
52.7345852176682
20
2.13471411085109
30
0
41
1
10
52.7362588444212
20
2.14022845232719
30
0
41
1
10
52.7368725763408
20
2.14301099991329
30
0
41
1
10
52.7376737029751
20
2.14862438220109
30
0
41
1
10
52.7378593947834
20
2.15148210798239
30
0
41
1
10
52.737810492506
20
2.15986744125209
30
0
41
1
10
52.7370029505399
20
2.16523781643315
30
0
41
1
10
52.7356496933959
20
2.17044237888692
30
0
0
SPLINE
5
D1
100
AcDbEntity
8
1
62
256
6
ByLayer
370
18
48
1
60
0
100
AcDbSpline
70
4
71
3
72
14
73
10
40
0
40
0
40
0
40
0
40
0.193554908091308
40
0.193554908091308
40
0.387109816182617
40
0.387109816182617
40
0.774219632365232
40
0.774219632365232
40
1
40
1
40
1
40
1
41
1
10
52.9484381867978
20
1.66834873062351
30
1E-16
41
1
10
52.9216407215436
20
1.68321110201009
30
1E-16
41
1
10
52.8953913028762
20
1.69737667824853
30
0
41
1
10
52.8446567672637
20
1.72396606777565
30
0
41
1
10
52.8201056520828
20
1.73642917976173
30
-1E-16
41
1
10
52.7485818626832
20
1.77157138843592
30
0
41
1
10
52.703726526355
20
1.79200973343424
30
0
41
1
10
52.6360753787043
20
1.82059584962013
30
0
41
1
10
52.6118784269247
20
1.83031544615136
30
0
41
1
10
52.5883081203541
20
1.83932461186652
30
0
0
SPLINE
5
D2
100
AcDbEntity
8
1
62
256
6
ByLayer
370
18
48
1
60
0
100
AcDbSpline
70
4
71
3
72
22
73
18
40
0
40
0
40
0
40
0
40
0.124999999999989
40
0.124999999999989
40
0.187500000000009
40
0.187500000000009
40
0.250000000000028
40
0.250000000000028
40
0.375000000000014
40
0.375000000000014
40
0.500000000000001
40
0.500000000000001
40
0.750000000000027
40
0.750000000000027
40
0.875000000000014
40
0.875000000000014
40
1
40
1
40
1
40
1
41
1
10
52.9484381867978
20
1.66834873062353
30
1E-16
41
1
10
52.9278003179099
20
1.67364172724533
30
1E-16
41
1
10
52.9061157184484
20
1.68054074509942
30
1E-16
41
1
10
52.8721256933919
20
1.69301803491504
30
0
41
1
10
52.8605195853448
20
1.69754770675775
30
0
41
1
10
52.8372545438897
20
1.70709664922509
30
0
41
1
10
52.8255468007613
20
1.71213244024565
30
0
41
1
10
52.7902059510385
20
1.72792591813314
30
-1E-16
41
1
10
52.7663561840411
20
1.73936587954069
30
-1E-16
41
1
10
52.7180897473473
20
1.76367164819686
30
1E-16
41
1
10
52.6935755824817
20
1.77659619202561
30
1E-16
41
1
10
52.6208648773297
20
1.81612386201027
30
0
41
1
10
52.5729399495429
20
1.84371551084644
30
-1E-16
41
1
10
52.5012776590769
20
1.88580845382876
30
0
41
1
10
52.477409107216
20
1.8999778732971
30
0
41
1
10
52.4297808425271
20
1.92837789339612
30
-1E-16
41
1
10
52.4061251686498
20
1.94254630672515
30
-1E-16
41
1
10
52.3825823985095
20
1.95663753114968
30
1E-16
0
SPLINE
5
D3
100
AcDbEntity
8
1
62
256
6
ByLayer
370
18
48
1
60
0
100
AcDbSpline
70
4
71
3
72
12
73
8
40
0
40
0
40
0
40
0
40
0.247884363005967
40
0.247884363005967
40
0.623885941234674
40
0.623885941234674
40
1
40
1
40
1
40
1
41
1
10
52.3825823985102
20
1.95663753114951
30
1E-16
41
1
10
52.3779267453954
20
1.95942331755248
30
1E-16
41
1
10
52.3732755248976
20
1.96220466658215
30
1E-16
41
1
10
52.3615810417114
20
1.96919237178295
30
0
41
1
10
52.3545434062539
20
1.97339257444935
30
0
41
1
10
52.3404881660323
20
1.98176872360929
30
0
41
1
10
52.3334700432893
20
1.98594497445924
30
0
41
1
10
52.3264631771886
20
1.99010718886706
30
0
0
SPLINE
5
D4
100
AcDbEntity
8
1
62
256
6
ByLayer
370
18
48
1
60
0
100
AcDbSpline
70
4
71
3
72
8
73
4
40
0
40
0
40
0
40
0
40
1
40
1
40
1
40
1
41
0.99374110258559
10
24
20
-3.62322548343839
30
1E-16
41
0.995779384843287
10
24
20
-3.63426985230538
30
0
41
0.997865683981424
10
24
20
-3.6452975294961
30
0
41
1
10
24
20
-3.65630703093802
30
0
0
SPLINE
5
D5
100
AcDbEntity
8
1
62
256
6
ByLayer
370
18
48
1
60
0
100
AcDbSpline
70
4
71
3
72
18
73
14
40
0
40
0
40
0
40
0
40
0.101486528657703
40
0.101486528657703
40
0.281189222926162
40
0.281189222926162
40
0.460891917194622
40
0.460891917194622
40
0.640594611463081
40
0.640594611463081
40
0.820297305731541
40
0.820297305731541
40
1
40
1
40
1
40
1
41
1
10
24
20
-2.64874248343079
30
0
41
1
10
24
20
-2.6760619802586
30
0
41
1
10
24
20
-2.70437236078243
30
0
41
1
10
24
20
-2.78529412224924
30
0
41
1
10
24
20
-2.83981526508597
30
0
41
1
10
24
20
-2.95306228564343
30
0
41
1
10
24
20
-3.01178353117572
30
0
41
1
10
24
20
-3.13178254468778
30
0
41
1
10
24
20
-3.1930550699924
30
0
41
1
10
24
20
-3.31642469045906
30
0
41
1
10
24
20
-3.37851690962657
30
0
41
1
10
24
20
-3.5018657726194
30
0
41
1
10
24
20
-3.56311870783256
30
0
41
1
10
24
20
-3.62322548343837
30
1E-16
0
SPLINE
5
D6
100
AcDbEntity
8
1
62
256
6
ByLayer
370
18
48
1
60
0
100
AcDbSpline
70
4
71
3
72
30
73
26
40
0
40
0
40
0
40
0
40
0.124999999999964
40
0.124999999999964
40
0.187499999999956
40
0.187499999999956
40
0.249999999999947
40
0.249999999999947
40
0.374999999999931
40
0.374999999999931
40
0.499999999999915
40
0.499999999999915
40
0.624999999999899
40
0.624999999999899
40
0.749999999999883
40
0.749999999999883
40
0.812499999999913
40
0.812499999999913
40
0.874999999999942
40
0.874999999999942
40
0.906249999999957
40
0.906249999999957
40
0.937499999999971
40
0.937499999999971
40
1
40
1
40
1
40
1
41
1
10
52.4079491149347
20
0.774712255614702
30
0
41
1
10
52.4075695362084
20
0.786794087824802
30
-1E-16
41
1
10
52.4083710841755
20
0.79891761611762
30
-1E-16
41
1
10
52.4110297123618
20
0.817302812311141
30
1E-16
41
1
10
52.4121599690868
20
0.823464230612927
30
1E-16
41
1
10
52.4148714057367
20
0.835873577535466
30
0
41
1
10
52.4164629499961
20
0.842155222188126
30
0
41
1
10
52.4217785627409
20
0.860841810073822
30
0
41
1
10
52.4260278226706
20
0.873109953254328
30
0
41
1
10
52.4356186211268
20
0.897385352377768
30
-1E-16
41
1
10
52.4410146413259
20
0.909495436515328
30
1E-16
41
1
10
52.4524432929171
20
0.932687448995836
30
0
41
1
10
52.4584854700375
20
0.943842658473272
30
0
41
1
10
52.4714368119331
20
0.965157702010515
30
0
41
1
10
52.4783531215865
20
0.975374755183935
30
-1E-16
41
1
10
52.4897396016717
20
0.988863481175628
30
-1E-16
41
1
10
52.4937508206525
20
0.993091500238904
30
-1E-16
41
1
10
52.5022766093061
20
1.00045211533558
30
1E-16
41
1
10
52.5068302278463
20
1.00363675453292
30
1E-16
41
1
10
52.5143645992459
20
1.0070301917242
30
1E-16
41
1
10
52.5169531781648
20
1.00790711576209
30
1E-16
41
1
10
52.5223399732764
20
1.00904843339649
30
1E-16
41
1
10
52.5251709881218
20
1.00930556399484
30
1E-16
41
1
10
52.53365759474
20
1.00900822422977
30
1E-16
41
1
10
52.5394834077516
20
1.0073656945294
30
1E-16
41
1
10
52.5451117316093
20
1.00467884179574
30
1E-16
0
SPLINE
5
D7
100
AcDbEntity
8
1
62
256
6
ByLayer
370
18
48
1
60
0
100
AcDbSpline
70
4
71
3
72
30
73
26
40
0
40
0
40
0
40
0
40
0.249999999999908
40
0.249999999999908
40
0.374999999999862
40
0.374999999999862
40
0.499999999999815
40
0.499999999999815
40
0.624999999999769
40
0.624999999999769
40
0.687499999999808
40
0.687499999999808
40
0.749999999999847
40
0.749999999999847
40
0.812499999999885
40
0.812499999999885
40
0.843749999999905
40
0.843749999999905
40
0.874999999999924
40
0.874999999999924
40
0.906249999999944
40
0.906249999999944
40
0.937499999999963
40
0.937499999999963
40
1
40
1
40
1
40
1
41
1
10
52.5451117316102
20
1.00467884179534
30
1E-16
41
1
10
52.5644401809763
20
0.995451814650352
30
1E-16
41
1
10
52.5839718381593
20
0.986752567542453
30
-1E-16
41
1
10
52.6132606419477
20
0.97512488922564
30
-1E-16
41
1
10
52.6230161138524
20
0.971490207855368
30
-1E-16
41
1
10
52.6424838555818
20
0.96487314918835
30
0
41
1
10
52.6521968352102
20
0.961885948491869
30
0
41
1
10
52.6715287660961
20
0.956880944738089
30
0
41
1
10
52.681230577025
20
0.954838516586847
30
0
41
1
10
52.6952488971986
20
0.953109103062616
30
0
41
1
10
52.699831488923
20
0.952755970153447
30
0
41
1
10
52.7087348481675
20
0.952680547142393
30
0
41
1
10
52.7130918471863
20
0.952963344742926
30
0
41
1
10
52.7211348039272
20
0.954454845921788
30
0
41
1
10
52.7248811900461
20
0.955677820499147
30
0
41
1
10
52.7296144670515
20
0.958463038881661
30
0
41
1
10
52.7310341408318
20
0.959541843685429
30
0
41
1
10
52.7335160112739
20
0.962039589761588
30
0
41
1
10
52.7345852176687
20
0.963477100878976
30
0
41
1
10
52.7362588444214
20
0.966620011012282
30
0
41
1
10
52.7368725763411
20
0.968326143752336
30
0
41
1
10
52.7376737029752
20
0.971996983864926
30
-1E-16
41
1
10
52.7378593947832
20
0.973982197622689
30
-1E-16
41
1
10
52.7378104925058
20
0.980121177139068
30
-1E-16
41
1
10
52.7370029505396
20
0.984463364115726
30
-1E-16
41
1
10
52.7356496933957
20
0.988980416603368
30
-1E-16
0
SPLINE
5
D8
100
AcDbEntity
8
1
62
256
6
ByLayer
370
18
48
1
60
0
100
AcDbSpline
70
4
71
3
72
12
73
8
40
0
40
0
40
0
40
0
40
0.5
40
0.5
40
0.75
40
0.75
40
1
40
1
40
1
40
1
41
1
10
52.3324371925796
20
1.37965133892189
30
1E-16
41
1
10
52.4027071847315
20
1.31841841402146
30
0
41
1
10
52.4717149619982
20
1.25549463795693
30
-1E-16
41
1
10
52.5727996489934
20
1.15807170371059
30
0
41
1
10
52.6060857112205
20
1.12508670572962
30
0
41
1
10
52.6716817858737
20
1.05794160582539
30
0
41
1
10
52.704044923682
20
1.02372338864194
30
0
41
1
10
52.7356496933958
20
0.988980416603368
30
-1E-16
0
SPLINE
5
D9
100
AcDbEntity
8
1
62
256
6
ByLayer
370
18
48
1
60
0
100
AcDbSpline
70
4
71
3
72
22
73
18
40
0
40
0
40
0
40
0
40
0.124999999999946
40
0.124999999999946
40
0.187499999999919
40
0.187499999999919
40
0.249999999999892
40
0.249999999999892
40
0.374999999999891
40
0.374999999999891
40
0.499999999999891
40
0.499999999999891
40
0.749999999999945
40
0.749999999999945
40
0.874999999999973
40
0.874999999999973
40
1
40
1
40
1
40
1
41
1
10
52.9484381868002
20
-0.178978880271842
30
0
41
1
10
52.9278003179123
20
-0.19192388795102
30
0
41
1
10
52.9061157184508
20
-0.20234860762713
30
0
41
1
10
52.8721256933942
20
-0.214560176797164
30
1E-16
41
1
10
52.8605195853471
20
-0.218060368650669
30
1E-16
41
1
10
52.837254543892
20
-0.223867594473774
30
1E-16
41
1
10
52.8255468007635
20
-0.226195639630902
30
1E-16
41
1
10
52.7902059510404
20
-0.231623113851356
30
1E-16
41
1
10
52.766356184043
20
-0.233173995579392
30
1E-16
41
1
10
52.718089747349
20
-0.232781562829445
30
1E-16
41
1
10
52.6935755824832
20
-0.230805725819153
30
1E-16
41
1
10
52.6208648773309
20
-0.220583536561151
30
1E-16
41
1
10
52.5729399495438
20
-0.208161155247097
30
0
41
1
10
52.5012776590774
20
-0.183574421171528
30
0
41
1
10
52.4774091072164
20
-0.174356273217654
30
0
41
1
10
52.4297808425274
20
-0.154173796875085
30
-1E-16
41
1
10
52.4061251686499
20
-0.143255426932455
30
-1E-16
41
1
10
52.3825823985095
20
-0.131619706211751
30
-1E-16
0
SPLINE
5
DA
100
AcDbEntity
8
1
62
256
6
ByLayer
370
18
48
1
60
0
100
AcDbSpline
70
4
71
3
72
18
73
14
40
0
40
0
40
0
40
0
40
0.124999999999994
40
0.124999999999994
40
0.249999999999988
40
0.249999999999988
40
0.499999999999998
40
0.499999999999998
40
0.750000000000008
40
0.750000000000008
40
0.875000000000004
40
0.875000000000004
40
1
40
1
40
1
40
1
41
1
10
52.9484381868156
20
-0.178978880296768
30
0
41
1
10
52.9216407215533
20
-0.143713933856759
30
-1E-16
41
1
10
52.8953913028781
20
-0.10774918709123
30
-2E-16
41
1
10
52.8446567672511
20
-0.0356224252757045
30
1E-16
41
1
10
52.8201056520634
20
0.0006178713385907
30
0
41
1
10
52.7485818626446
20
0.109778498060081
30
0
41
1
10
52.7037265263049
20
0.183134197369895
30
0
41
1
10
52.6182677474586
20
0.33064452630822
30
-1E-16
41
1
10
52.5776690372594
20
0.404801121803359
30
-1E-16
41
1
10
52.5192248687032
20
0.516478770087019
30
-1E-16
41
1
10
52.5001556785126
20
0.553779694129332
30
0
41
1
10
52.4627449989853
20
0.628514149229886
30
1E-16
41
1
10
52.4443954896834
20
0.665960786593303
30
0
41
1
10
52.4264030159965
20
0.703376270416811
30
-1E-16
0
SPLINE
5
DB
100
AcDbEntity
8
1
62
256
6
ByLayer
370
18
48
1
60
0
100
AcDbSpline
70
4
71
3
72
12
73
8
40
0
40
0
40
0
40
0
40
0.499999999999998
40
0.499999999999998
40
0.749999999999999
40
0.749999999999999
40
1
40
1
40
1
40
1
41
1
10
52.4264030159902
20
0.703376270425736
30
-1E-16
41
1
10
52.4209258876762
20
0.714765999787517
30
1E-16
41
1
10
52.4165565219241
20
0.726373068455274
30
1E-16
41
1
10
52.411838174973
20
0.744181090986558
30
0
41
1
10
52.4105734412989
20
0.750183908779576
30
0
41
1
10
52.4087247725593
20
0.762345070399448
30
0
41
1
10
52.4081413257082
20
0.768524953638661
30
0
41
1
10
52.4079491149348
20
0.774712255614674
30
0
0
SPLINE
5
DC
100
AcDbEntity
8
1
62
256
6
ByLayer
370
18
48
1
60
0
100
AcDbSpline
70
4
71
3
72
16
73
12
40
0
40
0
40
0
40
0
40
0.250000000000009
40
0.250000000000009
40
0.500000000000019
40
0.500000000000019
40
0.625000000000005
40
0.625000000000005
40
0.749999999999991
40
0.749999999999991
40
1
40
1
40
1
40
1
41
1
10
52.3264631771876
20
1.99010718886774
30
0
41
1
10
52.2646191394904
20
2.02684351140766
30
-1E-16
41
1
10
52.204307452714
20
2.06207357394317
30
1E-16
41
1
10
52.0855253649047
20
2.12900992805683
30
-1E-16
41
1
10
52.0270668176026
20
2.16071887650648
30
0
41
1
10
51.9401735867744
20
2.20526140104178
30
-1E-16
41
1
10
51.9112871414176
20
2.2196318335593
30
-1E-16
41
1
10
51.8540226277003
20
2.2471443818763
30
1E-16
41
1
10
51.825653429817
20
2.26028460016013
30
0
41
1
10
51.7411910119974
20
2.29781775230674
30
-1E-16
41
1
10
51.6857376608248
20
2.3203261436723
30
0
41
1
10
51.6308398906074
20
2.34018142429304
30
0
0
SPLINE
5
DD
100
AcDbEntity
8
1
62
256
6
ByLayer
370
18
48
1
60
0
100
AcDbSpline
70
4
71
3
72
12
73
8
40
0
40
0
40
0
40
0
40
0.247884363005962
40
0.247884363005962
40
0.623885941234967
40
0.623885941234967
40
1
40
1
40
1
40
1
41
1
10
52.3825823985102
20
-0.131619706212433
30
-1E-16
41
1
10
52.3779267453954
20
-0.129320156850753
30
-1E-16
41
1
10
52.3732755248976
20
-0.12699510234026
30
-1E-16
41
1
10
52.3615810417113
20
-0.121081125630298
30
-2E-16
41
1
10
52.3545434062539
20
-0.11745980185853
30
-2E-16
41
1
10
52.3404881660323
20
-0.110107005967109
30
-2E-16
41
1
10
52.3334700432893
20
-0.106375228129224
30
-2E-16
41
1
10
52.3264631771887
20
-0.102591154644301
30
-2E-16
0
SPLINE
5
DE
100
AcDbEntity
8
1
62
256
6
ByLayer
370
18
48
1
60
0
100
AcDbSpline
70
4
71
3
72
16
73
12
40
0
40
0
40
0
40
0
40
0.25
40
0.25
40
0.5
40
0.5
40
0.75
40
0.75
40
0.875
40
0.875
40
1
40
1
40
1
40
1
41
1
10
51.6308398906074
20
1.91350361522126
30
0
41
1
10
51.6896566421286
20
1.87734810241611
30
0
41
1
10
51.7480609349936
20
1.83880216688533
30
-1E-16
41
1
10
51.8645453831859
20
1.75744227556965
30
1E-16
41
1
10
51.9226238220071
20
1.71462690852684
30
0
41
1
10
52.0389440285873
20
1.62511930956941
30
0
41
1
10
52.0971841035946
20
1.57842635405788
30
1E-16
41
1
10
52.1850620007323
20
1.50570778671579
30
0
41
1
10
52.2144414777069
20
1.48102119552775
30
1E-16
41
1
10
52.2734496075988
20
1.43078587769233
30
0
41
1
10
52.3029485799953
20
1.40534741617407
30
0
41
1
10
52.3324371925799
20
1.37965133892166
30
1E-16
0
SPLINE
5
DF
100
AcDbEntity
8
1
62
256
6
ByLayer
370
18
48
1
60
0
100
AcDbSpline
70
4
71
3
72
16
73
12
40
0
40
0
40
0
40
0
40
0.249999999999997
40
0.249999999999997
40
0.375000000000002
40
0.375000000000002
40
0.500000000000007
40
0.500000000000007
40
0.750000000000003
40
0.750000000000003
40
1
40
1
40
1
40
1
41
1
10
24
20
-3.86856536677044
30
0
41
1
10
23.9179238784959
20
-3.85816721454427
30
0
41
1
10
23.8358780796073
20
-3.84564561423122
30
0
41
1
10
23.710122844349
20
-3.82493741463574
30
1E-16
41
1
10
23.667750720928
20
-3.81772536482987
30
1E-16
41
1
10
23.5819047175254
20
-3.80286606940658
30
0
41
1
10
23.5384228366999
20
-3.79522334505796
30
0
41
1
10
23.4063207556412
20
-3.77181368879997
30
0
41
1
10
23.3160880828553
20
-3.75555723970203
30
-1E-16
41
1
10
23.1322481454267
20
-3.72199962648571
30
1E-16
41
1
10
23.0386686898425
20
-3.70467987714437
30
0
41
1
10
22.9437597723309
20
-3.6868937111567
30
0
0
SPLINE
5
E0
100
AcDbEntity
8
1
62
256
6
ByLayer
370
18
48
1
60
0
100
AcDbSpline
70
4
71
3
72
20
73
16
40
0
40
0
40
0
40
0
40
0.169897912040542
40
0.169897912040542
40
0.2548468680608
40
0.2548468680608
40
0.339795824081058
40
0.339795824081058
40
0.509693736121573
40
0.509693736121573
40
0.679591648162089
40
0.679591648162089
40
0.849489560202604
40
0.849489560202604
40
1
40
1
40
1
40
1
41
1
10
52.4079491149347
20
-1.12795158830275
30
0
41
1
10
52.4075695362084
20
-1.11729893431436
30
0
41
1
10
52.4083710841754
20
-1.10712489800139
30
-1E-16
41
1
10
52.4110297123617
20
-1.09276819026218
30
-1E-16
41
1
10
52.4121599690866
20
-1.0881331549422
30
1E-16
41
1
10
52.4148714057363
20
-1.0791951844335
30
1E-16
41
1
10
52.4164629499957
20
-1.07487098359371
30
1E-16
41
1
10
52.4217785627403
20
-1.06264926408559
30
0
41
1
10
52.4260278226699
20
-1.05547481027563
30
0
41
1
10
52.4356186211256
20
-1.04305830135743
30
0
41
1
10
52.4410146413244
20
-1.0377871412781
30
0
41
1
10
52.4524432929153
20
-1.02953932152556
30
0
41
1
10
52.4584854700355
20
-1.02650552952017
30
0
41
1
10
52.4706978570534
20
-1.02288846262405
30
0
41
1
10
52.4767803849241
20
-1.02206630756592
30
0
41
1
10
52.4833714378018
20
-1.02231827100789
30
0
0
SPLINE
5
E1
100
AcDbEntity
8
1
62
256
6
ByLayer
370
18
48
1
60
0
100
AcDbSpline
70
4
71
3
72
18
73
14
40
0
40
0
40
0
40
0
40
0.214251493482889
40
0.214251493482889
40
0.345209577902406
40
0.345209577902406
40
0.476167662321922
40
0.476167662321922
40
0.607125746741439
40
0.607125746741439
40
0.738083831160955
40
0.738083831160955
40
1
40
1
40
1
40
1
41
1
10
52.7192796304021
20
-1.15681971660501
30
0
41
1
10
52.7224788035402
20
-1.15938842964411
30
1E-16
41
1
10
52.7254554453188
20
-1.16192353449605
30
1E-16
41
1
10
52.7296144670508
20
-1.16580963011066
30
1E-16
41
1
10
52.7310341408312
20
-1.16722736733803
30
1E-16
41
1
10
52.7335160112735
20
-1.16993507463187
30
1E-16
41
1
10
52.7345852176683
20
-1.17123700997283
30
1E-16
41
1
10
52.7362588444212
20
-1.17360844131559
30
1E-16
41
1
10
52.7368725763409
20
-1.17468485616158
30
1E-16
41
1
10
52.7376737029751
20
-1.17662739833673
30
1E-16
41
1
10
52.7378593947833
20
-1.17749991036027
30
1E-16
41
1
10
52.7378104925059
20
-1.17974626411342
30
1E-16
41
1
10
52.7370029505397
20
-1.18077445231754
30
1E-16
41
1
10
52.7356496933958
20
-1.18146196228352
30
1E-16
0
SPLINE
5
E2
100
AcDbEntity
8
1
62
256
6
ByLayer
370
18
48
1
60
0
100
AcDbSpline
70
4
71
3
72
12
73
8
40
0
40
0
40
0
40
0
40
0.500000000000001
40
0.500000000000001
40
0.75
40
0.75
40
1
40
1
40
1
40
1
41
1
10
52.3324371925797
20
-0.965531656787931
30
0
41
1
10
52.4027071847315
20
-1.0079211355939
30
1E-16
41
1
10
52.4717149619982
20
-1.0466803036596
30
-2E-16
41
1
10
52.5727996489933
20
-1.10028640392153
30
-1E-16
41
1
10
52.6060857112205
20
-1.11740246428309
30
0
41
1
10
52.6716817858736
20
-1.1503425192584
30
0
41
1
10
52.7040449236819
20
-1.16619031470014
30
1E-16
41
1
10
52.7356496933958
20
-1.18146196228355
30
1E-16
0
SPLINE
5
E3
100
AcDbEntity
8
1
62
256
6
ByLayer
370
18
48
1
60
0
100
AcDbSpline
70
4
71
3
72
8
73
4
40
0
40
0
40
0
40
0
40
1
40
1
40
1
40
1
41
1
10
24
20
3.75983264674323
30
0
41
0.872718998207882
10
24
20
3.34604195946728
30
0
41
0.847557143856952
10
24
20
2.91154672743007
30
0
41
0.924514436947211
10
24
20
2.59863564674326
30
1E-16
0
SPLINE
5
E4
100
AcDbEntity
8
1
62
256
6
ByLayer
370
18
48
1
60
0
100
AcDbSpline
70
4
71
3
72
18
73
14
40
0
40
0
40
0
40
0
40
0.125
40
0.125
40
0.25
40
0.25
40
0.5
40
0.5
40
0.75
40
0.75
40
0.875
40
0.875
40
1
40
1
40
1
40
1
41
1
10
52.9484381868079
20
-1.84732761090456
30
0
41
1
10
52.9216407215531
20
-1.82692503586117
30
0
41
1
10
52.8953913028851
20
-1.80512586534445
30
0
41
1
10
52.8446567672715
20
-1.75958849307682
30
0
41
1
10
52.8201056520901
20
-1.73581130845903
30
1E-16
41
1
10
52.748581862689
20
-1.66179289044325
30
-1E-16
41
1
10
52.7037265263599
20
-1.60887553615291
30
0
41
1
10
52.6182677475327
20
-1.49747597056913
30
0
41
1
10
52.5776690373423
20
-1.43899029278739
30
0
41
1
10
52.5192248687983
20
-1.34800369507388
30
0
41
1
10
52.5001556786117
20
-1.3171292380685
30
0
41
1
10
52.462744999092
20
-1.25441745720354
30
1E-16
41
1
10
52.4443954897937
20
-1.22256873222048
30
0
41
1
10
52.4264030161103
20
-1.19037466272815
30
-1E-16
0
SPLINE
5
E5
100
AcDbEntity
8
1
62
256
6
ByLayer
370
18
48
1
60
0
100
AcDbSpline
70
4
71
3
72
12
73
8
40
0
40
0
40
0
40
0
40
0.499999999999942
40
0.499999999999942
40
0.749999999999971
40
0.749999999999971
40
1
40
1
40
1
40
1
41
1
10
52.4264030159902
20
-1.19037466252152
30
-1E-16
41
1
10
52.4209258876941
20
-1.18057439535886
30
1E-16
41
1
10
52.4165565218747
20
-1.17046794856935
30
1E-16
41
1
10
52.4118381749512
20
-1.15485697151035
30
0
41
1
10
52.4105734412847
20
-1.14957775842998
30
0
41
1
10
52.4087247725555
20
-1.138864202246
30
0
41
1
10
52.4081413257076
20
-1.13341078465635
30
0
41
1
10
52.4079491149347
20
-1.12795158830275
30
0
0
SPLINE
5
E6
100
AcDbEntity
8
1
62
256
6
ByLayer
370
18
48
1
60
0
100
AcDbSpline
70
4
71
3
72
22
73
18
40
0
40
0
40
0
40
0
40
0.125000000000049
40
0.125000000000049
40
0.187500000000049
40
0.187500000000049
40
0.25000000000005
40
0.25000000000005
40
0.37500000000005
40
0.37500000000005
40
0.50000000000005
40
0.50000000000005
40
0.750000000000052
40
0.750000000000052
40
0.875000000000026
40
0.875000000000026
40
1
40
1
40
1
40
1
41
1
10
52.9484381867991
20
-1.84732761089566
30
0
41
1
10
52.9278003179112
20
-1.86556561519649
30
0
41
1
10
52.9061157184498
20
-1.88288935272658
30
0
41
1
10
52.8721256933932
20
-1.90757821171204
30
0
41
1
10
52.8605195853461
20
-1.91560807540816
30
0
41
1
10
52.837254543891
20
-1.93096424369855
30
0
41
1
10
52.8255468007626
20
-1.93832807987621
30
0
41
1
10
52.7902059510396
20
-1.95954903198407
30
0
41
1
10
52.7663561840421
20
-1.97253987511954
30
0
41
1
10
52.7180897473482
20
-1.99645321102571
30
0
41
1
10
52.6935755824826
20
-2.00740191784422
30
0
41
1
10
52.6208648773303
20
-2.03670739857091
30
0
41
1
10
52.5729399495434
20
-2.05187666609314
30
0
41
1
10
52.5012776590772
20
-2.06938287500003
30
0
41
1
10
52.4774091072163
20
-2.07433414651453
30
0
41
1
10
52.4297808425273
20
-2.08255169027112
30
0
41
1
10
52.4061251686499
20
-2.08580173365755
30
0
41
1
10
52.3825823985095
20
-2.0882572373614
30
0
0
SPLINE
5
E7
100
AcDbEntity
8
1
62
256
6
ByLayer
370
18
48
1
60
0
100
AcDbSpline
70
4
71
3
72
16
73
12
40
0
40
0
40
0
40
0
40
0.25
40
0.25
40
0.5
40
0.5
40
0.625
40
0.625
40
0.75
40
0.75
40
1
40
1
40
1
40
1
41
1
10
52.3264631771876
20
-0.102591154643392
30
-2E-16
41
1
10
52.2646191394904
20
-0.0691925841409784
30
2E-16
41
1
10
52.204307452714
20
-0.0321494481579236
30
1E-16
41
1
10
52.0855253649047
20
0.0472194290074981
30
-1E-16
41
1
10
52.0270668176025
20
0.0895658219449729
30
-2E-16
41
1
10
51.9401735867744
20
0.156155765565444
30
1E-16
41
1
10
51.9112871414176
20
0.17891445589936
30
0
41
1
10
51.8540226277003
20
0.225086213662166
30
-1E-16
41
1
10
51.8256534298168
20
0.248489059014957
30
-1E-16
41
1
10
51.7411910119974
20
0.319478351746994
30
1E-16
41
1
10
51.6857376608248
20
0.367839245861461
30
0
41
1
10
51.6308398906074
20
0.416881665257932
30
-1E-16
0
SPLINE
5
E8
100
AcDbEntity
8
1
62
256
6
ByLayer
370
18
48
1
60
0
100
AcDbSpline
70
4
71
3
72
12
73
8
40
0
40
0
40
0
40
0
40
0.247884363005591
40
0.247884363005591
40
0.623885941234872
40
0.623885941234872
40
1
40
1
40
1
40
1
41
1
10
52.3825823985101
20
-2.08825723736211
30
0
41
1
10
52.3779267453954
20
-2.08874347440343
30
0
41
1
10
52.3732755248976
20
-2.08919976892241
30
0
41
1
10
52.3615810417114
20
-2.09027349741325
30
0
41
1
10
52.3545434062539
20
-2.09085237630788
30
0
41
1
10
52.3404881660323
20
-2.0918757295764
30
0
41
1
10
52.3334700432893
20
-2.0923202025885
30
0
41
1
10
52.3264631771887
20
-2.09269834351139
30
0
0
SPLINE
5
E9
100
AcDbEntity
8
1
62
256
6
ByLayer
370
18
48
1
60
0
100
AcDbSpline
70
4
71
3
72
8
73
4
40
0
40
0
40
0
40
0
40
1
40
1
40
1
40
1
41
1
10
24
20
3.85421745089818
30
0
41
1
10
24
20
3.82275584951319
30
0
41
1
10
24
20
3.79129424812822
30
0
41
1
10
24
20
3.75983264674323
30
0
0
SPLINE
5
EA
100
AcDbEntity
8
1
62
256
6
ByLayer
370
18
48
1
60
0
100
AcDbSpline
70
4
71
3
72
16
73
12
40
0
40
0
40
0
40
0
40
0.250000000000008
40
0.250000000000008
40
0.500000000000017
40
0.500000000000017
40
0.750000000000025
40
0.750000000000025
40
0.875000000000012
40
0.875000000000012
40
1
40
1
40
1
40
1
41
1
10
51.6308398906074
20
-0.431966532504021
30
1E-16
41
1
10
51.6896566421286
20
-0.483251955295003
30
-2E-16
41
1
10
51.7480609349936
20
-0.533191231321155
30
-1E-16
41
1
10
51.8645453831859
20
-0.629903283318328
30
1E-16
41
1
10
51.9226238220071
20
-0.676677990515174
30
-2E-16
41
1
10
52.0389440285873
20
-0.766503967498807
30
0
41
1
10
52.0971841035946
20
-0.809557731384103
30
1E-16
41
1
10
52.1850620007323
20
-0.87081592550112
30
-2E-16
41
1
10
52.2144414777069
20
-0.890680086834607
30
-1E-16
41
1
10
52.2734496075988
20
-0.929186479135751
30
0
41
1
10
52.3029485799953
20
-0.94774320015955
30
0
41
1
10
52.3324371925799
20
-0.965531656788102
30
0
0
SPLINE
5
EB
100
AcDbEntity
8
1
62
256
6
ByLayer
370
18
48
1
60
0
100
AcDbSpline
70
4
71
3
72
16
73
12
40
0
40
0
40
0
40
0
40
0.25
40
0.25
40
0.5
40
0.5
40
0.625
40
0.625
40
0.75
40
0.75
40
1
40
1
40
1
40
1
41
1
10
52.3264631771876
20
-2.09269834351113
30
0
41
1
10
52.2646191394904
20
-2.09603609554867
30
0
41
1
10
52.204307452714
20
-2.09422302210109
30
0
41
1
10
52.0855253649046
20
-2.08179049904936
30
0
41
1
10
52.0270668176026
20
-2.07115305456151
30
0
41
1
10
51.9401735867744
20
-2.04910563547631
30
-1E-16
41
1
10
51.9112871414176
20
-2.04071737765995
30
-1E-16
41
1
10
51.8540226277002
20
-2.0220581682141
30
1E-16
41
1
10
51.8256534298169
20
-2.0117955411452
30
1E-16
41
1
10
51.7411910119974
20
-1.97833940055978
30
0
41
1
10
51.6857376608248
20
-1.95248689781081
30
-1E-16
41
1
10
51.6308398906074
20
-1.92329975903508
30
1E-16
0
SPLINE
5
EC
100
AcDbEntity
8
1
62
256
6
ByLayer
370
18
48
1
60
0
100
AcDbSpline
70
4
71
3
72
8
73
4
40
0
40
0
40
0
40
0
40
1
40
1
40
1
40
1
41
1
10
24
20
1.19983793572771
30
-1E-16
41
1
10
24
20
1.19364438107655
30
-1E-16
41
1
10
24
20
1.18745082642539
30
-1E-16
41
1
10
24
20
1.1812572717742
30
-1E-16
0
SPLINE
5
ED
100
AcDbEntity
8
1
62
256
6
ByLayer
370
18
48
1
60
0
100
AcDbSpline
70
4
71
3
72
16
73
12
40
0
40
0
40
0
40
0
40
0.249999999999997
40
0.249999999999997
40
0.499999999999994
40
0.499999999999994
40
0.624999999999992
40
0.624999999999992
40
0.74999999999999
40
0.74999999999999
40
1
40
1
40
1
40
1
41
1
10
23.0594177538183
20
3.99198104989679
30
0
41
1
10
23.1438220213457
20
3.98590549871298
30
0
41
1
10
23.2269896659313
20
3.97880723408952
30
0
41
1
10
23.3902575939513
20
3.96212876747168
30
0
41
1
10
23.4703207605168
20
3.95254736959512
30
0
41
1
10
23.5876579376333
20
3.93585461794311
30
0
41
1
10
23.626298905193
20
3.92990031712785
30
0
41
1
10
23.7027288749938
20
3.91714129442019
30
0
41
1
10
23.7405035207529
20
3.91033401613041
30
1E-16
41
1
10
23.852842066924
20
3.88856840230005
30
0
41
1
10
23.9264060457455
20
3.8722406886279
30
0
41
1
10
24
20
3.85421745089818
30
0
0
SPLINE
5
EE
100
AcDbEntity
8
1
62
256
6
ByLayer
370
18
48
1
60
0
100
AcDbSpline
70
4
71
3
72
8
73
4
40
0
40
0
40
0
40
0
40
1
40
1
40
1
40
1
41
1
10
22.9437597723309
20
3.99962607993317
30
0
41
1
10
22.9826017533077
20
3.99727586180424
30
0
41
1
10
23.0211461047007
20
3.99473590305664
30
0
41
1
10
23.0594177538183
20
3.99198104989679
30
0
0
SPLINE
5
EF
100
AcDbEntity
8
1
62
256
6
ByLayer
370
18
48
1
60
0
100
AcDbSpline
70
4
71
3
72
16
73
12
40
0
40
0
40
0
40
0
40
0.25
40
0.25
40
0.5
40
0.5
40
0.625
40
0.625
40
0.75
40
0.75
40
1
40
1
40
1
40
1
41
1
10
23.0594177538183
20
-2.1042714576148
30
0
41
1
10
23.1438220213457
20
-2.14685484736975
30
1E-16
41
1
10
23.2269896659313
20
-2.19016549468353
30
-2E-16
41
1
10
23.3902575939513
20
-2.278627274369
30
0
41
1
10
23.4703207605168
20
-2.32381990971427
30
1E-16
41
1
10
23.5876579376332
20
-2.39320385775485
30
-2E-16
41
1
10
23.626298905193
20
-2.41660897055252
30
-1E-16
41
1
10
23.7027288749938
20
-2.46382298108111
30
0
41
1
10
23.7405035207529
20
-2.48764653537398
30
1E-16
41
1
10
23.852842066924
20
-2.55934401197249
30
-2E-16
41
1
10
23.9264060457455
20
-2.60744423514282
30
-1E-16
41
1
10
24
20
-2.65437951517046
30
0
0
SPLINE
5
F0
100
AcDbEntity
8
1
62
256
6
ByLayer
370
18
48
1
60
0
100
AcDbSpline
70
4
71
3
72
8
73
4
40
0
40
0
40
0
40
0
40
1
40
1
40
1
40
1
41
1
10
22.7392574269155
20
-3.63778377928503
30
1E-16
41
1
10
22.8079171230285
20
-3.65438098129456
30
-1E-16
41
1
10
22.8761197255869
20
-3.67075118600093
30
-1E-16
41
1
10
22.9437597723309
20
-3.68689371115696
30
0
0
SPLINE
5
F1
100
AcDbEntity
8
1
62
256
6
ByLayer
370
18
48
1
60
0
100
AcDbSpline
70
4
71
3
72
34
73
30
40
0
40
0
40
0
40
0
40
0.0625000000000022
40
0.0625000000000022
40
0.125000000000004
40
0.125000000000004
40
0.156250000000006
40
0.156250000000006
40
0.187500000000007
40
0.187500000000007
40
0.25000000000001
40
0.25000000000001
40
0.28125000000001
40
0.28125000000001
40
0.31250000000001
40
0.31250000000001
40
0.375000000000009
40
0.375000000000009
40
0.500000000000004
40
0.500000000000004
40
0.562500000000002
40
0.562500000000002
40
0.624999999999999
40
0.624999999999999
40
0.749999999999999
40
0.749999999999999
40
0.875
40
0.875
40
1
40
1
40
1
40
1
41
1
10
21.0070509859441
20
-2.33372267126458
30
1E-16
41
1
10
21.0070509863403
20
-2.38238939919262
30
-2E-16
41
1
10
21.0111226612892
20
-2.4297388591709
30
-1E-16
41
1
10
21.0262280814162
20
-2.52203643909917
30
1E-16
41
1
10
21.0372738501537
20
-2.56698267214003
30
-2E-16
41
1
10
21.0587048406282
20
-2.63269733464125
30
0
41
1
10
21.0666880131663
20
-2.65437266763584
30
0
41
1
10
21.0840979079052
20
-2.69678249949752
30
1E-16
41
1
10
21.0935267195143
20
-2.7175397552661
30
1E-16
41
1
10
21.1238894793372
20
-2.77854138055977
30
-2E-16
41
1
10
21.1468934409652
20
-2.81751846839808
30
-1E-16
41
1
10
21.1853134146372
20
-2.87367014416026
30
1E-16
41
1
10
21.1987743384624
20
-2.89200085490924
30
1E-16
41
1
10
21.2269847506093
20
-2.92791817982604
30
2E-16
41
1
10
21.2417565531643
20
-2.94552933660273
30
-2E-16
41
1
10
21.2878399598286
20
-2.99712167765759
30
-1E-16
41
1
10
21.3206406310269
20
-3.02957182778636
30
0
41
1
10
21.4246728282403
20
-3.12186995485911
30
2E-16
41
1
10
21.5015293737124
20
-3.17669006451979
30
-1E-16
41
1
10
21.6260741202264
20
-3.25124535146694
30
1E-16
41
1
10
21.6691585816079
20
-3.27482511647526
30
1E-16
41
1
10
21.7579623170054
20
-3.31969956698345
30
-2E-16
41
1
10
21.8033257633704
20
-3.34081520260443
30
-2E-16
41
1
10
21.9418543021827
20
-3.40087080272491
30
0
41
1
10
22.0374473710854
20
-3.43654937899294
30
1E-16
41
1
10
22.232946010342
20
-3.50196766181418
30
0
41
1
10
22.3328566563333
20
-3.53169753787449
30
1E-16
41
1
10
22.5349202522885
20
-3.58726422874361
30
0
41
1
10
22.6370930778202
20
-3.61308745180179
30
0
41
1
10
22.7392574269155
20
-3.63778377928503
30
1E-16
0
SPLINE
5
F2
100
AcDbEntity
8
1
62
256
6
ByLayer
370
18
48
1
60
0
100
AcDbSpline
70
4
71
3
72
8
73
4
40
0
40
0
40
0
40
0
40
1
40
1
40
1
40
1
41
1
10
22.7392574269155
20
3.2593421252904
30
-1E-16
41
1
10
22.8079171230285
20
3.23620418439444
30
0
41
1
10
22.8761197255869
20
3.21214300775978
30
0
41
1
10
22.9437597723309
20
3.18699107590578
30
1E-16
0
SPLINE
5
F3
100
AcDbEntity
8
1
62
256
6
ByLayer
370
18
48
1
60
0
100
AcDbSpline
70
4
71
3
72
34
73
30
40
0
40
0
40
0
40
0
40
0.0624999999999976
40
0.0624999999999976
40
0.124999999999995
40
0.124999999999995
40
0.156249999999994
40
0.156249999999994
40
0.187499999999993
40
0.187499999999993
40
0.249999999999991
40
0.249999999999991
40
0.281249999999991
40
0.281249999999991
40
0.312499999999992
40
0.312499999999992
40
0.374999999999993
40
0.374999999999993
40
0.49999999999999
40
0.49999999999999
40
0.562499999999991
40
0.562499999999991
40
0.624999999999992
40
0.624999999999992
40
0.749999999999995
40
0.749999999999995
40
0.874999999999997
40
0.874999999999997
40
1
40
1
40
1
40
1
41
1
10
21.0070509859441
20
3.98027631928105
30
0
41
1
10
21.0070509863403
20
3.97433296074891
30
0
41
1
10
21.0111226612892
20
3.96711689781799
30
0
41
1
10
21.0262280814162
20
3.95027247846753
30
0
41
1
10
21.0372738501537
20
3.94064353850743
30
0
41
1
10
21.0587048406282
20
3.92447165563721
30
0
41
1
10
21.0666880131664
20
3.91877650200033
30
0
41
1
10
21.0840979079052
20
3.90693251512673
30
0
41
1
10
21.0935267195143
20
3.90078024315801
30
0
41
1
10
21.1238894793372
20
3.88168209401891
30
0
41
1
10
21.1468934409652
20
3.86809545346938
30
0
41
1
10
21.1853134146372
20
3.84661732816281
30
1E-16
41
1
10
21.1987743384624
20
3.83927477685714
30
1E-16
41
1
10
21.2269847506094
20
3.8242525397383
30
-1E-16
41
1
10
21.2417565531642
20
3.81656160855619
30
-1E-16
41
1
10
21.2878399598286
20
3.7931004100586
30
0
41
1
10
21.3206406310269
20
3.77708187110704
30
0
41
1
10
21.4246728282403
20
3.72825921712382
30
-1E-16
41
1
10
21.5015293737125
20
3.69471230358755
30
0
41
1
10
21.6260741202265
20
3.64388392616218
30
-1E-16
41
1
10
21.6691585816079
20
3.62683920918892
30
-1E-16
41
1
10
21.7579623170054
20
3.59269073552727
30
0
41
1
10
21.8033257633704
20
3.57572580665354
30
1E-16
41
1
10
21.9418543021828
20
3.5251673942347
30
0
41
1
10
22.0374473710855
20
3.49192484862991
30
0
41
1
10
22.232946010342
20
3.42591830257828
30
0
41
1
10
22.3328566563334
20
3.39315205006363
30
0
41
1
10
22.5349202522885
20
3.32707044306935
30
2E-16
41
1
10
22.6370930778202
20
3.29377095042165
30
-2E-16
41
1
10
22.7392574269155
20
3.25934212529037
30
-1E-16
0
SPLINE
5
F4
100
AcDbEntity
8
1
62
256
6
ByLayer
370
18
48
1
60
0
100
AcDbSpline
70
4
71
3
72
16
73
12
40
0
40
0
40
0
40
0
40
0.25
40
0.25
40
0.5
40
0.5
40
0.625
40
0.625
40
0.75
40
0.75
40
1
40
1
40
1
40
1
41
1
10
23.0594177538182
20
1.88770959228199
30
0
41
1
10
23.1438220213457
20
1.8390506513432
30
1E-16
41
1
10
23.2269896659313
20
1.78864173940596
30
-2E-16
41
1
10
23.3902575939513
20
1.68350149310271
30
1E-16
41
1
10
23.4703207605168
20
1.62872745988088
30
2E-16
41
1
10
23.5876579376333
20
1.54265076018828
30
-1E-16
41
1
10
23.626298905193
20
1.51329134657533
30
0
41
1
10
23.7027288749938
20
1.45331831333908
30
1E-16
41
1
10
23.7405035207529
20
1.42268748075639
30
2E-16
41
1
10
23.852842066924
20
1.32922439032754
30
0
41
1
10
23.9264060457455
20
1.26479645348508
30
1E-16
41
1
10
24
20
1.19983793572771
30
-1E-16
0
SPLINE
5
F5
100
AcDbEntity
8
1
62
256
6
ByLayer
370
18
48
1
60
0
100
AcDbSpline
70
4
71
3
72
16
73
12
40
0
40
0
40
0
40
0
40
0.25
40
0.25
40
0.375
40
0.375
40
0.5
40
0.5
40
0.75
40
0.75
40
1
40
1
40
1
40
1
41
1
10
24
20
2.6019790387416
30
1E-16
41
1
10
23.9179238784959
20
2.66102346243497
30
0
41
1
10
23.8358780796073
20
2.71861360810109
30
-2E-16
41
1
10
23.710122844349
20
2.80049871290709
30
1E-16
41
1
10
23.667750720928
20
2.82704492189728
30
0
41
1
10
23.5819047175254
20
2.87854060502948
30
-1E-16
41
1
10
23.5384228366999
20
2.90348387329971
30
-1E-16
41
1
10
23.4063207556412
20
2.97603430953015
30
1E-16
41
1
10
23.3160880828553
20
3.02140800605017
30
0
41
1
10
23.1322481454267
20
3.10746696925884
30
-2E-16
41
1
10
23.0386686898425
20
3.14817179225227
30
2E-16
41
1
10
22.9437597723309
20
3.18699107590561
30
1E-16
0
SPLINE
5
F6
100
AcDbEntity
8
1
62
256
6
ByLayer
370
18
48
1
60
0
100
AcDbSpline
70
4
71
3
72
8
73
4
40
0
40
0
40
0
40
0
40
1
40
1
40
1
40
1
41
1
10
24
20
-1.17106338436275
30
1E-16
41
1
10
24
20
-1.2029043655848
30
2E-16
41
1
10
24
20
-1.23474534680682
30
-2E-16
41
1
10
24
20
-1.26658632802884
30
-1E-16
0
SPLINE
5
F7
100
AcDbEntity
8
1
62
256
6
ByLayer
370
18
48
1
60
0
100
AcDbSpline
70
4
71
3
72
8
73
4
40
0
40
0
40
0
40
0
40
1
40
1
40
1
40
1
41
1
10
22.7392574269155
20
-0.378441653994628
30
0
41
1
10
22.8079171230285
20
-0.418176796900099
30
1E-16
41
1
10
22.8761197255869
20
-0.458608178241121
30
2E-16
41
1
10
22.9437597723309
20
-0.499902635251175
30
-2E-16
0
SPLINE
5
F8
100
AcDbEntity
8
1
62
256
6
ByLayer
370
18
48
1
60
0
100
AcDbSpline
70
4
71
3
72
16
73
12
40
0
40
0
40
0
40
0
40
0.249999999999991
40
0.249999999999991
40
0.374999999999992
40
0.374999999999992
40
0.499999999999994
40
0.499999999999994
40
0.749999999999997
40
0.749999999999997
40
1
40
1
40
1
40
1
41
1
10
24
20
-1.26658632802884
30
-1E-16
41
1
10
23.9179238784959
20
-1.19714375210924
30
1E-16
41
1
10
23.8358780796077
20
-1.12703200613049
30
0
41
1
10
23.7101228443494
20
-1.02443870172894
30
2E-16
41
1
10
23.6677507209283
20
-0.990680442932813
30
1E-16
41
1
10
23.5819047175257
20
-0.92432546437729
30
-1E-16
41
1
10
23.5384228367001
20
-0.891739471758484
30
-1E-16
41
1
10
23.4063207556415
20
-0.795779379269959
30
1E-16
41
1
10
23.3160880828555
20
-0.734149233651976
30
-1E-16
41
1
10
23.1322481454268
20
-0.61453265722696
30
1E-16
41
1
10
23.0386686898425
20
-0.55650808489213
30
0
41
1
10
22.9437597723309
20
-0.499902635251118
30
-2E-16
0
SPLINE
5
F9
100
AcDbEntity
8
1
62
256
6
ByLayer
370
18
48
1
60
0
100
AcDbSpline
70
4
71
3
72
46
73
42
40
0
40
0
40
0
40
0
40
0.124999999999986
40
0.124999999999986
40
0.249999999999973
40
0.249999999999973
40
0.312499999999966
40
0.312499999999966
40
0.343749999999963
40
0.343749999999963
40
0.374999999999959
40
0.374999999999959
40
0.437499999999953
40
0.437499999999953
40
0.468749999999949
40
0.468749999999949
40
0.499999999999946
40
0.499999999999946
40
0.562499999999931
40
0.562499999999931
40
0.624999999999916
40
0.624999999999916
40
0.687499999999901
40
0.687499999999901
40
0.703124999999902
40
0.703124999999902
40
0.718749999999904
40
0.718749999999904
40
0.749999999999914
40
0.781249999999924
40
0.781249999999924
40
0.812499999999933
40
0.812499999999933
40
0.874999999999952
40
0.874999999999952
40
0.890624999999959
40
0.890624999999959
40
0.906249999999966
40
0.937499999999977
40
0.937499999999977
40
1
40
1
40
1
40
1
41
1
10
22.9437597723309
20
1.95244833223202
30
-1E-16
41
1
10
22.8551527035768
20
1.99868081137521
30
2E-16
41
1
10
22.765214401817
20
2.04173066877129
30
1E-16
41
1
10
22.581888449106
20
2.12033995312393
30
-1E-16
41
1
10
22.4885132935198
20
2.15592301824154
30
-2E-16
41
1
10
22.3450144208611
20
2.20239339557892
30
2E-16
41
1
10
22.2966033947484
20
2.21672315564931
30
1E-16
41
1
10
22.222957576394
20
2.23621529804166
30
1E-16
41
1
10
22.1982368386156
20
2.242377854376
30
1E-16
41
1
10
22.1484133687268
20
2.25396991060879
30
0
41
1
10
22.1232805086906
20
2.25940438757431
30
0
41
1
10
22.0477212227172
20
2.27440078156795
30
0
41
1
10
21.9970137793457
20
2.28269838675203
30
0
41
1
10
21.9203385052151
20
2.29207950346668
30
0
41
1
10
21.8946771705877
20
2.29469281386977
30
0
41
1
10
21.8431212841192
20
2.29876151771686
30
-1E-16
41
1
10
21.8171566727049
20
2.30021855197111
30
-1E-16
41
1
10
21.739450309852
20
2.30258516421154
30
-1E-16
41
1
10
21.6879675835584
20
2.30152698115438
30
-1E-16
41
1
10
21.5858084361884
20
2.29278393331745
30
0
41
1
10
21.5350938475531
20
2.2851115580817
30
0
41
1
10
21.4348977150199
20
2.26074175131092
30
0
41
1
10
21.3871475082621
20
2.24443653940921
30
1E-16
41
1
10
21.3308706181912
20
2.21790380872861
30
1E-16
41
1
10
21.3197866862331
20
2.21228762382211
30
1E-16
41
1
10
21.2979776311257
20
2.20040167611171
30
2E-16
41
1
10
21.2872244008284
20
2.19411163383609
30
2E-16
41
1
10
21.2559729712757
20
2.17449652400472
30
-2E-16
41
1
10
21.2167295704719
20
2.14623217419623
30
-1E-16
41
1
10
21.1821815863924
20
2.11377998776871
30
-1E-16
41
1
10
21.1499386712532
20
2.07921674130049
30
0
41
1
10
21.1349052307651
20
2.06076597690336
30
1E-16
41
1
10
21.0941911860392
20
2.00360530846981
30
2E-16
41
1
10
21.0725022846082
20
1.96282673203376
30
-2E-16
41
1
10
21.0511791825464
20
1.90879094588689
30
0
41
1
10
21.0472109618072
20
1.8978332890747
30
0
41
1
10
21.039912131939
20
1.87584040717562
30
0
41
1
10
21.0298866938497
20
1.84264979971405
30
1E-16
41
1
10
21.0224558612958
20
1.80887364285724
30
2E-16
41
1
10
21.0107238067457
20
1.74057269518681
30
-1E-16
41
1
10
21.0070509855995
20
1.69404379496052
30
0
41
1
10
21.0070509859441
20
1.64655364801646
30
1E-16
0
SPLINE
5
FA
100
AcDbEntity
8
1
62
256
6
ByLayer
370
18
48
1
60
0
100
AcDbSpline
70
4
71
3
72
8
73
4
40
0
40
0
40
0
40
0
40
1
40
1
40
1
40
1
41
1
10
24
20
1.1812572717742
30
-1E-16
41
0.841357337745743
10
24
20
1.07594227711058
30
1E-16
41
0.841357337745743
10
24
20
0.635057744925066
30
-2E-16
41
1
10
24
20
0.0684329630156526
30
-2E-16
0
SPLINE
5
FB
100
AcDbEntity
8
1
62
256
6
ByLayer
370
18
48
1
60
0
100
AcDbSpline
70
4
71
3
72
8
73
4
40
0
40
0
40
0
40
0
40
1
40
1
40
1
40
1
41
1
10
22.9437597723309
20
1.95244833223202
30
-1E-16
41
1
10
22.9826017533077
20
1.93136115279333
30
-1E-16
41
1
10
23.0211461047007
20
1.90977314390793
30
0
41
1
10
23.0594177538183
20
1.88770959228199
30
0
0
SPLINE
5
FC
100
AcDbEntity
8
1
62
256
6
ByLayer
370
18
48
1
60
0
100
AcDbSpline
70
4
71
3
72
46
73
42
40
0
40
0
40
0
40
0
40
0.124999999999993
40
0.124999999999993
40
0.249999999999986
40
0.249999999999986
40
0.312499999999982
40
0.312499999999982
40
0.343749999999981
40
0.343749999999981
40
0.374999999999979
40
0.374999999999979
40
0.437499999999984
40
0.437499999999984
40
0.468749999999986
40
0.468749999999986
40
0.499999999999988
40
0.499999999999988
40
0.562499999999985
40
0.562499999999985
40
0.624999999999981
40
0.624999999999981
40
0.687499999999977
40
0.687499999999977
40
0.703124999999982
40
0.703124999999982
40
0.718749999999987
40
0.718749999999987
40
0.749999999999989
40
0.781249999999991
40
0.781249999999991
40
0.812499999999994
40
0.812499999999994
40
0.874999999999999
40
0.874999999999999
40
0.890624999999999
40
0.890624999999999
40
0.90625
40
0.937499999999999
40
0.937499999999999
40
1
40
1
40
1
40
1
41
1
10
22.9437597723309
20
-2.04717774770114
30
-1E-16
41
1
10
22.8551527035768
20
-2.00166954800372
30
-2E-16
41
1
10
22.765214401817
20
-1.95824368397265
30
1E-16
41
1
10
22.581888449106
20
-1.87746640299636
30
0
41
1
10
22.4885132935198
20
-1.84008984168125
30
-1E-16
41
1
10
22.3450144208611
20
-1.79057683780624
30
2E-16
41
1
10
22.2966033947484
20
-1.77517576020424
30
2E-16
41
1
10
22.222957576394
20
-1.75409565000825
30
1E-16
41
1
10
22.1982368386156
20
-1.7474070705689
30
1E-16
41
1
10
22.1484133687268
20
-1.73478924285425
30
1E-16
41
1
10
22.1232805086906
20
-1.72885451185954
30
1E-16
41
1
10
22.0477212227171
20
-1.71243750392543
30
0
41
1
10
21.9970137793457
20
-1.70329659731718
30
0
41
1
10
21.9203385052151
20
-1.69293710038852
30
0
41
1
10
21.8946771705877
20
-1.69004558185503
30
0
41
1
10
21.8431212841192
20
-1.68554009436951
30
0
41
1
10
21.8171566727048
20
-1.68392436133277
30
-1E-16
41
1
10
21.739450309852
20
-1.68129968673003
30
-1E-16
41
1
10
21.6879675835584
20
-1.68247697789076
30
-1E-16
41
1
10
21.5858084361884
20
-1.69216008716057
30
0
41
1
10
21.5350938475532
20
-1.70065777771822
30
0
41
1
10
21.4348977150199
20
-1.72741664345915
30
1E-16
41
1
10
21.3871475082621
20
-1.74524880541313
30
1E-16
41
1
10
21.3308706181912
20
-1.77387788275809
30
2E-16
41
1
10
21.3197866862332
20
-1.7799219660713
30
2E-16
41
1
10
21.2979776311257
20
-1.79267185540161
30
2E-16
41
1
10
21.2872244008284
20
-1.7993991453167
30
2E-16
41
1
10
21.2559729712757
20
-1.82030339334963
30
-2E-16
41
1
10
21.2167295704719
20
-1.85023676407991
30
-1E-16
41
1
10
21.1821815863924
20
-1.88407234018817
30
0
41
1
10
21.1499386712532
20
-1.91977537178226
30
1E-16
41
1
10
21.1349052307651
20
-1.93867425289218
30
1E-16
41
1
10
21.0941911860392
20
-1.99663813559178
30
-2E-16
41
1
10
21.0725022846082
20
-2.0372459902502
30
-1E-16
41
1
10
21.0511791825464
20
-2.08986168596422
30
0
41
1
10
21.0472109618072
20
-2.10047481136613
30
0
41
1
10
21.039912131939
20
-2.12166044108929
30
1E-16
41
1
10
21.0298866938497
20
-2.15346093525199
30
2E-16
41
1
10
21.0224558612957
20
-2.1852990370266
30
-2E-16
41
1
10
21.0107238067457
20
-2.24896793622901
30
-1E-16
41
1
10
21.0070509855996
20
-2.29140100121421
30
0
41
1
10
21.0070509859441
20
-2.33372267126458
30
1E-16
0
SPLINE
5
FD
100
AcDbEntity
8
1
62
256
6
ByLayer
370
18
48
1
60
0
100
AcDbSpline
70
4
71
3
72
8
73
4
40
0
40
0
40
0
40
0
40
1
40
1
40
1
40
1
41
1
10
22.9437597723309
20
-2.04717774770114
30
-1E-16
41
1
10
22.9826017533077
20
-2.06591470901088
30
0
41
1
10
23.0211461047007
20
-2.08496275914874
30
0
41
1
10
23.0594177538183
20
-2.1042714576148
30
0
0
SPLINE
5
FE
100
AcDbEntity
8
1
62
256
6
ByLayer
370
18
48
1
60
0
100
AcDbSpline
70
4
71
3
72
34
73
30
40
0
40
0
40
0
40
0
40
0.0625
40
0.0625
40
0.125
40
0.125
40
0.15625
40
0.15625
40
0.1875
40
0.1875
40
0.25
40
0.25
40
0.281249999999998
40
0.281249999999998
40
0.312499999999997
40
0.312499999999997
40
0.374999999999997
40
0.374999999999997
40
0.499999999999998
40
0.499999999999998
40
0.562499999999998
40
0.562499999999998
40
0.624999999999998
40
0.624999999999998
40
0.749999999999999
40
0.749999999999999
40
0.875
40
0.875
40
1
40
1
40
1
40
1
41
1
10
21.0070509859441
20
1.64655364801646
30
1E-16
41
1
10
21.0070509863403
20
1.59194356155626
30
-2E-16
41
1
10
21.0111226612893
20
1.53737803864712
30
0
41
1
10
21.0262280814162
20
1.42823603936836
30
2E-16
41
1
10
21.0372738501537
20
1.37366086636743
30
-1E-16
41
1
10
21.0587048406282
20
1.29177432099593
30
1E-16
41
1
10
21.0666880131663
20
1.26440383436449
30
1E-16
41
1
10
21.0840979079052
20
1.21015001562918
30
-2E-16
41
1
10
21.0935267195143
20
1.18324048789191
30
-1E-16
41
1
10
21.1238894793372
20
1.10314071345914
30
1E-16
41
1
10
21.1468934409652
20
1.05057698507127
30
2E-16
41
1
10
21.1853134146372
20
0.97294718400255
30
-1E-16
41
1
10
21.1987743384624
20
0.947273921947897
30
0
41
1
10
21.2269847506094
20
0.89633435991226
30
1E-16
41
1
10
21.2417565531642
20
0.871032271953453
30
2E-16
41
1
10
21.2878399598286
20
0.795978732401011
30
-1E-16
41
1
10
21.320640631027
20
0.747510043320688
30
0
41
1
10
21.4246728282403
20
0.606389262264685
30
-1E-16
41
1
10
21.5015293737125
20
0.518022239067761
30
1E-16
41
1
10
21.6260741202264
20
0.39263857469524
30
0
41
1
10
21.6691585816079
20
0.35201409271366
30
1E-16
41
1
10
21.7579623170054
20
0.272991168543825
30
-2E-16
41
1
10
21.8033257633704
20
0.234910604049105
30
-1E-16
41
1
10
21.9418543021828
20
0.124296591509761
30
2E-16
41
1
10
22.0374473710854
20
0.0553754696369708
30
-1E-16
41
1
10
22.232946010342
20
-0.0760493592359239
30
2E-16
41
1
10
22.3328566563333
20
-0.138545487810859
30
-1E-16
41
1
10
22.5349202522884
20
-0.260193785674261
30
2E-16
41
1
10
22.6370930778201
20
-0.319316501380115
30
-1E-16
41
1
10
22.7392574269155
20
-0.378441653994628
30
0
0
SPLINE
5
FF
100
AcDbEntity
8
1
62
256
6
ByLayer
370
18
48
1
60
0
100
AcDbSpline
70
4
71
3
72
22
73
18
40
0
40
0
40
0
40
0
40
0.125
40
0.125
40
0.25
40
0.25
40
0.375
40
0.375
40
0.5
40
0.5
40
0.625
40
0.625
40
0.75
40
0.75
40
0.875
40
0.875
40
1
40
1
40
1
40
1
41
1
10
24
20
0.0684329630156526
30
-2E-16
41
1
10
24
20
0.0086853326947391
30
0
41
1
10
24
20
-0.0520185542857234
30
1E-16
41
1
10
24
20
-0.173883696197976
30
0
41
1
10
24
20
-0.235041263914468
30
1E-16
41
1
10
24
20
-0.356161219457761
30
-1E-16
41
1
10
24
20
-0.416118766138624
30
1E-16
41
1
10
24
20
-0.533122907661863
30
-1E-16
41
1
10
24
20
-0.590164291079532
30
1E-16
41
1
10
24
20
-0.699711253207113
30
-1E-16
41
1
10
24
20
-0.752212220884275
30
0
41
1
10
24
20
-0.851295576017634
30
2E-16
41
1
10
24
20
-0.897874815366066
30
-1E-16
41
1
10
24
20
-0.984093504827371
30
1E-16
41
1
10
24
20
-1.02373175572129
30
2E-16
41
1
10
24
20
-1.09547547468443
30
-1E-16
41
1
10
24
20
-1.12758168303427
30
0
41
1
10
24
20
-1.15584230156142
30
0
0
SPLINE
5
100
100
AcDbEntity
8
1
62
256
6
ByLayer
370
18
48
1
60
0
100
AcDbSpline
70
4
71
3
72
42
73
38
40
0
40
0
40
0
40
0
40
0.0059988497377048
40
0.0212705725085647
40
0.0365422952794247
40
0.0670857408211445
40
0.0976291863628646
40
0.128172631904584
40
0.158716077446304
40
0.189259522988024
40
0.219802968529744
40
0.250346414071464
40
0.280889859613184
40
0.311433305154904
40
0.341976750696624
40
0.372520196238344
40
0.403063641780063
40
0.433607087321783
40
0.464150532863503
40
0.494693978405223
40
0.525237423946943
40
0.555780869488663
40
0.586324315030383
40
0.616867760572103
40
0.647411206113823
40
0.677954651655543
40
0.708498097197263
40
0.739041542738983
40
0.769584988280702
40
0.800128433822422
40
0.830671879364142
40
0.861215324905862
40
0.891758770447582
40
0.922302215989302
40
0.952845661531022
40
0.983389107072742
40
1
40
1
40
1
40
1
41
0.994314969596492
10
30.5164715547498
20
0.750193891684773
30
-1E-16
41
0.99431752438705
10
30.5318153558924
20
0.737404353618576
30
-1E-16
41
0.99432665618621
10
30.5862207295911
20
0.692010915315908
30
-1E-16
41
0.994342802491019
10
30.6796874889495
20
0.613770061512056
30
-1E-16
41
0.994376716609608
10
30.8359374861219
20
0.482362918868219
30
2E-16
41
0.994415529838765
10
31.0312499850191
20
0.317452255434074
30
1E-16
41
0.994459106082625
10
31.265624993266
20
0.119160618108701
30
2E-16
41
0.994503763385151
10
31.5000000015752
20
-0.0789088282577941
30
2E-16
41
0.994549475079868
10
31.7343750004324
20
-0.27606074467598
30
2E-16
41
0.994596215442869
10
31.9687499967166
20
-0.471603081209956
30
2E-16
41
0.994643958313949
10
32.2031249973143
20
-0.66484014994256
30
-2E-16
41
0.994692677186786
10
32.4375000000174
20
-0.855069791082652
30
-2E-16
41
0.994742345244526
10
32.6718750026161
20
-1.04158988780286
30
2E-16
41
0.994792936900145
10
32.906250003723
20
-1.22371837829218
30
2E-16
41
0.994844426097276
10
33.1406250019481
20
-1.40077289717948
30
2E-16
41
0.994896786437442
10
33.374999999683
20
-1.57208310046442
30
1E-16
41
0.994949991205606
10
33.6093749993204
20
-1.7369843378761
30
1E-16
41
0.995004014796537
10
33.8437499997796
20
-1.89484472597926
30
0
41
0.995058831075702
10
34.0781249999783
20
-2.04503564637845
30
-1E-16
41
0.995114413850914
10
34.3125000000117
20
-2.18696144145693
30
-2E-16
41
0.995170736634166
10
34.5468749999749
20
-2.32003781133785
30
1E-16
41
0.995227773700959
10
34.7812499999394
20
-2.44372588282746
30
0
41
0.995285498743333
10
35.0156249999767
20
-2.55749365699375
30
0
41
0.995343885815386
10
35.2500000000126
20
-2.66086270521806
30
0
41
0.995402908688809
10
35.484374999973
20
-2.75337128706518
30
0
41
0.995462541492247
10
35.718750002169
20
-2.83461598270542
30
0
41
0.995522757736783
10
35.9531250089105
20
-2.90420367446888
30
-1E-16
41
0.995583531691662
10
36.187500004481
20
-2.96181240248644
30
-1E-16
41
0.995644837351793
10
36.4218749731638
20
-3.00714151832557
30
1E-16
41
0.995706648725512
10
36.6562499513389
20
-3.03996186377009
30
0
41
0.995768939186102
10
36.8906249754293
20
-3.06005758808197
30
0
41
0.995831683151041
10
37.1250000056225
20
-3.06729669921056
30
0
41
0.995894854772334
10
37.3593750020783
20
-3.06157205621066
30
0
41
0.995958427961628
10
37.5937499868364
20
-3.04286013643464
30
0
41
0.996022375990142
10
37.8281249819624
20
-3.01115306092722
30
0
41
0.996076896888497
10
38.0268648162953
20
-2.97331814590239
30
0
41
0.996110113902773
10
38.147480320384
20
-2.94527052725942
30
0
41
0.996121996178268
10
38.1899686851802
20
-2.93476522771002
30
0
0
SPLINE
5
101
100
AcDbEntity
8
1
62
256
6
ByLayer
370
18
48
1
60
0
100
AcDbSpline
70
4
71
3
72
23
73
19
40
0
40
0
40
0
40
0
40
0.0747031288551129
40
0.125549118797661
40
0.176395108740209
40
0.278087088625305
40
0.328933078567853
40
0.379779068510402
40
0.481471048395496
40
0.532317038338044
40
0.583163028280593
40
0.684855008165689
40
0.735700998108237
40
0.786546988050785
40
0.888238967935881
40
0.939084957878426
40
0.989930947820974
40
1
40
1
40
1
40
1
41
0.999649924677094
10
50.0778293163542
20
1.69605185134091
30
0
41
0.999659677204048
10
50.1352196412307
20
1.65883684127904
30
0
41
0.999675799857994
10
50.2316721751548
20
1.59469471003999
30
0
41
0.999697807369234
10
50.3671875148829
20
1.50104688862741
30
0
41
0.999722268658474
10
50.5234375326186
20
1.38994007874254
30
1E-16
41
0.999745806446968
10
50.6796875441346
20
1.27443350608275
30
1E-16
41
0.999768397873519
10
50.8359375432801
20
1.15507532255587
30
0
41
0.999790032498745
10
50.9921875337711
20
1.0333394486235
30
-2E-16
41
0.999810700036898
10
51.1484375106907
20
0.908358360554639
30
1E-16
41
0.999830378863844
10
51.3046874728484
20
0.780742565846574
30
-1E-16
41
0.999849057516481
10
51.4609374345581
20
0.651586669521276
30
-2E-16
41
0.999866724930075
10
51.6171874096956
20
0.520468903701478
30
1E-16
41
0.999883359892597
10
51.7734374264753
20
0.388065297298159
30
0
41
0.999898950956818
10
51.9296874594494
20
0.255034190449897
30
-2E-16
41
0.999913486726608
10
52.0859374993243
20
0.121417614411861
30
2E-16
41
0.999926947332464
10
52.2421875113199
20
-0.0120818473253627
30
0
41
0.999933746353576
10
52.3280485524088
20
-0.0852624204051704
30
2E-16
41
0.999937320579043
10
52.3748468219038
20
-0.125046580611
30
-2E-16
41
0.999937907785668
10
52.3825823985102
20
-0.131619706212265
30
-1E-16
0
SPLINE
5
102
100
AcDbEntity
8
1
62
256
6
ByLayer
370
18
48
1
60
0
100
AcDbSpline
70
4
71
3
72
9
73
5
40
0
40
0
40
0
40
0
40
0.0397786202368577
40
1
40
1
40
1
40
1
41
1
10
26.3383294074818
20
2.67946403828486
30
0
41
1
10
26.3401362816106
20
2.6794137276878
30
0
41
1
10
26.3855595294318
20
2.67813105186752
30
0
41
1
10
26.4309827748164
20
2.6763980024615
30
0
41
1
10
26.4745991449196
20
2.67432034541935
30
0
0
SPLINE
5
103
100
AcDbEntity
8
1
62
256
6
ByLayer
370
18
48
1
60
0
100
AcDbSpline
70
4
71
3
72
38
73
34
40
0
40
0
40
0
40
0
40
0.0140965937111383
40
0.0472595895016797
40
0.0804225852922209
40
0.113585581082762
40
0.146748576873304
40
0.179911572663845
40
0.246237564244928
40
0.262819062140198
40
0.279400560035469
40
0.31256355582601
40
0.345726551616552
40
0.378889547407093
40
0.412052543197634
40
0.445215538988176
40
0.478378534778717
40
0.511541530569258
40
0.5447045263598
40
0.577867522150341
40
0.611030517940882
40
0.644193513731424
40
0.677356509521965
40
0.710519505312506
40
0.743682501103048
40
0.776845496893589
40
0.81000849268413
40
0.843171488474672
40
0.876334484265213
40
0.909497480055754
40
0.942660475846296
40
0.975823471636837
40
1
40
1
40
1
40
1
41
1
10
28.8222492472606
20
2.17417556252107
30
1E-16
41
1
10
28.8554578372151
20
2.16193147589783
30
1E-16
41
1
10
28.9667914228571
20
2.12022940207467
30
1E-16
41
1
10
29.1562500040386
20
2.04569066339332
30
1E-16
41
1
10
29.3906249993967
20
1.94722202564736
30
1E-16
41
1
10
29.6249999988355
20
1.84280849491003
30
-1E-16
41
1
10
29.8593749982015
20
1.73271191683591
30
-1E-16
41
1
10
30.1718749966817
20
1.57841798219269
30
-1E-16
41
1
10
30.4453124937204
20
1.43489032710093
30
2E-16
41
1
10
30.6796874889472
20
1.30677023263272
30
0
41
1
10
30.8359374861167
20
1.22042142283019
30
-2E-16
41
1
10
31.0312499850186
20
1.10981794103478
30
1E-16
41
1
10
31.2656249932742
20
0.973441771686453
30
-1E-16
41
1
10
31.5000000015761
20
0.834119642067009
30
-2E-16
41
1
10
31.734375000425
20
0.692284095911305
30
2E-16
41
1
10
31.9687499967178
20
0.548408956393416
30
0
41
1
10
32.2031249973168
20
0.402954698173033
30
-1E-16
41
1
10
32.4375000000164
20
0.256414375703031
30
-2E-16
41
1
10
32.6718750026176
20
0.109284345606284
30
2E-16
41
1
10
32.9062500037231
20
-0.0379335589133518
30
1E-16
41
1
10
33.1406250019461
20
-0.184735754200375
30
0
41
1
10
33.3749999996829
20
-0.330615980740504
30
-1E-16
41
1
10
33.6093749993216
20
-0.475039971979356
30
-2E-16
41
1
10
33.8437499997793
20
-0.617500693970754
30
1E-16
41
1
10
34.0781249999781
20
-0.757473969341902
30
0
41
1
10
34.3125000000118
20
-0.894466947353322
30
-1E-16
41
1
10
34.5468749999748
20
-1.02793512203877
30
2E-16
41
1
10
34.7812499999393
20
-1.15739356056574
30
0
41
1
10
35.0156249999772
20
-1.28232542262754
30
-1E-16
41
1
10
35.2500000000128
20
-1.40227957536089
30
0
41
1
10
35.4843749999707
20
-1.51673214601175
30
0
41
1
10
35.6975797864608
20
-1.6154485488793
30
0
41
1
10
35.8326595744904
20
-1.67479747927464
30
0
41
1
10
35.8896143598613
20
-1.69922875236637
30
0
0
SPLINE
5
104
100
AcDbEntity
8
1
62
256
6
ByLayer
370
18
48
1
60
0
100
AcDbSpline
70
4
71
3
72
26
73
22
40
0
40
0
40
0
40
0
40
0.0368382944874601
40
0.0798087710374089
40
0.122779247587359
40
0.208720200687258
40
0.251690677237207
40
0.294661153787157
40
0.380602106887054
40
0.423572583437004
40
0.466543059986953
40
0.552484013086852
40
0.595454489636802
40
0.638424966186751
40
0.72436591928665
40
0.7673363958366
40
0.810306872386548
40
0.896247825486447
40
0.939218302036396
40
0.982188778586346
40
1
40
1
40
1
40
1
41
1
10
49.6807859279024
20
1.97425877319438
30
0
41
1
10
49.7142739387041
20
1.96869291673389
30
0
41
1
10
49.7868244483479
20
1.95579971088281
30
0
41
1
10
49.8984374636175
20
1.93319039596955
30
0
41
1
10
50.0546874751452
20
1.89743511987157
30
0
41
1
10
50.2109374950446
20
1.85554899367145
30
0
41
1
10
50.3671875148855
20
1.80766203144373
30
0
41
1
10
50.5234375326282
20
1.75586932859119
30
0
41
1
10
50.6796875441385
20
1.69830547395821
30
0
41
1
10
50.8359375432722
20
1.63518866876615
30
-1E-16
41
1
10
50.9921875337755
20
1.56848140854618
30
1E-16
41
1
10
51.1484375107034
20
1.49653619955078
30
0
41
1
10
51.3046874728258
20
1.41965737972706
30
0
41
1
10
51.4609374345137
20
1.33961733725326
30
0
41
1
10
51.6171874096755
20
1.25503914242827
30
-1E-16
41
1
10
51.7734374265187
20
1.16630840984141
30
-1E-16
41
1
10
51.9296874595007
20
1.07495385791859
30
-1E-16
41
1
10
52.0859374993328
20
0.979918757483631
30
-1E-16
41
1
10
52.2421875112934
20
0.881666262205414
30
-1E-16
41
1
10
52.3365038797611
20
0.821160331434896
30
1E-16
41
1
10
52.3917577467155
20
0.785267062532284
30
-1E-16
41
1
10
52.4079491149347
20
0.774712255614702
30
0
0
SPLINE
5
105
100
AcDbEntity
8
1
62
256
6
ByLayer
370
18
48
1
60
0
100
AcDbSpline
70
4
71
3
72
36
73
32
40
0
40
0
40
0
40
0
40
0.0239362701236849
40
0.0574868710848827
40
0.0910374720460805
40
0.124588073007278
40
0.191689274929674
40
0.225239875890872
40
0.25879047685207
40
0.325891678774465
40
0.359442279735663
40
0.392992880696861
40
0.426543481658059
40
0.460094082619257
40
0.493644683580454
40
0.527195284541652
40
0.594296486464048
40
0.611071786944647
40
0.627847087425246
40
0.661397688386444
40
0.694948289347641
40
0.728498890308839
40
0.762049491270037
40
0.795600092231235
40
0.829150693192433
40
0.862701294153631
40
0.896251895114828
40
0.929802496076026
40
0.963353097037224
40
0.996903697998422
40
1
40
1
40
1
40
1
41
1
10
26.4109130196578
20
3.57904278110965
30
0
41
1
10
26.4666503509869
20
3.58961873009923
30
0
41
1
10
26.6005126695993
20
3.61275871936573
30
0
41
1
10
26.8124999713081
20
3.64072907656964
30
0
41
1
10
27.046874958976
20
3.66030680750336
30
0
41
1
10
27.3593749663881
20
3.67127635056741
30
0
41
1
10
27.6718749952234
20
3.65940605753937
30
0
41
1
10
27.984375016762
20
3.62452876555153
30
0
41
1
10
28.2968750315722
20
3.57446810069627
30
0
41
1
10
28.6093750334946
20
3.50185369434072
30
0
41
1
10
28.9218750169416
20
3.40712903378338
30
0
41
1
10
29.1562500040388
20
3.32523464837931
30
0
41
1
10
29.3906249993934
20
3.23275943930142
30
0
41
1
10
29.6249999988364
20
3.12998004645431
30
0
41
1
10
29.8593749982011
20
3.01716689082326
30
0
41
1
10
30.1718749966802
20
2.85396352993351
30
0
41
1
10
30.4453124937186
20
2.69497905635885
30
-1E-16
41
1
10
30.6796874889488
20
2.54813843115588
30
-2E-16
41
1
10
30.8359374861204
20
2.44749023802498
30
0
41
1
10
31.031249985019
20
2.31675980159795
30
-1E-16
41
1
10
31.2656249932684
20
2.15249667070867
30
-2E-16
41
1
10
31.5000000015755
20
1.98138812985181
30
-2E-16
41
1
10
31.7343750004303
20
1.80399303317464
30
2E-16
41
1
10
31.968749996717
20
1.6209227651506
30
2E-16
41
1
10
32.2031249973151
20
1.43278661622782
30
2E-16
41
1
10
32.4375000000171
20
1.24025309683412
30
2E-16
41
1
10
32.6718750026166
20
1.04399070560879
30
2E-16
41
1
10
32.906250003723
20
0.844697388857639
30
-2E-16
41
1
10
33.1406250019476
20
0.64307075854191
30
-2E-16
41
1
10
33.3040849634372
20
0.501337715995248
30
-2E-16
41
1
10
33.3894199260599
20
0.427175469444222
30
-1E-16
41
1
10
33.3966298890937
20
0.420908376373063
30
-1E-16
0
SPLINE
5
106
100
AcDbEntity
8
1
62
256
6
ByLayer
370
18
48
1
60
0
100
AcDbSpline
70
4
71
3
72
31
73
27
40
0
40
0
40
0
40
0
40
0.0166485398917485
40
0.0496800194190299
40
0.0827114989463104
40
0.148774458000875
40
0.181805937528156
40
0.214837417055438
40
0.28090037611
40
0.313931855637282
40
0.346963335164563
40
0.413026294219127
40
0.446057773746408
40
0.47908925327369
40
0.545152212328252
40
0.578183691855534
40
0.611215171382815
40
0.677278130437379
40
0.71030960996466
40
0.743341089491941
40
0.809404048546504
40
0.842435528073785
40
0.875467007601067
40
0.94152996665563
40
0.974561446182912
40
1
40
1
40
1
40
1
41
1
10
48.7846851090117
20
2.42876637490497
30
0
41
1
10
48.8043734066159
20
2.43270624314951
30
0
41
1
10
48.8631242049093
20
2.44397573681781
30
0
41
1
10
48.9609375043756
20
2.46030011246881
30
0
41
1
10
49.1171875067696
20
2.48116668957974
30
0
41
1
10
49.2734375043575
20
2.49414453199952
30
0
41
1
10
49.4296874906821
20
2.49910489479055
30
0
41
1
10
49.585937474185
20
2.49872262237065
30
0
41
1
10
49.7421874604794
20
2.49030117401441
30
0
41
1
10
49.8984374636092
20
2.47381069075459
30
0
41
1
10
50.0546874751388
20
2.45197788546534
30
0
41
1
10
50.2109374950464
20
2.42215663675122
30
0
41
1
10
50.3671875148841
20
2.38441981201385
30
0
41
1
10
50.523437532623
20
2.34147871558517
30
0
41
1
10
50.6796875441364
20
2.29080959372851
30
0
41
1
10
50.8359375432765
20
2.23259293109004
30
0
41
1
10
50.9921875337731
20
2.16945368146392
30
0
41
1
10
51.1484375106965
20
2.09906473364711
30
0
41
1
10
51.304687472838
20
2.02171775299524
30
-1E-16
41
1
10
51.4609374345377
20
1.93987328267116
30
-1E-16
41
1
10
51.6171874096864
20
1.85146778130448
30
1E-16
41
1
10
51.7734374264953
20
1.75689314591008
30
1E-16
41
1
10
51.929687459473
20
1.6583810232724
30
-1E-16
41
1
10
52.0859374993282
20
1.55420339611345
30
-1E-16
41
1
10
52.2332082379739
20
1.45114371892745
30
-1E-16
41
1
10
52.3023539656746
20
1.40148563198255
30
0
41
1
10
52.33243719258
20
1.37965133892163
30
1E-16
0
SPLINE
5
107
100
AcDbEntity
8
1
62
256
6
ByLayer
370
18
48
1
60
0
100
AcDbSpline
70
4
71
3
72
37
73
33
40
0
40
0
40
0
40
0
40
0.0270977728209867
40
0.0589600230103416
40
0.0908222731996965
40
0.122684523389051
40
0.154546773578406
40
0.186409023767761
40
0.218271273957116
40
0.250133524146471
40
0.281995774335826
40
0.313858024525181
40
0.345720274714536
40
0.377582524903891
40
0.441307025282601
40
0.473169275471956
40
0.50503152566131
40
0.56875602604002
40
0.600618276229375
40
0.63248052641873
40
0.664342776608085
40
0.69620502679744
40
0.728067276986795
40
0.75992952717615
40
0.82365402755486
40
0.839585152649537
40
0.855516277744215
40
0.88737852793357
40
0.919240778122924
40
0.951103028312279
40
0.982965278501634
40
1
40
1
40
1
40
1
41
1
10
24.5037969164242
20
2.24191412260299
30
0
41
1
10
24.5702396137165
20
2.2158753780347
30
0
41
1
10
24.7148073131791
20
2.15759669484072
30
0
41
1
10
24.9375000001706
20
2.06272918694251
30
1E-16
41
1
10
25.1718749996272
20
1.95733776938218
30
1E-16
41
1
10
25.406249997236
20
1.84668790576396
30
-1E-16
41
1
10
25.6406249921257
20
1.73101099541916
30
-1E-16
41
1
10
25.8749999964195
20
1.61068267403047
30
-2E-16
41
1
10
26.1093750221964
20
1.4860420769617
30
1E-16
41
1
10
26.3437500370643
20
1.35745688114207
30
-1E-16
41
1
10
26.5781250086869
20
1.22525537483949
30
-2E-16
41
1
10
26.8124999713098
20
1.08983733116108
30
1E-16
41
1
10
27.0468749589968
20
0.951573602932655
30
0
41
1
10
27.3593749664061
20
0.763734575763863
30
0
41
1
10
27.6718749952214
20
0.571850276757431
30
0
41
1
10
27.984375016761
20
0.377610650596608
30
0
41
1
10
28.2968750315766
20
0.182367438769717
30
0
41
1
10
28.6093750334977
20
-0.0134387242144385
30
0
41
1
10
28.9218750169361
20
-0.207987089257472
30
0
41
1
10
29.1562500040386
20
-0.352658863329708
30
-1E-16
41
1
10
29.3906249993967
20
-0.495805787989752
30
-2E-16
41
1
10
29.6249999988355
20
-0.636985173457106
30
2E-16
41
1
10
29.8593749982015
20
-0.775735966698733
30
0
41
1
10
30.1718749966817
20
-0.957198031535569
30
0
41
1
10
30.4453124937204
20
-1.11002915721619
30
-1E-16
41
1
10
30.6796874889472
20
-1.23564501955565
30
-2E-16
41
1
10
30.8359374861167
20
-1.3178839532431
30
0
41
1
10
31.0312499850186
20
-1.41791897801221
30
2E-16
41
1
10
31.2656249932742
20
-1.5329992956047
30
0
41
1
10
31.5000000015761
20
-1.64270637637867
30
1E-16
41
1
10
31.698018476124
20
-1.73048586388413
30
1E-16
41
1
10
31.8179119500523
20
-1.78122080247553
30
1E-16
41
1
10
31.859680425071
20
-1.79859328607878
30
1E-16
0
SPLINE
5
108
100
AcDbEntity
8
1
62
256
6
ByLayer
370
18
48
1
60
0
100
AcDbSpline
70
4
71
3
72
46
73
42
40
0
40
0
40
0
40
0
40
0.0006930534711497
40
0.0209160035339686
40
0.0613619036596071
40
0.0815848537224261
40
0.101807803785246
40
0.142253703910884
40
0.162476653973703
40
0.182699604036522
40
0.223145504162161
40
0.243368454224981
40
0.263591404287799
40
0.304037304413438
40
0.324260254476257
40
0.344483204539076
40
0.384929104664715
40
0.405152054727534
40
0.425375004790353
40
0.465820904915992
40
0.48604385497881
40
0.50626680504163
40
0.546712705167269
40
0.566935655230088
40
0.587158605292907
40
0.627604505418546
40
0.647827455481365
40
0.668050405544183
40
0.708496305669822
40
0.728719255732642
40
0.748942205795461
40
0.789388105921099
40
0.809611055983919
40
0.829834006046738
40
0.870279906172376
40
0.890502856235196
40
0.910725806298014
40
0.951171706423653
40
0.971394656486472
40
0.991617606549292
40
1
40
1
40
1
40
1
41
1
10
46.6131714106588
20
2.05392413583516
30
0
41
1
10
46.61451010759
20
2.05367735414427
30
0
41
1
10
46.6549113044646
20
2.04621286486136
30
0
41
1
10
46.7734374997623
20
2.02283281790537
30
0
41
1
10
46.929687495189
20
1.98632619662061
30
0
41
1
10
47.0859374945648
20
1.94422680223184
30
0
41
1
10
47.2421874959043
20
1.89848972669316
30
0
41
1
10
47.3984374991932
20
1.84733181720955
30
0
41
1
10
47.5546875024359
20
1.79091680977078
30
0
41
1
10
47.710937505205
20
1.73109483195762
30
-1E-16
41
1
10
47.8671875065996
20
1.66625330892114
30
1E-16
41
1
10
48.0234375052964
20
1.59662326164809
30
0
41
1
10
48.1796875029415
20
1.52390670825255
30
0
41
1
10
48.3359375001201
20
1.44670705517723
30
-1E-16
41
1
10
48.4921874990544
20
1.36532479864309
30
-1E-16
41
1
10
48.64843749914
20
1.28126647300064
30
1E-16
41
1
10
48.8046875009298
20
1.19339146887336
30
1E-16
41
1
10
48.9609375043779
20
1.10206237497582
30
1E-16
41
1
10
49.1171875067755
20
1.00854954433828
30
1E-16
41
1
10
49.2734375043612
20
0.912005543885414
30
1E-16
41
1
10
49.4296874906744
20
0.812851482943898
30
1E-16
41
1
10
49.5859374741731
20
0.712082515244106
30
1E-16
41
1
10
49.7421874604759
20
0.609176681702081
30
-1E-16
41
1
10
49.8984374636175
20
0.504606851623748
30
-1E-16
41
1
10
50.0546874751452
20
0.399056303692731
30
0
41
1
10
50.2109374950446
20
0.292351040223991
30
0
41
1
10
50.3671875148855
20
0.185001476356547
30
0
41
1
10
50.5234375326282
20
0.0773562117463769
30
0
41
1
10
50.6796875441385
20
-0.0303897108701676
30
1E-16
41
1
10
50.8359375432722
20
-0.137690071877728
30
1E-16
41
1
10
50.9921875337755
20
-0.244562118284506
30
-1E-16
41
1
10
51.1484375107034
20
-0.350441298796739
30
-1E-16
41
1
10
51.3046874728258
20
-0.454776219444739
30
0
41
1
10
51.4609374345137
20
-0.557946383110135
30
0
41
1
10
51.6171874096755
20
-0.659009288395055
30
0
41
1
10
51.7734374265187
20
-0.757396372321381
30
0
41
1
10
51.9296874595007
20
-0.853876087974726
30
0
41
1
10
52.0859374993328
20
-0.947155640312673
30
0
41
1
10
52.2421875112934
20
-1.03670339128166
30
0
41
1
10
52.3365038797611
20
-1.08917944378445
30
1E-16
41
1
10
52.3917577467155
20
-1.11921307625138
30
0
41
1
10
52.4079491149347
20
-1.12795158830275
30
0
0
SPLINE
5
109
100
AcDbEntity
8
1
62
256
6
ByLayer
370
18
48
1
60
0
100
AcDbSpline
70
4
71
3
72
42
73
38
40
0
40
0
40
0
40
0
40
0.0079741336948509
40
0.0231498124432889
40
0.038325491191727
40
0.0686768486886029
40
0.0990282061854788
40
0.129379563682355
40
0.159730921179231
40
0.190082278676107
40
0.220433636172983
40
0.250784993669859
40
0.281136351166735
40
0.311487708663611
40
0.341839066160487
40
0.372190423657363
40
0.402541781154239
40
0.432893138651115
40
0.463244496147991
40
0.493595853644867
40
0.523947211141743
40
0.554298568638619
40
0.584649926135495
40
0.615001283632371
40
0.645352641129247
40
0.675703998626123
40
0.706055356122999
40
0.736406713619875
40
0.76675807111675
40
0.797109428613627
40
0.827460786110503
40
0.857812143607379
40
0.888163501104254
40
0.918514858601131
40
0.948866216098006
40
0.979217573594882
40
1
40
1
40
1
40
1
41
1
10
30.5009232544598
20
0.763150569411494
30
-1E-16
41
1
10
30.5214488334126
20
0.745886781096573
30
-1E-16
41
1
10
30.5810369116649
20
0.695700778441534
30
-1E-16
41
1
10
30.6796874889495
20
0.612318807390778
30
-1E-16
41
1
10
30.8359374861221
20
0.479620539563399
30
2E-16
41
1
10
31.0312499850191
20
0.313119931782154
30
2E-16
41
1
10
31.2656249932658
20
0.112955685750251
30
2E-16
41
1
10
31.5000000015751
20
-0.0869585087931739
30
2E-16
41
1
10
31.7343750004326
20
-0.285918972385616
30
-2E-16
41
1
10
31.9687499967166
20
-0.483226233575721
30
-2E-16
41
1
10
32.2031249973143
20
-0.678176619721711
30
-2E-16
41
1
10
32.4375000000175
20
-0.870060280394711
30
-2E-16
41
1
10
32.6718750026161
20
-1.05816751913773
30
-2E-16
41
1
10
32.906250003723
20
-1.24180901727598
30
-2E-16
41
1
10
33.1406250019483
20
-1.42029520957109
30
2E-16
41
1
10
33.3749999996829
20
-1.59294845893766
30
2E-16
41
1
10
33.6093749993204
20
-1.75909793948156
30
1E-16
41
1
10
33.8437499997796
20
-1.91810527724599
30
1E-16
41
1
10
34.0781249999783
20
-2.06933605551333
30
0
41
1
10
34.3125000000117
20
-2.21218834894671
30
-1E-16
41
1
10
34.546874999975
20
-2.34607367372016
30
2E-16
41
1
10
34.7812499999395
20
-2.47044804555963
30
0
41
1
10
35.0156249999767
20
-2.58477565834301
30
1E-16
41
1
10
35.2500000000126
20
-2.68857345109575
30
1E-16
41
1
10
35.4843749999731
20
-2.78137799903641
30
1E-16
41
1
10
35.718750002169
20
-2.86278271849946
30
0
41
1
10
35.9531250089101
20
-2.93239317995747
30
0
41
1
10
36.1875000044807
20
-2.98988495739266
30
0
41
1
10
36.4218749731651
20
-3.03495858568203
30
0
41
1
10
36.656249951339
20
-3.06738415356918
30
0
41
1
10
36.8906249754282
20
-3.08694735442003
30
0
41
1
10
37.1250000056224
20
-3.09351629610524
30
0
41
1
10
37.3593750020791
20
-3.08698807075652
30
0
41
1
10
37.5937499868363
20
-3.0673411117011
30
0
41
1
10
37.8281249819625
20
-3.03457209964716
30
0
41
1
10
38.0378693745165
20
-2.99358088329365
30
0
41
1
10
38.1694887751117
20
-2.96174690265269
30
0
41
1
10
38.2229831637678
20
-2.94781065702466
30
0
0
SPLINE
5
10A
100
AcDbEntity
8
1
62
256
6
ByLayer
370
18
48
1
60
0
100
AcDbSpline
70
4
71
3
72
22
73
18
40
0
40
0
40
0
40
0
40
0.0906179710197633
40
0.141939953627666
40
0.193261936235568
40
0.295905901451373
40
0.347227884059276
40
0.39854986666718
40
0.501193831882985
40
0.552515814490887
40
0.60383779709879
40
0.706481762314595
40
0.757803744922497
40
0.8091257275304
40
0.911769692746205
40
0.963091675354108
40
1
40
1
40
1
40
1
41
1
10
50.0430848694324
20
1.71842983993085
30
0
41
1
10
50.1120565783482
20
1.67352194375999
30
0
41
1
10
50.2200907941616
20
1.60100378004884
30
0
41
1
10
50.3671875148827
20
1.49798404665046
30
0
41
1
10
50.5234375326183
20
1.38543201809281
30
-1E-16
41
1
10
50.6796875441345
20
1.26849871029879
30
1E-16
41
1
10
50.8359375432802
20
1.14774055827402
30
0
41
1
10
50.9921875337711
20
1.02462466341856
30
-2E-16
41
1
10
51.1484375106903
20
0.898297960476953
30
1E-16
41
1
10
51.304687472849
20
0.769378820202036
30
0
41
1
10
51.4609374345595
20
0.638950366190073
30
-2E-16
41
1
10
51.6171874096962
20
0.506609692432818
30
1E-16
41
1
10
51.7734374264741
20
0.373040410886432
30
0
41
1
10
51.9296874594478
20
0.238884535317624
30
-1E-16
41
1
10
52.085937499324
20
0.104206725861644
30
2E-16
41
1
10
52.2312168993381
20
-0.0208411005188225
30
0
41
1
10
52.2983712886733
20
-0.078505047759478
30
2E-16
41
1
10
52.3264631771886
20
-0.102591154644301
30
-2E-16
0
SPLINE
5
10B
100
AcDbEntity
8
1
62
256
6
ByLayer
370
18
48
1
60
0
100
AcDbSpline
70
4
71
3
72
40
73
36
40
0
40
0
40
0
40
0
40
0.0127606313677401
40
0.042546646710501
40
0.0723326620532619
40
0.102118677396023
40
0.161690708081545
40
0.191476723424306
40
0.221262738767066
40
0.280834769452588
40
0.310620784795349
40
0.34040680013811
40
0.370192815480871
40
0.399978830823632
40
0.429764846166393
40
0.459550861509154
40
0.519122892194676
40
0.534015899866056
40
0.548908907537436
40
0.578694922880197
40
0.608480938222958
40
0.638266953565719
40
0.66805296890848
40
0.697838984251241
40
0.727624999594002
40
0.757411014936763
40
0.787197030279524
40
0.816983045622284
40
0.846769060965045
40
0.876555076307806
40
0.906341091650567
40
0.936127106993328
40
0.965913122336089
40
0.99569913767885
40
1
40
1
40
1
40
1
41
0.993840436661587
10
26.4777178284497
20
0.552438974176424
30
0
41
0.993843048616194
10
26.5111872978177
20
0.524276055965699
30
-1E-16
41
0.993851919984799
10
26.6227811772179
20
0.430267626789101
30
-2E-16
41
0.993867916855155
10
26.8124999713075
20
0.269983767649494
30
-2E-16
41
0.99388923450984
10
27.0468749589681
20
0.0717791018167149
30
-2E-16
41
0.993915750297134
10
27.3593749663813
20
-0.191865789815236
30
0
41
0.993944272053797
10
27.6718749952242
20
-0.453413957893673
30
2E-16
41
0.993974740732679
10
27.9843750167623
20
-0.710404527310079
30
-1E-16
41
0.994007125129378
10
28.2968750315706
20
-0.963560883848514
30
0
41
0.994041394843909
10
28.6093750334934
20
-1.20972221270488
30
2E-16
41
0.994077486672266
10
28.9218750169436
20
-1.446453409264
30
-2E-16
41
0.994110193182931
10
29.1562500040388
20
-1.61878967179844
30
-2E-16
41
0.994144217163232
10
29.3906249993922
20
-1.78524821808138
30
2E-16
41
0.994179532529282
10
29.6249999988368
20
-1.94526083257886
30
1E-16
41
0.994216112907055
10
29.859374998201
20
-2.0982626906703
30
0
41
0.994259891484995
10
30.1718749966796
20
-2.2921136038452
30
0
41
0.994302315396994
10
30.4453124937179
20
-2.44774789821983
30
0
41
0.994342802491019
10
30.6796874889495
20
-2.56992915054099
30
-2E-16
41
0.994376716609608
10
30.8359374861219
20
-2.64840129965118
30
0
41
0.994415529838765
10
31.0312499850191
20
-2.74051299253098
30
0
41
0.994459106082625
10
31.265624993266
20
-2.84112130784568
30
0
41
0.994503763385151
10
31.5000000015752
20
-2.93148693036563
30
0
41
0.994549475079868
10
31.7343750004324
20
-3.01124522229048
30
-1E-16
41
0.994596215442869
10
31.9687499967166
20
-3.08008737667301
30
1E-16
41
0.994643958313949
10
32.2031249973143
20
-3.13771468857925
30
0
41
0.994692677186786
10
32.4375000000174
20
-3.18388777122932
30
0
41
0.994742345244526
10
32.6718750026161
20
-3.21838739938202
30
0
41
0.994792936900145
10
32.906250003723
20
-3.24105446832314
30
0
41
0.994844426097276
10
33.1406250019481
20
-3.25174235625932
30
0
41
0.994896786437442
10
33.374999999683
20
-3.25037545874765
30
0
41
0.994949991205606
10
33.6093749993204
20
-3.23690103497257
30
0
41
0.995004014796537
10
33.8437499997796
20
-3.21133217158626
30
0
41
0.995058831075702
10
34.0781249999783
20
-3.17369624018504
30
0
41
0.995098561495199
10
34.245658293822
20
-3.13824203600413
30
0
41
0.995119925846123
10
34.3350656177207
20
-3.11673765905101
30
0
41
0.9951226240206
10
34.346346276069
20
-3.11398339075155
30
0
0
SPLINE
5
10C
100
AcDbEntity
8
1
62
256
6
ByLayer
370
18
48
1
60
0
100
AcDbSpline
70
4
71
3
72
43
73
39
40
0
40
0
40
0
40
0
40
0.0041334533107334
40
0.0261668591401453
40
0.0702336707989661
40
0.0922670766283774
40
0.114300482457788
40
0.158367294116611
40
0.180400699946023
40
0.202434105775434
40
0.246500917434257
40
0.268534323263668
40
0.290567729093079
40
0.334634540751901
40
0.356667946581312
40
0.378701352410723
40
0.422768164069546
40
0.444801569898958
40
0.466834975728369
40
0.510901787387191
40
0.532935193216601
40
0.554968599046013
40
0.599035410704835
40
0.621068816534247
40
0.643102222363658
40
0.68716903402248
40
0.709202439851892
40
0.731235845681303
40
0.775302657340125
40
0.797336063169536
40
0.819369468998948
40
0.86343628065777
40
0.885469686487182
40
0.907503092316593
40
0.951569903975415
40
0.973603309804825
40
0.995636715634237
40
1
40
1
40
1
40
1
41
0.998989368244547
10
47.0639548367469
20
1.73572004770591
30
0
41
0.998991293426471
10
47.071282897154
20
1.73084904855639
30
0
41
0.999003464833012
10
47.1176729225351
20
1.6999241867449
30
0
41
0.999035843736676
10
47.2421874959015
20
1.61541553152803
30
2E-16
41
0.999075853546173
10
47.3984374991939
20
1.504864144831
30
0
41
0.999115215383622
10
47.5546875024353
20
1.39026933675795
30
-1E-16
41
0.999153921495243
10
47.7109375052027
20
1.273129698485
30
1E-16
41
0.99919196349592
10
47.8671875065981
20
1.15245913444034
30
0
41
0.999229315472009
10
48.0234375052994
20
1.02877391555908
30
-2E-16
41
0.999265969076953
10
48.179687502945
20
0.903252371620772
30
1E-16
41
0.999301915671582
10
48.3359375001204
20
0.775284092261089
30
0
41
0.999337129435495
10
48.4921874990531
20
0.645439692968035
30
-2E-16
41
0.999371601867954
10
48.6484374991404
20
0.514534801144738
30
1E-16
41
0.999405324211191
10
48.8046875009321
20
0.382358652511534
30
0
41
0.999438271351159
10
48.9609375043739
20
0.249517680598647
30
-1E-16
41
0.999470434332743
10
49.1171875067649
20
0.116437474232394
30
2E-16
41
0.999501804172297
10
49.2734375043545
20
-0.0166754168818067
30
0
41
0.999532356228566
10
49.4296874906884
20
-0.149188400369026
30
-1E-16
41
0.999562081116714
10
49.5859374741947
20
-0.281088606161588
30
2E-16
41
0.999590969531222
10
49.7421874604822
20
-0.411744021586398
30
1E-16
41
0.999618997350226
10
49.8984374636024
20
-0.540510406208692
30
-1E-16
41
0.999646154902546
10
50.0546874751336
20
-0.667803056390346
30
-2E-16
41
0.999672432658945
10
50.2109374950479
20
-0.792570407140839
30
1E-16
41
0.999697807369234
10
50.3671875148829
20
-0.914177888484669
30
-1E-16
41
0.999722268658474
10
50.5234375326186
20
-1.03346505098025
30
2E-16
41
0.999745806446968
10
50.6796875441346
20
-1.14897012737287
30
0
41
0.999768397873519
10
50.8359375432801
20
-1.26007357776817
30
-2E-16
41
0.999790032498745
10
50.9921875337711
20
-1.36804389395379
30
1E-16
41
0.999810700036898
10
51.1484375106907
20
-1.47104600387288
30
-1E-16
41
0.999830378863844
10
51.3046874728484
20
-1.56851692890842
30
-1E-16
41
0.999849057516481
10
51.4609374345581
20
-1.66211045445608
30
-1E-16
41
0.999866724930075
10
51.6171874096956
20
-1.74964106646033
30
1E-16
41
0.999883359892597
10
51.7734374264753
20
-1.83058141154115
30
1E-16
41
0.999898950956818
10
51.9296874594494
20
-1.90697209708836
30
0
41
0.999913486726608
10
52.0859374993243
20
-1.97634841518233
30
0
41
0.999926947332464
10
52.2421875113199
20
-2.03829138542872
30
-1E-16
41
0.999933746353576
10
52.3280485524088
20
-2.06952982514915
30
0
41
0.999937320579043
10
52.3748468219038
20
-2.08562275958436
30
0
41
0.999937907785668
10
52.3825823985102
20
-2.08825723736178
30
0
0
SPLINE
5
10D
100
AcDbEntity
8
1
62
256
6
ByLayer
370
18
48
1
60
0
100
AcDbSpline
70
4
71
3
72
27
73
23
40
0
40
0
40
0
40
0
40
0.0884444504687433
40
0.132666675703115
40
0.176888900937487
40
0.221111126171858
40
0.26533335140623
40
0.309555576640602
40
0.353777801874973
40
0.398000027109345
40
0.442222252343716
40
0.486444477578088
40
0.53066670281246
40
0.574888928046831
40
0.619111153281203
40
0.707555603749946
40
0.751777828984318
40
0.79600005421869
40
0.884444504687433
40
0.928666729921805
40
0.972888955156176
40
1
40
1
40
1
40
1
41
1
10
24
20
3.75983264674323
30
0
41
1
10
24.1562498820927
20
3.72318949498819
30
0
41
1
10
24.3906249695767
20
3.65779001857968
30
1E-16
41
1
10
24.7031249997073
20
3.54978807604738
30
-1E-16
41
1
10
24.9375000001667
20
3.45869011856794
30
-1E-16
41
1
10
25.1718749996259
20
3.35781662240302
30
-1E-16
41
1
10
25.4062499972342
20
3.24739642465417
30
-1E-16
41
1
10
25.6406249921354
20
3.12765198263304
30
2E-16
41
1
10
25.8749999964214
20
2.99897679763723
30
1E-16
41
1
10
26.1093750221788
20
2.8617603788706
30
0
41
1
10
26.3437500370576
20
2.71639666196665
30
-1E-16
41
1
10
26.5781250087144
20
2.56327514670579
30
2E-16
41
1
10
26.8124999713081
20
2.4028562902277
30
1E-16
41
1
10
27.046874958976
20
2.2355972617155
30
1E-16
41
1
10
27.3593749663881
20
2.00419860113769
30
2E-16
41
1
10
27.6718749952234
20
1.76124342609111
30
-1E-16
41
1
10
27.984375016762
20
1.50885064642193
30
0
41
1
10
28.2968750315722
20
1.25099908489926
30
2E-16
41
1
10
28.6093750334946
20
0.98616942795482
30
-1E-16
41
1
10
28.9218750169416
20
0.716813094189405
30
1E-16
41
1
10
29.126020614013
20
0.539464192612456
30
1E-16
41
1
10
29.2520412189663
20
0.429583516902426
30
1E-16
41
1
10
29.2999368263577
20
0.387789596152175
30
2E-16
0
SPLINE
5
10E
100
AcDbEntity
8
1
62
256
6
ByLayer
370
18
48
1
60
0
100
AcDbSpline
70
4
71
3
72
41
73
37
40
0
40
0
40
0
40
0
40
0.0200150158147492
40
0.0424522296904802
40
0.0873266574419429
40
0.109763871317674
40
0.132201085193405
40
0.177075512944868
40
0.199512726820599
40
0.22194994069633
40
0.266824368447792
40
0.289261582323523
40
0.311698796199255
40
0.356573223950716
40
0.379010437826447
40
0.401447651702178
40
0.446322079453641
40
0.468759293329373
40
0.491196507205103
40
0.536070934956565
40
0.558508148832297
40
0.580945362708028
40
0.62581979045949
40
0.648257004335221
40
0.670694218210952
40
0.715568645962415
40
0.738005859838146
40
0.760443073713877
40
0.80531750146534
40
0.827754715341071
40
0.850191929216802
40
0.895066356968264
40
0.917503570843995
40
0.939940784719726
40
0.984815212471188
40
1
40
1
40
1
40
1
41
1
10
45.5751509162205
20
2.58839200155654
30
0
41
1
10
45.6099964410777
20
2.59538540616362
30
0
41
1
10
45.6839044628964
20
2.60919350639938
30
0
41
1
10
45.8359374802226
20
2.63309910363412
30
0
41
1
10
45.9921874750037
20
2.65026958057075
30
0
41
1
10
46.1484374805265
20
2.65991841680187
30
0
41
1
10
46.3046874899491
20
2.66455015226421
30
0
41
1
10
46.4609375003372
20
2.66162746823872
30
0
41
1
10
46.6171875019227
20
2.65110958896338
30
0
41
1
10
46.7734374997678
20
2.63555483606942
30
0
41
1
10
46.9296874951895
20
2.61245602133462
30
0
41
1
10
47.0859374945626
20
2.58185653942502
30
0
41
1
10
47.2421874959027
20
2.5463138846778
30
0
41
1
10
47.3984374991936
20
2.50341095446632
30
0
41
1
10
47.5546875024356
20
2.45328085390636
30
0
41
1
10
47.7109375052036
20
2.39841937003399
30
0
41
1
10
47.8671875065987
20
2.33655793616032
30
1E-16
41
1
10
48.0234375052981
20
2.2679171484578
30
0
41
1
10
48.1796875029434
20
2.19487321606783
30
0
41
1
10
48.3359375001203
20
2.11536600694083
30
-1E-16
41
1
10
48.4921874990537
20
2.0297058120579
30
-1E-16
41
1
10
48.6484374991402
20
1.94008695297811
30
-1E-16
41
1
10
48.8046875009311
20
1.84471305215411
30
-1E-16
41
1
10
48.9609375043756
20
1.74397728871068
30
-1E-16
41
1
10
49.1171875067696
20
1.63983542077381
30
-1E-16
41
1
10
49.2734375043575
20
1.53080759694981
30
0
41
1
10
49.4296874906821
20
1.41736612132726
30
-2E-16
41
1
10
49.585937474185
20
1.30117306769029
30
1E-16
41
1
10
49.7421874604794
20
1.18111327254186
30
-1E-16
41
1
10
49.8984374636092
20
1.05773132583167
30
2E-16
41
1
10
50.0546874751388
20
0.932342078230448
30
0
41
1
10
50.2109374950464
20
0.804232465848827
30
-1E-16
41
1
10
50.3671875148841
20
0.674003329886716
30
2E-16
41
1
10
50.523437532623
20
0.542584459542894
30
1E-16
41
1
10
50.6670612917585
20
0.420439368444022
30
-1E-16
41
1
10
50.7716225406277
20
0.33103230902131
30
-1E-16
41
1
10
50.7980587887727
20
0.3084054528411
30
-2E-16
0
SPLINE
5
10F
100
AcDbEntity
8
1
62
256
6
ByLayer
370
18
48
1
60
0
100
AcDbSpline
70
4
71
3
72
10
73
6
40
0
40
0
40
0
40
0
40
0.737599264778263
40
0.737599264778263
40
1
40
1
40
1
40
1
41
1
10
52.3324371925796
20
-2.34518299570979
30
0
41
1
10
52.4027071847315
20
-2.32633954961537
30
0
41
1
10
52.4717149619982
20
-2.30217494161656
30
0
41
1
10
52.5630786530267
20
-2.2625718345486
30
0
41
1
10
52.5868455883747
20
-2.25154041461661
30
0
41
1
10
52.610377035921
20
-2.23988017153982
30
0
0
SPLINE
5
110
100
AcDbEntity
8
1
62
256
6
ByLayer
370
18
48
1
60
0
100
AcDbSpline
70
4
71
3
72
21
73
17
40
0
40
0
40
0
40
0
40
0.13037560113444
40
0.195563401701659
40
0.260751202268879
40
0.325939002836099
40
0.391126803403319
40
0.456314603970539
40
0.521502404537758
40
0.586690205104978
40
0.651878005672198
40
0.717065806239418
40
0.782253606806637
40
0.847441407373857
40
0.912629207941077
40
1
40
1
40
1
40
1
41
1
10
24
20
0.0684329630156526
30
-2E-16
41
1
10
24.1562498823084
20
-0.0301210143991568
30
1E-16
41
1
10
24.39062496954
20
-0.177596612403164
30
0
41
1
10
24.7031249996904
20
-0.371814937287269
30
0
41
1
10
24.9375000001706
20
-0.515814937278464
30
-1E-16
41
1
10
25.1718749996272
20
-0.657786445639971
30
2E-16
41
1
10
25.406249997236
20
-0.79733269249607
30
1E-16
41
1
10
25.6406249921257
20
-0.93401788055138
30
0
41
1
10
25.8749999964195
20
-1.06747538591944
30
-2E-16
41
1
10
26.1093750221964
20
-1.19731511852626
30
1E-16
41
1
10
26.3437500370643
20
-1.32318637104609
30
0
41
1
10
26.5781250086869
20
-1.4446802342934
30
-2E-16
41
1
10
26.8124999713098
20
-1.56145588977264
30
1E-16
41
1
10
27.0468749589968
20
-1.67313112748397
30
-1E-16
41
1
10
27.3078354028766
20
-1.79153635160137
30
0
41
1
10
27.490670854674
20
-1.86923303507234
30
0
41
1
10
27.5953813007715
20
-1.91187020015695
30
-1E-16
0
SPLINE
5
111
100
AcDbEntity
8
1
62
256
6
ByLayer
370
18
48
1
60
0
100
AcDbSpline
70
4
71
3
72
48
73
44
40
0
40
0
40
0
40
0
40
0.002504950102417
40
0.0405550466148336
40
0.0595800948710427
40
0.0786051431272518
40
0.116655239639669
40
0.135680287895877
40
0.154705336152087
40
0.192755432664504
40
0.211780480920713
40
0.230805529176921
40
0.268855625689339
40
0.287880673945548
40
0.306905722201756
40
0.344955818714174
40
0.363980866970383
40
0.383005915226591
40
0.421056011739009
40
0.440081059995218
40
0.459106108251426
40
0.497156204763844
40
0.516181253020053
40
0.535206301276262
40
0.573256397788679
40
0.592281446044888
40
0.611306494301097
40
0.649356590813514
40
0.668381639069723
40
0.687406687325931
40
0.725456783838349
40
0.744481832094558
40
0.763506880350767
40
0.801556976863184
40
0.820582025119393
40
0.839607073375602
40
0.877657169888019
40
0.896682218144228
40
0.915707266400436
40
0.953757362912854
40
0.972782411169063
40
0.991807459425272
40
1
40
1
40
1
40
1
41
1
10
43.4376954022946
20
2.10343701614832
30
0
41
1
10
43.4428386015172
20
2.10230599656032
30
0
41
1
10
43.5261068007595
20
2.08387356992398
30
0
41
1
10
43.6484375000108
20
2.05390732091374
30
0
41
1
10
43.8046874999881
20
2.01053461007521
30
0
41
1
10
43.9609374997539
20
1.9638575492734
30
0
41
1
10
44.117187498945
20
1.91223881214515
30
0
41
1
10
44.2734374970461
20
1.85582745326136
30
1E-16
41
1
10
44.4296874957436
20
1.79631624795834
30
0
41
1
10
44.5859374973226
20
1.73222069196788
30
-1E-16
41
1
10
44.7421875057494
20
1.66374457903874
30
1E-16
41
1
10
44.8984375158745
20
1.59244438924856
30
0
41
1
10
45.0546875242633
20
1.5170243647934
30
0
41
1
10
45.2109375223589
20
1.43774301985948
30
0
41
1
10
45.3671875153098
20
1.35598399604029
30
-1E-16
41
1
10
45.5234375030844
20
1.27067352426272
30
-1E-16
41
1
10
45.6796874907748
20
1.1821214664854
30
-1E-16
41
1
10
45.8359374802171
20
1.09150419514714
30
1E-16
41
1
10
45.9921874750002
20
0.997999299434383
30
1E-16
41
1
10
46.1484374805335
20
0.901962787214501
30
1E-16
41
1
10
46.3046874899579
20
0.804333989777717
30
-1E-16
41
1
10
46.4609375003391
20
0.704568963756344
30
-1E-16
41
1
10
46.6171875019175
20
0.603067050514937
30
-1E-16
41
1
10
46.7734374997623
20
0.500500029970766
30
2E-16
41
1
10
46.929687495189
20
0.396621354382461
30
0
41
1
10
47.0859374945648
20
0.291861941842313
30
2E-16
41
1
10
47.2421874959043
20
0.186607014603908
30
0
41
1
10
47.3984374991932
20
0.0809249401678471
30
-2E-16
41
1
10
47.5546875024359
20
-0.0247234574256083
30
1E-16
41
1
10
47.710937505205
20
-0.13026243729999
30
-1E-16
41
1
10
47.8671875065996
20
-0.235303041179833
30
1E-16
41
1
10
48.0234375052964
20
-0.339371963295605
30
-1E-16
41
1
10
48.1796875029415
20
-0.442709264344586
30
1E-16
41
1
10
48.3359375001201
20
-0.54460185308568
30
-1E-16
41
1
10
48.4921874990544
20
-0.644566892725095
30
0
41
1
10
48.64843749914
20
-0.74316948839089
30
0
41
1
10
48.8046875009298
20
-0.839380782489229
30
0
41
1
10
48.9609375043779
20
-0.932726170572522
30
0
41
1
10
49.1171875067755
20
-1.02409036383909
30
0
41
1
10
49.2734375043612
20
-1.11214322050932
30
-1E-16
41
1
10
49.4296874906744
20
-1.19642753517746
30
-1E-16
41
1
10
49.5246335216187
20
-1.24607901655637
30
0
41
1
10
49.5805170571666
20
-1.2745896392631
30
1E-16
41
1
10
49.5973380965955
20
-1.28310533497881
30
1E-16
0
SPLINE
5
112
100
AcDbEntity
8
1
62
256
6
ByLayer
370
18
48
1
60
0
100
AcDbSpline
70
4
71
3
72
40
73
36
40
0
40
0
40
0
40
0
40
0.0154062932225349
40
0.0449713755414664
40
0.074536457860398
40
0.10410154017933
40
0.163231704817193
40
0.192796787136124
40
0.222361869455056
40
0.281492034092919
40
0.311057116411851
40
0.340622198730783
40
0.370187281049714
40
0.399752363368646
40
0.429317445687577
40
0.458882528006509
40
0.518012692644372
40
0.532795233803838
40
0.547577774963304
40
0.577142857282235
40
0.606707939601167
40
0.636273021920099
40
0.66583810423903
40
0.695403186557962
40
0.724968268876894
40
0.754533351195825
40
0.784098433514757
40
0.813663515833688
40
0.84322859815262
40
0.872793680471552
40
0.902358762790483
40
0.931923845109415
40
0.961488927428346
40
0.991054009747278
40
1
40
1
40
1
40
1
41
1
10
26.4559927740281
20
0.570348695877982
30
0
41
1
10
26.4967035193703
20
0.535791245321633
30
0
41
1
10
26.6155392533279
20
0.434770621191348
30
-2E-16
41
1
10
26.8124999713074
20
0.266829637187925
30
-2E-16
41
1
10
27.0468749589672
20
0.0668056768467125
30
-2E-16
41
1
10
27.3593749663805
20
-0.19922582471537
30
0
41
1
10
27.6718749952242
20
-0.463109087684216
30
2E-16
41
1
10
27.9843750167624
20
-0.722358771711157
30
-1E-16
41
1
10
28.2968750315704
20
-0.977714593174881
30
1E-16
41
1
10
28.6093750334932
20
-1.22597435717387
30
2E-16
41
1
10
28.9218750169439
20
-1.46467957851127
30
-1E-16
41
1
10
29.1562500040388
20
-1.63843943736992
30
-2E-16
41
1
10
29.390624999392
20
-1.80624675612884
30
-2E-16
41
1
10
29.6249999988368
20
-1.96752713519919
30
2E-16
41
1
10
29.859374998201
20
-2.12171028730634
30
1E-16
41
1
10
30.1718749966795
20
-2.31699558591771
30
1E-16
41
1
10
30.4453124937178
20
-2.47372595250189
30
0
41
1
10
30.6796874889495
20
-2.59672347249219
30
-1E-16
41
1
10
30.8359374861221
20
-2.67571021804989
30
1E-16
41
1
10
31.0312499850191
20
-2.76838776160091
30
0
41
1
10
31.2656249932658
20
-2.86955615268437
30
1E-16
41
1
10
31.5000000015751
20
-2.96036367535706
30
1E-16
41
1
10
31.7343750004326
20
-3.04044432683062
30
0
41
1
10
31.9687499967166
20
-3.10948610541411
30
0
41
1
10
32.2031249973143
20
-3.16718902756514
30
1E-16
41
1
10
32.4375000000175
20
-3.2133109948403
30
0
41
1
10
32.6718750026161
20
-3.2476337564504
30
-1E-16
41
1
10
32.906250003723
20
-3.26999689989884
30
0
41
1
10
33.1406250019483
20
-3.28025479353241
30
0
41
1
10
33.3749999996829
20
-3.27833119635687
30
0
41
1
10
33.6093749993204
20
-3.26417681625887
30
0
41
1
10
33.8437499997796
20
-3.23780561764949
30
0
41
1
10
34.0781249999783
20
-3.19924840462431
30
-1E-16
41
1
10
34.2580145583503
20
-3.16038217049868
30
0
41
1
10
34.3597791166914
20
-3.13501677585134
30
0
41
1
10
34.3834186750357
20
-3.12894310241083
30
0
0
SPLINE
5
113
100
AcDbEntity
8
1
62
256
6
ByLayer
370
18
48
1
60
0
100
AcDbSpline
70
4
71
3
72
41
73
37
40
0
40
0
40
0
40
0
40
0.0206003644439854
40
0.0654045101240097
40
0.0878065829640222
40
0.110208655804034
40
0.15501280148406
40
0.177414874324073
40
0.199816947164084
40
0.244621092844109
40
0.267023165684122
40
0.289425238524134
40
0.33422938420416
40
0.356631457044172
40
0.379033529884184
40
0.42383767556421
40
0.446239748404222
40
0.468641821244235
40
0.51344596692426
40
0.535848039764272
40
0.558250112604285
40
0.60305425828431
40
0.625456331124322
40
0.647858403964335
40
0.69266254964436
40
0.715064622484372
40
0.737466695324385
40
0.78227084100441
40
0.804672913844423
40
0.827074986684435
40
0.87187913236446
40
0.894281205204472
40
0.916683278044485
40
0.96148742372451
40
0.983889496564522
40
1
40
1
40
1
40
1
41
1
10
47.0953624129723
20
1.7146997182366
30
0
41
1
10
47.1312832737104
20
1.69029245819129
30
0
41
1
10
47.2453291353473
20
1.61173914484624
30
2E-16
41
1
10
47.398437499194
20
1.50198963043502
30
0
41
1
10
47.5546875024353
20
1.38595687723384
30
-1E-16
41
1
10
47.7109375052025
20
1.26738848240092
30
1E-16
41
1
10
47.867187506598
20
1.14530867724306
30
0
41
1
10
48.0234375052995
20
1.02024114161668
30
-2E-16
41
1
10
48.1796875029451
20
0.893357078633073
30
1E-16
41
1
10
48.3359375001205
20
0.76406044593142
30
0
41
1
10
48.4921874990531
20
0.632929057605764
30
-2E-16
41
1
10
48.6484374991404
20
0.500767215268581
30
2E-16
41
1
10
48.8046875009322
20
0.367382283395642
30
0
41
1
10
48.9609375043737
20
0.233387390034636
30
-1E-16
41
1
10
49.1171875067645
20
0.0991927871504004
30
2E-16
41
1
10
49.2734375043543
20
-0.0349734583401755
30
1E-16
41
1
10
49.4296874906888
20
-0.168472735054877
30
0
41
1
10
49.5859374741953
20
-0.301311251197404
30
-2E-16
41
1
10
49.7421874604825
20
-0.432832580688967
30
1E-16
41
1
10
49.8984374636019
20
-0.562387350835195
30
0
41
1
10
50.0546874751333
20
-0.690413283176554
30
-2E-16
41
1
10
50.210937495048
20
-0.81583211522036
30
1E-16
41
1
10
50.3671875148827
20
-0.938005238645133
30
0
41
1
10
50.5234375326183
20
-1.05779741963445
30
-2E-16
41
1
10
50.6796875441345
20
-1.17371857190574
30
1E-16
41
1
10
50.8359375432802
20
-1.28514630852308
30
-1E-16
41
1
10
50.9921875337711
20
-1.39337658354523
30
-1E-16
41
1
10
51.1484375106903
20
-1.49654524243078
30
0
41
1
10
51.304687472849
20
-1.5940879607997
30
0
41
1
10
51.4609374345595
20
-1.68768731029954
30
0
41
1
10
51.6171874096962
20
-1.77512863590056
30
-1E-16
41
1
10
51.7734374264741
20
-1.85588451577854
30
-1E-16
41
1
10
51.9296874594478
20
-1.93202512803012
30
1E-16
41
1
10
52.085937499324
20
-2.00105760764291
30
0
41
1
10
52.2312168993381
20
-2.05824616328579
30
-1E-16
41
1
10
52.2983712886733
20
-2.08277556848557
30
0
41
1
10
52.3264631771886
20
-2.09269834351139
30
0
0
SPLINE
5
114
100
AcDbEntity
8
1
62
256
6
ByLayer
370
18
48
1
60
0
100
AcDbSpline
70
4
71
3
72
31
73
27
40
0
40
0
40
0
40
0
40
0.0755628322246089
40
0.113344735670032
40
0.151126639115456
40
0.188908542560879
40
0.226690446006303
40
0.264472349451726
40
0.30225425289715
40
0.340036156342573
40
0.377818059787996
40
0.41559996323342
40
0.453381866678844
40
0.491163770124267
40
0.52894567356969
40
0.604509480460537
40
0.642291383905961
40
0.680073287351384
40
0.755637094242231
40
0.793418997687655
40
0.831200901133078
40
0.868982804578502
40
0.906764708023925
40
0.944546611469349
40
0.982328514914772
40
1
40
1
40
1
40
1
41
0.993741102609707
10
24.0000060462113
20
-1.1558470614463
30
0
41
0.993741725844814
10
24.156253912832
20
-1.27885329248133
30
-1E-16
41
0.993744173711004
10
24.390626985005
20
-1.45952040949704
30
-1E-16
41
0.993749272127726
10
24.7031249997135
20
-1.69032849822484
30
0
41
0.993755625148316
10
24.9375000001652
20
-1.85796500196146
30
-1E-16
41
0.993763748302265
10
25.1718749996254
20
-2.01965480517317
30
-2E-16
41
0.993773614633142
10
25.4062499972335
20
-2.17486952710881
30
2E-16
41
0.993785197307342
10
25.6406249921391
20
-2.32308847762633
30
1E-16
41
0.993798469558857
10
25.8749999964221
20
-2.46388422079769
30
0
41
0.993813404357452
10
26.1093750221722
20
-2.5968337566475
30
-1E-16
41
0.993829974973974
10
26.3437500370551
20
-2.72151117679972
30
2E-16
41
0.993848154702941
10
26.5781250087246
20
-2.83750231404294
30
0
41
0.993867916855155
10
26.8124999713075
20
-2.9444261952826
30
-2E-16
41
0.99388923450984
10
27.0468749589681
20
-3.04191008534256
30
0
41
0.993915750297134
10
27.3593749663813
20
-3.15883439746553
30
1E-16
41
0.993944272053797
10
27.6718749952242
20
-3.25570537499622
30
1E-16
41
0.993974740732679
10
27.9843750167623
20
-3.33137189390424
30
0
41
0.994007125129378
10
28.2968750315706
20
-3.39266033936621
30
0
41
0.994041394843909
10
28.6093750334934
20
-3.4320971360892
30
0
41
0.994077486672266
10
28.9218750169436
20
-3.44905322713519
30
0
41
0.994110193182931
10
29.1562500040388
20
-3.45050158843918
30
0
41
0.994144217163232
10
29.3906249993922
20
-3.44061129393883
30
0
41
0.994179532529282
10
29.6249999988368
20
-3.4193676805015
30
0
41
0.994216112907055
10
29.859374998201
20
-3.38677100592341
30
0
41
0.994243121263731
10
30.0521691495704
20
-3.35068581826189
30
0
41
0.994260029766973
10
30.1668368838281
20
-3.32524553468728
30
0
41
0.994265511903844
10
30.2033780656598
20
-3.31673670597027
30
0
0
SPLINE
5
115
100
AcDbEntity
8
1
62
256
6
ByLayer
370
18
48
1
60
0
100
AcDbSpline
70
4
71
3
72
56
73
52
40
0
40
0
40
0
40
0
40
0.0125871536544562
40
0.0283951589471874
40
0.0442031642399187
40
0.0758191748253812
40
0.0916271801181124
40
0.107435185410844
40
0.139051195996306
40
0.154859201289037
40
0.170667206581768
40
0.202283217167231
40
0.218091222459962
40
0.233899227752693
40
0.265515238338156
40
0.281323243630887
40
0.297131248923618
40
0.32874725950908
40
0.344555264801812
40
0.360363270094543
40
0.391979280680005
40
0.407787285972736
40
0.423595291265468
40
0.45521130185093
40
0.471019307143661
40
0.486827312436392
40
0.518443323021855
40
0.534251328314586
40
0.550059333607317
40
0.581675344192779
40
0.597483349485511
40
0.613291354778242
40
0.644907365363704
40
0.660715370656435
40
0.676523375949166
40
0.708139386534629
40
0.72394739182736
40
0.739755397120091
40
0.771371407705554
40
0.787179412998285
40
0.802987418291016
40
0.834603428876479
40
0.85041143416921
40
0.866219439461941
40
0.897835450047404
40
0.913643455340135
40
0.929451460632866
40
0.961067471218328
40
0.976875476511059
40
0.992683481803791
40
1
40
1
40
1
40
1
41
0.998105436849361
10
44.0629424844494
20
1.63763729793943
30
-1E-16
41
0.998115419772823
10
44.0940457040725
20
1.6155262067492
30
-1E-16
41
0.998137899648376
10
44.164210551661
20
1.56517150210255
30
-1E-16
41
0.998172747683878
10
44.2734374970488
20
1.48518435975588
30
1E-16
41
0.998222240551958
10
44.4296874957505
20
1.36834304651645
30
-1E-16
41
0.998271368374957
10
44.5859374973269
20
1.248138383603
30
2E-16
41
0.998320103405725
10
44.7421875057405
20
1.12503079915141
30
0
41
0.998368439066469
10
44.8984375158608
20
1.00013462986102
30
-1E-16
41
0.998416367065645
10
45.0546875242593
20
0.872837285749065
30
2E-16
41
0.998463859562179
10
45.2109375223686
20
0.743642725157364
30
0
41
0.998510909917612
10
45.367187515317
20
0.613345417964953
30
-1E-16
41
0.998557509899905
10
45.523437503082
20
0.481685532409042
30
2E-16
41
0.998603631942304
10
45.6796874907774
20
0.349198712946253
30
1E-16
41
0.998649269188582
10
45.8359374802264
20
0.216334945222668
30
-1E-16
41
0.998694413439963
10
45.9921874750062
20
0.0832015114526396
30
-2E-16
41
0.998739037374933
10
46.1484374805214
20
-0.0496445202265236
30
1E-16
41
0.998783133836597
10
46.3046874899427
20
-0.182115309046034
30
0
41
0.998826694538822
10
46.4609375003359
20
-0.313728293948751
30
-2E-16
41
0.998869692234785
10
46.6171875019265
20
-0.443914457753943
30
2E-16
41
0.998912119699832
10
46.7734374997719
20
-0.572962282408332
30
0
41
0.998953968724039
10
46.9296874951898
20
-0.700017321782868
30
-1E-16
41
0.998995212653799
10
47.0859374945611
20
-0.824516141634656
30
2E-16
41
0.999035843736676
10
47.2421874959015
20
-0.947122348268043
30
0
41
0.999075853546173
10
47.3984374991939
20
-1.06661687667347
30
-2E-16
41
0.999115215383622
10
47.5546875024353
20
-1.18244786251137
30
1E-16
41
0.999153921495243
10
47.7109375052027
20
-1.29565450243128
30
-1E-16
41
0.99919196349592
10
47.8671875065981
20
-1.40467531773257
30
2E-16
41
0.999229315472009
10
48.0234375052994
20
-1.50899260680971
30
0
41
0.999265969076953
10
48.179687502945
20
-1.61000099229823
30
0
41
0.999301915671582
10
48.3359375001204
20
-1.70582231958487
30
0
41
0.999337129435495
10
48.4921874990531
20
-1.79597849939244
30
0
41
0.999371601867954
10
48.6484374991404
20
-1.88220074327139
30
0
41
0.999405324211191
10
48.8046875009321
20
-1.96233324570249
30
-1E-16
41
0.999438271351159
10
48.9609375043739
20
-2.03595759914545
30
1E-16
41
0.999470434332743
10
49.1171875067649
20
-2.10510608780986
30
0
41
0.999501804172297
10
49.2734375043545
20
-2.16739080279537
30
0
41
0.999532356228566
10
49.4296874906884
20
-2.22246290694006
30
1E-16
41
0.999562081116714
10
49.5859374741947
20
-2.2726148377297
30
0
41
0.999590969531222
10
49.7421874604822
20
-2.31528095987416
30
0
41
0.999618997350226
10
49.8984374636024
20
-2.35019531834636
30
0
41
0.999646154902546
10
50.0546874751336
20
-2.37986008094482
30
0
41
0.999672432658945
10
50.2109374950479
20
-2.40159380959015
30
0
41
0.999697807369234
10
50.3671875148829
20
-2.41522477711205
30
0
41
0.999722268658474
10
50.5234375326186
20
-2.42340512972279
30
0
41
0.999745806446968
10
50.6796875441346
20
-2.42340363345565
30
0
41
0.999768397873519
10
50.8359375432801
20
-2.41514890032401
30
0
41
0.999790032498745
10
50.9921875337711
20
-2.40138334257729
30
0
41
0.999810700036898
10
51.1484375106907
20
-2.37940436442751
30
0
41
0.999830378863844
10
51.3046874728484
20
-2.349259494755
30
0
41
0.999841879479638
10
51.4008926817146
20
-2.32736326341509
30
0
41
0.999848530103918
10
51.458035086788
20
-2.31292665788021
30
0
41
0.99985061619842
10
51.4761146852401
20
-2.30821633998963
30
0
0
SPLINE
5
116
100
AcDbEntity
8
1
62
256
6
ByLayer
370
18
48
1
60
0
100
AcDbSpline
70
4
71
3
72
10
73
6
40
0
40
0
40
0
40
0
40
0.556122441002057
40
0.834183661503086
40
1
40
1
40
1
40
1
41
1
10
24
20
1.1812572717742
30
-1E-16
41
1
10
24.1562498820927
20
1.04827243114724
30
2E-16
41
1
10
24.3906249695767
20
0.84612059800267
30
-2E-16
41
1
10
24.6715883034493
20
0.600954873559147
30
0
41
1
10
24.7963016128541
20
0.491719729802981
30
0
41
1
10
24.8428899200513
20
0.450877462104671
30
0
0
SPLINE
5
117
100
AcDbEntity
8
1
62
256
6
ByLayer
370
18
48
1
60
0
100
AcDbSpline
70
4
71
3
72
44
73
40
40
0
40
0
40
0
40
0
40
0.0145499753124997
40
0.0357797668694428
40
0.057009558426387
40
0.0994691415402749
40
0.120698933097219
40
0.141928724654162
40
0.184388307768049
40
0.205618099324993
40
0.226847890881938
40
0.269307473995825
40
0.290537265552768
40
0.311767057109713
40
0.3542266402236
40
0.375456431780544
40
0.396686223337487
40
0.439145806451375
40
0.460375598008318
40
0.481605389565262
40
0.52406497267915
40
0.545294764236093
40
0.566524555793037
40
0.608984138906924
40
0.630213930463869
40
0.651443722020812
40
0.693903305134699
40
0.715133096691643
40
0.736362888248587
40
0.778822471362475
40
0.800052262919419
40
0.821282054476362
40
0.863741637590249
40
0.884971429147193
40
0.906201220704138
40
0.948660803818024
40
0.969890595374968
40
0.991120386931911
40
1
40
1
40
1
40
1
41
1
10
42.2009347812816
20
2.7665597160572
30
0
41
1
10
42.2277065196584
20
2.77176611719261
30
0
41
1
10
42.2935407591013
20
2.78390076368399
30
0
41
1
10
42.3984374985977
20
2.800596512423
30
0
41
1
10
42.5546874999747
20
2.82077926500614
30
1E-16
41
1
10
42.71093750001
20
2.83388316681348
30
0
41
1
10
42.8671874999889
20
2.83981900322152
30
0
41
1
10
43.0234374999496
20
2.84097943646995
30
0
41
1
10
43.1796874999117
20
2.83496009539658
30
0
41
1
10
43.3359374999325
20
2.82174180872909
30
0
41
1
10
43.4921874999724
20
2.80375315359453
30
0
41
1
10
43.6484375000109
20
2.7786259257993
30
0
41
1
10
43.8046874999879
20
2.74641321191319
30
0
41
1
10
43.9609374997532
20
2.70953203844243
30
0
41
1
10
44.1171874989442
20
2.66570054440555
30
0
41
1
10
44.2734374970477
20
2.61504695102929
30
0
41
1
10
44.4296874957477
20
2.5599260107754
30
0
41
1
10
44.5859374973251
20
2.49819161770867
30
-1E-16
41
1
10
44.742187505744
20
2.43004599686313
30
1E-16
41
1
10
44.8984375158664
20
2.35773186957573
30
0
41
1
10
45.0546875242609
20
2.27928790409175
30
0
41
1
10
45.2109375223647
20
2.19498975225449
30
0
41
1
10
45.367187515314
20
2.10691802311513
30
-1E-16
41
1
10
45.523437503083
20
2.01334331985422
30
-1E-16
41
1
10
45.6796874907763
20
1.91461196139139
30
0
41
1
10
45.8359374802226
20
1.81259298246846
30
0
41
1
10
45.9921874750037
20
1.70583169753496
30
0
41
1
10
46.1484374805265
20
1.59473854842321
30
-2E-16
41
1
10
46.3046874899491
20
1.48092727803899
30
1E-16
41
1
10
46.4609375003372
20
1.36325896548624
30
-1E-16
41
1
10
46.6171875019227
20
1.24220562822015
30
2E-16
41
1
10
46.7734374997678
20
1.11907985438827
30
0
41
1
10
46.9296874951895
20
0.993090024551321
30
-1E-16
41
1
10
47.0859374945626
20
0.864755512635554
30
2E-16
41
1
10
47.2421874959027
20
0.735055680520617
30
1E-16
41
1
10
47.3984374991936
20
0.603576697663812
30
-1E-16
41
1
10
47.5546875024356
20
0.470883763537842
30
-2E-16
41
1
10
47.6491508597892
20
0.390296254139543
30
0
41
1
10
47.7045517162206
20
0.342928558544401
30
0
41
1
10
47.7208900720983
20
0.328951964121984
30
0
0
SPLINE
5
118
100
AcDbEntity
8
1
62
256
6
ByLayer
370
18
48
1
60
0
100
AcDbSpline
70
4
71
3
72
16
73
12
40
0
40
0
40
0
40
0
40
0.249999999999992
40
0.249999999999992
40
0.499999999999984
40
0.499999999999984
40
0.749999999999975
40
0.749999999999975
40
0.874999999999988
40
0.874999999999988
40
1
40
1
40
1
40
1
41
1
10
51.6308398906074
20
-2.34547014772528
30
1E-16
41
1
10
51.6896566421286
20
-2.36060005771108
30
0
41
1
10
51.7480609349936
20
-2.37199339820651
30
0
41
1
10
51.8645453831859
20
-2.38734555888797
30
0
41
1
10
51.9226238220071
20
-2.39130489904201
30
1E-16
41
1
10
52.0389440285873
20
-2.39162327706825
30
0
41
1
10
52.0971841035945
20
-2.38798408544198
30
0
41
1
10
52.1850620007323
20
-2.37652371221691
30
0
41
1
10
52.2144414777069
20
-2.37170128236238
30
0
41
1
10
52.2734496075988
20
-2.35997235682811
30
0
41
1
10
52.3029485799953
20
-2.35309061633359
30
0
41
1
10
52.3324371925799
20
-2.34518299570976
30
0
0
SPLINE
5
119
100
AcDbEntity
8
1
62
256
6
ByLayer
370
18
48
1
60
0
100
AcDbSpline
70
4
71
3
72
49
73
45
40
0
40
0
40
0
40
0
40
0.0134681613503959
40
0.0498508004089859
40
0.0680421199382806
40
0.0862334394675764
40
0.122616078526165
40
0.14080739805546
40
0.158998717584755
40
0.195381356643345
40
0.213572676172638
40
0.231763995701936
40
0.268146634760526
40
0.28633795428982
40
0.304529273819116
40
0.340911912877705
40
0.359103232407
40
0.377294551936295
40
0.413677190994885
40
0.43186851052418
40
0.450059830053475
40
0.486442469112065
40
0.50463378864136
40
0.522825108170656
40
0.559207747229245
40
0.57739906675854
40
0.595590386287835
40
0.631973025346425
40
0.650164344875719
40
0.668355664405015
40
0.704738303463605
40
0.722929622992899
40
0.741120942522195
40
0.777503581580784
40
0.795694901110079
40
0.813886220639374
40
0.850268859697964
40
0.868460179227259
40
0.886651498756554
40
0.923034137815144
40
0.941225457344439
40
0.959416776873734
40
0.995799415932324
40
1
40
1
40
1
40
1
41
1
10
40.0851138405282
20
2.13354372715275
30
0
41
1
10
40.1140342313392
20
2.12610932020709
30
0
41
1
10
40.2210796227628
20
2.0978079512918
30
0
41
1
10
40.3671875069862
20
2.05520313351309
30
0
41
1
10
40.5234374988045
20
2.00509880306623
30
0
41
1
10
40.6796874924689
20
1.95206249410265
30
1E-16
41
1
10
40.8359374938232
20
1.89464598947544
30
0
41
1
10
40.9921875126913
20
1.83300487816806
30
-1E-16
41
1
10
41.1484375357863
20
1.7686420776389
30
1E-16
41
1
10
41.3046875540936
20
1.70026145329814
30
0
41
1
10
41.4609375453807
20
1.62806631409347
30
0
41
1
10
41.6171875258686
20
1.55341814021895
30
-1E-16
41
1
10
41.7734375008989
20
1.47519861532075
30
1E-16
41
1
10
41.9296874919589
20
1.39365026149508
30
1E-16
41
1
10
42.0859374905811
20
1.30996945958231
30
0
41
1
10
42.2421874958974
20
1.22324421536041
30
0
41
1
10
42.3984374985962
20
1.13376095485543
30
0
41
1
10
42.5546874999735
20
1.04251916991373
30
0
41
1
10
42.7109375000102
20
0.948833713219557
30
0
41
1
10
42.8671874999888
20
0.853023517153474
30
2E-16
41
1
10
43.0234374999495
20
0.755872273058287
30
0
41
1
10
43.1796874999116
20
0.656943922940656
30
-2E-16
41
1
10
43.3359374999325
20
0.5565930078794
30
0
41
1
10
43.4921874999724
20
0.455361394528836
30
-2E-16
41
1
10
43.6484375000108
20
0.353075350434381
30
1E-16
41
1
10
43.8046874999881
20
0.250112002308668
30
-1E-16
41
1
10
43.9609374997539
20
0.146758828858765
30
1E-16
41
1
10
44.117187498945
20
0.043117554976817
30
-1E-16
41
1
10
44.2734374970461
20
-0.0604118168773766
30
1E-16
41
1
10
44.4296874957436
20
-0.163813215833784
30
-1E-16
41
1
10
44.5859374973226
20
-0.266705392441679
30
2E-16
41
1
10
44.7421875057494
20
-0.368678713780923
30
0
41
1
10
44.8984375158745
20
-0.469993236534208
30
2E-16
41
1
10
45.0546875242633
20
-0.569986623860018
30
0
41
1
10
45.2109375223589
20
-0.668243069891844
30
-2E-16
41
1
10
45.3671875153098
20
-0.765303936258761
30
0
41
1
10
45.5234375030844
20
-0.860232417265934
30
0
41
1
10
45.6796874907748
20
-0.952618627217419
30
0
41
1
10
45.8359374802171
20
-1.04328079056674
30
0
41
1
10
45.9921874750002
20
-1.13101938090878
30
0
41
1
10
46.1484374805335
20
-1.21543803666375
30
0
41
1
10
46.3046874899579
20
-1.29762308733996
30
-1E-16
41
1
10
46.4308949770686
20
-1.36103569771476
30
-1E-16
41
1
10
46.5180399579331
20
-1.40314140055062
30
0
41
1
10
46.5270599368442
20
-1.4074815545199
30
0
0
SPLINE
5
11A
100
AcDbEntity
8
1
62
256
6
ByLayer
370
18
48
1
60
0
100
AcDbSpline
70
4
71
3
72
31
73
27
40
0
40
0
40
0
40
0
40
0.0749366995430689
40
0.112405049314603
40
0.149873399086138
40
0.187341748857672
40
0.224810098629207
40
0.262278448400741
40
0.299746798172276
40
0.33721514794381
40
0.374683497715344
40
0.412151847486879
40
0.449620197258413
40
0.487088547029948
40
0.524556896801482
40
0.599493596344551
40
0.636961946116086
40
0.67443029588762
40
0.749366995430689
40
0.786835345202223
40
0.824303694973758
40
0.861772044745292
40
0.899240394516827
40
0.936708744288361
40
0.974177094059896
40
1
40
1
40
1
40
1
41
1
10
24
20
-1.17106338436275
30
1E-16
41
1
10
24.1562498820028
20
-1.29509068230024
30
-1E-16
41
1
10
24.3906249695921
20
-1.47724479423584
30
-1E-16
41
1
10
24.7031249997143
20
-1.7099233050551
30
0
41
1
10
24.9375000001651
20
-1.87890568953455
30
0
41
1
10
25.1718749996253
20
-2.04187898502536
30
-1E-16
41
1
10
25.4062499972335
20
-2.19830879375857
30
-2E-16
41
1
10
25.6406249921395
20
-2.34766994143786
30
2E-16
41
1
10
25.8749999964223
20
-2.48953017421451
30
1E-16
41
1
10
26.1093750221714
20
-2.62346259157428
30
-1E-16
41
1
10
26.3437500370548
20
-2.74903597876389
30
-2E-16
41
1
10
26.578125008726
20
-2.86583317553621
30
1E-16
41
1
10
26.8124999713074
20
-2.97346861334569
30
-1E-16
41
1
10
27.0468749589672
20
-3.07156660964557
30
1E-16
41
1
10
27.3593749663805
20
-3.1891679085069
30
-1E-16
41
1
10
27.6718749952242
20
-3.28651197726091
30
-1E-16
41
1
10
27.9843750167624
20
-3.36243976292698
30
1E-16
41
1
10
28.2968750315704
20
-3.42383862474779
30
0
41
1
10
28.6093750334932
20
-3.46316857629009
30
0
41
1
10
28.9218750169439
20
-3.47979829928542
30
0
41
1
10
29.1562500040388
20
-3.48088436460193
30
0
41
1
10
29.390624999392
20
-3.47051963833499
30
0
41
1
10
29.6249999988368
20
-3.4486887845363
30
0
41
1
10
29.859374998201
20
-3.41539422776182
30
0
41
1
10
30.0694681618457
20
-3.37535118697858
30
0
41
1
10
30.2014363254277
20
-3.34487979741974
30
0
41
1
10
30.2552794895553
20
-3.33156915023383
30
0
0
SPLINE
5
11B
100
AcDbEntity
8
1
62
256
6
ByLayer
370
18
48
1
60
0
100
AcDbSpline
70
4
71
3
72
56
73
52
40
0
40
0
40
0
40
0
40
0.0155638583658235
40
0.0312651032369726
40
0.0469663481081216
40
0.0783688378504197
40
0.0940700827215688
40
0.109771327592718
40
0.141173817335016
40
0.156875062206165
40
0.172576307077314
40
0.203978796819612
40
0.219680041690761
40
0.23538128656191
40
0.266783776304209
40
0.282485021175358
40
0.298186266046507
40
0.329588755788805
40
0.345290000659954
40
0.360991245531103
40
0.392393735273401
40
0.40809498014455
40
0.4237962250157
40
0.455198714757997
40
0.470899959629146
40
0.486601204500295
40
0.518003694242594
40
0.533704939113743
40
0.549406183984892
40
0.58080867372719
40
0.596509918598339
40
0.612211163469488
40
0.643613653211786
40
0.659314898082935
40
0.675016142954084
40
0.706418632696383
40
0.722119877567532
40
0.737821122438681
40
0.769223612180979
40
0.784924857052128
40
0.800626101923277
40
0.832028591665575
40
0.847729836536724
40
0.863431081407873
40
0.894833571150171
40
0.91053481602132
40
0.926236060892469
40
0.957638550634768
40
0.973339795505917
40
0.989041040377066
40
1
40
1
40
1
40
1
41
1
10
44.0400878944711
20
1.65398981068049
30
-1E-16
41
1
10
44.078808595849
20
1.62623775187748
30
-1E-16
41
1
10
44.1565917968651
20
1.56982651944077
30
-1E-16
41
1
10
44.2734374970489
20
1.48319092061519
30
1E-16
41
1
10
44.4296874957506
20
1.36492214423126
30
-1E-16
41
1
10
44.585937497327
20
1.2432998150806
30
2E-16
41
1
10
44.7421875057402
20
1.11879110616036
30
0
41
1
10
44.8984375158603
20
0.992506070307968
30
-1E-16
41
1
10
45.0546875242592
20
0.863843222332349
30
2E-16
41
1
10
45.2109375223689
20
0.73331317696605
30
1E-16
41
1
10
45.3671875153171
20
0.601702439876618
30
-1E-16
41
1
10
45.5234375030819
20
0.468765756593598
30
-2E-16
41
1
10
45.6796874907775
20
0.335045116186251
30
1E-16
41
1
10
45.8359374802268
20
0.200978948345522
30
0
41
1
10
45.9921874750064
20
0.0666923258972076
30
-2E-16
41
1
10
46.1484374805211
20
-0.0672518062585823
30
2E-16
41
1
10
46.3046874899422
20
-0.200780591396096
30
0
41
1
10
46.4609375003357
20
-0.33339082422367
30
-1E-16
41
1
10
46.6171875019268
20
-0.464508259958762
30
2E-16
41
1
10
46.7734374997722
20
-0.594439528760972
30
1E-16
41
1
10
46.9296874951898
20
-0.722307150142825
30
-1E-16
41
1
10
47.085937494561
20
-0.84754329474012
30
2E-16
41
1
10
47.2421874959014
20
-0.970832490679555
30
1E-16
41
1
10
47.398437499194
20
-1.09093077610228
30
-1E-16
41
1
10
47.5546875024353
20
-1.20728284517554
30
2E-16
41
1
10
47.7109375052025
20
-1.32095114917502
30
0
41
1
10
47.867187506598
20
-1.43034808032996
30
-2E-16
41
1
10
48.0234375052995
20
-1.5349536230533
30
0
41
1
10
48.1796875029451
20
-1.63618740633382
30
1E-16
41
1
10
48.3359375001205
20
-1.73214458305466
30
1E-16
41
1
10
48.4921874990531
20
-1.82234595136416
30
1E-16
41
1
10
48.6484374991404
20
-1.90854886293965
30
0
41
1
10
48.8046875009322
20
-1.98857098490953
30
0
41
1
10
48.9609375043737
20
-2.06199409665137
30
-1E-16
41
1
10
49.1171875067645
20
-2.13087705123416
30
1E-16
41
1
10
49.2734375043543
20
-2.19280632693813
30
0
41
1
10
49.4296874906888
20
-2.24743460826667
30
-1E-16
41
1
10
49.5859374741953
20
-2.29708059200576
30
1E-16
41
1
10
49.7421874604825
20
-2.33915471227951
30
0
41
1
10
49.8984374636019
20
-2.37339389332993
30
0
41
1
10
50.0546874751333
20
-2.40232545677716
30
0
41
1
10
50.210937495048
20
-2.42324644221938
30
0
41
1
10
50.3671875148827
20
-2.43598928529559
30
0
41
1
10
50.5234375326183
20
-2.4432294377273
30
0
41
1
10
50.6796875441345
20
-2.4422172822045
30
0
41
1
10
50.8359375432802
20
-2.43288686679711
30
0
41
1
10
50.9921875337711
20
-2.4180012469638
30
0
41
1
10
51.1484375106903
20
-2.39484320290774
30
0
41
1
10
51.304687472849
20
-2.36346678100173
30
0
41
1
10
51.410076804963
20
-2.3386258486623
30
0
41
1
10
51.4764036498752
20
-2.32105325330213
30
0
41
1
10
51.5036680034048
20
-2.31350444043147
30
0
0
SPLINE
5
11C
100
AcDbEntity
8
1
62
256
6
ByLayer
370
18
48
1
60
0
100
AcDbSpline
70
4
71
3
72
15
73
11
40
0
40
0
40
0
40
0
40
0.249580405895867
40
0.374372218481688
40
0.499164031067509
40
0.62395584365333
40
0.748747656239151
40
0.873539468824972
40
0.998331281410794
40
1
40
1
40
1
40
1
41
0.993741102609707
10
24.0000060462113
20
-3.62322623564656
30
1E-16
41
0.993741725844814
10
24.156253912832
20
-3.64266491934514
30
0
41
0.993744173711004
10
24.390626985005
20
-3.66150799252152
30
0
41
0.993749272127726
10
24.7031249997135
20
-3.66510099792099
30
0
41
0.993755625148316
10
24.9375000001652
20
-3.65710590896693
30
0
41
0.993763748302265
10
25.1718749996254
20
-3.63848946804883
30
0
41
0.993773614633142
10
25.4062499972335
20
-3.60921115743347
30
0
41
0.993785197307342
10
25.6406249921391
20
-3.56925030303535
30
0
41
0.993794104633955
10
25.7979203749277
20
-3.53535671295923
30
0
41
0.993798872427995
10
25.8770904880409
20
-3.51651930173212
30
0
41
0.993798935391284
10
25.8781351778049
20
-3.5162704230068
30
0
0
SPLINE
5
11D
100
AcDbEntity
8
1
62
256
6
ByLayer
370
18
48
1
60
0
100
AcDbSpline
70
4
71
3
72
57
73
53
40
0
40
0
40
0
40
0
40
0.0035256705183825
40
0.018924658928022
40
0.0343236473376632
40
0.0651216241569451
40
0.0805206125665842
40
0.095919600976227
40
0.126717577795508
40
0.142116566205148
40
0.15751555461479
40
0.188313531434071
40
0.203712519843711
40
0.219111508253352
40
0.249909485072633
40
0.265308473482273
40
0.280707461891914
40
0.311505438711196
40
0.326904427120836
40
0.342303415530478
40
0.373101392349759
40
0.3885003807594
40
0.40389936916904
40
0.434697345988321
40
0.450096334397962
40
0.465495322807602
40
0.496293299626884
40
0.511692288036525
40
0.527091276446165
40
0.557889253265446
40
0.573288241675087
40
0.588687230084728
40
0.619485206904009
40
0.63488419531365
40
0.65028318372329
40
0.681081160542572
40
0.696480148952213
40
0.711879137361853
40
0.742677114181134
40
0.758076102590776
40
0.773475091000416
40
0.804273067819697
40
0.819672056229338
40
0.835071044638979
40
0.86586902145826
40
0.8812680098679
40
0.896666998277541
40
0.927464975096823
40
0.942863963506464
40
0.958262951916104
40
0.989060928735386
40
1
40
1
40
1
40
1
41
0.997022890511394
10
40.8481725877684
20
1.54931061365528
30
0
41
0.997025986411251
10
40.8571160404142
20
1.54263867433442
30
0
41
0.997042603090494
10
40.9051210501997
20
1.50674770680618
30
0
41
0.997072729233868
10
40.9921875126672
20
1.44089769010933
30
2E-16
41
0.997126735853622
10
41.1484375357484
20
1.32063614233852
30
0
41
0.997180676590297
10
41.3046875540805
20
1.19749720235771
30
-1E-16
41
0.997234523204524
10
41.4609375454112
20
1.07191282331518
30
2E-16
41
0.997288269955402
10
41.6171875259035
20
0.944828712240805
30
0
41
0.997341907968187
10
41.7734375009038
20
0.815756141948924
30
-1E-16
41
0.997395409562925
10
41.9296874919426
20
0.685153718905452
30
2E-16
41
0.997448768578242
10
42.0859374905667
20
0.553676465752098
30
0
41
0.997501976080729
10
42.2421874958981
20
0.421157450497202
30
-1E-16
41
0.997555003707027
10
42.3984374985987
20
0.288085172095466
30
2E-16
41
0.997607845657563
10
42.5546874999755
20
0.15479747828894
30
1E-16
41
0.997660493320253
10
42.7109375000099
20
0.0214559905891718
30
-1E-16
41
0.997712918896226
10
42.8671874999889
20
-0.111440663681548
30
-2E-16
41
0.997765116157841
10
43.0234374999495
20
-0.243878434578091
30
1E-16
41
0.997817076433823
10
43.1796874999116
20
-0.375359767938005
30
0
41
0.997868771373475
10
43.3359374999324
20
-0.505375108226684
30
-1E-16
41
0.997920195015136
10
43.4921874999723
20
-0.634248309200915
30
2E-16
41
0.997971338951586
10
43.6484375000109
20
-0.761151563819817
30
0
41
0.998022175362062
10
43.8046874999878
20
-0.885584146537637
30
-1E-16
41
0.998072697878307
10
43.9609374997528
20
-1.00820306037365
30
1E-16
41
0.998122898046267
10
44.1171874989438
20
-1.12785731377556
30
0
41
0.998172747683878
10
44.2734374970488
20
-1.24405723841247
30
-2E-16
41
0.998222240551958
10
44.4296874957505
20
-1.35779214700066
30
1E-16
41
0.998271368374957
10
44.5859374973269
20
-1.46760690450531
30
-1E-16
41
0.998320103405725
10
44.7421875057405
20
-1.57304101865322
30
1E-16
41
0.998368439066469
10
44.8984375158608
20
-1.67539900972266
30
-1E-16
41
0.998416367065645
10
45.0546875242593
20
-1.77294399406452
30
2E-16
41
0.998463859562179
10
45.2109375223686
20
-1.86524982358067
30
-1E-16
41
0.998510909917612
10
45.367187515317
20
-1.95391912749138
30
-1E-16
41
0.998557509899905
10
45.523437503082
20
-2.03696574183247
30
1E-16
41
0.998603631942304
10
45.6796874907774
20
-2.11401310604305
30
1E-16
41
0.998649269188582
10
45.8359374802264
20
-2.18693213374101
30
0
41
0.998694413439963
10
45.9921874750062
20
-2.25352461250723
30
0
41
0.998739037374933
10
46.1484374805214
20
-2.31347082151771
30
1E-16
41
0.998783133836597
10
46.3046874899427
20
-2.3688767643061
30
0
41
0.998826694538822
10
46.4609375003359
20
-2.4173769987467
30
-1E-16
41
0.998869692234785
10
46.6171875019265
20
-2.45872011506358
30
0
41
0.998912119699832
10
46.7734374997719
20
-2.49520529287636
30
0
41
0.998953968724039
10
46.9296874951898
20
-2.5243500327634
30
0
41
0.998995212653799
10
47.0859374945611
20
-2.54597931990723
30
0
41
0.999035843736676
10
47.2421874959015
20
-2.5625378797961
30
0
41
0.999075853546173
10
47.3984374991939
20
-2.57148102150448
30
0
41
0.999115215383622
10
47.5546875024353
20
-2.57271719926935
30
0
41
0.999153921495243
10
47.7109375052027
20
-2.56878420091628
30
0
41
0.99919196349592
10
47.8671875065981
20
-2.55713445217288
30
0
41
0.999229315472009
10
48.0234375052994
20
-2.53776652236882
30
0
41
0.999265969076953
10
48.179687502945
20
-2.513253363919
30
0
41
0.999299312922144
10
48.324624438989
20
-2.48343396666565
30
0
41
0.999323221495722
10
48.4304995156279
20
-2.4570345125687
30
0
41
0.999329445668541
10
48.4582486288389
20
-2.44979974555103
30
0
0
SPLINE
5
11E
100
AcDbEntity
8
1
62
256
6
ByLayer
370
18
48
1
60
0
100
AcDbSpline
70
4
71
3
72
46
73
42
40
0
40
0
40
0
40
0
40
0.0028380041219041
40
0.0229882869897069
40
0.063288852725313
40
0.0834391355931157
40
0.10358941846092
40
0.143889984196524
40
0.164040267064328
40
0.184190549932131
40
0.224491115667736
40
0.244641398535537
40
0.264791681403341
40
0.305092247138947
40
0.32524253000675
40
0.345392812874553
40
0.385693378610158
40
0.40584366147796
40
0.425993944345763
40
0.46629451008137
40
0.486444792949171
40
0.506595075816977
40
0.546895641552581
40
0.567045924420384
40
0.587196207288188
40
0.627496773023793
40
0.647647055891595
40
0.667797338759398
40
0.708097904495004
40
0.728248187362807
40
0.74839847023061
40
0.788699035966215
40
0.808849318834018
40
0.828999601701822
40
0.869300167437427
40
0.88945045030523
40
0.909600733173033
40
0.949901298908639
40
0.970051581776441
40
0.990201864644244
40
1
40
1
40
1
40
1
41
1
10
38.6319326444124
20
2.95672495115835
30
0
41
1
10
38.6374342807948
20
2.9577654242965
30
0
41
1
10
38.6819984145676
20
2.96610480788402
30
0
41
1
10
38.8046875376643
20
2.98708754076284
30
0
41
1
10
38.9609375077384
20
3.00713000581501
30
-1E-16
41
1
10
39.1171874770417
20
3.02037277125729
30
0
41
1
10
39.2734374503198
20
3.02907441618243
30
0
41
1
10
39.4296874362925
20
3.03093765498747
30
0
41
1
10
39.5859374484173
20
3.02591708508334
30
0
41
1
10
39.7421874709304
20
3.01632407399146
30
0
41
1
10
39.8984374984731
20
2.99987757777575
30
0
41
1
10
40.0546875099396
20
2.97660124128345
30
0
41
1
10
40.2109375130145
20
2.94881092178005
30
0
41
1
10
40.3671875069828
20
2.91428364507465
30
1E-16
41
1
10
40.5234374988087
20
2.87310576300678
30
0
41
1
10
40.6796874924804
20
2.82755528447586
30
0
41
1
10
40.8359374938308
20
2.77550842332903
30
-1E-16
41
1
10
40.992187512676
20
2.7171131728914
30
1E-16
41
1
10
41.1484375357622
20
2.65456990858388
30
0
41
1
10
41.3046875540853
20
2.5858981072636
30
-1E-16
41
1
10
41.4609375453999
20
2.51131182603862
30
-1E-16
41
1
10
41.6171875258906
20
2.43288663325202
30
1E-16
41
1
10
41.773437500902
20
2.34882343559963
30
0
41
1
10
41.9296874919487
20
2.25939350830237
30
0
41
1
10
42.0859374905721
20
2.16651096666976
30
0
41
1
10
42.2421874958978
20
2.06859960553166
30
0
41
1
10
42.3984374985977
20
1.96599284715654
30
-2E-16
41
1
10
42.5546874999747
20
1.86039735372015
30
1E-16
41
1
10
42.71093750001
20
1.75049241684846
30
-1E-16
41
1
10
42.8671874999889
20
1.63666035996118
30
2E-16
41
1
10
43.0234374999496
20
1.52036881306279
30
0
41
1
10
43.1796874999117
20
1.40058741041128
30
-2E-16
41
1
10
43.3359374999325
20
1.27775073329482
30
1E-16
41
1
10
43.4921874999724
20
1.1530471588114
30
0
41
1
10
43.6484375000109
20
1.02576090530599
30
-2E-16
41
1
10
43.8046874999879
20
0.896362944324153
30
1E-16
41
1
10
43.9609374997532
20
0.765738145526313
30
0
41
1
10
44.1171874989442
20
0.63350960438791
30
-2E-16
41
1
10
44.2734374970477
20
0.50018477333478
30
2E-16
41
1
10
44.3705567537816
20
0.416976377620102
30
1E-16
41
1
10
44.4286135113702
20
0.367130549578349
30
0
41
1
10
44.4476077690031
20
0.350813944684489
30
0
0
SPLINE
5
11F
100
AcDbEntity
8
1
62
256
6
ByLayer
370
18
48
1
60
0
100
AcDbSpline
70
4
71
3
72
61
73
57
40
0
40
0
40
0
40
0
40
0.072825257011355
40
0.072825257011355
40
0.109237885517033
40
0.109237885517033
40
0.118341042643452
40
0.118341042643452
40
0.127444199769872
40
0.145650514022712
40
0.145650514022712
40
0.21847577103407
40
0.21847577103407
40
0.291301028045428
40
0.291301028045428
40
0.300404185171848
40
0.300404185171848
40
0.309507342298268
40
0.327713656551111
40
0.327713656551111
40
0.364126285056796
40
0.364126285056796
40
0.436951542068165
40
0.436951542068165
40
0.47336417057385
40
0.47336417057385
40
0.482467327700273
40
0.482467327700273
40
0.491570484826696
40
0.509776799079543
40
0.509776799079543
40
0.582602056090932
40
0.582602056090932
40
0.655427313102321
40
0.655427313102321
40
0.673633627355168
40
0.673633627355168
40
0.691839941608015
40
0.691839941608015
40
0.72825257011371
40
0.72825257011371
40
0.801077827125099
40
0.801077827125099
40
0.819284141377946
40
0.819284141377946
40
0.837490455630794
40
0.837490455630794
40
0.87390308413649
40
0.87390308413649
40
0.946728341147883
40
0.946728341147883
40
0.98314096965358
40
0.98314096965358
40
0.992244126780003
40
0.992244126780003
40
1
40
1
40
1
40
1
41
1
10
23.9999999999994
20
3.8542174508982
30
0
41
1
10
24.2893085965297
20
3.78394467208597
30
0
41
1
10
24.5767136168456
20
3.68934294361455
30
0
41
1
10
25.0087393931929
20
3.51266406638516
30
0
41
1
10
25.1529035759891
20
3.4479642629172
30
-1E-16
41
1
10
25.3337148849893
20
3.3599305327632
30
-1E-16
41
1
10
25.3699281387741
20
3.34195472763662
30
-1E-16
41
1
10
25.4422169522948
20
3.30539516639524
30
-2E-16
41
1
10
25.5505064359155
20
3.24961435464533
30
-1E-16
41
1
10
25.658412660318
20
3.191057409211
30
1E-16
41
1
10
26.0174578644129
20
2.98989944523143
30
1E-16
41
1
10
26.302649433313
20
2.80992601962709
30
1E-16
41
1
10
26.8740708701736
20
2.41616107672749
30
1E-16
41
1
10
27.1602747406509
20
2.2023503623526
30
2E-16
41
1
10
27.4858996811288
20
1.94470400513197
30
-1E-16
41
1
10
27.5221633811549
20
1.91581266685762
30
0
41
1
10
27.5945492695384
20
1.85776545418685
30
1E-16
41
1
10
27.7029752446471
20
1.7702522001033
30
-2E-16
41
1
10
27.8109906672732
20
1.68146760965132
30
1E-16
41
1
10
28.0266059936325
20
1.50235390910308
30
0
41
1
10
28.1697984129215
20
1.38088917678698
30
-1E-16
41
1
10
28.5987492634059
20
1.01147518282915
30
-1E-16
41
1
10
28.8838608879389
20
0.758496363685964
30
0
41
1
10
29.3143813554026
20
0.373373544490733
30
0
41
1
10
29.4583672325651
20
0.244057778717718
30
-1E-16
41
1
10
29.6394116425282
20
0.0817054497667868
30
-2E-16
41
1
10
29.6757092054723
20
0.0491677860818243
30
-1E-16
41
1
10
29.748166850187
20
-0.0157363554042718
30
0
41
1
10
29.8566933428446
20
-0.112877518307272
30
-2E-16
41
1
10
29.9647955575674
20
-0.209317598398599
30
0
41
1
10
30.3244275846431
20
-0.528987667418107
30
-1E-16
41
1
10
30.6098670308702
20
-0.778995037741993
30
0
41
1
10
31.1819685652989
20
-1.26133224655357
30
-2E-16
41
1
10
31.4685947952879
20
-1.49370278281785
30
-1E-16
41
1
10
31.8314749165656
20
-1.76859837776004
30
1E-16
41
1
10
31.9038821570038
20
-1.82249002646464
30
-2E-16
41
1
10
32.0482688546185
20
-1.92789654892394
30
1E-16
41
1
10
32.1202793339756
20
-1.97943497168365
30
2E-16
41
1
10
32.3359114735835
20
-2.1304584089936
30
1E-16
41
1
10
32.4791345253458
20
-2.22635406751917
30
-1E-16
41
1
10
32.9083582816206
20
-2.49883217726472
30
1E-16
41
1
10
33.1938867220438
20
-2.66027838645607
30
0
41
1
10
33.5539510972121
20
-2.8331745069232
30
0
41
1
10
33.6261233284205
20
-2.86630283388351
30
1E-16
41
1
10
33.7708932032518
20
-2.92954296625044
30
0
41
1
10
33.8436077778653
20
-2.95969510561321
30
1E-16
41
1
10
34.0607418352399
20
-3.04476062501306
30
0
41
1
10
34.2046478578328
20
-3.09452242776487
30
-1E-16
41
1
10
34.6350682261357
20
-3.22283440940163
30
0
41
1
10
34.9202749478946
20
-3.28048571587902
30
0
41
1
10
35.3503850357614
20
-3.32335148278088
30
0
41
1
10
35.4941379166434
20
-3.33035378974452
30
0
41
1
10
35.6748624871159
20
-3.32966015528587
30
0
41
1
10
35.7110592118154
20
-3.32904866528079
30
0
41
1
10
35.7782048655715
20
-3.32703107769331
30
0
41
1
10
35.8091376532375
20
-3.32575491991216
30
0
41
1
10
35.8400154925271
20
-3.3241358063043
30
0
0
SPLINE
5
120
100
AcDbEntity
8
1
62
256
6
ByLayer
370
18
48
1
60
0
100
AcDbSpline
70
4
71
3
72
48
73
44
40
0
40
0
40
0
40
0
40
0.0263579197373626
40
0.0263579197373626
40
0.0959037826132684
40
0.0959037826132684
40
0.165449645489174
40
0.165449645489174
40
0.200222576927127
40
0.200222576927127
40
0.234995508365079
40
0.234995508365079
40
0.304541371240989
40
0.304541371240989
40
0.374087234116898
40
0.374087234116898
40
0.408860165554851
40
0.408860165554851
40
0.426246631273825
40
0.426246631273825
40
0.4436330969928
40
0.513178959868698
40
0.513178959868698
40
0.582724822744597
40
0.582724822744597
40
0.652270685620495
40
0.652270685620495
40
0.66965715133947
40
0.66965715133947
40
0.687043617058444
40
0.687043617058444
40
0.721816548496397
40
0.721816548496397
40
0.791362411372298
40
0.791362411372298
40
0.8609082742482
40
0.8609082742482
40
0.895681205686151
40
0.913067671405127
40
0.913067671405127
40
0.930454137124102
40
0.930454137124102
40
1
40
1
40
1
40
1
41
1
10
45.401044198446
20
2.65452573785493
30
0
41
1
10
45.4554984006348
20
2.66837319188582
30
0
41
1
10
45.5099124418549
20
2.68100514627477
30
0
41
1
10
45.7078678239475
20
2.7225179522467
30
-1E-16
41
1
10
45.8513618108361
20
2.7441078286044
30
0
41
1
10
46.1394244743134
20
2.76973876706825
30
0
41
1
10
46.283992562348
20
2.77378079855464
30
0
41
1
10
46.5026232504476
20
2.76607008867779
30
0
41
1
10
46.5752721170479
20
2.76121796218766
30
0
41
1
10
46.7200737918624
20
2.74704851024697
30
0
41
1
10
46.792260044472
20
2.7377300558349
30
0
41
1
10
47.0084092258736
20
2.7031826431145
30
0
41
1
10
47.1519624212684
20
2.67136933940029
30
0
41
1
10
47.439233954608
20
2.59055955113237
30
0
41
1
10
47.5829471222626
20
2.54156223708509
30
0
41
1
10
47.7996042582816
20
2.45527232009212
30
0
41
1
10
47.8720044453686
20
2.42437452793709
30
1E-16
41
1
10
47.9810044733592
20
2.37481917669191
30
0
41
1
10
48.0174330425226
20
2.3577521948412
30
0
41
1
10
48.0903228677029
20
2.3226067584778
30
1E-16
41
1
10
48.2721704521717
20
2.23243669547597
30
1E-16
41
1
10
48.4524080678344
20
2.13103163173383
30
-1E-16
41
1
10
48.7400868963032
20
1.95563372405843
30
1E-16
41
1
10
48.8835679689824
20
1.8613542601818
30
1E-16
41
1
10
49.1711525505083
20
1.66064378340604
30
1E-16
41
1
10
49.3152502495766
20
1.55420876443497
30
-1E-16
41
1
10
49.4966413550035
20
1.41410281776558
30
-2E-16
41
1
10
49.5329835546627
20
1.3857284165197
30
-1E-16
41
1
10
49.6058193522313
20
1.32828532541083
30
0
41
1
10
49.6422936898538
20
1.29923096757295
30
1E-16
41
1
10
49.7513484254656
20
1.21156072998465
30
-2E-16
41
1
10
49.823766060345
20
1.15227588556783
30
0
41
1
10
50.0404396625383
20
0.972223638713047
30
-1E-16
41
1
10
50.1841177852859
20
0.849262406538941
30
-2E-16
41
1
10
50.4713368342297
20
0.599039902937392
30
-1E-16
41
1
10
50.6148809174283
20
0.471781995451863
30
-2E-16
41
1
10
50.8311848797694
20
0.278820475254122
30
-2E-16
41
1
10
50.9395855468914
20
0.181822090092652
30
0
41
1
10
51.0485754222687
20
0.0842674159205785
30
-2E-16
41
1
10
51.1213915633631
20
0.0191325533260169
30
0
41
1
10
51.1578483748789
20
-0.0134577326738281
30
0
41
1
10
51.3398597112293
20
-0.175943378584378
30
0
41
1
10
51.4851262596729
20
-0.304911144785365
30
-2E-16
41
1
10
51.6308398906074
20
-0.431966532504021
30
1E-16
0
SPLINE
5
121
100
AcDbEntity
8
1
62
256
6
ByLayer
370
18
48
1
60
0
100
AcDbSpline
70
4
71
3
72
34
73
30
40
0
40
0
40
0
40
0
40
0.106609804275129
40
0.106609804275129
40
0.213219608550259
40
0.213219608550259
40
0.319829412825388
40
0.319829412825388
40
0.346481863894169
40
0.346481863894169
40
0.37313431496295
40
0.37313431496295
40
0.426439217100512
40
0.426439217100512
40
0.53304902137563
40
0.53304902137563
40
0.639658825650748
40
0.639658825650748
40
0.692963727788307
40
0.692963727788307
40
0.719616178857084
40
0.719616178857084
40
0.746268629925861
40
0.746268629925861
40
0.852878434200974
40
0.852878434200974
40
0.959488238476087
40
0.959488238476087
40
1
40
1
40
1
40
1
41
1
10
51.6308398906074
20
0.416881665257961
30
-1E-16
41
1
10
51.4848551728695
20
0.547295773598336
30
1E-16
41
1
10
51.3401550335774
20
0.675428406823471
30
2E-16
41
1
10
51.0516593176707
20
0.925597023020856
30
1E-16
41
1
10
50.9078898835027
20
1.04765989441879
30
2E-16
41
1
10
50.6197666201595
20
1.28420374421876
30
1E-16
41
1
10
50.4754384170323
20
1.39871025207114
30
-2E-16
41
1
10
50.2937332476014
20
1.53609712590813
30
0
41
1
10
50.2573269137067
20
1.56328637064121
30
-1E-16
41
1
10
50.1843612467623
20
1.61706279112874
30
2E-16
41
1
10
50.1479162199622
20
1.64356527924002
30
-1E-16
41
1
10
50.0388318043248
20
1.72177412037288
30
0
41
1
10
49.9663708660051
20
1.77223854546131
30
1E-16
41
1
10
49.7494596371918
20
1.91845431920228
30
-1E-16
41
1
10
49.6054921556011
20
2.00904624347584
30
0
41
1
10
49.3174327652798
20
2.1756454286857
30
0
41
1
10
49.1733189749963
20
2.25163955322336
30
1E-16
41
1
10
48.9560137270673
20
2.35389827358611
30
0
41
1
10
48.8833795902634
20
2.3860218812371
30
0
41
1
10
48.7740020332552
20
2.43114701319885
30
1E-16
41
1
10
48.7375569963869
20
2.44564261695859
30
0
41
1
10
48.6648548329313
20
2.47347052830699
30
0
41
1
10
48.6285693403773
20
2.48681462309503
30
-1E-16
41
1
10
48.4474116688309
20
2.55069300341216
30
0
41
1
10
48.3033161695295
20
2.59270501539029
30
0
41
1
10
48.015471878353
20
2.6585826527043
30
0
41
1
10
47.8716968091818
20
2.68244266648782
30
0
41
1
10
47.6726038710546
20
2.70265450951163
30
0
41
1
10
47.617710977018
20
2.70688795501789
30
0
41
1
10
47.5627056901037
20
2.70977575154811
30
0
0
SPLINE
5
122
100
AcDbEntity
8
1
62
256
6
ByLayer
370
18
48
1
60
0
100
AcDbSpline
70
4
71
3
72
82
73
78
40
0
40
0
40
0
40
0
40
0.0154598035281405
40
0.0154598035281405
40
0.0472048268093243
40
0.0472048268093243
40
0.0551410826296199
40
0.0551410826296199
40
0.0630773384499154
40
0.0630773384499154
40
0.0789498500905064
40
0.0789498500905064
40
0.110694873371688
40
0.110694873371688
40
0.174184919934051
40
0.174184919934051
40
0.182121175754346
40
0.182121175754346
40
0.190057431574641
40
0.190057431574641
40
0.20592994321523
40
0.20592994321523
40
0.23767496649641
40
0.23767496649641
40
0.301165013058769
40
0.301165013058769
40
0.317037524699359
40
0.317037524699359
40
0.324973780519654
40
0.324973780519654
40
0.332910036339949
40
0.364655059621131
40
0.364655059621131
40
0.428145106183497
40
0.428145106183497
40
0.44401761782409
40
0.451953873644386
40
0.451953873644386
40
0.459890129464682
40
0.459890129464682
40
0.491635152745867
40
0.491635152745867
40
0.523380176027052
40
0.523380176027052
40
0.555125199308236
40
0.555125199308236
40
0.570997710948829
40
0.570997710948829
40
0.586870222589421
40
0.586870222589421
40
0.594806478409716
40
0.594806478409716
40
0.602742734230012
40
0.602742734230012
40
0.618615245870601
40
0.618615245870601
40
0.682105292432958
40
0.682105292432958
40
0.713850315714137
40
0.713850315714137
40
0.745595338995316
40
0.745595338995316
40
0.809085385557673
40
0.809085385557673
40
0.840830408838852
40
0.840830408838852
40
0.872575432120031
40
0.872575432120031
40
0.888447943760621
40
0.888447943760621
40
0.90432045540121
40
0.90432045540121
40
0.93606547868239
40
0.93606547868239
40
0.999555525244749
40
0.999555525244749
40
1
40
1
40
1
40
1
41
1
10
38.4400984667765
20
-3.01038112046604
30
1E-16
41
1
10
38.3705663687351
20
-3.03466480352432
30
0
41
1
10
38.3009844073225
20
-3.05720215875965
30
0
41
1
10
38.0882018843309
20
-3.12063290014322
30
0
41
1
10
37.9447088060239
20
-3.15586798085215
30
0
41
1
10
37.7642838240197
20
-3.19031377588112
30
0
41
1
10
37.7281451516553
20
-3.19672236712901
30
0
41
1
10
37.6557448277497
20
-3.20856807142582
30
0
41
1
10
37.6195697976907
20
-3.21399053192144
30
0
41
1
10
37.5112516672601
20
-3.22874439036684
30
0
41
1
10
37.4392491704164
20
-3.23657363570425
30
0
41
1
10
37.2236836755389
20
-3.25413255212166
30
0
41
1
10
37.0805602581445
20
-3.25793927292
30
0
41
1
10
36.6515381048305
20
-3.24616630394061
30
-1E-16
41
1
10
36.3660046262609
20
-3.20747741682049
30
0
41
1
10
36.041231193603
20
-3.12954922568687
30
0
41
1
10
36.0050957480038
20
-3.12041095310957
30
0
41
1
10
35.9327109596726
20
-3.10117326950552
30
-1E-16
41
1
10
35.8964497766531
20
-3.09106930017643
30
-1E-16
41
1
10
35.7879427383577
20
-3.05945517950971
30
1E-16
41
1
10
35.7158196159866
20
-3.03660426027494
30
0
41
1
10
35.4999180073265
20
-2.96289499793869
30
1E-16
41
1
10
35.3566062533593
20
-2.90688526443293
30
-1E-16
41
1
10
34.9271996100714
20
-2.71937151411927
30
2E-16
41
1
10
34.6416376557859
20
-2.56844748860175
30
-2E-16
41
1
10
34.281309851368
20
-2.34998792727245
30
2E-16
41
1
10
34.2090751014884
20
-2.30480074650905
30
1E-16
41
1
10
34.1003857434651
20
-2.23481191284324
30
-1E-16
41
1
10
34.0641257872984
20
-2.21113036114426
30
-1E-16
41
1
10
33.9917785623172
20
-2.16323949383994
30
2E-16
41
1
10
33.8111684699702
20
-2.04207929547036
30
-1E-16
41
1
10
33.6316639672883
20
-1.9139791232079
30
0
41
1
10
33.2017036013433
20
-1.59465860949348
30
2E-16
41
1
10
32.9161966133557
20
-1.36597412756791
30
1E-16
41
1
10
32.5566948883266
20
-1.06440623121972
30
-2E-16
41
1
10
32.4486489270885
20
-0.972752211560874
30
1E-16
41
1
10
32.3401948909815
20
-0.879424744838786
30
-2E-16
41
1
10
32.2677881950667
20
-0.816845926457262
30
1E-16
41
1
10
32.2314969107523
20
-0.785344820562131
30
1E-16
41
1
10
32.0503659207997
20
-0.627507420600892
30
1E-16
41
1
10
31.9063020978326
20
-0.500013502931694
30
-2E-16
41
1
10
31.6190295366559
20
-0.243512799463076
30
1E-16
41
1
10
31.475823007485
20
-0.114503532250097
30
-2E-16
41
1
10
31.1894971605706
20
0.14416433185994
30
1E-16
41
1
10
31.0463692113274
20
0.273813146436169
30
-2E-16
41
1
10
30.8312803976675
20
0.46825754108599
30
-2E-16
41
1
10
30.759537510514
20
0.533089626135308
30
1E-16
41
1
10
30.6157149331395
20
0.662515460038065
30
-2E-16
41
1
10
30.5436170389006
20
0.727088584130854
30
1E-16
41
1
10
30.4352135457533
20
0.823765891187719
30
-2E-16
41
1
10
30.3990328063707
20
0.855957365452809
30
2E-16
41
1
10
30.3265670848578
20
0.92025871005481
30
1E-16
41
1
10
30.2902538456929
20
0.952393369051293
30
0
41
1
10
30.1815414645137
20
1.04830110869347
30
2E-16
41
1
10
30.1092656568913
20
1.11166932731902
30
1E-16
41
1
10
29.7486504094419
20
1.42547372694784
30
2E-16
41
1
10
29.462738477629
20
1.66697041626813
30
1E-16
41
1
10
29.0330635328431
20
2.01061747446391
30
2E-16
41
1
10
28.8897035074249
20
2.12206083063504
30
-1E-16
41
1
10
28.6019444745887
20
2.33797194086466
30
-1E-16
41
1
10
28.4575573869934
20
2.44249995230402
30
1E-16
41
1
10
28.0220824461837
20
2.74443746852685
30
-2E-16
41
1
10
27.7350779564467
20
2.9257103277028
30
-2E-16
41
1
10
27.3052661558908
20
3.16593393787966
30
1E-16
41
1
10
27.1621149503642
20
3.24071829625711
30
0
41
1
10
26.8754403851987
20
3.37934166962512
30
1E-16
41
1
10
26.7319076218173
20
3.44317401256211
30
-1E-16
41
1
10
26.515758297941
20
3.5303178408459
30
-1E-16
41
1
10
26.4435686884061
20
3.55793198224552
30
1E-16
41
1
10
26.2988231255766
20
3.61022299010696
30
0
41
1
10
26.2261652482949
20
3.63492754709293
30
-1E-16
41
1
10
26.0091056787798
20
3.70403975222394
30
0
41
1
10
25.865177951352
20
3.74362544566853
30
0
41
1
10
25.4346926866358
20
3.84318510195882
30
0
41
1
10
25.1494139962526
20
3.88400928203231
30
0
41
1
10
24.8613080595833
20
3.8995037737979
30
0
41
1
10
24.8593050971647
20
3.89961024574254
30
0
41
1
10
24.8573020927923
20
3.89971547120706
30
0
0
SPLINE
5
123
100
AcDbEntity
8
1
62
256
6
ByLayer
370
18
48
1
60
0
100
AcDbSpline
70
4
71
3
72
48
73
44
40
0
40
0
40
0
40
0
40
0.007416961789337
40
0.0383573802789475
40
0.0692977987685576
40
0.100238217258168
40
0.131178635747778
40
0.162119054237389
40
0.193059472726999
40
0.223999891216609
40
0.25494030970622
40
0.28588072819583
40
0.316821146685441
40
0.347761565175051
40
0.378701983664661
40
0.409642402154272
40
0.440582820643882
40
0.471523239133492
40
0.502463657623103
40
0.533404076112713
40
0.564344494602324
40
0.579814703847129
40
0.595284913091934
40
0.626225331581544
40
0.641695540826349
40
0.657165750071155
40
0.688106168560765
40
0.703576377805571
40
0.719046587050376
40
0.749987005539986
40
0.76545721478479
40
0.780927424029596
40
0.811867842519206
40
0.827338051764011
40
0.842808261008817
40
0.873748679498427
40
0.889218888743231
40
0.904689097988037
40
0.935629516477648
40
0.951099725722451
40
0.966569934967259
40
0.997510353456869
40
1
40
1
40
1
40
1
41
0.995101145644492
10
34.2563205745122
20
0.982816401742954
30
0
41
0.995105602363615
10
34.2750484300729
20
0.967451987205252
30
0
41
0.995128687591841
10
34.37189957503
20
0.887838516333834
30
0
41
0.995170736634166
10
34.5468749999749
20
0.742623446422025
30
0
41
0.995227773700959
10
34.7812499999394
20
0.545862922980108
30
1E-16
41
0.995285498743333
10
35.0156249999767
20
0.347599806463795
30
1E-16
41
0.995343885815386
10
35.2500000000126
20
0.14860253446556
30
1E-16
41
0.995402908688809
10
35.484374999973
20
-0.050352691870431
30
1E-16
41
0.995462541492247
10
35.718750002169
20
-0.248475090664858
30
1E-16
41
0.995522757736783
10
35.9531250089105
20
-0.444968674162603
30
2E-16
41
0.995583531691662
10
36.187500004481
20
-0.639038556611063
30
2E-16
41
0.995644837351793
10
36.4218749731638
20
-0.829888173276935
30
2E-16
41
0.995706648725512
10
36.6562499513389
20
-1.01672170735167
30
2E-16
41
0.995768939186102
10
36.8906249754293
20
-1.19874196499194
30
1E-16
41
0.995831683151041
10
37.1250000056225
20
-1.37517701478914
30
1E-16
41
0.995894854772334
10
37.3593750020783
20
-1.54525985966901
30
1E-16
41
0.995958427961628
10
37.5937499868364
20
-1.70824367665813
30
0
41
0.996022375990142
10
37.8281249819624
20
-1.86338446356639
30
-1E-16
41
0.996086673425815
10
38.062499995569
20
-2.0099880397102
30
-2E-16
41
0.996151294579091
10
38.2968750357641
20
-2.14737190638449
30
1E-16
41
0.996210546662787
10
38.4921875600174
20
-2.25372598696992
30
0
41
0.996263730512934
10
38.6484375550142
20
-2.3336479731857
30
-1E-16
41
0.996317079792594
10
38.8046875376704
20
-2.40995748471526
30
1E-16
41
0.996370586399633
10
38.9609375077361
20
-2.48072645694125
30
0
41
0.996424220969386
10
39.1171874770443
20
-2.54566676476325
30
0
41
0.996477974145392
10
39.2734374503284
20
-2.60661969191073
30
-1E-16
41
0.99653183562853
10
39.4296874362978
20
-2.66150354363839
30
0
41
0.99658577445695
10
39.5859374484067
20
-2.71008615794105
30
-1E-16
41
0.996639785259703
10
39.7421874709181
20
-2.75438797683907
30
0
41
0.996693858534218
10
39.8984374984715
20
-2.79222406589493
30
0
41
0.996747967641786
10
40.0546875099452
20
-2.82343858148898
30
0
41
0.996802106289084
10
40.210937513018
20
-2.85017354008836
30
0
41
0.996856264904117
10
40.3671875069809
20
-2.87017623639298
30
0
41
0.996910415475688
10
40.523437498811
20
-2.88334484851607
30
0
41
0.99696455222416
10
40.6796874924869
20
-2.89191067296958
30
0
41
0.997018665966281
10
40.8359374938349
20
-2.89359468647759
30
0
41
0.997072729233868
10
40.9921875126672
20
-2.88835803777457
30
0
41
0.997126735853622
10
41.1484375357484
20
-2.87848118750219
30
0
41
0.997180676590297
10
41.3046875540805
20
-2.86170250457268
30
0
41
0.997234523204524
10
41.4609375454112
20
-2.83804954893996
30
0
41
0.997288269955402
10
41.6171875259035
20
-2.80980812910783
30
0
41
0.997330656478677
10
41.7406627923243
20
-2.78212517433616
30
0
41
0.997359580413654
10
41.8250756249785
20
-2.76059402212819
30
0
41
0.997361734152594
10
41.8313619686423
20
-2.75897612332644
30
0
0
SPLINE
5
124
100
AcDbEntity
8
1
62
256
6
ByLayer
370
18
48
1
60
0
100
AcDbSpline
70
4
71
3
72
46
73
42
40
0
40
0
40
0
40
0
40
0.0099847614056407
40
0.0458143875532026
40
0.0816440137007647
40
0.117473639848327
40
0.153303265995889
40
0.189132892143451
40
0.224962518291013
40
0.260792144438575
40
0.296621770586137
40
0.314536583659918
40
0.332451396733699
40
0.368281022881261
40
0.386195835955042
40
0.404110649028824
40
0.439940275176385
40
0.457855088250167
40
0.475769901323948
40
0.511599527471509
40
0.529514340545289
40
0.547429153619071
40
0.583258779766633
40
0.601173592840414
40
0.619088405914195
40
0.654918032061757
40
0.672832845135537
40
0.690747658209318
40
0.726577284356881
40
0.74449209743066
40
0.762406910504444
40
0.798236536652005
40
0.816151349725786
40
0.834066162799568
40
0.869895788947129
40
0.88781060202091
40
0.905725415094691
40
0.941555041242253
40
0.959469854316034
40
0.977384667389815
40
1
40
1
40
1
40
1
41
1
10
36.5909358974575
20
2.13985833860642
30
-1E-16
41
1
10
36.6127072507953
20
2.13327046223668
30
-1E-16
41
1
10
36.7126036028536
20
2.10254508674623
30
0
41
1
10
36.8906249754638
20
2.04374723196938
30
1E-16
41
1
10
37.1250000056229
20
1.95831067313247
30
1E-16
41
1
10
37.3593750020557
20
1.86507065593699
30
1E-16
41
1
10
37.5937499868427
20
1.76439618481913
30
1E-16
41
1
10
37.8281249819598
20
1.65660791822208
30
-1E-16
41
1
10
38.062499995557
20
1.54213502576547
30
-1E-16
41
1
10
38.2968750358028
20
1.42134949441967
30
0
41
1
10
38.4921875600281
20
1.31614727068674
30
0
41
1
10
38.6484375549894
20
1.22961724806828
30
0
41
1
10
38.8046875376525
20
1.1413770941495
30
0
41
1
10
38.9609375077429
20
1.05073050291398
30
2E-16
41
1
10
39.1171874770369
20
0.957959570975049
30
0
41
1
10
39.2734374503035
20
0.86384870704947
30
2E-16
41
1
10
39.4296874362826
20
0.767930806834102
30
0
41
1
10
39.5859374484372
20
0.670529337695001
30
2E-16
41
1
10
39.7421874709531
20
0.572196103384783
30
0
41
1
10
39.8984374984761
20
0.472688048881707
30
-2E-16
41
1
10
40.0546875099295
20
0.37232307780215
30
0
41
1
10
40.2109375130079
20
0.27143667344518
30
-2E-16
41
1
10
40.3671875069862
20
0.170024997412156
30
0
41
1
10
40.5234374988045
20
0.0684312998385792
30
-2E-16
41
1
10
40.6796874924689
20
-0.0332458357030134
30
1E-16
41
1
10
40.8359374938232
20
-0.134767895485822
30
-1E-16
41
1
10
40.9921875126913
20
-0.235784127565807
30
1E-16
41
1
10
41.1484375357863
20
-0.336434398837781
30
-1E-16
41
1
10
41.3046875540936
20
-0.436232977821106
30
1E-16
41
1
10
41.4609375453807
20
-0.534818629722423
30
-1E-16
41
1
10
41.6171875258686
20
-0.632578928171625
30
1E-16
41
1
10
41.7734375008989
20
-0.728786145824301
30
-1E-16
41
1
10
41.9296874919589
20
-0.82308345137659
30
2E-16
41
1
10
42.0859374905811
20
-0.916100059677518
30
-1E-16
41
1
10
42.2421874958974
20
-1.00687100419927
30
-1E-16
41
1
10
42.3984374985962
20
-1.09504290175485
30
-1E-16
41
1
10
42.5546874999735
20
-1.18148611522958
30
1E-16
41
1
10
42.7109375000102
20
-1.26501272643549
30
1E-16
41
1
10
42.8671874999888
20
-1.34528702838975
30
0
41
1
10
42.9946242860439
20
-1.40900069989596
30
0
41
1
10
43.0829985721094
20
-1.45167002595798
30
0
41
1
10
43.1323103581895
20
-1.4749808807147
30
0
0
SPLINE
5
125
100
AcDbEntity
8
1
62
256
6
ByLayer
370
18
48
1
60
0
100
AcDbSpline
70
4
71
3
72
15
73
11
40
0
40
0
40
0
40
0
40
0.243410803139216
40
0.365116204708823
40
0.486821606278431
40
0.608527007848039
40
0.730232409417647
40
0.851937810987255
40
0.973643212556862
40
1
40
1
40
1
40
1
41
1
10
24
20
-3.65630703093802
30
0
41
1
10
24.1562498820028
20
-3.67573189647385
30
0
41
1
10
24.3906249695921
20
-3.69445754200945
30
0
41
1
10
24.7031249997143
20
-3.69770109437499
30
0
41
1
10
24.9375000001651
20
-3.68934515606171
30
0
41
1
10
25.1718749996253
20
-3.67027112713586
30
0
41
1
10
25.4062499972335
20
-3.6404364424628
30
0
41
1
10
25.6406249921395
20
-3.59982225218093
30
0
41
1
10
25.8137939158484
20
-3.56195394771373
30
0
41
1
10
25.9088378434248
20
-3.53858407423778
30
0
41
1
10
25.9257567653341
20
-3.53434226592077
30
0
0
SPLINE
5
126
100
AcDbEntity
8
1
62
256
6
ByLayer
370
18
48
1
60
0
100
AcDbSpline
70
4
71
3
72
56
73
52
40
0
40
0
40
0
40
0
40
0.0093451977398076
40
0.0248424224308459
40
0.0558368718129225
40
0.0713340965039583
40
0.0868313211949991
40
0.117825770577074
40
0.133322995268112
40
0.148820219959151
40
0.179814669341226
40
0.195311894032263
40
0.210809118723301
40
0.241803568105378
40
0.257300792796415
40
0.272798017487453
40
0.303792466869529
40
0.319289691560567
40
0.334786916251605
40
0.365781365633681
40
0.381278590324719
40
0.396775815015757
40
0.427770264397833
40
0.443267489088871
40
0.458764713779909
40
0.489759163161984
40
0.505256387853022
40
0.52075361254406
40
0.551748061926136
40
0.567245286617174
40
0.582742511308212
40
0.613736960690288
40
0.629234185381326
40
0.644731410072364
40
0.675725859454439
40
0.691223084145477
40
0.706720308836515
40
0.737714758218591
40
0.753211982909629
40
0.768709207600667
40
0.799703656982743
40
0.815200881673781
40
0.830698106364819
40
0.861692555746895
40
0.877189780437933
40
0.89268700512897
40
0.923681454511046
40
0.939178679202085
40
0.954675903893122
40
0.985670353275198
40
1
40
1
40
1
40
1
41
1
10
40.9215206346618
20
1.49444037953353
30
1E-16
41
1
10
40.9450762605119
20
1.47644866922013
30
1E-16
41
1
10
41.0076943916768
20
1.42836031408839
30
2E-16
41
1
10
41.1484375357472
20
1.31876769932728
30
0
41
1
10
41.30468755408
20
1.19422762084136
30
-1E-16
41
1
10
41.4609375454122
20
1.0672528984515
30
2E-16
41
1
10
41.6171875259046
20
0.938786599661881
30
0
41
1
10
41.773437500904
20
0.808348863869213
30
-1E-16
41
1
10
41.9296874919421
20
0.676404302495996
30
2E-16
41
1
10
42.0859374905663
20
0.543602126785231
30
1E-16
41
1
10
42.2421874958982
20
0.409787422358761
30
-1E-16
41
1
10
42.3984374985988
20
0.275454542334757
30
-2E-16
41
1
10
42.5546874999755
20
0.14093232048927
30
1E-16
41
1
10
42.7109375000099
20
0.0063973226361043
30
0
41
1
10
42.8671874999889
20
-0.127646363430813
30
-1E-16
41
1
10
43.0234374999496
20
-0.261196738273071
30
2E-16
41
1
10
43.1796874999116
20
-0.39373862942341
30
0
41
1
10
43.3359374999324
20
-0.524757484124166
30
-1E-16
41
1
10
43.4921874999723
20
-0.654592096213435
30
2E-16
41
1
10
43.6484375000109
20
-0.782394743202502
30
1E-16
41
1
10
43.8046874999878
20
-0.907660377848828
30
-1E-16
41
1
10
43.9609374997528
20
-1.0310635180748
30
2E-16
41
1
10
44.1171874989437
20
-1.15143137290033
30
0
41
1
10
44.2734374970489
20
-1.26827070688131
30
-1E-16
41
1
10
44.4296874957506
20
-1.38259059859865
30
1E-16
41
1
10
44.585937497327
20
-1.49291274031972
30
-1E-16
41
1
10
44.7421875057402
20
-1.59877399397095
30
2E-16
41
1
10
44.8984375158603
20
-1.70150043977958
30
0
41
1
10
45.0546875242592
20
-1.79933119045475
30
2E-16
41
1
10
45.2109375223689
20
-1.89183843919133
30
0
41
1
10
45.3671875153171
20
-1.98064769300018
30
0
41
1
10
45.5234375030819
20
-2.0637485642799
30
0
41
1
10
45.6796874907775
20
-2.14076393643936
30
-1E-16
41
1
10
45.8359374802268
20
-2.21358833914565
30
1E-16
41
1
10
45.9921874750064
20
-2.27999973668548
30
0
41
1
10
46.1484374805211
20
-2.33967897746285
30
-1E-16
41
1
10
46.3046874899422
20
-2.39475583800123
30
1E-16
41
1
10
46.4609375003357
20
-2.44284211543109
30
0
41
1
10
46.6171875019268
20
-2.4836881605946
30
0
41
1
10
46.7734374997722
20
-2.51961641715735
30
0
41
1
10
46.9296874951898
20
-2.54812332044281
30
0
41
1
10
47.085937494561
20
-2.56903675978489
30
0
41
1
10
47.2421874959014
20
-2.58482359221173
30
0
41
1
10
47.398437499194
20
-2.5929204065373
30
0
41
1
10
47.5546875024353
20
-2.59323972240938
30
0
41
1
10
47.7109375052025
20
-2.58833963157593
30
0
41
1
10
47.867187506598
20
-2.57565675757303
30
0
41
1
10
48.0234375052995
20
-2.55519476467001
30
0
41
1
10
48.1796875029451
20
-2.52954448496689
30
0
41
1
10
48.332994488427
20
-2.49683298681379
30
0
41
1
10
48.4472389758677
20
-2.46704577983925
30
0
41
1
10
48.4833584639876
20
-2.45709055482416
30
0
0
SPLINE
5
127
100
AcDbEntity
8
1
62
256
6
ByLayer
370
18
48
1
60
0
100
AcDbSpline
70
4
71
3
72
55
73
51
40
0
40
0
40
0
40
0
40
0.0033474167192749
40
0.0348879535537633
40
0.0664284903882515
40
0.0979690272227399
40
0.113739295639984
40
0.129509564057228
40
0.161050100891716
40
0.17682036930896
40
0.192590637726205
40
0.224131174560693
40
0.239901442977938
40
0.255671711395182
40
0.28721224822967
40
0.302982516646913
40
0.318752785064158
40
0.350293321898646
40
0.36606359031589
40
0.381833858733135
40
0.413374395567623
40
0.429144663984866
40
0.444914932402111
40
0.476455469236599
40
0.492225737653841
40
0.507996006071088
40
0.539536542905576
40
0.55530681132282
40
0.571077079740065
40
0.602617616574552
40
0.618387884991796
40
0.634158153409041
40
0.665698690243529
40
0.681468958660773
40
0.697239227078017
40
0.728779763912505
40
0.74455003232975
40
0.760320300746994
40
0.791860837581482
40
0.807631105998726
40
0.823401374415971
40
0.854941911250458
40
0.870712179667703
40
0.886482448084947
40
0.918022984919435
40
0.933793253336679
40
0.949563521753923
40
0.981104058588411
40
0.996874327005655
40
1
40
1
40
1
40
1
41
0.996015630812253
10
37.8032556474117
20
1.1670730746771
30
0
41
0.996017897957077
10
37.8115470842481
20
1.16040219180917
30
0
41
0.996041533826469
10
37.8979616961402
20
1.09079003429224
30
0
41
0.996086673425815
10
38.062499995569
20
0.956546091380909
30
0
41
0.996151294579091
10
38.2968750357641
20
0.76174169356387
30
0
41
0.996210546662787
10
38.4921875600174
20
0.597052685178614
30
-1E-16
41
0.996263730512934
10
38.6484375550142
20
0.464270218568293
30
-2E-16
41
0.996317079792594
10
38.8046875376704
20
0.330991961621827
30
1E-16
41
0.996370586399633
10
38.9609375077361
20
0.197227513587979
30
0
41
0.996424220969386
10
39.1171874770443
20
0.0634435168692076
30
-1E-16
41
0.996477974145392
10
39.2734374503284
20
-0.0702022672641895
30
2E-16
41
0.99653183562853
10
39.4296874362978
20
-0.20337816429448
30
0
41
0.99658577445695
10
39.5859374484067
20
-0.33559603525643
30
-1E-16
41
0.996639785259703
10
39.7421874709181
20
-0.467032598279131
30
2E-16
41
0.996693858534218
10
39.8984374984715
20
-0.597061372234689
30
1E-16
41
0.996747967641786
10
40.0546875099452
20
-0.725235259044532
30
-1E-16
41
0.996802106289084
10
40.210937513018
20
-0.852024106363039
30
2E-16
41
0.996856264904117
10
40.3671875069809
20
-0.97650519768567
30
1E-16
41
0.996910415475688
10
40.523437498811
20
-1.09822948057688
30
-1E-16
41
0.99696455222416
10
40.6796874924869
20
-1.2179697805678
30
2E-16
41
0.997018665966281
10
40.8359374938349
20
-1.33452214399266
30
0
41
0.997072729233868
10
40.9921875126672
20
-1.44746034766524
30
-2E-16
41
0.997126735853622
10
41.1484375357484
20
-1.55784504516366
30
1E-16
41
0.997180676590297
10
41.3046875540805
20
-1.664205302215
30
-1E-16
41
0.997234523204524
10
41.4609375454112
20
-1.76613672562476
30
1E-16
41
0.997288269955402
10
41.6171875259035
20
-1.86497941686702
30
-1E-16
41
0.997341907968187
10
41.7734375009038
20
-1.9590209958001
30
1E-16
41
0.997395409562925
10
41.9296874919426
20
-2.04789594309202
30
-1E-16
41
0.997448768578242
10
42.0859374905667
20
-2.13319900466136
30
-1E-16
41
0.997501976080729
10
42.2421874958981
20
-2.21300284629139
30
1E-16
41
0.997555003707027
10
42.3984374985987
20
-2.28698237287129
30
0
41
0.997607845657563
10
42.5546874999755
20
-2.35696524568003
30
0
41
0.997660493320253
10
42.7109375000099
20
-2.42084469225161
30
-1E-16
41
0.997712918896226
10
42.8671874999889
20
-2.47834967499054
30
0
41
0.997765116157841
10
43.0234374999495
20
-2.53150653806992
30
-1E-16
41
0.997817076433823
10
43.1796874999116
20
-2.57806664940372
30
0
41
0.997868771373475
10
43.3359374999324
20
-2.61781621736243
30
0
41
0.997920195015136
10
43.4921874999723
20
-2.65294614424456
30
0
41
0.997971338951586
10
43.6484375000109
20
-2.68110995134252
30
0
41
0.998022175362062
10
43.8046874999878
20
-2.70216080112219
30
0
41
0.998072697878307
10
43.9609374997528
20
-2.71841147924993
30
0
41
0.998122898046267
10
44.1171874989438
20
-2.72746390511282
30
0
41
0.998172747683878
10
44.2734374970488
20
-2.72924159816837
30
0
41
0.998222240551958
10
44.4296874957505
20
-2.72613519351713
30
0
41
0.998271368374957
10
44.5859374973269
20
-2.71574528810832
30
0
41
0.998320103405725
10
44.7421875057405
20
-2.69807181780459
30
0
41
0.998368439066469
10
44.8984375158608
20
-2.67553363958365
30
0
41
0.998416367065645
10
45.0546875242593
20
-2.64578127981358
30
0
41
0.998454339695611
10
45.1796184157545
20
-2.61628661027654
30
0
41
0.99846848673044
10
45.2264237717932
20
-2.6043858843287
30
0
41
0.998470824829836
10
45.2341660217499
20
-2.60239414867955
30
0
0
SPLINE
5
128
100
AcDbEntity
8
1
62
256
6
ByLayer
370
18
48
1
60
0
100
AcDbSpline
70
4
71
3
72
39
73
35
40
0
40
0
40
0
40
0
40
0.0353841733070376
40
0.0732952723689654
40
0.111206371430893
40
0.149117470492822
40
0.187028569554749
40
0.224939668616677
40
0.262850767678605
40
0.300761866740533
40
0.338672965802461
40
0.376584064864389
40
0.414495163926317
40
0.452406262988245
40
0.490317362050173
40
0.528228461112101
40
0.566139560174029
40
0.604050659235957
40
0.623006208766921
40
0.641961758297885
40
0.679872857359813
40
0.698828406890777
40
0.717783956421742
40
0.755695055483669
40
0.774650605014634
40
0.793606154545598
40
0.831517253607525
40
0.850472803138488
40
0.869428352669453
40
0.907339451731381
40
0.926295001262345
40
0.94525055079331
40
0.983161649855237
40
1
40
1
40
1
40
1
41
1
10
34.7968720272329
20
3.15037015256124
30
0
41
1
10
34.8697896848076
20
3.16431836917212
30
0
41
1
10
35.0208323424047
20
3.18948738758092
30
0
41
1
10
35.2500000000127
20
3.21582268489561
30
0
41
1
10
35.4843749999723
20
3.23003288970631
30
0
41
1
10
35.7187500021683
20
3.23144442784135
30
0
41
1
10
35.9531250089141
20
3.21997320683067
30
0
41
1
10
36.1875000044839
20
3.19564472502486
30
0
41
1
10
36.4218749731517
20
3.15847062639537
30
0
41
1
10
36.6562499513392
20
3.10858081110621
30
0
41
1
10
36.8906249754405
20
3.04609650053425
30
0
41
1
10
37.1250000056226
20
2.971251560902
30
-1E-16
41
1
10
37.3593750020709
20
2.88426760152666
30
-1E-16
41
1
10
37.5937499868385
20
2.7854884080466
30
-1E-16
41
1
10
37.8281249819615
20
2.67524993948189
30
-1E-16
41
1
10
38.062499995565
20
2.55399565873765
30
0
41
1
10
38.2968750357771
20
2.42215937383801
30
1E-16
41
1
10
38.4921875600211
20
2.30390026239994
30
-1E-16
41
1
10
38.6484375550058
20
2.2045172306826
30
2E-16
41
1
10
38.8046875376643
20
2.1020966170812
30
0
41
1
10
38.9609375077384
20
1.99527290262722
30
2E-16
41
1
10
39.1171874770417
20
1.88438521253534
30
0
41
1
10
39.2734374503198
20
1.77093612230868
30
-2E-16
41
1
10
39.4296874362925
20
1.65382885839222
30
1E-16
41
1
10
39.5859374484173
20
1.53346611150658
30
0
41
1
10
39.7421874709304
20
1.41108245156042
30
-2E-16
41
1
10
39.8984374984731
20
1.28585306396764
30
1E-16
41
1
10
40.0546875099396
20
1.15818554711546
30
0
41
1
10
40.2109375130145
20
1.02905481195816
30
-2E-16
41
1
10
40.3671875069828
20
0.897934399326829
30
1E-16
41
1
10
40.5234374988087
20
0.765271505567938
30
0
41
1
10
40.6796874924804
20
0.631747449545117
30
-1E-16
41
1
10
40.8315744917662
20
0.500904056112546
30
2E-16
41
1
10
40.9443990028767
20
0.40328463936703
30
1E-16
41
1
10
40.9790985053904
20
0.373236329717031
30
1E-16
0
SPLINE
5
129
100
AcDbEntity
8
1
62
256
6
ByLayer
370
18
48
1
60
0
100
AcDbSpline
70
4
71
3
72
41
73
37
40
0
40
0
40
0
40
0
40
0.110107901764776
40
0.110107901764776
40
0.165161852647164
40
0.165161852647164
40
0.178925340367761
40
0.178925340367761
40
0.192688828088358
40
0.220215803529551
40
0.220215803529551
40
0.330323705294322
40
0.330323705294322
40
0.440431607059092
40
0.440431607059092
40
0.454195094779689
40
0.454195094779689
40
0.467958582500286
40
0.495485557941477
40
0.495485557941477
40
0.55053950882386
40
0.55053950882386
40
0.660647410588624
40
0.660647410588624
40
0.715701361471006
40
0.715701361471006
40
0.729464849191603
40
0.729464849191603
40
0.743228336912201
40
0.770755312353392
40
0.770755312353392
40
0.880863214118156
40
0.880863214118156
40
0.990971115882921
40
0.990971115882921
40
1
40
1
40
1
40
1
41
1
10
23.9999999999994
20
1.19983793572777
30
-1E-16
41
1
10
24.2893085965297
20
0.947068252886396
30
0
41
1
10
24.5767136168455
20
0.689721897687434
30
2E-16
41
1
10
25.0087393931929
20
0.301019698085355
30
2E-16
41
1
10
25.1529035759891
20
0.171006755752501
30
0
41
1
10
25.3337148849893
20
0.0083806006759914
30
0
41
1
10
25.3699281387741
20
-0.0241687325470821
30
1E-16
41
1
10
25.4422169522948
20
-0.0890804691351264
30
2E-16
41
1
10
25.5505064359155
20
-0.186224339704836
30
0
41
1
10
25.658412660318
20
-0.28264953128388
30
2E-16
41
1
10
26.017457864413
20
-0.602257840743221
30
1E-16
41
1
10
26.302649433313
20
-0.85216391502351
30
2E-16
41
1
10
26.8740708701736
20
-1.33493103004127
30
0
41
1
10
27.1602747406508
20
-1.56782101614758
30
1E-16
41
1
10
27.4858996811288
20
-1.81666615161325
30
-2E-16
41
1
10
27.5221633811549
20
-1.84415586592067
30
-1E-16
41
1
10
27.5945492695385
20
-1.8985633821305
30
0
41
1
10
27.7029752446471
20
-1.97936303413746
30
2E-16
41
1
10
27.8109906672732
20
-2.05770191014651
30
-1E-16
41
1
10
28.0266059936326
20
-2.2110169128068
30
-1E-16
41
1
10
28.1697984129215
20
-2.30874300141392
30
1E-16
41
1
10
28.5987492634059
20
-2.58774629029162
30
-2E-16
41
1
10
28.8838608879389
20
-2.75490693765593
30
-2E-16
41
1
10
29.3143813554026
20
-2.97372767458239
30
-1E-16
41
1
10
29.4583672325651
20
-3.04133514619428
30
0
41
1
10
29.6394116425282
20
-3.11868943599137
30
0
41
1
10
29.6757092054723
20
-3.1338162640541
30
0
41
1
10
29.748166850187
20
-3.16323745437043
30
1E-16
41
1
10
29.8566933428446
20
-3.20614274319951
30
0
41
1
10
29.9647955575674
20
-3.24536780329649
30
1E-16
41
1
10
30.3244275846431
20
-3.36792505880149
30
-1E-16
41
1
10
30.6098670308701
20
-3.43982833603601
30
1E-16
41
1
10
31.1819685652989
20
-3.52985073621665
30
1E-16
41
1
10
31.4685947952879
20
-3.54798554522407
30
0
41
1
10
31.7827039236358
20
-3.53658168649352
30
0
41
1
10
31.8064907963779
20
-3.53552539483133
30
0
41
1
10
31.8302579187728
20
-3.53427819019683
30
0
0
SPLINE
5
12A
100
AcDbEntity
8
1
62
256
6
ByLayer
370
18
48
1
60
0
100
AcDbSpline
70
4
71
3
72
71
73
67
40
0
40
0
40
0
40
0
40
0.0089643706649772
40
0.0089643706649772
40
0.0540114447256591
40
0.0540114447256591
40
0.0990585187863411
40
0.0990585187863411
40
0.11032028730151
40
0.11032028730151
40
0.121582055816679
40
0.121582055816679
40
0.144105592847021
40
0.144105592847021
40
0.1891526669077
40
0.1891526669077
40
0.234199740968379
40
0.234199740968379
40
0.279246815029058
40
0.279246815029058
40
0.29050858354423
40
0.29050858354423
40
0.301770352059401
40
0.324293889089743
40
0.324293889089743
40
0.369340963150427
40
0.369340963150427
40
0.414388037211111
40
0.414388037211111
40
0.459435111271795
40
0.459435111271795
40
0.481958648302139
40
0.481958648302139
40
0.504482185332482
40
0.504482185332482
40
0.549529259393172
40
0.549529259393172
40
0.594576333453861
40
0.594576333453861
40
0.617099870484204
40
0.617099870484204
40
0.628361638999375
40
0.628361638999375
40
0.639623407514545
40
0.684670481575227
40
0.684670481575227
40
0.729717555635909
40
0.729717555635909
40
0.774764629696591
40
0.774764629696591
40
0.786026398211761
40
0.786026398211761
40
0.79728816672693
40
0.79728816672693
40
0.819811703757271
40
0.819811703757271
40
0.864858777817952
40
0.864858777817952
40
0.909905851878634
40
0.909905851878634
40
0.932429388908975
40
0.943691157424145
40
0.943691157424145
40
0.954952925939316
40
0.954952925939316
40
1
40
1
40
1
40
1
41
1
10
42.0202267398068
20
2.83060284263277
30
0
41
1
10
42.048747796445
20
2.83765875848039
30
0
41
1
10
42.0772602482612
20
2.84439796222799
30
0
41
1
10
42.2490246366624
20
2.88308924934447
30
0
41
1
10
42.3921636910944
20
2.90734234913458
30
0
41
1
10
42.6792743765368
20
2.93939698382317
30
0
41
1
10
42.823235889342
20
2.94720167826438
30
0
41
1
10
43.0044089028967
20
2.94626829486722
30
0
41
1
10
43.0407045585335
20
2.94554656949538
30
0
41
1
10
43.113436842626
20
2.94302011536223
30
0
41
1
10
43.1497781909131
20
2.94121804834816
30
0
41
1
10
43.2585595854536
20
2.93421821301479
30
0
41
1
10
43.330840035184
20
2.92742447657375
30
0
41
1
10
43.5471819265508
20
2.90077503181828
30
0
41
1
10
43.6907347200572
20
2.87465774129458
30
0
41
1
10
43.9776089927261
20
2.80614463923544
30
0
41
1
10
44.1209267492051
20
2.76374813816443
30
0
41
1
10
44.4084460683093
20
2.66288052952956
30
0
41
1
10
44.5526480117721
20
2.60441073286987
30
-1E-16
41
1
10
44.734194347606
20
2.52127159923117
30
1E-16
41
1
10
44.7706105290923
20
2.50412071723088
30
-1E-16
41
1
10
44.8433907884809
20
2.46891004616364
30
0
41
1
10
44.9523543093251
20
2.41479583995348
30
-1E-16
41
1
10
45.0607842228348
20
2.35687550210562
30
0
41
1
10
45.2771585938102
20
2.23617492548536
30
1E-16
41
1
10
45.4207680353172
20
2.14923812389202
30
1E-16
41
1
10
45.7078678239475
20
1.96340839381634
30
-2E-16
41
1
10
45.8513618108362
20
1.86451805271304
30
1E-16
41
1
10
46.1394244743134
20
1.6556164449284
30
1E-16
41
1
10
46.283992562348
20
1.54560526065268
30
-1E-16
41
1
10
46.5026232504476
20
1.37279971244666
30
-1E-16
41
1
10
46.5752721170479
20
1.31431265467549
30
0
41
1
10
46.7200737918624
20
1.19592776183748
30
-1E-16
41
1
10
46.792260044472
20
1.13600200366284
30
0
41
1
10
47.0084092258737
20
0.954290558624251
30
0
41
1
10
47.1519624212684
20
0.83057230831804
30
-2E-16
41
1
10
47.439233954608
20
0.579361267084664
30
0
41
1
10
47.5829471222627
20
0.451862971172147
30
-2E-16
41
1
10
47.7996042582817
20
0.25879648766869
30
-2E-16
41
1
10
47.8720044453686
20
0.194137232089446
30
0
41
1
10
47.9810044733592
20
0.096822723489737
30
2E-16
41
1
10
48.0174330425227
20
0.0643052880853645
30
-2E-16
41
1
10
48.0903228677029
20
-0.0007028769882425
30
0
41
1
10
48.2721704521717
20
-0.162748667707064
30
-1E-16
41
1
10
48.4524080678344
20
-0.322154377332964
30
-1E-16
41
1
10
48.7400868963033
20
-0.57239815179841
30
0
41
1
10
48.8835679689824
20
-0.695125987418891
30
-1E-16
41
1
10
49.1711525505083
20
-0.934298826108318
30
0
41
1
10
49.3152502495767
20
-1.05075047945593
30
-2E-16
41
1
10
49.4966413550035
20
-1.19134815037543
30
1E-16
41
1
10
49.5329835546627
20
-1.21921852629507
30
2E-16
41
1
10
49.6058193522313
20
-1.27443234565214
30
-1E-16
41
1
10
49.6422936898538
20
-1.30175990806154
30
-1E-16
41
1
10
49.7513484254655
20
-1.38244780551338
30
1E-16
41
1
10
49.823766060345
20
-1.43467117423504
30
-2E-16
41
1
10
50.0404396625383
20
-1.58645837332119
30
2E-16
41
1
10
50.1841177852859
20
-1.68114595523119
30
-1E-16
41
1
10
50.4713368342298
20
-1.85644486110056
30
-1E-16
41
1
10
50.6148809174282
20
-1.93705335350307
30
1E-16
41
1
10
50.8311848797694
20
-2.04639005760205
30
-1E-16
41
1
10
50.9395855468914
20
-2.09816011755717
30
0
41
1
10
51.0485754222687
20
-2.14535397417305
30
-1E-16
41
1
10
51.1213915633631
20
-2.17577098102402
30
0
41
1
10
51.1578483748789
20
-2.19044335210361
30
0
41
1
10
51.3398597112293
20
-2.26085684852768
30
0
41
1
10
51.4851262596728
20
-2.30798704873183
30
0
41
1
10
51.6308398906074
20
-2.34547014772528
30
1E-16
0
SPLINE
5
12B
100
AcDbEntity
8
1
62
256
6
ByLayer
370
18
48
1
60
0
100
AcDbSpline
70
4
71
3
72
58
73
54
40
0
40
0
40
0
40
0
40
0.0592206529021069
40
0.0592206529021069
40
0.118441305804214
40
0.118441305804214
40
0.177661958706321
40
0.177661958706321
40
0.192467121931847
40
0.192467121931847
40
0.207272285157372
40
0.207272285157372
40
0.236882611608427
40
0.236882611608427
40
0.296103264510534
40
0.296103264510534
40
0.355323917412641
40
0.355323917412641
40
0.384934243863694
40
0.384934243863694
40
0.399739407089222
40
0.399739407089222
40
0.414544570314751
40
0.414544570314751
40
0.473765223216867
40
0.473765223216867
40
0.532985876118983
40
0.532985876118983
40
0.562596202570041
40
0.562596202570041
40
0.577401365795571
40
0.577401365795571
40
0.592206529021102
40
0.592206529021102
40
0.651427181923224
40
0.651427181923224
40
0.710647834825346
40
0.710647834825346
40
0.769868487727469
40
0.769868487727469
40
0.784673650952998
40
0.784673650952998
40
0.799478814178528
40
0.799478814178528
40
0.829089140629588
40
0.829089140629588
40
0.88830979353171
40
0.88830979353171
40
0.947530446433833
40
0.947530446433833
40
0.977140772884892
40
0.977140772884892
40
1
40
1
40
1
40
1
41
1
10
51.6308398906074
20
-1.9232997590351
30
1E-16
41
1
10
51.4848551728695
20
-1.84568501805603
30
1E-16
41
1
10
51.3401550335774
20
-1.76044873538453
30
-1E-16
41
1
10
51.0516593176707
20
-1.57657150083367
30
-1E-16
41
1
10
50.9078898835028
20
-1.47790669198258
30
-1E-16
41
1
10
50.6197666201595
20
-1.26861390025533
30
-1E-16
41
1
10
50.4754384170324
20
-1.15796104972833
30
0
41
1
10
50.2937332476014
20
-1.01292441831669
30
2E-16
41
1
10
50.2573269137067
20
-0.983581127353716
30
1E-16
41
1
10
50.1843612467624
20
-0.924238097273701
30
-1E-16
41
1
10
50.1479162199622
20
-0.894331116468521
30
-1E-16
41
1
10
50.0388318043249
20
-0.80408727334509
30
1E-16
41
1
10
49.9663708660051
20
-0.743165196989594
30
0
41
1
10
49.7494596371919
20
-0.558487184112522
30
0
41
1
10
49.6054921556012
20
-0.432809549669344
30
1E-16
41
1
10
49.3174327652798
20
-0.177941707442358
30
0
41
1
10
49.1733189749963
20
-0.0487763976790916
30
1E-16
41
1
10
48.9560137270674
20
0.146463742414767
30
1E-16
41
1
10
48.8833795902633
20
0.211781464243671
30
-1E-16
41
1
10
48.7740020332552
20
0.309979154420972
30
2E-16
41
1
10
48.7375569963869
20
0.342672464429995
30
1E-16
41
1
10
48.6648548329313
20
0.407795271402961
30
-1E-16
41
1
10
48.6285693403773
20
0.440250325806886
30
-1E-16
41
1
10
48.4474116688309
20
0.601937993029964
30
-1E-16
41
1
10
48.3033161695296
20
0.729376373827705
30
1E-16
41
1
10
48.015471878353
20
0.979128355280153
30
-1E-16
41
1
10
47.8716968091819
20
1.10141404170352
30
1E-16
41
1
10
47.6552914944578
20
1.27993477273071
30
1E-16
41
1
10
47.5830349117085
20
1.33862514771911
30
0
41
1
10
47.4743235291984
20
1.42527799812467
30
2E-16
41
1
10
47.4380330494209
20
1.45393285456095
30
1E-16
41
1
10
47.3653268083515
20
1.5107621466837
30
0
41
1
10
47.3288628208605
20
1.53897295817959
30
-1E-16
41
1
10
47.1468745584577
20
1.67823038329738
30
1E-16
41
1
10
47.0023995815978
20
1.78383933144269
30
-2E-16
41
1
10
46.7143127356169
20
1.98272416760636
30
0
41
1
10
46.5707131333133
20
2.07600863972232
30
0
41
1
10
46.2831093568947
20
2.24936984257036
30
1E-16
41
1
10
46.1391271724707
20
2.32946088424805
30
1E-16
41
1
10
45.9580979858499
20
2.42064501736039
30
1E-16
41
1
10
45.9218408377979
20
2.438435605086
30
1E-16
41
1
10
45.8492040072879
20
2.47310517035396
30
0
41
1
10
45.8127780473308
20
2.49000452503162
30
-1E-16
41
1
10
45.7037353109522
20
2.53910407816341
30
0
41
1
10
45.6313079806626
20
2.56972770071962
30
0
41
1
10
45.4145885778936
20
2.65529060024102
30
0
41
1
10
45.270884156373
20
2.70393763154803
30
0
41
1
10
44.9837119194435
20
2.78431832942098
30
0
41
1
10
44.8402845413181
20
2.81606137784505
30
0
41
1
10
44.6244343414283
20
2.8507390930329
30
0
41
1
10
44.5523686791323
20
2.8601410677432
30
0
41
1
10
44.4243397586571
20
2.87291929157777
30
0
41
1
10
44.3684395561853
20
2.87718087921999
30
0
41
1
10
44.3124053863804
20
2.88011665289415
30
0
0
SPLINE
5
12C
100
AcDbEntity
8
1
62
256
6
ByLayer
370
18
48
1
60
0
100
AcDbSpline
70
4
71
3
72
60
73
56
40
0
40
0
40
0
40
0
40
0.0234772393803141
40
0.0234772393803141
40
0.0438214635598878
40
0.0438214635598878
40
0.0539935756496753
40
0.0539935756496753
40
0.0641656877394631
40
0.104854136098612
40
0.104854136098612
40
0.186231032816911
40
0.186231032816911
40
0.206575256996487
40
0.216747369086276
40
0.216747369086276
40
0.226919481176065
40
0.226919481176065
40
0.267607929535222
40
0.267607929535222
40
0.308296377894378
40
0.308296377894378
40
0.348984826253535
40
0.348984826253535
40
0.369329050433112
40
0.369329050433112
40
0.389673274612689
40
0.389673274612689
40
0.399845386702478
40
0.399845386702478
40
0.410017498792266
40
0.410017498792266
40
0.430361722971844
40
0.430361722971844
40
0.511738619690155
40
0.511738619690155
40
0.55242706804931
40
0.55242706804931
40
0.593115516408464
40
0.593115516408464
40
0.674492413126773
40
0.674492413126773
40
0.715180861485926
40
0.715180861485926
40
0.75586930984508
40
0.75586930984508
40
0.776213534024656
40
0.776213534024656
40
0.796557758204233
40
0.796557758204233
40
0.837246206563387
40
0.837246206563387
40
0.918623103281693
40
0.918623103281693
40
1
40
1
40
1
40
1
41
1
10
34.6022740490282
20
-3.21354220741952
30
0
41
1
10
34.5194780086669
20
-3.24145762664065
30
0
41
1
10
34.4365390860789
20
-3.26710448019969
30
0
41
1
10
34.281309851368
20
-3.31066414268202
30
0
41
1
10
34.2090751014885
20
-3.32914661832231
30
0
41
1
10
34.1003857434651
20
-3.35420149725741
30
0
41
1
10
34.0641257872985
20
-3.36210116097249
30
0
41
1
10
33.9917785623173
20
-3.37694532040291
30
0
41
1
10
33.8111684699703
20
-3.41170728924084
30
0
41
1
10
33.6316639672884
20
-3.43482080042338
30
0
41
1
10
33.2017036013434
20
-3.46835659497788
30
0
41
1
10
32.9161966133559
20
-3.46153507445263
30
0
41
1
10
32.5566948883266
20
-3.41682561830484
30
0
41
1
10
32.4486489270885
20
-3.40069045261112
30
0
41
1
10
32.3401948909816
20
-3.38045405746277
30
0
41
1
10
32.2677881950667
20
-3.36604877686656
30
-1E-16
41
1
10
32.2314969107523
20
-3.3583805454484
30
1E-16
41
1
10
32.0503659207997
20
-3.31788824741034
30
0
41
1
10
31.9063020978326
20
-3.27859468850312
30
-1E-16
41
1
10
31.6190295366559
20
-3.18692779389212
30
-1E-16
41
1
10
31.4758230074851
20
-3.13455291729315
30
0
41
1
10
31.1894971605706
20
-3.01728129957641
30
0
41
1
10
31.0463692113274
20
-2.95239253548289
30
-2E-16
41
1
10
30.8312803976675
20
-2.84591191922979
30
0
41
1
10
30.759537510514
20
-2.808876772547
30
-1E-16
41
1
10
30.6157149331395
20
-2.73187748635013
30
2E-16
41
1
10
30.5436170389006
20
-2.69193002672017
30
1E-16
41
1
10
30.4352135457533
20
-2.62979408310338
30
-1E-16
41
1
10
30.3990328063708
20
-2.60871549511012
30
-1E-16
41
1
10
30.3265670848578
20
-2.56582890271486
30
-2E-16
41
1
10
30.2902538456927
20
-2.54400319561552
30
2E-16
41
1
10
30.1815414645137
20
-2.47768519530374
30
0
41
1
10
30.1092656568913
20
-2.43229395103415
30
-1E-16
41
1
10
29.7486504094419
20
-2.1997178102304
30
-2E-16
41
1
10
29.462738477629
20
-1.99559058075292
30
-2E-16
41
1
10
29.0330635328432
20
-1.6671819280418
30
-1E-16
41
1
10
28.8897035074249
20
-1.55400285356706
30
1E-16
41
1
10
28.6019444745887
20
-1.32094924755231
30
0
41
1
10
28.4575573869934
20
-1.20100336612362
30
1E-16
41
1
10
28.0220824461837
20
-0.83201591880561
30
2E-16
41
1
10
27.7350779564467
20
-0.579408106497993
30
0
41
1
10
27.3052661558909
20
-0.195479267135795
30
0
41
1
10
27.1621149503642
20
-0.0666612964669184
30
2E-16
41
1
10
26.8754403851986
20
0.191973361732693
30
0
41
1
10
26.7319076218173
20
0.321779649965009
30
1E-16
41
1
10
26.515758297941
20
0.516605345507884
30
1E-16
41
1
10
26.443568688406
20
0.581568812920636
30
0
41
1
10
26.2988231255765
20
0.711444115110652
30
1E-16
41
1
10
26.2261652482948
20
0.776445813581006
30
0
41
1
10
26.0091056787798
20
0.969810634490187
30
-1E-16
41
1
10
25.8651779513519
20
1.09693000362833
30
1E-16
41
1
10
25.4346926866358
20
1.47200739839198
30
1E-16
41
1
10
25.1494139962526
20
1.71368479493913
30
0
41
1
10
24.5772079655495
20
2.17541823300931
30
-2E-16
41
1
10
24.2902663256571
20
2.3954638529442
30
2E-16
41
1
10
23.9999999999999
20
2.6019790387416
30
1E-16
0
SPLINE
5
12D
100
AcDbEntity
8
1
62
256
6
ByLayer
370
18
48
1
60
0
100
AcDbSpline
70
4
71
3
72
48
73
44
40
0
40
0
40
0
40
0
40
0.0069757784364551
40
0.0378185849426662
40
0.0686613914488773
40
0.0995041979550884
40
0.130347004461299
40
0.161189810967511
40
0.192032617473722
40
0.222875423979933
40
0.253718230486144
40
0.284561036992355
40
0.315403843498566
40
0.346246650004777
40
0.377089456510989
40
0.4079322630172
40
0.438775069523411
40
0.469617876029622
40
0.500460682535833
40
0.531303489042044
40
0.562146295548255
40
0.577567698801361
40
0.592989102054466
40
0.623831908560677
40
0.639253311813783
40
0.654674715066889
40
0.6855175215731
40
0.700938924826206
40
0.716360328079312
40
0.747203134585522
40
0.762624537838627
40
0.778045941091733
40
0.808888747597944
40
0.82431015085105
40
0.839731554104156
40
0.870574360610367
40
0.885995763863471
40
0.901417167116577
40
0.932259973622789
40
0.947681376875893
40
0.963102780129001
40
0.993945586635211
40
1
40
1
40
1
40
1
41
1
10
34.2594909435524
20
0.979946721241674
30
0
41
1
10
34.2771606290356
20
0.965299217331477
30
0
41
1
10
34.3729553145202
20
0.885743729705496
30
0
41
1
10
34.546874999975
20
0.739951200382791
30
0
41
1
10
34.7812499999395
20
0.541246209728371
30
1E-16
41
1
10
35.0156249999767
20
0.341062754432841
30
1E-16
41
1
10
35.2500000000126
20
0.140177901375125
30
1E-16
41
1
10
35.4843749999731
20
-0.0606223100072043
30
1E-16
41
1
10
35.718750002169
20
-0.260538470422631
30
2E-16
41
1
10
35.9531250089101
20
-0.458765208086618
30
2E-16
41
1
10
36.1875000044807
20
-0.654498967182974
30
2E-16
41
1
10
36.4218749731651
20
-0.84693436303516
30
2E-16
41
1
10
36.656249951339
20
-1.03526736259937
30
2E-16
41
1
10
36.8906249754282
20
-1.21869246873155
30
2E-16
41
1
10
37.1250000056224
20
-1.39642978632838
30
2E-16
41
1
10
37.3593750020791
20
-1.56770530273235
30
1E-16
41
1
10
37.5937499868363
20
-1.73176516613353
30
1E-16
41
1
10
37.8281249819625
20
-1.88785895360806
30
0
41
1
10
38.0624999955693
20
-2.03528600580779
30
-1E-16
41
1
10
38.2968750357629
20
-2.17335935897665
30
2E-16
41
1
10
38.4921875600171
20
-2.28018217185411
30
0
41
1
10
38.6484375550149
20
-2.360415270175
30
0
41
1
10
38.804687537671
20
-2.43698161599485
30
-1E-16
41
1
10
38.9609375077358
20
-2.50793312041449
30
1E-16
41
1
10
39.1171874770446
20
-2.5729806121779
30
0
41
1
10
39.2734374503292
20
-2.63398425275202
30
0
41
1
10
39.4296874362983
20
-2.68884236551963
30
1E-16
41
1
10
39.5859374484057
20
-2.73732274448059
30
0
41
1
10
39.742187470917
20
-2.78146511786525
30
1E-16
41
1
10
39.8984374984714
20
-2.81906510886691
30
1E-16
41
1
10
40.0546875099457
20
-2.84996774337017
30
0
41
1
10
40.2109375130184
20
-2.87633424583001
30
0
41
1
10
40.3671875069807
20
-2.89589347646839
30
0
41
1
10
40.5234374988112
20
-2.9085453673687
30
0
41
1
10
40.6796874924875
20
-2.91653987934535
30
0
41
1
10
40.8359374938354
20
-2.91758102038958
30
0
41
1
10
40.9921875126665
20
-2.9116325407555
30
0
41
1
10
41.1484375357472
20
-2.90099258847815
30
0
41
1
10
41.30468755408
20
-2.88338450753429
30
0
41
1
10
41.4609375454122
20
-2.85883933852074
30
0
41
1
10
41.6171875259046
20
-2.82965908998642
30
0
41
1
10
41.749710867344
20
-2.79910101314596
30
0
41
1
10
41.8431717226847
20
-2.77432943046963
30
0
41
1
10
41.8585075843126
20
-2.77017807879878
30
0
0
SPLINE
5
12E
100
AcDbEntity
8
1
62
256
6
ByLayer
370
18
48
1
60
0
100
AcDbSpline
70
4
71
3
72
40
73
36
40
0
40
0
40
0
40
0
40
0.0113747371993196
40
0.0459310991584785
40
0.0804874611176374
40
0.115043823076796
40
0.149600185035955
40
0.184156546995114
40
0.218712908954273
40
0.253269270913431
40
0.28782563287259
40
0.322381994831749
40
0.356938356790908
40
0.391494718750067
40
0.426051080709225
40
0.460607442668384
40
0.495163804627543
40
0.529720166586702
40
0.564276528545861
40
0.598832890505019
40
0.633389252464178
40
0.667945614423337
40
0.702501976382496
40
0.737058338341655
40
0.771614700300813
40
0.806171062259972
40
0.840727424219131
40
0.858005605198711
40
0.87528378617829
40
0.909840148137449
40
0.927118329117028
40
0.944396510096609
40
0.978952872055766
40
0.996231053035347
40
1
40
1
40
1
40
1
41
1
10
32.8291020084528
20
2.154078406514
30
-1E-16
41
1
10
32.8548180067627
20
2.14544165875233
30
-1E-16
41
1
10
32.9586590050749
20
2.11002590854847
30
-1E-16
41
1
10
33.1406250019461
20
2.04417211118965
30
1E-16
41
1
10
33.3749999996829
20
1.95230877502149
30
1E-16
41
1
10
33.6093749993216
20
1.85363846967104
30
1E-16
41
1
10
33.8437499997793
20
1.74851277071343
30
-1E-16
41
1
10
34.0781249999781
20
1.63723807546569
30
-1E-16
41
1
10
34.3125000000118
20
1.52021828071537
30
0
41
1
10
34.5468749999748
20
1.39780439770544
30
1E-16
41
1
10
34.7812499999393
20
1.27044359034636
30
1E-16
41
1
10
35.0156249999772
20
1.13855013185648
30
0
41
1
10
35.2500000000128
20
1.00260933071453
30
-1E-16
41
1
10
35.4843749999707
20
0.863077164198302
30
2E-16
41
1
10
35.7187500021668
20
0.720479236980594
30
1E-16
41
1
10
35.9531250089219
20
0.575322910877787
30
0
41
1
10
36.1875000044901
20
0.428154588205132
30
-1E-16
41
1
10
36.421874973126
20
0.279517330420987
30
-2E-16
41
1
10
36.6562499513398
20
0.12999087996161
30
1E-16
41
1
10
36.8906249754638
20
-0.0198470641544191
30
0
41
1
10
37.1250000056229
20
-0.169415490381681
30
0
41
1
10
37.3593750020557
20
-0.318109853302474
30
-1E-16
41
1
10
37.5937499868427
20
-0.465327286561376
30
2E-16
41
1
10
37.8281249819598
20
-0.610450198357171
30
1E-16
41
1
10
38.062499995557
20
-0.752896001360256
30
0
41
1
10
38.2968750358028
20
-0.892032552267267
30
-1E-16
41
1
10
38.4921875600281
20
-1.00459901519051
30
1E-16
41
1
10
38.6484375549894
20
-1.09231247389124
30
-1E-16
41
1
10
38.8046875376525
20
-1.17853989004928
30
1E-16
41
1
10
38.9609375077429
20
-1.26222922449816
30
1E-16
41
1
10
39.1171874770369
20
-1.34306377465117
30
0
41
1
10
39.2734374503035
20
-1.42201533833543
30
0
41
1
10
39.4296874362826
20
-1.4978320558713
30
0
41
1
10
39.5553957788377
20
-1.5560648108825
30
-1E-16
41
1
10
39.6029791172374
20
-1.57768975303094
30
-1E-16
41
1
10
39.6114999510733
20
-1.58154853282105
30
-1E-16
0
SPLINE
5
12F
100
AcDbEntity
8
1
62
256
6
ByLayer
370
18
48
1
60
0
100
AcDbSpline
70
4
71
3
72
12
73
8
40
0
40
0
40
0
40
0
40
0.500000000000027
40
0.500000000000027
40
0.750000000000013
40
0.750000000000013
40
1
40
1
40
1
40
1
41
1
10
52.3324371925796
20
2.34518299570979
30
0
41
1
10
52.4027071847315
20
2.32633954961537
30
0
41
1
10
52.4717149619981
20
2.30217494161653
30
0
41
1
10
52.5727996489933
20
2.25835810763209
30
0
41
1
10
52.6060857112205
20
2.24248917001273
30
0
41
1
10
52.6716817858737
20
2.20828412508379
30
0
41
1
10
52.704044923682
20
2.18991370334209
30
0
41
1
10
52.7356496933959
20
2.17044237888689
30
0
0
SPLINE
5
130
100
AcDbEntity
8
1
62
256
6
ByLayer
370
18
48
1
60
0
100
AcDbSpline
70
4
71
3
72
55
73
51
40
0
40
0
40
0
40
0
40
0.0133883515514825
40
0.0445011715060844
40
0.0756139914606865
40
0.106726811415288
40
0.122283221392589
40
0.13783963136989
40
0.168952451324492
40
0.184508861301793
40
0.200065271279095
40
0.231178091233696
40
0.246734501210998
40
0.262290911188299
40
0.2934037311429
40
0.3089601411202
40
0.324516551097502
40
0.355629371052104
40
0.371185781029405
40
0.386742191006706
40
0.417855010961308
40
0.433411420938608
40
0.448967830915909
40
0.480080650870511
40
0.495637060847811
40
0.511193470825114
40
0.542306290779715
40
0.557862700757016
40
0.573419110734318
40
0.604531930688919
40
0.620088340666219
40
0.635644750643521
40
0.666757570598123
40
0.682313980575424
40
0.697870390552725
40
0.728983210507327
40
0.744539620484628
40
0.760096030461929
40
0.791208850416531
40
0.806765260393832
40
0.822321670371133
40
0.853434490325734
40
0.868990900303035
40
0.884547310280336
40
0.915660130234939
40
0.93121654021224
40
0.94677295018954
40
0.977885770144142
40
0.993442180121443
40
1
40
1
40
1
40
1
41
1
10
37.7272696171256
20
1.22778077019299
30
0
41
1
10
37.7608880725994
20
1.20065730582621
30
0
41
1
10
37.8726315286659
20
1.11001944769458
30
0
41
1
10
38.0624999955693
20
0.953481213081261
30
0
41
1
10
38.2968750357629
20
0.756684600092314
30
0
41
1
10
38.4921875600171
20
0.590340846028823
30
-1E-16
41
1
10
38.6484375550149
20
0.456235254443442
30
-2E-16
41
1
10
38.804687537671
20
0.321648570117134
30
1E-16
41
1
10
38.9609375077358
20
0.186600619480288
30
0
41
1
10
39.1171874770446
20
0.051563541034767
30
-1E-16
41
1
10
39.2734374503292
20
-0.0833121846199276
30
2E-16
41
1
10
39.4296874362983
20
-0.217681828377806
30
1E-16
41
1
10
39.5859374484057
20
-0.351051996404578
30
-1E-16
41
1
10
39.742187470917
20
-0.48360968782427
30
-2E-16
41
1
10
39.8984374984714
20
-0.614713005132728
30
1E-16
41
1
10
40.0546875099457
20
-0.743910368287317
30
0
41
1
10
40.2109375130184
20
-0.871684377177559
30
-2E-16
41
1
10
40.3671875069807
20
-0.997094767401705
30
1E-16
41
1
10
40.5234374988112
20
-1.11968844822582
30
0
41
1
10
40.6796874924875
20
-1.24025335036021
30
-2E-16
41
1
10
40.8359374938354
20
-1.35756621798927
30
1E-16
41
1
10
40.9921875126665
20
-1.47119746857669
30
-1E-16
41
1
10
41.1484375357472
20
-1.58222488915087
30
2E-16
41
1
10
41.30468755408
20
-1.6891568866929
30
0
41
1
10
41.4609375454122
20
-1.79158644006924
30
2E-16
41
1
10
41.6171875259046
20
-1.89087249032454
30
0
41
1
10
41.773437500904
20
-1.9852811108648
30
2E-16
41
1
10
41.9296874919421
20
-2.07444500785206
30
0
41
1
10
42.0859374905663
20
-2.15997905674644
30
0
41
1
10
42.2421874958982
20
-2.239933988762
30
-1E-16
41
1
10
42.3984374985988
20
-2.31398385070523
30
1E-16
41
1
10
42.5546874999755
20
-2.38397727105126
30
0
41
1
10
42.7109375000099
20
-2.44778568448623
30
0
41
1
10
42.8671874999889
20
-2.50513816414505
30
1E-16
41
1
10
43.0234374999496
20
-2.55808237054811
30
0
41
1
10
43.1796874999116
20
-2.60434857819084
30
1E-16
41
1
10
43.3359374999324
20
-2.64372412623646
30
0
41
1
10
43.4921874999723
20
-2.67842104017691
30
-1E-16
41
1
10
43.6484375000109
20
-2.70607299541396
30
0
41
1
10
43.8046874999878
20
-2.72653528870688
30
-1E-16
41
1
10
43.9609374997528
20
-2.74214110654205
30
0
41
1
10
44.1171874989437
20
-2.75047432855879
30
0
41
1
10
44.2734374970489
20
-2.7514616274965
30
0
41
1
10
44.4296874957506
20
-2.74751274282991
30
0
41
1
10
44.585937497327
20
-2.73621255540033
30
0
41
1
10
44.7421875057402
20
-2.71756510013131
30
0
41
1
10
44.8984375158603
20
-2.69400651008755
30
0
41
1
10
45.0546875242592
20
-2.6631744127871
30
0
41
1
10
45.1883418578169
20
-2.63065017851491
30
0
41
1
10
45.243871191016
20
-2.61593024201474
30
0
41
1
10
45.2603380255062
20
-2.61145983295816
30
0
0
SPLINE
5
131
100
AcDbEntity
8
1
62
256
6
ByLayer
370
18
48
1
60
0
100
AcDbSpline
70
4
71
3
72
23
73
19
40
0
40
0
40
0
40
0
40
0.241721055280836
40
0.241721055280836
40
0.362581582921252
40
0.362581582921252
40
0.392796714831355
40
0.392796714831355
40
0.423011846741458
40
0.483442110561668
40
0.483442110561668
40
0.725163165842503
40
0.725163165842503
40
0.966884221123341
40
0.966884221123341
40
0.997099353033447
40
0.997099353033447
40
1
40
1
40
1
40
1
41
1
10
23.9999999999994
20
-2.65437951517046
30
0
41
1
10
24.2893085965297
20
-2.83687641919957
30
0
41
1
10
24.5767136168455
20
-2.99962104592711
30
-1E-16
41
1
10
25.0087393931929
20
-3.21164436829977
30
0
41
1
10
25.1529035759891
20
-3.2769575071647
30
1E-16
41
1
10
25.3337148849893
20
-3.35154993208718
30
1E-16
41
1
10
25.3699281387741
20
-3.3661234601837
30
-1E-16
41
1
10
25.4422169522947
20
-3.39447563553037
30
0
41
1
10
25.5505064359155
20
-3.43583869435017
30
1E-16
41
1
10
25.658412660318
20
-3.47370694049488
30
-1E-16
41
1
10
26.0174578644129
20
-3.59215728597468
30
0
41
1
10
26.3026494333129
20
-3.66208993465062
30
-1E-16
41
1
10
26.8740708701736
20
-3.75109210676877
30
0
41
1
10
27.1602747406508
20
-3.77017137850021
30
0
41
1
10
27.4858996811288
20
-3.76137015674521
30
0
41
1
10
27.5221633811549
20
-3.75996853277832
30
0
41
1
10
27.5618308411653
20
-3.75797397946081
30
0
41
1
10
27.5653048874075
20
-3.75779542192464
30
0
41
1
10
27.568778468794
20
-3.7576130148943
30
0
0
SPLINE
5
132
100
AcDbEntity
8
1
62
256
6
ByLayer
370
18
48
1
60
0
100
AcDbSpline
70
4
71
3
72
80
73
76
40
0
40
0
40
0
40
0
40
0.0194474316029913
40
0.0194474316029913
40
0.0580336343210098
40
0.0580336343210098
40
0.096619837039028
40
0.096619837039028
40
0.106266387718533
40
0.106266387718533
40
0.115912938398039
40
0.135206039757052
40
0.135206039757052
40
0.17379224247508
40
0.17379224247508
40
0.212378445193109
40
0.212378445193109
40
0.250964647911137
40
0.250964647911137
40
0.260611198590645
40
0.260611198590645
40
0.270257749270153
40
0.289550850629168
40
0.289550850629168
40
0.328137053347196
40
0.328137053347196
40
0.366723256065225
40
0.366723256065225
40
0.405309458783254
40
0.405309458783254
40
0.414956009462761
40
0.414956009462761
40
0.424602560142268
40
0.424602560142268
40
0.44389566150128
40
0.44389566150128
40
0.482481864219307
40
0.482481864219307
40
0.521068066937333
40
0.521068066937333
40
0.55965426965536
40
0.55965426965536
40
0.569300820334866
40
0.569300820334866
40
0.578947371014372
40
0.598240472373384
40
0.598240472373384
40
0.63682667509141
40
0.63682667509141
40
0.675412877809437
40
0.675412877809437
40
0.713999080527463
40
0.713999080527463
40
0.733292181886475
40
0.733292181886475
40
0.752585283245488
40
0.752585283245488
40
0.79117148596351
40
0.79117148596351
40
0.829757688681533
40
0.829757688681533
40
0.849050790040544
40
0.849050790040544
40
0.85869734072005
40
0.85869734072005
40
0.868343891399555
40
0.90693009411758
40
0.90693009411758
40
0.945516296835604
40
0.945516296835604
40
0.984102499553629
40
0.984102499553629
40
0.993749050233135
40
0.993749050233135
40
1
40
1
40
1
40
1
41
1
10
38.4401865226622
20
3.01567095443545
30
0
41
1
10
38.5122112716281
20
3.03309974716728
30
0
41
1
10
38.5841777452469
20
3.04861221641673
30
0
41
1
10
38.7989402478985
20
3.08914788430238
30
0
41
1
10
38.9417439522464
20
3.10848323491538
30
0
41
1
10
39.2283651403443
20
3.13145894160215
30
0
41
1
10
39.3721894264863
20
3.13509826219703
30
0
41
1
10
39.5532875564869
20
3.12943398038516
30
0
41
1
10
39.5895677561759
20
3.1277885190126
30
0
41
1
10
39.6619247236897
20
3.12349120904349
30
0
41
1
10
39.7702861946235
20
3.1155324663263
30
0
41
1
10
39.8781956535636
20
3.10307909726319
30
0
41
1
10
40.09359809339
20
3.07227584637147
30
0
41
1
10
40.2366521196856
20
3.04388475728101
30
0
41
1
10
40.5226479524293
20
2.97175661891171
30
0
41
1
10
40.6655935723612
20
2.92802040409015
30
0
41
1
10
40.9523692720488
20
2.82538210267563
30
0
41
1
10
41.0961984725713
20
2.76647994730442
30
0
41
1
10
41.2772087333737
20
2.68337699791311
30
-1E-16
41
1
10
41.3134863362908
20
2.66627527739129
30
0
41
1
10
41.3861224226054
20
2.63115043205866
30
1E-16
41
1
10
41.4948795874389
20
2.57723608642209
30
0
41
1
10
41.6031285711533
20
2.5197235915368
30
1E-16
41
1
10
41.8191437757892
20
2.40009217990246
30
-1E-16
41
1
10
41.9625119109022
20
2.31420125329856
30
-1E-16
41
1
10
42.2490246366624
20
2.1310608231862
30
-1E-16
41
1
10
42.3921636910944
20
2.03380722807211
30
1E-16
41
1
10
42.6792743765368
20
1.82871102644174
30
2E-16
41
1
10
42.8232358893421
20
1.72086048472249
30
0
41
1
10
43.0044089028967
20
1.57984807847888
30
-1E-16
41
1
10
43.0407045585335
20
1.55133522562212
30
-1E-16
41
1
10
43.1134368426261
20
1.49369870285125
30
1E-16
41
1
10
43.1497781909131
20
1.464650315109
30
1E-16
41
1
10
43.2585595854537
20
1.37700184632629
30
-1E-16
41
1
10
43.330840035184
20
1.31783291547225
30
0
41
1
10
43.5471819265509
20
1.13836998377636
30
0
41
1
10
43.6907347200573
20
1.01611195301297
30
-2E-16
41
1
10
43.9776089927262
20
0.767608637012756
30
0
41
1
10
44.120926749205
20
0.641359375790984
30
-2E-16
41
1
10
44.4084460683093
20
0.38606398827659
30
0
41
1
10
44.552648011772
20
0.257018554476048
30
-2E-16
41
1
10
44.734194347606
20
0.0947228520932981
30
-2E-16
41
1
10
44.7706105290923
20
0.0621781216472073
30
-1E-16
41
1
10
44.843390788481
20
-0.0028071225004851
30
0
41
1
10
44.9523543093252
20
-0.100015059075531
30
-2E-16
41
1
10
45.0607842228348
20
-0.196326211592833
30
0
41
1
10
45.2771585938102
20
-0.387520260441988
30
0
41
1
10
45.4207680353173
20
-0.513072736766674
30
-1E-16
41
1
10
45.7078678239474
20
-0.759109558430396
30
0
41
1
10
45.8513618108362
20
-0.879589775891361
30
-2E-16
41
1
10
46.1394244743134
20
-1.11412232213988
30
-1E-16
41
1
10
46.2839925623481
20
-1.22817553790196
30
2E-16
41
1
10
46.5026232504477
20
-1.39327037623113
30
2E-16
41
1
10
46.575272117048
20
-1.4469053075122
30
-2E-16
41
1
10
46.7200737918625
20
-1.55112074840952
30
1E-16
41
1
10
46.792260044472
20
-1.60172805217209
30
2E-16
41
1
10
47.0084092258737
20
-1.74889208449025
30
1E-16
41
1
10
47.1519624212684
20
-1.84079703108225
30
-1E-16
41
1
10
47.439233954608
20
-2.01119828404771
30
0
41
1
10
47.5829471222627
20
-2.08969926591297
30
0
41
1
10
47.7996042582816
20
-2.19647583242343
30
0
41
1
10
47.8720044453686
20
-2.23023729584764
30
-1E-16
41
1
10
47.9810044733592
20
-2.27799645320221
30
0
41
1
10
48.0174330425227
20
-2.29344690675583
30
0
41
1
10
48.0903228677029
20
-2.32330963546605
30
-1E-16
41
1
10
48.2721704521717
20
-2.39518536318303
30
1E-16
41
1
10
48.4524080678345
20
-2.45318600906677
30
0
41
1
10
48.7400868963032
20
-2.52803187585684
30
0
41
1
10
48.8835679689823
20
-2.55648024760066
30
0
41
1
10
49.1711525505084
20
-2.59494260951433
30
0
41
1
10
49.3152502495767
20
-2.60495924389093
30
0
41
1
10
49.4966413550035
20
-2.60545096814099
30
0
41
1
10
49.5329835546627
20
-2.60494694281474
30
0
41
1
10
49.5930001949536
20
-2.60311002463297
30
0
41
1
10
49.6166226352398
20
-2.60213069532202
30
0
41
1
10
49.640220015299
20
-2.60089745035785
30
0
0
SPLINE
5
133
100
AcDbEntity
8
1
62
256
6
ByLayer
370
18
48
1
60
0
100
AcDbSpline
70
4
71
3
72
82
73
78
40
0
40
0
40
0
40
0
40
0.0402689971792444
40
0.0402689971792444
40
0.0805379943584888
40
0.0805379943584888
40
0.120806991537733
40
0.120806991537733
40
0.130874240832543
40
0.130874240832543
40
0.140941490127352
40
0.140941490127352
40
0.161075988716973
40
0.161075988716973
40
0.201344985896213
40
0.201344985896213
40
0.241613983075454
40
0.241613983075454
40
0.261748481665074
40
0.261748481665074
40
0.271815730959883
40
0.271815730959883
40
0.281882980254692
40
0.281882980254692
40
0.322151977433923
40
0.322151977433923
40
0.362420974613155
40
0.362420974613155
40
0.382555473202771
40
0.382555473202771
40
0.392622722497579
40
0.392622722497579
40
0.402689971792387
40
0.402689971792387
40
0.442958968971623
40
0.442958968971623
40
0.483227966150859
40
0.483227966150859
40
0.523496963330095
40
0.523496963330095
40
0.533564212624904
40
0.533564212624904
40
0.543631461919714
40
0.543631461919714
40
0.563765960509333
40
0.563765960509333
40
0.604034957688569
40
0.604034957688569
40
0.644303954867805
40
0.644303954867805
40
0.664438453457422
40
0.664438453457422
40
0.684572952047039
40
0.684572952047039
40
0.724841949226275
40
0.724841949226275
40
0.765110946405511
40
0.765110946405511
40
0.805379943584747
40
0.805379943584747
40
0.825514442174364
40
0.825514442174364
40
0.835581691469172
40
0.835581691469172
40
0.845648940763979
40
0.845648940763979
40
0.885917937943211
40
0.885917937943211
40
0.926186935122443
40
0.926186935122443
40
0.966455932301674
40
0.966455932301674
40
0.976523181596483
40
0.976523181596483
40
0.986590430891292
40
0.986590430891292
40
1
40
1
40
1
40
1
41
1
10
51.6308398906074
20
-2.34018142429304
30
0
41
1
10
51.4848551728695
20
-2.39298079165434
30
1E-16
41
1
10
51.3401550335769
20
-2.43587714220854
30
0
41
1
10
51.0516593176702
20
-2.50216852385503
30
0
41
1
10
50.9078898835028
20
-2.52556658640134
30
0
41
1
10
50.6197666201594
20
-2.55281764447403
30
0
41
1
10
50.4754384170324
20
-2.55667130179941
30
0
41
1
10
50.2937332476014
20
-2.54902154422476
30
0
41
1
10
50.2573269137066
20
-2.54686749799487
30
0
41
1
10
50.1843612467623
20
-2.54130088840242
30
0
41
1
10
50.1479162199622
20
-2.53789639570849
30
0
41
1
10
50.0388318043248
20
-2.52586139371792
30
0
41
1
10
49.966370866005
20
-2.51540374245084
30
0
41
1
10
49.7494596371917
20
-2.47694150331481
30
0
41
1
10
49.6054921556011
20
-2.44185579314507
30
-1E-16
41
1
10
49.3174327652797
20
-2.35358713612803
30
0
41
1
10
49.1733189749962
20
-2.30041595090236
30
1E-16
41
1
10
48.9560137270673
20
-2.20743453117129
30
1E-16
41
1
10
48.8833795902633
20
-2.17424041699337
30
0
41
1
10
48.7740020332552
20
-2.12116785877782
30
1E-16
41
1
10
48.7375569963868
20
-2.10297015252854
30
0
41
1
10
48.6648548329313
20
-2.06567525690397
30
0
41
1
10
48.6285693403773
20
-2.04656429728809
30
-1E-16
41
1
10
48.4474116688308
20
-1.94875501038214
30
-1E-16
41
1
10
48.3033161695295
20
-1.86332864156253
30
-1E-16
41
1
10
48.015471878353
20
-1.67945429742406
30
-1E-16
41
1
10
47.8716968091818
20
-1.58102862478421
30
2E-16
41
1
10
47.6552914944576
20
-1.42447728298734
30
-2E-16
41
1
10
47.5830349117084
20
-1.37080370867429
30
1E-16
41
1
10
47.4743235291984
20
-1.28817039831676
30
-1E-16
41
1
10
47.4380330494209
20
-1.2602709837478
30
-2E-16
41
1
10
47.3653268083515
20
-1.20377372032507
30
2E-16
41
1
10
47.3288628208604
20
-1.17513768448464
30
1E-16
41
1
10
47.1468745584576
20
-1.03080287792983
30
2E-16
41
1
10
47.0023995815978
20
-0.911738291646742
30
-1E-16
41
1
10
46.7143127356169
20
-0.668020930615455
30
-2E-16
41
1
10
46.5707131333132
20
-0.543354462707811
30
-1E-16
41
1
10
46.2831093568946
20
-0.289852858429981
30
-2E-16
41
1
10
46.1391271724705
20
-0.1609927904654
30
-1E-16
41
1
10
45.9580979858497
20
0.0018377177757429
30
0
41
1
10
45.9218408377978
20
0.0344932277101577
30
-1E-16
41
1
10
45.8492040072879
20
0.0999626938499318
30
2E-16
41
1
10
45.8127780473307
20
0.132818548204568
30
1E-16
41
1
10
45.7037353109522
20
0.231184524517914
30
-1E-16
41
1
10
45.6313079806626
20
0.296519924980288
30
2E-16
41
1
10
45.4145885778935
20
0.491561896702564
30
2E-16
41
1
10
45.2708841563729
20
0.620333382458142
30
-1E-16
41
1
10
44.9837119194434
20
0.87400589842278
30
2E-16
41
1
10
44.8402845413179
20
0.998950066785824
30
-1E-16
41
1
10
44.6244343414282
20
1.18250646373929
30
-1E-16
41
1
10
44.5523686791321
20
1.24305096793893
30
2E-16
41
1
10
44.4078666632853
20
1.36270080551728
30
-1E-16
41
1
10
44.335410466413
20
1.42182492707832
30
2E-16
41
1
10
44.1173501689517
20
1.59663337242867
30
-2E-16
41
1
10
43.9730919019324
20
1.70816644505101
30
0
41
1
10
43.6855835212644
20
1.92050017906968
30
-1E-16
41
1
10
43.542314393866
20
2.02128518932744
30
1E-16
41
1
10
43.2556638063175
20
2.21131133111845
30
-1E-16
41
1
10
43.1122479471062
20
2.300527410618
30
-1E-16
41
1
10
42.8961973518042
20
2.4249597234037
30
1E-16
41
1
10
42.8240167683373
20
2.46486436088759
30
0
41
1
10
42.7153922668759
20
2.52225750295682
30
1E-16
41
1
10
42.6790816452372
20
2.54100044128472
30
0
41
1
10
42.6065922160803
20
2.57751456946878
30
0
41
1
10
42.5704138437184
20
2.59528698185557
30
-1E-16
41
1
10
42.3898066130529
20
2.68172598643523
30
-1E-16
41
1
10
42.2462031366417
20
2.74312024138351
30
0
41
1
10
41.9596718942026
20
2.85030482882559
30
0
41
1
10
41.8167267970633
20
2.89608786705716
30
0
41
1
10
41.5304157291895
20
2.97173168103569
30
0
41
1
10
41.3870481221368
20
3.00159204436838
30
0
41
1
10
41.206895522191
20
3.02863734338749
30
0
41
1
10
41.1708184383655
20
3.03353188127372
30
0
41
1
10
41.0985535165651
20
3.04228122410345
30
0
41
1
10
41.0623258346387
20
3.04613947644657
30
0
41
1
10
40.9779294396125
20
3.05388998975371
30
0
41
1
10
40.9298355593273
20
3.05736678483288
30
0
41
1
10
40.881835789738
20
3.05990499388747
30
0
0
SPLINE
5
134
100
AcDbEntity
8
1
62
256
6
ByLayer
370
18
48
1
60
0
100
AcDbSpline
70
4
71
3
72
36
73
32
40
0
40
0
40
0
40
0
40
0.0107497992379557
40
0.0107497992379557
40
0.0272373025839907
40
0.0272373025839907
40
0.0437248059300257
40
0.0437248059300257
40
0.076699812622092
40
0.076699812622092
40
0.208599839390368
40
0.208599839390368
40
0.274549852774504
40
0.274549852774504
40
0.34049986615864
40
0.34049986615864
40
0.472399892926913
40
0.472399892926913
40
0.538349906311051
40
0.538349906311051
40
0.604299919695189
40
0.604299919695189
40
0.637274926387256
40
0.637274926387256
40
0.670249933079323
40
0.670249933079323
40
0.736199946463458
40
0.736199946463458
40
0.868099973231729
40
0.868099973231729
40
1
40
1
40
1
40
1
41
1
10
30.5419716844327
20
-3.41901618104862
30
0
41
1
10
30.5184490126531
20
-3.42686244429774
30
0
41
1
10
30.4949076199465
20
-3.4345392337959
30
1E-16
41
1
10
30.435213545753
20
-3.45355997429121
30
1E-16
41
1
10
30.3990328063703
20
-3.46467286056301
30
-1E-16
41
1
10
30.3265670848574
20
-3.48608761276978
30
0
41
1
10
30.2902538456924
20
-3.49639656466689
30
0
41
1
10
30.1815414645133
20
-3.52598630399731
30
0
41
1
10
30.1092656568909
20
-3.54396327835326
30
0
41
1
10
29.7486504094415
20
-3.62519153717821
30
0
41
1
10
29.4627384776287
20
-3.66256099702102
30
0
41
1
10
29.0330635328427
20
-3.67779940250568
30
0
41
1
10
28.8897035074245
20
-3.67606368420204
30
0
41
1
10
28.6019444745882
20
-3.65892118841691
30
0
41
1
10
28.4575573869929
20
-3.64350331842761
30
0
41
1
10
28.0220824461833
20
-3.57645338733238
30
-1E-16
41
1
10
27.7350779564462
20
-3.50511843420065
30
0
41
1
10
27.3052661558904
20
-3.36141320501531
30
1E-16
41
1
10
27.1621149503638
20
-3.30737959272386
30
0
41
1
10
26.8754403851982
20
-3.18736830789223
30
-1E-16
41
1
10
26.7319076218168
20
-3.12139436259687
30
2E-16
41
1
10
26.5157582979406
20
-3.01371249533781
30
0
41
1
10
26.4435686884056
20
-2.97636316932466
30
-1E-16
41
1
10
26.2988231255761
20
-2.89877887499608
30
1E-16
41
1
10
26.2261652482944
20
-2.8584817335117
30
0
41
1
10
26.0091056787792
20
-2.73422911773346
30
2E-16
41
1
10
25.8651779513515
20
-2.64669544203991
30
0
41
1
10
25.4346926866353
20
-2.37117770356653
30
-2E-16
41
1
10
25.1494139962521
20
-2.17032448709281
30
2E-16
41
1
10
24.577207965549
20
-1.73936459618875
30
1E-16
41
1
10
24.2902663256571
20
-1.50927740821601
30
0
41
1
10
23.9999999999999
20
-1.26658632802884
30
-1E-16
0
SPLINE
5
135
100
AcDbEntity
8
1
62
256
6
ByLayer
370
18
48
1
60
0
100
AcDbSpline
70
4
71
3
72
36
73
32
40
0
40
0
40
0
40
0
40
0.015421376573608
40
0.0508536145876597
40
0.0862858526017114
40
0.121718090615763
40
0.157150328629815
40
0.192582566643867
40
0.228014804657919
40
0.26344704267197
40
0.298879280686022
40
0.334311518700073
40
0.369743756714125
40
0.405175994728177
40
0.440608232742229
40
0.47604047075628
40
0.511472708770332
40
0.546904946784384
40
0.582337184798436
40
0.617769422812487
40
0.653201660826539
40
0.688633898840591
40
0.724066136854642
40
0.759498374868694
40
0.794930612882746
40
0.830362850896798
40
0.865795088910849
40
0.901227326924901
40
0.936659564938953
40
0.972091802953005
40
1
40
1
40
1
40
1
41
1
10
30.6948666105421
20
3.35310190467462
30
-1E-16
41
1
10
30.7288694026204
20
3.35980057415731
30
-1E-16
41
1
10
30.8409971933714
20
3.38066049642316
30
0
41
1
10
31.031249985019
20
3.40925952189116
30
0
41
1
10
31.2656249932684
20
3.43264047512125
30
0
41
1
10
31.5000000015755
20
3.44403793938036
30
0
41
1
10
31.7343750004303
20
3.44334614285899
30
0
41
1
10
31.968749996717
20
3.43055466182804
30
0
41
1
10
32.2031249973151
20
3.40564554019875
30
0
41
1
10
32.4375000000171
20
3.36869808594227
30
0
41
1
10
32.6718750026166
20
3.3197801275621
30
0
41
1
10
32.906250003723
20
3.25905204353339
30
0
41
1
10
33.1406250019476
20
3.18666707695351
30
1E-16
41
1
10
33.3749999996829
20
3.10287982182871
30
1E-16
41
1
10
33.6093749993207
20
3.00793492242647
30
1E-16
41
1
10
33.8437499997794
20
2.90216867527488
30
1E-16
41
1
10
34.0781249999782
20
2.78591107582849
30
-1E-16
41
1
10
34.3125000000117
20
2.65958714559343
30
0
41
1
10
34.5468749999749
20
2.52361421295464
30
-1E-16
41
1
10
34.7812499999394
20
2.37849797263277
30
2E-16
41
1
10
35.0156249999769
20
2.22473910142037
30
1E-16
41
1
10
35.2500000000127
20
2.06291962043707
30
1E-16
41
1
10
35.4843749999723
20
1.8936167957722
30
0
41
1
10
35.7187500021683
20
1.71748719616045
30
0
41
1
10
35.9531250089141
20
1.53518408932737
30
0
41
1
10
36.1875000044839
20
1.34742200545639
30
0
41
1
10
36.4218749731517
20
1.15491424262694
30
0
41
1
10
36.6562499513392
20
0.958437825977228
30
0
41
1
10
36.8906249754405
20
0.758768581870243
30
0
41
1
10
37.1084101482161
20
0.571019950305612
30
0
41
1
10
37.2480702929638
20
0.449786936021582
30
0
41
1
10
37.3096054360095
20
0.396278573539831
30
1E-16
0
SPLINE
5
136
100
AcDbEntity
8
1
62
256
6
ByLayer
370
18
48
1
60
0
100
AcDbSpline
70
4
71
3
72
11
73
7
40
0
40
0
40
0
40
0
40
0.174518039790646
40
0.612424331826884
40
0.831377477845003
40
1
40
1
40
1
40
1
41
1
10
51.7972198677613
20
2.28132902749491
30
0
41
1
10
51.8283548949219
20
2.28758022105094
30
0
41
1
10
51.9376149399012
20
2.30798987193006
30
0
41
1
10
52.0859374993282
20
2.32834889999865
30
0
41
1
10
52.2332082379739
20
2.34056638242629
30
0
41
1
10
52.3023539656746
20
2.34407845395205
30
0
41
1
10
52.3324371925799
20
2.34518299570976
30
0
0
SPLINE
5
137
100
AcDbEntity
8
1
62
256
6
ByLayer
370
18
48
1
60
0
100
AcDbSpline
70
4
71
3
72
16
73
12
40
0
40
0
40
0
40
0
40
0.250000000000008
40
0.250000000000008
40
0.500000000000017
40
0.500000000000017
40
0.750000000000025
40
0.750000000000025
40
0.875000000000012
40
0.875000000000012
40
1
40
1
40
1
40
1
41
1
10
51.6308398906074
20
2.34547014772528
30
-1E-16
41
1
10
51.6896566421286
20
2.36060005771108
30
0
41
1
10
51.7480609349936
20
2.37199339820651
30
0
41
1
10
51.8645453831859
20
2.38734555888797
30
0
41
1
10
51.9226238220071
20
2.39130489904204
30
-1E-16
41
1
10
52.0389440285873
20
2.39162327706825
30
0
41
1
10
52.0971841035946
20
2.38798408544198
30
0
41
1
10
52.1850620007323
20
2.37652371221691
30
0
41
1
10
52.2144414777069
20
2.37170128236238
30
0
41
1
10
52.2734496075989
20
2.35997235682811
30
0
41
1
10
52.3029485799953
20
2.35309061633362
30
0
41
1
10
52.3324371925799
20
2.34518299570976
30
0
0
SPLINE
5
138
100
AcDbEntity
8
1
62
256
6
ByLayer
370
18
48
1
60
0
100
AcDbSpline
70
4
71
3
72
75
73
71
40
0
40
0
40
0
40
0
40
0.0281979510086485
40
0.0281979510086485
40
0.0966395336422415
40
0.0966395336422415
40
0.11374992930064
40
0.11374992930064
40
0.130860324959038
40
0.130860324959038
40
0.165081116275835
40
0.165081116275835
40
0.233522698909428
40
0.233522698909428
40
0.250633094567826
40
0.250633094567826
40
0.267743490226225
40
0.267743490226225
40
0.301964281543023
40
0.301964281543023
40
0.370405864176619
40
0.370405864176619
40
0.404626655493418
40
0.404626655493418
40
0.413181853322618
40
0.413181853322618
40
0.421737051151817
40
0.421737051151817
40
0.438847446810216
40
0.438847446810216
40
0.507289029443811
40
0.507289029443811
40
0.541509820760609
40
0.541509820760609
40
0.55862021641901
40
0.56717541424821
40
0.56717541424821
40
0.57573061207741
40
0.57573061207741
40
0.644172194711014
40
0.644172194711014
40
0.678392986027816
40
0.678392986027816
40
0.712613777344618
40
0.712613777344618
40
0.721168975173819
40
0.721168975173819
40
0.72972417300302
40
0.746834568661424
40
0.746834568661424
40
0.781055359978233
40
0.781055359978233
40
0.815276151295042
40
0.815276151295042
40
0.849496942611852
40
0.849496942611852
40
0.858052140441055
40
0.858052140441055
40
0.866607338270258
40
0.883717733928665
40
0.883717733928665
40
0.917938525245478
40
0.917938525245478
40
0.952159316562291
40
0.952159316562291
40
0.986380107879104
40
0.986380107879104
40
0.994935305708308
40
0.994935305708308
40
1
40
1
40
1
40
1
41
1
10
30.5424688799007
20
3.41556375028176
30
0
41
1
10
30.6603155755928
20
3.44318550742622
30
0
41
1
10
30.778064802734
20
3.46629490921754
30
-1E-16
41
1
10
31.1819685652989
20
3.52985073621667
30
-1E-16
41
1
10
31.4685947952879
20
3.54798554522407
30
0
41
1
10
31.8314749165656
20
3.53481103590326
30
0
41
1
10
31.9038821570038
20
3.53039112093666
30
0
41
1
10
32.0482688546185
20
3.51804516282894
30
0
41
1
10
32.1202793339757
20
3.5101179710534
30
0
41
1
10
32.3359114735835
20
3.48114583165034
30
0
41
1
10
32.4791345253458
20
3.4549144475431
30
0
41
1
10
32.9083582816206
20
3.35589617141804
30
0
41
1
10
33.1938867220439
20
3.26284369411104
30
-1E-16
41
1
10
33.5539510972121
20
3.113206540671
30
0
41
1
10
33.6261233284204
20
3.08160834779289
30
1E-16
41
1
10
33.7708932032518
20
3.01506332081127
30
0
41
1
10
33.8436077778653
20
2.98005236206893
30
-1E-16
41
1
10
34.06074183524
20
2.87091671362529
30
-1E-16
41
1
10
34.2046478578329
20
2.79248789073583
30
-1E-16
41
1
10
34.6350682261357
20
2.54135075795881
30
-2E-16
41
1
10
34.9202749478946
20
2.35283358126083
30
-2E-16
41
1
10
35.3503850357615
20
2.04210035747104
30
1E-16
41
1
10
35.4941379166434
20
1.93385024133323
30
-1E-16
41
1
10
35.6748624871159
20
1.79301742183253
30
-2E-16
41
1
10
35.7110592118153
20
1.76457468309479
30
-1E-16
41
1
10
35.7835707885715
20
1.70714421395402
30
0
41
1
10
35.8198857066308
20
1.67815581059514
30
1E-16
41
1
10
35.9285331076899
20
1.59078817853342
30
-2E-16
41
1
10
36.0007339519416
20
1.53187635103461
30
0
41
1
10
36.3608665382711
20
1.23430567726143
30
2E-16
41
1
10
36.6461852928853
20
0.986636470407973
30
-1E-16
41
1
10
37.0752193798675
20
0.606433789534776
30
-1E-16
41
1
10
37.2184027136801
20
0.478241074957054
30
2E-16
41
1
10
37.4341174871445
20
0.284468066787411
30
2E-16
41
1
10
37.5422111444335
20
0.187211604478506
30
0
41
1
10
37.6507948916936
20
0.0895365557949503
30
-2E-16
41
1
10
37.7233087533866
20
0.0243424483529395
30
-1E-16
41
1
10
37.7595512292742
20
-0.0082241672339762
30
0
41
1
10
38.0849969495546
20
-0.300372577379676
30
-2E-16
41
1
10
38.3705574888057
20
-0.554675353357084
30
0
41
1
10
38.7989402478985
20
-0.922089027660178
30
-1E-16
41
1
10
38.9417439522464
20
-1.04221044956267
30
2E-16
41
1
10
39.2283651403444
20
-1.27662081793056
30
-1E-16
41
1
10
39.3721894264863
20
-1.39090267068533
30
2E-16
41
1
10
39.553287556487
20
-1.52930407237136
30
0
41
1
10
39.5895677561759
20
-1.5567558964247
30
1E-16
41
1
10
39.6619247236897
20
-1.61093124004947
30
2E-16
41
1
10
39.7702861946235
20
-1.69120399628449
30
0
41
1
10
39.8781956535637
20
-1.76846833186522
30
1E-16
41
1
10
40.09359809339
20
-1.918870055355
30
1E-16
41
1
10
40.2366521196856
20
-2.01363237274123
30
-2E-16
41
1
10
40.5226479524293
20
-2.19142451436733
30
-2E-16
41
1
10
40.6655935723612
20
-2.27445108993817
30
0
41
1
10
40.9523692720488
20
-2.42789334842988
30
-1E-16
41
1
10
41.0961984725713
20
-2.49830987579031
30
1E-16
41
1
10
41.2772087333737
20
-2.57776642292473
30
0
41
1
10
41.3134863362908
20
-2.59323488113725
30
1E-16
41
1
10
41.3861224226055
20
-2.62327026868346
30
-1E-16
41
1
10
41.494879587439
20
-2.66683999762546
30
0
41
1
10
41.6031285711533
20
-2.70596007765113
30
-1E-16
41
1
10
41.8191437757893
20
-2.77826174456592
30
1E-16
41
1
10
41.9625119109022
20
-2.81854999159674
30
-1E-16
41
1
10
42.2490246366624
20
-2.88308924934449
30
0
41
1
10
42.3921636910945
20
-2.90734234913458
30
0
41
1
10
42.6792743765368
20
-2.93939698382317
30
0
41
1
10
42.8232358893421
20
-2.94720167826438
30
0
41
1
10
43.0044089028968
20
-2.94626829486722
30
0
41
1
10
43.0407045585335
20
-2.94554656949535
30
0
41
1
10
43.0985995296858
20
-2.94353550946912
30
0
41
1
10
43.1201196694128
20
-2.94259883122516
30
0
41
1
10
43.1416194824533
20
-2.94147489043724
30
0
0
SPLINE
5
139
100
AcDbEntity
8
1
62
256
6
ByLayer
370
18
48
1
60
0
100
AcDbSpline
70
4
71
3
72
85
73
81
40
0
40
0
40
0
40
0
40
0.0227370606290448
40
0.0227370606290448
40
0.0585999211234196
40
0.0585999211234196
40
0.0765313513706078
40
0.0765313513706078
40
0.094462781617796
40
0.094462781617796
40
0.130325642112175
40
0.130325642112175
40
0.166188502606553
40
0.166188502606553
40
0.202051363100932
40
0.202051363100932
40
0.219982793348121
40
0.219982793348121
40
0.228948508471715
40
0.228948508471715
40
0.237914223595308
40
0.237914223595308
40
0.273777084089683
40
0.273777084089683
40
0.309639944584058
40
0.309639944584058
40
0.345502805078432
40
0.345502805078432
40
0.354468520202026
40
0.354468520202026
40
0.36343423532562
40
0.36343423532562
40
0.381365665572807
40
0.381365665572807
40
0.417228526067184
40
0.417228526067184
40
0.45309138656156
40
0.45309138656156
40
0.488954247055936
40
0.488954247055936
40
0.49791996217953
40
0.49791996217953
40
0.506885677303124
40
0.506885677303124
40
0.524817107550309
40
0.524817107550309
40
0.56067996804468
40
0.56067996804468
40
0.596542828539051
40
0.596542828539051
40
0.632405689033422
40
0.632405689033422
40
0.641371404157014
40
0.641371404157014
40
0.650337119280606
40
0.650337119280606
40
0.668268549527791
40
0.668268549527791
40
0.704131410022162
40
0.704131410022162
40
0.775857131010905
40
0.775857131010905
40
0.784822846134498
40
0.784822846134498
40
0.793788561258091
40
0.793788561258091
40
0.811719991505278
40
0.811719991505278
40
0.847582851999649
40
0.847582851999649
40
0.919308572988393
40
0.919308572988393
40
0.937240003235579
40
0.937240003235579
40
0.946205718359172
40
0.946205718359172
40
0.955171433482764
40
0.991034293977131
40
0.991034293977131
40
1
40
1
40
1
40
1
41
1
10
45.4007089770013
20
-2.65750400822077
30
0
41
1
10
45.3094128454323
20
-2.68976738583967
30
0
41
1
10
45.2183316653439
20
-2.71864729132938
30
0
41
1
10
44.9837119194435
20
-2.78431832942098
30
0
41
1
10
44.8402845413181
20
-2.81606137784505
30
0
41
1
10
44.6244343414284
20
-2.8507390930329
30
0
41
1
10
44.5523686791322
20
-2.8601410677432
30
0
41
1
10
44.4078666632854
20
-2.87456342713028
30
0
41
1
10
44.3354104664132
20
-2.87958419532623
30
0
41
1
10
44.1173501689519
20
-2.88794252903091
30
0
41
1
10
43.9730919019325
20
-2.88451361347793
30
0
41
1
10
43.6855835212647
20
-2.86036811512162
30
0
41
1
10
43.5423143938661
20
-2.83965609942848
30
0
41
1
10
43.2556638063177
20
-2.78137697411347
30
0
41
1
10
43.1122479471064
20
-2.74382293832639
30
0
41
1
10
42.8961973518043
20
-2.67499346425058
30
1E-16
41
1
10
42.8240167683375
20
-2.64996962858064
30
0
41
1
10
42.7153922668761
20
-2.60931570499267
30
-1E-16
41
1
10
42.6790816452374
20
-2.59522571945678
30
1E-16
41
1
10
42.6065922160806
20
-2.56611199723412
30
0
41
1
10
42.5704138437186
20
-2.55109006922558
30
0
41
1
10
42.389806613053
20
-2.47370355715015
30
0
41
1
10
42.246203136642
20
-2.40453501317606
30
1E-16
41
1
10
41.9596718942028
20
-2.25272258184145
30
-1E-16
41
1
10
41.8167267970634
20
-2.17009049867161
30
2E-16
41
1
10
41.5304157291897
20
-1.99221516369579
30
-2E-16
41
1
10
41.387048122137
20
-1.89697325269699
30
0
41
1
10
41.2068955221911
20
-1.77046722551339
30
2E-16
41
1
10
41.1708184383656
20
-1.74479231097465
30
1E-16
41
1
10
41.0985535165654
20
-1.6927043899575
30
0
41
1
10
41.0623258346388
20
-1.6662613124218
30
-1E-16
41
1
10
40.953754110774
20
-1.58607307553839
30
2E-16
41
1
10
40.8816253315477
20
-1.5315550347328
30
0
41
1
10
40.6658150380744
20
-1.36504332083086
30
1E-16
41
1
10
40.5227025310654
20
-1.25010100782504
30
-2E-16
41
1
10
40.236893930898
20
-1.0135883557208
30
2E-16
41
1
10
40.0942262803111
20
-0.891987755304598
30
-1E-16
41
1
10
39.8082708754624
20
-0.643248214416758
30
2E-16
41
1
10
39.6650169345442
20
-0.516072302111183
30
-1E-16
41
1
10
39.4849231810713
20
-0.354262021700407
30
-1E-16
41
1
10
39.4488539148161
20
-0.321756838329435
30
-1E-16
41
1
10
39.3765989110574
20
-0.256474155008448
30
2E-16
41
1
10
39.3404442744508
20
-0.223725114386724
30
1E-16
41
1
10
39.2322705653672
20
-0.125544501852602
30
-1E-16
41
1
10
39.1603917902125
20
-0.0600410238743336
30
1E-16
41
1
10
38.9452199305206
20
0.136354785104999
30
1E-16
41
1
10
38.8024180187277
20
0.267162734852434
30
-2E-16
41
1
10
38.5170435439081
20
0.527391787532849
30
1E-16
41
1
10
38.3743923696168
20
0.656727078426911
30
-2E-16
41
1
10
38.088201884331
20
0.912797420604846
30
1E-16
41
1
10
37.9447088060239
20
1.03958257245304
30
-2E-16
41
1
10
37.7642838240197
20
1.19587600703181
30
-1E-16
41
1
10
37.7281451516554
20
1.22702443751766
30
-2E-16
41
1
10
37.6557448277499
20
1.28908321445533
30
1E-16
41
1
10
37.6195697976908
20
1.31991909716768
30
0
41
1
10
37.5112516672602
20
1.4116964752248
30
-2E-16
41
1
10
37.4392491704165
20
1.47196494021281
30
1E-16
41
1
10
37.223683675539
20
1.6498916844692
30
1E-16
41
1
10
37.0805602581446
20
1.76467225594797
30
-1E-16
41
1
10
36.6515381048307
20
2.09642124453103
30
0
41
1
10
36.3660046262609
20
2.30086026833041
30
-1E-16
41
1
10
36.041231193603
20
2.5082554638864
30
-1E-16
41
1
10
36.0050957480038
20
2.53098430208993
30
-2E-16
41
1
10
35.9327109596726
20
2.57579638754416
30
2E-16
41
1
10
35.8964497766531
20
2.59788579941179
30
1E-16
41
1
10
35.7879427383577
20
2.6628857945426
30
0
41
1
10
35.7158196159867
20
2.70462483862201
30
1E-16
41
1
10
35.4999180073265
20
2.82503249465796
30
0
41
1
10
35.3566062533593
20
2.89889576310938
30
1E-16
41
1
10
34.9271996100714
20
3.10090786761748
30
1E-16
41
1
10
34.6416376557859
20
3.20955073081296
30
0
41
1
10
34.281309851368
20
3.31066414268202
30
0
41
1
10
34.2090751014885
20
3.32914661832231
30
0
41
1
10
34.1003857434651
20
3.35420149725741
30
0
41
1
10
34.0641257872984
20
3.36210116097249
30
0
41
1
10
33.9917785623173
20
3.37694532040291
30
0
41
1
10
33.8111684699703
20
3.41170728924084
30
0
41
1
10
33.6316639672883
20
3.43482080042338
30
0
41
1
10
33.4525138511807
20
3.4487940453177
30
0
41
1
10
33.4167015641436
20
3.45113277550126
30
0
41
1
10
33.3809006802142
20
3.45301604359602
30
0
0
SPLINE
5
13A
100
AcDbEntity
8
1
62
256
6
ByLayer
370
18
48
1
60
0
100
AcDbSpline
70
4
71
3
72
12
73
8
40
0
40
0
40
0
40
0
40
0.433651265467389
40
0.433651265467389
40
0.867302530934778
40
0.867302530934778
40
1
40
1
40
1
40
1
41
1
10
51.6308398906074
20
2.34018142429304
30
0
41
1
10
51.4848551728695
20
2.39298079165431
30
-1E-16
41
1
10
51.3401550335769
20
2.43587714220854
30
0
41
1
10
51.0516593176702
20
2.502168523855
30
0
41
1
10
50.9078898835027
20
2.52556658640134
30
0
41
1
10
50.7197453321338
20
2.54336153303609
30
0
41
1
10
50.6756374516833
20
2.54661594914737
30
0
41
1
10
50.6314825661847
20
2.54894958761892
30
0
0
SPLINE
5
13B
100
AcDbEntity
8
1
62
256
6
ByLayer
370
18
48
1
60
0
100
AcDbSpline
70
4
71
3
72
86
73
82
40
0
40
0
40
0
40
0
40
0.0272067168464211
40
0.0272067168464211
40
0.0609619921166797
40
0.0609619921166797
40
0.0694008109342452
40
0.0694008109342452
40
0.0778396297518107
40
0.0778396297518107
40
0.0947172673869435
40
0.0947172673869435
40
0.128472542657211
40
0.128472542657211
40
0.162227817927479
40
0.162227817927479
40
0.195983093197746
40
0.195983093197746
40
0.204421912015312
40
0.204421912015312
40
0.212860730832878
40
0.212860730832878
40
0.22973836846801
40
0.22973836846801
40
0.263493643738272
40
0.263493643738272
40
0.297248919008534
40
0.297248919008534
40
0.331004194278796
40
0.331004194278796
40
0.339443013096361
40
0.339443013096361
40
0.347881831913926
40
0.347881831913926
40
0.364759469549058
40
0.364759469549058
40
0.398514744819324
40
0.398514744819324
40
0.466025295359857
40
0.466025295359857
40
0.474464114177423
40
0.474464114177423
40
0.482902932994989
40
0.482902932994989
40
0.499780570630122
40
0.499780570630122
40
0.533535845900387
40
0.533535845900387
40
0.601046396440916
40
0.601046396440916
40
0.617924034076049
40
0.617924034076049
40
0.626362852893614
40
0.626362852893614
40
0.63480167171118
40
0.66855694698144
40
0.66855694698144
40
0.736067497521959
40
0.736067497521959
40
0.752945135157089
40
0.761383953974653
40
0.761383953974653
40
0.769822772792217
40
0.769822772792217
40
0.803578048062468
40
0.803578048062468
40
0.837333323332718
40
0.837333323332718
40
0.871088598602969
40
0.871088598602969
40
0.887966236238094
40
0.887966236238094
40
0.904843873873219
40
0.904843873873219
40
0.913282692690783
40
0.913282692690783
40
0.921721511508346
40
0.921721511508346
40
0.938599149143473
40
0.938599149143473
40
1
40
1
40
1
40
1
41
1
10
42.0195887912627
20
-2.82702057108693
30
0
41
1
10
41.9042009798149
20
-2.86776911431988
30
0
41
1
10
41.7889544749544
20
-2.90342535625365
30
0
41
1
10
41.5304157291895
20
-2.97173168103566
30
0
41
1
10
41.3870481221368
20
-3.00159204436835
30
0
41
1
10
41.206895522191
20
-3.02863734338749
30
0
41
1
10
41.1708184383655
20
-3.03353188127372
30
0
41
1
10
41.0985535165652
20
-3.04228122410345
30
0
41
1
10
41.0623258346387
20
-3.04613947644657
30
0
41
1
10
40.9537541107738
20
-3.05611012259013
30
0
41
1
10
40.8816253315475
20
-3.06061505420766
30
0
41
1
10
40.6658150380742
20
-3.06782098718759
30
0
41
1
10
40.5227025310653
20
-3.06421874803348
30
0
41
1
10
40.2368939308978
20
-3.0406501066625
30
0
41
1
10
40.0942262803109
20
-3.02067654601811
30
0
41
1
10
39.8082708754622
20
-2.9645916654384
30
0
41
1
10
39.665016934544
20
-2.92846921620872
30
0
41
1
10
39.4849231810712
20
-2.8732369385271
30
1E-16
41
1
10
39.448853914816
20
-2.86168564824521
30
0
41
1
10
39.3765989110573
20
-2.83757073981363
30
0
41
1
10
39.3404442744506
20
-2.82501653144644
30
0
41
1
10
39.232270565367
20
-2.78602224379045
30
1E-16
41
1
10
39.1603917902124
20
-2.75819993616804
30
0
41
1
10
38.9452199305205
20
-2.66947541557775
30
0
41
1
10
38.8024180187276
20
-2.60330495031548
30
1E-16
41
1
10
38.5170435439079
20
-2.45783489189722
30
0
41
1
10
38.3743923696167
20
-2.37859207318371
30
-2E-16
41
1
10
38.0882018843308
20
-2.20783547953823
30
-2E-16
41
1
10
37.9447088060236
20
-2.11628540839894
30
1E-16
41
1
10
37.7642838240195
20
-1.99443776884917
30
-2E-16
41
1
10
37.7281451516552
20
-1.96969792961121
30
2E-16
41
1
10
37.6557448277496
20
-1.91948485697031
30
1E-16
41
1
10
37.6195697976905
20
-1.89407143475361
30
0
41
1
10
37.51125166726
20
-1.8170479151419
30
-2E-16
41
1
10
37.4392491704163
20
-1.76460869549129
30
1E-16
41
1
10
37.2236836755388
20
-1.60424086765232
30
2E-16
41
1
10
37.0805602581444
20
-1.49326701697186
30
-1E-16
41
1
10
36.6515381048304
20
-1.14974505940941
30
0
41
1
10
36.3660046262607
20
-0.906617148489886
30
-1E-16
41
1
10
36.0412311936028
20
-0.621293761800274
30
1E-16
41
1
10
36.0050957480035
20
-0.589426651019437
30
0
41
1
10
35.9327109596724
20
-0.525376881961165
30
-1E-16
41
1
10
35.896449776653
20
-0.493183500764474
30
-2E-16
41
1
10
35.7879427383575
20
-0.396569384966909
30
0
41
1
10
35.7158196159864
20
-0.331979421652733
30
-1E-16
41
1
10
35.4999180073263
20
-0.13786250328053
30
-1E-16
41
1
10
35.3566062533591
20
-0.0079895013233511
30
0
41
1
10
34.9271996100712
20
0.381536353498433
30
0
41
1
10
34.6416376557856
20
0.641103242211386
30
-2E-16
41
1
10
34.2813098513677
20
0.960676215409762
30
0
41
1
10
34.2090751014882
20
1.02434587181347
30
-2E-16
41
1
10
34.1003857434649
20
1.11938958441439
30
0
41
1
10
34.0641257872982
20
1.15097079982843
30
0
41
1
10
33.991778562317
20
1.21370582656317
30
-2E-16
41
1
10
33.81116846997
20
1.36962799377071
30
-1E-16
41
1
10
33.631663967288
20
1.52084167721568
30
0
41
1
10
33.201703601343
20
1.87369798548457
30
1E-16
41
1
10
32.9161966133555
20
2.09556094688492
30
0
41
1
10
32.5566948883263
20
2.35241938708532
30
-2E-16
41
1
10
32.4486489270883
20
2.42793824105044
30
1E-16
41
1
10
32.3401948909812
20
2.50102931262418
30
-1E-16
41
1
10
32.2677881950663
20
2.5492028504095
30
-2E-16
41
1
10
32.231496910752
20
2.57303572488647
30
2E-16
41
1
10
32.0503659207994
20
2.69038082680962
30
-1E-16
41
1
10
31.9063020978323
20
2.77858118557157
30
2E-16
41
1
10
31.6190295366556
20
2.94341499442919
30
0
41
1
10
31.4758230074847
20
3.02004938504317
30
0
41
1
10
31.1894971605702
20
3.16144563143647
30
-1E-16
41
1
10
31.046369211327
20
3.2262056819192
30
0
41
1
10
30.8312803976672
20
3.31416946031592
30
0
41
1
10
30.7595375105136
20
3.34196639868239
30
-1E-16
41
1
10
30.6157149331392
20
3.39439294638831
30
0
41
1
10
30.5436170389003
20
3.41901861085114
30
0
41
1
10
30.435213545753
20
3.45355997429118
30
-1E-16
41
1
10
30.3990328063703
20
3.46467286056301
30
1E-16
41
1
10
30.3265670848575
20
3.48608761276978
30
0
41
1
10
30.2902538456925
20
3.49639656466689
30
0
41
1
10
30.1815414645134
20
3.52598630399731
30
0
41
1
10
30.109265656891
20
3.54396327835326
30
0
41
1
10
29.7747589313924
20
3.61931061618674
30
0
41
1
10
29.5145096267401
20
3.65557097228131
30
0
41
1
10
29.2540487055366
20
3.66929290467743
30
0
0
SPLINE
5
13C
100
AcDbEntity
8
1
62
256
6
ByLayer
370
18
48
1
60
0
100
AcDbSpline
70
4
71
3
72
71
73
67
40
0
40
0
40
0
40
0
40
0.0256286427036642
40
0.0256286427036642
40
0.0901843378842442
40
0.0901843378842442
40
0.0982537997818169
40
0.0982537997818169
40
0.10632326167939
40
0.122462185474537
40
0.122462185474537
40
0.154740033064829
40
0.154740033064829
40
0.219295728245413
40
0.219295728245413
40
0.251573575835705
40
0.251573575835705
40
0.259643037733277
40
0.259643037733277
40
0.267712499630849
40
0.283851423425995
40
0.283851423425995
40
0.348407118606577
40
0.348407118606577
40
0.412962813787159
40
0.412962813787159
40
0.429101737582304
40
0.429101737582304
40
0.44524066137745
40
0.44524066137745
40
0.477518508967739
40
0.477518508967739
40
0.542074204148318
40
0.542074204148318
40
0.558213127943463
40
0.558213127943463
40
0.574352051738608
40
0.574352051738608
40
0.6066298993289
40
0.6066298993289
40
0.671185594509483
40
0.671185594509483
40
0.703463442099775
40
0.703463442099775
40
0.711532903997348
40
0.711532903997348
40
0.71960236589492
40
0.71960236589492
40
0.735741289690065
40
0.735741289690065
40
0.800296984870645
40
0.800296984870645
40
0.832574832460935
40
0.832574832460935
40
0.84871375625608
40
0.856783218153653
40
0.856783218153653
40
0.864852680051226
40
0.864852680051226
40
0.929408375231811
40
0.929408375231811
40
0.961686222822104
40
0.961686222822104
40
0.993964070412396
40
0.993964070412396
40
1
40
1
40
1
40
1
41
1
10
26.2481633174626
20
3.64160319121586
30
1E-16
41
1
10
26.3615873834044
20
3.66724886157758
30
1E-16
41
1
10
26.4749328561534
20
3.68892406768032
30
1E-16
41
1
10
26.8740708701736
20
3.75109210676877
30
0
41
1
10
27.1602747406509
20
3.77017137850021
30
0
41
1
10
27.4858996811288
20
3.76137015674521
30
0
41
1
10
27.5221633811549
20
3.75996853277832
30
0
41
1
10
27.5945492695384
20
3.75632883631735
30
0
41
1
10
27.7029752446471
20
3.74961523424076
30
0
41
1
10
27.8109906672732
20
3.73916951979783
30
0
41
1
10
28.0266059936325
20
3.7133708219099
30
0
41
1
10
28.1697984129215
20
3.68963217820092
30
0
41
1
10
28.5987492634059
20
3.59922147312079
30
0
41
1
10
28.8838608879389
20
3.51340330134187
30
0
41
1
10
29.3143813554026
20
3.34710121907312
30
-1E-16
41
1
10
29.4583672325651
20
3.285392924912
30
1E-16
41
1
10
29.6394116425282
20
3.20039488575819
30
1E-16
41
1
10
29.6757092054723
20
3.18298405013596
30
1E-16
41
1
10
29.748166850187
20
3.14750109896616
30
0
41
1
10
29.8566933428446
20
3.09326522489226
30
1E-16
41
1
10
29.9647955575674
20
3.03605020489789
30
0
41
1
10
30.3244275846431
20
2.83893739138338
30
0
41
1
10
30.6098670308702
20
2.66083329829402
30
0
41
1
10
31.1819685652989
20
2.26851848966314
30
0
41
1
10
31.4685947952879
20
2.05428276240622
30
1E-16
41
1
10
31.8314749165655
20
1.76621265814325
30
-1E-16
41
1
10
31.9038821570038
20
1.70790109447205
30
0
41
1
10
32.0482688546185
20
1.59014861390503
30
-2E-16
41
1
10
32.1202793339755
20
1.53068299936979
30
0
41
1
10
32.3359114735835
20
1.35068742265673
30
-1E-16
41
1
10
32.4791345253458
20
1.22856038002396
30
-2E-16
41
1
10
32.9083582816206
20
0.857063994153322
30
2E-16
41
1
10
33.1938867220439
20
0.602565307654999
30
-1E-16
41
1
10
33.5539510972121
20
0.280032033747858
30
-2E-16
41
1
10
33.6261233284204
20
0.215305513909413
30
-1E-16
41
1
10
33.7708932032518
20
0.085520354560856
30
-2E-16
41
1
10
33.8436077778652
20
0.0203572564557817
30
0
41
1
10
34.0607418352399
20
-0.173843911387735
30
0
41
1
10
34.2046478578329
20
-0.302034537029016
30
-2E-16
41
1
10
34.6350682261357
20
-0.681483651442846
30
-2E-16
41
1
10
34.9202749478946
20
-0.927652134618171
30
0
41
1
10
35.3503850357614
20
-1.28125112530978
30
-1E-16
41
1
10
35.4941379166434
20
-1.39650354841126
30
2E-16
41
1
10
35.6748624871159
20
-1.53664273345331
30
0
41
1
10
35.7110592118153
20
-1.56447398218595
30
1E-16
41
1
10
35.7835707885715
20
-1.61972562888585
30
-2E-16
41
1
10
35.8198857066308
20
-1.64714524233463
30
-1E-16
41
1
10
35.9285331076899
20
-1.72839274626182
30
1E-16
41
1
10
36.0007339519416
20
-1.78133630026119
30
2E-16
41
1
10
36.3608665382711
20
-2.0397732092043
30
-1E-16
41
1
10
36.6461852928852
20
-2.22649738435931
30
-1E-16
41
1
10
37.0752193798675
20
-2.47244575487642
30
0
41
1
10
37.2184027136802
20
-2.54872756041516
30
2E-16
41
1
10
37.4341174871445
20
-2.65392662531212
30
0
41
1
10
37.5422111444335
20
-2.70421777418795
30
-1E-16
41
1
10
37.6507948916935
20
-2.7509000494251
30
0
41
1
10
37.7233087533865
20
-2.78120171020274
30
1E-16
41
1
10
37.7595512292741
20
-2.79590993691321
30
-1E-16
41
1
10
38.0849969495546
20
-2.92401671989182
30
0
41
1
10
38.3705574888056
20
-3.00829214349036
30
-1E-16
41
1
10
38.7989402478985
20
-3.08914788430238
30
0
41
1
10
38.9417439522464
20
-3.10848323491538
30
0
41
1
10
39.2283651403444
20
-3.13145894160212
30
0
41
1
10
39.3721894264863
20
-3.13509826219703
30
0
41
1
10
39.5441600854533
20
-3.12971946410695
30
0
41
1
10
39.5712861313278
20
-3.12858528956531
30
0
41
1
10
39.5983781493865
20
-3.12716825182264
30
0
0
SPLINE
5
13D
100
AcDbEntity
8
1
62
256
6
ByLayer
370
18
48
1
60
0
100
AcDbSpline
70
4
71
3
72
27
73
23
40
0
40
0
40
0
40
0
40
0.138549918941906
40
0.138549918941906
40
0.28212493245163
40
0.28212493245163
40
0.318018685829056
40
0.318018685829056
40
0.353912439206482
40
0.353912439206482
40
0.425699945961325
40
0.425699945961325
40
0.569274959471003
40
0.569274959471003
40
0.712849972980683
40
0.712849972980683
40
0.784637479735517
40
0.820531233112935
40
0.820531233112935
40
0.856424986490353
40
0.856424986490353
40
1
40
1
40
1
40
1
41
1
10
48.6113492394956
20
2.49450533479114
30
0
41
1
10
48.7501308908587
20
2.53001195871184
30
0
41
1
10
48.8886006682074
20
2.55715333479455
30
0
41
1
10
49.1711525505082
20
2.59494260951436
30
0
41
1
10
49.3152502495767
20
2.6049592438909
30
0
41
1
10
49.4966413550035
20
2.60545096814099
30
0
41
1
10
49.5329835546627
20
2.60494694281474
30
0
41
1
10
49.6058193522313
20
2.60271767106298
30
0
41
1
10
49.6422936898538
20
2.60099087563449
30
0
41
1
10
49.7513484254656
20
2.59400853549803
30
0
41
1
10
49.8237660603449
20
2.58694705980284
30
0
41
1
10
50.0404396625383
20
2.55868201203424
30
0
41
1
10
50.184117785286
20
2.5304083617701
30
0
41
1
10
50.4713368342297
20
2.45548476403795
30
0
41
1
10
50.6148809174283
20
2.40883534895491
30
0
41
1
10
50.8311848797694
20
2.32521053285618
30
1E-16
41
1
10
50.9395855468914
20
2.2799822076498
30
0
41
1
10
51.0485754222687
20
2.22962139009363
30
1E-16
41
1
10
51.1213915633631
20
2.19490353435003
30
0
41
1
10
51.1578483748789
20
2.17698561942979
30
0
41
1
10
51.3398597112293
20
2.08491346994327
30
0
41
1
10
51.4851262596729
20
2.00307590394649
30
0
41
1
10
51.6308398906073
20
1.91350361522126
30
0
0
SPLINE
5
13E
100
AcDbEntity
8
1
62
256
6
ByLayer
370
18
48
1
60
0
100
AcDbSpline
70
4
71
3
72
46
73
42
40
0
40
0
40
0
40
0
40
0.124999999999981
40
0.124999999999981
40
0.249999999999963
40
0.249999999999963
40
0.312499999999953
40
0.312499999999953
40
0.343749999999948
40
0.343749999999948
40
0.374999999999944
40
0.374999999999944
40
0.437499999999926
40
0.437499999999926
40
0.468749999999918
40
0.468749999999918
40
0.499999999999909
40
0.499999999999909
40
0.5624999999999
40
0.5624999999999
40
0.624999999999891
40
0.624999999999891
40
0.687499999999881
40
0.687499999999881
40
0.703124999999885
40
0.703124999999885
40
0.718749999999888
40
0.718749999999888
40
0.749999999999901
40
0.781249999999914
40
0.781249999999914
40
0.812499999999927
40
0.812499999999927
40
0.874999999999953
40
0.874999999999953
40
0.890624999999959
40
0.890624999999959
40
0.906249999999966
40
0.937499999999977
40
0.937499999999977
40
1
40
1
40
1
40
1
41
1
10
22.9437597723309
20
3.99962607993317
30
0
41
1
10
22.8551527035768
20
4.00035035937893
30
0
41
1
10
22.765214401817
20
3.99997435274395
30
0
41
1
10
22.581888449106
20
3.99780635612029
30
0
41
1
10
22.4885132935198
20
3.99601285992279
30
0
41
1
10
22.3450144208611
20
3.99297023338514
30
0
41
1
10
22.2966033947484
20
3.99189891585354
30
0
41
1
10
22.222957576394
20
3.99031094804991
30
0
41
1
10
22.1982368386156
20
3.9897849249449
30
0
41
1
10
22.1484133687268
20
3.98875915346304
30
0
41
1
10
22.1232805086906
20
3.98825889943387
30
0
41
1
10
22.0477212227171
20
3.98683828549335
30
0
41
1
10
21.9970137793457
20
3.98599498406921
30
0
41
1
10
21.9203385052151
20
3.9850166038552
30
0
41
1
10
21.8946771705878
20
3.98473839572483
30
0
41
1
10
21.8431212841192
20
3.98430161208637
30
0
41
1
10
21.8171566727048
20
3.98414291330391
30
0
41
1
10
21.739450309852
20
3.98388485094156
30
0
41
1
10
21.6879675835584
20
3.98400395904514
30
0
41
1
10
21.5858084361883
20
3.98494402047803
30
0
41
1
10
21.5350938475532
20
3.98576933579994
30
0
41
1
10
21.4348977150199
20
3.98815839477007
30
0
41
1
10
21.3871475082621
20
3.98968534482236
30
0
41
1
10
21.3308706181912
20
3.99178169148672
30
0
41
1
10
21.3197866862332
20
3.99220958989341
30
0
41
1
10
21.2979776311257
20
3.99307353151332
30
0
41
1
10
21.2872244008284
20
3.99351077915279
30
0
41
1
10
21.2559729712757
20
3.99479991735436
30
0
41
1
10
21.2167295704719
20
3.99646893827617
30
0
41
1
10
21.1821815863924
20
3.99785232795691
30
0
41
1
10
21.1499386712532
20
3.99899211308278
30
0
41
1
10
21.1349052307651
20
3.99944022979557
30
0
41
1
10
21.0941911860392
20
4.0002434440616
30
0
41
1
10
21.0725022846082
20
4.00007272228396
30
0
41
1
10
21.0511791825464
20
3.99865263185114
30
0
41
1
10
21.0472109618072
20
3.99830810044085
30
0
41
1
10
21.039912131939
20
3.99750084826491
30
0
41
1
10
21.0298866938497
20
3.99611073496607
30
0
41
1
10
21.0224558612958
20
3.99417267988383
30
0
41
1
10
21.0107238067457
20
3.98954063141582
30
0
41
1
10
21.0070509855995
20
3.98544479617473
30
0
41
1
10
21.0070509859441
20
3.98027631928105
30
0
0
SPLINE
5
13F
100
AcDbEntity
8
1
62
256
6
ByLayer
370
18
48
1
60
0
100
AcDbSpline
70
4
71
3
72
39
73
35
40
0
40
0
40
0
40
0
40
0.0989182573996423
40
0.0989182573996423
40
0.257951236504921
40
0.257951236504921
40
0.337467726057561
40
0.337467726057561
40
0.377225970833881
40
0.377225970833881
40
0.4169842156102
40
0.4169842156102
40
0.49650070516285
40
0.49650070516285
40
0.536258949939175
40
0.536258949939175
40
0.5760171947155
40
0.5760171947155
40
0.655533684268139
40
0.655533684268139
40
0.735050173820779
40
0.735050173820779
40
0.814566663373418
40
0.814566663373418
40
0.834445785761575
40
0.834445785761575
40
0.854324908149733
40
0.854324908149733
40
0.894083152926039
40
0.933841397702346
40
0.933841397702346
40
0.973599642478652
40
0.973599642478652
40
1
40
1
40
1
40
1
41
1
10
22.8426870384718
20
-3.99999696062773
30
0
41
1
10
22.7869126278414
20
-3.99996493561122
30
0
41
1
10
22.7305656494304
20
-3.99956459963985
30
0
41
1
10
22.581888449106
20
-3.99780635612029
30
0
41
1
10
22.4885132935198
20
-3.99601285992279
30
0
41
1
10
22.3450144208611
20
-3.99297023338514
30
0
41
1
10
22.2966033947484
20
-3.99189891585354
30
0
41
1
10
22.222957576394
20
-3.99031094804991
30
0
41
1
10
22.1982368386156
20
-3.9897849249449
30
0
41
1
10
22.1484133687268
20
-3.98875915346304
30
0
41
1
10
22.1232805086906
20
-3.98825889943387
30
0
41
1
10
22.0477212227171
20
-3.98683828549335
30
0
41
1
10
21.9970137793457
20
-3.98599498406921
30
0
41
1
10
21.9203385052151
20
-3.9850166038552
30
0
41
1
10
21.8946771705878
20
-3.98473839572483
30
0
41
1
10
21.8431212841192
20
-3.98430161208637
30
0
41
1
10
21.8171566727048
20
-3.98414291330391
30
0
41
1
10
21.739450309852
20
-3.98388485094156
30
0
41
1
10
21.6879675835584
20
-3.98400395904517
30
0
41
1
10
21.5858084361884
20
-3.98494402047803
30
0
41
1
10
21.5350938475532
20
-3.98576933579994
30
0
41
1
10
21.4348977150199
20
-3.98815839477007
30
0
41
1
10
21.3871475082621
20
-3.98968534482236
30
0
41
1
10
21.3308706181912
20
-3.99178169148672
30
0
41
1
10
21.3197866862332
20
-3.99220958989341
30
0
41
1
10
21.2979776311257
20
-3.99307353151332
30
0
41
1
10
21.2872244008285
20
-3.99351077915279
30
0
41
1
10
21.2559729712757
20
-3.99479991735436
30
0
41
1
10
21.216729570472
20
-3.99646893827617
30
0
41
1
10
21.1821815863924
20
-3.99785232795691
30
0
41
1
10
21.1499386712532
20
-3.99899211308278
30
0
41
1
10
21.1349052307651
20
-3.99944022979557
30
0
41
1
10
21.1123222058847
20
-3.99988575192131
30
0
41
1
10
21.1039117085658
20
-3.99998569078787
30
0
41
1
10
21.0960722566452
20
-3.99999830000607
30
0
0
SPLINE
5
140
100
AcDbEntity
8
1
62
256
6
ByLayer
370
18
48
1
60
0
100
AcDbSpline
70
4
71
3
72
88
73
84
40
0
40
0
40
0
40
0
40
0.0016726612087329
40
0.0016726612087329
40
0.0396868036682405
40
0.0396868036682405
40
0.0777009461277481
40
0.0777009461277481
40
0.0967080173575029
40
0.0967080173575029
40
0.10621155297238
40
0.10621155297238
40
0.115715088587258
40
0.115715088587258
40
0.153729231046765
40
0.153729231046765
40
0.191743373506273
40
0.191743373506273
40
0.229757515965781
40
0.229757515965781
40
0.239261051580656
40
0.239261051580656
40
0.248764587195531
40
0.248764587195531
40
0.267771658425284
40
0.267771658425284
40
0.30578580088479
40
0.30578580088479
40
0.343799943344295
40
0.343799943344295
40
0.362807014574048
40
0.362807014574048
40
0.381814085803801
40
0.381814085803801
40
0.419828228263306
40
0.419828228263306
40
0.457842370722812
40
0.457842370722812
40
0.495856513182317
40
0.495856513182317
40
0.51486358441207
40
0.51486358441207
40
0.524367120026946
40
0.524367120026946
40
0.533870655641821
40
0.533870655641821
40
0.571884798101325
40
0.571884798101325
40
0.609898940560828
40
0.609898940560828
40
0.647913083020332
40
0.647913083020332
40
0.657416618635209
40
0.657416618635209
40
0.666920154250086
40
0.666920154250086
40
0.685927225479841
40
0.685927225479841
40
0.723941367939355
40
0.723941367939355
40
0.761955510398868
40
0.761955510398868
40
0.799969652858382
40
0.799969652858382
40
0.80947318847326
40
0.80947318847326
40
0.818976724088139
40
0.818976724088139
40
0.837983795317895
40
0.837983795317895
40
0.875997937777407
40
0.875997937777407
40
0.914012080236919
40
0.914012080236919
40
0.95202622269643
40
0.95202622269643
40
0.961529758311308
40
0.961529758311308
40
0.971033293926185
40
0.971033293926185
40
0.990040365155942
40
0.990040365155942
40
1
40
1
40
1
40
1
41
1
10
48.6114735794359
20
-2.49279175281515
30
0
41
1
10
48.6050932745491
20
-2.49507554832977
30
0
41
1
10
48.5987147045643
20
-2.49734172782323
30
0
41
1
10
48.4474116688308
20
-2.55069300341211
30
0
41
1
10
48.3033161695295
20
-2.59270501539029
30
0
41
1
10
48.015471878353
20
-2.6585826527043
30
0
41
1
10
47.8716968091819
20
-2.68244266648782
30
0
41
1
10
47.6552914944577
20
-2.70441205571814
30
0
41
1
10
47.5830349117085
20
-2.70942885639343
30
0
41
1
10
47.4743235291984
20
-2.71344839644149
30
0
41
1
10
47.4380330494209
20
-2.71420383830881
30
0
41
1
10
47.3653268083515
20
-2.71453586700883
30
0
41
1
10
47.3288628208605
20
-2.71411064266428
30
0
41
1
10
47.1468745584577
20
-2.70903326122732
30
0
41
1
10
47.002399581598
20
-2.69557762308955
30
0
41
1
10
46.7143127356169
20
-2.6507450982219
30
0
41
1
10
46.5707131333132
20
-2.61936310243021
30
0
41
1
10
46.2831093568946
20
-2.53922270100046
30
0
41
1
10
46.1391271724707
20
-2.49045367471356
30
1E-16
41
1
10
45.9580979858499
20
-2.41880729958476
30
-1E-16
41
1
10
45.9218408377979
20
-2.40394237737596
30
1E-16
41
1
10
45.849204007288
20
-2.37314247650411
30
0
41
1
10
45.8127780473308
20
-2.35718597682717
30
0
41
1
10
45.7037353109523
20
-2.30791955364563
30
1E-16
41
1
10
45.6313079806626
20
-2.27320777573942
30
0
41
1
10
45.4145885778936
20
-2.16372870353854
30
0
41
1
10
45.270884156373
20
-2.08360424909003
30
0
41
1
10
44.9837119194436
20
-1.91031243099832
30
0
41
1
10
44.840284541318
20
-1.81711131105936
30
-2E-16
41
1
10
44.6244343414284
20
-1.66823262929373
30
-1E-16
41
1
10
44.5523686791323
20
-1.61709009980439
30
-2E-16
41
1
10
44.4078666632854
20
-1.51186262161318
30
0
41
1
10
44.3354104664131
20
-1.45775926824808
30
-1E-16
41
1
10
44.1173501689519
20
-1.29130915660235
30
-1E-16
41
1
10
43.9730919019325
20
-1.17634716842701
30
1E-16
41
1
10
43.6855835212646
20
-0.939867936052082
30
0
41
1
10
43.542314393866
20
-0.818370910101208
30
1E-16
41
1
10
43.2556638063177
20
-0.570065642995104
30
0
41
1
10
43.1122479471065
20
-0.4432955277085
30
2E-16
41
1
10
42.8961973518044
20
-0.250033740846987
30
1E-16
41
1
10
42.8240167683376
20
-0.185105267693189
30
0
41
1
10
42.7153922668761
20
-0.0870582020359905
30
2E-16
41
1
10
42.6790816452374
20
-0.0542252781721686
30
1E-16
41
1
10
42.6065922160806
20
0.0114025722345446
30
0
41
1
10
42.5704138437186
20
0.0441969126298716
30
-1E-16
41
1
10
42.389806613053
20
0.208022429284966
30
0
41
1
10
42.246203136642
20
0.338585228207393
30
1E-16
41
1
10
41.9596718942027
20
0.597582246984018
30
-1E-16
41
1
10
41.8167267970634
20
0.725997368385435
30
1E-16
41
1
10
41.5304157291897
20
0.979516517339817
30
-1E-16
41
1
10
41.3870481221371
20
1.1046187916713
30
1E-16
41
1
10
41.2068955221912
20
1.25817011787404
30
2E-16
41
1
10
41.1708184383657
20
1.28873957029899
30
1E-16
41
1
10
41.0985535165654
20
1.34957683414589
30
-1E-16
41
1
10
41.0623258346388
20
1.37987816402472
30
-1E-16
41
1
10
40.953754110774
20
1.4700370470517
30
1E-16
41
1
10
40.8816253315478
20
1.52906001947483
30
0
41
1
10
40.6658150380744
20
1.70277766635669
30
0
41
1
10
40.5227025310655
20
1.81411774020842
30
2E-16
41
1
10
40.236893930898
20
2.02706175094173
30
1E-16
41
1
10
40.0942262803111
20
2.12868879071354
30
-1E-16
41
1
10
39.8082708754624
20
2.3213434510217
30
-1E-16
41
1
10
39.6650169345442
20
2.41239691409754
30
-1E-16
41
1
10
39.4849231810713
20
2.51897491682672
30
1E-16
41
1
10
39.4488539148161
20
2.53992880991581
30
0
41
1
10
39.3765989110575
20
2.58109658480524
30
-1E-16
41
1
10
39.3404442744508
20
2.6012914170598
30
-1E-16
41
1
10
39.2322705653672
20
2.66047774193791
30
0
41
1
10
39.1603917902126
20
2.69815891229379
30
-1E-16
41
1
10
38.9452199305206
20
2.80583020068281
30
1E-16
41
1
10
38.8024180187278
20
2.87046768516802
30
-1E-16
41
1
10
38.5170435439081
20
2.98522667943013
30
-1E-16
41
1
10
38.3743923696169
20
3.03531915161071
30
0
41
1
10
38.0882018843311
20
3.12063290014319
30
0
41
1
10
37.9447088060239
20
3.15586798085212
30
0
41
1
10
37.7642838240198
20
3.19031377588109
30
0
41
1
10
37.7281451516554
20
3.19672236712901
30
0
41
1
10
37.6557448277499
20
3.20856807142579
30
0
41
1
10
37.6195697976908
20
3.21399053192141
30
0
41
1
10
37.5112516672602
20
3.22874439036684
30
0
41
1
10
37.4392491704165
20
3.23657363570425
30
0
41
1
10
37.3297421654657
20
3.24549354354082
30
0
41
1
10
37.2921306129271
20
3.24801825261596
30
0
41
1
10
37.2545508793805
20
3.25000375967059
30
0
0
SPLINE
5
141
100
AcDbEntity
8
1
62
256
6
ByLayer
370
18
48
1
60
0
100
AcDbSpline
70
4
71
3
72
14
73
10
40
0
40
0
40
0
40
0
40
0.0414112308236156
40
0.0414112308236156
40
0.233128984658893
40
0.233128984658893
40
0.616564492329446
40
0.616564492329446
40
1
40
1
40
1
40
1
41
1
10
26.2477052739445
20
-3.62719317001373
30
0
41
1
10
26.2163823728744
20
-3.63774940538869
30
1E-16
41
1
10
26.1850687844016
20
-3.6480127441616
30
1E-16
41
1
10
26.0091056787798
20
-3.70403975222391
30
0
41
1
10
25.865177951352
20
-3.74362544566853
30
0
41
1
10
25.4346926866359
20
-3.84318510195882
30
0
41
1
10
25.1494139962527
20
-3.88400928203231
30
0
41
1
10
24.5772079655495
20
-3.91478282919851
30
0
41
1
10
24.2902663256572
20
-3.90474126116021
30
0
41
1
10
24
20
-3.86856536677044
30
0
0
SPLINE
5
142
100
AcDbEntity
8
1
62
256
6
ByLayer
370
18
48
1
60
0
100
AcDbSpline
70
4
71
3
72
78
73
74
40
0
40
0
40
0
40
0
40
0.0511182484132916
40
0.0511182484132916
40
0.0874237949104807
40
0.0874237949104807
40
0.096500181534777
40
0.096500181534777
40
0.105576568159073
40
0.105576568159073
40
0.123729341407666
40
0.123729341407666
40
0.196340434402042
40
0.196340434402042
40
0.232645980899232
40
0.232645980899232
40
0.250798754147826
40
0.259875140772123
40
0.259875140772123
40
0.268951527396419
40
0.268951527396419
40
0.34156262039079
40
0.34156262039079
40
0.377868166887974
40
0.377868166887974
40
0.414173713385158
40
0.414173713385158
40
0.423250100009455
40
0.423250100009455
40
0.432326486633752
40
0.450479259882346
40
0.450479259882346
40
0.486784806379539
40
0.486784806379539
40
0.523090352876731
40
0.523090352876731
40
0.559395899373923
40
0.559395899373923
40
0.568472285998221
40
0.568472285998221
40
0.57754867262252
40
0.595701445871115
40
0.595701445871115
40
0.632006992368305
40
0.632006992368305
40
0.668312538865495
40
0.668312538865495
40
0.704618085362685
40
0.704618085362685
40
0.713694471986983
40
0.713694471986983
40
0.722770858611281
40
0.722770858611281
40
0.740923631859875
40
0.740923631859875
40
0.777229178357061
40
0.777229178357061
40
0.813534724854247
40
0.813534724854247
40
0.849840271351433
40
0.849840271351433
40
0.858916657975728
40
0.858916657975728
40
0.867993044600023
40
0.886145817848613
40
0.886145817848613
40
0.922451364345794
40
0.922451364345794
40
0.958756910842974
40
0.958756910842974
40
0.995062457340155
40
0.995062457340155
40
1
40
1
40
1
40
1
41
1
10
34.6025572026283
20
3.20589212676239
30
0
41
1
10
34.8040446438253
20
3.2544165713785
30
0
41
1
10
35.0051498514395
20
3.28894454522018
30
0
41
1
10
35.3503850357614
20
3.32335148278088
30
0
41
1
10
35.4941379166434
20
3.33035378974452
30
0
41
1
10
35.6748624871159
20
3.32966015528587
30
0
41
1
10
35.7110592118154
20
3.32904866528079
30
0
41
1
10
35.7835707885715
20
3.32686984283993
30
0
41
1
10
35.8198857066308
20
3.3253010529298
30
0
41
1
10
35.9285331076899
20
3.31918092479526
30
0
41
1
10
36.0007339519416
20
3.31321265129583
30
0
41
1
10
36.3608665382711
20
3.27407888646576
30
0
41
1
10
36.6461852928853
20
3.21313385476725
30
0
41
1
10
37.0752193798675
20
3.07887954441125
30
-1E-16
41
1
10
37.2184027136802
20
3.02696863537219
30
0
41
1
10
37.4341174871445
20
2.93839469209954
30
0
41
1
10
37.5422111444335
20
2.89142937866649
30
1E-16
41
1
10
37.6507948916936
20
2.84043660522008
30
0
41
1
10
37.7233087533866
20
2.80554415855573
30
1E-16
41
1
10
37.7595512292742
20
2.78768576967926
30
-1E-16
41
1
10
38.0849969495546
20
2.62364414251215
30
1E-16
41
1
10
38.3705574888057
20
2.45361679013334
30
0
41
1
10
38.7989402478985
20
2.16705885664223
30
-2E-16
41
1
10
38.9417439522465
20
2.06627278535271
30
0
41
1
10
39.2283651403444
20
1.85483812367153
30
1E-16
41
1
10
39.3721894264864
20
1.74419559151176
30
-1E-16
41
1
10
39.5532875564869
20
1.6001299080138
30
-2E-16
41
1
10
39.5895677561759
20
1.57103262258789
30
-1E-16
41
1
10
39.6619247236897
20
1.51255996899403
30
0
41
1
10
39.7702861946236
20
1.42432847004181
30
2E-16
41
1
10
39.8781956535636
20
1.33461076539797
30
0
41
1
10
40.09359809339
20
1.15340579101647
30
0
41
1
10
40.2366521196856
20
1.03025238453975
30
-2E-16
41
1
10
40.5226479524294
20
0.780332104544328
30
-1E-16
41
1
10
40.6655935723612
20
0.653569314151952
30
-2E-16
41
1
10
40.9523692720489
20
0.397488754245757
30
0
41
1
10
41.0961984725713
20
0.268170071514078
30
-2E-16
41
1
10
41.2772087333737
20
0.10561057498839
30
2E-16
41
1
10
41.3134863362908
20
0.0730403962540436
30
-2E-16
41
1
10
41.3861224226055
20
0.0078801633751766
30
0
41
1
10
41.4948795874389
20
-0.0896039112033691
30
2E-16
41
1
10
41.6031285711533
20
-0.186236486114325
30
0
41
1
10
41.8191437757893
20
-0.378169564663494
30
0
41
1
10
41.9625119109023
20
-0.504348738298177
30
-2E-16
41
1
10
42.2490246366624
20
-0.752028426158319
30
0
41
1
10
42.3921636910945
20
-0.873535121062474
30
-2E-16
41
1
10
42.6792743765369
20
-1.11068595738149
30
-1E-16
41
1
10
42.8232358893421
20
-1.22634119354194
30
2E-16
41
1
10
43.0044089028968
20
-1.36642021638838
30
1E-16
41
1
10
43.0407045585335
20
-1.39421134387328
30
2E-16
41
1
10
43.1134368426261
20
-1.44932141251098
30
-2E-16
41
1
10
43.1497781909132
20
-1.47656773323916
30
-1E-16
41
1
10
43.2585595854537
20
-1.55721636668852
30
1E-16
41
1
10
43.3308400351841
20
-1.60959156110155
30
2E-16
41
1
10
43.547181926551
20
-1.76240504804196
30
1E-16
41
1
10
43.6907347200573
20
-1.85854578828159
30
-1E-16
41
1
10
43.9776089927262
20
-2.03853600222271
30
-1E-16
41
1
10
44.1209267492051
20
-2.12238876237345
30
1E-16
41
1
10
44.4084460683094
20
-2.27681654125297
30
0
41
1
10
44.5526480117721
20
-2.34739217839382
30
-1E-16
41
1
10
44.734194347606
20
-2.42654874713787
30
-1E-16
41
1
10
44.7706105290923
20
-2.44194259558367
30
-1E-16
41
1
10
44.843390788481
20
-2.4717171686641
30
0
41
1
10
44.9523543093251
20
-2.51481089902902
30
-1E-16
41
1
10
45.0607842228349
20
-2.55320171369843
30
0
41
1
10
45.2771585938102
20
-2.62369518592735
30
-1E-16
41
1
10
45.4207680353173
20
-2.66231086065869
30
0
41
1
10
45.7078678239475
20
-2.7225179522467
30
1E-16
41
1
10
45.8513618108362
20
-2.7441078286044
30
0
41
1
10
46.1394244743134
20
-2.76973876706825
30
0
41
1
10
46.283992562348
20
-2.77378079855464
30
0
41
1
10
46.4495688233096
20
-2.7679412225927
30
0
41
1
10
46.4693744217549
20
-2.76707329733983
30
0
41
1
10
46.489162747285
20
-2.7660375414402
30
0
0
SPLINE
5
143
100
AcDbEntity
8
1
62
256
6
ByLayer
370
18
48
1
60
0
100
AcDbSpline
70
4
71
1
72
4
73
2
40
0
40
0
40
1
40
1
41
1
10
40.9535243802755
20
1.46993594933161
30
1E-16
41
1
10
40.9535302069521
20
1.46992593961863
30
1E-16
0
SPLINE
5
144
100
AcDbEntity
8
1
62
256
6
ByLayer
370
18
48
1
60
0
100
AcDbSpline
70
4
71
1
72
4
73
2
40
0
40
0
40
1
40
1
41
1
10
37.7259714720371
20
1.22882804506565
30
-2E-16
41
1
10
37.7259645321333
20
1.22884384661288
30
-2E-16
0
SPLINE
5
145
100
AcDbEntity
8
1
62
256
6
ByLayer
370
18
48
1
60
0
100
AcDbSpline
70
4
71
1
72
4
73
2
40
0
40
0
40
1
40
1
41
1
10
50.0398937427498
20
1.72050660991687
30
0
41
1
10
50.0398927898678
20
1.72052427661981
30
0
0
SPLINE
5
146
100
AcDbEntity
8
1
62
256
6
ByLayer
370
18
48
1
60
0
100
AcDbSpline
70
4
71
2
72
6
73
3
40
0
40
0
40
0
40
1
40
1
40
1
41
1
10
47.0918247193612
20
1.71710240370888
30
0
41
1
10
47.0918158569425
20
1.71711896398
30
0
41
1
10
47.0918069945258
20
1.71713659378688
30
0
0
SPLINE
5
147
100
AcDbEntity
8
1
62
256
6
ByLayer
370
18
48
1
60
0
100
AcDbSpline
70
4
71
2
72
6
73
3
40
0
40
0
40
0
40
1
40
1
40
1
41
1
10
26.4551202898062
20
0.571089299299558
30
0
41
1
10
26.4551276562343
20
0.571100286762544
30
0
41
1
10
26.4551350226653
20
0.57111052724332
30
0
0
INSERT
5
16D
100
AcDbEntity
8
1
62
256
6
ByLayer
370
18
48
1
60
0
100
AcDbBlockReference
2
LABLE3D_1
10
62.601373
20
-20.8724
30
0
41
1
42
1
43
1
50
0
210
0
220
0
230
1
0
LINE
5
7D
100
AcDbEntity
8
80
62
256
6
ByLayer
370
18
48
1
60
0
100
AcDbLine
10
0
20
0
30
0
11
-3
21
0
31
0
39
0
210
0
220
0
230
1
0
LINE
5
7E
100
AcDbEntity
8
81
62
256
6
ByLayer
370
18
48
1
60
0
100
AcDbLine
10
54
20
0
30
0
11
57
21
0
31
0
39
0
210
0
220
0
230
1
0
LINE
5
7F
100
AcDbEntity
8
SK4
62
256
6
ByLayer
370
18
48
0.05
60
0
100
AcDbLine
10
-39
20
0
30
0
11
57
21
0
31
0
39
0
210
0
220
0
230
1
0
LINE
5
81
100
AcDbEntity
8
4
62
256
6
ByLayer
370
18
48
0.05
60
0
100
AcDbLine
10
0
20
0
30
0
11
57
21
0
31
0
39
0
210
0
220
0
230
1
0
LINE
5
83
100
AcDbEntity
8
1
62
256
6
ByLayer
370
18
48
1
60
0
100
AcDbLine
10
0
20
-4
30
0
11
0
21
4
31
0
39
0
210
0
220
0
230
1
0
LINE
5
84
100
AcDbEntity
8
1
62
256
6
ByLayer
370
18
48
1
60
0
100
AcDbLine
10
22.94376
20
-2.047178
30
0
11
22.94376
21
-0.499903
31
0
39
0
210
0
220
0
230
1
0
LINE
5
85
100
AcDbEntity
8
1
62
256
6
ByLayer
370
18
48
1
60
0
100
AcDbLine
10
22.94376
20
1.952448
30
0
11
22.94376
21
3.186991
31
0
39
0
210
0
220
0
230
1
0
LINE
5
86
100
AcDbEntity
8
1
62
256
6
ByLayer
370
18
48
1
60
0
100
AcDbLine
10
22.94376
20
4
30
0
11
22.94376
21
3.999626
31
0
39
0
210
0
220
0
230
1
0
LINE
5
87
100
AcDbEntity
8
1
62
256
6
ByLayer
370
18
48
1
60
0
100
AcDbLine
10
22.94376
20
-4
30
0
11
22.94376
21
-3.686894
31
0
39
0
210
0
220
0
230
1
0
LINE
5
88
100
AcDbEntity
8
SK1
62
256
6
ByLayer
370
18
48
1
60
0
100
AcDbLine
10
0
20
-4
30
0
11
0
21
4
31
0
39
0
210
0
220
0
230
1
0
LINE
5
8A
100
AcDbEntity
8
SK1
62
256
6
ByLayer
370
18
48
1
60
0
100
AcDbLine
10
-35.4
20
-4
30
0
11
-35.4
21
4
31
0
39
0
210
0
220
0
230
1
0
LINE
5
8B
100
AcDbEntity
8
SK1
62
256
6
ByLayer
370
18
48
1
60
0
100
AcDbLine
10
-36
20
-3.4
30
0
11
-36
21
3.4
31
0
39
0
210
0
220
0
230
1
0
LINE
5
8C
100
AcDbEntity
8
1
62
256
6
ByLayer
370
18
48
1
60
0
100
AcDbLine
10
22.94376
20
4
30
0
11
22.840451
21
4
31
0
39
0
210
0
220
0
230
1
0
LINE
5
8D
100
AcDbEntity
8
1
62
256
6
ByLayer
370
18
48
1
60
0
100
AcDbLine
10
21.102515
20
4
30
0
11
0
21
4
31
0
39
0
210
0
220
0
230
1
0
LINE
5
8E
100
AcDbEntity
8
1
62
256
6
ByLayer
370
18
48
1
60
0
100
AcDbLine
10
0
20
-4
30
0
11
21.102515
21
-4
31
0
39
0
210
0
220
0
230
1
0
LINE
5
8F
100
AcDbEntity
8
1
62
256
6
ByLayer
370
18
48
1
60
0
100
AcDbLine
10
22.840451
20
-4
30
0
11
22.94376
21
-4
31
0
39
0
210
0
220
0
230
1
0
LINE
5
90
100
AcDbEntity
8
1
62
256
6
ByLayer
370
18
48
1
60
0
100
AcDbLine
10
37.255543
20
3.249951
30
0
11
35.840302
21
3.324121
31
0
39
0
210
0
220
0
230
1
0
LINE
5
91
100
AcDbEntity
8
1
62
256
6
ByLayer
370
18
48
1
60
0
100
AcDbLine
10
22.94376
20
-4
30
0
11
24.857675
21
-3.899696
31
0
39
0
210
0
220
0
230
1
0
LINE
5
92
100
AcDbEntity
8
1
62
256
6
ByLayer
370
18
48
1
60
0
100
AcDbLine
10
46.489845
20
-2.766002
30
0
11
47.564247
21
-2.709695
31
0
39
0
210
0
220
0
230
1
0
LINE
5
93
100
AcDbEntity
8
1
62
256
6
ByLayer
370
18
48
1
60
0
100
AcDbLine
10
33.381772
20
3.452967
30
0
11
31.830485
21
3.534266
31
0
39
0
210
0
220
0
230
1
0
LINE
5
94
100
AcDbEntity
8
1
62
256
6
ByLayer
370
18
48
1
60
0
100
AcDbLine
10
43.142579
20
-2.941425
30
0
11
44.312862
21
-2.880093
31
0
39
0
210
0
220
0
230
1
0
LINE
5
95
100
AcDbEntity
8
1
62
256
6
ByLayer
370
18
48
1
60
0
100
AcDbLine
10
50.6326
20
2.548889
30
0
11
49.640991
21
2.600857
31
0
39
0
210
0
220
0
230
1
0
LINE
5
96
100
AcDbEntity
8
1
62
256
6
ByLayer
370
18
48
1
60
0
100
AcDbLine
10
29.253777
20
3.669306
30
0
11
27.56859
21
3.757623
31
0
39
0
210
0
220
0
230
1
0
LINE
5
97
100
AcDbEntity
8
1
62
256
6
ByLayer
370
18
48
1
60
0
100
AcDbLine
10
39.599174
20
-3.127127
30
0
11
40.882327
21
-3.05988
31
0
39
0
210
0
220
0
230
1
0
LINE
5
98
100
AcDbEntity
8
1
62
256
6
ByLayer
370
18
48
1
60
0
100
AcDbLine
10
47.564247
20
2.709695
30
0
11
46.489845
21
2.766002
31
0
39
0
210
0
220
0
230
1
0
LINE
5
99
100
AcDbEntity
8
1
62
256
6
ByLayer
370
18
48
1
60
0
100
AcDbLine
10
24.857675
20
3.899696
30
0
11
22.94376
21
4
31
0
39
0
210
0
220
0
230
1
0
LINE
5
9A
100
AcDbEntity
8
1
62
256
6
ByLayer
370
18
48
1
60
0
100
AcDbLine
10
35.840302
20
-3.324121
30
0
11
37.255543
21
-3.249951
31
0
39
0
210
0
220
0
230
1
0
LINE
5
9B
100
AcDbEntity
8
1
62
256
6
ByLayer
370
18
48
1
60
0
100
AcDbLine
10
40.882327
20
3.05988
30
0
11
39.599174
21
3.127127
31
0
39
0
210
0
220
0
230
1
0
LINE
5
9C
100
AcDbEntity
8
1
62
256
6
ByLayer
370
18
48
1
60
0
100
AcDbLine
10
27.56859
20
-3.757623
30
0
11
29.253777
21
-3.669306
31
0
39
0
210
0
220
0
230
1
0
LINE
5
9D
100
AcDbEntity
8
1
62
256
6
ByLayer
370
18
48
1
60
0
100
AcDbLine
10
49.640991
20
-2.600857
30
0
11
50.6326
21
-2.548889
31
0
39
0
210
0
220
0
230
1
0
LINE
5
9E
100
AcDbEntity
8
1
62
256
6
ByLayer
370
18
48
1
60
0
100
AcDbLine
10
44.312862
20
2.880093
30
0
11
43.142579
21
2.941425
31
0
39
0
210
0
220
0
230
1
0
LINE
5
9F
100
AcDbEntity
8
1
62
256
6
ByLayer
370
18
48
1
60
0
100
AcDbLine
10
31.830485
20
-3.534266
30
0
11
33.381772
21
-3.452967
31
0
39
0
210
0
220
0
230
1
0
LINE
5
A0
100
AcDbEntity
8
SK1
62
256
6
ByLayer
370
18
48
1
60
0
100
AcDbLine
10
0
20
4
30
0
11
-35.4
21
4
31
0
39
0
210
0
220
0
230
1
0
LINE
5
A1
100
AcDbEntity
8
SK1
62
256
6
ByLayer
370
18
48
1
60
0
100
AcDbLine
10
-35.4
20
-4
30
0
11
0
21
-4
31
0
39
0
210
0
220
0
230
1
0
LINE
5
A2
100
AcDbEntity
8
SK1
62
256
6
ByLayer
370
18
48
1
60
0
100
AcDbLine
10
-36
20
-3.4
30
0
11
-35.4
21
-4
31
0
39
0
210
0
220
0
230
1
0
LINE
5
A3
100
AcDbEntity
8
SK1
62
256
6
ByLayer
370
18
48
1
60
0
100
AcDbLine
10
-35.4
20
4
30
0
11
-36
21
3.4
31
0
39
0
210
0
220
0
230
1
0
LINE
5
A4
100
AcDbEntity
8
SK2
62
256
6
ByLayer
370
13
48
1
60
0
100
AcDbLine
10
-42.5
20
-4
30
0
11
-42.5
21
22.133313
31
0
39
0
210
0
220
0
230
1
0
LINE
5
A6
100
AcDbEntity
8
SK2
62
256
6
ByLayer
370
13
48
1
60
0
100
AcDbLine
10
-37.5875
20
-4
30
0
11
-44.5
21
-4
31
0
39
0
210
0
220
0
230
1
0
LINE
5
A7
100
AcDbEntity
8
SK2
62
256
6
ByLayer
370
13
48
1
60
0
100
AcDbLine
10
-37.5875
20
4
30
0
11
-44.5
21
4
31
0
39
0
210
0
220
0
230
1
0
LINE
5
A8
100
AcDbEntity
8
1
62
256
6
ByLayer
370
18
48
1
60
1
100
AcDbLine
10
-42.5
20
-4
30
0
11
-42.960784
21
-0.500002
31
0
39
0
210
0
220
0
230
1
0
LINE
5
A9
100
AcDbEntity
8
1
62
256
6
ByLayer
370
18
48
1
60
1
100
AcDbLine
10
-42.960784
20
-0.500002
30
0
11
-42.039216
21
-0.499998
31
0
39
0
210
0
220
0
230
1
0
LINE
5
AA
100
AcDbEntity
8
1
62
256
6
ByLayer
370
18
48
1
60
1
100
AcDbLine
10
-42.039216
20
-0.499998
30
0
11
-42.5
21
-4
31
0
39
0
210
0
220
0
230
1
0
LINE
5
AB
100
AcDbEntity
8
1
62
256
6
ByLayer
370
18
48
1
60
1
100
AcDbLine
10
-42.5
20
4
30
0
11
-42.039216
21
0.500002
31
0
39
0
210
0
220
0
230
1
0
LINE
5
AC
100
AcDbEntity
8
1
62
256
6
ByLayer
370
18
48
1
60
1
100
AcDbLine
10
-42.039216
20
0.500002
30
0
11
-42.960784
21
0.499998
31
0
39
0
210
0
220
0
230
1
0
LINE
5
AD
100
AcDbEntity
8
1
62
256
6
ByLayer
370
18
48
1
60
1
100
AcDbLine
10
-42.960784
20
0.499998
30
0
11
-42.5
21
4
31
0
39
0
210
0
220
0
230
1
0
LINE
5
AE
100
AcDbEntity
8
SK2
62
256
6
ByLayer
370
13
48
1
60
0
100
AcDbLine
10
70.5
20
-10
30
0
11
70.5
21
20.633313
31
0
39
0
210
0
220
0
230
1
0
LINE
5
AF
100
AcDbEntity
8
SK2
62
256
6
ByLayer
370
13
48
1
60
0
100
AcDbLine
10
55.5875
20
-2.5
30
0
11
72.5
21
-2.5
31
0
39
0
210
0
220
0
230
1
0
LINE
5
B0
100
AcDbEntity
8
SK2
62
256
6
ByLayer
370
13
48
1
60
0
100
AcDbLine
10
55.5875
20
2.5
30
0
11
72.5
21
2.5
31
0
39
0
210
0
220
0
230
1
0
LINE
5
B1
100
AcDbEntity
8
1
62
256
6
ByLayer
370
18
48
1
60
1
100
AcDbLine
10
70.5
20
-2.5
30
0
11
70.960784
21
-5.999998
31
0
39
0
210
0
220
0
230
1
0
LINE
5
B2
100
AcDbEntity
8
1
62
256
6
ByLayer
370
18
48
1
60
1
100
AcDbLine
10
70.960784
20
-5.999998
30
0
11
70.039216
21
-6.000002
31
0
39
0
210
0
220
0
230
1
0
LINE
5
B3
100
AcDbEntity
8
1
62
256
6
ByLayer
370
18
48
1
60
1
100
AcDbLine
10
70.039216
20
-6.000002
30
0
11
70.5
21
-2.5
31
0
39
0
210
0
220
0
230
1
0
LINE
5
B4
100
AcDbEntity
8
1
62
256
6
ByLayer
370
18
48
1
60
1
100
AcDbLine
10
70.5
20
2.5
30
0
11
70.039216
21
5.999998
31
0
39
0
210
0
220
0
230
1
0
LINE
5
B5
100
AcDbEntity
8
1
62
256
6
ByLayer
370
18
48
1
60
1
100
AcDbLine
10
70.039216
20
5.999998
30
0
11
70.960784
21
6.000002
31
0
39
0
210
0
220
0
230
1
0
LINE
5
B6
100
AcDbEntity
8
1
62
256
6
ByLayer
370
18
48
1
60
1
100
AcDbLine
10
70.960784
20
6.000002
30
0
11
70.5
21
2.5
31
0
39
0
210
0
220
0
230
1
0
LINE
5
B7
100
AcDbEntity
8
SK2
62
256
6
ByLayer
370
13
48
1
60
0
100
AcDbLine
10
12.413064
20
3.542318
30
0
11
-10.957854
21
4.165543
31
0
39
0
210
0
220
0
230
1
0
LINE
5
B8
100
AcDbEntity
8
1
62
256
6
ByLayer
370
18
48
1
60
1
100
AcDbLine
10
-9.013385
20
0
30
0
11
-8.532757
21
-3.497329
31
0
39
0
210
0
220
0
230
1
0
LINE
5
B9
100
AcDbEntity
8
1
62
256
6
ByLayer
370
18
48
1
60
1
100
AcDbLine
10
-8.532757
20
-3.497329
30
0
11
-9.45431
21
-3.502559
31
0
39
0
210
0
220
0
230
1
0
LINE
5
BA
100
AcDbEntity
8
1
62
256
6
ByLayer
370
18
48
1
60
1
100
AcDbLine
10
-9.45431
20
-3.502559
30
0
11
-9.013385
21
0
31
0
39
0
210
0
220
0
230
1
0
LINE
5
BB
100
AcDbEntity
8
1
62
256
6
ByLayer
370
18
48
1
60
1
100
AcDbLine
10
-8.958565
20
4.112228
30
0
11
-9.305965
21
7.625293
31
0
39
0
210
0
220
0
230
1
0
LINE
5
BC
100
AcDbEntity
8
1
62
256
6
ByLayer
370
18
48
1
60
1
100
AcDbLine
10
-9.305965
20
7.625293
30
0
11
-8.384879
21
7.595505
31
0
39
0
210
0
220
0
230
1
0
LINE
5
BD
100
AcDbEntity
8
1
62
256
6
ByLayer
370
18
48
1
60
1
100
AcDbLine
10
-8.384879
20
7.595505
30
0
11
-8.958565
21
4.112228
31
0
39
0
210
0
220
0
230
1
0
LINE
5
14C
100
AcDbEntity
8
1
62
256
6
ByLayer
370
18
48
1
60
1
100
AcDbLine
10
-42.5
20
-4
30
0
11
-42.960784
21
-0.500002
31
0
39
0
210
0
220
0
230
1
0
LINE
5
14D
100
AcDbEntity
8
1
62
256
6
ByLayer
370
18
48
1
60
1
100
AcDbLine
10
-42.960784
20
-0.500002
30
0
11
-42.039216
21
-0.499998
31
0
39
0
210
0
220
0
230
1
0
LINE
5
14E
100
AcDbEntity
8
1
62
256
6
ByLayer
370
18
48
1
60
1
100
AcDbLine
10
-42.039216
20
-0.499998
30
0
11
-42.5
21
-4
31
0
39
0
210
0
220
0
230
1
0
LINE
5
150
100
AcDbEntity
8
1
62
256
6
ByLayer
370
18
48
1
60
1
100
AcDbLine
10
-42.5
20
4
30
0
11
-42.039216
21
0.500002
31
0
39
0
210
0
220
0
230
1
0
LINE
5
151
100
AcDbEntity
8
1
62
256
6
ByLayer
370
18
48
1
60
1
100
AcDbLine
10
-42.039216
20
0.500002
30
0
11
-42.960784
21
0.499998
31
0
39
0
210
0
220
0
230
1
0
LINE
5
152
100
AcDbEntity
8
1
62
256
6
ByLayer
370
18
48
1
60
1
100
AcDbLine
10
-42.960784
20
0.499998
30
0
11
-42.5
21
4
31
0
39
0
210
0
220
0
230
1
0
LINE
5
156
100
AcDbEntity
8
1
62
256
6
ByLayer
370
18
48
1
60
1
100
AcDbLine
10
70.5
20
-2.5
30
0
11
70.960784
21
-5.999998
31
0
39
0
210
0
220
0
230
1
0
LINE
5
157
100
AcDbEntity
8
1
62
256
6
ByLayer
370
18
48
1
60
1
100
AcDbLine
10
70.960784
20
-5.999998
30
0
11
70.039216
21
-6.000002
31
0
39
0
210
0
220
0
230
1
0
LINE
5
158
100
AcDbEntity
8
1
62
256
6
ByLayer
370
18
48
1
60
1
100
AcDbLine
10
70.039216
20
-6.000002
30
0
11
70.5
21
-2.5
31
0
39
0
210
0
220
0
230
1
0
LINE
5
15A
100
AcDbEntity
8
1
62
256
6
ByLayer
370
18
48
1
60
1
100
AcDbLine
10
70.5
20
2.5
30
0
11
70.039216
21
5.999998
31
0
39
0
210
0
220
0
230
1
0
LINE
5
15B
100
AcDbEntity
8
1
62
256
6
ByLayer
370
18
48
1
60
1
100
AcDbLine
10
70.039216
20
5.999998
30
0
11
70.960784
21
6.000002
31
0
39
0
210
0
220
0
230
1
0
LINE
5
15C
100
AcDbEntity
8
1
62
256
6
ByLayer
370
18
48
1
60
1
100
AcDbLine
10
70.960784
20
6.000002
30
0
11
70.5
21
2.5
31
0
39
0
210
0
220
0
230
1
0
LINE
5
15F
100
AcDbEntity
8
1
62
256
6
ByLayer
370
18
48
1
60
1
100
AcDbLine
10
-9.013385
20
0
30
0
11
-8.532757
21
-3.497329
31
0
39
0
210
0
220
0
230
1
0
LINE
5
160
100
AcDbEntity
8
1
62
256
6
ByLayer
370
18
48
1
60
1
100
AcDbLine
10
-8.532757
20
-3.497329
30
0
11
-9.45431
21
-3.502559
31
0
39
0
210
0
220
0
230
1
0
LINE
5
161
100
AcDbEntity
8
1
62
256
6
ByLayer
370
18
48
1
60
1
100
AcDbLine
10
-9.45431
20
-3.502559
30
0
11
-9.013385
21
0
31
0
39
0
210
0
220
0
230
1
0
LINE
5
163
100
AcDbEntity
8
1
62
256
6
ByLayer
370
18
48
1
60
1
100
AcDbLine
10
-8.958565
20
4.112228
30
0
11
-9.305965
21
7.625293
31
0
39
0
210
0
220
0
230
1
0
LINE
5
164
100
AcDbEntity
8
1
62
256
6
ByLayer
370
18
48
1
60
1
100
AcDbLine
10
-9.305965
20
7.625293
30
0
11
-8.384879
21
7.595505
31
0
39
0
210
0
220
0
230
1
0
LINE
5
165
100
AcDbEntity
8
1
62
256
6
ByLayer
370
18
48
1
60
1
100
AcDbLine
10
-8.384879
20
7.595505
30
0
11
-8.958565
21
4.112228
31
0
39
0
210
0
220
0
230
1
0
LINE
5
168
100
AcDbEntity
8
1
62
256
6
ByLayer
370
13
48
1
60
0
100
AcDbLine
10
64.101373
20
-20.8724
30
0
11
64.101373
21
-20.8724
31
0
39
0
210
0
220
0
230
1
0
MTEXT
5
148
100
AcDbEntity
8
SK2
62
256
6
ByLayer
370
18
48
1
60
0
100
AcDbMText
10
-43.841114
20
8.658437
30
0
210
0
220
0
230
1
1
%%c
40
3
41
0
44
1.084337
50
90
71
7
72
5
7
iso_b_vert
0
MTEXT
5
14B
100
AcDbEntity
8
SK2
62
256
6
ByLayer
370
18
48
1
60
0
100
AcDbMText
10
-43.841114
20
14.635
30
0
210
0
220
0
230
1
1
\W0.6903;8 h6
40
3
41
0
44
1.084337
50
90
71
7
72
5
7
iso_b_vert
0
MTEXT
5
154
100
AcDbEntity
8
SK2
62
256
6
ByLayer
370
18
48
1
60
0
100
AcDbMText
10
69.158886
20
7.158437
30
0
210
0
220
0
230
1
1
%%c
40
3
41
0
44
1.084337
50
90
71
7
72
5
7
iso_b_vert
0
MTEXT
5
155
100
AcDbEntity
8
SK2
62
256
6
ByLayer
370
18
48
1
60
0
100
AcDbMText
10
69.158886
20
13.135
30
0
210
0
220
0
230
1
1
\W0.6903;5 h6
40
3
41
0
44
1.084337
50
90
71
7
72
5
7
iso_b_vert
0
MTEXT
5
15E
100
AcDbEntity
8
SK2
62
256
6
ByLayer
370
18
48
1
60
0
100
AcDbMText
10
-9.351452
20
10.720674
30
0
210
0
220
0
230
1
1
\W0.8531;3.0%%d
40
3
41
0
44
1.084337
50
83.6095046853534
71
7
72
5
7
iso_b_vert
0
MTEXT
5
170
100
AcDbEntity
8
SK6
62
256
6
ByLayer
370
18
48
1
60
0
100
AcDbMText
10
-17.609282
20
-57.114886
30
0
210
0
220
0
230
1
1
\W0.7807;2T386-0500-TA0800   T2CH
40
3
41
0
44
1.084337
50
0
71
7
72
5
7
iso_b_vert
0
HATCH
5
14F
100
AcDbEntity
8
SK2
62
256
6
ByLayer
370
13
48
1
60
0
100
AcDbHatch
10
0
20
0
30
0
210
0
220
0
230
1
2
ANSI31
70
0
71
0
91
1
92
5
93
3
72
1
10
-42.5
20
-4
11
-42.9607837415528
21
-0.500001692553184
72
1
10
-42.9607837415528
20
-0.500001692553184
11
-42.0392162584472
21
-0.499998307446816
72
1
10
-42.0392162584472
20
-0.499998307446816
11
-42.5
21
-4
97
0
75
0
76
1
52
0
41
0.0062
77
0
78
1
53
45
43
0
44
0
45
-0.0139193969876572
46
0.0139193969876572
79
0
47
0
98
1
10
0
20
0
0
HATCH
5
153
100
AcDbEntity
8
SK2
62
256
6
ByLayer
370
13
48
1
60
0
100
AcDbHatch
10
0
20
0
30
0
210
0
220
0
230
1
2
ANSI31
70
0
71
0
91
1
92
5
93
3
72
1
10
-42.5
20
4
11
-42.0392162584472
21
0.500001692553184
72
1
10
-42.0392162584472
20
0.500001692553184
11
-42.9607837415528
21
0.499998307446816
72
1
10
-42.9607837415528
20
0.499998307446816
11
-42.5
21
4
97
0
75
0
76
1
52
0
41
0.0062
77
0
78
1
53
45
43
0
44
0
45
-0.0139193969876572
46
0.0139193969876572
79
0
47
0
98
1
10
0
20
0
0
HATCH
5
159
100
AcDbEntity
8
SK2
62
256
6
ByLayer
370
13
48
1
60
0
100
AcDbHatch
10
0
20
0
30
0
210
0
220
0
230
1
2
ANSI31
70
0
71
0
91
1
92
5
93
3
72
1
10
70.5
20
-2.5
11
70.9607837415528
21
-5.99999830744682
72
1
10
70.9607837415528
20
-5.99999830744682
11
70.0392162584472
21
-6.00000169255318
72
1
10
70.0392162584472
20
-6.00000169255318
11
70.5
21
-2.5
97
0
75
0
76
1
52
0
41
0.0062
77
0
78
1
53
45
43
0
44
0
45
-0.0139193969876572
46
0.0139193969876572
79
0
47
0
98
1
10
0
20
0
0
HATCH
5
15D
100
AcDbEntity
8
SK2
62
256
6
ByLayer
370
13
48
1
60
0
100
AcDbHatch
10
0
20
0
30
0
210
0
220
0
230
1
2
ANSI31
70
0
71
0
91
1
92
5
93
3
72
1
10
70.5
20
2.5
11
70.0392162584472
21
5.99999830744682
72
1
10
70.0392162584472
20
5.99999830744682
11
70.9607837415528
21
6.00000169255318
72
1
10
70.9607837415528
20
6.00000169255318
11
70.5
21
2.5
97
0
75
0
76
1
52
0
41
0.0062
77
0
78
1
53
45
43
0
44
0
45
-0.0139193969876572
46
0.0139193969876572
79
0
47
0
98
1
10
0
20
0
0
HATCH
5
162
100
AcDbEntity
8
SK2
62
256
6
ByLayer
370
13
48
1
60
0
100
AcDbHatch
10
0
20
0
30
0
210
0
220
0
230
1
2
ANSI31
70
0
71
0
91
1
92
5
93
3
72
1
10
-9.01338513099577
20
2.84E-14
11
-8.53275735855306
21
-3.49732851659184
72
1
10
-8.53275735855306
20
-3.49732851659184
11
-9.45430999901481
21
-3.50255888817259
72
1
10
-9.45430999901481
20
-3.50255888817259
11
-9.01338513099577
21
2.84E-14
97
0
75
0
76
1
52
0
41
0.0062
77
0
78
1
53
45
43
0
44
0
45
-0.0139193969876572
46
0.0139193969876572
79
0
47
0
98
1
10
0
20
0
0
HATCH
5
166
100
AcDbEntity
8
SK2
62
256
6
ByLayer
370
13
48
1
60
0
100
AcDbHatch
10
0
20
0
30
0
210
0
220
0
230
1
2
ANSI31
70
0
71
0
91
1
92
5
93
3
72
1
10
-8.95856516297795
20
4.11222840434633
11
-9.30596507209725
21
7.62529303679386
72
1
10
-9.30596507209725
20
7.62529303679386
11
-8.38487912829868
21
7.5955052865319
72
1
10
-8.38487912829868
20
7.5955052865319
11
-8.95856516297795
21
4.11222840434633
97
0
75
0
76
1
52
0
41
0.0062
77
0
78
1
53
45
43
0
44
0
45
-0.0139193969876572
46
0.0139193969876572
79
0
47
0
98
1
10
0
20
0
0
DIMENSION
5
173
100
AcDbEntity
8
SK2
62
256
6
ByLayer
370
18
48
1
60
0
100
AcDbDimension
2
_U0
10
54
20
-40.349648
30
0
11
9
21
-40.349648
31
0
70
32
71
1
72
1
41
1
210
0
220
0
230
1
3
Standard
100
AcDbAlignedDimension
13
-36
23
4
33
0
14
54
24
2.5
34
0
50
0
100
AcDbRotatedDimension
1001
ACAD
1000
DSTYLE
1002
{
1070
   371
1070
    13
1070
   372
1070
    13
1070
     3
1000

1070
   170
1070
     0
1070
   144
1040
1.0
1070
   277
1070
     2
1070
   284
1070
     8
1070
   278
1070
    46
1070
   146
1040
1.166667
1070
   345
1005
16
1070
   347
1005
16
1070
   346
1005
16
1070
   344
1005
0
1070
   343
1005
0
1070
   172
1070
     1
1070
    76
1070
     0
1070
    75
1070
     0
1070
   282
1070
     0
1070
   281
1070
     0
1070
    71
1070
     0
1070
    74
1070
     0
1070
   279
1070
     0
1070
   173
1070
     1
1070
   340
1005
149
1070
   271
1070
     2
1070
   272
1070
     2
1070
    77
1070
     1
1070
    73
1070
     1
1070
   171
1070
     3
1070
   274
1070
     4
1070
   177
1070
     2
1070
   176
1070
     2
1070
   178
1070
     2
1070
    78
1070
     8
1070
    48
1040
-0.1
1070
    41
1040
3.5
1070
   147
1040
1.5
1070
    42
1040
1.5875
1070
    44
1040
2.0
1070
   140
1040
3.0
1002
}
1001
ACAD_DSTYLE_DIM_LINETYPE
1070
   380
1005
16
1001
ACAD_DSTYLE_DIM_EXT1_LINETYPE
1070
   381
1005
16
1001
ACAD_DSTYLE_DIM_EXT2_LINETYPE
1070
   382
1005
16
0
DIMENSION
5
18C
100
AcDbEntity
8
SK2
62
256
6
ByLayer
370
18
48
1
60
0
100
AcDbDimension
2
_U1
10
0
20
-28.349648
30
0
11
27
21
-28.349648
31
0
70
32
71
1
72
1
41
1
210
0
220
0
230
1
3
Standard
100
AcDbAlignedDimension
13
54
23
-2.5
33
0
14
0
24
-4
34
0
50
0
100
AcDbRotatedDimension
1001
ACAD
1000
DSTYLE
1002
{
1070
   371
1070
    13
1070
   372
1070
    13
1070
     3
1000

1070
   170
1070
     0
1070
   144
1040
1.0
1070
   277
1070
     2
1070
   284
1070
     8
1070
   278
1070
    46
1070
   146
1040
1.166667
1070
   345
1005
16
1070
   347
1005
16
1070
   346
1005
16
1070
   344
1005
0
1070
   343
1005
0
1070
   172
1070
     1
1070
    76
1070
     0
1070
    75
1070
     0
1070
   282
1070
     0
1070
   281
1070
     0
1070
    71
1070
     0
1070
    74
1070
     0
1070
   279
1070
     0
1070
   173
1070
     1
1070
   340
1005
149
1070
   271
1070
     2
1070
   272
1070
     2
1070
    77
1070
     1
1070
    73
1070
     1
1070
   171
1070
     3
1070
   274
1070
     4
1070
   177
1070
     2
1070
   176
1070
     2
1070
   178
1070
     2
1070
    78
1070
     8
1070
    48
1040
-0.1
1070
    41
1040
3.5
1070
   147
1040
1.5
1070
    42
1040
1.5875
1070
    44
1040
2.0
1070
   140
1040
3.0
1002
}
1001
ACAD_DSTYLE_DIM_LINETYPE
1070
   380
1005
16
1001
ACAD_DSTYLE_DIM_EXT1_LINETYPE
1070
   381
1005
16
1001
ACAD_DSTYLE_DIM_EXT2_LINETYPE
1070
   382
1005
16
0
DIMENSION
5
1A4
100
AcDbEntity
8
SK2
62
256
6
ByLayer
370
18
48
1
60
0
100
AcDbDimension
2
_U2
10
24
20
-14.349648
30
0
11
39
21
-14.349648
31
0
70
32
71
1
72
1
41
1
210
0
220
0
230
1
3
Standard
100
AcDbAlignedDimension
13
54
23
-2.5
33
0
14
24
24
-4
34
0
50
0
100
AcDbRotatedDimension
1001
ACAD
1000
DSTYLE
1002
{
1070
   371
1070
    13
1070
   372
1070
    13
1070
     3
1000

1070
   170
1070
     0
1070
   144
1040
1.0
1070
   277
1070
     2
1070
   284
1070
     8
1070
   278
1070
    46
1070
   146
1040
1.166667
1070
   345
1005
16
1070
   347
1005
16
1070
   346
1005
16
1070
   344
1005
0
1070
   343
1005
0
1070
   172
1070
     1
1070
    76
1070
     0
1070
    75
1070
     0
1070
   282
1070
     0
1070
   281
1070
     0
1070
    71
1070
     0
1070
    74
1070
     0
1070
   279
1070
     0
1070
   173
1070
     1
1070
   340
1005
149
1070
   271
1070
     2
1070
   272
1070
     2
1070
    77
1070
     1
1070
    73
1070
     1
1070
   171
1070
     3
1070
   274
1070
     4
1070
   177
1070
     2
1070
   176
1070
     2
1070
   178
1070
     2
1070
    78
1070
     8
1070
    48
1040
-0.1
1070
    41
1040
3.5
1070
   147
1040
1.5
1070
    42
1040
1.5875
1070
    44
1040
2.0
1070
   140
1040
3.0
1002
}
1001
ACAD_DSTYLE_DIM_LINETYPE
1070
   380
1005
16
1001
ACAD_DSTYLE_DIM_EXT1_LINETYPE
1070
   381
1005
16
1001
ACAD_DSTYLE_DIM_EXT2_LINETYPE
1070
   382
1005
16
0
ENDSEC
0
SECTION
2
OBJECTS
0
DICTIONARY
5
22c
330
0
100
AcDbDictionary
280
0
281
1
3
ACAD_GROUP
350
22d
3
ACAD_MLINESTYLE
350
22e
0
DICTIONARY
5
22d
330
0
100
AcDbDictionary
280
0
281
1
0
DICTIONARY
5
22e
330
0
100
AcDbDictionary
280
0
281
1
3
Standard
350
18
0
MLINESTYLE
5
18
330
22e
100
AcDbMlineStyle
2
Standard
70
0
3

62
256
51
90
52
90
71
2
49
-0.5
62
256
6
ByLayer
49
0.5
62
256
6
ByLayer
0
RASTERVARIABLES
5
21a
330

100
AcDbRasterVariables
90
0
70
1
71
1
72
1
0
ENDSEC
0
EOF
