0
SECTION
2
HEADER
9
$ACADVER
1
AC1015
9
$DWGCODEPAGE
3
ANSI_1252
9
$HANDSEED
5
21f
9
$ANGBASE
50
0
9
$ANGDIR
70
0
9
$ATTMODE
70
1
9
$AUNITS
70
0
9
$AUPREC
70
0
9
$CECOLOR
62
256
9
$CELTSCALE
40
1
9
$CELTYPE
6
ByLayer
9
$CELWEIGHT
370
18
9
$CLAYER
8
0
9
$CMLJUST
70
0
9
$CMLSCALE
40
1
9
$CMLSTYLE
2
Standard
9
$DIMSTYLE
2
Standard
9
$TEXTSIZE
40
0.2
9
$TEXTSTYLE
7
Standard
9
$LUNITS
70
2
9
$LUPREC
70
4
9
$EXTNAMES
290
1
9
$INSUNITS
70
4
9
$LTSCALE
40
1
9
$LWDISPLAY
290
1
9
$PDMODE
70
0
9
$PDSIZE
40
0
9
$PLINEGEN
70
0
0
ENDSEC
0
SECTION
2
CLASSES
0
CLASS
1
RASTERVARIABLES
2
AcDbRasterVariables
3
ISM
90
0
280
0
281
0
0
ENDSEC
0
SECTION
2
TABLES
0
TABLE
2
VPORT
5
215
100
AcDbSymbolTable
0
VPORT
5
1
100
AcDbSymbolTableRecord
100
AcDbViewportTableRecord
2
*Active
70
0
10
0
20
0
11
1
21
1
12
-1
22
1
13
0
23
0
14
0.5
24
0.5
15
10
25
10
16
0
26
0
36
1
17
0
27
0
37
0
0
ENDTAB
0
TABLE
2
LTYPE
5
216
100
AcDbSymbolTable
0
LTYPE
5
14
100
AcDbSymbolTableRecord
100
AcDbLinetypeTableRecord
70
0
2
ByBlock
3

72
65
73
0
40
0
0
LTYPE
5
15
100
AcDbSymbolTableRecord
100
AcDbLinetypeTableRecord
70
0
2
ByLayer
3

72
65
73
0
40
0
0
LTYPE
5
16
100
AcDbSymbolTableRecord
100
AcDbLinetypeTableRecord
70
0
2
Continuous
3
Solid line
72
65
73
0
40
0
0
LTYPE
5
6E
100
AcDbSymbolTableRecord
100
AcDbLinetypeTableRecord
70
0
2
CENTER
3
____ _ ____ _ ____ _ ____
72
65
73
4
40
47.5
49
22
74
0
49
-8.5
74
0
49
8.5
74
0
49
-8.5
74
0
0
LTYPE
5
6F
100
AcDbSymbolTableRecord
100
AcDbLinetypeTableRecord
70
0
2
DASHED
3
__ __ __ __ __ __ __ __ __
72
65
73
2
40
25.72
49
12.86
74
0
49
-12.86
74
0
0
ENDTAB
0
TABLE
2
LAYER
5
217
100
AcDbSymbolTable
0
LAYER
5
10
100
AcDbSymbolTableRecord
100
AcDbLayerTableRecord
2
0
70
0
62
7
6
Continuous
290
1
370
-3
390
0
0
LAYER
5
71
100
AcDbSymbolTableRecord
100
AcDbLayerTableRecord
2
81
70
0
62
-3
6
Continuous
290
1
370
-3
390
0
0
LAYER
5
73
100
AcDbSymbolTableRecord
100
AcDbLayerTableRecord
2
1
70
0
62
4
6
Continuous
290
1
370
-3
390
0
0
LAYER
5
75
100
AcDbSymbolTableRecord
100
AcDbLayerTableRecord
2
80
70
0
62
-6
6
Continuous
290
1
370
-3
390
0
0
LAYER
5
80
100
AcDbSymbolTableRecord
100
AcDbLayerTableRecord
2
4
70
0
62
-2
6
CENTER
290
1
370
-3
390
0
0
LAYER
5
15C
100
AcDbSymbolTableRecord
100
AcDbLayerTableRecord
2
Defpoints
70
0
62
7
6
Continuous
290
0
370
-3
390
0
0
LAYER
5
201
100
AcDbSymbolTableRecord
100
AcDbLayerTableRecord
2
SK4
70
0
62
2
6
CENTER
290
1
370
-3
390
0
0
LAYER
5
202
100
AcDbSymbolTableRecord
100
AcDbLayerTableRecord
2
SK1
70
0
62
4
6
Continuous
290
1
370
-3
390
0
0
LAYER
5
203
100
AcDbSymbolTableRecord
100
AcDbLayerTableRecord
2
SK2
70
0
62
7
6
Continuous
290
1
370
-3
390
0
0
LAYER
5
204
100
AcDbSymbolTableRecord
100
AcDbLayerTableRecord
2
SK6
70
0
62
5
6
Continuous
290
1
370
-3
390
0
0
ENDTAB
0
TABLE
2
STYLE
5
218
100
AcDbSymbolTable
0
STYLE
5
11
100
AcDbSymbolTableRecord
100
AcDbTextStyleTableRecord
2
Standard
3
txt
70
0
71
0
40
0
41
1
42
0
50
0
0
STYLE
5
12F
100
AcDbSymbolTableRecord
100
AcDbTextStyleTableRecord
2
iso_b_vert
3
simplex.shx
70
0
71
0
40
0
41
1
42
0
50
0
0
STYLE
5
130
100
AcDbSymbolTableRecord
100
AcDbTextStyleTableRecord
2
DWGDirectTextStyle
3
simplex
70
0
71
0
40
0
41
1
42
0
50
0
0
ENDTAB
0
TABLE
2
DIMSTYLE
5
219
100
AcDbSymbolTable
100
AcDbDimStyleTable
0
DIMSTYLE
105
27
100
AcDbSymbolTableRecord
100
AcDbDimStyleTableRecord
2
Standard
70
0
3
<>
41
0.18
42
0.0625
44
0.18
140
0.18
147
0.09
73
0
74
0
77
1
271
2
275
0
278
52
280
0
340
11
0
ENDTAB
0
TABLE
2
VIEW
5
21a
100
AcDbSymbolTable
0
ENDTAB
0
TABLE
2
UCS
5
21b
100
AcDbSymbolTable
0
ENDTAB
0
TABLE
2
APPID
5
21c
100
AcDbSymbolTable
0
APPID
5
12
100
AcDbSymbolTableRecord
100
AcDbRegAppTableRecord
2
ACAD
70
0
0
APPID
5
158
100
AcDbSymbolTableRecord
100
AcDbRegAppTableRecord
2
ACAD_DSTYLE_DIMBREAK
70
0
0
APPID
5
1C0
100
AcDbSymbolTableRecord
100
AcDbRegAppTableRecord
2
ACAD_DSTYLE_DIM_LINETYPE
70
0
0
APPID
5
1C1
100
AcDbSymbolTableRecord
100
AcDbRegAppTableRecord
2
ACAD_DSTYLE_DIM_EXT1_LINETYPE
70
0
0
APPID
5
1C2
100
AcDbSymbolTableRecord
100
AcDbRegAppTableRecord
2
ACAD_DSTYLE_DIM_EXT2_LINETYPE
70
0
0
APPID
5
1FD
100
AcDbSymbolTableRecord
100
AcDbRegAppTableRecord
2
ACAD_MLEADERVER
70
0
0
ENDTAB
0
TABLE
2
BLOCK_RECORD
5
21d
100
AcDbSymbolTable
0
BLOCK_RECORD
5
1F
100
AcDbSymbolTableRecord
100
AcDbBlockTableRecord
2
*Model_Space
340
0
70
0
0
BLOCK_RECORD
5
1B
100
AcDbSymbolTableRecord
100
AcDbBlockTableRecord
2
*Paper_Space
340
0
70
0
0
BLOCK_RECORD
5
23
100
AcDbSymbolTableRecord
100
AcDbBlockTableRecord
2
*Paper_Space0
340
0
70
0
0
BLOCK_RECORD
5
14D
100
AcDbSymbolTableRecord
100
AcDbBlockTableRecord
2
LABLE3D_1
340
0
70
0
0
BLOCK_RECORD
5
15D
100
AcDbSymbolTableRecord
100
AcDbBlockTableRecord
2
*D2
340
0
70
0
0
BLOCK_RECORD
5
169
100
AcDbSymbolTableRecord
100
AcDbBlockTableRecord
2
_U0
340
0
70
0
0
BLOCK_RECORD
5
175
100
AcDbSymbolTableRecord
100
AcDbBlockTableRecord
2
*D4
340
0
70
0
0
BLOCK_RECORD
5
181
100
AcDbSymbolTableRecord
100
AcDbBlockTableRecord
2
_U1
340
0
70
0
0
BLOCK_RECORD
5
18D
100
AcDbSymbolTableRecord
100
AcDbBlockTableRecord
2
*D6
340
0
70
0
0
BLOCK_RECORD
5
199
100
AcDbSymbolTableRecord
100
AcDbBlockTableRecord
2
_U2
340
0
70
0
0
ENDTAB
0
ENDSEC
0
SECTION
2
BLOCKS
0
BLOCK
5
20
100
AcDbEntity
8
0
100
AcDbBlockBegin
2
*Model_Space
70
0
10
0
20
0
30
0
3
*Model_Space
0
ENDBLK
5
21
100
AcDbEntity
8
0
100
AcDbBlockEnd
0
BLOCK
5
1C
100
AcDbEntity
8
0
100
AcDbBlockBegin
2
*Paper_Space
70
0
10
0
20
0
30
0
3
*Paper_Space
0
ENDBLK
5
1D
100
AcDbEntity
8
0
100
AcDbBlockEnd
0
BLOCK
5
24
100
AcDbEntity
8
0
100
AcDbBlockBegin
2
*Paper_Space0
70
0
10
0
20
0
30
0
3
*Paper_Space0
0
ENDBLK
5
25
100
AcDbEntity
8
0
100
AcDbBlockEnd
0
BLOCK
5
154
100
AcDbEntity
8
0
100
AcDbBlockBegin
2
LABLE3D_1
70
0
10
43.351259
20
-19.92345
30
0
3
LABLE3D_1
0
MTEXT
5
152
100
AcDbEntity
8
1
62
256
6
ByLayer
370
18
48
1
60
0
100
AcDbMText
10
45.010259
20
-22.038336
30
0
210
0
220
0
230
1
1
\W0.7010;R1.50
40
3
41
0
44
1.084337
50
0
71
7
72
5
7
iso_b_vert
0
ENDBLK
5
155
100
AcDbEntity
8
0
100
AcDbBlockEnd
0
BLOCK
5
15E
100
AcDbEntity
8
0
100
AcDbBlockBegin
2
*D2
70
1
10
0
20
0
30
0
3
*D2
0
LINE
5
160
100
AcDbEntity
8
0
62
256
6
ByLayer
370
-2
48
1
60
0
100
AcDbLine
10
-36
20
1.4125
30
0
11
-36
21
-40.095058
31
0
39
0
210
0
220
0
230
1
0
LINE
5
161
100
AcDbEntity
8
0
62
256
6
ByLayer
370
-2
48
1
60
0
100
AcDbLine
10
34
20
-0.0875
30
0
11
34
21
-40.095058
31
0
39
0
210
0
220
0
230
1
0
LINE
5
162
100
AcDbEntity
8
0
62
256
6
ByLayer
370
-2
48
1
60
0
100
AcDbLine
10
-32.5
20
-38.095058
30
0
11
30.5
21
-38.095058
31
0
39
0
210
0
220
0
230
1
0
SOLID
5
163
100
AcDbEntity
8
0
62
256
6
ByLayer
370
-1
48
1
60
0
100
AcDbTrace
10
-32.5
20
-37.511725
30
0
11
-32.5
21
-38.678392
31
0
12
-36
22
-38.095058
32
0
13
-36
23
-38.095058
33
0
39
0
210
0
220
0
230
1
0
SOLID
5
164
100
AcDbEntity
8
0
62
256
6
ByLayer
370
-1
48
1
60
0
100
AcDbTrace
10
30.5
20
-38.678392
30
0
11
30.5
21
-37.511725
31
0
12
34
22
-38.095058
32
0
13
34
23
-38.095058
33
0
39
0
210
0
220
0
230
1
0
MTEXT
5
165
100
AcDbEntity
8
0
62
256
6
ByLayer
370
18
48
1
60
0
100
AcDbMText
10
-1
20
-32.095058
30
0
210
0
220
0
230
1
1
\A1;70
40
3
41
0
44
1
50
0
71
5
72
5
7
iso_b_vert
0
POINT
5
166
100
AcDbEntity
8
Defpoints
62
0
6
ByLayer
370
-1
48
1
60
0
100
AcDbPoint
10
-36
20
3
30
0
39
0
210
0
220
0
230
1
50
360
0
POINT
5
167
100
AcDbEntity
8
Defpoints
62
0
6
ByLayer
370
-1
48
1
60
0
100
AcDbPoint
10
34
20
1.5
30
0
39
0
210
0
220
0
230
1
50
360
0
POINT
5
168
100
AcDbEntity
8
Defpoints
62
0
6
ByLayer
370
-1
48
1
60
0
100
AcDbPoint
10
34
20
-38.095058
30
0
39
0
210
0
220
0
230
1
50
360
0
ENDBLK
5
15F
100
AcDbEntity
8
0
100
AcDbBlockEnd
0
BLOCK
5
170
100
AcDbEntity
8
0
100
AcDbBlockBegin
2
_U0
70
0
10
0
20
0
30
0
3
_U0
0
MTEXT
5
16A
100
AcDbEntity
8
SK2
62
256
6
ByLayer
370
18
48
1
60
0
100
AcDbMText
10
-2.632828
20
-37.209944
30
0
210
0
220
0
230
1
1
\W0.6740;70
40
3
41
0
44
1.084337
50
0
71
7
72
5
7
iso_b_vert
0
LINE
5
16B
100
AcDbEntity
8
SK2
62
256
6
ByLayer
370
13
48
1
60
0
100
AcDbLine
10
-36
20
1.4125
30
0
11
-36
21
-40.095058
31
0
39
0
210
0
220
0
230
1
0
LINE
5
16C
100
AcDbEntity
8
SK2
62
256
6
ByLayer
370
13
48
1
60
0
100
AcDbLine
10
34
20
-0.0875
30
0
11
34
21
-40.095058
31
0
39
0
210
0
220
0
230
1
0
LINE
5
16D
100
AcDbEntity
8
SK2
62
256
6
ByLayer
370
13
48
1
60
0
100
AcDbLine
10
-36
20
-38.095058
30
0
11
34
21
-38.095058
31
0
39
0
210
0
220
0
230
1
0
SOLID
5
16E
100
AcDbEntity
8
SK2
62
256
6
ByLayer
370
18
48
1
60
0
100
AcDbTrace
10
-36
20
-38.095058
30
0
11
-32.500002
21
-37.634274
31
0
12
-32.499998
22
-38.555842
32
0
13
-32.499998
23
-38.555842
33
0
39
0
210
0
220
0
230
1
0
SOLID
5
16F
100
AcDbEntity
8
SK2
62
256
6
ByLayer
370
18
48
1
60
0
100
AcDbTrace
10
34
20
-38.095058
30
0
11
30.500002
21
-38.555842
31
0
12
30.499998
22
-37.634274
32
0
13
30.499998
23
-37.634274
33
0
39
0
210
0
220
0
230
1
0
ENDBLK
5
171
100
AcDbEntity
8
0
100
AcDbBlockEnd
0
BLOCK
5
176
100
AcDbEntity
8
0
100
AcDbBlockBegin
2
*D4
70
1
10
0
20
0
30
0
3
*D4
0
LINE
5
178
100
AcDbEntity
8
0
62
256
6
ByLayer
370
-2
48
1
60
0
100
AcDbLine
10
34
20
-3.0875
30
0
11
34
21
-28.095058
31
0
39
0
210
0
220
0
230
1
0
LINE
5
179
100
AcDbEntity
8
0
62
256
6
ByLayer
370
-2
48
1
60
0
100
AcDbLine
10
0
20
-4.5875
30
0
11
0
21
-28.095058
31
0
39
0
210
0
220
0
230
1
0
LINE
5
17A
100
AcDbEntity
8
0
62
256
6
ByLayer
370
-2
48
1
60
0
100
AcDbLine
10
30.5
20
-26.095058
30
0
11
3.5
21
-26.095058
31
0
39
0
210
0
220
0
230
1
0
SOLID
5
17B
100
AcDbEntity
8
0
62
256
6
ByLayer
370
-1
48
1
60
0
100
AcDbTrace
10
30.5
20
-26.678392
30
0
11
30.5
21
-25.511725
31
0
12
34
22
-26.095058
32
0
13
34
23
-26.095058
33
0
39
0
210
0
220
0
230
1
0
SOLID
5
17C
100
AcDbEntity
8
0
62
256
6
ByLayer
370
-1
48
1
60
0
100
AcDbTrace
10
3.5
20
-25.511725
30
0
11
3.5
21
-26.678392
31
0
12
0
22
-26.095058
32
0
13
0
23
-26.095058
33
0
39
0
210
0
220
0
230
1
0
MTEXT
5
17D
100
AcDbEntity
8
0
62
256
6
ByLayer
370
18
48
1
60
0
100
AcDbMText
10
17
20
-20.095058
30
0
210
0
220
0
230
1
1
\A1;34
40
3
41
0
44
1
50
0
71
5
72
5
7
iso_b_vert
0
POINT
5
17E
100
AcDbEntity
8
Defpoints
62
0
6
ByLayer
370
-1
48
1
60
0
100
AcDbPoint
10
34
20
-1.5
30
0
39
0
210
0
220
0
230
1
50
360
0
POINT
5
17F
100
AcDbEntity
8
Defpoints
62
0
6
ByLayer
370
-1
48
1
60
0
100
AcDbPoint
10
0
20
-3
30
0
39
0
210
0
220
0
230
1
50
360
0
POINT
5
180
100
AcDbEntity
8
Defpoints
62
0
6
ByLayer
370
-1
48
1
60
0
100
AcDbPoint
10
0
20
-26.095058
30
0
39
0
210
0
220
0
230
1
50
360
0
ENDBLK
5
177
100
AcDbEntity
8
0
100
AcDbBlockEnd
0
BLOCK
5
188
100
AcDbEntity
8
0
100
AcDbBlockBegin
2
_U1
70
0
10
0
20
0
30
0
3
_U1
0
MTEXT
5
182
100
AcDbEntity
8
SK2
62
256
6
ByLayer
370
18
48
1
60
0
100
AcDbMText
10
15.209229
20
-25.209944
30
0
210
0
220
0
230
1
1
\W0.7167;34
40
3
41
0
44
1.084337
50
0
71
7
72
5
7
iso_b_vert
0
LINE
5
183
100
AcDbEntity
8
SK2
62
256
6
ByLayer
370
13
48
1
60
0
100
AcDbLine
10
34
20
-3.0875
30
0
11
34
21
-28.095058
31
0
39
0
210
0
220
0
230
1
0
LINE
5
184
100
AcDbEntity
8
SK2
62
256
6
ByLayer
370
13
48
1
60
0
100
AcDbLine
10
0
20
-4.5875
30
0
11
0
21
-28.095058
31
0
39
0
210
0
220
0
230
1
0
LINE
5
185
100
AcDbEntity
8
SK2
62
256
6
ByLayer
370
13
48
1
60
0
100
AcDbLine
10
34
20
-26.095058
30
0
11
0
21
-26.095058
31
0
39
0
210
0
220
0
230
1
0
SOLID
5
186
100
AcDbEntity
8
SK2
62
256
6
ByLayer
370
18
48
1
60
0
100
AcDbTrace
10
34
20
-26.095058
30
0
11
30.500002
21
-26.555842
31
0
12
30.499998
22
-25.634274
32
0
13
30.499998
23
-25.634274
33
0
39
0
210
0
220
0
230
1
0
SOLID
5
187
100
AcDbEntity
8
SK2
62
256
6
ByLayer
370
18
48
1
60
0
100
AcDbTrace
10
0
20
-26.095058
30
0
11
3.499998
21
-25.634274
31
0
12
3.500002
22
-26.555842
32
0
13
3.500002
23
-26.555842
33
0
39
0
210
0
220
0
230
1
0
ENDBLK
5
189
100
AcDbEntity
8
0
100
AcDbBlockEnd
0
BLOCK
5
18E
100
AcDbEntity
8
0
100
AcDbBlockBegin
2
*D6
70
1
10
0
20
0
30
0
3
*D6
0
LINE
5
190
100
AcDbEntity
8
0
62
256
6
ByLayer
370
-2
48
1
60
0
100
AcDbLine
10
34
20
-3.0875
30
0
11
34
21
-14.095058
31
0
39
0
210
0
220
0
230
1
0
LINE
5
191
100
AcDbEntity
8
0
62
256
6
ByLayer
370
-2
48
1
60
0
100
AcDbLine
10
16
20
-4.5875
30
0
11
16
21
-14.095058
31
0
39
0
210
0
220
0
230
1
0
LINE
5
192
100
AcDbEntity
8
0
62
256
6
ByLayer
370
-2
48
1
60
0
100
AcDbLine
10
30.5
20
-12.095058
30
0
11
19.5
21
-12.095058
31
0
39
0
210
0
220
0
230
1
0
SOLID
5
193
100
AcDbEntity
8
0
62
256
6
ByLayer
370
-1
48
1
60
0
100
AcDbTrace
10
30.5
20
-12.678392
30
0
11
30.5
21
-11.511725
31
0
12
34
22
-12.095058
32
0
13
34
23
-12.095058
33
0
39
0
210
0
220
0
230
1
0
SOLID
5
194
100
AcDbEntity
8
0
62
256
6
ByLayer
370
-1
48
1
60
0
100
AcDbTrace
10
19.5
20
-11.511725
30
0
11
19.5
21
-12.678392
31
0
12
16
22
-12.095058
32
0
13
16
23
-12.095058
33
0
39
0
210
0
220
0
230
1
0
MTEXT
5
195
100
AcDbEntity
8
0
62
256
6
ByLayer
370
18
48
1
60
0
100
AcDbMText
10
25
20
-6.095058
30
0
210
0
220
0
230
1
1
\A1;18
40
3
41
0
44
1
50
0
71
5
72
5
7
iso_b_vert
0
POINT
5
196
100
AcDbEntity
8
Defpoints
62
0
6
ByLayer
370
-1
48
1
60
0
100
AcDbPoint
10
34
20
-1.5
30
0
39
0
210
0
220
0
230
1
50
360
0
POINT
5
197
100
AcDbEntity
8
Defpoints
62
0
6
ByLayer
370
-1
48
1
60
0
100
AcDbPoint
10
16
20
-3
30
0
39
0
210
0
220
0
230
1
50
360
0
POINT
5
198
100
AcDbEntity
8
Defpoints
62
0
6
ByLayer
370
-1
48
1
60
0
100
AcDbPoint
10
16
20
-12.095058
30
0
39
0
210
0
220
0
230
1
50
360
0
ENDBLK
5
18F
100
AcDbEntity
8
0
100
AcDbBlockEnd
0
BLOCK
5
1A0
100
AcDbEntity
8
0
100
AcDbBlockBegin
2
_U2
70
0
10
0
20
0
30
0
3
_U2
0
MTEXT
5
19A
100
AcDbEntity
8
SK2
62
256
6
ByLayer
370
18
48
1
60
0
100
AcDbMText
10
23.742115
20
-11.209944
30
0
210
0
220
0
230
1
1
\W0.5321;18
40
3
41
0
44
1.084337
50
0
71
7
72
5
7
iso_b_vert
0
LINE
5
19B
100
AcDbEntity
8
SK2
62
256
6
ByLayer
370
13
48
1
60
0
100
AcDbLine
10
34
20
-3.0875
30
0
11
34
21
-14.095058
31
0
39
0
210
0
220
0
230
1
0
LINE
5
19C
100
AcDbEntity
8
SK2
62
256
6
ByLayer
370
13
48
1
60
0
100
AcDbLine
10
16
20
-4.5875
30
0
11
16
21
-14.095058
31
0
39
0
210
0
220
0
230
1
0
LINE
5
19D
100
AcDbEntity
8
SK2
62
256
6
ByLayer
370
13
48
1
60
0
100
AcDbLine
10
34
20
-12.095058
30
0
11
16
21
-12.095058
31
0
39
0
210
0
220
0
230
1
0
SOLID
5
19E
100
AcDbEntity
8
SK2
62
256
6
ByLayer
370
18
48
1
60
0
100
AcDbTrace
10
34
20
-12.095058
30
0
11
30.500002
21
-12.555842
31
0
12
30.499998
22
-11.634274
32
0
13
30.499998
23
-11.634274
33
0
39
0
210
0
220
0
230
1
0
SOLID
5
19F
100
AcDbEntity
8
SK2
62
256
6
ByLayer
370
18
48
1
60
0
100
AcDbTrace
10
16
20
-12.095058
30
0
11
19.499998
21
-11.634274
31
0
12
19.500002
22
-12.555842
32
0
13
19.500002
23
-12.555842
33
0
39
0
210
0
220
0
230
1
0
ENDBLK
5
1A1
100
AcDbEntity
8
0
100
AcDbBlockEnd
0
ENDSEC
0
SECTION
2
ENTITIES
0
ARC
5
B9
100
AcDbEntity
8
1
62
256
6
ByLayer
370
18
48
1
60
0
100
AcDbCircle
39
0
10
32.5
20
0
30
0
40
1.5
210
0
220
0
230
1
100
AcDbArc
50
273
51
294.533316
0
ARC
5
BA
100
AcDbEntity
8
1
62
256
6
ByLayer
370
18
48
1
60
0
100
AcDbCircle
39
0
10
32.5
20
0
30
0
40
1.5
210
0
220
0
230
1
100
AcDbArc
50
354.343124
51
9.043606
0
ARC
5
BB
100
AcDbEntity
8
1
62
256
6
ByLayer
370
18
48
1
60
0
100
AcDbCircle
39
0
10
32.5
20
0
30
0
40
1.5
210
0
220
0
230
1
100
AcDbArc
50
9.043606
51
48.030876
0
ARC
5
BC
100
AcDbEntity
8
SK2
62
256
6
ByLayer
370
13
48
1
60
0
100
AcDbCircle
39
0
10
72.25
20
0
30
0
40
90.1688134547354
210
0
220
0
230
1
100
AcDbArc
50
177.838921
51
184.754764
0
ARC
5
BD
100
AcDbEntity
8
SK2
62
256
6
ByLayer
370
13
48
1
60
0
100
AcDbCircle
39
0
10
72.25
20
0
30
0
40
90.1688134547354
210
0
220
0
230
1
100
AcDbArc
50
168.540682
51
177.838921
0
POINT
5
70
100
AcDbEntity
8
81
62
256
6
ByLayer
370
18
48
1
60
0
100
AcDbPoint
10
34
20
0
30
0
39
0
210
0
220
0
230
1
50
360
0
POINT
5
72
100
AcDbEntity
8
1
62
256
6
ByLayer
370
18
48
1
60
0
100
AcDbPoint
10
-36
20
0
30
0
39
0
210
0
220
0
230
1
50
360
0
POINT
5
74
100
AcDbEntity
8
80
62
256
6
ByLayer
370
18
48
1
60
0
100
AcDbPoint
10
0
20
0
30
0
39
0
210
0
220
0
230
1
50
360
0
POINT
5
76
100
AcDbEntity
8
1
62
256
6
ByLayer
370
18
48
1
60
1
100
AcDbPoint
10
-36
20
3
30
0
39
0
210
0
220
0
230
1
50
360
0
POINT
5
77
100
AcDbEntity
8
1
62
256
6
ByLayer
370
18
48
1
60
1
100
AcDbPoint
10
34
20
1.5
30
0
39
0
210
0
220
0
230
1
50
360
0
POINT
5
78
100
AcDbEntity
8
1
62
256
6
ByLayer
370
18
48
1
60
1
100
AcDbPoint
10
34
20
-1.5
30
0
39
0
210
0
220
0
230
1
50
360
0
POINT
5
79
100
AcDbEntity
8
1
62
256
6
ByLayer
370
18
48
1
60
1
100
AcDbPoint
10
0
20
-3
30
0
39
0
210
0
220
0
230
1
50
360
0
POINT
5
7A
100
AcDbEntity
8
1
62
256
6
ByLayer
370
18
48
1
60
1
100
AcDbPoint
10
34
20
-1.5
30
0
39
0
210
0
220
0
230
1
50
360
0
POINT
5
7B
100
AcDbEntity
8
1
62
256
6
ByLayer
370
18
48
1
60
1
100
AcDbPoint
10
16
20
-3
30
0
39
0
210
0
220
0
230
1
50
360
0
POINT
5
7C
100
AcDbEntity
8
1
62
256
6
ByLayer
370
18
48
1
60
1
100
AcDbPoint
10
33.7
20
-1.42345
30
0
39
0
210
0
220
0
230
1
50
360
0
SPLINE
5
BE
100
AcDbEntity
8
1
62
256
6
ByLayer
370
18
48
1
60
0
100
AcDbSpline
70
4
71
3
72
36
73
32
40
0
40
0
40
0
40
0
40
0.124999999999994
40
0.124999999999994
40
0.249999999999988
40
0.249999999999988
40
0.312499999999985
40
0.312499999999985
40
0.374999999999982
40
0.374999999999982
40
0.437499999999978
40
0.437499999999978
40
0.499999999999975
40
0.499999999999975
40
0.562499999999972
40
0.562499999999972
40
0.624999999999969
40
0.624999999999969
40
0.687499999999966
40
0.687499999999966
40
0.718749999999969
40
0.718749999999969
40
0.749999999999972
40
0.749999999999972
40
0.812499999999979
40
0.812499999999979
40
0.874999999999986
40
0.874999999999986
40
0.937499999999993
40
0.937499999999993
40
1
40
1
40
1
40
1
41
1
10
33.9764580956843
20
0.0039660781395412
30
0
41
1
10
33.9785736184277
20
0.0034375298700127
30
0
41
1
10
33.9805189667182
20
0.0021061599042014
30
0
41
1
10
33.9840771368324
20
-0.002289856190572
30
0
41
1
10
33.9856905246415
20
-0.005347216491316
30
0
41
1
10
33.9878441765441
20
-0.0115756840207268
30
0
41
1
10
33.9885200670384
20
-0.0139441513865108
30
0
41
1
10
33.9897485217282
20
-0.0192354011266218
30
0
41
1
10
33.9903041444877
20
-0.0221621887254742
30
0
41
1
10
33.9912906203555
20
-0.0286767216485941
30
0
41
1
10
33.991724127396
20
-0.0322931485365245
30
0
41
1
10
33.9924356299165
20
-0.0402024226796414
30
0
41
1
10
33.9927134847982
20
-0.044473313043909
30
0
41
1
10
33.9930969206686
20
-0.0537791940337229
30
0
41
1
10
33.9932015528166
20
-0.0588759365625151
30
0
41
1
10
33.993203001885
20
-0.0695653266768943
30
0
41
1
10
33.9931016129178
20
-0.0752325061206136
30
0
41
1
10
33.992676021805
20
-0.0870118429532738
30
0
41
1
10
33.9923597919159
20
-0.0929464435158138
30
0
41
1
10
33.9917304887288
20
-0.10191639205803
30
0
41
1
10
33.9914926371938
20
-0.104938275074261
30
0
41
1
10
33.9909775730482
20
-0.110838574617958
30
0
41
1
10
33.9906997087436
20
-0.113731364078262
30
0
41
1
10
33.9898078173494
20
-0.122249314899506
30
0
41
1
10
33.9891279884529
20
-0.127759457104844
30
0
41
1
10
33.9876822488078
20
-0.137935930691839
30
0
41
1
10
33.9869113773599
20
-0.142663054664411
30
0
41
1
10
33.9852764756292
20
-0.151511134654783
30
0
41
1
10
33.9844204829384
20
-0.155581002267269
30
0
41
1
10
33.982665206439
20
-0.162991995266537
30
0
41
1
10
33.9817606209333
20
-0.166360420812765
30
0
41
1
10
33.9808271192779
20
-0.169437527217923
30
0
0
SPLINE
5
BF
100
AcDbEntity
8
1
62
256
6
ByLayer
370
18
48
1
60
0
100
AcDbSpline
70
4
71
3
72
22
73
18
40
0
40
0
40
0
40
0
40
0.249999999999997
40
0.249999999999997
40
0.374999999999995
40
0.374999999999995
40
0.437499999999994
40
0.437499999999994
40
0.499999999999993
40
0.499999999999993
40
0.750000000000008
40
0.750000000000008
40
0.812500000000006
40
0.812500000000006
40
0.875000000000004
40
0.875000000000004
40
1
40
1
40
1
40
1
41
1
10
33.9808271192779
20
-0.169437527217866
30
0
41
1
10
33.969308299459
20
-0.207407073432705
30
0
41
1
10
33.9525633911708
20
-0.242003601010254
30
0
41
1
10
33.9197158632884
20
-0.288129815689558
30
0
41
1
10
33.9074720218146
20
-0.302533705251733
30
0
41
1
10
33.8871129083461
20
-0.322458864282254
30
0
41
1
10
33.8800160586782
20
-0.328794409340219
30
0
41
1
10
33.8653134823383
20
-0.340735774643576
30
0
41
1
10
33.8576937550064
20
-0.346355782005645
30
0
41
1
10
33.8182889147303
20
-0.372647657802702
30
0
41
1
10
33.7826178416666
20
-0.388002415758422
30
0
41
1
10
33.7331145195637
20
-0.398183165636908
30
0
41
1
10
33.7229658182039
20
-0.399762550286368
30
0
41
1
10
33.7021682887747
20
-0.401932125557039
30
1E-16
41
1
10
33.691485482751
20
-0.402521515412929
30
1E-16
41
1
10
33.6589158796015
20
-0.402675851332418
30
1E-16
41
1
10
33.6366915255558
20
-0.400647118126699
30
1E-16
41
1
10
33.6140219045766
20
-0.396395215712801
30
0
0
SPLINE
5
C0
100
AcDbEntity
8
1
62
256
6
ByLayer
370
18
48
1
60
0
100
AcDbSpline
70
4
71
3
72
36
73
32
40
0
40
0
40
0
40
0
40
0.124999999999994
40
0.124999999999994
40
0.249999999999987
40
0.249999999999987
40
0.312499999999984
40
0.312499999999984
40
0.374999999999981
40
0.374999999999981
40
0.437499999999977
40
0.437499999999977
40
0.499999999999974
40
0.499999999999974
40
0.562499999999971
40
0.562499999999971
40
0.624999999999968
40
0.624999999999968
40
0.687499999999964
40
0.687499999999964
40
0.718749999999968
40
0.718749999999968
40
0.749999999999971
40
0.749999999999971
40
0.812499999999978
40
0.812499999999978
40
0.874999999999986
40
0.874999999999986
40
0.937499999999993
40
0.937499999999993
40
1
40
1
40
1
40
1
41
1
10
33.9764580956843
20
0.25295169052248
30
0
41
1
10
33.9785736184277
20
0.241572524052856
30
0
41
1
10
33.9805189667181
20
0.230087979952259
30
0
41
1
10
33.9840771368323
20
0.206896416567986
30
0
41
1
10
33.9856905246415
20
0.195190212420982
30
0
41
1
10
33.9878441765441
20
0.177427115094531
30
0
41
1
10
33.9885200670384
20
0.171442247735769
30
0
41
1
10
33.9897485217282
20
0.15964699964249
30
0
41
1
10
33.9903041444877
20
0.153815751202359
30
0
41
1
10
33.9912906203555
20
0.142310588041454
30
0
41
1
10
33.991724127396
20
0.136595773064585
30
0
41
1
10
33.9924356299165
20
0.125580691672838
30
0
41
1
10
33.9927134847982
20
0.12029977621853
30
0
41
1
10
33.9930969206686
20
0.110286440646945
30
0
41
1
10
33.9932015528166
20
0.105511776079396
30
0
41
1
10
33.993203001885
20
0.0970664862277317
30
0
41
1
10
33.9931016129178
20
0.0933256504232531
30
0
41
1
10
33.992676021805
20
0.0871740727943404
30
0
41
1
10
33.9923597919159
20
0.0848455408450661
30
0
41
1
10
33.9917304887288
20
0.0824830053257131
30
0
41
1
10
33.9914926371939
20
0.0818841315325756
30
0
41
1
10
33.9909775730482
20
0.081096718424277
30
0
41
1
10
33.9906997087436
20
0.0809016535651494
30
0
41
1
10
33.9898078173494
20
0.0808715192619331
30
0
41
1
10
33.9891279884528
20
0.0816116395254483
30
0
41
1
10
33.9876822488078
20
0.0843015167955343
30
0
41
1
10
33.9869113773599
20
0.0862408318521091
30
0
41
1
10
33.9852764756292
20
0.0911145198171539
30
0
41
1
10
33.9844204829384
20
0.0940293638888932
30
0
41
1
10
33.982665206439
20
0.100528384052041
30
0
41
1
10
33.9817606209333
20
0.104129748801654
30
0
41
1
10
33.9808271192779
20
0.108034194389177
30
0
0
SPLINE
5
C1
100
AcDbEntity
8
1
62
256
6
ByLayer
370
18
48
1
60
0
100
AcDbSpline
70
4
71
3
72
22
73
18
40
0
40
0
40
0
40
0
40
0.250000000000036
40
0.250000000000036
40
0.375000000000054
40
0.375000000000054
40
0.437500000000063
40
0.437500000000063
40
0.500000000000072
40
0.500000000000072
40
0.750000000000049
40
0.750000000000049
40
0.812500000000037
40
0.812500000000037
40
0.875000000000024
40
0.875000000000024
40
1
40
1
40
1
40
1
41
1
10
33.9808271192779
20
0.10803419438929
30
0
41
1
10
33.969308299459
20
0.156212582673191
30
0
41
1
10
33.9525633911707
20
0.205746688007366
30
0
41
1
10
33.9197158632884
20
0.2826861260653
30
0
41
1
10
33.9074720218146
20
0.308778840777961
30
0
41
1
10
33.8871129083461
20
0.348755105643818
30
0
41
1
10
33.8800160586782
20
0.362174935125154
30
0
41
1
10
33.8653134823383
20
0.389042209557118
30
0
41
1
10
33.8576937550064
20
0.402517186611732
30
0
41
1
10
33.8182889147303
20
0.470147053009811
30
0
41
1
10
33.7826178416666
20
0.525027639425559
30
0
41
1
10
33.7331145195638
20
0.595755990239724
30
0
41
1
10
33.7229658182039
20
0.610010041252451
30
0
41
1
10
33.7021682887747
20
0.638772734263142
30
-1E-16
41
1
10
33.691485482751
20
0.65332740789998
30
0
41
1
10
33.6589158796015
20
0.697105979445325
30
0
41
1
10
33.6366915255557
20
0.726204884114338
30
0
41
1
10
33.6140219045766
20
0.755279254326666
30
0
0
SPLINE
5
C2
100
AcDbEntity
8
1
62
256
6
ByLayer
370
18
48
1
60
0
100
AcDbSpline
70
4
71
3
72
28
73
24
40
0
40
0
40
0
40
0
40
0.125000000000011
40
0.125000000000011
40
0.187500000000005
40
0.187500000000005
40
0.249999999999999
40
0.249999999999999
40
0.374999999999987
40
0.374999999999987
40
0.499999999999975
40
0.499999999999975
40
0.562499999999978
40
0.562499999999978
40
0.624999999999981
40
0.624999999999981
40
0.749999999999987
40
0.749999999999987
40
0.81249999999999
40
0.81249999999999
40
0.874999999999994
40
0.874999999999994
40
1
40
1
40
1
40
1
41
1
10
33.4273331875801
20
0.413120612488967
30
-1E-16
41
1
10
33.4596634414295
20
0.382134191936899
30
0
41
1
10
33.4913568707218
20
0.352125807698314
30
1E-16
41
1
10
33.5380859264306
20
0.30889688137259
30
-1E-16
41
1
10
33.553525089869
20
0.294782457747346
30
0
41
1
10
33.5841370280253
20
0.267191093164712
30
0
41
1
10
33.5991855290391
20
0.253827434508679
30
0
41
1
10
33.6432895236722
20
0.21533174490429
30
1E-16
41
1
10
33.6714393701745
20
0.191659931598736
30
0
41
1
10
33.7253147787721
20
0.148366792697033
30
0
41
1
10
33.7510441892467
20
0.128759702685045
30
0
41
1
10
33.7877195424529
20
0.102454609764408
30
0
41
1
10
33.7995236006527
20
0.0942833203838802
30
0
41
1
10
33.8221429780065
20
0.0791813906394339
30
0
41
1
10
33.8329849668956
20
0.072228383833675
30
1E-16
41
1
10
33.8641195463566
20
0.0530547382562077
30
0
41
1
10
33.8830289712316
20
0.042540545633841
30
0
41
1
10
33.9085366626352
20
0.0297213565789036
30
0
41
1
10
33.9165857567946
20
0.0259280881871859
30
0
41
1
10
33.9315577858785
20
0.0193121355760013
30
0
41
1
10
33.9384787296702
20
0.0164872846841888
30
0
41
1
10
33.9575827872357
20
0.0092403359103912
30
0
41
1
10
33.9681121241304
20
0.0060512596088813
30
0
41
1
10
33.9764580956837
20
0.0039660781397117
30
0
0
SPLINE
5
C3
100
AcDbEntity
8
1
62
256
6
ByLayer
370
18
48
1
60
0
100
AcDbSpline
70
4
71
3
72
8
73
4
40
0
40
0
40
0
40
0
40
1
40
1
40
1
40
1
41
1
10
16.0000000000001
20
-1.90639514006247
30
0
41
1
10
16.0000000000001
20
-1.92527457937894
30
1E-16
41
1
10
16.0000000000001
20
-1.94415401869537
30
-1E-16
41
1
10
16.0000000000001
20
-1.96303345801181
30
-1E-16
0
SPLINE
5
C4
100
AcDbEntity
8
1
62
256
6
ByLayer
370
18
48
1
60
0
100
AcDbSpline
70
4
71
3
72
28
73
24
40
0
40
0
40
0
40
0
40
0.249999999999952
40
0.249999999999952
40
0.374999999999872
40
0.374999999999872
40
0.499999999999793
40
0.499999999999793
40
0.624999999999713
40
0.624999999999713
40
0.687499999999725
40
0.687499999999725
40
0.749999999999737
40
0.749999999999737
40
0.812499999999749
40
0.812499999999749
40
0.843749999999783
40
0.843749999999783
40
0.874999999999816
40
0.874999999999816
40
0.937499999999908
40
0.937499999999908
40
1
40
1
40
1
40
1
41
1
10
33.1887103748199
20
1.01782282208498
30
0
41
1
10
33.2135578555316
20
1.02102915680032
30
0
41
1
10
33.2387975065072
20
1.0250946607355
30
0
41
1
10
33.2772540216233
20
1.03369743456264
30
0
41
1
10
33.2901338468236
20
1.03698580616734
30
0
41
1
10
33.3157320269561
20
1.04471728449639
30
0
41
1
10
33.3285312106575
20
1.04917718915431
30
0
41
1
10
33.3536899105556
20
1.05984513750857
30
0
41
1
10
33.365925948982
20
1.0659761764949
30
0
41
1
10
33.3833714365672
20
1.07719538316991
30
0
41
1
10
33.3890330484637
20
1.08127683291306
30
0
41
1
10
33.399911223518
20
1.09041990818417
30
0
41
1
10
33.4050742644056
20
1.09545479853267
30
0
41
1
10
33.4142596190013
20
1.10637998355787
30
0
41
1
10
33.4183638290934
20
1.11240091750503
30
0
41
1
10
33.4231979533142
20
1.12181362173584
30
0
41
1
10
33.4246033017692
20
1.1250258185882
30
0
41
1
10
33.4269821272953
20
1.13160609469347
30
0
41
1
10
33.4279609875587
20
1.13500499187936
30
0
41
1
10
33.430161491795
20
1.14517866010795
30
0
41
1
10
33.430671903654
20
1.15191755416615
30
0
41
1
10
33.4300766623538
20
1.16530793435891
30
0
41
1
10
33.4289866573461
20
1.17171358271022
30
0
41
1
10
33.4273331875887
20
1.17787253471337
30
0
0
SPLINE
5
C5
100
AcDbEntity
8
1
62
256
6
ByLayer
370
18
48
1
60
0
100
AcDbSpline
70
4
71
3
72
8
73
4
40
0
40
0
40
0
40
0
40
1
40
1
40
1
40
1
41
1
10
33.6140219045767
20
0.755279254326695
30
0
41
1
10
33.5750983480807
20
0.773580723154708
30
0
41
1
10
33.5372859160208
20
0.790518009658882
30
0
41
1
10
33.5006026784324
20
0.80595207640701
30
0
0
SPLINE
5
C6
100
AcDbEntity
8
1
62
256
6
ByLayer
370
18
48
1
60
0
100
AcDbSpline
70
4
71
3
72
26
73
22
40
0
40
0
40
0
40
0
40
0.0624999999999969
40
0.0624999999999969
40
0.124999999999994
40
0.124999999999994
40
0.25000000000003
40
0.25000000000003
40
0.375000000000065
40
0.375000000000065
40
0.437500000000059
40
0.437500000000059
40
0.500000000000053
40
0.500000000000053
40
0.625000000000039
40
0.625000000000039
40
0.750000000000026
40
0.750000000000026
40
0.875000000000013
40
0.875000000000013
40
1
40
1
40
1
40
1
41
1
10
33.6140219045775
20
0.755279254326553
30
0
41
1
10
33.6062557473014
20
0.756767104628523
30
0
41
1
10
33.5980239092068
20
0.758962598948074
30
0
41
1
10
33.5806397340136
20
0.76473082452884
30
0
41
1
10
33.5714173588862
20
0.768337349523051
30
0
41
1
10
33.5430260404552
20
0.780878353081903
30
-1E-16
41
1
10
33.5230984665229
20
0.791495679718309
30
0
41
1
10
33.4813899617689
20
0.816315506528127
30
0
41
1
10
33.4602087989292
20
0.830157521432909
30
1E-16
41
1
10
33.4280663371113
20
0.85231813736155
30
0
41
1
10
33.4172803624671
20
0.859947776737187
30
0
41
1
10
33.3955522576721
20
0.875620429414852
30
-1E-16
41
1
10
33.3845761466789
20
0.88368903692745
30
0
41
1
10
33.3516373256805
20
0.908244471613756
30
0
41
1
10
33.3298298948059
20
0.924946333598911
30
1E-16
41
1
10
33.2862936466321
20
0.958673403894039
30
0
41
1
10
33.2645663776649
20
0.975701078496201
30
0
41
1
10
33.2210307907511
20
1.00984591808907
30
0
41
1
10
33.1991595155914
20
1.027013670408
30
0
41
1
10
33.155544805441
20
1.06098681615347
30
0
41
1
10
33.133827064047
20
1.07777311629758
30
0
41
1
10
33.1121276169225
20
1.09430011920108
30
0
0
SPLINE
5
C7
100
AcDbEntity
8
1
62
256
6
ByLayer
370
18
48
1
60
0
100
AcDbSpline
70
4
71
3
72
8
73
4
40
0
40
0
40
0
40
0
40
1
40
1
40
1
40
1
41
1
10
33.1121276169215
20
1.09430011920131
30
0
41
1
10
33.0840439218009
20
1.11568879037691
30
1E-16
41
1
10
33.0560798728962
20
1.1365733225671
30
0
41
1
10
33.028213598435
20
1.1567787387699
30
0
0
SPLINE
5
C8
100
AcDbEntity
8
1
62
256
6
ByLayer
370
18
48
1
60
0
100
AcDbSpline
70
4
71
3
72
34
73
30
40
0
40
0
40
0
40
0
40
0.125000000000016
40
0.125000000000016
40
0.250000000000031
40
0.250000000000031
40
0.375000000000047
40
0.375000000000047
40
0.437500000000058
40
0.437500000000058
40
0.500000000000069
40
0.500000000000069
40
0.625000000000091
40
0.625000000000091
40
0.687500000000076
40
0.687500000000076
40
0.75000000000006
40
0.75000000000006
40
0.812500000000045
40
0.812500000000045
40
0.87500000000003
40
0.87500000000003
40
0.906250000000023
40
0.906250000000023
40
0.937500000000015
40
0.937500000000015
40
0.968750000000008
40
0.968750000000008
40
1
40
1
40
1
40
1
41
1
10
33.1269678816478
20
0.200172740990894
30
0
41
1
10
33.1215910108926
20
0.210400203001853
30
0
41
1
10
33.1171921683879
20
0.220943128474516
30
0
41
1
10
33.1103059996518
20
0.242705707331396
30
0
41
1
10
33.1078107502174
20
0.253983709316571
30
0
41
1
10
33.1048050061625
20
0.277050562378463
30
0
41
1
10
33.1043138411541
20
0.288588429759841
30
0
41
1
10
33.1049511207126
20
0.305914233165481
30
-1E-16
41
1
10
33.1053938726847
20
0.311692650607398
30
0
41
1
10
33.1067374836983
20
0.323257742179777
30
0
41
1
10
33.1076454474129
20
0.329076844036592
30
0
41
1
10
33.1110176657553
20
0.346231963282406
30
0
41
1
10
33.114097138045
20
0.357304253865181
30
1E-16
41
1
10
33.1201290945688
20
0.373287366329663
30
0
41
1
10
33.1223968763188
20
0.378540748897706
30
0
41
1
10
33.1274388384591
20
0.388566917745436
30
0
41
1
10
33.1302098936247
20
0.393353563082911
30
0
41
1
10
33.1364613828068
20
0.402336089531815
30
-1E-16
41
1
10
33.1399416029736
20
0.406522303574747
30
0
41
1
10
33.1477343479042
20
0.413675102678184
30
0
41
1
10
33.1521479507038
20
0.416703164046083
30
0
41
1
10
33.1594078793322
20
0.419632313531508
30
0
41
1
10
33.161980204477
20
0.420354726281801
30
0
41
1
10
33.1672195360819
20
0.421166964949947
30
0
41
1
10
33.1698794159563
20
0.421265050322148
30
0
41
1
10
33.1752859773798
20
0.42087483440892
30
0
41
1
10
33.1780445985679
20
0.420377732293474
30
0
41
1
10
33.1834290342625
20
0.41891063495433
30
0
41
1
10
33.1860838067689
20
0.41794145536511
30
0
41
1
10
33.1887103748199
20
0.416783770397018
30
0
0
SPLINE
5
C9
100
AcDbEntity
8
1
62
256
6
ByLayer
370
18
48
1
60
0
100
AcDbSpline
70
4
71
3
72
28
73
24
40
0
40
0
40
0
40
0
40
0.249999999999993
40
0.249999999999993
40
0.375000000000045
40
0.375000000000045
40
0.500000000000097
40
0.500000000000097
40
0.62500000000015
40
0.62500000000015
40
0.687500000000124
40
0.687500000000124
40
0.750000000000098
40
0.750000000000098
40
0.812500000000073
40
0.812500000000073
40
0.84375000000006
40
0.84375000000006
40
0.875000000000048
40
0.875000000000048
40
0.937500000000024
40
0.937500000000024
40
1
40
1
40
1
40
1
41
1
10
33.1887103748199
20
0.416783770397075
30
0
41
1
10
33.2135578555316
20
0.405832005829439
30
0
41
1
10
33.2387975065072
20
0.395974266064627
30
0
41
1
10
33.2772540216233
20
0.383442108802484
30
0
41
1
10
33.2901338468236
20
0.379660787557725
30
0
41
1
10
33.3157320269561
20
0.373169182649889
30
0
41
1
10
33.3285312106575
20
0.370433713237389
30
0
41
1
10
33.3536899105556
20
0.366469579115289
30
0
41
1
10
33.365925948982
20
0.365243321782486
30
0
41
1
10
33.3833714365672
20
0.365171274706626
30
0
41
1
10
33.3890330484637
20
0.36544562579482
30
0
41
1
10
33.3999112235179
20
0.366831616775073
30
0
41
1
10
33.4050742644056
20
0.36794810151298
30
0
41
1
10
33.4142596190014
20
0.371222585042148
30
0
41
1
10
33.4183638290934
20
0.373431108177925
30
0
41
1
10
33.4231979533141
20
0.377558516146678
30
0
41
1
10
33.4246033017691
20
0.379071458779009
30
0
41
1
10
33.4269821272953
20
0.382387895668074
30
0
41
1
10
33.4279609875588
20
0.384209447696151
30
0
41
1
10
33.4301614917952
20
0.389985808628239
30
0
41
1
10
33.430671903654
20
0.394232937433173
30
0
41
1
10
33.4300766623538
20
0.403432559565232
30
-1E-16
41
1
10
33.4289866573459
20
0.408214686987037
30
-1E-16
41
1
10
33.4273331875886
20
0.413120612485727
30
-1E-16
0
SPLINE
5
CA
100
AcDbEntity
8
1
62
256
6
ByLayer
370
18
48
1
60
0
100
AcDbSpline
70
4
71
3
72
10
73
6
40
0
40
0
40
0
40
0
40
0.5
40
0.5
40
1
40
1
40
1
40
1
41
1
10
33.1158974488451
20
0.724410780748514
30
1E-16
41
1
10
33.1716212182884
20
0.67420457135438
30
0
41
1
10
33.2256213729321
20
0.623423565396791
30
1E-16
41
1
10
33.3297442436338
20
0.520049850046775
30
-1E-16
41
1
10
33.3798823468809
20
0.467477668224177
30
0
41
1
10
33.4273331875801
20
0.413120612488967
30
-1E-16
0
SPLINE
5
CB
100
AcDbEntity
8
1
62
256
6
ByLayer
370
18
48
1
60
0
100
AcDbSpline
70
4
71
3
72
8
73
4
40
0
40
0
40
0
40
0
40
1
40
1
40
1
40
1
41
1
10
16.0000000000001
20
-1.96303345801181
30
-1E-16
41
1
10
16.0000000000001
20
-1.99653450087672
30
0
41
1
10
16.0000000000001
20
-2.03003554374163
30
1E-16
41
1
10
16.0000000000001
20
-2.06353658660652
30
-1E-16
0
SPLINE
5
CC
100
AcDbEntity
8
1
62
256
6
ByLayer
370
18
48
1
60
0
100
AcDbSpline
70
4
71
3
72
26
73
22
40
0
40
0
40
0
40
0
40
0.0624999999999725
40
0.0624999999999725
40
0.124999999999945
40
0.124999999999945
40
0.24999999999989
40
0.24999999999989
40
0.374999999999836
40
0.374999999999836
40
0.437499999999833
40
0.437499999999833
40
0.499999999999829
40
0.499999999999829
40
0.624999999999872
40
0.624999999999872
40
0.749999999999915
40
0.749999999999915
40
0.874999999999957
40
0.874999999999957
40
1
40
1
40
1
40
1
41
1
10
33.6140219045775
20
-0.396395215713056
30
0
41
1
10
33.6062557473014
20
-0.406747113545975
30
0
41
1
10
33.5980239092069
20
-0.41644664699038
30
0
41
1
10
33.5806397340136
20
-0.43456632402885
30
0
41
1
10
33.5714173588862
20
-0.443036939353959
30
0
41
1
10
33.5430260404552
20
-0.466007734719454
30
0
41
1
10
33.523098466523
20
-0.478212448153698
30
0
41
1
10
33.481389961769
20
-0.497386426581755
30
1E-16
41
1
10
33.4602087989293
20
-0.504076998499471
30
1E-16
41
1
10
33.4280663371113
20
-0.510687068606671
30
1E-16
41
1
10
33.4172803624672
20
-0.51231628512727
30
1E-16
41
1
10
33.3955522576723
20
-0.514525901531272
30
1E-16
41
1
10
33.384576146679
20
-0.515105875303107
30
1E-16
41
1
10
33.3516373256806
20
-0.51538122497854
30
1E-16
41
1
10
33.329829894806
20
-0.51363996979984
30
1E-16
41
1
10
33.2862936466323
20
-0.507072701055137
30
1E-16
41
1
10
33.2645663776651
20
-0.502239667280804
30
1E-16
41
1
10
33.2210307907513
20
-0.489930933860052
30
0
41
1
10
33.1991595155915
20
-0.482425514677288
30
0
41
1
10
33.1555448054411
20
-0.465197636021713
30
0
41
1
10
33.133827064047
20
-0.455493455240259
30
0
41
1
10
33.1121276169225
20
-0.444838335323482
30
-1E-16
0
SPLINE
5
CD
100
AcDbEntity
8
1
62
256
6
ByLayer
370
18
48
1
60
0
100
AcDbSpline
70
4
71
3
72
19
73
15
40
0
40
0
40
0
40
0
40
0.249999999999951
40
0.249999999999951
40
0.312499999999957
40
0.312499999999957
40
0.374999999999964
40
0.499999999999977
40
0.499999999999977
40
0.750000000000003
40
0.750000000000003
40
0.875000000000002
40
0.875000000000002
40
1
40
1
40
1
40
1
41
1
10
33.6140219045767
20
-0.396395215712914
30
0
41
1
10
33.5644062765447
20
-0.357368336902482
30
-1E-16
41
1
10
33.5165960535668
20
-0.314968937785863
30
0
41
1
10
33.459136814041
20
-0.257557628370876
30
0
41
1
10
33.4477519207264
20
-0.245845838344451
30
0
41
1
10
33.4254187033963
20
-0.222208414595599
30
0
41
1
10
33.3924940349181
20
-0.18635201276399
30
0
41
1
10
33.3612125545744
20
-0.149352068990623
30
0
41
1
10
33.3006839740743
20
-0.0739298600169889
30
0
41
1
10
33.2630444211069
20
-0.0217521399281679
30
1E-16
41
1
10
33.2099564687192
20
0.0589110513420792
30
0
41
1
10
33.1928095579332
20
0.0862399506006284
30
0
41
1
10
33.1597560333565
20
0.141406419977869
30
0
41
1
10
33.1438360114875
20
0.169265416848958
30
0
41
1
10
33.1284606052081
20
0.197388785279742
30
0
0
SPLINE
5
CE
100
AcDbEntity
8
1
62
256
6
ByLayer
370
18
48
1
60
0
100
AcDbSpline
70
4
71
3
72
8
73
4
40
0
40
0
40
0
40
0
40
1
40
1
40
1
40
1
41
1
10
33.1284606052083
20
0.197388785279429
30
0
41
1
10
33.1279553796096
20
0.198312900414805
30
0
41
1
10
33.1274577434569
20
0.199240928648635
30
0
41
1
10
33.1269678816413
20
0.200172740982168
30
0
0
SPLINE
5
CF
100
AcDbEntity
8
1
62
256
6
ByLayer
370
18
48
1
60
0
100
AcDbSpline
70
4
71
3
72
8
73
4
40
0
40
0
40
0
40
0
40
1
40
1
40
1
40
1
41
1
10
33.1121276169215
20
-0.444838335322743
30
-1E-16
41
1
10
33.0840439218009
20
-0.431049576612139
30
-1E-16
41
1
10
33.0560798728961
20
-0.415710571687356
30
1E-16
41
1
10
33.028213598435
20
-0.399120952110138
30
0
0
SPLINE
5
D0
100
AcDbEntity
8
1
62
256
6
ByLayer
370
18
48
1
60
0
100
AcDbSpline
70
4
71
3
72
10
73
6
40
0
40
0
40
0
40
0
40
0.5
40
0.5
40
1
40
1
40
1
40
1
41
1
10
33.115897448845
20
-0.879493026233376
30
1E-16
41
1
10
33.1716212182884
20
-0.896687987071005
30
1E-16
41
1
10
33.225621372932
20
-0.908397881428016
30
0
41
1
10
33.3297442436337
20
-0.9222252244233
30
1E-16
41
1
10
33.3798823468809
20
-0.924310101182272
30
-1E-16
41
1
10
33.4273331875802
20
-0.922549954739651
30
1E-16
0
SPLINE
5
D1
100
AcDbEntity
8
1
62
256
6
ByLayer
370
18
48
1
60
0
100
AcDbSpline
70
4
71
3
72
8
73
4
40
0
40
0
40
0
40
0
40
1
40
1
40
1
40
1
41
1
10
16
20
2.0717828015014
30
0
41
0.837577099268461
10
16
20
1.79764509901398
30
0
41
0.837577099268461
10
16
20
1.48129927828079
30
0
41
1
10
16
20
1.27689075681516
30
-1E-16
0
SPLINE
5
D2
100
AcDbEntity
8
1
62
256
6
ByLayer
370
18
48
1
60
0
100
AcDbSpline
70
4
71
3
72
12
73
8
40
0
40
0
40
0
40
0
40
0.795029396037927
40
0.795029396037927
40
0.993786745047469
40
0.993786745047469
40
1
40
1
40
1
40
1
41
1
10
33.6140219045767
20
-1.00026497061512
30
0
41
1
10
33.5644062765448
20
-0.999473807473237
30
0
41
1
10
33.516596053567
20
-0.994381727240835
30
0
41
1
10
33.4591368140414
20
-0.982159127937621
30
0
41
1
10
33.4477519207269
20
-0.979420423991314
30
0
41
1
10
33.4362362382443
20
-0.976327751502851
30
0
41
1
10
33.4358873517783
20
-0.97623374432402
30
0
41
1
10
33.4355386523847
20
-0.9761394782482
30
0
0
SPLINE
5
D3
100
AcDbEntity
8
1
62
256
6
ByLayer
370
18
48
1
60
0
100
AcDbSpline
70
4
71
3
72
16
73
12
40
0
40
0
40
0
40
0
40
0.250000000000032
40
0.250000000000032
40
0.500000000000065
40
0.500000000000065
40
0.625000000000059
40
0.625000000000059
40
0.750000000000054
40
0.750000000000054
40
1
40
1
40
1
40
1
41
1
10
32.5785039343644
20
1.14810055066218
30
0
41
1
10
32.6235193128357
20
1.12042772505768
30
0
41
1
10
32.6681335780597
20
1.09042407913182
30
1E-16
41
1
10
32.7571792347681
20
1.02637079109275
30
0
41
1
10
32.8016075397236
20
0.992318939765653
30
-1E-16
41
1
10
32.8685772153227
20
0.938534981393843
30
0
41
1
10
32.8909552226054
20
0.920154774511843
30
1E-16
41
1
10
32.9359081690152
20
0.882533456986437
30
-1E-16
41
1
10
32.9585361777634
20
0.863245168547792
30
0
41
1
10
33.0261168607376
20
0.804797871772962
30
-1E-16
41
1
10
33.0709488649657
20
0.764908762781687
30
0
41
1
10
33.115897448845
20
0.724410780748542
30
1E-16
0
SPLINE
5
D4
100
AcDbEntity
8
1
62
256
6
ByLayer
370
18
48
1
60
0
100
AcDbSpline
70
4
71
3
72
14
73
10
40
0
40
0
40
0
40
0
40
0.25
40
0.25
40
0.5
40
0.5
40
0.75
40
0.75
40
1
40
1
40
1
40
1
41
1
10
33.0282135984332
20
-0.399120952108689
30
0
41
1
10
32.9898301914098
20
-0.376270258216664
30
0
41
1
10
32.9519490515328
20
-0.35146083410973
30
-1E-16
41
1
10
32.8766908972012
20
-0.29869955967618
30
0
41
1
10
32.839316187196
20
-0.270743554330068
30
0
41
1
10
32.764671730474
20
-0.212223300190317
30
1E-16
41
1
10
32.7273924369858
20
-0.181647037201657
30
0
41
1
10
32.6526176991926
20
-0.118332318788504
30
1E-16
41
1
10
32.6155127923125
20
-0.0859263607773926
30
0
41
1
10
32.5785039343642
20
-0.0529864408862295
30
-1E-16
0
SPLINE
5
D5
100
AcDbEntity
8
1
62
256
6
ByLayer
370
18
48
1
60
0
100
AcDbSpline
70
4
71
3
72
8
73
4
40
0
40
0
40
0
40
0
40
1
40
1
40
1
40
1
41
1
10
16
20
2.15723608699065
30
1E-16
41
1
10
16
20
2.12875165849425
30
0
41
1
10
16
20
2.10026722999783
30
0
41
1
10
16
20
2.0717828015014
30
0
0
SPLINE
5
D6
100
AcDbEntity
8
1
62
256
6
ByLayer
370
18
48
1
60
0
100
AcDbSpline
70
4
71
3
72
16
73
12
40
0
40
0
40
0
40
0
40
0.250000000000032
40
0.250000000000032
40
0.500000000000065
40
0.500000000000065
40
0.625000000000059
40
0.625000000000059
40
0.750000000000054
40
0.750000000000054
40
1
40
1
40
1
40
1
41
1
10
32.5785039343644
20
-0.560261438354189
30
0
41
1
10
32.6235193128357
20
-0.596724998532068
30
1E-16
41
1
10
32.6681335780597
20
-0.631188238147075
30
-1E-16
41
1
10
32.7571792347681
20
-0.695599801253223
30
1E-16
41
1
10
32.8016075397236
20
-0.725551724825436
30
-1E-16
41
1
10
32.8685772153227
20
-0.766546876735646
30
0
41
1
10
32.8909552226054
20
-0.779554535000443
30
1E-16
41
1
10
32.9359081690153
20
-0.80413022061029
30
1E-16
41
1
10
32.9585361777634
20
-0.815720123156183
30
-1E-16
41
1
10
33.0261168607376
20
-0.847763304741989
30
0
41
1
10
33.0709488649658
20
-0.865622982387947
30
0
41
1
10
33.115897448845
20
-0.879493026233405
30
1E-16
0
SPLINE
5
D7
100
AcDbEntity
8
1
62
256
6
ByLayer
370
18
48
1
60
0
100
AcDbSpline
70
4
71
3
72
8
73
4
40
0
40
0
40
0
40
0
40
1
40
1
40
1
40
1
41
1
10
16.0000000000001
20
0.537287722961906
30
1E-16
41
1
10
16.0000000000001
20
0.528566241762121
30
1E-16
41
1
10
16.0000000000001
20
0.519844760562364
30
1E-16
41
1
10
16.0000000000001
20
0.511123279362607
30
1E-16
0
SPLINE
5
D8
100
AcDbEntity
8
1
62
256
6
ByLayer
370
18
48
1
60
0
100
AcDbSpline
70
4
71
3
72
8
73
4
40
0
40
0
40
0
40
0
40
1
40
1
40
1
40
1
41
1
10
16.0000000000001
20
0.511123279362607
30
1E-16
41
1
10
16.0000000000001
20
0.495647252208329
30
2E-16
41
1
10
16.0000000000001
20
0.48017122505405
30
2E-16
41
1
10
16.0000000000001
20
0.464695197899772
30
-2E-16
0
SPLINE
5
D9
100
AcDbEntity
8
1
62
256
6
ByLayer
370
18
48
1
60
0
100
AcDbSpline
70
4
71
3
72
14
73
10
40
0
40
0
40
0
40
0
40
0.25
40
0.25
40
0.5
40
0.5
40
0.75
40
0.75
40
1
40
1
40
1
40
1
41
1
10
33.0282135984332
20
-1.40344905279667
30
0
41
1
10
32.9898301914099
20
-1.41715772685956
30
0
41
1
10
32.9519490515328
20
-1.4280162967506
30
0
41
1
10
32.8766908972012
20
-1.44444022023711
30
0
41
1
10
32.839316187196
20
-1.45000248814392
30
0
41
1
10
32.764671730474
20
-1.45598468203704
30
0
41
1
10
32.7273924369858
20
-1.45640284156207
30
0
41
1
10
32.6526176991926
20
-1.45206645012132
30
0
41
1
10
32.6155127923126
20
-1.44733622344685
30
0
41
1
10
32.5785039343642
20
-1.44011184953064
30
0
0
SPLINE
5
DA
100
AcDbEntity
8
1
62
256
6
ByLayer
370
18
48
1
60
0
100
AcDbSpline
70
4
71
3
72
8
73
4
40
0
40
0
40
0
40
0
40
1
40
1
40
1
40
1
41
1
10
16
20
1.27689075681516
30
-1E-16
41
0.996071697395043
10
16
20
0.990089634934149
30
-1E-16
41
0.996071697395043
10
16
20
0.742583009394584
30
0
41
1
10
16.0000000000001
20
0.537287722961906
30
1E-16
0
SPLINE
5
DB
100
AcDbEntity
8
1
62
256
6
ByLayer
370
18
48
1
60
0
100
AcDbSpline
70
4
71
3
72
8
73
4
40
0
40
0
40
0
40
0
40
1
40
1
40
1
40
1
41
1
10
16
20
-0.609394497386319
30
1E-16
41
0.996071697395043
10
16
20
-1.02795269851949
30
0
41
0.996071697395043
10
16
20
-1.46199128097232
30
1E-16
41
1
10
16.0000000000001
20
-1.90639514006247
30
0
0
SPLINE
5
DC
100
AcDbEntity
8
1
62
256
6
ByLayer
370
18
48
1
60
0
100
AcDbSpline
70
4
71
3
72
46
73
42
40
0
40
0
40
0
40
0
40
0.0624999999999929
40
0.0624999999999929
40
0.124999999999986
40
0.124999999999986
40
0.15624999999998
40
0.15624999999998
40
0.187499999999974
40
0.218749999999969
40
0.218749999999969
40
0.234374999999962
40
0.234374999999962
40
0.249999999999955
40
0.249999999999955
40
0.312499999999946
40
0.312499999999946
40
0.328124999999941
40
0.328124999999941
40
0.343749999999935
40
0.343749999999935
40
0.374999999999938
40
0.406249999999941
40
0.406249999999941
40
0.437499999999944
40
0.437499999999944
40
0.499999999999951
40
0.499999999999951
40
0.531249999999954
40
0.531249999999954
40
0.562499999999957
40
0.562499999999957
40
0.624999999999963
40
0.624999999999963
40
0.687499999999969
40
0.687499999999969
40
0.749999999999975
40
0.749999999999975
40
0.874999999999988
40
0.874999999999988
40
1
40
1
40
1
40
1
41
1
10
14.1471230964555
20
-2.28876681884068
30
0
41
1
10
14.1471230951215
20
-2.27805435056951
30
0
41
1
10
14.1487915053286
20
-2.26690054549187
30
0
41
1
10
14.1558476888379
20
-2.2437752579325
30
-1E-16
41
1
10
14.1612260162374
20
-2.23180320172224
30
-1E-16
41
1
10
14.1727051403879
20
-2.21329119942686
30
1E-16
41
1
10
14.1771092894186
20
-2.2070221263572
30
1E-16
41
1
10
14.1872289303423
20
-2.19433871566571
30
0
41
1
10
14.1985163784364
20
-2.18169009734476
30
0
41
1
10
14.2123535244524
20
-2.16921093864133
30
0
41
1
10
14.2238045330429
20
-2.15996178641993
30
0
41
1
10
14.227800707115
20
-2.15689718959805
30
-1E-16
41
1
10
14.2361762937907
20
-2.15081410217041
30
-1E-16
41
1
10
14.2405733020869
20
-2.14778445741388
30
-1E-16
41
1
10
14.2633405478075
20
-2.13293731879261
30
-1E-16
41
1
10
14.2839726483854
20
-2.12204443671078
30
1E-16
41
1
10
14.3130126895913
20
-2.10999528197161
30
1E-16
41
1
10
14.3189839381815
20
-2.10766402230519
30
1E-16
41
1
10
14.3312614146064
20
-2.10316786637947
30
0
41
1
10
14.3375904316039
20
-2.10099647504981
30
0
41
1
10
14.3567881285828
20
-2.0948391235398
30
0
41
1
10
14.38308359397
20
-2.0875228649833
30
0
41
1
10
14.4106579923314
20
-2.08189443259556
30
0
41
1
10
14.438819998708
20
-2.07705894126096
30
0
41
1
10
14.4531508468654
20
-2.07505020081621
30
0
41
1
10
14.4959689207152
20
-2.07020518806991
30
0
41
1
10
14.5246142133225
20
-2.06847808051714
30
0
41
1
10
14.5676935829402
20
-2.06756437530041
30
0
41
1
10
14.5820905301588
20
-2.06754225727511
30
0
41
1
10
14.6108391036881
20
-2.06798989972322
30
0
41
1
10
14.6250883371324
20
-2.06845727946245
30
0
41
1
10
14.6675178690717
20
-2.0704696097886
30
0
41
1
10
14.6953827955464
20
-2.0726193329165
30
0
41
1
10
14.7504791931059
20
-2.07807020338314
30
0
41
1
10
14.7777090255098
20
-2.08137435899104
30
0
41
1
10
14.8316628638576
20
-2.08882809214731
30
0
41
1
10
14.8584162445359
20
-2.09298525789026
30
0
41
1
10
14.9378484861856
20
-2.10634194259572
30
0
41
1
10
14.9894248809881
20
-2.11634944708715
30
1E-16
41
1
10
15.0907880946165
20
-2.13723761837204
30
-1E-16
41
1
10
15.1405730556576
20
-2.14812111569188
30
-1E-16
41
1
10
15.1897904938743
20
-2.15899948539843
30
0
0
SPLINE
5
DD
100
AcDbEntity
8
1
62
256
6
ByLayer
370
18
48
1
60
0
100
AcDbSpline
70
4
71
3
72
20
73
16
40
0
40
0
40
0
40
0
40
0.124999999999998
40
0.124999999999998
40
0.249999999999996
40
0.249999999999996
40
0.374999999999995
40
0.374999999999995
40
0.499999999999993
40
0.499999999999993
40
0.624999999999991
40
0.624999999999991
40
0.749999999999989
40
0.749999999999989
40
1
40
1
40
1
40
1
41
1
10
16.0000000000001
20
-2.06353658660652
30
-1E-16
41
1
10
15.9655620522378
20
-2.04877752653775
30
-1E-16
41
1
10
15.9311723786278
20
-2.03340188022432
30
1E-16
41
1
10
15.8618823831614
20
-2.00185467534112
30
0
41
1
10
15.8269777526427
20
-1.98568701498482
30
0
41
1
10
15.7561701939602
20
-1.95299621138895
30
-1E-16
41
1
10
15.7202489723816
20
-1.93648822337414
30
1E-16
41
1
10
15.6472107720042
20
-1.90339888326196
30
0
41
1
10
15.6100501256933
20
-1.88685137254896
30
0
41
1
10
15.5344786984472
20
-1.85386669402075
30
-1E-16
41
1
10
15.4961452973669
20
-1.83737789011676
30
1E-16
41
1
10
15.4199803362072
20
-1.80315756856098
30
0
41
1
10
15.3821079319213
20
-1.78545348784698
30
0
41
1
10
15.2699419855812
20
-1.72975137511756
30
1E-16
41
1
10
15.1970071158989
20
-1.68923282869363
30
0
41
1
10
15.1257962957598
20
-1.6449660575976
30
1E-16
0
SPLINE
5
DE
100
AcDbEntity
8
1
62
256
6
ByLayer
370
18
48
1
60
0
100
AcDbSpline
70
4
71
3
72
34
73
30
40
0
40
0
40
0
40
0
40
0.124999999999992
40
0.124999999999992
40
0.249999999999984
40
0.249999999999984
40
0.374999999999975
40
0.374999999999975
40
0.406249999999975
40
0.406249999999975
40
0.437499999999974
40
0.437499999999974
40
0.499999999999977
40
0.499999999999977
40
0.624999999999988
40
0.624999999999988
40
0.656249999999989
40
0.656249999999989
40
0.687499999999991
40
0.687499999999991
40
0.749999999999993
40
0.749999999999993
40
0.874999999999997
40
0.874999999999997
40
0.937499999999998
40
0.937499999999998
40
0.968749999999999
40
0.968749999999999
40
1
40
1
40
1
40
1
41
1
10
15.1257962957598
20
-1.6449660575976
30
1E-16
41
1
10
15.0543897355976
20
-1.60057760866138
30
0
41
1
10
14.9858275361916
20
-1.55276278613954
30
1E-16
41
1
10
14.8544684330497
20
-1.44959421895504
30
1E-16
41
1
10
14.7916250942868
20
-1.39427912613002
30
-1E-16
41
1
10
14.6722490640095
20
-1.27493463161184
30
-1E-16
41
1
10
14.6158146812025
20
-1.21083593732288
30
2E-16
41
1
10
14.5497509113249
20
-1.12416720391991
30
0
41
1
10
14.5367639493541
20
-1.10650376076654
30
-1E-16
41
1
10
14.5112588196711
20
-1.07048201976977
30
-2E-16
41
1
10
14.4987547954121
20
-1.05214005990911
30
-2E-16
41
1
10
14.4622841801397
20
-0.996528972058002
30
1E-16
41
1
10
14.4392499078121
20
-0.958523350184947
30
0
41
1
10
14.3739898052815
20
-0.84162713990051
30
2E-16
41
1
10
14.3356092252115
20
-0.759860327973797
30
0
41
1
10
14.2938449956008
20
-0.652607995863804
30
2E-16
41
1
10
14.2858029288493
20
-0.63090489888026
30
1E-16
41
1
10
14.2703394209254
20
-0.586983812881954
30
0
41
1
10
14.2629067779793
20
-0.564730102503717
30
0
41
1
10
14.2416201868956
20
-0.497421434793068
30
-2E-16
41
1
10
14.2288702411192
20
-0.452139763416227
30
2E-16
41
1
10
14.1947326836386
20
-0.315098735878422
30
-1E-16
41
1
10
14.1773992804164
20
-0.222155796738235
30
1E-16
41
1
10
14.159542506889
20
-0.0803126307987441
30
2E-16
41
1
10
14.1549621739426
20
-0.0326236909515103
30
1E-16
41
1
10
14.1502987859682
20
0.0395605525598626
30
-1E-16
41
1
10
14.1491133431275
20
0.0637590884739438
30
-1E-16
41
1
10
14.1475269228015
20
0.1120838707063
30
2E-16
41
1
10
14.1471230975714
20
0.136240283655638
30
1E-16
41
1
10
14.1471230964555
20
0.160390997567333
30
1E-16
0
SPLINE
5
DF
100
AcDbEntity
8
1
62
256
6
ByLayer
370
18
48
1
60
0
100
AcDbSpline
70
4
71
3
72
14
73
10
40
0
40
0
40
0
40
0
40
0.25
40
0.25
40
0.5
40
0.5
40
0.75
40
0.75
40
1
40
1
40
1
40
1
41
1
10
15.1897904938743
20
0.349706218019349
30
1E-16
41
1
10
15.262563377885
20
0.305672930209028
30
2E-16
41
1
10
15.3344331528429
20
0.260489025591738
30
-2E-16
41
1
10
15.4757781245215
20
0.16705405693773
30
1E-16
41
1
10
15.5452306536589
20
0.118771976018053
30
2E-16
41
1
10
15.6802852595955
20
0.017231469252323
30
0
41
1
10
15.7459206300385
20
-0.03598089874626
30
1E-16
41
1
10
15.8743137479661
20
-0.146036010822598
30
-1E-16
41
1
10
15.9371212449529
20
-0.202810853244557
30
0
41
1
10
16
20
-0.25938248558424
30
2E-16
0
SPLINE
5
E0
100
AcDbEntity
8
1
62
256
6
ByLayer
370
18
48
1
60
0
100
AcDbSpline
70
4
71
3
72
20
73
16
40
0
40
0
40
0
40
0
40
0.125
40
0.125
40
0.25
40
0.25
40
0.375
40
0.375
40
0.5
40
0.5
40
0.625
40
0.625
40
0.75
40
0.75
40
1
40
1
40
1
40
1
41
1
10
16.0000000000001
20
0.464695197899772
30
-2E-16
41
1
10
15.9655620522378
20
0.497750509798209
30
2E-16
41
1
10
15.9311723786278
20
0.530657420143882
30
1E-16
41
1
10
15.8618823831614
20
0.595493287379327
30
-1E-16
41
1
10
15.8269777526427
20
0.627417687747368
30
-1E-16
41
1
10
15.7561701939602
20
0.689772566549379
30
2E-16
41
1
10
15.7202489723816
20
0.720183213384104
30
1E-16
41
1
10
15.6472107720042
20
0.779337788305924
30
0
41
1
10
15.6100501256933
20
0.808033564208358
30
-1E-16
41
1
10
15.5344786984472
20
0.863747719839864
30
2E-16
41
1
10
15.4961452973669
20
0.890854326938751
30
1E-16
41
1
10
15.4199803362072
20
0.945323680925497
30
0
41
1
10
15.3821079319213
20
0.972639920978793
30
-1E-16
41
1
10
15.2699419855812
20
1.0556788701175
30
2E-16
41
1
10
15.1970071158989
20
1.11238886824302
30
1E-16
41
1
10
15.1257962957598
20
1.17016022177364
30
-1E-16
0
SPLINE
5
E1
100
AcDbEntity
8
1
62
256
6
ByLayer
370
18
48
1
60
0
100
AcDbSpline
70
4
71
3
72
34
73
30
40
0
40
0
40
0
40
0
40
0.124999999999994
40
0.124999999999994
40
0.249999999999989
40
0.249999999999989
40
0.374999999999983
40
0.374999999999983
40
0.406249999999984
40
0.406249999999984
40
0.437499999999985
40
0.437499999999985
40
0.499999999999987
40
0.499999999999987
40
0.624999999999995
40
0.624999999999995
40
0.656249999999996
40
0.656249999999996
40
0.687499999999997
40
0.687499999999997
40
0.749999999999998
40
0.749999999999998
40
0.874999999999999
40
0.874999999999999
40
0.9375
40
0.9375
40
0.96875
40
0.96875
40
1
40
1
40
1
40
1
41
1
10
15.1257962957598
20
1.17016022177364
30
-1E-16
41
1
10
15.0543897355976
20
1.22809037372906
30
-2E-16
41
1
10
14.9858275361916
20
1.2866039434816
30
1E-16
41
1
10
14.8544684330497
20
1.40424937220126
30
0
41
1
10
14.7916250942868
20
1.46335528571601
30
-1E-16
41
1
10
14.6722490640096
20
1.58180472302058
30
1E-16
41
1
10
14.6158146812024
20
1.64121508813912
30
-1E-16
41
1
10
14.5497509113248
20
1.71530461841669
30
0
41
1
10
14.5367639493541
20
1.73011401808688
30
-1E-16
41
1
10
14.5112588196711
20
1.75970534085181
30
1E-16
41
1
10
14.4987547954121
20
1.774472167959
30
1E-16
41
1
10
14.4622841801397
20
1.81832050611786
30
0
41
1
10
14.4392499078121
20
1.8470760152405
30
-1E-16
41
1
10
14.3739898052816
20
1.93173273154528
30
-1E-16
41
1
10
14.3356092252115
20
1.98603403234213
30
0
41
1
10
14.2938449956008
20
2.05045767608655
30
1E-16
41
1
10
14.2858029288493
20
2.06316904423295
30
1E-16
41
1
10
14.2703394209254
20
2.08822288812868
30
0
41
1
10
14.2629067779793
20
2.1005845853721
30
0
41
1
10
14.2416201868955
20
2.13695058058136
30
1E-16
41
1
10
14.2288702411193
20
2.16006773144406
30
0
41
1
10
14.1947326836386
20
2.22597391128431
30
-1E-16
41
1
10
14.1773992804164
20
2.26533007757368
30
0
41
1
10
14.159542506889
20
2.3170512802019
30
0
41
1
10
14.1549621739426
20
2.33307014961088
30
0
41
1
10
14.1502987859682
20
2.35517684463488
30
0
41
1
10
14.1491133431274
20
2.36223212241225
30
0
41
1
10
14.1475269228014
20
2.37560331482683
30
0
41
1
10
14.1471230975714
20
2.38192928772415
30
0
41
1
10
14.1471230964555
20
2.3878939068268
30
0
0
SPLINE
5
E2
100
AcDbEntity
8
1
62
256
6
ByLayer
370
18
48
1
60
0
100
AcDbSpline
70
4
71
3
72
46
73
42
40
0
40
0
40
0
40
0
40
0.0624999999999584
40
0.0624999999999584
40
0.124999999999917
40
0.124999999999917
40
0.156249999999896
40
0.156249999999896
40
0.187499999999875
40
0.218749999999854
40
0.218749999999854
40
0.234374999999844
40
0.234374999999844
40
0.249999999999833
40
0.249999999999833
40
0.312499999999811
40
0.312499999999811
40
0.328124999999811
40
0.328124999999811
40
0.343749999999811
40
0.343749999999811
40
0.374999999999825
40
0.406249999999839
40
0.406249999999839
40
0.437499999999853
40
0.437499999999853
40
0.499999999999881
40
0.499999999999881
40
0.531249999999895
40
0.531249999999895
40
0.562499999999909
40
0.562499999999909
40
0.624999999999922
40
0.624999999999922
40
0.687499999999935
40
0.687499999999935
40
0.749999999999948
40
0.749999999999948
40
0.874999999999974
40
0.874999999999974
40
1
40
1
40
1
40
1
41
1
10
14.1471230964555
20
2.3878939068268
30
0
41
1
10
14.1471230951215
20
2.39502406502541
30
1E-16
41
1
10
14.1487915053286
20
2.40150010902408
30
0
41
1
10
14.1558476888379
20
2.41317329793
30
0
41
1
10
14.1612260162374
20
2.41837083122405
30
0
41
1
10
14.172705140388
20
2.42520563323319
30
0
41
1
10
14.1771092894186
20
2.4273252913749
30
0
41
1
10
14.1872289303423
20
2.4312303593324
30
0
41
1
10
14.1985163784364
20
2.43474637042766
30
0
41
1
10
14.2123535244524
20
2.43751969271185
30
0
41
1
10
14.223804533043
20
2.4393314965819
30
0
41
1
10
14.227800707115
20
2.43989071471694
30
0
41
1
10
14.2361762937907
20
2.44092107897117
30
0
41
1
10
14.2405733020869
20
2.44139373640792
30
0
41
1
10
14.2633405478075
20
2.44351744270986
30
0
41
1
10
14.2839726483854
20
2.44445785558594
30
0
41
1
10
14.3130126895913
20
2.44490573134092
30
0
41
1
10
14.3189839381816
20
2.44495859584868
30
0
41
1
10
14.3312614146065
20
2.44499514070847
30
0
41
1
10
14.3375904316039
20
2.44497847049635
30
0
41
1
10
14.3567881285828
20
2.44483371347823
30
0
41
1
10
14.38308359397
20
2.44439165070361
30
0
41
1
10
14.4106579923314
20
2.4435606550386
30
0
41
1
10
14.438819998708
20
2.44257354728563
30
0
41
1
10
14.4531508468654
20
2.44200272018887
30
0
41
1
10
14.4959689207152
20
2.44014280360722
30
0
41
1
10
14.5246142133225
20
2.43869932398999
30
0
41
1
10
14.5676935829402
20
2.4363211122901
30
0
41
1
10
14.5820905301588
20
2.4354905432242
30
0
41
1
10
14.6108391036881
20
2.43376534939034
30
0
41
1
10
14.6250883371324
20
2.43287690571637
30
0
41
1
10
14.6675178690718
20
2.43013605244786
30
0
41
1
10
14.6953827955464
20
2.42820872713747
30
0
41
1
10
14.7504791931059
20
2.42413843965952
30
0
41
1
10
14.7777090255098
20
2.42199495018337
30
0
41
1
10
14.8316628638576
20
2.41745961634189
30
0
41
1
10
14.8584162445358
20
2.41506442518897
30
0
41
1
10
14.9378484861856
20
2.40747219697761
30
0
41
1
10
14.9894248809881
20
2.40189633323934
30
0
41
1
10
15.0907880946164
20
2.38948824582874
30
0
41
1
10
15.1405730556577
20
2.38265674413538
30
0
41
1
10
15.1897904938743
20
2.37512981421159
30
0
0
SPLINE
5
E3
100
AcDbEntity
8
1
62
256
6
ByLayer
370
18
48
1
60
0
100
AcDbSpline
70
4
71
3
72
14
73
10
40
0
40
0
40
0
40
0
40
0.25
40
0.25
40
0.5
40
0.5
40
0.75
40
0.75
40
1
40
1
40
1
40
1
41
1
10
15.1897904938743
20
2.37512981421159
30
0
41
1
10
15.262563377885
20
2.36400049870576
30
0
41
1
10
15.3344331528429
20
2.35157438937415
30
0
41
1
10
15.4757781245215
20
2.32358166164735
30
0
41
1
10
15.545230653659
20
2.30802150776446
30
0
41
1
10
15.6802852595955
20
2.27266170424195
30
0
41
1
10
15.7459206300385
20
2.25284341438595
30
1E-16
41
1
10
15.8743137479661
20
2.20841950834054
30
0
41
1
10
15.9371212449529
20
2.18380285171909
30
0
41
1
10
16
20
2.15723608699065
30
1E-16
0
SPLINE
5
E4
100
AcDbEntity
8
1
62
256
6
ByLayer
370
18
48
1
60
0
100
AcDbSpline
70
4
71
3
72
8
73
4
40
0
40
0
40
0
40
0
40
1
40
1
40
1
40
1
41
0.9387224803032
10
16
20
-0.22021051579647
30
1E-16
41
0.841111722807131
10
16
20
-0.211373055529189
30
0
41
0.861537562706064
10
16
20
-0.362159872071216
30
1E-16
41
1
10
16
20
-0.609394497386319
30
1E-16
0
SPLINE
5
E5
100
AcDbEntity
8
1
62
256
6
ByLayer
370
18
48
1
60
0
100
AcDbSpline
70
4
71
3
72
9
73
5
40
0
40
0
40
0
40
0
40
0.806710167860322
40
1
40
1
40
1
40
1
41
1
10
15.1897904938743
20
0.349706218019349
30
1E-16
41
1
10
15.2428072280185
20
0.317278189572562
30
1E-16
41
1
10
15.3085269166093
20
0.276939876791602
30
-1E-16
41
1
10
15.3742467361464
20
0.235407731227184
30
-1E-16
41
1
10
15.3869497018239
20
0.227322858328335
30
-1E-16
0
SPLINE
5
E6
100
AcDbEntity
8
1
62
256
6
ByLayer
370
18
48
1
60
0
100
AcDbSpline
70
4
71
3
72
46
73
42
40
0
40
0
40
0
40
0
40
0.0624999999999918
40
0.0624999999999918
40
0.124999999999984
40
0.124999999999984
40
0.156249999999979
40
0.156249999999979
40
0.187499999999975
40
0.218749999999971
40
0.218749999999971
40
0.234374999999965
40
0.234374999999965
40
0.249999999999959
40
0.249999999999959
40
0.312499999999906
40
0.312499999999906
40
0.328124999999902
40
0.328124999999902
40
0.343749999999898
40
0.343749999999898
40
0.374999999999903
40
0.406249999999907
40
0.406249999999907
40
0.437499999999912
40
0.437499999999912
40
0.499999999999922
40
0.499999999999922
40
0.531249999999927
40
0.531249999999927
40
0.562499999999932
40
0.562499999999932
40
0.624999999999941
40
0.624999999999941
40
0.687499999999951
40
0.687499999999951
40
0.749999999999961
40
0.749999999999961
40
0.87499999999998
40
0.87499999999998
40
1
40
1
40
1
40
1
41
1
10
14.1471230964555
20
0.160390997567333
30
1E-16
41
1
10
14.1471230951215
20
0.189260973643996
30
0
41
1
10
14.1487915053286
20
0.217786668666065
30
-1E-16
41
1
10
14.1558476888379
20
0.274091786343575
30
-2E-16
41
1
10
14.1612260162374
20
0.30187276573443
30
2E-16
41
1
10
14.1727051403879
20
0.342884756605315
30
1E-16
41
1
10
14.1771092894186
20
0.356458008827843
30
1E-16
41
1
10
14.1872289303423
20
0.383298731103508
30
0
41
1
10
14.1985163784364
20
0.409453650914543
30
-1E-16
41
1
10
14.2123535244525
20
0.434132683565252
30
-1E-16
41
1
10
14.223804533043
20
0.452029686469302
30
-2E-16
41
1
10
14.227800707115
20
0.457893142238504
30
-2E-16
41
1
10
14.2361762937907
20
0.469402948837143
30
-2E-16
41
1
10
14.2405733020869
20
0.475069792824712
30
2E-16
41
1
10
14.2633405478075
20
0.502529196728261
30
2E-16
41
1
10
14.2839726483853
20
0.521675870169048
30
1E-16
41
1
10
14.3130126895913
20
0.54189649026705
30
1E-16
41
1
10
14.3189839381816
20
0.545754084214281
30
1E-16
41
1
10
14.3312614146065
20
0.553088148146088
30
0
41
1
10
14.3375904316039
20
0.556574560150494
30
0
41
1
10
14.3567881285828
20
0.566303142398965
30
0
41
1
10
14.38308359397
20
0.577425824819358
30
0
41
1
10
14.4106579923314
20
0.585188240495569
30
0
41
1
10
14.438819998708
20
0.59141505593243
30
-1E-16
41
1
10
14.4531508468654
20
0.593741648602332
30
-1E-16
41
1
10
14.4959689207152
20
0.598571635656469
30
-1E-16
41
1
10
14.5246142133225
20
0.599030555296309
30
-1E-16
41
1
10
14.5676935829403
20
0.596660934029842
30
-1E-16
41
1
10
14.5820905301588
20
0.595352832767901
30
-1E-16
41
1
10
14.6108391036881
20
0.591837109811706
30
-1E-16
41
1
10
14.6250883371324
20
0.58964334144639
30
0
41
1
10
14.6675178690718
20
0.581952528835444
30
0
41
1
10
14.6953827955464
20
0.575355725888528
30
0
41
1
10
14.7504791931059
20
0.55995016872194
30
0
41
1
10
14.7777090255098
20
0.551135693817287
30
0
41
1
10
14.8316628638576
20
0.53173697592149
30
1E-16
41
1
10
14.8584162445358
20
0.521135039757581
30
1E-16
41
1
10
14.9378484861857
20
0.487238986630786
30
2E-16
41
1
10
14.9894248809881
20
0.462024567175916
30
-2E-16
41
1
10
15.0907880946165
20
0.408150088908457
30
-1E-16
41
1
10
15.1405730556577
20
0.379486618394367
30
0
41
1
10
15.1897904938743
20
0.349706218019349
30
1E-16
0
SPLINE
5
E7
100
AcDbEntity
8
1
62
256
6
ByLayer
370
18
48
1
60
0
100
AcDbSpline
70
4
71
3
72
28
73
24
40
0
40
0
40
0
40
0
40
0.12500000000003
40
0.12500000000003
40
0.187500000000033
40
0.187500000000033
40
0.250000000000037
40
0.250000000000037
40
0.375000000000043
40
0.375000000000043
40
0.500000000000049
40
0.500000000000049
40
0.562500000000043
40
0.562500000000043
40
0.625000000000037
40
0.625000000000037
40
0.750000000000024
40
0.750000000000024
40
0.812500000000018
40
0.812500000000018
40
0.875000000000012
40
0.875000000000012
40
1
40
1
40
1
40
1
41
1
10
33.4273331875801
20
-0.922549954739651
30
1E-16
41
1
10
33.4596634414295
20
-0.917328962551494
30
0
41
1
10
33.4913568707219
20
-0.909076123977684
30
0
41
1
10
33.5380859264306
20
-0.891779853363346
30
0
41
1
10
33.553525089869
20
-0.885195454945091
30
0
41
1
10
33.5841370280253
20
-0.870310364926581
30
0
41
1
10
33.5991855290391
20
-0.862065626856435
30
0
41
1
10
33.6432895236722
20
-0.835101766113581
30
0
41
1
10
33.6714393701745
20
-0.814107116218054
30
0
41
1
10
33.7253147787721
20
-0.766082239485712
30
0
41
1
10
33.7510441892467
20
-0.739041114596318
30
0
41
1
10
33.7877195424528
20
-0.693801830414372
30
0
41
1
10
33.7995236006527
20
-0.678055185075692
30
0
41
1
10
33.8221429780065
20
-0.645494208032432
30
0
41
1
10
33.8329849668955
20
-0.628648479941717
30
0
41
1
10
33.8641195463566
20
-0.576484469578389
30
0
41
1
10
33.8830289712316
20
-0.539530812890604
30
0
41
1
10
33.9085366626352
20
-0.481057791166449
30
0
41
1
10
33.9165857567947
20
-0.460990193025396
30
0
41
1
10
33.9315577858786
20
-0.420252231410899
30
0
41
1
10
33.9384787296703
20
-0.39960344993932
30
0
41
1
10
33.9575827872357
20
-0.336905576011219
30
0
41
1
10
33.9681121241304
20
-0.294103878574617
30
0
41
1
10
33.9764580956837
20
-0.2505005194337
30
0
0
SPLINE
5
E8
100
AcDbEntity
8
1
62
256
6
ByLayer
370
18
48
1
60
0
100
AcDbSpline
70
4
71
3
72
18
73
14
40
0
40
0
40
0
40
0
40
0.257831509250602
40
0.257831509250602
40
0.515663018501204
40
0.515663018501204
40
0.644578773126505
40
0.644578773126505
40
0.773494527751806
40
0.773494527751806
40
0.902410282377107
40
0.902410282377107
40
1
40
1
40
1
40
1
41
1
10
33.9764580956844
20
-0.250500519430204
30
0
41
1
10
33.9785736184277
20
-0.239448013755805
30
0
41
1
10
33.9805189667181
20
-0.228786301545682
30
0
41
1
10
33.9840771368324
20
-0.208311625523066
30
0
41
1
10
33.9856905246415
20
-0.198494973957793
30
0
41
1
10
33.9878441765441
20
-0.184581281262325
30
0
41
1
10
33.9885200670384
20
-0.180060207236892
30
0
41
1
10
33.9897485217282
20
-0.171535131325953
30
0
41
1
10
33.9903041444877
20
-0.16751273709977
30
0
41
1
10
33.9912906203555
20
-0.1600337767062
30
0
41
1
10
33.991724127396
20
-0.156554036463888
30
0
41
1
10
33.9923491837163
20
-0.151171559701538
30
0
41
1
10
33.9925738498849
20
-0.149094398770473
30
0
41
1
10
33.9927503023655
20
-0.147297412456226
30
0
0
SPLINE
5
E9
100
AcDbEntity
8
1
62
256
6
ByLayer
370
18
48
1
60
0
100
AcDbSpline
70
4
71
3
72
20
73
16
40
0
40
0
40
0
40
0
40
0.0950433327225133
40
0.0950433327225133
40
0.18553899945026
40
0.18553899945026
40
0.276034666178006
40
0.276034666178006
40
0.638017333089021
40
0.638017333089021
40
0.728512999816766
40
0.728512999816766
40
0.819008666544511
40
0.819008666544511
40
1
40
1
40
1
40
1
41
1
10
33.9141870899874
20
-0.475582950304414
30
0
41
1
10
33.9077876361946
20
-0.493966068122717
30
0
41
1
10
33.9010266852123
20
-0.51230926459229
30
0
41
1
10
33.8871129083461
20
-0.548045643743933
30
0
41
1
10
33.8800160586781
20
-0.56538105540838
30
0
41
1
10
33.8653134823382
20
-0.599628499469873
30
0
41
1
10
33.8576937550064
20
-0.616576832091283
30
0
41
1
10
33.8182889147302
20
-0.700455971359929
30
0
41
1
10
33.7826178416666
20
-0.764826320081312
30
0
41
1
10
33.7331145195637
20
-0.841846720351356
30
0
41
1
10
33.7229658182039
20
-0.857076884758754
30
0
41
1
10
33.7021682887747
20
-0.887180449027881
30
0
41
1
10
33.691485482751
20
-0.902099385628276
30
0
41
1
10
33.6589158796015
20
-0.945973342017567
30
0
41
1
10
33.6366915255557
20
-0.973818420611337
30
0
41
1
10
33.6140219045766
20
-1.00026497061501
30
0
0
SPLINE
5
EA
100
AcDbEntity
8
1
62
256
6
ByLayer
370
18
48
1
60
0
100
AcDbSpline
70
4
71
3
72
28
73
24
40
0
40
0
40
0
40
0
40
0.125000000000006
40
0.125000000000006
40
0.187499999999997
40
0.187499999999997
40
0.249999999999987
40
0.249999999999987
40
0.374999999999969
40
0.374999999999969
40
0.49999999999995
40
0.49999999999995
40
0.562499999999951
40
0.562499999999951
40
0.624999999999951
40
0.624999999999951
40
0.749999999999967
40
0.749999999999967
40
0.812499999999975
40
0.812499999999975
40
0.874999999999983
40
0.874999999999983
40
1
40
1
40
1
40
1
41
1
10
33.4273331875801
20
1.17787253471099
30
0
41
1
10
33.4596634414295
20
1.15350088143197
30
0
41
1
10
33.4913568707219
20
1.12670184145122
30
0
41
1
10
33.5380859264307
20
1.08268862507046
30
0
41
1
10
33.553525089869
20
1.06738103312017
30
0
41
1
10
33.5841370280254
20
1.0354435419936
30
0
41
1
10
33.5991855290391
20
1.01893960865996
30
0
41
1
10
33.6432895236723
20
0.968184103321249
30
0
41
1
10
33.6714393701745
20
0.93255946822751
30
0
41
1
10
33.7253147787722
20
0.857777960174303
30
0
41
1
10
33.7510441892467
20
0.818618987236988
30
0
41
1
10
33.7877195424529
20
0.757122261552837
30
0
41
1
10
33.7995236006527
20
0.73632548164511
30
0
41
1
10
33.8221429780065
20
0.694430998724044
30
0
41
1
10
33.8329849668956
20
0.673288076103375
30
0
41
1
10
33.8641195463566
20
0.609274101084935
30
0
41
1
10
33.8830289712316
20
0.56582231599225
30
0
41
1
10
33.9085366626353
20
0.499426599723961
30
0
41
1
10
33.9165857567947
20
0.477014632788354
30
0
41
1
10
33.9315577858786
20
0.432187787592198
30
0
41
1
10
33.9384787296702
20
0.409793152256327
30
0
41
1
10
33.9575827872357
20
0.34261641767128
30
0
41
1
10
33.9681121241304
20
0.297843762687649
30
0
41
1
10
33.9764580956837
20
0.252951690526061
30
0
0
SPLINE
5
EB
100
AcDbEntity
8
1
62
256
6
ByLayer
370
18
48
1
60
0
100
AcDbSpline
70
4
71
3
72
39
73
35
40
0
40
0
40
0
40
0
40
0.0104756319600141
40
0.0372848268707625
40
0.0640940217815109
40
0.0909032166922593
40
0.144521606513756
40
0.171330801424504
40
0.198139996335253
40
0.224949191246001
40
0.25175838615675
40
0.305376775978247
40
0.332185970888995
40
0.358995165799743
40
0.41261355562124
40
0.439422750531989
40
0.466231945442737
40
0.493041140353486
40
0.519850335264234
40
0.546659530174982
40
0.573468725085731
40
0.627087114907227
40
0.653896309817976
40
0.680705504728724
40
0.707514699639473
40
0.734323894550221
40
0.787942284371718
40
0.814751479282466
40
0.841560674193215
40
0.868369869103963
40
0.895179064014712
40
0.948797453836208
40
0.975606648746957
40
1
40
1
40
1
40
1
41
1
10
17.7731761061794
20
1.57523236714925
30
0
41
1
10
17.791492408062
20
1.57307426019003
30
0
41
1
10
17.8566837166347
20
1.56494539098023
30
0
41
1
10
17.9687500319246
20
1.54821573409697
30
0
41
1
10
18.1093750240388
20
1.52239772940365
30
0
41
1
10
18.2968749928008
20
1.48182091110746
30
0
41
1
10
18.4843749542452
20
1.43192268197589
30
0
41
1
10
18.6718749772079
20
1.37322356931205
30
0
41
1
10
18.8125000022868
20
1.32475781196715
30
0
41
1
10
18.9531250124198
20
1.27210960190621
30
0
41
1
10
19.1406250121701
20
1.19683084999511
30
0
41
1
10
19.3281250005157
20
1.11399041343768
30
1E-16
41
1
10
19.5156249959326
20
1.02432528780756
30
0
41
1
10
19.7031249942145
20
0.930466726243878
30
0
41
1
10
19.890624994018
20
0.830782717691221
30
1E-16
41
1
10
20.0781249897924
20
0.726231326736894
30
1E-16
41
1
10
20.218749988592
20
0.645514303786882
30
0
41
1
10
20.3593749933422
20
0.562921057218858
30
0
41
1
10
20.5000000002647
20
0.478755822272376
30
0
41
1
10
20.6406250055991
20
0.393316115228373
30
0
41
1
10
20.8281250084534
20
0.278327025415535
30
0
41
1
10
21.0156250017087
20
0.161983700526378
30
1E-16
41
1
10
21.2031249948978
20
0.045518268304221
30
-1E-16
41
1
10
21.3437499926573
20
-0.0416234756612255
30
1E-16
41
1
10
21.4843749961742
20
-0.128125460188841
30
1E-16
41
1
10
21.6718750021296
20
-0.242051013524872
30
-1E-16
41
1
10
21.8593750003981
20
-0.35350557332302
30
-1E-16
41
1
10
22.0468749983587
20
-0.461185959741499
30
0
41
1
10
22.1874999983466
20
-0.539725110805762
30
-1E-16
41
1
10
22.3281250015195
20
-0.615707264173579
30
1E-16
41
1
10
22.5156250061402
20
-0.713205803103932
30
-1E-16
41
1
10
22.7031250055691
20
-0.804531867629208
30
1E-16
41
1
10
22.8864009650678
20
-0.886631808309716
30
1E-16
41
1
10
22.9759269311425
20
-0.924317076169928
30
1E-16
41
1
10
23.0185779027822
20
-0.941700464859764
30
1E-16
0
SPLINE
5
EC
100
AcDbEntity
8
1
62
256
6
ByLayer
370
18
48
1
60
0
100
AcDbSpline
70
4
71
3
72
20
73
16
40
0
40
0
40
0
40
0
40
0.0136222615898679
40
0.0972719260887357
40
0.180921590587603
40
0.264571255086471
40
0.348220919585339
40
0.515520248583074
40
0.557345080832509
40
0.599169913081942
40
0.68281957758081
40
0.766469242079678
40
0.850118906578546
40
0.933768571077413
40
1
40
1
40
1
40
1
41
1
10
31.4458493507148
20
0.925976703214872
30
0
41
1
10
31.4534828957857
20
0.924189899274495
30
0
41
1
10
31.5079914389657
20
0.911245696644812
30
0
41
1
10
31.6093749827584
20
0.884718741885621
30
0
41
1
10
31.7499999883429
20
0.842318932284826
30
0
41
1
10
31.8906250035542
20
0.794503847219204
30
0
41
1
10
32.0781250243978
20
0.724168927834171
30
0
41
1
10
32.2421875272956
20
0.654340661266616
30
0
41
1
10
32.3828124958574
20
0.5894209509907
30
0
41
1
10
32.476562472284
20
0.544841265224562
30
-1E-16
41
1
10
32.5937499499496
20
0.486976481726941
30
0
41
1
10
32.7343749729568
20
0.414516749477656
30
0
41
1
10
32.8750000052024
20
0.339511484629526
30
0
41
1
10
33.0058643000451
20
0.267800499811841
30
0
41
1
10
33.0898535891729
20
0.220975715191429
30
0
41
1
10
33.1269678816481
20
0.200172740989331
30
0
0
SPLINE
5
ED
100
AcDbEntity
8
1
62
256
6
ByLayer
370
18
48
1
60
0
100
AcDbSpline
70
4
71
3
72
44
73
40
40
0
40
0
40
0
40
0
40
0.0096698139825721
40
0.0322589473043356
40
0.0774372139478625
40
0.100026347269626
40
0.12261548059139
40
0.145204613913153
40
0.167793747234917
40
0.212972013878444
40
0.235561147200207
40
0.25815028052197
40
0.303328547165498
40
0.325917680487261
40
0.348506813809025
40
0.371095947130788
40
0.393685080452552
40
0.416274213774315
40
0.438863347096079
40
0.484041613739606
40
0.506630747061369
40
0.529219880383133
40
0.551809013704896
40
0.574398147026659
40
0.619576413670187
40
0.64216554699195
40
0.664754680313714
40
0.687343813635477
40
0.709932946957241
40
0.755111213600768
40
0.777700346922531
40
0.800289480244295
40
0.845467746887822
40
0.868056880209585
40
0.890646013531349
40
0.935824280174876
40
0.958413413496639
40
0.981002546818402
40
1
40
1
40
1
40
1
41
0.999843860403679
10
18.049176143483
20
1.38426387961177
30
0
41
0.99984086156996
10
18.0692421388347
20
1.37061789039207
30
0
41
0.999830892900288
10
18.136183458662
20
1.32469084016703
30
0
41
0.999808291577746
10
18.2968749927891
20
1.21130733457276
30
0
41
0.999780180800164
10
18.4843749542619
20
1.07188993618263
30
-1E-16
41
0.999750395882872
10
18.6718749771869
20
0.926704299606567
30
0
41
0.999723275524846
10
18.8125000022884
20
0.815292974100109
30
1E-16
41
0.999694955129712
10
18.9531250124344
20
0.701667313696471
30
-1E-16
41
0.99966079884074
10
19.1406250121838
20
0.54767355389673
30
0
41
0.999625114816198
10
19.3281250005158
20
0.390733164570147
30
0
41
0.999587972814987
10
19.5156249959289
20
0.23235949930295
30
-1E-16
41
0.999549404323139
10
19.7031249942103
20
0.07357455568658
30
-2E-16
41
0.99950944051963
10
19.8906249940173
20
-0.085067894260287
30
2E-16
41
0.999468153997295
10
20.0781249897946
20
-0.241985147613158
30
1E-16
41
0.999431353195353
10
20.2187499885932
20
-0.358334979299361
30
0
41
0.999393612590112
10
20.3593749933386
20
-0.47299927213332
30
0
41
0.999354960760549
10
20.5000000002653
20
-0.585587374106591
30
0
41
0.999315426970105
10
20.6406250056001
20
-0.695706362081393
30
1E-16
41
0.999268718653746
10
20.8281250084524
20
-0.838798733207198
30
0
41
0.999220901189687
10
21.0156250017061
20
-0.975368809799566
30
1E-16
41
0.999172051485798
10
21.2031249949006
20
-1.10404870541879
30
-1E-16
41
0.999128934004312
10
21.3437499926575
20
-1.19614919450003
30
-1E-16
41
0.999085093505534
10
21.4843749961708
20
-1.28353841563286
30
-1E-16
41
0.999033608023067
10
21.6718750021314
20
-1.39347007654269
30
-1E-16
41
0.998981218157863
10
21.8593750003963
20
-1.49275494693358
30
-1E-16
41
0.998928012331798
10
22.0468749983604
20
-1.58015637546806
30
-1E-16
41
0.99888129233773
10
22.1874999983475
20
-1.63944420142312
30
1E-16
41
0.998834006093264
10
22.3281250015144
20
-1.69230527903716
30
0
41
0.998778738376705
10
22.5156250061303
20
-1.75405735740156
30
0
41
0.998722776051657
10
22.7031250055641
20
-1.80216596292762
30
0
41
0.998666206957615
10
22.8906249882683
20
-1.83584593814993
30
0
41
0.998609054495524
10
23.0781249664005
20
-1.85981092078817
30
0
41
0.998551338058626
10
23.2656249475533
20
-1.86901257839548
30
0
41
0.998493149790528
10
23.4531249514886
20
-1.86310972413137
30
0
41
0.998434511762029
10
23.6406249667926
20
-1.84720386155759
30
0
41
0.998375441472336
10
23.8281249934053
20
-1.8163238568365
30
0
41
0.99831603283633
10
24.0156250198427
20
-1.77059695909082
30
0
41
0.998273612684808
10
24.1487945858
20
-1.73125751200816
30
0
41
0.998246038695905
10
24.2350896486585
20
-1.70174707436451
30
0
41
0.998233427002661
10
24.2745109443025
20
-1.68744291140777
30
0
0
SPLINE
5
EE
100
AcDbEntity
8
1
62
256
6
ByLayer
370
18
48
1
60
0
100
AcDbSpline
70
4
71
3
72
16
73
12
40
0
40
0
40
0
40
0
40
0.060969794940238
40
0.305310239917134
40
0.366395351161359
40
0.427480462405583
40
0.549650684894031
40
0.67182090738248
40
0.793991129870929
40
0.916161352359376
40
1
40
1
40
1
40
1
41
0.995976474473875
10
31.9610688422176
20
0.495552718263271
30
0
41
0.995973120046956
10
31.9844620803267
20
0.4769128527807
30
0
41
0.995956782975545
10
32.1016063079393
20
0.382987866596996
30
0
41
0.995937184011383
10
32.2421875272712
20
0.267237082508718
30
0
41
0.995917441946603
10
32.3828124958789
20
0.150284604356628
30
1E-16
41
0.995902353415128
10
32.4765624723186
20
0.0721608884788543
30
1E-16
41
0.995886599004591
10
32.5937499499488
20
-0.0255802840259706
30
1E-16
41
0.995870721865701
10
32.7343749729187
20
-0.142164336819844
30
-1E-16
41
0.995856316895858
10
32.8750000052033
20
-0.257216448238309
30
-1E-16
41
0.995844762992736
10
33.0009175481421
20
-0.358129706557825
30
0
41
0.995838235939807
10
33.0799599707865
20
-0.419967390390222
30
1E-16
41
0.995835701449037
10
33.1121276169217
20
-0.444838335322882
30
-1E-16
0
SPLINE
5
EF
100
AcDbEntity
8
1
62
256
6
ByLayer
370
18
48
1
60
0
100
AcDbSpline
70
4
71
3
72
32
73
28
40
0
40
0
40
0
40
0
40
0.0341824651796443
40
0.0683649303592885
40
0.102547395538933
40
0.136729860718577
40
0.205094791077866
40
0.23927725625751
40
0.273459721437154
40
0.307642186616798
40
0.341824651796443
40
0.410189582155731
40
0.444372047335376
40
0.47855451251502
40
0.512736977694664
40
0.546919442874308
40
0.615284373233597
40
0.649466838413241
40
0.683649303592885
40
0.71783176877253
40
0.752014233952174
40
0.820379164311462
40
0.854561629491107
40
0.888744094670751
40
0.957109025030039
40
0.991291490209684
40
1
40
1
40
1
40
1
41
1
10
16
20
1.27689075681516
30
-1E-16
41
1
10
16.0468749624251
20
1.25671633120501
30
-1E-16
41
1
10
16.1406249440965
20
1.21519819921107
30
0
41
1
10
16.2812499869152
20
1.14960101788455
30
0
41
1
10
16.421874999854
20
1.08081230919518
30
-1E-16
41
1
10
16.6093749993269
20
0.985180281584888
30
-1E-16
41
1
10
16.7968750052995
20
0.884066203435196
30
-1E-16
41
1
10
16.984374999143
20
0.778331558684357
30
0
41
1
10
17.1249999978768
20
0.696905347643451
30
-1E-16
41
1
10
17.2656250093497
20
0.613653271745534
30
-1E-16
41
1
10
17.4531250191424
20
0.500652632138554
30
-1E-16
41
1
10
17.6406249869897
20
0.385039573748543
30
0
41
1
10
17.8281250123349
20
0.267883423855949
30
0
41
1
10
17.9687500319246
20
0.179473749541074
30
0
41
1
10
18.1093750240388
20
0.0908709882488949
30
0
41
1
10
18.2968749928008
20
-0.0270571565503985
30
1E-16
41
1
10
18.4843749542452
20
-0.144269530925755
30
-1E-16
41
1
10
18.6718749772079
20
-0.259632974897187
30
-1E-16
41
1
10
18.8125000022868
20
-0.344955438387416
30
-1E-16
41
1
10
18.9531250124198
20
-0.42874308633003
30
-1E-16
41
1
10
19.1406250121701
20
-0.537997372150727
30
-1E-16
41
1
10
19.3281250005157
20
-0.643120744006694
30
0
41
1
10
19.5156249959326
20
-0.743010633394448
30
0
41
1
10
19.7031249942145
20
-0.839023631723336
30
0
41
1
10
19.890624994018
20
-0.928828510113618
30
0
41
1
10
20.0431921192201
20
-0.996066587211459
30
-1E-16
41
1
10
20.1020092470516
20
-1.02096299820971
30
0
41
1
10
20.11395137556
20
-1.02597515105037
30
0
0
SPLINE
5
F0
100
AcDbEntity
8
1
62
256
6
ByLayer
370
18
48
1
60
0
100
AcDbSpline
70
4
71
3
72
32
73
28
40
0
40
0
40
0
40
0
40
0.0299731966942056
40
0.0708004085669699
40
0.111627620439734
40
0.152454832312498
40
0.193282044185263
40
0.234109256058026
40
0.274936467930791
40
0.315763679803554
40
0.356590891676319
40
0.397418103549083
40
0.438245315421847
40
0.479072527294611
40
0.519899739167375
40
0.560726951040139
40
0.601554162912903
40
0.642381374785668
40
0.683208586658432
40
0.724035798531196
40
0.76486301040396
40
0.805690222276724
40
0.846517434149488
40
0.928171857895016
40
0.948585463831399
40
0.968999069767781
40
1
40
1
40
1
40
1
41
1
10
29.1155104934534
20
1.02716968505646
30
0
41
1
10
29.1499236575248
20
1.01952696035406
30
0
41
1
10
29.2312118211725
20
1.00028371779754
30
0
41
1
10
29.3593749920142
20
0.965582084685678
30
0
41
1
10
29.5000000007883
20
0.922241927787894
30
-1E-16
41
1
10
29.6406250048328
20
0.873853305070412
30
0
41
1
10
29.7812500052889
20
0.820716182156929
30
0
41
1
10
29.9218750032907
20
0.763080027818887
30
0
41
1
10
30.0625000000182
20
0.701317195623574
30
0
41
1
10
30.2031249966365
20
0.635767233781792
30
0
41
1
10
30.3437499951273
20
0.566829314852754
30
0
41
1
10
30.4843749974708
20
0.49486926889557
30
0
41
1
10
30.625000000433
20
0.420348521645281
30
0
41
1
10
30.7656250007971
20
0.343705889611868
30
0
41
1
10
30.9062500006827
20
0.265416410444345
30
0
41
1
10
31.0468750022056
20
0.185943559544427
30
0
41
1
10
31.1875000011347
20
0.10579542345684
30
0
41
1
10
31.3281249932553
20
0.0254709177319796
30
1E-16
41
1
10
31.4687499849941
20
-0.054527637685112
30
0
41
1
10
31.6093749827584
20
-0.133684692663166
30
0
41
1
10
31.7499999883429
20
-0.211476522317867
30
1E-16
41
1
10
31.8906250035542
20
-0.287371178710856
30
0
41
1
10
32.0781250243978
20
-0.385366963406341
30
0
41
1
10
32.2421875272956
20
-0.466136290334731
30
0
41
1
10
32.3828124958574
20
-0.530557324729671
30
0
41
1
10
32.4652806135688
20
-0.567128708205246
30
0
41
1
10
32.52431124019
20
-0.592169286880846
30
0
41
1
10
32.5599043754051
20
-0.606822867922347
30
0
0
SPLINE
5
F1
100
AcDbEntity
8
1
62
256
6
ByLayer
370
18
48
1
60
0
100
AcDbSpline
70
4
71
3
72
26
73
22
40
0
40
0
40
0
40
0
40
0.0624999999999661
40
0.0624999999999661
40
0.124999999999932
40
0.124999999999932
40
0.249999999999907
40
0.249999999999907
40
0.374999999999881
40
0.374999999999881
40
0.437499999999893
40
0.437499999999893
40
0.499999999999905
40
0.499999999999905
40
0.624999999999929
40
0.624999999999929
40
0.749999999999952
40
0.749999999999952
40
0.874999999999976
40
0.874999999999976
40
1
40
1
40
1
40
1
41
1
10
33.6140219045775
20
-1.00026497061506
30
0
41
1
10
33.6062557473014
20
-1.00815064562585
30
0
41
1
10
33.5980239092068
20
-1.01634078128905
30
0
41
1
10
33.5806397340136
20
-1.03330758314479
30
0
41
1
10
33.5714173588862
20
-1.04214923631551
30
0
41
1
10
33.5430260404552
20
-1.06888697215888
30
0
41
1
10
33.523098466523
20
-1.08704722652058
30
0
41
1
10
33.4813899617689
20
-1.12371722369852
30
0
41
1
10
33.4602087989292
20
-1.14169423945259
30
0
41
1
10
33.4280663371113
20
-1.16794010337551
30
0
41
1
10
33.4172803624671
20
-1.17657665393594
30
0
41
1
10
33.3955522576721
20
-1.19361492465336
30
0
41
1
10
33.3845761466789
20
-1.20204197566955
30
0
41
1
10
33.3516373256805
20
-1.22676758581403
30
0
41
1
10
33.3298298948059
20
-1.24239329291569
30
0
41
1
10
33.2862936466321
20
-1.27206156791334
30
0
41
1
10
33.2645663776649
20
-1.28610226337415
30
0
41
1
10
33.2210307907511
20
-1.31263988735455
30
0
41
1
10
33.1991595155914
20
-1.32516903551868
30
0
41
1
10
33.155544805441
20
-1.34849476670095
30
0
41
1
10
33.133827064047
20
-1.35928355328917
30
0
41
1
10
33.1121276169225
20
-1.36922532992992
30
0
0
SPLINE
5
F2
100
AcDbEntity
8
1
62
256
6
ByLayer
370
18
48
1
60
0
100
AcDbSpline
70
4
71
3
72
40
73
36
40
0
40
0
40
0
40
0
40
0.0257486911554697
40
0.0514973823109393
40
0.077246073466409
40
0.102994764621879
40
0.154492146932818
40
0.180240838088288
40
0.205989529243757
40
0.231738220399227
40
0.257486911554697
40
0.308984293865636
40
0.334732985021106
40
0.360481676176575
40
0.386230367332045
40
0.411979058487515
40
0.463476440798454
40
0.489225131953924
40
0.514973823109393
40
0.540722514264863
40
0.566471205420333
40
0.617968587731272
40
0.643717278886742
40
0.669465970042211
40
0.720963352353151
40
0.746712043508621
40
0.77246073466409
40
0.79820942581956
40
0.823958116975029
40
0.849706808130499
40
0.875455499285969
40
0.926952881596908
40
0.952701572752378
40
0.978450263907848
40
1
40
1
40
1
40
1
41
1
10
16.0000000000001
20
0.537287722961906
30
1E-16
41
0.999999708785066
10
16.0468749623467
20
0.497871643314076
30
2E-16
41
0.9999983102801
10
16.1406249440046
20
0.418669291685524
30
-1E-16
41
0.999995044183572
10
16.2812499869338
20
0.299087125199897
30
2E-16
41
0.999990095758254
10
16.4218749998715
20
0.179070289212982
30
0
41
0.999982327615323
10
16.6093749993169
20
0.0189196957734594
30
0
41
0.999972398277581
10
16.7968750052945
20
-0.140715814645999
30
-1E-16
41
0.999960359714456
10
16.9843749991516
20
-0.298412862207765
30
-2E-16
41
0.999948262061769
10
17.124999997877
20
-0.415345266820374
30
1E-16
41
0.999934643460247
10
17.2656250093404
20
-0.530613556674387
30
-1E-16
41
0.999917064722105
10
17.4531250191435
20
-0.681634384224433
30
-2E-16
41
0.999897537228042
10
17.6406249870044
20
-0.827885585404561
30
-1E-16
41
0.999876118348888
10
17.828125012309
20
-0.968053383354492
30
0
41
0.999856070675061
10
17.9687500319276
20
-1.06976276329119
30
1E-16
41
0.999834663615794
10
18.1093750240531
20
-1.1677658759923
30
1E-16
41
0.999808291577746
10
18.2968749927891
20
-1.2931365799098
30
-1E-16
41
0.999780180800164
10
18.4843749542619
20
-1.40986926895357
30
0
41
0.999750395882872
10
18.6718749771869
20
-1.51688300963336
30
0
41
0.999723275524846
10
18.8125000022884
20
-1.59194186153188
30
0
41
0.999694955129712
10
18.9531250124344
20
-1.66156681748041
30
-1E-16
41
0.99966079884074
10
19.1406250121838
20
-1.74693712148447
30
1E-16
41
0.999625114816198
10
19.3281250005158
20
-1.82058891739603
30
0
41
0.999587972814987
10
19.5156249959289
20
-1.88166302359446
30
0
41
0.999549404323139
10
19.7031249942103
20
-1.93418454831726
30
0
41
0.99950944051963
10
19.8906249940173
20
-1.973627070427
30
0
41
0.999468153997295
10
20.0781249897946
20
-1.99948260085634
30
0
41
0.999431353195353
10
20.2187499885932
20
-2.01193860428328
30
0
41
0.999393612590112
10
20.3593749933386
20
-2.01742618600648
30
0
41
0.999354960760549
10
20.5000000002653
20
-2.01592932559636
30
0
41
0.999315426970105
10
20.6406250056001
20
-2.00744350254243
30
0
41
0.999268718653746
10
20.8281250084524
20
-1.98686767069178
30
0
41
0.999220901189687
10
21.0156250017061
20
-1.95230841806667
30
0
41
0.999172051485798
10
21.2031249949006
20
-1.90420338097694
30
0
41
0.999131277791628
10
21.3361055634099
20
-1.8637454781278
30
0
41
0.999104469978981
10
21.4222101838812
20
-1.83384162248797
30
0
41
0.99909275288573
10
21.4614404932693
20
-1.81946710396335
30
0
0
SPLINE
5
F3
100
AcDbEntity
8
1
62
256
6
ByLayer
370
18
48
1
60
0
100
AcDbSpline
70
4
71
3
72
33
73
29
40
0
40
0
40
0
40
0
40
0.0224702269297702
40
0.0620683833705378
40
0.101666539811305
40
0.141264696252073
40
0.180862852692839
40
0.220461009133607
40
0.260059165574375
40
0.299657322015142
40
0.33925547845591
40
0.378853634896677
40
0.418451791337444
40
0.458049947778212
40
0.497648104218979
40
0.537246260659746
40
0.576844417100514
40
0.616442573541281
40
0.656040729982049
40
0.695638886422817
40
0.774835199304351
40
0.794634277524735
40
0.814433355745118
40
0.854031512185886
40
0.893629668626653
40
0.933227825067421
40
0.972825981508188
40
1
40
1
40
1
40
1
41
0.996530054512678
10
29.5608245231698
20
0.657954763247012
30
-1E-16
41
0.996522316832247
10
29.5874242561144
20
0.637387375946482
30
-1E-16
41
0.996501064626616
10
29.6608997896995
20
0.580095013439918
30
-1E-16
41
0.996466813826697
10
29.7812500052874
20
0.484314676058536
30
0
41
0.996427657007886
10
29.921875003292
20
0.370137975333853
30
0
41
0.996389391705305
10
30.0625000000176
20
0.254351299226458
30
1E-16
41
0.996352046444489
10
30.2031249966376
20
0.137615088253783
30
-1E-16
41
0.996315650554936
10
30.3437499951284
20
0.0206151643769184
30
0
41
0.996280232906739
10
30.4843749974673
20
-0.0959528592746341
30
0
41
0.996245821875348
10
30.6250000004333
20
-0.211391227381576
30
1E-16
41
0.996212446860228
10
30.7656250007997
20
-0.324995769458151
30
1E-16
41
0.996180136714403
10
30.906250000683
20
-0.436065634725177
30
-1E-16
41
0.99614892018464
10
31.0468750022011
20
-0.543896981899522
30
-1E-16
41
0.996118826137405
10
31.1875000011348
20
-0.647806116242575
30
0
41
0.996089883843838
10
31.3281249932597
20
-0.74710698014519
30
0
41
0.99606212169765
10
31.4687499849937
20
-0.841171035823578
30
0
41
0.996035568600723
10
31.6093749827604
20
-0.929374200860094
30
0
41
0.996010254121447
10
31.7499999883468
20
-1.01109023107333
30
-1E-16
41
0.995986207659346
10
31.8906250035363
20
-1.08569562494762
30
0
41
0.995960056666061
10
32.0781250243614
20
-1.17510615719425
30
0
41
0.995937184011383
10
32.2421875272712
20
-1.23924996255298
30
0
41
0.995917441946603
10
32.3828124958789
20
-1.28300641212339
30
0
41
0.995902353415128
10
32.4765624723186
20
-1.30911819343232
30
0
41
0.995886599004591
10
32.5937499499488
20
-1.33598740383392
30
0
41
0.995870721865701
10
32.7343749729187
20
-1.35867316458278
30
0
41
0.995856316895858
10
32.8750000052033
20
-1.37160448867834
30
0
41
0.995844762992736
10
33.000917548142
20
-1.37430237613483
30
0
41
0.995838235939807
10
33.0799599707864
20
-1.3712547880644
30
0
41
0.995835701449037
10
33.1121276169216
20
-1.36922532992969
30
0
0
SPLINE
5
F4
100
AcDbEntity
8
1
62
256
6
ByLayer
370
18
48
1
60
0
100
AcDbSpline
70
4
71
3
72
8
73
4
40
0
40
0
40
0
40
0
40
1
40
1
40
1
40
1
41
1
10
33.1121276169215
20
-1.36922532992969
30
0
41
1
10
33.0840439218009
20
-1.38209207955944
30
0
41
1
10
33.0560798728962
20
-1.39349658535255
30
0
41
1
10
33.028213598435
20
-1.40344905279616
30
0
0
SPLINE
5
F5
100
AcDbEntity
8
1
62
256
6
ByLayer
370
18
48
1
60
0
100
AcDbSpline
70
4
71
3
72
14
73
10
40
0
40
0
40
0
40
0
40
0.134223973574241
40
0.268447947148481
40
0.402671920722722
40
0.536895894296962
40
0.805343841445443
40
0.939567815019684
40
1
40
1
40
1
40
1
41
1
10
16
20
-0.609394497386319
30
1E-16
41
1
10
16.0468749624251
20
-0.636228023065286
30
-1E-16
41
1
10
16.1406249440965
20
-0.689238619613121
30
1E-16
41
1
10
16.2812499869152
20
-0.766492864533291
30
0
41
1
10
16.421874999854
20
-0.841221206801549
30
0
41
1
10
16.6093749993269
20
-0.937215872527048
30
0
41
1
10
16.7968750052995
20
-1.02729549626432
30
0
41
1
10
16.9586047147098
20
-1.09913848087146
30
-1E-16
41
1
10
17.026584428373
20
-1.12807068988892
30
0
41
1
10
17.0476891430214
20
-1.13692831170343
30
0
0
SPLINE
5
F6
100
AcDbEntity
8
1
62
256
6
ByLayer
370
18
48
1
60
0
100
AcDbSpline
70
4
71
3
72
33
73
29
40
0
40
0
40
0
40
0
40
0.0300323570632655
40
0.0657360589982178
40
0.101439760933168
40
0.17284716480307
40
0.244254568672973
40
0.315661972542875
40
0.351365674477827
40
0.387069376412778
40
0.422773078347729
40
0.45847678028268
40
0.494180482217632
40
0.529884184152583
40
0.565587886087534
40
0.601291588022486
40
0.636995289957436
40
0.672698991892388
40
0.708402693827339
40
0.74410639576229
40
0.779810097697241
40
0.815513799632193
40
0.851217501567144
40
0.886921203502095
40
0.922624905437046
40
0.958328607371998
40
0.994032309306949
40
1
40
1
40
1
40
1
41
1
10
26.5692126110077
20
1.15071170450599
30
0
41
1
10
26.6086417667676
20
1.14298999000715
30
0
41
1
10
26.694945922079
20
1.1246686293542
30
0
41
1
10
26.8281250641106
20
1.09166656308977
30
0
41
1
10
27.0156250354835
20
1.0382847961306
30
0
41
1
10
27.2499999930203
20
0.959345140106279
30
0
41
1
10
27.5312499864779
20
0.846484148326681
30
0
41
1
10
27.7656249976602
20
0.739021172064611
30
0
41
1
10
27.9531250043817
20
0.646149285458847
30
0
41
1
10
28.0937500063388
20
0.573382247398683
30
0
41
1
10
28.2343750032519
20
0.498069311651221
30
-1E-16
41
1
10
28.3749999996991
20
0.420610225666564
30
-1E-16
41
1
10
28.515625000243
20
0.341388807238559
30
1E-16
41
1
10
28.6562500118815
20
0.260858895079394
30
1E-16
41
1
10
28.7968750094746
20
0.179452130325927
30
0
41
1
10
28.9375000000168
20
0.0976174269061687
30
0
41
1
10
29.078124990458
20
0.0157979573121168
30
0
41
1
10
29.2187499860445
20
-0.0655513901723168
30
-1E-16
41
1
10
29.3593749920142
20
-0.145962107338164
30
-1E-16
41
1
10
29.5000000007883
20
-0.224990555183211
30
1E-16
41
1
10
29.6406250048328
20
-0.302186455648098
30
0
41
1
10
29.7812500052889
20
-0.377109151420001
30
0
41
1
10
29.9218750032907
20
-0.449283569326269
30
1E-16
41
1
10
30.0625000000182
20
-0.518316393662246
30
0
41
1
10
30.2031249966365
20
-0.583794394768432
30
0
41
1
10
30.3437499951273
20
-0.64534012700301
30
0
41
1
10
30.4453349126994
20
-0.686647580387927
30
0
41
1
10
30.5000448296308
20
-0.707832688527674
30
0
41
1
10
30.5078797456611
20
-0.710844532985107
30
0
0
SPLINE
5
F7
100
AcDbEntity
8
1
62
256
6
ByLayer
370
18
48
1
60
0
100
AcDbSpline
70
4
71
3
72
22
73
18
40
0
40
0
40
0
40
0
40
0.0575492696037611
40
0.115098539207522
40
0.172647808811283
40
0.230197078415044
40
0.345295617622567
40
0.402844887226328
40
0.460394156830089
40
0.51794342643385
40
0.575492696037611
40
0.690591235245133
40
0.748140504848894
40
0.805689774452655
40
0.863239044056416
40
0.920788313660177
40
1
40
1
40
1
40
1
41
1
10
16.0000000000001
20
-1.90639514006247
30
0
41
0.999999708785066
10
16.0468749623467
20
-1.92551864153709
30
1E-16
41
0.9999983102801
10
16.1406249440046
20
-1.96188414253
30
-1E-16
41
0.999995044183572
10
16.2812499869338
20
-2.0106069717852
30
0
41
0.999990095758254
10
16.4218749998715
20
-2.05328526604247
30
0
41
0.999982327615323
10
16.6093749993169
20
-2.10199475888919
30
0
41
0.999972398277581
10
16.7968750052945
20
-2.13820491832617
30
0
41
0.999960359714456
10
16.9843749991516
20
-2.16147244230305
30
0
41
0.999948262061769
10
17.124999997877
20
-2.17240122376829
30
0
41
0.999934643460247
10
17.2656250093404
20
-2.17680117986417
30
0
41
0.999917064722105
10
17.4531250191435
20
-2.17391412090299
30
0
41
0.999897537228042
10
17.6406249870044
20
-2.15777435414509
30
0
41
0.999876118348888
10
17.828125012309
20
-2.12854837375013
30
0
41
0.999856070675061
10
17.9687500319276
20
-2.10013724425241
30
0
41
0.999834663615794
10
18.1093750240531
20
-2.06532580033893
30
0
41
0.999812402878618
10
18.2676438068295
20
-2.01905550688124
30
0
41
0.999795916878548
10
18.3790372713327
20
-1.98062723313061
30
0
41
0.999786100731253
10
18.4435561635916
20
-1.95647715722302
30
0
0
SPLINE
5
F8
100
AcDbEntity
8
1
62
256
6
ByLayer
370
18
48
1
60
0
100
AcDbSpline
70
4
71
3
72
37
73
33
40
0
40
0
40
0
40
0
40
0.0263822323895849
40
0.0896801881379744
40
0.152978143886364
40
0.184627121760558
40
0.216276099634753
40
0.247925077508948
40
0.279574055383143
40
0.311223033257337
40
0.342872011131532
40
0.374520989005727
40
0.406169966879922
40
0.437818944754116
40
0.469467922628311
40
0.501116900502506
40
0.532765878376701
40
0.564414856250895
40
0.59606383412509
40
0.627712811999285
40
0.65936178987348
40
0.691010767747674
40
0.722659745621869
40
0.754308723496064
40
0.785957701370259
40
0.817606679244453
40
0.849255657118648
40
0.880904634992842
40
0.912553612867038
40
0.944202590741232
40
0.975851568615427
40
1
40
1
40
1
40
1
41
0.99726705305831
10
27.1327709651995
20
0.711195161841841
30
0
41
0.997256239228163
10
27.171845537374
20
0.680786627551987
30
0
41
0.997220452693354
10
27.3046724067394
20
0.576228082893
30
1E-16
41
0.997163700054412
10
27.5312499864657
20
0.391927878406247
30
0
41
0.997100125121829
10
27.7656249976623
20
0.196561326296386
30
0
41
0.997043936481859
10
27.9531250043797
20
0.0398125865335564
30
-1E-16
41
0.996995800643783
10
28.0937500063385
20
-0.0773262698762218
30
0
41
0.996948183975351
10
28.2343750032548
20
-0.1934907995824
30
0
41
0.996901114419827
10
28.3749999996986
20
-0.308077334209533
30
1E-16
41
0.996854619326869
10
28.5156250002457
20
-0.420477745753478
30
1E-16
41
0.996808728659696
10
28.6562500118808
20
-0.530097489528427
30
-1E-16
41
0.996763471950961
10
28.7968750094817
20
-0.63632344351931
30
-1E-16
41
0.996718877082279
10
28.9375000000144
20
-0.73858332836633
30
0
41
0.996674972491003
10
29.0781249904604
20
-0.836303728065242
30
0
41
0.996631787359054
10
29.2187499860475
20
-0.928931190814651
30
0
41
0.996589350939593
10
29.3593749920063
20
-1.01591742200464
30
-1E-16
41
0.996547690631013
10
29.5000000007896
20
-1.09678484457156
30
-1E-16
41
0.996506834915324
10
29.6406250048354
20
-1.17105855387786
30
1E-16
41
0.996466813826697
10
29.7812500052874
20
-1.23827505349732
30
0
41
0.996427657007886
10
29.921875003292
20
-1.29798238474999
30
0
41
0.996389391705305
10
30.0625000000176
20
-1.34985024058037
30
1E-16
41
0.996352046444489
10
30.2031249966376
20
-1.39355488902625
30
0
41
0.996315650554936
10
30.3437499951284
20
-1.42878742595443
30
0
41
0.996280232906739
10
30.4843749974673
20
-1.45525612937448
30
0
41
0.996245821875348
10
30.6250000004333
20
-1.47280678000383
30
0
41
0.996212446860228
10
30.7656250007997
20
-1.4812952091345
30
0
41
0.996180136714403
10
30.906250000683
20
-1.48062818547539
30
0
41
0.99614892018464
10
31.0468750022011
20
-1.47073399396647
30
0
41
0.996118826137405
10
31.1875000011348
20
-1.45164894924707
30
0
41
0.996089883843838
10
31.3281249932597
20
-1.4234221368794
30
0
41
0.996064314830806
10
31.457640712438
20
-1.38915828995168
30
0
41
0.99604862619394
10
31.5402809983091
20
-1.36274400261246
30
0
41
0.99604195584863
10
31.5760467854851
20
-1.35047693711307
30
0
0
SPLINE
5
F9
100
AcDbEntity
8
1
62
256
6
ByLayer
370
18
48
1
60
0
100
AcDbSpline
70
4
71
3
72
44
73
40
40
0
40
0
40
0
40
0
40
0.0094003084744488
40
0.0318796646105821
40
0.0768383768828489
40
0.0993177330189822
40
0.121797089155116
40
0.144276445291249
40
0.166755801427382
40
0.211714513699649
40
0.234193869835782
40
0.256673225971916
40
0.301631938244183
40
0.324111294380316
40
0.346590650516449
40
0.369070006652583
40
0.391549362788716
40
0.414028718924849
40
0.436508075060983
40
0.481466787333249
40
0.503946143469383
40
0.526425499605516
40
0.54890485574165
40
0.571384211877783
40
0.61634292415005
40
0.638822280286183
40
0.661301636422316
40
0.68378099255845
40
0.706260348694583
40
0.75121906096685
40
0.773698417102983
40
0.796177773239117
40
0.841136485511383
40
0.863615841647517
40
0.88609519778365
40
0.931053910055917
40
0.95353326619205
40
0.976012622328184
40
1
40
1
40
1
40
1
41
1
10
18.0505691438398
20
1.38324016539195
30
0
41
1
10
18.0701711035966
20
1.36949317927426
30
0
41
1
10
18.1366480586193
20
1.32248280759921
30
0
41
1
10
18.2968749927885
20
1.20607857074177
30
1E-16
41
1
10
18.4843749542628
20
1.06280326862759
30
0
41
1
10
18.6718749771858
20
0.913855448460197
30
1E-16
41
1
10
18.8125000022885
20
0.799696997268143
30
-1E-16
41
1
10
18.9531250124352
20
0.683391548669192
30
2E-16
41
1
10
19.1406250121845
20
0.525899363424372
30
1E-16
41
1
10
19.3281250005159
20
0.365621245653614
30
0
41
1
10
19.5156249959287
20
0.204103888375386
30
0
41
1
10
19.7031249942101
20
0.0423119111795813
30
-1E-16
41
1
10
19.8906249940172
20
-0.119119598080545
30
-2E-16
41
1
10
20.0781249897947
20
-0.278580177777144
30
2E-16
41
1
10
20.2187499885932
20
-0.39669053815598
30
0
41
1
10
20.3593749933384
20
-0.512981832217406
30
1E-16
41
1
10
20.5000000002654
20
-0.627059670681348
30
-1E-16
41
1
10
20.6406250056002
20
-0.738526892526238
30
0
41
1
10
20.8281250084523
20
-0.883249641553761
30
1E-16
41
1
10
21.015625001706
20
-1.02114676632635
30
-1E-16
41
1
10
21.2031249949008
20
-1.15084100388597
30
0
41
1
10
21.3437499926575
20
-1.24353202146054
30
0
41
1
10
21.4843749961706
20
-1.33135344403775
30
0
41
1
10
21.6718750021315
20
-1.44166959280986
30
0
41
1
10
21.8593750003962
20
-1.54101267912768
30
1E-16
41
1
10
22.0468749983605
20
-1.62814321078588
30
0
41
1
10
22.1874999983475
20
-1.68706293865773
30
0
41
1
10
22.3281250015141
20
-1.73939962825224
30
0
41
1
10
22.5156250061298
20
-1.80025576176709
30
0
41
1
10
22.7031250055638
20
-1.84715484697591
30
0
41
1
10
22.8906249882689
20
-1.87932052814085
30
0
41
1
10
23.0781249664014
20
-1.90158578182687
30
0
41
1
10
23.2656249475535
20
-1.90880179767282
30
0
41
1
10
23.453124951488
20
-1.9006462013042
30
0
41
1
10
23.6406249667921
20
-1.88232896008503
30
0
41
1
10
23.8281249934054
20
-1.84879615382923
30
0
41
1
10
24.0156250198425
20
-1.8002023438296
30
0
41
1
10
24.1593946338656
20
-1.75543905756899
30
0
41
1
10
24.2562892381798
20
-1.72013966089807
30
0
41
1
10
24.3063088371646
20
-1.7005828564844
30
0
0
SPLINE
5
FA
100
AcDbEntity
8
1
62
256
6
ByLayer
370
18
48
1
60
0
100
AcDbSpline
70
4
71
3
72
16
73
12
40
0
40
0
40
0
40
0
40
0.0782152551712295
40
0.338256806317395
40
0.403267194103936
40
0.468277581890478
40
0.59829835746356
40
0.728319133036643
40
0.858339908609725
40
0.988360684182806
40
1
40
1
40
1
40
1
41
1
10
31.946655680737
20
0.506263508816517
30
0
41
1
10
31.9748537933619
20
0.483310666716989
30
0
41
1
10
32.0968019150424
20
0.383295998366151
30
0
41
1
10
32.2421875272697
20
0.260830103855852
30
1E-16
41
1
10
32.3828124958801
20
0.141289727740087
30
-1E-16
41
1
10
32.4765624723207
20
0.0614693940600262
30
1E-16
41
1
10
32.5937499499487
20
-0.0383518735148698
30
1E-16
41
1
10
32.7343749729164
20
-0.157341784156785
30
-1E-16
41
1
10
32.8750000052034
20
-0.274688934086441
30
0
41
1
10
32.9729462040248
20
-0.354694143976502
30
-1E-16
41
1
10
33.0240174004973
20
-0.395752032090058
30
0
41
1
10
33.0282135984351
20
-0.399120952110138
30
0
0
SPLINE
5
FB
100
AcDbEntity
8
1
62
256
6
ByLayer
370
18
48
1
60
0
100
AcDbSpline
70
4
71
3
72
36
73
32
40
0
40
0
40
0
40
0
40
0.0127905194043245
40
0.0435550277097728
40
0.0743195360152211
40
0.135848552626118
40
0.166613060931566
40
0.197377569237014
40
0.228142077542462
40
0.258906585847911
40
0.320435602458807
40
0.351200110764256
40
0.381964619069704
40
0.412729127375152
40
0.443493635680601
40
0.505022652291497
40
0.535787160596945
40
0.566551668902394
40
0.62808068551329
40
0.658845193818739
40
0.689609702124187
40
0.720374210429635
40
0.751138718735083
40
0.781903227040532
40
0.81266773534598
40
0.874196751956877
40
0.904961260262325
40
0.935725768567773
40
0.966490276873221
40
0.99725478517867
40
1
40
1
40
1
40
1
41
1
10
17.0665343548423
20
2.01369200096724
30
0
41
1
10
17.0860229029362
20
2.01973623928035
30
0
41
1
10
17.1523864521014
20
2.03970942093309
30
0
41
1
10
17.2656250093448
20
2.07022583641469
30
0
41
1
10
17.4531250191429
20
2.11225762358512
30
0
41
1
10
17.6406249869975
20
2.14119027511049
30
0
41
1
10
17.8281250123213
20
2.15678206730209
30
0
41
1
10
17.9687500319262
20
2.16172292749582
30
0
41
1
10
18.1093750240463
20
2.15990951649215
30
0
41
1
10
18.2968749927946
20
2.14853360996642
30
0
41
1
10
18.484374954254
20
2.12360763429837
30
0
41
1
10
18.6718749771968
20
2.08541650795067
30
0
41
1
10
18.8125000022876
20
2.05014065855101
30
0
41
1
10
18.9531250124275
20
2.00832782582091
30
0
41
1
10
19.1406250121773
20
1.9441446078215
30
0
41
1
10
19.3281250005158
20
1.86751108625185
30
0
41
1
10
19.5156249959306
20
1.77903661157237
30
1E-16
41
1
10
19.7031249942123
20
1.68301223992484
30
1E-16
41
1
10
19.8906249940176
20
1.57613093371279
30
1E-16
41
1
10
20.0781249897935
20
1.45936321497896
30
-1E-16
41
1
10
20.2187499885926
20
1.36709905645924
30
-1E-16
41
1
10
20.3593749933402
20
1.27046870067787
30
-1E-16
41
1
10
20.500000000265
20
1.16981435951899
30
-1E-16
41
1
10
20.6406250055996
20
1.06547641193649
30
-1E-16
41
1
10
20.8281250084528
20
0.92197683894284
30
1E-16
41
1
10
21.0156250017073
20
0.772525903060796
30
0
41
1
10
21.2031249948993
20
0.618706024334898
30
1E-16
41
1
10
21.3437499926574
20
0.501572256361897
30
-1E-16
41
1
10
21.4843749961723
20
0.383088849961553
30
0
41
1
10
21.582307804466
20
0.299940949535227
30
0
41
1
10
21.6333656105096
20
0.256490633354673
30
0
41
1
10
21.6375484157569
20
0.25293043380691
30
0
0
SPLINE
5
FC
100
AcDbEntity
8
1
62
256
6
ByLayer
370
18
48
1
60
0
100
AcDbSpline
70
4
71
3
72
25
73
21
40
0
40
0
40
0
40
0
40
0.0242953773872949
40
0.0826751889063299
40
0.141055000425364
40
0.1994348119444
40
0.257814623463435
40
0.31619443498247
40
0.374574246501505
40
0.43295405802054
40
0.491333869539575
40
0.54971368105861
40
0.66647330409668
40
0.695663209856198
40
0.724853115615715
40
0.783232927134751
40
0.841612738653786
40
0.899992550172821
40
0.958372361691856
40
1
40
1
40
1
40
1
41
1
10
30.7071024162299
20
1.3766215975744
30
0
41
1
10
30.7266099444236
20
1.38188382972183
30
0
41
1
10
30.7929924726529
20
1.39893854012422
30
0
41
1
10
30.9062500006829
20
1.42302793743653
30
0
41
1
10
31.0468750022032
20
1.44388052990268
30
0
41
1
10
31.1875000011348
20
1.45553742729282
30
0
41
1
10
31.3281249932577
20
1.45784697839085
30
0
41
1
10
31.4687499849939
20
1.45080594653069
30
0
41
1
10
31.6093749827595
20
1.43439085910055
30
0
41
1
10
31.749999988345
20
1.40865566847611
30
0
41
1
10
31.8906250035444
20
1.37363929167435
30
0
41
1
10
32.0781250243779
20
1.3150020508952
30
0
41
1
10
32.2421875272822
20
1.2484098133134
30
0
41
1
10
32.3828124958692
20
1.18110465885187
30
0
41
1
10
32.476562472303
20
1.13358478093403
30
0
41
1
10
32.5937499499491
20
1.06940666058799
30
0
41
1
10
32.7343749729358
20
0.985213975633769
30
0
41
1
10
32.8750000052029
20
0.894413958420301
30
-1E-16
41
1
10
33.0021741556149
20
0.806843353213822
30
1E-16
41
1
10
33.082473300757
20
0.748930250867204
30
0
41
1
10
33.115897448845
20
0.724410780748514
30
1E-16
0
SPLINE
5
FD
100
AcDbEntity
8
1
62
256
6
ByLayer
370
18
48
1
60
0
100
AcDbSpline
70
4
71
3
72
23
73
19
40
0
40
0
40
0
40
0
40
0.0536558138656691
40
0.107311627731338
40
0.160967441597007
40
0.214623255462676
40
0.321934883194015
40
0.375590697059684
40
0.429246510925353
40
0.482902324791022
40
0.536558138656691
40
0.643869766388029
40
0.697525580253699
40
0.751181394119368
40
0.804837207985037
40
0.858493021850706
40
0.965804649582044
40
1
40
1
40
1
40
1
41
1
10
16
20
2.0717828015014
30
0
41
1
10
16.0468749623838
20
2.05317565627257
30
0
41
1
10
16.1406249440481
20
2.01405595430975
30
-1E-16
41
1
10
16.2812499869251
20
1.94978881028834
30
1E-16
41
1
10
16.4218749998632
20
1.88004444292628
30
0
41
1
10
16.6093749993216
20
1.78005726202608
30
0
41
1
10
16.7968750052969
20
1.67000340356387
30
1E-16
41
1
10
16.9843749991476
20
1.55076599357608
30
-1E-16
41
1
10
17.1249999978769
20
1.45701066540406
30
-1E-16
41
1
10
17.2656250093448
20
1.35921914745546
30
-1E-16
41
1
10
17.4531250191429
20
1.22384794088688
30
0
41
1
10
17.6406249869975
20
1.08152923139733
30
-1E-16
41
1
10
17.8281250123213
20
0.933564713352268
30
0
41
1
10
17.9687500319262
20
0.820112497663956
30
-1E-16
41
1
10
18.1093750240463
20
0.704540787006891
30
1E-16
41
1
10
18.2968749927946
20
0.548101199981915
30
0
41
1
10
18.4673738322714
20
0.403253017731004
30
0
41
1
10
18.5909977170201
20
0.297461916348908
30
-1E-16
41
1
10
18.620871595109
20
0.271869727843978
30
-1E-16
0
SPLINE
5
FE
100
AcDbEntity
8
1
62
256
6
ByLayer
370
18
48
1
60
0
100
AcDbSpline
70
4
71
3
72
32
73
28
40
0
40
0
40
0
40
0
40
0.0088559501318635
40
0.0505188120348757
40
0.0921816739378879
40
0.1338445358409
40
0.175507397743912
40
0.217170259646924
40
0.258833121549937
40
0.300495983452949
40
0.342158845355961
40
0.383821707258974
40
0.425484569161986
40
0.467147431064998
40
0.50881029296801
40
0.550473154871022
40
0.592136016774035
40
0.633798878677047
40
0.675461740580059
40
0.717124602483071
40
0.758787464386084
40
0.800450326289095
40
0.842113188192109
40
0.883776050095121
40
0.925438911998133
40
0.967101773901145
40
1
40
1
40
1
40
1
41
1
10
28.3451084395645
20
1.48210207435821
30
0
41
1
10
28.3550722931444
20
1.48490220612911
30
0
41
1
10
28.4119111461011
20
1.5005256760343
30
0
41
1
10
28.5156250002444
20
1.52536308335593
30
0
41
1
10
28.6562500118811
20
1.55069998095473
30
0
41
1
10
28.7968750094785
20
1.56749253939685
30
0
41
1
10
28.9375000000156
20
1.57565027059769
30
0
41
1
10
29.0781249904593
20
1.57507382602742
30
0
41
1
10
29.2187499860461
20
1.56576144681819
30
0
41
1
10
29.3593749920099
20
1.5476940417729
30
0
41
1
10
29.500000000789
20
1.52098901539208
30
0
41
1
10
29.6406250048342
20
1.48575262260869
30
0
41
1
10
29.7812500052881
20
1.44216605667117
30
0
41
1
10
29.9218750032914
20
1.39039621765573
30
0
41
1
10
30.0625000000179
20
1.33076465479468
30
0
41
1
10
30.2031249966371
20
1.26358351241652
30
0
41
1
10
30.3437499951279
20
1.18922371318476
30
0
41
1
10
30.4843749974689
20
1.10804660904674
30
1E-16
41
1
10
30.6250000004332
20
1.02055791915214
30
1E-16
41
1
10
30.7656250007985
20
0.927256800700746
30
0
41
1
10
30.9062500006829
20
0.828699940589274
30
1E-16
41
1
10
31.0468750022032
20
0.725440575544724
30
1E-16
41
1
10
31.1875000011348
20
0.618124216599114
30
1E-16
41
1
10
31.3281249932577
20
0.507393640799421
30
-1E-16
41
1
10
31.4687499849939
20
0.393947392966538
30
0
41
1
10
31.5995138671754
20
0.286584075581885
30
0
41
1
10
31.6834027542759
20
0.217033070534143
30
0
41
1
10
31.7204166407486
20
0.186275908709632
30
0
0
SPLINE
5
FF
100
AcDbEntity
8
1
62
256
6
ByLayer
370
18
48
1
60
0
100
AcDbSpline
70
4
71
3
72
41
73
37
40
0
40
0
40
0
40
0
40
0.019391582019136
40
0.0443995608564155
40
0.0694075396936951
40
0.119423497368254
40
0.144431476205534
40
0.169439455042813
40
0.194447433880093
40
0.219455412717372
40
0.269471370391931
40
0.294479349229211
40
0.319487328066491
40
0.36950328574105
40
0.394511264578329
40
0.419519243415609
40
0.469535201090168
40
0.494543179927448
40
0.519551158764727
40
0.569567116439286
40
0.594575095276566
40
0.619583074113845
40
0.644591052951125
40
0.669599031788404
40
0.694607010625685
40
0.719614989462963
40
0.744622968300243
40
0.769630947137523
40
0.794638925974802
40
0.819646904812082
40
0.869662862486641
40
0.89467084132392
40
0.919678820161199
40
0.969694777835759
40
0.994702756673039
40
1
40
1
40
1
40
1
41
0.999161863067339
10
21.2347050772355
20
1.19915687460085
30
0
41
0.999151217244099
10
21.27105314351
20
1.17367091437905
30
0
41
0.999125652043256
10
21.3542769497542
20
1.11441960260033
30
0
41
0.999085093505534
10
21.4843749961708
20
1.01877320269237
30
1E-16
41
0.999033608023067
10
21.6718750021314
20
0.876474575068985
30
-1E-16
41
0.998981218157863
10
21.8593750003963
20
0.728273520072572
30
1E-16
41
0.998928012331798
10
22.0468749983604
20
0.575787728153908
30
0
41
0.99888129233773
10
22.1874999983475
20
0.459766667130132
30
0
41
0.998834006093264
10
22.3281250015144
20
0.342461746757651
30
1E-16
41
0.998778738376705
10
22.5156250061303
20
0.184864324930369
30
0
41
0.998722776051657
10
22.7031250055641
20
0.0264588293390061
30
-1E-16
41
0.998666206957615
10
22.8906249882683
20
-0.130952758501708
30
1E-16
41
0.998609054495524
10
23.0781249664005
20
-0.287062238823002
30
0
41
0.998551338058626
10
23.2656249475533
20
-0.440322064745761
30
-1E-16
41
0.998493149790528
10
23.4531249514886
20
-0.588862141684652
30
0
41
0.998434511762029
10
23.6406249667926
20
-0.733646331107535
30
-1E-16
41
0.998375441472336
10
23.8281249934053
20
-0.871925028423529
30
0
41
0.99831603283633
10
24.0156250198427
20
-1.0018972471301
30
-1E-16
41
0.998256307166816
10
24.2031250424145
20
-1.12579241059467
30
0
41
0.998196279646411
10
24.3906250535657
20
-1.2397800334379
30
0
41
0.998136045514243
10
24.5781250420402
20
-1.34224327009762
30
0
41
0.998083730443092
10
24.718750028136
20
-1.41292289176621
30
0
41
0.99803130781033
10
24.8593750150615
20
-1.47720532450915
30
-1E-16
41
0.997978808894656
10
25.0000000006005
20
-1.53474619615721
30
0
41
0.997926264523081
10
25.1406249825364
20
-1.58520707498577
30
1E-16
41
0.997873707037416
10
25.281249961961
20
-1.62837028753799
30
0
41
0.997821170047682
10
25.4218749399706
20
-1.66403337249883
30
0
41
0.997768683163519
10
25.5624999259462
20
-1.69199930629011
30
0
41
0.997716276341496
10
25.70312492928
20
-1.71208167205865
30
0
41
0.997655898307316
10
25.8906249510861
20
-1.72835258907183
30
0
41
0.997595682953664
10
26.0781249902323
20
-1.72860255860181
30
0
41
0.997535731782268
10
26.2656250293219
20
-1.7126027610933
30
0
41
0.997476056287041
10
26.4531250628961
20
-1.68592159225862
30
0
41
0.997416675613933
10
26.6406250799799
20
-1.64336542066597
30
0
41
0.99736931626008
10
26.7911774752186
20
-1.59674851164015
30
0
41
0.99735152276513
10
26.8479806252821
20
-1.57732887935318
30
0
41
0.997348419558456
10
26.8579097033826
20
-1.57387878663873
30
0
0
SPLINE
5
100
100
AcDbEntity
8
1
62
256
6
ByLayer
370
18
48
1
60
0
100
AcDbSpline
70
4
71
3
72
9
73
5
40
0
40
0
40
0
40
0
40
0.401449490815386
40
1
40
1
40
1
40
1
41
0.995849417020465
10
32.9508994777038
20
1.17632049408326
30
0
41
0.995847447172661
10
32.9724745060893
20
1.16605446282791
30
0
41
0.995842673810807
10
33.0262173682781
20
1.13975786374645
30
0
41
0.995838235939807
10
33.0799599707864
20
1.11170066663672
30
-1E-16
41
0.995835701449037
10
33.1121276169215
20
1.09430011920129
30
0
0
SPLINE
5
101
100
AcDbEntity
8
1
62
256
6
ByLayer
370
18
48
1
60
0
100
AcDbSpline
70
4
71
3
72
33
73
29
40
0
40
0
40
0
40
0
40
0.0018102162371367
40
0.0343018449981987
40
0.0667934737592605
40
0.131776731281384
40
0.164268360042446
40
0.196759988803509
40
0.22925161756457
40
0.261743246325632
40
0.294234875086695
40
0.326726503847756
40
0.359218132608818
40
0.39170976136988
40
0.424201390130941
40
0.456693018892003
40
0.521676276414127
40
0.554167905175189
40
0.58665953393625
40
0.651642791458375
40
0.684134420219438
40
0.716626048980499
40
0.781609306502623
40
0.846592564024746
40
0.91157582154687
40
0.944067450307932
40
0.976559079068994
40
1
40
1
40
1
40
1
41
1
10
23.8671653144509
20
1.28380741803369
30
0
41
1
10
23.8697768763006
20
1.28335046786464
30
0
41
1
10
23.919263444775
20
1.27463896694974
30
0
41
1
10
24.0156250198452
20
1.25573052579068
30
0
41
1
10
24.2031250424239
20
1.21196311891367
30
0
41
1
10
24.3906250535692
20
1.15801770671925
30
0
41
1
10
24.5781250420333
20
1.09441140261222
30
0
41
1
10
24.7187500281377
20
1.04188597027672
30
0
41
1
10
24.8593750150638
20
0.985012997632822
30
0
41
1
10
25.0000000006
20
0.924050515552835
30
1E-16
41
1
10
25.1406249825359
20
0.859231334795425
30
0
41
1
10
25.2812499619631
20
0.79090469344905
30
0
41
1
10
25.421874939961
20
0.7193906097487
30
1E-16
41
1
10
25.5624999259442
20
0.645032804808466
30
0
41
1
10
25.7031249292976
20
0.568153290614163
30
0
41
1
10
25.8906249510994
20
0.463094601451388
30
0
41
1
10
26.0781249902281
20
0.354449240071631
30
1E-16
41
1
10
26.2656250293261
20
0.243683881296505
30
1E-16
41
1
10
26.4531250629115
20
0.132160310850907
30
-1E-16
41
1
10
26.6406250799898
20
0.0201763436420208
30
0
41
1
10
26.8281250641106
20
-0.0906542119020628
30
0
41
1
10
27.0156250354835
20
-0.200059328091697
30
0
41
1
10
27.2499999930203
20
-0.333200606352762
30
-1E-16
41
1
10
27.5312499864779
20
-0.484182186485469
30
0
41
1
10
27.7656249976602
20
-0.600228486079999
30
0
41
1
10
27.9531250043817
20
-0.685591881067324
30
1E-16
41
1
10
28.0806927373864
20
-0.739927184249296
30
0
41
1
10
28.1613854672473
20
-0.772120905781975
30
0
41
1
10
28.1952031977521
20
-0.785213736700229
30
0
0
SPLINE
5
102
100
AcDbEntity
8
1
62
256
6
ByLayer
370
18
48
1
60
0
100
AcDbSpline
70
4
71
3
72
38
73
34
40
0
40
0
40
0
40
0
40
0.0411465932960882
40
0.0688001386411739
40
0.0964536839862601
40
0.124107229331346
40
0.151760774676432
40
0.179414320021519
40
0.207067865366604
40
0.23472141071169
40
0.262374956056776
40
0.290028501401861
40
0.317682046746948
40
0.37298913743712
40
0.400642682782205
40
0.428296228127291
40
0.483603318817463
40
0.51125686416255
40
0.538910409507635
40
0.594217500197807
40
0.649524590887979
40
0.704831681578151
40
0.732485226923237
40
0.760138772268323
40
0.787792317613409
40
0.815445862958495
40
0.843099408303581
40
0.870752953648667
40
0.898406498993753
40
0.926060044338839
40
0.953713589683925
40
0.981367135029011
40
1
40
1
40
1
40
1
41
0.998248217827457
10
24.2282550918534
20
0.999508725982408
30
0
41
0.998225926683968
10
24.2980031160506
20
0.948413160970036
30
0
41
0.998188568652568
10
24.4146269795228
20
0.860605197739245
30
0
41
0.998136045514243
10
24.5781250420402
20
0.732813745564085
30
1E-16
41
0.998083730443092
10
24.718750028136
20
0.620206647722848
30
1E-16
41
0.99803130781033
10
24.8593750150615
20
0.505358544912586
30
-1E-16
41
0.997978808894656
10
25.0000000006005
20
0.388768560046363
30
0
41
0.997926264523081
10
25.1406249825364
20
0.270944481019936
30
0
41
0.997873707037416
10
25.281249961961
20
0.15243929377768
30
1E-16
41
0.997821170047682
10
25.4218749399706
20
0.0338158701712974
30
-1E-16
41
0.997768683163519
10
25.5624999259462
20
-0.0843875826741642
30
0
41
0.997716276341496
10
25.70312492928
20
-0.201625817958278
30
0
41
0.997655898307316
10
25.8906249510861
20
-0.356046482680144
30
-1E-16
41
0.997595682953664
10
26.0781249902323
20
-0.506436925538504
30
1E-16
41
0.997535731782268
10
26.2656250293219
20
-0.650660653406849
30
0
41
0.997476056287041
10
26.4531250628961
20
-0.790099818076048
30
1E-16
41
0.997416675613933
10
26.6406250799799
20
-0.921379947907518
30
-1E-16
41
0.997357694323007
10
26.8281250641303
20
-1.04249068934079
30
0
41
0.997299122771437
10
27.0156250355065
20
-1.15626463878531
30
0
41
0.997234147883176
10
27.2499999930161
20
-1.28377233536253
30
-1E-16
41
0.997163700054412
10
27.5312499864657
20
-1.40978879756782
30
0
41
0.997100125121829
10
27.7656249976623
20
-1.49014952843459
30
0
41
0.997043936481859
10
27.9531250043797
20
-1.53842385166935
30
1E-16
41
0.996995800643783
10
28.0937500063385
20
-1.56644465527684
30
0
41
0.996948183975351
10
28.2343750032548
20
-1.586185940992
30
0
41
0.996901114419827
10
28.3749999996986
20
-1.59749637064577
30
0
41
0.996854619326869
10
28.5156250002457
20
-1.60024373145696
30
0
41
0.996808728659696
10
28.6562500118808
20
-1.59445582402836
30
0
41
0.996763471950961
10
28.7968750094817
20
-1.5800961446967
30
0
41
0.996718877082279
10
28.9375000000144
20
-1.55723025118505
30
0
41
0.996674972491003
10
29.0781249904604
20
-1.5259326407454
30
0
41
0.996636483071272
10
29.2034586118693
20
-1.49065499780118
30
0
41
0.996612738293727
10
29.2819167240056
20
-1.46478292628149
30
0
41
0.996603237744456
10
29.3135006482456
20
-1.45376734968004
30
0
0
SPLINE
5
103
100
AcDbEntity
8
1
62
256
6
ByLayer
370
18
48
1
60
0
100
AcDbSpline
70
4
71
3
72
10
73
6
40
0
40
0
40
0
40
0
40
0.5
40
0.5
40
1
40
1
40
1
40
1
41
1
10
33.115897448845
20
1.32720351055281
30
0
41
1
10
33.1716212182884
20
1.31336932753857
30
0
41
1
10
33.225621372932
20
1.2936948342309
30
0
41
1
10
33.3297442436338
20
1.24363370759653
30
0
41
1
10
33.3798823468809
20
1.21322718912637
30
0
41
1
10
33.4273331875802
20
1.17787253471101
30
0
0
SPLINE
5
104
100
AcDbEntity
8
1
62
256
6
ByLayer
370
18
48
1
60
0
100
AcDbSpline
70
4
71
3
72
37
73
33
40
0
40
0
40
0
40
0
40
0.0279082566998369
40
0.0572077841243294
40
0.0865073115488218
40
0.115806838973314
40
0.145106366397807
40
0.203705421246792
40
0.233004948671284
40
0.262304476095776
40
0.291604003520269
40
0.320903530944761
40
0.379502585793746
40
0.408802113218238
40
0.438101640642731
40
0.496700695491716
40
0.526000222916208
40
0.555299750340701
40
0.613898805189686
40
0.643198332614178
40
0.67249786003867
40
0.731096914887655
40
0.760396442312148
40
0.78969596973664
40
0.818995497161133
40
0.848295024585625
40
0.877594552010118
40
0.90689407943461
40
0.936193606859103
40
0.965493134283595
40
0.994792661708087
40
1
40
1
40
1
40
1
41
1
10
20.9285524994161
20
1.42939290282888
30
0
41
1
10
20.9732016665114
20
1.42286739819144
30
0
41
1
10
21.0647258315665
20
1.40791259379307
30
0
41
1
10
21.2031249948978
20
1.38048867164028
30
0
41
1
10
21.3437499926573
20
1.34745792778764
30
0
41
1
10
21.4843749961742
20
1.30955256506502
30
0
41
1
10
21.6718750021296
20
1.25305458259712
30
0
41
1
10
21.8593750003981
20
1.18744785214153
30
0
41
1
10
22.0468749983587
20
1.11341302458843
30
-1E-16
41
1
10
22.1874999983466
20
1.05366383828613
30
0
41
1
10
22.3281250015195
20
0.990134302973104
30
0
41
1
10
22.5156250061402
20
0.901081484163143
30
1E-16
41
1
10
22.7031250055691
20
0.805508436328097
30
-1E-16
41
1
10
22.8906249882575
20
0.704415363702992
30
-1E-16
41
1
10
23.0781249663843
20
0.600144075598564
30
-1E-16
41
1
10
23.2656249475488
20
0.491651440206312
30
0
41
1
10
23.4531249514998
20
0.380180374135364
30
0
41
1
10
23.6406249668011
20
0.267292934063505
30
0
41
1
10
23.8281249934026
20
0.152864822305304
30
1E-16
41
1
10
24.0156250198452
20
0.038286109438701
30
-1E-16
41
1
10
24.2031250424239
20
-0.0757905903909091
30
0
41
1
10
24.3906250535692
20
-0.188525021000942
30
0
41
1
10
24.5781250420333
20
-0.298461338000038
30
0
41
1
10
24.7187500281377
20
-0.379149665075516
30
0
41
1
10
24.8593750150638
20
-0.457644634533608
30
0
41
1
10
25.0000000006
20
-0.533577114696868
30
-1E-16
41
1
10
25.1406249825359
20
-0.60656428940149
30
1E-16
41
1
10
25.2812499619631
20
-0.67628816729831
30
0
41
1
10
25.421874939961
20
-0.742391467371533
30
0
41
1
10
25.5624999259442
20
-0.804573131999888
30
0
41
1
10
25.6645809153906
20
-0.846626165762075
30
0
41
1
10
25.7197869067239
20
-0.868347539554492
30
0
41
1
10
25.7281178944524
20
-0.871601960230095
30
0
0
SPLINE
5
105
100
AcDbEntity
8
1
62
256
6
ByLayer
370
18
48
1
60
0
100
AcDbSpline
70
4
71
3
72
41
73
37
40
0
40
0
40
0
40
0
40
0.0255973751723767
40
0.0511947503447535
40
0.0767921255171302
40
0.102389500689507
40
0.15358425103426
40
0.179181626206637
40
0.204779001379014
40
0.230376376551391
40
0.255973751723767
40
0.307168502068521
40
0.332765877240898
40
0.358363252413274
40
0.383960627585651
40
0.409558002758028
40
0.460752753102781
40
0.486350128275158
40
0.511947503447535
40
0.537544878619912
40
0.563142253792288
40
0.614337004137042
40
0.639934379309418
40
0.665531754481795
40
0.716726504826549
40
0.742323879998925
40
0.767921255171302
40
0.793518630343679
40
0.819116005516056
40
0.844713380688432
40
0.870310755860809
40
0.921505506205563
40
0.947102881377939
40
0.972700256550316
40
0.998297631722693
40
1
40
1
40
1
40
1
41
1
10
16.0000000000001
20
0.511123279362607
30
1E-16
41
1
10
16.0468749623426
20
0.47082576907232
30
-2E-16
41
1
10
16.1406249439998
20
0.38989179910439
30
0
41
1
10
16.2812499869348
20
0.267809267293444
30
-2E-16
41
1
10
16.4218749998724
20
0.145399841126903
30
1E-16
41
1
10
16.6093749993163
20
-0.0177949945967555
30
0
41
1
10
16.7968750052943
20
-0.180240142297919
30
0
41
1
10
16.9843749991521
20
-0.340486620111051
30
-1E-16
41
1
10
17.124999997877
20
-0.459188688147293
30
2E-16
41
1
10
17.2656250093399
20
-0.576086347454236
30
0
41
1
10
17.4531250191436
20
-0.729097567656112
30
-1E-16
41
1
10
17.6406249870051
20
-0.8770417620741
30
-2E-16
41
1
10
17.8281250123077
20
-1.01859242291024
30
-1E-16
41
1
10
17.9687500319277
20
-1.12117341140251
30
0
41
1
10
18.1093750240538
20
-1.21988907973773
30
0
41
1
10
18.2968749927885
20
-1.34600842383961
30
0
41
1
10
18.4843749542628
20
-1.46316415439566
30
1E-16
41
1
10
18.6718749771858
20
-1.57027452075928
30
-1E-16
41
1
10
18.8125000022885
20
-1.64523759418808
30
1E-16
41
1
10
18.9531250124352
20
-1.71460547300853
30
0
41
1
10
19.1406250121845
20
-1.79942994702171
30
0
41
1
10
19.3281250005159
20
-1.87221676173266
30
-1E-16
41
1
10
19.5156249959287
20
-1.93211330456842
30
0
41
1
10
19.7031249942101
20
-1.98326168269534
30
0
41
1
10
19.8906249940172
20
-2.02103543435041
30
0
41
1
10
20.0781249897947
20
-2.04494167362822
30
0
41
1
10
20.2187499885932
20
-2.05580700080705
30
0
41
1
10
20.3593749933384
20
-2.05957822976521
30
0
41
1
10
20.5000000002654
20
-2.05624463883493
30
0
41
1
10
20.6406250056002
20
-2.04580889886779
30
0
41
1
10
20.8281250084523
20
-2.02248035374163
30
0
41
1
10
21.015625001706
20
-1.98495736692539
30
0
41
1
10
21.2031249949008
20
-1.93370869944812
30
0
41
1
10
21.3437499926575
20
-1.88850388027839
30
0
41
1
10
21.4406174441307
20
-1.85277582312017
30
0
41
1
10
21.4906098946145
20
-1.83311030375091
30
0
41
1
10
21.4937273437575
20
-1.83187923219145
30
0
0
SPLINE
5
106
100
AcDbEntity
8
1
62
256
6
ByLayer
370
18
48
1
60
0
100
AcDbSpline
70
4
71
3
72
33
73
29
40
0
40
0
40
0
40
0
40
0.0140820426305894
40
0.055009300737052
40
0.0959365588435145
40
0.136863816949977
40
0.177791075056439
40
0.218718333162902
40
0.259645591269364
40
0.300572849375827
40
0.34150010748229
40
0.382427365588752
40
0.423354623695214
40
0.464281881801677
40
0.50520913990814
40
0.546136398014602
40
0.587063656121064
40
0.627990914227527
40
0.668918172333989
40
0.709845430440452
40
0.791699946653377
40
0.812163575706608
40
0.832627204759839
40
0.873554462866302
40
0.914481720972764
40
0.955408979079227
40
0.996336237185689
40
1
40
1
40
1
40
1
41
1
10
29.5922394690885
20
0.633181091374098
30
-1E-16
41
1
10
29.6083679808806
20
0.62032569441206
30
-1E-16
41
1
10
29.6713714935497
20
0.569870184870013
30
-1E-16
41
1
10
29.7812500052873
20
0.480367504480881
30
0
41
1
10
29.9218750032921
20
0.363592146226353
30
0
41
1
10
30.0625000000176
20
0.245251548860864
30
1E-16
41
1
10
30.2031249966376
20
0.126020561033897
30
-1E-16
41
1
10
30.3437499951285
20
0.0065977826478445
30
0
41
1
10
30.4843749974672
20
-0.112305734553274
30
0
41
1
10
30.6250000004333
20
-0.229980298381719
30
1E-16
41
1
10
30.7656250007998
20
-0.345707971293251
30
-1E-16
41
1
10
30.9062500006831
20
-0.458775548735105
30
0
41
1
10
31.0468750022009
20
-0.56846586998671
30
0
41
1
10
31.1875000011348
20
-0.674084019430325
30
0
41
1
10
31.32812499326
20
-0.774931929878591
30
0
41
1
10
31.4687499849937
20
-0.870370858482033
30
0
41
1
10
31.6093749827605
20
-0.959767498021392
30
0
41
1
10
31.7499999883471
20
-1.04248574962168
30
0
41
1
10
31.8906250035352
20
-1.11789283697482
30
0
41
1
10
32.0781250243592
20
-1.20810261920227
30
1E-16
41
1
10
32.2421875272697
20
-1.27256977026789
30
0
41
1
10
32.3828124958801
20
-1.31632455633439
30
0
41
1
10
32.4765624723207
20
-1.34236204879073
30
0
41
1
10
32.5937499499487
20
-1.36900090380141
30
0
41
1
10
32.7343749729164
20
-1.39118679329116
30
0
41
1
10
32.8750000052034
20
-1.40339463307129
30
0
41
1
10
32.9729462040248
20
-1.40483705005832
30
0
41
1
10
33.0240174004973
20
-1.40356705896605
30
0
41
1
10
33.0282135984351
20
-1.40344905279628
30
0
0
SPLINE
5
107
100
AcDbEntity
8
1
62
256
6
ByLayer
370
18
48
1
60
0
100
AcDbSpline
70
4
71
3
72
29
73
25
40
0
40
0
40
0
40
0
40
0.0046259765108696
40
0.0819875923560786
40
0.120668400278683
40
0.159349208201287
40
0.236710824046497
40
0.275391631969102
40
0.314072439891706
40
0.391434055736915
40
0.468795671582124
40
0.546157287427333
40
0.584838095349938
40
0.623518903272542
40
0.662199711195147
40
0.700880519117752
40
0.739561327040356
40
0.77824213496296
40
0.816922942885565
40
0.855603750808169
40
0.894284558730775
40
0.932965366653379
40
0.971646174575984
40
1
40
1
40
1
40
1
41
1
10
25.8269320967091
20
1.60079467354561
30
0
41
1
10
25.8325380468131
20
1.60241211103511
30
0
41
1
10
25.9318940103847
20
1.63075581636562
30
0
41
1
10
26.0781249902303
20
1.66401924945146
30
0
41
1
10
26.2656250293238
20
1.69052221077698
30
0
41
1
10
26.4531250629031
20
1.7061983555177
30
0
41
1
10
26.6406250799844
20
1.70551402384521
30
0
41
1
10
26.8281250641212
20
1.6882319345676
30
0
41
1
10
27.015625035496
20
1.66004651972005
30
0
41
1
10
27.249999993018
20
1.60468725650591
30
0
41
1
10
27.5312499864713
20
1.50676863776016
30
0
41
1
10
27.7656249976613
20
1.40060121892043
30
0
41
1
10
27.9531250043806
20
1.30197934339856
30
-1E-16
41
1
10
28.0937500063387
20
1.2215778497073
30
0
41
1
10
28.2343750032534
20
1.13520215946895
30
0
41
1
10
28.3749999996988
20
1.04327797937464
30
0
41
1
10
28.5156250002444
20
0.946226368105499
30
0
41
1
10
28.6562500118811
20
0.844605513041586
30
0
41
1
10
28.7968750094785
20
0.738928739299098
30
0
41
1
10
28.9375000000156
20
0.629765018070884
30
1E-16
41
1
10
29.0781249904593
20
0.517681491124932
30
-1E-16
41
1
10
29.2187499860461
20
0.403297454478576
30
-1E-16
41
1
10
29.3468603277319
20
0.297564425780024
30
0
41
1
10
29.4280956688391
20
0.230001762067644
30
0
41
1
10
29.4624560069017
20
0.201374577996574
30
0
0
SPLINE
5
108
100
AcDbEntity
8
1
62
256
6
ByLayer
370
18
48
1
60
0
100
AcDbSpline
70
4
71
3
72
22
73
18
40
0
40
0
40
0
40
0
40
0.0568561279903696
40
0.113712255980739
40
0.170568383971109
40
0.227424511961479
40
0.341136767942218
40
0.397992895932587
40
0.454849023922957
40
0.511705151913327
40
0.568561279903696
40
0.682273535884436
40
0.739129663874805
40
0.795985791865175
40
0.852841919855544
40
0.909698047845914
40
1
40
1
40
1
40
1
41
1
10
16.0000000000001
20
-1.96303345801181
30
-1E-16
41
1
10
16.0468749623426
20
-1.98193517741512
30
0
41
1
10
16.1406249439998
20
-2.0178029265754
30
1E-16
41
1
10
16.2812499869348
20
-2.06562164594385
30
0
41
1
10
16.4218749998724
20
-2.1072398774192
30
1E-16
41
1
10
16.6093749993163
20
-2.15433376296312
30
1E-16
41
1
10
16.7968750052943
20
-2.18863414809778
30
0
41
1
10
16.9843749991521
20
-2.20971358258612
30
0
41
1
10
17.124999997877
20
-2.21887078498574
30
0
41
1
10
17.2656250093399
20
-2.22137455659612
30
0
41
1
10
17.4531250191436
20
-2.21579733518897
30
0
41
1
10
17.6406249870051
20
-2.1967372263253
30
0
41
1
10
17.8281250123077
20
-2.16438846510599
30
0
41
1
10
17.9687500319277
20
-2.13355022054424
30
0
41
1
10
18.1093750240538
20
-2.09622947361936
30
0
41
1
10
18.2775743853134
20
-2.04395584143884
30
0
41
1
10
18.3988987503363
20
-1.99921778818143
30
0
41
1
10
18.4733481346852
20
-1.96923626054746
30
0
0
SPLINE
5
109
100
AcDbEntity
8
1
62
256
6
ByLayer
370
18
48
1
60
0
100
AcDbSpline
70
4
71
3
72
38
73
34
40
0
40
0
40
0
40
0
40
0.0262379168011909
40
0.0890204256869035
40
0.151802934572616
40
0.183194189015472
40
0.214585443458329
40
0.245976697901185
40
0.277367952344041
40
0.308759206786897
40
0.340150461229753
40
0.37154171567261
40
0.402932970115466
40
0.434324224558322
40
0.465715479001179
40
0.497106733444035
40
0.528497987886891
40
0.559889242329747
40
0.591280496772604
40
0.62267175121546
40
0.654063005658316
40
0.685454260101172
40
0.716845514544028
40
0.748236768986885
40
0.779628023429741
40
0.811019277872597
40
0.842410532315454
40
0.87380178675831
40
0.905193041201166
40
0.936584295644023
40
0.967975550086879
40
0.999366804529735
40
1
40
1
40
1
40
1
41
1
10
27.1324606845378
20
0.709106792463075
30
0
41
1
10
27.1716404556533
20
0.677874005615649
30
0
41
1
10
27.3045702147056
20
0.570718671260693
30
1E-16
41
1
10
27.531249986465
20
0.382106887334544
30
0
41
1
10
27.7656249976624
20
0.182584142825021
30
0
41
1
10
27.9531250043796
20
0.0226976360800109
30
-1E-16
41
1
10
28.0937500063385
20
-0.0966826081672139
30
0
41
1
10
28.234375003255
20
-0.214987651334212
30
1E-16
41
1
10
28.3749999996986
20
-0.331604189369216
30
1E-16
41
1
10
28.5156250002458
20
-0.445913182684024
30
-1E-16
41
1
10
28.6562500118808
20
-0.557311876498119
30
0
41
1
10
28.7968750094821
20
-0.665177300893191
30
0
41
1
10
28.9375000000143
20
-0.768929324148246
30
0
41
1
10
29.0781249904605
20
-0.867986173735289
30
0
41
1
10
29.2187499860477
20
-0.961786696571011
30
0
41
1
10
29.3593749920058
20
-1.04977591069689
30
0
41
1
10
29.5000000007897
20
-1.13147075659566
30
0
41
1
10
29.6406250048354
20
-1.20639129919661
30
-1E-16
41
1
10
29.7812500052873
20
-1.27406814816607
30
0
41
1
10
29.9218750032921
20
-1.33404609520818
30
0
41
1
10
30.0625000000176
20
-1.38599236225087
30
0
41
1
10
30.2031249966376
20
-1.42958223833833
30
0
41
1
10
30.3437499951285
20
-1.46450383519868
30
0
41
1
10
30.4843749974672
20
-1.49046661715633
30
0
41
1
10
30.6250000004333
20
-1.50731724032553
30
0
41
1
10
30.7656250007998
20
-1.5149148804428
30
0
41
1
10
30.9062500006831
20
-1.51316741810513
30
0
41
1
10
31.0468750022009
20
-1.50200966871196
30
0
41
1
10
31.1875000011348
20
-1.48148223089976
30
0
41
1
10
31.32812499326
20
-1.45164175455363
30
0
41
1
10
31.4687499849937
20
-1.41265988536369
30
0
41
1
10
31.5634455028135
20
-1.38039012067466
30
0
41
1
10
31.6112660227342
20
-1.36258530408287
30
0
41
1
10
31.6122115420702
20
-1.36223267326983
30
0
0
SPLINE
5
10A
100
AcDbEntity
8
1
62
256
6
ByLayer
370
18
48
1
60
0
100
AcDbSpline
70
4
71
3
72
31
73
27
40
0
40
0
40
0
40
0
40
0.0454607142923448
40
0.0809799593220981
40
0.116499204351851
40
0.187537694411358
40
0.223056939441111
40
0.258576184470865
40
0.329614674530371
40
0.365133919560124
40
0.400653164589878
40
0.436172409619631
40
0.471691654649385
40
0.507210899679139
40
0.542730144708891
40
0.578249389738645
40
0.613768634768398
40
0.649287879798151
40
0.684807124827904
40
0.755845614887411
40
0.791364859917164
40
0.826884104946916
40
0.897922595006424
40
0.933441840036178
40
0.96896108506593
40
1
40
1
40
1
40
1
41
1
10
23.1325154787116
20
1.73215559737625
30
0
41
1
10
23.1925103006598
20
1.74965448291417
30
0
41
1
10
23.2993801206493
20
1.77737021060281
30
0
41
1
10
23.4531249514938
20
1.80805135765053
30
0
41
1
10
23.6406249667965
20
1.83550840500234
30
0
41
1
10
23.8281249934041
20
1.84782924710882
30
0
41
1
10
24.0156250198438
20
1.84460688754248
30
0
41
1
10
24.2031250424188
20
1.83107117347336
30
0
41
1
10
24.3906250535672
20
1.80209895678709
30
0
41
1
10
24.5781250420371
20
1.75777625253193
30
0
41
1
10
24.7187500281368
20
1.71696296679724
30
0
41
1
10
24.8593750150626
20
1.66882470385664
30
0
41
1
10
25.0000000006003
20
1.61353228744446
30
0
41
1
10
25.1406249825361
20
1.55124972338584
30
0
41
1
10
25.2812499619619
20
1.48230273642963
30
0
41
1
10
25.4218749399661
20
1.4070091066661
30
0
41
1
10
25.5624999259453
20
1.32569710104582
30
0
41
1
10
25.7031249292881
20
1.23868897766627
30
0
41
1
10
25.8906249510923
20
1.11573621489771
30
1E-16
41
1
10
26.0781249902303
20
0.98307406873252
30
-1E-16
41
1
10
26.2656250293238
20
0.842402478638235
30
0
41
1
10
26.4531250629031
20
0.697133604421253
30
-1E-16
41
1
10
26.6406250799844
20
0.545954343221354
30
1E-16
41
1
10
26.8281250641212
20
0.390952614565379
30
0
41
1
10
26.9628373200988
20
0.278342355638159
30
-1E-16
41
1
10
27.050674581665
20
0.204477676319243
30
-1E-16
41
1
10
27.0916368516498
20
0.169999391981918
30
-1E-16
0
SPLINE
5
10B
100
AcDbEntity
8
1
62
256
6
ByLayer
370
18
48
1
60
0
100
AcDbSpline
70
4
71
3
72
41
73
37
40
0
40
0
40
0
40
0
40
0.0176428381498391
40
0.0424881612822096
40
0.06733348441458
40
0.117024130679321
40
0.141869453811691
40
0.166714776944062
40
0.191560100076433
40
0.216405423208803
40
0.266096069473544
40
0.290941392605914
40
0.315786715738285
40
0.365477362003026
40
0.390322685135396
40
0.415168008267767
40
0.464858654532508
40
0.489703977664878
40
0.514549300797249
40
0.56423994706199
40
0.58908527019436
40
0.613930593326731
40
0.638775916459101
40
0.663621239591472
40
0.688466562723843
40
0.713311885856213
40
0.738157208988583
40
0.763002532120953
40
0.787847855253324
40
0.812693178385695
40
0.862383824650435
40
0.887229147782805
40
0.912074470915176
40
0.961765117179918
40
0.986610440312289
40
1
40
1
40
1
40
1
41
1
10
21.2438911960058
20
1.19248857235456
30
0
41
1
10
21.2771774615076
20
1.16842738761505
30
0
41
1
10
21.3573387268507
20
1.10970202679593
30
0
41
1
10
21.4843749961706
20
1.01381484923181
30
1E-16
41
1
10
21.6718750021315
20
0.867852259046259
30
0
41
1
10
21.8593750003962
20
0.716072406663471
30
1E-16
41
1
10
22.0468749983605
20
0.560131367028816
30
0
41
1
10
22.1874999983475
20
0.441615266048643
30
1E-16
41
1
10
22.3281250015141
20
0.321893994271249
30
-1E-16
41
1
10
22.5156250061298
20
0.161151897518124
30
1E-16
41
1
10
22.7031250055638
20
-0.000211410433451
30
0
41
1
10
22.8906249882689
20
-0.160359026912801
30
-1E-16
41
1
10
23.0781249664014
20
-0.319053938750329
30
1E-16
41
1
10
23.2656249475535
20
-0.474653381712784
30
0
41
1
10
23.453124951488
20
-0.625257572869998
30
-1E-16
41
1
10
23.6406249667921
20
-0.77192446080727
30
0
41
1
10
23.8281249934054
20
-0.911792816634659
30
-1E-16
41
1
10
24.0156250198425
20
-1.04303893805823
30
0
41
1
10
24.2031250424139
20
-1.16800457921886
30
1E-16
41
1
10
24.3906250535655
20
-1.28273690695559
30
-1E-16
41
1
10
24.5781250420407
20
-1.38560468315714
30
-1E-16
41
1
10
24.7187500281358
20
-1.45641275339292
30
1E-16
41
1
10
24.8593750150614
20
-1.52065951591433
30
0
41
1
10
25.0000000006006
20
-1.57799909066847
30
0
41
1
10
25.1406249825364
20
-1.62809254213369
30
0
41
1
10
25.2812499619608
20
-1.67072336963042
30
0
41
1
10
25.4218749399711
20
-1.70569327557652
30
0
41
1
10
25.5624999259463
20
-1.73280641287641
30
0
41
1
10
25.7031249292789
20
-1.7518796069462
30
0
41
1
10
25.8906249510854
20
-1.76659936227611
30
0
41
1
10
26.0781249902325
20
-1.76499129416342
30
0
41
1
10
26.2656250293217
20
-1.74684675868497
30
0
41
1
10
26.4531250628952
20
-1.71784913360614
30
0
41
1
10
26.6406250799794
20
-1.67271788694134
30
0
41
1
10
26.8065117865251
20
-1.61887352730858
30
0
41
1
10
26.8786484972126
20
-1.5924666420118
30
0
41
1
10
26.9039102140359
20
-1.58285820989678
30
0
0
SPLINE
5
10C
100
AcDbEntity
8
1
62
256
6
ByLayer
370
18
48
1
60
0
100
AcDbSpline
70
4
71
3
72
14
73
10
40
0
40
0
40
0
40
0
40
0.25
40
0.25
40
0.5
40
0.5
40
0.75
40
0.75
40
1
40
1
40
1
40
1
41
1
10
33.0282135984332
20
1.15677873877127
30
0
41
1
10
32.9898301914099
20
1.18460991832595
30
0
41
1
10
32.9519490515328
20
1.2108015555564
30
0
41
1
10
32.8766908972012
20
1.25983373993259
30
0
41
1
10
32.839316187196
20
1.28267376933297
30
0
41
1
10
32.764671730474
20
1.32482346931476
30
0
41
1
10
32.7273924369859
20
1.34413879861572
30
0
41
1
10
32.6526176991927
20
1.37893305514243
30
0
41
1
10
32.6155127923125
20
1.39423081195684
30
0
41
1
10
32.5785039343642
20
1.40736442812008
30
0
0
SPLINE
5
10D
100
AcDbEntity
8
1
62
256
6
ByLayer
370
18
48
1
60
0
100
AcDbSpline
70
4
71
3
72
38
73
34
40
0
40
0
40
0
40
0
40
0.0375026534051884
40
0.0650678240602117
40
0.092632994715235
40
0.120198165370258
40
0.147763336025281
40
0.175328506680306
40
0.202893677335328
40
0.230458847990351
40
0.258024018645374
40
0.285589189300397
40
0.313154359955421
40
0.368284701265468
40
0.395849871920491
40
0.423415042575513
40
0.478545383885561
40
0.506110554540585
40
0.533675725195607
40
0.588806066505654
40
0.6439364078157
40
0.699066749125747
40
0.72663191978077
40
0.754197090435794
40
0.781762261090817
40
0.80932743174584
40
0.836892602400863
40
0.864457773055887
40
0.89202294371091
40
0.919588114365933
40
0.947153285020957
40
0.97471845567598
40
1
40
1
40
1
40
1
41
1
10
24.246178513142
20
0.986043004862807
30
0
41
1
10
24.3099523610699
20
0.937867141784551
30
0
41
1
10
24.4206012082606
20
0.852259389235115
30
0
41
1
10
24.5781250420407
20
0.726137867673316
30
1E-16
41
1
10
24.7187500281358
20
0.610921030935174
30
-1E-16
41
1
10
24.8593750150614
20
0.493514737370276
30
0
41
1
10
25.0000000006006
20
0.374427160263565
30
0
41
1
10
25.1406249825364
20
0.254177066872899
30
1E-16
41
1
10
25.2812499619608
20
0.133325767360873
30
-1E-16
41
1
10
25.4218749399711
20
0.0124467255105856
30
0
41
1
10
25.5624999259463
20
-0.107913757990872
30
0
41
1
10
25.7031249292789
20
-0.227200653983459
30
1E-16
41
1
10
25.8906249510854
20
-0.384234181415081
30
0
41
1
10
26.0781249902325
20
-0.536986629808837
30
-1E-16
41
1
10
26.2656250293217
20
-0.683287011625367
30
0
41
1
10
26.4531250628952
20
-0.824615213249785
30
-1E-16
41
1
10
26.6406250799794
20
-0.957477832729012
30
0
41
1
10
26.8281250641314
20
-1.07983813715228
30
1E-16
41
1
10
27.0156250355078
20
-1.19464695082263
30
-1E-16
41
1
10
27.2499999930159
20
-1.32303408837063
30
0
41
1
10
27.531249986465
20
-1.4493848239772
30
0
41
1
10
27.7656249976624
20
-1.52940614711042
30
0
41
1
10
27.9531250043796
20
-1.57704471854001
30
0
41
1
10
28.0937500063385
20
-1.60441583320838
30
0
41
1
10
28.234375003255
20
-1.62333695692925
30
0
41
1
10
28.3749999996986
20
-1.6336571135395
30
0
41
1
10
28.5156250002458
20
-1.63524880012346
30
0
41
1
10
28.6562500118808
20
-1.62814504009518
30
0
41
1
10
28.7968750094821
20
-1.61231442975475
30
0
41
1
10
28.9375000000143
20
-1.58782802975278
30
0
41
1
10
29.0781249904605
20
-1.55476794822155
30
0
41
1
10
29.2148666441941
20
-1.51443282115483
30
0
41
1
10
29.3047333057517
20
-1.48287741900765
30
0
41
1
10
29.3477249659501
20
-1.46666107679238
30
0
0
SPLINE
5
10E
100
AcDbEntity
8
1
62
256
6
ByLayer
370
18
48
1
60
0
100
AcDbSpline
70
4
71
3
72
32
73
28
40
0
40
0
40
0
40
0
40
0.0040936796256039
40
0.0373086981619875
40
0.0705237166983712
40
0.103738735234755
40
0.136953753771139
40
0.203383790843906
40
0.23659880938029
40
0.269813827916674
40
0.303028846453057
40
0.336243864989441
40
0.402673902062208
40
0.435888920598592
40
0.469103939134976
40
0.50231895767136
40
0.535533976207743
40
0.601964013280511
40
0.635179031816894
40
0.668394050353278
40
0.734824087426046
40
0.768039105962429
40
0.801254124498813
40
0.86768416157158
40
0.900899180107964
40
0.934114198644348
40
1
40
1
40
1
40
1
41
1
10
20.2014182604893
20
1.86753702547361
30
0
41
1
10
20.2071955035066
20
1.86928200070326
30
0
41
1
10
20.2598477470067
20
1.88503164155557
30
0
41
1
10
20.3593749933402
20
1.91214989538722
30
0
41
1
10
20.500000000265
20
1.94367172892908
30
0
41
1
10
20.6406250055996
20
1.96827204800562
30
0
41
1
10
20.8281250084528
20
1.9918011586006
30
0
41
1
10
21.0156250017073
20
2.00104816602655
30
0
41
1
10
21.2031249948993
20
1.99600506083561
30
0
41
1
10
21.3437499926574
20
1.98496274319672
30
0
41
1
10
21.4843749961723
20
1.96669839505333
30
0
41
1
10
21.6718750021306
20
1.93293213834272
30
0
41
1
10
21.8593750003971
20
1.88502062897527
30
0
41
1
10
22.0468749983596
20
1.82336698097458
30
-1E-16
41
1
10
22.1874999983471
20
1.77036155018379
30
0
41
1
10
22.3281250015167
20
1.71082926166929
30
0
41
1
10
22.5156250061349
20
1.6231722851698
30
0
41
1
10
22.7031250055664
20
1.52339795773523
30
0
41
1
10
22.8906249882633
20
1.41244239058261
30
0
41
1
10
23.0781249663929
20
1.29452868583772
30
1E-16
41
1
10
23.2656249475511
20
1.16681886390211
30
-1E-16
41
1
10
23.4531249514938
20
1.03068163962496
30
0
41
1
10
23.6406249667965
20
0.889536832577562
30
-1E-16
41
1
10
23.8281249934041
20
0.741677084654839
30
0
41
1
10
24.0156250198438
20
0.588801958058582
30
0
41
1
10
24.2023569846716
20
0.433914504862344
30
1E-16
41
1
10
24.3422139353791
20
0.315638197671092
30
0
41
1
10
24.4351958758779
20
0.236633624453248
30
0
0
SPLINE
5
10F
100
AcDbEntity
8
1
62
256
6
ByLayer
370
18
48
1
60
0
100
AcDbSpline
70
4
71
3
72
10
73
6
40
0
40
0
40
0
40
0
40
0.0046782808925613
40
0.585701939257077
40
1
40
1
40
1
40
1
41
1
10
32.8738677167972
20
1.27563935088148
30
0
41
1
10
32.8742451445319
20
1.27574184189297
30
0
41
1
10
32.9214975778614
20
1.28856059456342
30
0
41
1
10
33.0021741556149
20
1.30772912854906
30
0
41
1
10
33.082473300757
20
1.32207204335117
30
0
41
1
10
33.115897448845
20
1.32720351055281
30
0
0
SPLINE
5
110
100
AcDbEntity
8
1
62
256
6
ByLayer
370
18
48
1
60
0
100
AcDbSpline
70
4
71
3
72
14
73
10
40
0
40
0
40
0
40
0
40
0.215552697078922
40
0.215552697078922
40
0.411664522809209
40
0.411664522809209
40
0.607776348539495
40
0.607776348539495
40
1
40
1
40
1
40
1
41
1
10
32.7727912634251
20
1.33213743689237
30
0
41
1
10
32.7972475522602
20
1.33719745082681
30
0
41
1
10
32.8217178287703
20
1.34116725342562
30
0
41
1
10
32.8685772153227
20
1.3465933948678
30
0
41
1
10
32.8909552226054
20
1.34824146055928
30
-1E-16
41
1
10
32.9359081690153
20
1.34956589323687
30
0
41
1
10
32.9585361777634
20
1.34923497794284
30
0
41
1
10
33.0261168607376
20
1.3451557435713
30
0
41
1
10
33.0709488649657
20
1.33836259607963
30
0
41
1
10
33.115897448845
20
1.32720351055281
30
0
0
SPLINE
5
111
100
AcDbEntity
8
1
62
256
6
ByLayer
370
18
48
1
60
0
100
AcDbSpline
70
4
71
3
72
68
73
64
40
0
40
0
40
0
40
0
40
0.0289555113994647
40
0.0289555113994647
40
0.046232039370318
40
0.046232039370318
40
0.0548703033557431
40
0.0548703033557431
40
0.0635085673411683
40
0.0635085673411683
40
0.132614679224581
40
0.132614679224581
40
0.167167735166288
40
0.167167735166288
40
0.175805999151716
40
0.175805999151716
40
0.184444263137144
40
0.184444263137144
40
0.201720791108004
40
0.201720791108004
40
0.270826902991442
40
0.270826902991442
40
0.305379958933161
40
0.305379958933161
40
0.314018222918591
40
0.314018222918591
40
0.322656486904022
40
0.339933014874882
40
0.339933014874882
40
0.409039126758336
40
0.409039126758336
40
0.443592182700064
40
0.443592182700064
40
0.478145238641792
40
0.478145238641792
40
0.547251350525249
40
0.547251350525249
40
0.581804406466978
40
0.581804406466978
40
0.616357462408707
40
0.616357462408707
40
0.685463574292163
40
0.685463574292163
40
0.720016630233892
40
0.720016630233892
40
0.728654894219323
40
0.728654894219323
40
0.737293158204755
40
0.754569686175618
40
0.754569686175618
40
0.823675798059067
40
0.823675798059067
40
0.858228854000791
40
0.858228854000791
40
0.875505381971653
40
0.875505381971653
40
0.892781909942515
40
0.892781909942515
40
0.961888021825966
40
0.961888021825966
40
0.99644107776769
40
0.99644107776769
40
1
40
1
40
1
40
1
41
1
10
29.4216530585822
20
-1.49149651167087
30
0
41
1
10
29.3493886759707
20
-1.52324508538882
30
0
41
1
10
29.2770477645921
20
-1.55180767870223
30
0
41
1
10
29.1610855762781
20
-1.59211848648695
30
0
41
1
10
29.1176493689155
20
-1.60600095659126
30
0
41
1
10
29.0522721425276
20
-1.6250007819645
30
0
41
1
10
29.0304164257761
20
-1.63103644343846
30
0
41
1
10
28.9868028217303
20
-1.64244351358138
30
0
41
1
10
28.9650347698183
20
-1.64781872191628
30
0
41
1
10
28.7694169622763
20
-1.69325935870566
30
0
41
1
10
28.5976091148818
20
-1.71286906684926
30
0
41
1
10
28.3388491082944
20
-1.71169024766459
30
0
41
1
10
28.2524170731747
20
-1.70618221206436
30
0
41
1
10
28.1437403653247
20
-1.69283056184767
30
0
41
1
10
28.121973180771
20
-1.6898365023219
30
0
41
1
10
28.0783643186878
20
-1.68319758052235
30
0
41
1
10
28.0565295363908
20
-1.67955285169873
30
0
41
1
10
27.9912164044821
20
-1.66770039315079
30
0
41
1
10
27.9478255360414
20
-1.65855920053181
30
0
41
1
10
27.7314217196882
20
-1.60682419321023
30
0
41
1
10
27.5599835123853
20
-1.54624636667685
30
0
41
1
10
27.3013726696766
20
-1.42896581198417
30
0
41
1
10
27.2149180443857
20
-1.38546260569876
30
-1E-16
41
1
10
27.1061159779265
20
-1.32572421441668
30
0
41
1
10
27.0843070411549
20
-1.31350051221264
30
0
41
1
10
27.0408088600393
20
-1.28863690607739
30
-1E-16
41
1
10
26.9756696344305
20
-1.2506781829548
30
0
41
1
10
26.9108030925765
20
-1.21078876181929
30
0
41
1
10
26.6949999854713
20
-1.0737475322413
30
1E-16
41
1
10
26.5236764234492
20
-0.95113459304946
30
0
41
1
10
26.265029828429
20
-0.751284743767684
30
0
41
1
10
26.1785231646551
20
-0.681976396793146
30
0
41
1
10
26.0044023751003
20
-0.538626423395556
30
-1E-16
41
1
10
25.9179516231079
20
-0.465537809642484
30
0
41
1
10
25.6595132562448
20
-0.24310606625906
30
-1E-16
41
1
10
25.4883316101796
20
-0.0907268015475324
30
0
41
1
10
25.2299258496208
20
0.140239623643311
30
-1E-16
41
1
10
25.1434823389134
20
0.217668478521944
30
-1E-16
41
1
10
24.9695695702074
20
0.372489641417758
30
0
41
1
10
24.8831858555318
20
0.448903192446323
30
1E-16
41
1
10
24.6248760246473
20
0.674339197186981
30
0
41
1
10
24.4538443878724
20
0.819626611013945
30
1E-16
41
1
10
24.195595211564
20
1.02651873344172
30
0
41
1
10
24.1092355489237
20
1.09364680904625
30
1E-16
41
1
10
24.000605300774
20
1.17488854296056
30
-1E-16
41
1
10
23.9788446329627
20
1.19100330036559
30
1E-16
41
1
10
23.9354342796353
20
1.22281804213293
30
0
41
1
10
23.8704146217063
20
1.26997155252454
30
-1E-16
41
1
10
23.8056356797904
20
1.31539712580508
30
0
41
1
10
23.5900808274317
20
1.46290496235764
30
-1E-16
41
1
10
23.4188480936369
20
1.56844784040499
30
1E-16
41
1
10
23.160691565925
20
1.70607733061308
30
0
41
1
10
23.0744248576038
20
1.74850065032592
30
0
41
1
10
22.9443246288167
20
1.80663687461592
30
0
41
1
10
22.9007524023123
20
1.82513254743878
30
1E-16
41
1
10
22.8139127609106
20
1.8599923310118
30
0
41
1
10
22.7706166089285
20
1.87637304787998
30
0
41
1
10
22.55457102982
20
1.95304644147052
30
0
41
1
10
22.3831759899566
20
1.99771480978762
30
0
41
1
10
22.1252061988513
20
2.03951405054696
30
0
41
1
10
22.0390940959327
20
2.04924139432515
30
0
41
1
10
21.943742221558
20
2.05523902507176
30
0
41
1
10
21.9348343421722
20
2.0557535477478
30
0
41
1
10
21.9259223175404
20
2.0562224109764
30
0
0
SPLINE
5
112
100
AcDbEntity
8
1
62
256
6
ByLayer
370
18
48
1
60
0
100
AcDbSpline
70
4
71
3
72
8
73
4
40
0
40
0
40
0
40
0
40
1
40
1
40
1
40
1
41
1
10
15.1869418454559
20
-2.16057809528243
30
0
41
1
10
15.1664188836169
20
-2.16941398551552
30
0
41
1
10
15.1460379399731
20
-2.17816027830239
30
0
41
1
10
15.1257962957597
20
-2.18680515570887
30
0
0
SPLINE
5
113
100
AcDbEntity
8
1
62
256
6
ByLayer
370
18
48
1
60
0
100
AcDbSpline
70
4
71
3
72
34
73
30
40
0
40
0
40
0
40
0
40
0.125000000000006
40
0.125000000000006
40
0.250000000000013
40
0.250000000000013
40
0.375000000000019
40
0.375000000000019
40
0.406250000000021
40
0.406250000000021
40
0.437500000000022
40
0.437500000000022
40
0.500000000000021
40
0.500000000000021
40
0.625000000000015
40
0.625000000000015
40
0.656250000000013
40
0.656250000000013
40
0.687500000000011
40
0.687500000000011
40
0.750000000000008
40
0.750000000000008
40
0.875000000000004
40
0.875000000000004
40
0.937500000000002
40
0.937500000000002
40
0.968750000000001
40
0.968750000000001
40
1
40
1
40
1
40
1
41
1
10
15.1257962957598
20
-2.18680515570887
30
0
41
1
10
15.0543897355976
20
-2.21730173751382
30
0
41
1
10
14.9858275361916
20
-2.24626412178179
30
0
41
1
10
14.8544684330498
20
-2.30014786941084
30
-1E-16
41
1
10
14.7916250942868
20
-2.32506717546886
30
0
41
1
10
14.6722490640096
20
-2.36975765879103
30
0
41
1
10
14.6158146812025
20
-2.3895528522045
30
0
41
1
10
14.5497509113249
20
-2.41007815947711
30
0
41
1
10
14.5367639493541
20
-2.41397095092017
30
0
41
1
10
14.5112588196711
20
-2.42129961341516
30
0
41
1
10
14.4987547954121
20
-2.42473048590816
30
0
41
1
10
14.4622841801396
20
-2.43420928162368
30
0
41
1
10
14.439249907812
20
-2.43947602466523
30
0
41
1
10
14.3739898052815
20
-2.45188690985816
30
0
41
1
10
14.3356092252115
20
-2.45565354173257
30
0
41
1
10
14.2938449956008
20
-2.45379159886033
30
0
41
1
10
14.2858029288493
20
-2.45308971540976
30
0
41
1
10
14.2703394209254
20
-2.45099883533575
30
0
41
1
10
14.2629067779793
20
-2.44960698318963
30
0
41
1
10
14.2416201868955
20
-2.4443739340162
30
0
41
1
10
14.2288702411192
20
-2.43950547290064
30
0
41
1
10
14.1947326836385
20
-2.42071563986929
30
0
41
1
10
14.1773992804164
20
-2.40262991075574
30
0
41
1
10
14.159542506889
20
-2.36668721576143
30
0
41
1
10
14.1549621739426
20
-2.35323269945738
30
0
41
1
10
14.1502987859682
20
-2.33072707853916
30
0
41
1
10
14.1491133431275
20
-2.32282683864364
30
0
41
1
10
14.1475269228015
20
-2.30633167313971
30
0
41
1
10
14.1471230975714
20
-2.29772816178806
30
1E-16
41
1
10
14.1471230964555
20
-2.28876681884068
30
0
0
SPLINE
5
114
100
AcDbEntity
8
1
62
256
6
ByLayer
370
18
48
1
60
0
100
AcDbSpline
70
4
71
3
72
14
73
10
40
0
40
0
40
0
40
0
40
0.25
40
0.25
40
0.5
40
0.5
40
0.75
40
0.75
40
1
40
1
40
1
40
1
41
1
10
15.1897904938743
20
-2.15899948539843
30
0
41
1
10
15.262563377885
20
-2.17508423839581
30
0
41
1
10
15.3344331528429
20
-2.19058331786212
30
0
41
1
10
15.4757781245215
20
-2.2203365765013
30
0
41
1
10
15.5452306536589
20
-2.2346163896743
30
0
41
1
10
15.6802852595955
20
-2.26201207056792
30
0
41
1
10
15.7459206300385
20
-2.27508083275689
30
0
41
1
10
15.8743137479661
20
-2.29867472661036
30
-1E-16
41
1
10
15.9371212449529
20
-2.30914685231159
30
0
41
1
10
16
20
-2.31754327916815
30
0
0
SPLINE
5
115
100
AcDbEntity
8
1
62
256
6
ByLayer
370
18
48
1
60
0
100
AcDbSpline
70
4
71
3
72
10
73
6
40
0
40
0
40
0
40
0
40
0.96993296819701
40
0.96993296819701
40
1
40
1
40
1
40
1
41
1
10
15.9999999999994
20
-2.31754327916818
30
0
41
1
10
16.1735886369102
20
-2.34035336950097
30
0
41
1
10
16.3459418420993
20
-2.34767746046887
30
0
41
1
10
16.5239292031347
20
-2.33931538139373
30
0
41
1
10
16.5292810228389
20
-2.33904909757766
30
0
41
1
10
16.5346331572782
20
-2.33876794339642
30
0
0
SPLINE
5
116
100
AcDbEntity
8
1
62
256
6
ByLayer
370
18
48
1
60
0
100
AcDbSpline
70
4
71
3
72
70
73
66
40
0
40
0
40
0
40
0
40
0.0157219084948836
40
0.0157219084948836
40
0.0335472204205126
40
0.0335472204205126
40
0.104848468123028
40
0.104848468123028
40
0.140499091974287
40
0.140499091974287
40
0.158324403899916
40
0.158324403899916
40
0.176149715825545
40
0.176149715825545
40
0.247450963528065
40
0.247450963528065
40
0.318752211230586
40
0.318752211230586
40
0.336577523156216
40
0.336577523156216
40
0.354402835081846
40
0.390053458933104
40
0.390053458933104
40
0.461354706635621
40
0.461354706635621
40
0.470267362598435
40
0.470267362598435
40
0.479180018561249
40
0.479180018561249
40
0.497005330486874
40
0.497005330486874
40
0.532655954338124
40
0.532655954338124
40
0.603957202040624
40
0.603957202040624
40
0.612869858003436
40
0.612869858003436
40
0.621782513966249
40
0.621782513966249
40
0.639607825891871
40
0.639607825891871
40
0.675258449743111
40
0.675258449743111
40
0.746559697445589
40
0.746559697445589
40
0.755472353408397
40
0.755472353408397
40
0.764385009371205
40
0.764385009371205
40
0.782210321296821
40
0.782210321296821
40
0.817860945148054
40
0.817860945148054
40
0.889162192850519
40
0.889162192850519
40
0.898074848813326
40
0.898074848813326
40
0.906987504776135
40
0.924812816701751
40
0.924812816701751
40
0.960463440552983
40
0.960463440552983
40
0.996114064404215
40
0.996114064404215
40
1
40
1
40
1
40
1
41
1
10
22.998372090414
20
1.7865416431728
30
0
41
1
10
23.036566679561
20
1.80013942980707
30
0
41
1
10
23.0748502665484
20
1.81296236477962
30
0
41
1
10
23.1567801570471
20
1.83861805248409
30
0
41
1
10
23.2002449646698
20
1.85115332807445
30
0
41
1
10
23.4167765306526
20
1.90817292731702
30
0
41
1
10
23.5881092915153
20
1.93594469768553
30
0
41
1
10
23.8454367539356
20
1.95053882144344
30
0
41
1
10
23.9312598200307
20
1.95088229919656
30
0
41
1
10
24.0604779068013
20
1.94446399317704
30
0
41
1
10
24.1036322009596
20
1.94116818444183
30
0
41
1
10
24.1901727884404
20
1.93222852957479
30
0
41
1
10
24.2335877701203
20
1.92658011475373
30
0
41
1
10
24.4511295835391
20
1.89240684547403
30
0
41
1
10
24.6226722179852
20
1.84680154887707
30
0
41
1
10
24.9654116562342
20
1.72153119023716
30
0
41
1
10
25.1365791543287
20
1.64185251199015
30
0
41
1
10
25.3533411438921
20
1.52164785223005
30
0
41
1
10
25.3969264832742
20
1.49651705825136
30
0
41
1
10
25.4836947773987
20
1.44466682762146
30
-1E-16
41
1
10
25.6134419405405
20
1.36440922590899
30
-1E-16
41
1
10
25.7423196927436
20
1.27707421694203
30
-1E-16
41
1
10
25.9998204014512
20
1.09383696179825
30
1E-16
41
1
10
26.1711095958188
20
0.960258331541468
30
0
41
1
10
26.3661536885968
20
0.799320053647563
30
-1E-16
41
1
10
26.387858339075
20
0.781289686486502
30
-1E-16
41
1
10
26.4313440955212
20
0.744939152313748
30
0
41
1
10
26.4531523971814
20
0.726595918831521
30
1E-16
41
1
10
26.5184707107998
20
0.671343944926122
30
0
41
1
10
26.561864437212
20
0.634222964165531
30
1E-16
41
1
10
26.6917130757726
20
0.522141769594299
30
1E-16
41
1
10
26.7778320346534
20
0.44645991836984
30
1E-16
41
1
10
27.0358241285165
20
0.217634236831202
30
-1E-16
41
1
10
27.2073118505911
20
0.0626937482164465
30
1E-16
41
1
10
27.402539601573
20
-0.111132043019353
30
0
41
1
10
27.4242641600642
20
-0.130438797275957
30
1E-16
41
1
10
27.4677897478409
20
-0.169025598210908
30
0
41
1
10
27.4896141176641
20
-0.188326206445652
30
0
41
1
10
27.5550499284474
20
-0.246019861546444
30
-1E-16
41
1
10
27.5985138040226
20
-0.284107817923626
30
0
41
1
10
27.7285581027264
20
-0.3971244382235
30
0
41
1
10
27.8147914112245
20
-0.47080760447804
30
0
41
1
10
28.0730966972084
20
-0.68588832561403
30
1E-16
41
1
10
28.244773432097
20
-0.821347010355879
30
-1E-16
41
1
10
28.440388927758
20
-0.961370361611188
30
0
41
1
10
28.4621588137388
20
-0.976755670067035
30
1E-16
41
1
10
28.505780434422
20
-1.00716593438591
30
-1E-16
41
1
10
28.5276529348515
20
-1.02220448366163
30
0
41
1
10
28.5930840084207
20
-1.06653704341824
30
1E-16
41
1
10
28.6365465178109
20
-1.09511259478447
30
-1E-16
41
1
10
28.7665975047907
20
-1.17783404600212
30
1E-16
41
1
10
28.8528504728084
20
-1.22897785217458
30
0
41
1
10
29.1113240564135
20
-1.36975486695849
30
0
41
1
10
29.2832347729096
20
-1.44681547884426
30
-1E-16
41
1
10
29.4794912932728
20
-1.51173722104946
30
0
41
1
10
29.501366262759
20
-1.51865501428173
30
0
41
1
10
29.5450585141054
20
-1.53182416361784
30
0
41
1
10
29.6104683037586
20
-1.55056834538678
30
0
41
1
10
29.6755503657357
20
-1.56629132326344
30
0
41
1
10
29.8054242962447
20
-1.59371684473643
30
0
41
1
10
29.8916194124465
20
-1.60664557714458
30
0
41
1
10
30.0639798702679
20
-1.6217181661012
30
0
41
1
10
30.1501420838163
20
-1.62386245277932
30
0
41
1
10
30.2461058713992
20
-1.62012278495771
30
0
41
1
10
30.2555422880313
20
-1.61968962116643
30
0
41
1
10
30.2649836328322
20
-1.61919060370016
30
0
0
SPLINE
5
117
100
AcDbEntity
8
1
62
256
6
ByLayer
370
18
48
1
60
0
100
AcDbSpline
70
4
71
3
72
69
73
65
40
0
40
0
40
0
40
0
40
0.0036813775762055
40
0.0036813775762055
40
0.0222742686112765
40
0.0222742686112765
40
0.096645832751557
40
0.096645832751557
40
0.115238723786625
40
0.115238723786625
40
0.124535169304157
40
0.124535169304157
40
0.133831614821689
40
0.171017396891818
40
0.171017396891818
40
0.245388961032078
40
0.245388961032078
40
0.254685406549611
40
0.254685406549611
40
0.263981852067143
40
0.282574743102207
40
0.282574743102207
40
0.319760525172339
40
0.319760525172339
40
0.356946307242471
40
0.356946307242471
40
0.375539198277537
40
0.375539198277537
40
0.384835643795072
40
0.384835643795072
40
0.394132089312607
40
0.394132089312607
40
0.468503653452887
40
0.468503653452887
40
0.505689435523029
40
0.505689435523029
40
0.514985881040562
40
0.514985881040562
40
0.524282326558095
40
0.524282326558095
40
0.542875217593161
40
0.542875217593161
40
0.617246781733418
40
0.617246781733418
40
0.654432563803547
40
0.654432563803547
40
0.66372900932108
40
0.66372900932108
40
0.673025454838613
40
0.691618345873675
40
0.691618345873675
40
0.765989910013936
40
0.765989910013936
40
0.803175692084064
40
0.803175692084064
40
0.840361474154193
40
0.840361474154193
40
0.914733038294452
40
0.914733038294452
40
0.95191882036458
40
0.95191882036458
40
0.989104602434709
40
0.989104602434709
40
1
40
1
40
1
40
1
41
1
10
31.696556372293
20
-1.3828068881526
30
0
41
1
10
31.6879241872881
20
-1.38662916936059
30
0
41
1
10
31.6792963354786
20
-1.39039966166538
30
0
41
1
10
31.6271571095543
20
-1.41288143709809
30
0
41
1
10
31.5837878257963
20
-1.43030376444926
30
0
41
1
10
31.3674302835473
20
-1.51071432969437
30
0
41
1
10
31.1958842612621
20
-1.55370481272669
30
0
41
1
10
30.9792926288748
20
-1.57996211372608
30
0
41
1
10
30.9358670649845
20
-1.58383268667669
30
0
41
1
10
30.8704891134953
20
-1.58753074916442
30
0
41
1
10
30.8486330868103
20
-1.58841197185603
30
0
41
1
10
30.8050396587677
20
-1.58946181151404
30
0
41
1
10
30.6962555276676
20
-1.59031236578761
30
0
41
1
10
30.588297327672
20
-1.58242222205857
30
0
41
1
10
30.329578416833
20
-1.54734525864364
30
0
41
1
10
30.1576069486036
20
-1.50252243784462
30
0
41
1
10
29.9612808817296
20
-1.42871955315582
30
0
41
1
10
29.9394255728413
20
-1.42019134758996
30
0
41
1
10
29.8958468713275
20
-1.40257712457424
30
0
41
1
10
29.8305925477638
20
-1.37528798494736
30
0
41
1
10
29.7656226606232
20
-1.34545586160104
30
0
41
1
10
29.6359188746254
20
-1.28254427365815
30
-1E-16
41
1
10
29.5497637234944
20
-1.23627749311004
30
0
41
1
10
29.3773471598865
20
-1.13574033419155
30
0
41
1
10
29.2910878874839
20
-1.08146829760904
30
1E-16
41
1
10
29.1610855762781
20
-0.994441807358811
30
1E-16
41
1
10
29.1176493689154
20
-0.964495511660232
30
0
41
1
10
29.0522721425276
20
-0.918212038881933
30
-1E-16
41
1
10
29.0304164257761
20
-0.902537653387441
30
-1E-16
41
1
10
28.9868028217303
20
-0.870875065885485
30
0
41
1
10
28.9650347698182
20
-0.854880208044477
30
0
41
1
10
28.7694169622763
20
-0.709519985782123
30
1E-16
41
1
10
28.5976091148819
20
-0.570367825094365
30
0
41
1
10
28.3388491082944
20
-0.351450461791245
30
-1E-16
41
1
10
28.2524170731747
20
-0.276778153778935
30
0
41
1
10
28.1437403653246
20
-0.181734156289735
30
0
41
1
10
28.1219731807709
20
-0.162640038996045
30
-1E-16
41
1
10
28.0783643186879
20
-0.124291649025423
30
1E-16
41
1
10
28.0565295363908
20
-0.105043477888358
30
0
41
1
10
27.9912164044821
20
-0.0473535167255079
30
1E-16
41
1
10
27.9478255360414
20
-0.0088731086365499
30
0
41
1
10
27.7314217196882
20
0.183408557986667
30
0
41
1
10
27.5599835123853
20
0.336770659413446
30
1E-16
41
1
10
27.3013726696766
20
0.561694378145944
30
0
41
1
10
27.2149180443857
20
0.635804361857396
30
1E-16
41
1
10
27.1061159779265
20
0.726881744898691
30
1E-16
41
1
10
27.0843070411549
20
0.745029258438421
30
0
41
1
10
27.0408088600392
20
0.780989953356737
30
-1E-16
41
1
10
26.9756696344305
20
0.834490440123972
30
0
41
1
10
26.9108030925764
20
0.886633643157268
30
-1E-16
41
1
10
26.6949999854713
20
1.05729691559301
30
0
41
1
10
26.5236764234492
20
1.18378032282084
30
-1E-16
41
1
10
26.2650298284289
20
1.35529260118943
30
-1E-16
41
1
10
26.1785231646551
20
1.40943834101861
30
0
41
1
10
26.0044023751003
20
1.51093125071907
30
0
41
1
10
25.9179516231079
20
1.557607477479
30
0
41
1
10
25.6595132562447
20
1.68527426142435
30
0
41
1
10
25.4883316101796
20
1.75390293016028
30
0
41
1
10
25.2299258496207
20
1.83076223096708
30
0
41
1
10
25.1434823389133
20
1.85202753562399
30
0
41
1
10
24.9695695702073
20
1.88539868298858
30
0
41
1
10
24.8831858555318
20
1.89730005688253
30
0
41
1
10
24.7718544031241
20
1.90666730314661
30
0
41
1
10
24.7466514438741
20
1.90839097610024
30
0
41
1
10
24.7214664396392
20
1.90971684367255
30
0
0
SPLINE
5
118
100
AcDbEntity
8
1
62
256
6
ByLayer
370
18
48
1
60
0
100
AcDbSpline
70
4
71
3
72
24
73
20
40
0
40
0
40
0
40
0
40
0.0811639923134277
40
0.0811639923134277
40
0.132210437184904
40
0.132210437184904
40
0.18325688205638
40
0.18325688205638
40
0.387442661542284
40
0.387442661542284
40
0.591628441028188
40
0.591628441028188
40
0.642674885899666
40
0.642674885899666
40
0.693721330771145
40
0.693721330771145
40
0.795814220514096
40
0.795814220514096
40
1
40
1
40
1
40
1
41
1
10
18.5309527335229
20
-1.98705540182013
30
1E-16
41
1
10
18.4621366609158
20
-2.01836592708841
30
0
41
1
10
18.3933415336159
20
-2.04748929403118
30
0
41
1
10
18.2811325878038
20
-2.09127442114283
30
0
41
1
10
18.2377367697559
20
-2.10730447235196
30
1E-16
41
1
10
18.1509806140256
20
-2.13750073720325
30
0
41
1
10
18.1077198723979
20
-2.15163382313315
30
0
41
1
10
17.8918694591595
20
-2.21750494392015
30
0
41
1
10
17.7207106414446
20
-2.25491758233286
30
0
41
1
10
17.3781961759438
20
-2.2992424317315
30
0
41
1
10
17.2068120914181
20
-2.30616151658356
30
0
41
1
10
16.9905631157073
20
-2.29521777717127
30
0
41
1
10
16.9471960264135
20
-2.29204098844499
30
0
41
1
10
16.8607617034007
20
-2.28376624027337
30
0
41
1
10
16.8176246909289
20
-2.27866649115757
30
0
41
1
10
16.6883778451653
20
-2.26052374358076
30
0
41
1
10
16.6024364088206
20
-2.24463800842079
30
0
41
1
10
16.3447187013638
20
-2.1858722105608
30
0
41
1
10
16.1730150312151
20
-2.13193154792478
30
1E-16
41
1
10
16.0000000000001
20
-2.06353658660652
30
-1E-16
0
SPLINE
5
119
100
AcDbEntity
8
1
62
256
6
ByLayer
370
18
48
1
60
0
100
AcDbSpline
70
4
71
3
72
39
73
35
40
0
40
0
40
0
40
0
40
0.140065844545156
40
0.140065844545156
40
0.210098766817735
40
0.210098766817735
40
0.227606997385879
40
0.227606997385879
40
0.245115227954023
40
0.245115227954023
40
0.280131689090312
40
0.280131689090312
40
0.420197533635459
40
0.420197533635459
40
0.560263378180606
40
0.560263378180606
40
0.57777160874875
40
0.57777160874875
40
0.595279839316893
40
0.595279839316893
40
0.63029630045318
40
0.700329222725753
40
0.700329222725753
40
0.8403950672709
40
0.8403950672709
40
0.910427989543475
40
0.910427989543475
40
0.927936220111618
40
0.927936220111618
40
0.945444450679761
40
0.945444450679761
40
0.980460911816044
40
0.980460911816044
40
1
40
1
40
1
40
1
41
1
10
15.9999999999994
20
-0.25938248558424
30
2E-16
41
1
10
16.1735886369102
20
-0.413747639997865
30
1E-16
41
1
10
16.3459418420993
20
-0.564332270899314
30
0
41
1
10
16.6048955561852
20
-0.782148583170141
30
1E-16
41
1
10
16.6912831995172
20
-0.853409068665201
30
-2E-16
41
1
10
16.799599756218
20
-0.940527522163933
30
0
41
1
10
16.8212796860749
20
-0.957853285261507
30
0
41
1
10
16.8646789575762
20
-0.992301788952915
30
1E-16
41
1
10
16.8864084370225
20
-1.00943229974041
30
1E-16
41
1
10
16.9514662866335
20
-1.06035307539995
30
-2E-16
41
1
10
16.9947239306644
20
-1.09372050063243
30
-1E-16
41
1
10
17.2105663226396
20
-1.2575760137542
30
1E-16
41
1
10
17.3818203357754
20
-1.37913943285383
30
-1E-16
41
1
10
17.7246018968994
20
-1.60075213641949
30
0
41
1
10
17.8961026574606
20
-1.70082508631862
30
0
41
1
10
18.0910128310011
20
-1.79947212397056
30
0
41
1
10
18.112697101476
20
-1.81023873648473
30
0
41
1
10
18.1561276053284
20
-1.83137601512095
30
1E-16
41
1
10
18.1778884466531
20
-1.84175316379179
30
1E-16
41
1
10
18.2430268648562
20
-1.87216577355434
30
-1E-16
41
1
10
18.3729368111237
20
-1.93022202162979
30
1E-16
41
1
10
18.501986377999
20
-1.97995007534078
30
0
41
1
10
18.759572536695
20
-2.06815480333594
30
0
41
1
10
18.930607182207
20
-2.11199155587903
30
0
41
1
10
19.1885819358359
20
-2.15417656009211
30
0
41
1
10
19.2748126002357
20
-2.1643012193957
30
0
41
1
10
19.3831734044438
20
-2.17184860196488
30
0
41
1
10
19.4048741834637
20
-2.17310246078503
30
0
41
1
10
19.4483404993203
20
-2.17509331857966
30
0
41
1
10
19.4701217799326
20
-2.17583022470265
30
0
41
1
10
19.5353172703404
20
-2.17725366032119
30
0
41
1
10
19.5786554471333
20
-2.17715785542447
30
0
41
1
10
19.6460239107508
20
-2.17540173088636
30
0
41
1
10
19.6701214852638
20
-2.17445252907695
30
0
41
1
10
19.6941933420924
20
-2.17318435688969
30
0
0
SPLINE
5
11A
100
AcDbEntity
8
1
62
256
6
ByLayer
370
18
48
1
60
0
100
AcDbSpline
70
4
71
3
72
72
73
68
40
0
40
0
40
0
40
0
40
0.0181707078512786
40
0.0181707078512786
40
0.0950021817543127
40
0.0950021817543127
40
0.104606115992192
40
0.104606115992192
40
0.114210050230072
40
0.114210050230072
40
0.133417918705829
40
0.133417918705829
40
0.171833655657338
40
0.171833655657338
40
0.248665129560357
40
0.248665129560357
40
0.258269063798234
40
0.258269063798234
40
0.267872998036111
40
0.267872998036111
40
0.287080866511863
40
0.287080866511863
40
0.325496603463365
40
0.325496603463365
40
0.402328077366371
40
0.402328077366371
40
0.411932011604246
40
0.411932011604246
40
0.421535945842121
40
0.421535945842121
40
0.44074381431787
40
0.44074381431787
40
0.479159551269366
40
0.479159551269366
40
0.555991025172355
40
0.555991025172355
40
0.565594959410227
40
0.565594959410227
40
0.5751988936481
40
0.594406762123845
40
0.594406762123845
40
0.632822499075333
40
0.632822499075333
40
0.67123823602682
40
0.67123823602682
40
0.690446104502566
40
0.700050038740438
40
0.700050038740438
40
0.709653972978311
40
0.709653972978311
40
0.786485446881303
40
0.786485446881303
40
0.824901183832797
40
0.824901183832797
40
0.844109052308544
40
0.844109052308544
40
0.863316920784291
40
0.863316920784291
40
0.901732657735786
40
0.901732657735786
40
0.94014839468728
40
0.94014839468728
40
0.959356263163029
40
0.959356263163029
40
0.978564131638778
40
0.978564131638778
40
1
40
1
40
1
40
1
41
1
10
25.7062660873224
20
1.66390695459304
30
0
41
1
10
25.7469354164214
20
1.67825940382451
30
0
41
1
10
25.7875538402988
20
1.69159691784387
30
0
41
1
10
25.9998204014512
20
1.75597940198489
30
0
41
1
10
26.1711095958188
20
1.78982720232941
30
0
41
1
10
26.3661536885967
20
1.8058919971987
30
0
41
1
10
26.387858339075
20
1.80736982488494
30
0
41
1
10
26.4313440955212
20
1.80970348385014
30
0
41
1
10
26.4531523971814
20
1.8105597456412
30
0
41
1
10
26.5184707107998
20
1.81217845189877
30
0
41
1
10
26.5618644372119
20
1.81199493786613
30
0
41
1
10
26.6917130757726
20
1.80771539426107
30
0
41
1
10
26.7778320346534
20
1.79989425484021
30
0
41
1
10
27.0358241285165
20
1.76184477992942
30
0
41
1
10
27.2073118505911
20
1.7170955226544
30
0
41
1
10
27.402539601573
20
1.64505088105335
30
0
41
1
10
27.4242641600642
20
1.63674324766384
30
1E-16
41
1
10
27.4677897478408
20
1.61952090873066
30
0
41
1
10
27.489614117664
20
1.61059626851827
30
0
41
1
10
27.5550499284473
20
1.58298042781857
30
0
41
1
10
27.5985138040226
20
1.563497024659
30
0
41
1
10
27.7285581027264
20
1.50195196969438
30
0
41
1
10
27.8147914112245
20
1.45679911058795
30
0
41
1
10
28.0730966972083
20
1.3097975931914
30
0
41
1
10
28.244773432097
20
1.19645718011628
30
1E-16
41
1
10
28.440388927758
20
1.05353079021867
30
0
41
1
10
28.4621588137388
20
1.03743507724161
30
0
41
1
10
28.505780434422
20
1.00481919441069
30
1E-16
41
1
10
28.5276529348515
20
0.988282827883523
30
-1E-16
41
1
10
28.5930840084206
20
0.938297912007897
30
0
41
1
10
28.6365465178108
20
0.904407723325221
30
1E-16
41
1
10
28.7665975047907
20
0.80119431863298
30
-1E-16
41
1
10
28.8528504728083
20
0.730330762479497
30
1E-16
41
1
10
29.1113240564135
20
0.512737666779827
30
-1E-16
41
1
10
29.2832347729096
20
0.361003155200251
30
0
41
1
10
29.4794912932728
20
0.186115183569115
30
0
41
1
10
29.501366262759
20
0.166599655107035
30
1E-16
41
1
10
29.5450585141054
20
0.12759918743086
30
-1E-16
41
1
10
29.6104683037585
20
0.0691822945863976
30
1E-16
41
1
10
29.6755503657357
20
0.0110779895471751
30
0
41
1
10
29.8054242962447
20
-0.104556735305408
30
0
41
1
10
29.8916194124465
20
-0.180883242207727
30
0
41
1
10
30.0639798702679
20
-0.33118663356592
30
1E-16
41
1
10
30.1501420838163
20
-0.405166998013641
30
1E-16
41
1
10
30.2799397549709
20
-0.5137102165356
30
1E-16
41
1
10
30.3449777764012
20
-0.567373916730475
30
0
41
1
10
30.4103371485403
20
-0.619991888793805
30
-1E-16
41
1
10
30.453995099245
20
-0.6548217313306
30
0
41
1
10
30.4758933754138
20
-0.672133009587327
30
0
41
1
10
30.6724262346922
20
-0.825964860937603
30
-1E-16
41
1
10
30.8443878408626
20
-0.949715082191233
30
0
41
1
10
31.1030681834537
20
-1.11194014977278
30
-1E-16
41
1
10
31.1894154622789
20
-1.16210208667792
30
1E-16
41
1
10
31.3197435721693
20
-1.23082446844876
30
0
41
1
10
31.363352449611
20
-1.25265821522507
30
0
41
1
10
31.4508258080006
20
-1.29395883790443
30
0
41
1
10
31.4943724616435
20
-1.31327738928258
30
0
41
1
10
31.624610901434
20
-1.36721412922239
30
0
41
1
10
31.7109051593263
20
-1.39781720925828
30
1E-16
41
1
10
31.883279812368
20
-1.44806567733326
30
0
41
1
10
31.9693583488817
20
-1.46771137040753
30
0
41
1
10
32.0989708446569
20
-1.48862183382431
30
0
41
1
10
32.1422576652972
20
-1.49416412131652
30
0
41
1
10
32.2291104869079
20
-1.50231564050085
30
0
41
1
10
32.2727138319038
20
-1.50492581475794
30
0
41
1
10
32.3652274945305
20
-1.50724287807066
30
0
41
1
10
32.4139438608021
20
-1.5065773051156
30
0
41
1
10
32.4626667639304
20
-1.50401674784112
30
0
0
SPLINE
5
11B
100
AcDbEntity
8
1
62
256
6
ByLayer
370
18
48
1
60
0
100
AcDbSpline
70
4
71
3
72
58
73
54
40
0
40
0
40
0
40
0
40
0.0493315610380438
40
0.0493315610380438
40
0.0986631220760876
40
0.0986631220760876
40
0.147994683114131
40
0.147994683114131
40
0.160327573373642
40
0.160327573373642
40
0.172660463633153
40
0.172660463633153
40
0.197326244152175
40
0.197326244152175
40
0.295989366228276
40
0.295989366228276
40
0.320655146747301
40
0.320655146747301
40
0.332988037006816
40
0.332988037006816
40
0.345320927266331
40
0.39465248830439
40
0.39465248830439
40
0.493315610380508
40
0.493315610380508
40
0.505648500640022
40
0.505648500640022
40
0.517981390899536
40
0.542647171418569
40
0.542647171418569
40
0.59197873245663
40
0.59197873245663
40
0.641310293494692
40
0.641310293494692
40
0.66597607401372
40
0.66597607401372
40
0.678308964273237
40
0.678308964273237
40
0.690641854532753
40
0.690641854532753
40
0.789304976608902
40
0.789304976608902
40
0.838636537646974
40
0.838636537646974
40
0.850969427906492
40
0.850969427906492
40
0.86330231816601
40
0.86330231816601
40
0.887968098685047
40
0.887968098685047
40
0.986631220761191
40
0.986631220761191
40
1
40
1
40
1
40
1
41
1
10
32.5785039343644
20
-1.44011184953032
30
0
41
1
10
32.4913220447783
20
-1.42309336790166
30
0
41
1
10
32.4048550901563
20
-1.40032592587488
30
0
41
1
10
32.2324769069423
20
-1.34408685400481
30
0
41
1
10
32.146552919739
20
-1.31062019030679
30
0
41
1
10
31.9744010282774
20
-1.23355072917531
30
0
41
1
10
31.8881708564285
20
-1.18994708878029
30
0
41
1
10
31.7796095062246
20
-1.12938947396992
30
0
41
1
10
31.7578590318945
20
-1.11697453895792
30
0
41
1
10
31.714268203805
20
-1.09154224727746
30
-1E-16
41
1
10
31.6924399902078
20
-1.07853105799083
30
1E-16
41
1
10
31.6271571095543
20
-1.03882386287253
30
0
41
1
10
31.5837878257963
20
-1.011387627425
30
-1E-16
41
1
10
31.3674302835473
20
-0.869701815057056
30
0
41
1
10
31.1958842612621
20
-0.742028020105693
30
0
41
1
10
30.9792926288748
20
-0.568648810060068
30
0
41
1
10
30.9358670649845
20
-0.533278771260115
30
-1E-16
41
1
10
30.8704891134952
20
-0.479249527436394
30
0
41
1
10
30.8486330868103
20
-0.461057473810541
30
0
41
1
10
30.8050396587677
20
-0.424537183842176
30
1E-16
41
1
10
30.6962555276676
20
-0.33281631601983
30
-1E-16
41
1
10
30.588297327672
20
-0.239198441601758
30
-1E-16
41
1
10
30.329578416833
20
-0.0122761782059513
30
0
41
1
10
30.1576069486036
20
0.14198196219553
30
-1E-16
41
1
10
29.9612808817297
20
0.315000775964989
30
-1E-16
41
1
10
29.9394255728413
20
0.334218713716268
30
1E-16
41
1
10
29.8958468713275
20
0.372429486816429
30
0
41
1
10
29.8305925477638
20
0.429482513383618
30
1E-16
41
1
10
29.7656226606233
20
0.485695504484795
30
0
41
1
10
29.6359188746255
20
0.596869094790492
30
-1E-16
41
1
10
29.5497637234945
20
0.669316087809705
30
0
41
1
10
29.3773471598865
20
0.810151874926277
30
1E-16
41
1
10
29.2910878874839
20
0.878542881644421
30
-1E-16
41
1
10
29.1610855762781
20
0.977519649705329
30
-1E-16
41
1
10
29.1176493689154
20
1.0099099483885
30
1E-16
41
1
10
29.0522721425276
20
1.05751453305612
30
0
41
1
10
29.0304164257761
20
1.07323749751845
30
-1E-16
41
1
10
28.9868028217304
20
1.10421312290933
30
1E-16
41
1
10
28.9650347698183
20
1.1194736970352
30
0
41
1
10
28.7694169622763
20
1.25475189179494
30
-1E-16
41
1
10
28.5976091148819
20
1.3603623648516
30
-1E-16
41
1
10
28.3388491082944
20
1.49448191691573
30
1E-16
41
1
10
28.2524170731747
20
1.53512390568554
30
0
41
1
10
28.1437403653246
20
1.58051267634383
30
0
41
1
10
28.1219731807709
20
1.58931943029071
30
1E-16
41
1
10
28.0783643186878
20
1.60638111690685
30
0
41
1
10
28.0565295363908
20
1.61463241206721
30
0
41
1
10
27.991216404482
20
1.6384343103276
30
0
41
1
10
27.9478255360414
20
1.65307531780854
30
0
41
1
10
27.7314217196882
20
1.72017691587357
30
0
41
1
10
27.5599835123852
20
1.75438208060805
30
0
41
1
10
27.3642152334198
20
1.77083164068023
30
0
41
1
10
27.3408357486274
20
1.77243147775218
30
0
41
1
10
27.317431142068
20
1.7736659387491
30
0
0
SPLINE
5
11C
100
AcDbEntity
8
1
62
256
6
ByLayer
370
18
48
1
60
0
100
AcDbSpline
70
4
71
3
72
51
73
47
40
0
40
0
40
0
40
0
40
0.0234375029298584
40
0.0234375029298584
40
0.0699404789808143
40
0.0699404789808143
40
0.162946431082727
40
0.162946431082727
40
0.174572175095466
40
0.174572175095466
40
0.186197919108205
40
0.209449407133684
40
0.209449407133684
40
0.255952383184643
40
0.255952383184643
40
0.348958335286559
40
0.348958335286559
40
0.372209823312039
40
0.372209823312039
40
0.395461311337519
40
0.395461311337519
40
0.441964287388478
40
0.441964287388478
40
0.488467263439437
40
0.488467263439437
40
0.511718751464917
40
0.511718751464917
40
0.534970239490397
40
0.534970239490397
40
0.581473215541356
40
0.581473215541356
40
0.604724703566836
40
0.604724703566836
40
0.627976191592315
40
0.627976191592315
40
0.720982143694234
40
0.720982143694234
40
0.813988095796153
40
0.813988095796153
40
0.837239583821633
40
0.837239583821633
40
0.860491071847113
40
0.860491071847113
40
0.906994047898075
40
0.906994047898075
40
1
40
1
40
1
40
1
41
1
10
21.5635898596429
20
-1.84785943753082
30
0
41
1
10
21.5200778185098
20
-1.8675055215119
30
0
41
1
10
21.4766453589846
20
-1.88617684634462
30
0
41
1
10
21.3471711314902
20
-1.9389735490293
30
0
41
1
10
21.2612692685675
20
-1.97023128049943
30
0
41
1
10
21.0036316747161
20
-2.05235641900293
30
0
41
1
10
20.8318804515391
20
-2.09156480783997
30
0
41
1
10
20.6364422569531
20
-2.11716901843249
30
0
41
1
10
20.6146745509808
20
-2.11975831873175
30
0
41
1
10
20.5712125548033
20
-2.12440281962546
30
0
41
1
10
20.506110265753
20
-2.13057265481822
30
0
41
1
10
20.4412565438036
20
-2.13437166646506
30
0
41
1
10
20.3117944867856
20
-2.13885276449403
30
0
41
1
10
20.2258073187507
20
-2.13768747027913
30
0
41
1
10
19.9681751573841
20
-2.1219909321577
30
0
41
1
10
19.7969156093152
20
-2.09527457257579
30
0
41
1
10
19.5812223225232
20
-2.04189052245417
30
0
41
1
10
19.5380043595978
20
-2.03021120607516
30
0
41
1
10
19.451355268439
20
-2.00484413330338
30
0
41
1
10
19.4078673525171
20
-1.99113592128796
30
0
41
1
10
19.277657147127
20
-1.94723006201932
30
-1E-16
41
1
10
19.1910545731082
20
-1.91422235048921
30
0
41
1
10
19.0178460116066
20
-1.84101597678477
30
1E-16
41
1
10
18.9312345013782
20
-1.8008199943452
30
0
41
1
10
18.800968121509
20
-1.73532612176223
30
1E-16
41
1
10
18.7575229065867
20
-1.71264184691444
30
0
41
1
10
18.6707986864856
20
-1.66573271051288
30
-1E-16
41
1
10
18.6274853266668
20
-1.64148839240033
30
1E-16
41
1
10
18.4976096190143
20
-1.56645628849566
30
-1E-16
41
1
10
18.4111041971966
20
-1.51337661313798
30
0
41
1
10
18.2811325878038
20
-1.42943227138377
30
0
41
1
10
18.237736769756
20
-1.40070517358495
30
0
41
1
10
18.1509806140256
20
-1.34195804728867
30
0
41
1
10
18.1077198723979
20
-1.31200709611002
30
0
41
1
10
17.8918694591594
20
-1.15952456262013
30
1E-16
41
1
10
17.7207106414446
20
-1.02875946704631
30
2E-16
41
1
10
17.3781961759438
20
-0.753218543200916
30
0
41
1
10
17.2068120914182
20
-0.608476778091671
30
1E-16
41
1
10
16.9905631157074
20
-0.420603007394874
30
1E-16
41
1
10
16.9471960264135
20
-0.382662304515606
30
0
41
1
10
16.8607617034006
20
-0.306622164157886
30
-2E-16
41
1
10
16.8176246909289
20
-0.268465023038345
30
2E-16
41
1
10
16.6883778451654
20
-0.153668581158399
30
-1E-16
41
1
10
16.6024364088206
20
-0.0766996691915836
30
2E-16
41
1
10
16.3447187013638
20
0.154887771007964
30
1E-16
41
1
10
16.1730150312151
20
0.310147124135085
30
2E-16
41
1
10
16.0000000000001
20
0.4646951978998
30
-2E-16
0
SPLINE
5
11D
100
AcDbEntity
8
1
62
256
6
ByLayer
370
18
48
1
60
0
100
AcDbSpline
70
4
71
3
72
57
73
53
40
0
40
0
40
0
40
0
40
0.0779635881173023
40
0.0779635881173023
40
0.116945382175953
40
0.116945382175953
40
0.126690830690616
40
0.126690830690616
40
0.136436279205278
40
0.136436279205278
40
0.155927176234603
40
0.155927176234603
40
0.2338907643519
40
0.2338907643519
40
0.311854352469197
40
0.311854352469197
40
0.321599800983859
40
0.321599800983859
40
0.331345249498521
40
0.331345249498521
40
0.350836146527845
40
0.389817940586494
40
0.389817940586494
40
0.467781528703794
40
0.467781528703794
40
0.506763322762442
40
0.506763322762442
40
0.516508771277105
40
0.516508771277105
40
0.526254219791768
40
0.526254219791768
40
0.545745116821093
40
0.545745116821093
40
0.623708704938388
40
0.623708704938388
40
0.701672293055684
40
0.701672293055684
40
0.721163190085009
40
0.721163190085009
40
0.740654087114334
40
0.740654087114334
40
0.779635881172983
40
0.779635881172983
40
0.85759946929028
40
0.85759946929028
40
0.877090366319605
40
0.877090366319605
40
0.896581263348929
40
0.896581263348929
40
0.935563057407578
40
0.935563057407578
40
1
40
1
40
1
40
1
41
1
10
15.9999999999994
20
2.15723608699068
30
1E-16
41
1
10
16.1735886369102
20
2.08464326521727
30
0
41
1
10
16.3459418420993
20
1.99890093610469
30
0
41
1
10
16.6048955561852
20
1.85211706755067
30
1E-16
41
1
10
16.6912831995172
20
1.8001541046408
30
0
41
1
10
16.7995997562181
20
1.73152764716383
30
-1E-16
41
1
10
16.8212796860749
20
1.7176186077977
30
0
41
1
10
16.8646789575762
20
1.68943558262009
30
0
41
1
10
16.8864084370225
20
1.6751546145199
30
1E-16
41
1
10
16.9514662866334
20
1.63190196510681
30
0
41
1
10
16.9947239306644
20
1.60248251826644
30
0
41
1
10
17.2105663226396
20
1.45260110824489
30
-1E-16
41
1
10
17.3818203357755
20
1.32381127355219
30
0
41
1
10
17.7246018968994
20
1.05158404520699
30
2E-16
41
1
10
17.8961026574605
20
0.908121468773288
30
1E-16
41
1
10
18.0910128310011
20
0.740036645851035
30
0
41
1
10
18.112697101476
20
0.72126751514503
30
1E-16
41
1
10
18.1561276053283
20
0.683548437201978
30
2E-16
41
1
10
18.1778884466531
20
0.66458560370549
30
2E-16
41
1
10
18.2430268648562
20
0.607649925462482
30
-1E-16
41
1
10
18.3729368111237
20
0.493406520378301
30
2E-16
41
1
10
18.501986377999
20
0.37831686362955
30
0
41
1
10
18.7595725366949
20
0.147722843236181
30
1E-16
41
1
10
18.9306071822069
20
-0.0065661161409309
30
0
41
1
10
19.1885819358359
20
-0.236066400656654
30
1E-16
41
1
10
19.2748126002357
20
-0.312241992766701
30
-2E-16
41
1
10
19.3831734044438
20
-0.406746191972843
30
1E-16
41
1
10
19.4048741834637
20
-0.425611270650279
30
1E-16
41
1
10
19.4483404993203
20
-0.463261386726714
30
2E-16
41
1
10
19.4701217799326
20
-0.482059814126984
30
-2E-16
41
1
10
19.5353172703404
20
-0.538101323776516
30
-1E-16
41
1
10
19.5786554471333
20
-0.575053117389757
30
0
41
1
10
19.794857576657
20
-0.757648599437715
30
0
41
1
10
19.9662538583144
20
-0.896827088680737
30
1E-16
41
1
10
20.3094117856239
20
-1.15803481666893
30
0
41
1
10
20.4811446988958
20
-1.28009439455894
30
-1E-16
41
1
10
20.6983064575577
20
-1.41939357270283
30
0
41
1
10
20.7419263798174
20
-1.44662010295062
30
1E-16
41
1
10
20.8287658324111
20
-1.4992408071453
30
0
41
1
10
20.8720627940876
20
-1.52468702868754
30
0
41
1
10
21.0016732383394
20
-1.59840039692332
30
0
41
1
10
21.0877045796026
20
-1.64404564964312
30
1E-16
41
1
10
21.3453849147358
20
-1.77013389049441
30
-1E-16
41
1
10
21.516623585176
20
-1.83976464527956
30
0
41
1
10
21.7322886763201
20
-1.907115364833
30
0
41
1
10
21.7755034878866
20
-1.91959759143316
30
-1E-16
41
1
10
21.8621609723198
20
-1.94252918864467
30
0
41
1
10
21.9056467115869
20
-1.95298783993343
30
0
41
1
10
22.036267316724
20
-1.98115999979132
30
0
41
1
10
22.1227856282914
20
-1.99551116281847
30
0
41
1
10
22.3514867127987
20
-2.02196997606649
30
0
41
1
10
22.4931335719145
20
-2.02652044683649
30
0
41
1
10
22.6350339545881
20
-2.01906319521828
30
0
0
SPLINE
5
11E
100
AcDbEntity
8
1
62
256
6
ByLayer
370
18
48
1
60
0
100
AcDbSpline
70
4
71
3
72
50
73
46
40
0
40
0
40
0
40
0
40
0.0437485687646304
40
0.0437485687646304
40
0.058689997377679
40
0.058689997377679
40
0.0736314259907281
40
0.0736314259907281
40
0.103514283216825
40
0.103514283216825
40
0.16327999766902
40
0.16327999766902
40
0.282811426573404
40
0.282811426573404
40
0.297752855186454
40
0.297752855186454
40
0.312694283799505
40
0.342577141025606
40
0.342577141025606
40
0.402342855477814
40
0.402342855477814
40
0.462108569930021
40
0.462108569930021
40
0.491991427156125
40
0.506932855769177
40
0.506932855769177
40
0.521874284382229
40
0.521874284382229
40
0.641405713286655
40
0.641405713286655
40
0.70117142773887
40
0.70117142773887
40
0.73105428496498
40
0.73105428496498
40
0.760937142191091
40
0.760937142191091
40
0.820702856643317
40
0.820702856643317
40
0.880468571095543
40
0.880468571095543
40
0.910351428321656
40
0.910351428321656
40
0.940234285547769
40
0.940234285547769
40
1
40
1
40
1
40
1
41
1
10
28.2284845922738
20
1.54857421848448
30
0
41
1
10
28.2916683992683
20
1.57050456491217
30
0
41
1
10
28.3550135357322
20
1.58992836634468
30
0
41
1
10
28.440388927758
20
1.61248819816086
30
0
41
1
10
28.4621588137388
20
1.61792580892373
30
0
41
1
10
28.505780434422
20
1.62817834908
30
0
41
1
10
28.5276529348515
20
1.6329968617915
30
-1E-16
41
1
10
28.5930840084207
20
1.64643704461216
30
0
41
1
10
28.6365465178108
20
1.65406730748737
30
0
41
1
10
28.7665975047907
20
1.67299936651057
30
0
41
1
10
28.8528504728083
20
1.6803470864165
30
0
41
1
10
29.1113240564135
20
1.68664417234075
30
0
41
1
10
29.2832347729095
20
1.66992769880395
30
0
41
1
10
29.4794912932728
20
1.62676273031758
30
0
41
1
10
29.501366262759
20
1.62161926365189
30
0
41
1
10
29.5450585141054
20
1.61068479838698
30
0
41
1
10
29.6104683037586
20
1.59332535486087
30
0
41
1
10
29.6755503657358
20
1.57313789733058
30
0
41
1
10
29.8054242962447
20
1.52909722856495
30
0
41
1
10
29.8916194124465
20
1.49485358546491
30
1E-16
41
1
10
30.0639798702679
20
1.41703356993781
30
0
41
1
10
30.1501420838163
20
1.3734554768871
30
0
41
1
10
30.2799397549709
20
1.30131391877629
30
-1E-16
41
1
10
30.3449777764011
20
1.26354825481764
30
-1E-16
41
1
10
30.4103371485403
20
1.22326845069352
30
0
41
1
10
30.453995099245
20
1.19585910249148
30
1E-16
41
1
10
30.4758933754138
20
1.18185851515148
30
-1E-16
41
1
10
30.6724262346922
20
1.05401715519841
30
0
41
1
10
30.8443878408626
20
0.926713582220032
30
0
41
1
10
31.1030681834537
20
0.720118152859385
30
1E-16
41
1
10
31.1894154622789
20
0.648633012854333
30
0
41
1
10
31.3197435721693
20
0.538001060292657
30
1E-16
41
1
10
31.363352449611
20
0.500529305699303
30
-1E-16
41
1
10
31.4508258080006
20
0.424649286702788
30
-1E-16
41
1
10
31.4943724616436
20
0.386517249347833
30
0
41
1
10
31.624610901434
20
0.271735146978443
30
0
41
1
10
31.7109051593263
20
0.194703523148178
30
0
41
1
10
31.883279812368
20
0.0405792918328984
30
-1E-16
41
1
10
31.9693583488815
20
-0.0365154125099423
30
1E-16
41
1
10
32.0989708446568
20
-0.151460346012129
30
-1E-16
41
1
10
32.1422576652972
20
-0.189658878892629
30
0
41
1
10
32.2291104869078
20
-0.26569362883879
30
0
41
1
10
32.2727138319038
20
-0.303561914414558
30
0
41
1
10
32.4038772338619
20
-0.41621886428095
30
1E-16
41
1
10
32.4910748904756
20
-0.489441769356631
30
0
41
1
10
32.5785039343644
20
-0.560261438354217
30
0
0
SPLINE
5
11F
100
AcDbEntity
8
1
62
256
6
ByLayer
370
18
48
1
60
0
100
AcDbSpline
70
4
71
3
72
34
73
30
40
0
40
0
40
0
40
0
40
0.0914494819596608
40
0.0914494819596608
40
0.182898963919322
40
0.182898963919322
40
0.274348445878982
40
0.274348445878982
40
0.297210816368898
40
0.297210816368898
40
0.320073186858813
40
0.320073186858813
40
0.365797927838643
40
0.365797927838643
40
0.548696891757949
40
0.548696891757949
40
0.594421632737769
40
0.594421632737769
40
0.617284003227679
40
0.617284003227679
40
0.640146373717589
40
0.731595855677229
40
0.731595855677229
40
0.914494819596502
40
0.914494819596502
40
0.937357190086413
40
0.937357190086413
40
0.960219560576324
40
1
40
1
40
1
40
1
41
1
10
32.5785039343644
20
-0.0529864408862863
30
-1E-16
41
1
10
32.4913220447783
20
0.0246102378044952
30
-1E-16
41
1
10
32.4048550901563
20
0.10204822100954
30
0
41
1
10
32.2324769069423
20
0.255690428194129
30
1E-16
41
1
10
32.146552919739
20
0.331880098602511
30
1E-16
41
1
10
31.9744010282774
20
0.482086669325042
30
0
41
1
10
31.8881708564285
20
0.556100675737923
30
0
41
1
10
31.7796095062246
20
0.646604161786541
30
0
41
1
10
31.7578590318945
20
0.664604600517492
30
0
41
1
10
31.714268203805
20
0.700389445256803
30
-1E-16
41
1
10
31.6924399902078
20
0.718163432057196
30
1E-16
41
1
10
31.6271571095543
20
0.770852981518431
30
0
41
1
10
31.5837878257963
20
0.805231834899502
30
-1E-16
41
1
10
31.3674302835473
20
0.973209047911638
30
-1E-16
41
1
10
31.1958842612621
20
1.09510627569659
30
1E-16
41
1
10
30.9792926288747
20
1.22851782144682
30
0
41
1
10
30.9358670649845
20
1.25424828055915
30
-1E-16
41
1
10
30.8704891134952
20
1.29133825211642
30
0
41
1
10
30.8486330868103
20
1.30346278227395
30
1E-16
41
1
10
30.8050396587677
20
1.3270834024114
30
0
41
1
10
30.6962555276675
20
1.38462057047684
30
0
41
1
10
30.588297327672
20
1.43458945509269
30
0
41
1
10
30.329578416833
20
1.53975816326042
30
-1E-16
41
1
10
30.1576069486036
20
1.59027211627085
30
0
41
1
10
29.9612808817296
20
1.62340073918477
30
0
41
1
10
29.9394255728413
20
1.62674987234291
30
0
41
1
10
29.8958468713275
20
1.6327512058395
30
0
41
1
10
29.8362480035601
20
1.64003189649051
30
0
41
1
10
29.7768864056902
20
1.64475821311552
30
0
41
1
10
29.7392538924673
20
1.64674299153654
30
0
0
SPLINE
5
120
100
AcDbEntity
8
1
62
256
6
ByLayer
370
18
48
1
60
0
100
AcDbSpline
70
4
71
3
72
77
73
73
40
0
40
0
40
0
40
0
40
0.0105744699558688
40
0.0105744699558688
40
0.0414940177697466
40
0.0414940177697466
40
0.0492239047232172
40
0.0492239047232172
40
0.0569537916766875
40
0.0724135655836283
40
0.0724135655836283
40
0.13425266121139
40
0.13425266121139
40
0.16517220902527
40
0.16517220902527
40
0.180631982932211
40
0.180631982932211
40
0.196091756839152
40
0.196091756839152
40
0.257930852466916
40
0.257930852466916
40
0.288850400280798
40
0.288850400280798
40
0.304310174187739
40
0.304310174187739
40
0.312040061141209
40
0.312040061141209
40
0.31976994809468
40
0.350689495908559
40
0.350689495908559
40
0.381609043722438
40
0.381609043722438
40
0.443448139350198
40
0.443448139350198
40
0.451178026303668
40
0.451178026303668
40
0.458907913257137
40
0.474367687164077
40
0.474367687164077
40
0.505287234977956
40
0.505287234977956
40
0.567126330605713
40
0.567126330605713
40
0.582586104512653
40
0.582586104512653
40
0.598045878419594
40
0.598045878419594
40
0.628965426233473
40
0.628965426233473
40
0.659884974047353
40
0.659884974047353
40
0.675344747954291
40
0.675344747954291
40
0.69080452186123
40
0.69080452186123
40
0.721724069675107
40
0.721724069675107
40
0.737183843582046
40
0.737183843582046
40
0.752643617488985
40
0.752643617488985
40
0.814482713116739
40
0.814482713116739
40
0.876321808744494
40
0.876321808744494
40
0.891781582651432
40
0.891781582651432
40
0.907241356558371
40
0.907241356558371
40
0.938160904372247
40
0.938160904372247
40
1
40
1
40
1
40
1
41
1
10
24.3699113876951
20
-1.72346747262489
30
0
41
1
10
24.3405258235457
20
-1.7366039976863
30
0
41
1
10
24.3111186335673
20
-1.74928446532147
30
0
41
1
10
24.195595211564
20
-1.79722879410465
30
0
41
1
10
24.1092355489237
20
-1.82899900860065
30
0
41
1
10
24.0006053007739
20
-1.86351166932533
30
0
41
1
10
23.9788446329627
20
-1.87015332013186
30
1E-16
41
1
10
23.9354342796353
20
-1.8828561252663
30
0
41
1
10
23.8704146217063
20
-1.9010626504606
30
0
41
1
10
23.8056356797904
20
-1.91673851811154
30
0
41
1
10
23.5900808274317
20
-1.96341615394064
30
0
41
1
10
23.4188480936369
20
-1.9829756157099
30
0
41
1
10
23.160691565925
20
-1.98577545452542
30
0
41
1
10
23.0744248576038
20
-1.98227484190718
30
0
41
1
10
22.9443246288167
20
-1.97028487757891
30
0
41
1
10
22.9007524023122
20
-1.96514927518243
30
0
41
1
10
22.8139127609106
20
-1.95270097883153
30
0
41
1
10
22.7706166089285
20
-1.94539121105427
30
0
41
1
10
22.55457102982
20
-1.90355491120818
30
0
41
1
10
22.3831759899566
20
-1.85319568776873
30
0
41
1
10
22.1252061988513
20
-1.75421836862924
30
-1E-16
41
1
10
22.0390940959327
20
-1.71729807963826
30
0
41
1
10
21.9094223179011
20
-1.65612544759529
30
1E-16
41
1
10
21.8661074991505
20
-1.63477327982068
30
1E-16
41
1
10
21.800949475815
20
-1.6013174970146
30
0
41
1
10
21.7791772165915
20
-1.58991545566906
30
0
41
1
10
21.7357018083629
20
-1.56671130382671
30
-1E-16
41
1
10
21.6271730647252
20
-1.50769688732879
30
0
41
1
10
21.5193442989643
20
-1.44378081428786
30
1E-16
41
1
10
21.3471711314902
20
-1.3358271961493
30
0
41
1
10
21.2612692685675
20
-1.27900154130154
30
1E-16
41
1
10
21.0036316747161
20
-1.10046716152922
30
-1E-16
41
1
10
20.8318804515391
20
-0.970790291098723
30
1E-16
41
1
10
20.6364422569531
20
-0.814799436674662
30
-1E-16
41
1
10
20.6146745509807
20
-0.797309811194651
30
1E-16
41
1
10
20.5712125548032
20
-0.762170069974331
30
0
41
1
10
20.506110265753
20
-0.709205360893236
30
-1E-16
41
1
10
20.4412565438036
20
-0.655504815121759
30
2E-16
41
1
10
20.3117944867857
20
-0.54722459399872
30
-1E-16
41
1
10
20.2258073187508
20
-0.473873083348735
30
-2E-16
41
1
10
19.9681751573841
20
-0.251061812318
30
1E-16
41
1
10
19.7969156093152
20
-0.0987875310545405
30
-2E-16
41
1
10
19.5812223225232
20
0.09373113318631
30
-2E-16
41
1
10
19.5380043595979
20
0.132346036910491
30
1E-16
41
1
10
19.451355268439
20
0.209739701097561
30
0
41
1
10
19.4078673525172
20
0.24856800403299
30
-1E-16
41
1
10
19.277657147127
20
0.364598734885789
30
0
41
1
10
19.1910545731083
20
0.441473939670573
30
-1E-16
41
1
10
19.0178460116066
20
0.593824980206335
30
-1E-16
41
1
10
18.9312345013782
20
0.669294670207364
30
2E-16
41
1
10
18.800968121509
20
0.78106891193147
30
-1E-16
41
1
10
18.7575229065867
20
0.818061180520942
30
-1E-16
41
1
10
18.6707986864857
20
0.891262378505587
30
1E-16
41
1
10
18.6274853266668
20
0.927504169134664
30
0
41
1
10
18.4976096190144
20
1.03507404643503
30
0
41
1
10
18.4111041971966
20
1.10523992860468
30
1E-16
41
1
10
18.2811325878038
20
1.2078366928117
30
1E-16
41
1
10
18.237736769756
20
1.24162106685864
30
0
41
1
10
18.1509806140256
20
1.30812505250242
30
0
41
1
10
18.1077198723979
20
1.34076884425613
30
0
41
1
10
17.8918694591595
20
1.50087935343055
30
0
41
1
10
17.7207106414446
20
1.61910926544999
30
0
41
1
10
17.3781961759438
20
1.83372777107664
30
-1E-16
41
1
10
17.2068120914182
20
1.93010218635789
30
-1E-16
41
1
10
16.9905631157073
20
2.03527082283085
30
-1E-16
41
1
10
16.9471960264135
20
2.05554267804101
30
1E-16
41
1
10
16.8607617034006
20
2.09426332111977
30
0
41
1
10
16.8176246909289
20
2.11274598212935
30
0
41
1
10
16.6883778451654
20
2.1655513374219
30
0
41
1
10
16.6024364088206
20
2.19723500593452
30
0
41
1
10
16.3447187013638
20
2.2815981174854
30
0
41
1
10
16.1730150312151
20
2.32361301215329
30
0
41
1
10
16.0000000000001
20
2.35073401331746
30
0
0
SPLINE
5
121
100
AcDbEntity
8
1
62
256
6
ByLayer
370
18
48
1
60
0
100
AcDbSpline
70
4
71
3
72
12
73
8
40
0
40
0
40
0
40
0
40
0.343879423337892
40
0.343879423337892
40
0.687758846675783
40
0.687758846675783
40
1
40
1
40
1
40
1
41
1
10
16.0000000000001
20
2.35073401331743
30
0
41
1
10
15.9655620522378
20
2.35640425951061
30
0
41
1
10
15.9311723786278
20
2.36136620225557
30
0
41
1
10
15.8618823831614
20
2.36988976701397
30
0
41
1
10
15.8269777526427
20
2.37345247115556
30
0
41
1
10
15.7594274819928
20
2.37903014541635
30
0
41
1
10
15.7268543819121
20
2.38115974566316
30
0
41
1
10
15.6937944581084
20
2.38282804167773
30
0
0
SPLINE
5
122
100
AcDbEntity
8
1
62
256
6
ByLayer
370
18
48
1
60
0
100
AcDbSpline
70
4
71
3
72
68
73
64
40
0
40
0
40
0
40
0
40
0.0120615350540423
40
0.0120615350540423
40
0.0734432364351387
40
0.0734432364351387
40
0.134824937816235
40
0.134824937816235
40
0.142497650488872
40
0.142497650488872
40
0.150170363161509
40
0.150170363161509
40
0.165515788506784
40
0.196206639197337
40
0.196206639197337
40
0.257588340578441
40
0.257588340578441
40
0.288279191268993
40
0.288279191268993
40
0.295951903941631
40
0.295951903941631
40
0.30362461661427
40
0.30362461661427
40
0.318970041959545
40
0.318970041959545
40
0.380351743340647
40
0.380351743340647
40
0.44173344472175
40
0.44173344472175
40
0.457078870067025
40
0.457078870067025
40
0.472424295412301
40
0.503115146102853
40
0.503115146102853
40
0.564496847483956
40
0.564496847483956
40
0.579842272829231
40
0.579842272829231
40
0.595187698174507
40
0.595187698174507
40
0.625878548865058
40
0.625878548865058
40
0.687260250246162
40
0.687260250246162
40
0.717951100936713
40
0.717951100936713
40
0.733296526281988
40
0.733296526281988
40
0.748641951627264
40
0.748641951627264
40
0.810023653008367
40
0.810023653008367
40
0.840714503698918
40
0.840714503698918
40
0.856059929044193
40
0.856059929044193
40
0.871405354389469
40
0.871405354389469
40
0.932787055770572
40
0.932787055770572
40
0.994168757151675
40
0.994168757151675
40
1
40
1
40
1
40
1
41
1
10
16.9359234347553
20
2.06302144877705
30
1E-16
41
1
10
16.9699763016595
20
2.07538009522293
30
0
41
1
10
17.0039618985864
20
2.08715750944907
30
0
41
1
10
17.2105663226396
20
2.1553328707453
30
-1E-16
41
1
10
17.3818203357754
20
2.19729979459939
30
0
41
1
10
17.7246018968994
20
2.25066681838453
30
0
41
1
10
17.8961026574606
20
2.262075019934
30
0
41
1
10
18.0910128310011
20
2.25683992402696
30
0
41
1
10
18.112697101476
20
2.25600657582555
30
0
41
1
10
18.1561276053283
20
2.25383218226864
30
0
41
1
10
18.177888446653
20
2.25248965531566
30
0
41
1
10
18.2430268648562
20
2.24771408075151
30
0
41
1
10
18.3729368111238
20
2.2351640214944
30
0
41
1
10
18.501986377999
20
2.21376275558112
30
0
41
1
10
18.7595725366949
20
2.15945254137068
30
0
41
1
10
18.9306071822069
20
2.10793347292986
30
-1E-16
41
1
10
19.1885819358359
20
2.00827950088444
30
0
41
1
10
19.2748126002357
20
1.97132505515088
30
0
41
1
10
19.3831734044438
20
1.92046563053108
30
-1E-16
41
1
10
19.4048741834637
20
1.91006022952814
30
0
41
1
10
19.4483404993203
20
1.88878203590715
30
0
41
1
10
19.4701217799326
20
1.87790087496171
30
0
41
1
10
19.5353172703404
20
1.84468875283599
30
-1E-16
41
1
10
19.5786554471333
20
1.82175548354101
30
0
41
1
10
19.794857576657
20
1.70326942969771
30
0
41
1
10
19.9662538583144
20
1.59628717992479
30
0
41
1
10
20.3094117856239
20
1.36094764450968
30
-1E-16
41
1
10
20.4811446988957
20
1.23256919688919
30
0
41
1
10
20.6983064575577
20
1.06019622192551
30
0
41
1
10
20.7419263798175
20
1.02507519196681
30
0
41
1
10
20.8287658324111
20
0.95426424212306
30
0
41
1
10
20.9586575677078
20
0.847014008015861
30
0
41
1
10
21.0877045796026
20
0.736959812774131
30
0
41
1
10
21.3453849147358
20
0.51390982661033
30
1E-16
41
1
10
21.5166235851759
20
0.361299761178827
30
0
41
1
10
21.7322886763201
20
0.168111149704998
30
1E-16
41
1
10
21.7755034878866
20
0.129352509821985
30
1E-16
41
1
10
21.8621609723198
20
0.0516596843276602
30
-1E-16
41
1
10
21.9056467115869
20
0.0126867581977876
30
0
41
1
10
22.036267316724
20
-0.104145069345208
30
-2E-16
41
1
10
22.1227856282914
20
-0.181212025830433
30
0
41
1
10
22.3813996531561
20
-0.409201169038312
30
1E-16
41
1
10
22.5525653393822
20
-0.556912810956163
30
0
41
1
10
22.8103790409298
20
-0.768853765452462
30
0
41
1
10
22.8964907671727
20
-0.837896604384866
30
0
41
1
10
23.0263249270994
20
-0.938578340472731
30
0
41
1
10
23.069713280217
20
-0.971659099992706
30
1E-16
41
1
10
23.1567801570471
20
-1.0367763653436
30
0
41
1
10
23.2002449646698
20
-1.06865118969296
30
1E-16
41
1
10
23.4167765306526
20
-1.22404600912276
30
0
41
1
10
23.5881092915152
20
-1.33614103280419
30
0
41
1
10
23.8454367539356
20
-1.48362363334692
30
-1E-16
41
1
10
23.9312598200307
20
-1.52933810536467
30
0
41
1
10
24.0604779068013
20
-1.59235155528921
30
0
41
1
10
24.1036322009596
20
-1.61242839256104
30
0
41
1
10
24.1901727884403
20
-1.65065441446487
30
1E-16
41
1
10
24.2335877701203
20
-1.66881496599956
30
0
41
1
10
24.451129583539
20
-1.75447495113897
30
0
41
1
10
24.6226722179852
20
-1.80507165035044
30
0
41
1
10
24.9654116562341
20
-1.86970576049484
30
0
41
1
10
25.1365791543286
20
-1.88374975987799
30
0
41
1
10
25.3264626041226
20
-1.87783408049361
30
0
41
1
10
25.3429700987974
20
-1.87714301148353
30
0
41
1
10
25.3594874084446
20
-1.87627549279125
30
0
0
SPLINE
5
123
100
AcDbEntity
8
1
62
256
6
ByLayer
370
18
48
1
60
0
100
AcDbSpline
70
4
71
3
72
24
73
20
40
0
40
0
40
0
40
0
40
0.221789899141636
40
0.221789899141636
40
0.351491582618036
40
0.351491582618036
40
0.416342424356236
40
0.416342424356236
40
0.481193266094436
40
0.481193266094436
40
0.610894949570824
40
0.610894949570824
40
0.740596633047213
40
0.740596633047213
40
0.805447474785407
40
0.805447474785407
40
0.8702983165236
40
0.8702983165236
40
1
40
1
40
1
40
1
41
1
10
30.5735603958746
20
1.43845231513865
30
0
41
1
10
30.7223054167932
20
1.48999076387366
30
0
41
1
10
30.869393593753
20
1.52579463882594
30
0
41
1
10
31.1030681834537
20
1.55699764415567
30
0
41
1
10
31.1894154622789
20
1.56297933484714
30
0
41
1
10
31.3197435721693
20
1.5633274096931
30
0
41
1
10
31.3633524496111
20
1.56200233851263
30
0
41
1
10
31.4508258080006
20
1.55640653038512
30
0
41
1
10
31.4943724616435
20
1.55215818661768
30
0
41
1
10
31.624610901434
20
1.535155685993
30
0
41
1
10
31.7109051593262
20
1.51815060429323
30
0
41
1
10
31.883279812368
20
1.47314505892538
30
0
41
1
10
31.9693583488816
20
1.44514360436318
30
-1E-16
41
1
10
32.0989708446568
20
1.39501419204098
30
0
41
1
10
32.1422576652971
20
1.37694848789269
30
0
41
1
10
32.2291104869078
20
1.33810794728419
30
0
41
1
10
32.2727138319038
20
1.31731423395979
30
0
41
1
10
32.4038772338619
20
1.25097348040268
30
0
41
1
10
32.4910748904756
20
1.20184682063635
30
0
41
1
10
32.5785039343644
20
1.14810055066218
30
0
0
SPLINE
5
124
100
AcDbEntity
8
1
62
256
6
ByLayer
370
18
48
1
60
0
100
AcDbSpline
70
4
71
3
72
12
73
8
40
0
40
0
40
0
40
0
40
0.436872293552819
40
0.436872293552819
40
0.873744587105638
40
0.873744587105638
40
1
40
1
40
1
40
1
41
1
10
32.5785039343644
20
1.40736442811971
30
0
41
1
10
32.4913220447783
20
1.43830333133604
30
0
41
1
10
32.4048550901563
20
1.46339519495024
30
0
41
1
10
32.2324769069424
20
1.50211222922681
30
0
41
1
10
32.146552919739
20
1.51573337143282
30
0
41
1
10
32.0356011596595
20
1.52589280917948
30
0
41
1
10
32.0107124643299
20
1.52769101192916
30
0
41
1
10
31.985799671902
20
1.52900731213231
30
0
0
SPLINE
5
125
100
AcDbEntity
8
1
62
256
6
ByLayer
370
18
48
1
60
0
100
AcDbSpline
70
4
71
3
72
69
73
65
40
0
40
0
40
0
40
0
40
0.0129748940136455
40
0.0129748940136455
40
0.0772071611138733
40
0.0772071611138733
40
0.109323294663987
40
0.109323294663987
40
0.141439428214101
40
0.141439428214101
40
0.205671695314329
40
0.205671695314329
40
0.237787828864443
40
0.237787828864443
40
0.269903962414557
40
0.269903962414557
40
0.334136229514783
40
0.334136229514783
40
0.366252363064897
40
0.366252363064897
40
0.374281396452426
40
0.374281396452426
40
0.382310429839954
40
0.398368496615011
40
0.398368496615011
40
0.462600763715243
40
0.462600763715243
40
0.49471689726536
40
0.49471689726536
40
0.510774964040418
40
0.510774964040418
40
0.526833030815476
40
0.526833030815476
40
0.591065297915703
40
0.591065297915703
40
0.623181431465818
40
0.623181431465818
40
0.639239498240876
40
0.639239498240876
40
0.647268531628404
40
0.647268531628404
40
0.655297565015933
40
0.687413698566045
40
0.687413698566045
40
0.719529832116156
40
0.719529832116156
40
0.783762099216378
40
0.783762099216378
40
0.791791132603905
40
0.791791132603905
40
0.799820165991432
40
0.815878232766486
40
0.815878232766486
40
0.847994366316594
40
0.847994366316594
40
0.912226633416808
40
0.912226633416808
40
0.928284700191861
40
0.928284700191861
40
0.944342766966914
40
0.944342766966914
40
0.97645890051702
40
0.97645890051702
40
1
40
1
40
1
40
1
41
1
10
26.9724473928231
20
-1.60823899408041
30
0
41
1
10
26.9374445771863
20
-1.62361122222791
30
0
41
1
10
26.9025161889164
20
-1.63824341476356
30
-1E-16
41
1
10
26.6949999854713
20
-1.72090938585444
30
0
41
1
10
26.5236764234492
20
-1.77161382920121
30
0
41
1
10
26.2650298284289
20
-1.81961210806711
30
0
41
1
10
26.1785231646551
20
-1.83092293376194
30
0
41
1
10
26.0044023751003
20
-1.84382068761633
30
0
41
1
10
25.9179516231079
20
-1.84532566688625
30
0
41
1
10
25.6595132562448
20
-1.83552207324374
30
0
41
1
10
25.4883316101796
20
-1.80997517720721
30
0
41
1
10
25.2299258496207
20
-1.74408937698598
30
0
41
1
10
25.1434823389134
20
-1.71750101761793
30
0
41
1
10
24.9695695702073
20
-1.65518742413514
30
0
41
1
10
24.8831858555319
20
-1.61986262629236
30
0
41
1
10
24.6248760246473
20
-1.5022692796428
30
0
41
1
10
24.4538443878724
20
-1.40837571547624
30
0
41
1
10
24.195595211564
20
-1.24703507362409
30
0
41
1
10
24.1092355489237
20
-1.18982485258104
30
-1E-16
41
1
10
24.000605300774
20
-1.11421562389742
30
-1E-16
41
1
10
23.9788446329627
20
-1.098887815442
30
-1E-16
41
1
10
23.9354342796353
20
-1.06796405237915
30
1E-16
41
1
10
23.8704146217063
20
-1.021126846458
30
-1E-16
41
1
10
23.8056356797904
20
-0.972990811594002
30
1E-16
41
1
10
23.5900808274317
20
-0.809844119730997
30
-1E-16
41
1
10
23.4188480936369
20
-0.670720029724237
30
0
41
1
10
23.160691565925
20
-0.452561071079714
30
0
41
1
10
23.0744248576038
20
-0.378254587670966
30
0
41
1
10
22.9443246288167
20
-0.264788030985102
30
0
41
1
10
22.9007524023122
20
-0.226551824482755
30
1E-16
41
1
10
22.8139127609106
20
-0.150005743223346
30
-1E-16
41
1
10
22.7706166089285
20
-0.111673733857089
30
-2E-16
41
1
10
22.55457102982
20
0.0800789781197295
30
-2E-16
41
1
10
22.3831759899566
20
0.233836851450832
30
-1E-16
41
1
10
22.1252061988513
20
0.461618110186464
30
0
41
1
10
22.0390940959326
20
0.537095565501716
30
1E-16
41
1
10
21.9094223179011
20
0.649272217946617
30
0
41
1
10
21.8661074991505
20
0.686483403788884
30
-1E-16
41
1
10
21.800949475815
20
0.741972199765087
30
0
41
1
10
21.7791772165915
20
0.760432663822229
30
0
41
1
10
21.735701808363
20
0.797119106985065
30
-1E-16
41
1
10
21.6271730647252
20
0.888260333436989
30
-1E-16
41
1
10
21.5193442989643
20
0.976459555276421
30
-1E-16
41
1
10
21.3471711314902
20
1.11338693871255
30
1E-16
41
1
10
21.2612692685675
20
1.17976485631158
30
-1E-16
41
1
10
21.0036316747161
20
1.37223030967473
30
-1E-16
41
1
10
20.831880451539
20
1.49158341199251
30
1E-16
41
1
10
20.6364422569531
20
1.61359527255331
30
0
41
1
10
20.6146745509808
20
1.62699375584967
30
0
41
1
10
20.5712125548032
20
1.65335581117344
30
-1E-16
41
1
10
20.5061102657531
20
1.69225963678255
30
0
41
1
10
20.4412565438036
20
1.72924741093061
30
-1E-16
41
1
10
20.3117944867856
20
1.80064936592294
30
0
41
1
10
20.2258073187507
20
1.8448177984159
30
-1E-16
41
1
10
19.9681751573842
20
1.96682619886806
30
1E-16
41
1
10
19.7969156093152
20
2.0342205207194
30
0
41
1
10
19.5812223225232
20
2.09981954856735
30
0
41
1
10
19.5380043595978
20
2.1120055551622
30
0
41
1
10
19.451355268439
20
2.1344703973719
30
0
41
1
10
19.4078673525172
20
2.14475939629608
30
0
41
1
10
19.277657147127
20
2.17256447243395
30
0
41
1
10
19.1910545731082
20
2.18706825035298
30
0
41
1
10
19.0409694257821
20
2.20522293100629
30
0
41
1
10
18.9774846748969
20
2.21073699316455
30
0
41
1
10
18.9139072253631
20
2.21407572054557
30
0
0
SPLINE
5
126
100
AcDbEntity
8
1
62
256
6
ByLayer
370
18
48
1
60
0
100
AcDbSpline
70
4
71
3
72
68
73
64
40
0
40
0
40
0
40
0
40
0.0090221077906744
40
0.0090221077906744
40
0.0751181447316754
40
0.0751181447316754
40
0.0916421539669269
40
0.0916421539669269
40
0.108166163202178
40
0.141214181672681
40
0.141214181672681
40
0.207310218613688
40
0.207310218613688
40
0.22383422784894
40
0.22383422784894
40
0.240358237084192
40
0.240358237084192
40
0.273406255554697
40
0.273406255554697
40
0.339502292495705
40
0.339502292495705
40
0.37255031096621
40
0.37255031096621
40
0.389074320201464
40
0.389074320201464
40
0.405598329436717
40
0.405598329436717
40
0.471694366377728
40
0.471694366377728
40
0.504742384848233
40
0.504742384848233
40
0.521266394083485
40
0.521266394083485
40
0.537790403318737
40
0.537790403318737
40
0.603886440259739
40
0.603886440259739
40
0.669982477200742
40
0.669982477200742
40
0.686506486435993
40
0.686506486435993
40
0.703030495671243
40
0.736078514141746
40
0.736078514141746
40
0.802174551082752
40
0.802174551082752
40
0.810436555700377
40
0.810436555700377
40
0.818698560318002
40
0.818698560318002
40
0.835222569553254
40
0.835222569553254
40
0.868270588023761
40
0.868270588023761
40
0.934366624964779
40
0.934366624964779
40
0.942628629582406
40
0.942628629582406
40
0.950890634200033
40
0.950890634200033
40
0.967414643435284
40
0.967414643435284
40
1
40
1
40
1
40
1
41
1
10
20.0675770114734
20
1.91671832630388
30
0
41
1
10
20.0909951751661
20
1.925182711003
30
0
41
1
10
20.1144122966798
20
1.93336615796264
30
0
41
1
10
20.3094117856239
20
1.99914671788503
30
0
41
1
10
20.4811446988957
20
2.04186405172263
30
0
41
1
10
20.6983064575577
20
2.074630872597
30
0
41
1
10
20.7419263798174
20
2.08015141261043
30
0
41
1
10
20.8287658324111
20
2.08900854302604
30
0
41
1
10
20.9586575677078
20
2.09906121646449
30
0
41
1
10
21.0877045796026
20
2.09951186228031
30
0
41
1
10
21.3453849147358
20
2.08774763049215
30
0
41
1
10
21.516623585176
20
2.06306017781532
30
0
41
1
10
21.7322886763201
20
2.01101376923853
30
0
41
1
10
21.7755034878866
20
1.99954183903324
30
0
41
1
10
21.8621609723198
20
1.97445662940726
30
0
41
1
10
21.9056467115869
20
1.96082868770671
30
0
41
1
10
22.0362673167241
20
1.91679480717528
30
0
41
1
10
22.1227856282914
20
1.88351597168506
30
0
41
1
10
22.3813996531561
20
1.77253042376205
30
1E-16
41
1
10
22.5525653393822
20
1.68371393281277
30
1E-16
41
1
10
22.8103790409298
20
1.53003796484006
30
0
41
1
10
22.8964907671727
20
1.47539242513835
30
1E-16
41
1
10
23.0263249270994
20
1.38846032023383
30
1E-16
41
1
10
23.069713280217
20
1.35865449801744
30
-1E-16
41
1
10
23.1567801570471
20
1.29740710338987
30
1E-16
41
1
10
23.2002449646698
20
1.26611505617072
30
-1E-16
41
1
10
23.4167765306526
20
1.10694060625704
30
1E-16
41
1
10
23.5881092915152
20
0.97050271635473
30
-1E-16
41
1
10
23.8454367539356
20
0.75548464420379
30
0
41
1
10
23.9312598200307
20
0.682072833380204
30
0
41
1
10
24.0604779068012
20
0.56972989236408
30
0
41
1
10
24.1036322009596
20
0.531912156717709
30
1E-16
41
1
10
24.1901727884402
20
0.455596488600065
30
0
41
1
10
24.2335877701202
20
0.41707277179944
30
-1E-16
41
1
10
24.451129583539
20
0.223178493166813
30
-1E-16
41
1
10
24.6226722179852
20
0.0675203941632105
30
1E-16
41
1
10
24.9654116562341
20
-0.239751490945281
30
-1E-16
41
1
10
25.1365791543286
20
-0.391397968867551
30
0
41
1
10
25.353341143892
20
-0.574966512475328
30
0
41
1
10
25.3969264832742
20
-0.611450927283101
30
1E-16
41
1
10
25.4836947773987
20
-0.683086659576134
30
0
41
1
10
25.6134419405404
20
-0.788713632935753
30
1E-16
41
1
10
25.7423196927435
20
-0.888601694760496
30
1E-16
41
1
10
25.9998204014511
20
-1.07995098144264
30
1E-16
41
1
10
26.1711095958187
20
-1.19635491545645
30
-1E-16
41
1
10
26.3661536885967
20
-1.3118850361551
30
0
41
1
10
26.387858339075
20
-1.32450624357651
30
0
41
1
10
26.4313440955212
20
-1.34930576816967
30
1E-16
41
1
10
26.4531523971814
20
-1.36149877171633
30
1E-16
41
1
10
26.5184707107998
20
-1.39726507579297
30
-1E-16
41
1
10
26.5618644372119
20
-1.42002358956609
30
0
41
1
10
26.6917130757726
20
-1.48501403370574
30
-1E-16
41
1
10
26.7778320346534
20
-1.52396685067311
30
0
41
1
10
27.0358241285165
20
-1.62733942445206
30
0
41
1
10
27.2073118505911
20
-1.67834865537449
30
0
41
1
10
27.4025396015729
20
-1.71373426087848
30
0
41
1
10
27.4242641600642
20
-1.71735885783201
30
0
41
1
10
27.4677897478408
20
-1.72398447339378
30
0
41
1
10
27.489614117664
20
-1.72698826507397
30
0
41
1
10
27.5550499284474
20
-1.73502906416181
30
0
41
1
10
27.5985138040226
20
-1.73908531260537
30
0
41
1
10
27.7273443830974
20
-1.74731087680877
30
0
41
1
10
27.8123768418918
20
-1.74776239971928
30
0
41
1
10
27.8972769018785
20
-1.74327682243143
30
0
0
SPLINE
5
127
100
AcDbEntity
8
1
62
256
6
ByLayer
370
18
48
1
60
0
100
AcDbSpline
70
4
71
2
72
6
73
3
40
0
40
0
40
0
40
1
40
1
40
1
41
1
10
24.2186009330993
20
1.00657202571051
30
1E-16
41
1
10
24.2303105517478
20
0.998017571944587
30
1E-16
41
1
10
24.2420641483431
20
0.989149448520152
30
-1E-16
0
SPLINE
5
128
100
AcDbEntity
8
1
62
256
6
ByLayer
370
18
48
1
60
0
100
AcDbSpline
70
4
71
2
72
6
73
3
40
0
40
0
40
0
40
1
40
1
40
1
41
1
10
21.227383648301
20
1.20428508819882
30
1E-16
41
1
10
21.2331404754902
20
1.20025443812216
30
1E-16
41
1
10
21.2389124851079
20
1.19608504625512
30
1E-16
0
SPLINE
5
129
100
AcDbEntity
8
1
62
256
6
ByLayer
370
18
48
1
60
0
100
AcDbSpline
70
4
71
2
72
6
73
3
40
0
40
0
40
0
40
1
40
1
40
1
41
1
10
27.0255549857747
20
0.793421271260854
30
-1E-16
41
1
10
27.0255581289465
20
0.793453612948639
30
-1E-16
41
1
10
27.0255612721198
20
0.793485678885503
30
-1E-16
0
SPLINE
5
12A
100
AcDbEntity
8
1
62
256
6
ByLayer
370
18
48
1
60
0
100
AcDbSpline
70
4
71
2
72
6
73
3
40
0
40
0
40
0
40
1
40
1
40
1
41
1
10
18.0457381635143
20
1.38660071317736
30
1E-16
41
1
10
18.046813035932
20
1.38587178445795
30
1E-16
41
1
10
18.0478885654293
20
1.38511935656211
30
1E-16
0
SPLINE
5
12B
100
AcDbEntity
8
1
62
256
6
ByLayer
370
18
48
1
60
0
100
AcDbSpline
70
4
71
2
72
6
73
3
40
0
40
0
40
0
40
1
40
1
40
1
41
1
10
21.2383242206446
20
1.19650967133703
30
1E-16
41
1
10
21.2382992940171
20
1.19653027740563
30
1E-16
41
1
10
21.2382743674755
20
1.19655316797304
30
1E-16
0
SPLINE
5
12C
100
AcDbEntity
8
1
62
256
6
ByLayer
370
18
48
1
60
0
100
AcDbSpline
70
4
71
2
72
6
73
3
40
0
40
0
40
0
40
1
40
1
40
1
41
1
10
29.5608342442185
20
0.65791944219913
30
0
41
1
10
29.5762292705934
20
0.645939208155909
30
0
41
1
10
29.5916579295828
20
0.633644587045211
30
1E-16
0
SPLINE
5
12D
100
AcDbEntity
8
1
62
256
6
ByLayer
370
18
48
1
60
0
100
AcDbSpline
70
4
71
2
72
6
73
3
40
0
40
0
40
0
40
1
40
1
40
1
41
1
10
18.0474944558671
20
1.38539552202008
30
1E-16
41
1
10
18.0474838926352
20
1.38541052747792
30
1E-16
41
1
10
18.047473329422
20
1.38542655573218
30
1E-16
0
INSERT
5
153
100
AcDbEntity
8
1
62
256
6
ByLayer
370
18
48
1
60
0
100
AcDbBlockReference
2
LABLE3D_1
10
43.351259
20
-19.92345
30
0
41
1
42
1
43
1
50
0
210
0
220
0
230
1
0
LINE
5
7D
100
AcDbEntity
8
80
62
256
6
ByLayer
370
18
48
1
60
0
100
AcDbLine
10
0
20
0
30
0
11
-3
21
0
31
0
39
0
210
0
220
0
230
1
0
LINE
5
7E
100
AcDbEntity
8
81
62
256
6
ByLayer
370
18
48
1
60
0
100
AcDbLine
10
34
20
0
30
0
11
37
21
0
31
0
39
0
210
0
220
0
230
1
0
LINE
5
7F
100
AcDbEntity
8
4
62
256
6
ByLayer
370
18
48
0.05
60
0
100
AcDbLine
10
0
20
0
30
0
11
37
21
0
31
0
39
0
210
0
220
0
230
1
0
LINE
5
81
100
AcDbEntity
8
SK4
62
256
6
ByLayer
370
18
48
0.05
60
0
100
AcDbLine
10
-39
20
0
30
0
11
37
21
0
31
0
39
0
210
0
220
0
230
1
0
LINE
5
83
100
AcDbEntity
8
1
62
256
6
ByLayer
370
18
48
1
60
0
100
AcDbLine
10
0
20
-3
30
0
11
0
21
3
31
0
39
0
210
0
220
0
230
1
0
LINE
5
84
100
AcDbEntity
8
1
62
256
6
ByLayer
370
18
48
1
60
0
100
AcDbLine
10
3.917574
20
-3
30
0
11
3.917574
21
3
31
0
39
0
210
0
220
0
230
1
0
LINE
5
85
100
AcDbEntity
8
SK1
62
256
6
ByLayer
370
18
48
1
60
0
100
AcDbLine
10
0
20
-3
30
0
11
0
21
3
31
0
39
0
210
0
220
0
230
1
0
LINE
5
87
100
AcDbEntity
8
SK1
62
256
6
ByLayer
370
18
48
1
60
0
100
AcDbLine
10
-35.6
20
-3
30
0
11
-35.6
21
3
31
0
39
0
210
0
220
0
230
1
0
LINE
5
88
100
AcDbEntity
8
SK1
62
256
6
ByLayer
370
18
48
1
60
0
100
AcDbLine
10
-36
20
-2.6
30
0
11
-36
21
2.6
31
0
39
0
210
0
220
0
230
1
0
LINE
5
89
100
AcDbEntity
8
1
62
256
6
ByLayer
370
18
48
1
60
0
100
AcDbLine
10
3.917574
20
3
30
0
11
0
21
3
31
0
39
0
210
0
220
0
230
1
0
LINE
5
8A
100
AcDbEntity
8
1
62
256
6
ByLayer
370
18
48
1
60
0
100
AcDbLine
10
0
20
-3
30
0
11
3.917574
21
-3
31
0
39
0
210
0
220
0
230
1
0
LINE
5
8B
100
AcDbEntity
8
1
62
256
6
ByLayer
370
18
48
1
60
0
100
AcDbLine
10
31.986429
20
1.528974
30
0
11
31.384727
21
1.560507
31
0
39
0
210
0
220
0
230
1
0
LINE
5
8C
100
AcDbEntity
8
1
62
256
6
ByLayer
370
18
48
1
60
0
100
AcDbLine
10
29.740037
20
1.646702
30
0
11
29.102227
21
1.680128
31
0
39
0
210
0
220
0
230
1
0
LINE
5
8D
100
AcDbEntity
8
1
62
256
6
ByLayer
370
18
48
1
60
0
100
AcDbLine
10
27.31825
20
1.773623
30
0
11
26.65053
21
1.808616
31
0
39
0
210
0
220
0
230
1
0
LINE
5
8E
100
AcDbEntity
8
1
62
256
6
ByLayer
370
18
48
1
60
0
100
AcDbLine
10
24.722398
20
1.909665
30
0
11
24.026061
21
1.946159
31
0
39
0
210
0
220
0
230
1
0
LINE
5
8F
100
AcDbEntity
8
1
62
256
6
ByLayer
370
18
48
1
60
0
100
AcDbLine
10
21.926599
20
2.056187
30
0
11
21.192915
21
2.094638
31
0
39
0
210
0
220
0
230
1
0
LINE
5
90
100
AcDbEntity
8
1
62
256
6
ByLayer
370
18
48
1
60
0
100
AcDbLine
10
18.914385
20
2.21405
30
0
11
18.141432
21
2.254559
31
0
39
0
210
0
220
0
230
1
0
LINE
5
91
100
AcDbEntity
8
1
62
256
6
ByLayer
370
18
48
1
60
0
100
AcDbLine
10
15.689379
20
2.383066
30
0
11
3.917574
21
3
31
0
39
0
210
0
220
0
230
1
0
LINE
5
92
100
AcDbEntity
8
1
62
256
6
ByLayer
370
18
48
1
60
0
100
AcDbLine
10
3.917574
20
-3
30
0
11
14.357867
21
-2.452847
31
0
39
0
210
0
220
0
230
1
0
LINE
5
93
100
AcDbEntity
8
1
62
256
6
ByLayer
370
18
48
1
60
0
100
AcDbLine
10
16.534896
20
-2.338754
30
0
11
17.330916
21
-2.297037
31
0
39
0
210
0
220
0
230
1
0
LINE
5
94
100
AcDbEntity
8
1
62
256
6
ByLayer
370
18
48
1
60
0
100
AcDbLine
10
19.695125
20
-2.173134
30
0
11
20.447935
21
-2.13368
31
0
39
0
210
0
220
0
230
1
0
LINE
5
95
100
AcDbEntity
8
1
62
256
6
ByLayer
370
18
48
1
60
0
100
AcDbLine
10
22.63575
20
-2.019022
30
0
11
23.351979
21
-1.981486
31
0
39
0
210
0
220
0
230
1
0
LINE
5
96
100
AcDbEntity
8
1
62
256
6
ByLayer
370
18
48
1
60
0
100
AcDbLine
10
25.359674
20
-1.876267
30
0
11
26.042076
21
-1.840504
31
0
39
0
210
0
220
0
230
1
0
LINE
5
97
100
AcDbEntity
8
1
62
256
6
ByLayer
370
18
48
1
60
0
100
AcDbLine
10
27.897751
20
-1.743252
30
0
11
28.549329
21
-1.709104
31
0
39
0
210
0
220
0
230
1
0
LINE
5
98
100
AcDbEntity
8
1
62
256
6
ByLayer
370
18
48
1
60
0
100
AcDbLine
10
30.265864
20
-1.619145
30
0
11
30.884105
21
-1.586744
31
0
39
0
210
0
220
0
230
1
0
LINE
5
99
100
AcDbEntity
8
1
62
256
6
ByLayer
370
18
48
1
60
0
100
AcDbLine
10
32.462966
20
-1.503999
30
0
11
32.578504
21
-1.497944
31
0
39
0
210
0
220
0
230
1
0
LINE
5
9A
100
AcDbEntity
8
SK1
62
256
6
ByLayer
370
18
48
1
60
0
100
AcDbLine
10
0
20
3
30
0
11
-35.6
21
3
31
0
39
0
210
0
220
0
230
1
0
LINE
5
9B
100
AcDbEntity
8
SK1
62
256
6
ByLayer
370
18
48
1
60
0
100
AcDbLine
10
-35.6
20
-3
30
0
11
0
21
-3
31
0
39
0
210
0
220
0
230
1
0
LINE
5
9C
100
AcDbEntity
8
SK1
62
256
6
ByLayer
370
18
48
1
60
0
100
AcDbLine
10
-36
20
-2.6
30
0
11
-35.6
21
-3
31
0
39
0
210
0
220
0
230
1
0
LINE
5
9D
100
AcDbEntity
8
SK1
62
256
6
ByLayer
370
18
48
1
60
0
100
AcDbLine
10
-35.6
20
3
30
0
11
-36
21
2.6
31
0
39
0
210
0
220
0
230
1
0
LINE
5
9E
100
AcDbEntity
8
SK2
62
256
6
ByLayer
370
13
48
1
60
0
100
AcDbLine
10
-42.5
20
-10.5
30
0
11
-42.5
21
21.133313
31
0
39
0
210
0
220
0
230
1
0
LINE
5
A0
100
AcDbEntity
8
SK2
62
256
6
ByLayer
370
13
48
1
60
0
100
AcDbLine
10
-37.5875
20
-3
30
0
11
-44.5
21
-3
31
0
39
0
210
0
220
0
230
1
0
LINE
5
A1
100
AcDbEntity
8
SK2
62
256
6
ByLayer
370
13
48
1
60
0
100
AcDbLine
10
-37.5875
20
3
30
0
11
-44.5
21
3
31
0
39
0
210
0
220
0
230
1
0
LINE
5
A2
100
AcDbEntity
8
1
62
256
6
ByLayer
370
18
48
1
60
1
100
AcDbLine
10
-42.5
20
-3
30
0
11
-42.039216
21
-6.499998
31
0
39
0
210
0
220
0
230
1
0
LINE
5
A3
100
AcDbEntity
8
1
62
256
6
ByLayer
370
18
48
1
60
1
100
AcDbLine
10
-42.039216
20
-6.499998
30
0
11
-42.960784
21
-6.500002
31
0
39
0
210
0
220
0
230
1
0
LINE
5
A4
100
AcDbEntity
8
1
62
256
6
ByLayer
370
18
48
1
60
1
100
AcDbLine
10
-42.960784
20
-6.500002
30
0
11
-42.5
21
-3
31
0
39
0
210
0
220
0
230
1
0
LINE
5
A5
100
AcDbEntity
8
1
62
256
6
ByLayer
370
18
48
1
60
1
100
AcDbLine
10
-42.5
20
3
30
0
11
-42.960784
21
6.499998
31
0
39
0
210
0
220
0
230
1
0
LINE
5
A6
100
AcDbEntity
8
1
62
256
6
ByLayer
370
18
48
1
60
1
100
AcDbLine
10
-42.960784
20
6.499998
30
0
11
-42.039216
21
6.500002
31
0
39
0
210
0
220
0
230
1
0
LINE
5
A7
100
AcDbEntity
8
1
62
256
6
ByLayer
370
18
48
1
60
1
100
AcDbLine
10
-42.039216
20
6.500002
30
0
11
-42.5
21
3
31
0
39
0
210
0
220
0
230
1
0
LINE
5
A8
100
AcDbEntity
8
SK2
62
256
6
ByLayer
370
13
48
1
60
0
100
AcDbLine
10
50.5
20
-9
30
0
11
50.5
21
19.633313
31
0
39
0
210
0
220
0
230
1
0
LINE
5
A9
100
AcDbEntity
8
SK2
62
256
6
ByLayer
370
13
48
1
60
0
100
AcDbLine
10
35.5875
20
-1.5
30
0
11
52.5
21
-1.5
31
0
39
0
210
0
220
0
230
1
0
LINE
5
AA
100
AcDbEntity
8
SK2
62
256
6
ByLayer
370
13
48
1
60
0
100
AcDbLine
10
35.5875
20
1.5
30
0
11
52.5
21
1.5
31
0
39
0
210
0
220
0
230
1
0
LINE
5
AB
100
AcDbEntity
8
1
62
256
6
ByLayer
370
18
48
1
60
1
100
AcDbLine
10
50.5
20
-1.5
30
0
11
50.960784
21
-4.999998
31
0
39
0
210
0
220
0
230
1
0
LINE
5
AC
100
AcDbEntity
8
1
62
256
6
ByLayer
370
18
48
1
60
1
100
AcDbLine
10
50.960784
20
-4.999998
30
0
11
50.039216
21
-5.000002
31
0
39
0
210
0
220
0
230
1
0
LINE
5
AD
100
AcDbEntity
8
1
62
256
6
ByLayer
370
18
48
1
60
1
100
AcDbLine
10
50.039216
20
-5.000002
30
0
11
50.5
21
-1.5
31
0
39
0
210
0
220
0
230
1
0
LINE
5
AE
100
AcDbEntity
8
1
62
256
6
ByLayer
370
18
48
1
60
1
100
AcDbLine
10
50.5
20
1.5
30
0
11
50.039216
21
4.999998
31
0
39
0
210
0
220
0
230
1
0
LINE
5
AF
100
AcDbEntity
8
1
62
256
6
ByLayer
370
18
48
1
60
1
100
AcDbLine
10
50.039216
20
4.999998
30
0
11
50.960784
21
5.000002
31
0
39
0
210
0
220
0
230
1
0
LINE
5
B0
100
AcDbEntity
8
1
62
256
6
ByLayer
370
18
48
1
60
1
100
AcDbLine
10
50.960784
20
5.000002
30
0
11
50.5
21
1.5
31
0
39
0
210
0
220
0
230
1
0
LINE
5
B1
100
AcDbEntity
8
SK2
62
256
6
ByLayer
370
13
48
1
60
0
100
AcDbLine
10
-16.4125
20
0
30
0
11
-15.918813
21
0
31
0
39
0
210
0
220
0
230
1
0
LINE
5
B2
100
AcDbEntity
8
SK2
62
256
6
ByLayer
370
13
48
1
60
0
100
AcDbLine
10
4.413629
20
2.559863
30
0
11
-19.85326
21
3.475595
31
0
39
0
210
0
220
0
230
1
0
LINE
5
B3
100
AcDbEntity
8
1
62
256
6
ByLayer
370
18
48
1
60
1
100
AcDbLine
10
-17.918813
20
0
30
0
11
-17.424092
21
-3.495363
31
0
39
0
210
0
220
0
230
1
0
LINE
5
B4
100
AcDbEntity
8
1
62
256
6
ByLayer
370
18
48
1
60
1
100
AcDbLine
10
-17.424092
20
-3.495363
30
0
11
-18.345616
21
-3.504308
31
0
39
0
210
0
220
0
230
1
0
LINE
5
B5
100
AcDbEntity
8
1
62
256
6
ByLayer
370
18
48
1
60
1
100
AcDbLine
10
-18.345616
20
-3.504308
30
0
11
-17.918813
21
0
31
0
39
0
210
0
220
0
230
1
0
LINE
5
B6
100
AcDbEntity
8
1
62
256
6
ByLayer
370
18
48
1
60
1
100
AcDbLine
10
-17.854682
20
3.400177
30
0
11
-18.149037
21
6.918083
31
0
39
0
210
0
220
0
230
1
0
LINE
5
B7
100
AcDbEntity
8
1
62
256
6
ByLayer
370
18
48
1
60
1
100
AcDbLine
10
-18.149037
20
6.918083
30
0
11
-17.228506
21
6.874401
31
0
39
0
210
0
220
0
230
1
0
LINE
5
B8
100
AcDbEntity
8
1
62
256
6
ByLayer
370
18
48
1
60
1
100
AcDbLine
10
-17.228506
20
6.874401
30
0
11
-17.854682
21
3.400177
31
0
39
0
210
0
220
0
230
1
0
LINE
5
132
100
AcDbEntity
8
1
62
256
6
ByLayer
370
18
48
1
60
1
100
AcDbLine
10
-42.5
20
-3
30
0
11
-42.039216
21
-6.499998
31
0
39
0
210
0
220
0
230
1
0
LINE
5
133
100
AcDbEntity
8
1
62
256
6
ByLayer
370
18
48
1
60
1
100
AcDbLine
10
-42.039216
20
-6.499998
30
0
11
-42.960784
21
-6.500002
31
0
39
0
210
0
220
0
230
1
0
LINE
5
134
100
AcDbEntity
8
1
62
256
6
ByLayer
370
18
48
1
60
1
100
AcDbLine
10
-42.960784
20
-6.500002
30
0
11
-42.5
21
-3
31
0
39
0
210
0
220
0
230
1
0
LINE
5
136
100
AcDbEntity
8
1
62
256
6
ByLayer
370
18
48
1
60
1
100
AcDbLine
10
-42.5
20
3
30
0
11
-42.960784
21
6.499998
31
0
39
0
210
0
220
0
230
1
0
LINE
5
137
100
AcDbEntity
8
1
62
256
6
ByLayer
370
18
48
1
60
1
100
AcDbLine
10
-42.960784
20
6.499998
30
0
11
-42.039216
21
6.500002
31
0
39
0
210
0
220
0
230
1
0
LINE
5
138
100
AcDbEntity
8
1
62
256
6
ByLayer
370
18
48
1
60
1
100
AcDbLine
10
-42.039216
20
6.500002
30
0
11
-42.5
21
3
31
0
39
0
210
0
220
0
230
1
0
LINE
5
13C
100
AcDbEntity
8
1
62
256
6
ByLayer
370
18
48
1
60
1
100
AcDbLine
10
50.5
20
-1.5
30
0
11
50.960784
21
-4.999998
31
0
39
0
210
0
220
0
230
1
0
LINE
5
13D
100
AcDbEntity
8
1
62
256
6
ByLayer
370
18
48
1
60
1
100
AcDbLine
10
50.960784
20
-4.999998
30
0
11
50.039216
21
-5.000002
31
0
39
0
210
0
220
0
230
1
0
LINE
5
13E
100
AcDbEntity
8
1
62
256
6
ByLayer
370
18
48
1
60
1
100
AcDbLine
10
50.039216
20
-5.000002
30
0
11
50.5
21
-1.5
31
0
39
0
210
0
220
0
230
1
0
LINE
5
140
100
AcDbEntity
8
1
62
256
6
ByLayer
370
18
48
1
60
1
100
AcDbLine
10
50.5
20
1.5
30
0
11
50.039216
21
4.999998
31
0
39
0
210
0
220
0
230
1
0
LINE
5
141
100
AcDbEntity
8
1
62
256
6
ByLayer
370
18
48
1
60
1
100
AcDbLine
10
50.039216
20
4.999998
30
0
11
50.960784
21
5.000002
31
0
39
0
210
0
220
0
230
1
0
LINE
5
142
100
AcDbEntity
8
1
62
256
6
ByLayer
370
18
48
1
60
1
100
AcDbLine
10
50.960784
20
5.000002
30
0
11
50.5
21
1.5
31
0
39
0
210
0
220
0
230
1
0
LINE
5
145
100
AcDbEntity
8
1
62
256
6
ByLayer
370
18
48
1
60
1
100
AcDbLine
10
-17.918813
20
0
30
0
11
-17.424092
21
-3.495363
31
0
39
0
210
0
220
0
230
1
0
LINE
5
146
100
AcDbEntity
8
1
62
256
6
ByLayer
370
18
48
1
60
1
100
AcDbLine
10
-17.424092
20
-3.495363
30
0
11
-18.345616
21
-3.504308
31
0
39
0
210
0
220
0
230
1
0
LINE
5
147
100
AcDbEntity
8
1
62
256
6
ByLayer
370
18
48
1
60
1
100
AcDbLine
10
-18.345616
20
-3.504308
30
0
11
-17.918813
21
0
31
0
39
0
210
0
220
0
230
1
0
LINE
5
149
100
AcDbEntity
8
1
62
256
6
ByLayer
370
18
48
1
60
1
100
AcDbLine
10
-17.854682
20
3.400177
30
0
11
-18.149037
21
6.918083
31
0
39
0
210
0
220
0
230
1
0
LINE
5
14A
100
AcDbEntity
8
1
62
256
6
ByLayer
370
18
48
1
60
1
100
AcDbLine
10
-18.149037
20
6.918083
30
0
11
-17.228506
21
6.874401
31
0
39
0
210
0
220
0
230
1
0
LINE
5
14B
100
AcDbEntity
8
1
62
256
6
ByLayer
370
18
48
1
60
1
100
AcDbLine
10
-17.228506
20
6.874401
30
0
11
-17.854682
21
3.400177
31
0
39
0
210
0
220
0
230
1
0
LINE
5
14E
100
AcDbEntity
8
1
62
256
6
ByLayer
370
13
48
1
60
0
100
AcDbLine
10
44.851259
20
-19.92345
30
0
11
44.851259
21
-19.92345
31
0
39
0
210
0
220
0
230
1
0
MTEXT
5
12E
100
AcDbEntity
8
SK2
62
256
6
ByLayer
370
18
48
1
60
0
100
AcDbMText
10
-43.841114
20
7.658437
30
0
210
0
220
0
230
1
1
%%c
40
3
41
0
44
1.084337
50
90
71
7
72
5
7
iso_b_vert
0
MTEXT
5
131
100
AcDbEntity
8
SK2
62
256
6
ByLayer
370
18
48
1
60
0
100
AcDbMText
10
-43.841114
20
13.635
30
0
210
0
220
0
230
1
1
\W0.6903;6 h6
40
3
41
0
44
1.084337
50
90
71
7
72
5
7
iso_b_vert
0
MTEXT
5
13A
100
AcDbEntity
8
SK2
62
256
6
ByLayer
370
18
48
1
60
0
100
AcDbMText
10
49.158886
20
6.158437
30
0
210
0
220
0
230
1
1
%%c
40
3
41
0
44
1.084337
50
90
71
7
72
5
7
iso_b_vert
0
MTEXT
5
13B
100
AcDbEntity
8
SK2
62
256
6
ByLayer
370
18
48
1
60
0
100
AcDbMText
10
49.158886
20
12.135
30
0
210
0
220
0
230
1
1
\W0.6903;3 h6
40
3
41
0
44
1.084337
50
90
71
7
72
5
7
iso_b_vert
0
MTEXT
5
144
100
AcDbEntity
8
SK2
62
256
6
ByLayer
370
18
48
1
60
0
100
AcDbMText
10
-17.968354
20
11.616087
30
0
210
0
220
0
230
1
1
\W0.8531;3.0%%d
40
3
41
0
44
1.084337
50
78.5392101086214
71
7
72
5
7
iso_b_vert
0
MTEXT
5
156
100
AcDbEntity
8
SK6
62
256
6
ByLayer
370
18
48
1
60
0
100
AcDbMText
10
-27.609282
20
-57.042852
30
0
210
0
220
0
230
1
1
\W0.7807;2T385-0300-TA0600   T2CH
40
3
41
0
44
1.084337
50
0
71
7
72
5
7
iso_b_vert
0
HATCH
5
135
100
AcDbEntity
8
SK2
62
256
6
ByLayer
370
13
48
1
60
0
100
AcDbHatch
10
0
20
0
30
0
210
0
220
0
230
1
2
ANSI31
70
0
71
0
91
1
92
5
93
3
72
1
10
-42.5
20
-3
11
-42.0392162584472
21
-6.49999830744682
72
1
10
-42.0392162584472
20
-6.49999830744682
11
-42.9607837415528
21
-6.50000169255318
72
1
10
-42.9607837415528
20
-6.50000169255318
11
-42.5
21
-3
97
0
75
0
76
1
52
0
41
0.0062
77
0
78
1
53
45
43
0
44
0
45
-0.0139193969876572
46
0.0139193969876572
79
0
47
0
98
1
10
0
20
0
0
HATCH
5
139
100
AcDbEntity
8
SK2
62
256
6
ByLayer
370
13
48
1
60
0
100
AcDbHatch
10
0
20
0
30
0
210
0
220
0
230
1
2
ANSI31
70
0
71
0
91
1
92
5
93
3
72
1
10
-42.5
20
3
11
-42.9607837415528
21
6.49999830744682
72
1
10
-42.9607837415528
20
6.49999830744682
11
-42.0392162584472
21
6.50000169255318
72
1
10
-42.0392162584472
20
6.50000169255318
11
-42.5
21
3
97
0
75
0
76
1
52
0
41
0.0062
77
0
78
1
53
45
43
0
44
0
45
-0.0139193969876572
46
0.0139193969876572
79
0
47
0
98
1
10
0
20
0
0
HATCH
5
13F
100
AcDbEntity
8
SK2
62
256
6
ByLayer
370
13
48
1
60
0
100
AcDbHatch
10
0
20
0
30
0
210
0
220
0
230
1
2
ANSI31
70
0
71
0
91
1
92
5
93
3
72
1
10
50.5
20
-1.5
11
50.9607837415528
21
-4.99999830744682
72
1
10
50.9607837415528
20
-4.99999830744682
11
50.0392162584472
21
-5.00000169255318
72
1
10
50.0392162584472
20
-5.00000169255318
11
50.5
21
-1.5
97
0
75
0
76
1
52
0
41
0.0062
77
0
78
1
53
45
43
0
44
0
45
-0.0139193969876572
46
0.0139193969876572
79
0
47
0
98
1
10
0
20
0
0
HATCH
5
143
100
AcDbEntity
8
SK2
62
256
6
ByLayer
370
13
48
1
60
0
100
AcDbHatch
10
0
20
0
30
0
210
0
220
0
230
1
2
ANSI31
70
0
71
0
91
1
92
5
93
3
72
1
10
50.5
20
1.5
11
50.0392162584472
21
4.99999830744682
72
1
10
50.0392162584472
20
4.99999830744682
11
50.9607837415528
21
5.00000169255318
72
1
10
50.9607837415528
20
5.00000169255318
11
50.5
21
1.5
97
0
75
0
76
1
52
0
41
0.0062
77
0
78
1
53
45
43
0
44
0
45
-0.0139193969876572
46
0.0139193969876572
79
0
47
0
98
1
10
0
20
0
0
HATCH
5
148
100
AcDbEntity
8
SK2
62
256
6
ByLayer
370
13
48
1
60
0
100
AcDbHatch
10
0
20
0
30
0
210
0
220
0
230
1
2
ANSI31
70
0
71
0
91
1
92
5
93
3
72
1
10
-17.9188134547377
20
0
11
-17.4240921446637
21
-3.49536273281737
72
1
10
-17.4240921446637
20
-3.49536273281737
11
-18.3456162150697
21
-3.50430776447038
72
1
10
-18.3456162150697
20
-3.50430776447038
11
-17.9188134547377
21
0
97
0
75
0
76
1
52
0
41
0.0062
77
0
78
1
53
45
43
0
44
0
45
-0.0139193969876572
46
0.0139193969876572
79
0
47
0
98
1
10
0
20
0
0
HATCH
5
14C
100
AcDbEntity
8
SK2
62
256
6
ByLayer
370
13
48
1
60
0
100
AcDbHatch
10
0
20
0
30
0
210
0
220
0
230
1
2
ANSI31
70
0
71
0
91
1
92
5
93
3
72
1
10
-17.8546820003551
20
3.40017667925861
11
-18.1490373867778
21
6.91808297634694
72
1
10
-18.1490373867778
20
6.91808297634694
11
-17.2285057263388
21
6.87440130904488
72
1
10
-17.2285057263388
20
6.87440130904488
11
-17.8546820003551
21
3.40017667925861
97
0
75
0
76
1
52
0
41
0.0062
77
0
78
1
53
45
43
0
44
0
45
-0.0139193969876572
46
0.0139193969876572
79
0
47
0
98
1
10
0
20
0
0
DIMENSION
5
159
100
AcDbEntity
8
SK2
62
256
6
ByLayer
370
18
48
1
60
0
100
AcDbDimension
2
_U0
10
34
20
-38.095058
30
0
11
-1
21
-38.095058
31
0
70
32
71
1
72
1
41
1
210
0
220
0
230
1
3
Standard
100
AcDbAlignedDimension
13
-36
23
3
33
0
14
34
24
1.5
34
0
50
0
100
AcDbRotatedDimension
1001
ACAD
1000
DSTYLE
1002
{
1070
   371
1070
    13
1070
   372
1070
    13
1070
     3
1000

1070
   170
1070
     0
1070
   144
1040
1.0
1070
   277
1070
     2
1070
   284
1070
     8
1070
   278
1070
    46
1070
   146
1040
1.166667
1070
   345
1005
16
1070
   347
1005
16
1070
   346
1005
16
1070
   344
1005
0
1070
   343
1005
0
1070
   172
1070
     1
1070
    76
1070
     0
1070
    75
1070
     0
1070
   282
1070
     0
1070
   281
1070
     0
1070
    71
1070
     0
1070
    74
1070
     0
1070
   279
1070
     0
1070
   173
1070
     1
1070
   340
1005
12F
1070
   271
1070
     2
1070
   272
1070
     2
1070
    77
1070
     1
1070
    73
1070
     1
1070
   171
1070
     3
1070
   274
1070
     4
1070
   177
1070
     2
1070
   176
1070
     2
1070
   178
1070
     2
1070
    78
1070
     8
1070
    48
1040
-0.1
1070
    41
1040
3.5
1070
   147
1040
1.5
1070
    42
1040
1.5875
1070
    44
1040
2.0
1070
   140
1040
3.0
1002
}
1001
ACAD_DSTYLE_DIM_LINETYPE
1070
   380
1005
16
1001
ACAD_DSTYLE_DIM_EXT1_LINETYPE
1070
   381
1005
16
1001
ACAD_DSTYLE_DIM_EXT2_LINETYPE
1070
   382
1005
16
0
DIMENSION
5
172
100
AcDbEntity
8
SK2
62
256
6
ByLayer
370
18
48
1
60
0
100
AcDbDimension
2
_U1
10
0
20
-26.095058
30
0
11
17
21
-26.095058
31
0
70
32
71
1
72
1
41
1
210
0
220
0
230
1
3
Standard
100
AcDbAlignedDimension
13
34
23
-1.5
33
0
14
0
24
-3
34
0
50
0
100
AcDbRotatedDimension
1001
ACAD
1000
DSTYLE
1002
{
1070
   371
1070
    13
1070
   372
1070
    13
1070
     3
1000

1070
   170
1070
     0
1070
   144
1040
1.0
1070
   277
1070
     2
1070
   284
1070
     8
1070
   278
1070
    46
1070
   146
1040
1.166667
1070
   345
1005
16
1070
   347
1005
16
1070
   346
1005
16
1070
   344
1005
0
1070
   343
1005
0
1070
   172
1070
     1
1070
    76
1070
     0
1070
    75
1070
     0
1070
   282
1070
     0
1070
   281
1070
     0
1070
    71
1070
     0
1070
    74
1070
     0
1070
   279
1070
     0
1070
   173
1070
     1
1070
   340
1005
12F
1070
   271
1070
     2
1070
   272
1070
     2
1070
    77
1070
     1
1070
    73
1070
     1
1070
   171
1070
     3
1070
   274
1070
     4
1070
   177
1070
     2
1070
   176
1070
     2
1070
   178
1070
     2
1070
    78
1070
     8
1070
    48
1040
-0.1
1070
    41
1040
3.5
1070
   147
1040
1.5
1070
    42
1040
1.5875
1070
    44
1040
2.0
1070
   140
1040
3.0
1002
}
1001
ACAD_DSTYLE_DIM_LINETYPE
1070
   380
1005
16
1001
ACAD_DSTYLE_DIM_EXT1_LINETYPE
1070
   381
1005
16
1001
ACAD_DSTYLE_DIM_EXT2_LINETYPE
1070
   382
1005
16
0
DIMENSION
5
18A
100
AcDbEntity
8
SK2
62
256
6
ByLayer
370
18
48
1
60
0
100
AcDbDimension
2
_U2
10
16
20
-12.095058
30
0
11
25
21
-12.095058
31
0
70
32
71
1
72
1
41
1
210
0
220
0
230
1
3
Standard
100
AcDbAlignedDimension
13
34
23
-1.5
33
0
14
16
24
-3
34
0
50
0
100
AcDbRotatedDimension
1001
ACAD
1000
DSTYLE
1002
{
1070
   371
1070
    13
1070
   372
1070
    13
1070
     3
1000

1070
   170
1070
     0
1070
   144
1040
1.0
1070
   277
1070
     2
1070
   284
1070
     8
1070
   278
1070
    46
1070
   146
1040
1.166667
1070
   345
1005
16
1070
   347
1005
16
1070
   346
1005
16
1070
   344
1005
0
1070
   343
1005
0
1070
   172
1070
     1
1070
    76
1070
     0
1070
    75
1070
     0
1070
   282
1070
     0
1070
   281
1070
     0
1070
    71
1070
     0
1070
    74
1070
     0
1070
   279
1070
     0
1070
   173
1070
     1
1070
   340
1005
12F
1070
   271
1070
     2
1070
   272
1070
     2
1070
    77
1070
     1
1070
    73
1070
     1
1070
   171
1070
     3
1070
   274
1070
     4
1070
   177
1070
     2
1070
   176
1070
     2
1070
   178
1070
     2
1070
    78
1070
     8
1070
    48
1040
-0.1
1070
    41
1040
3.5
1070
   147
1040
1.5
1070
    42
1040
1.5875
1070
    44
1040
2.0
1070
   140
1040
3.0
1002
}
1001
ACAD_DSTYLE_DIM_LINETYPE
1070
   380
1005
16
1001
ACAD_DSTYLE_DIM_EXT1_LINETYPE
1070
   381
1005
16
1001
ACAD_DSTYLE_DIM_EXT2_LINETYPE
1070
   382
1005
16
0
ENDSEC
0
SECTION
2
OBJECTS
0
DICTIONARY
5
212
330
0
100
AcDbDictionary
280
0
281
1
3
ACAD_GROUP
350
213
3
ACAD_MLINESTYLE
350
214
0
DICTIONARY
5
213
330
0
100
AcDbDictionary
280
0
281
1
0
DICTIONARY
5
214
330
0
100
AcDbDictionary
280
0
281
1
3
Standard
350
18
0
MLINESTYLE
5
18
330
214
100
AcDbMlineStyle
2
Standard
70
0
3

62
256
51
90
52
90
71
2
49
-0.5
62
256
6
ByLayer
49
0.5
62
256
6
ByLayer
0
RASTERVARIABLES
5
200
330

100
AcDbRasterVariables
90
0
70
1
71
1
72
1
0
ENDSEC
0
EOF
