0
SECTION
2
HEADER
9
$ACADVER
1
AC1015
9
$DWGCODEPAGE
3
ANSI_1252
9
$HANDSEED
5
211
9
$ANGBASE
50
0
9
$ANGDIR
70
0
9
$ATTMODE
70
1
9
$AUNITS
70
0
9
$AUPREC
70
0
9
$CECOLOR
62
256
9
$CELTSCALE
40
1
9
$CELTYPE
6
ByLayer
9
$CELWEIGHT
370
18
9
$CLAYER
8
0
9
$CMLJUST
70
0
9
$CMLSCALE
40
1
9
$CMLSTYLE
2
Standard
9
$DIMSTYLE
2
Standard
9
$TEXTSIZE
40
0.2
9
$TEXTSTYLE
7
Standard
9
$LUNITS
70
2
9
$LUPREC
70
4
9
$EXTNAMES
290
1
9
$INSUNITS
70
4
9
$LTSCALE
40
1
9
$LWDISPLAY
290
1
9
$PDMODE
70
0
9
$PDSIZE
40
0
9
$PLINEGEN
70
0
0
ENDSEC
0
SECTION
2
CLASSES
0
CLASS
1
RASTERVARIABLES
2
AcDbRasterVariables
3
ISM
90
0
280
0
281
0
0
ENDSEC
0
SECTION
2
TABLES
0
TABLE
2
VPORT
5
207
100
AcDbSymbolTable
0
VPORT
5
1
100
AcDbSymbolTableRecord
100
AcDbViewportTableRecord
2
*Active
70
0
10
0
20
0
11
1
21
1
12
-1
22
1
13
0
23
0
14
0.5
24
0.5
15
10
25
10
16
0
26
0
36
1
17
0
27
0
37
0
0
ENDTAB
0
TABLE
2
LTYPE
5
208
100
AcDbSymbolTable
0
LTYPE
5
14
100
AcDbSymbolTableRecord
100
AcDbLinetypeTableRecord
70
0
2
ByBlock
3

72
65
73
0
40
0
0
LTYPE
5
15
100
AcDbSymbolTableRecord
100
AcDbLinetypeTableRecord
70
0
2
ByLayer
3

72
65
73
0
40
0
0
LTYPE
5
16
100
AcDbSymbolTableRecord
100
AcDbLinetypeTableRecord
70
0
2
Continuous
3
Solid line
72
65
73
0
40
0
0
LTYPE
5
6E
100
AcDbSymbolTableRecord
100
AcDbLinetypeTableRecord
70
0
2
CENTER
3
____ _ ____ _ ____ _ ____
72
65
73
4
40
47.5
49
22
74
0
49
-8.5
74
0
49
8.5
74
0
49
-8.5
74
0
0
LTYPE
5
6F
100
AcDbSymbolTableRecord
100
AcDbLinetypeTableRecord
70
0
2
DASHED
3
__ __ __ __ __ __ __ __ __
72
65
73
2
40
25.72
49
12.86
74
0
49
-12.86
74
0
0
ENDTAB
0
TABLE
2
LAYER
5
209
100
AcDbSymbolTable
0
LAYER
5
10
100
AcDbSymbolTableRecord
100
AcDbLayerTableRecord
2
0
70
0
62
7
6
Continuous
290
1
370
-3
390
0
0
LAYER
5
71
100
AcDbSymbolTableRecord
100
AcDbLayerTableRecord
2
81
70
0
62
-3
6
Continuous
290
1
370
-3
390
0
0
LAYER
5
73
100
AcDbSymbolTableRecord
100
AcDbLayerTableRecord
2
1
70
0
62
4
6
Continuous
290
1
370
-3
390
0
0
LAYER
5
75
100
AcDbSymbolTableRecord
100
AcDbLayerTableRecord
2
80
70
0
62
-6
6
Continuous
290
1
370
-3
390
0
0
LAYER
5
82
100
AcDbSymbolTableRecord
100
AcDbLayerTableRecord
2
4
70
0
62
-2
6
CENTER
290
1
370
-3
390
0
0
LAYER
5
14E
100
AcDbSymbolTableRecord
100
AcDbLayerTableRecord
2
Defpoints
70
0
62
7
6
Continuous
290
0
370
-3
390
0
0
LAYER
5
1f3
100
AcDbSymbolTableRecord
100
AcDbLayerTableRecord
2
SK4
70
0
62
2
6
CENTER
290
1
370
-3
390
0
0
LAYER
5
1f4
100
AcDbSymbolTableRecord
100
AcDbLayerTableRecord
2
SK1
70
0
62
4
6
Continuous
290
1
370
-3
390
0
0
LAYER
5
1f5
100
AcDbSymbolTableRecord
100
AcDbLayerTableRecord
2
SK2
70
0
62
7
6
Continuous
290
1
370
-3
390
0
0
LAYER
5
1f6
100
AcDbSymbolTableRecord
100
AcDbLayerTableRecord
2
SK6
70
0
62
5
6
Continuous
290
1
370
-3
390
0
0
ENDTAB
0
TABLE
2
STYLE
5
20a
100
AcDbSymbolTable
0
STYLE
5
11
100
AcDbSymbolTableRecord
100
AcDbTextStyleTableRecord
2
Standard
3
txt
70
0
71
0
40
0
41
1
42
0
50
0
0
STYLE
5
121
100
AcDbSymbolTableRecord
100
AcDbTextStyleTableRecord
2
iso_b_vert
3
simplex.shx
70
0
71
0
40
0
41
1
42
0
50
0
0
STYLE
5
122
100
AcDbSymbolTableRecord
100
AcDbTextStyleTableRecord
2
DWGDirectTextStyle
3
simplex
70
0
71
0
40
0
41
1
42
0
50
0
0
ENDTAB
0
TABLE
2
DIMSTYLE
5
20b
100
AcDbSymbolTable
100
AcDbDimStyleTable
0
DIMSTYLE
105
27
100
AcDbSymbolTableRecord
100
AcDbDimStyleTableRecord
2
Standard
70
0
3
<>
41
0.18
42
0.0625
44
0.18
140
0.18
147
0.09
73
0
74
0
77
1
271
2
275
0
278
52
280
0
340
11
0
ENDTAB
0
TABLE
2
VIEW
5
20c
100
AcDbSymbolTable
0
ENDTAB
0
TABLE
2
UCS
5
20d
100
AcDbSymbolTable
0
ENDTAB
0
TABLE
2
APPID
5
20e
100
AcDbSymbolTable
0
APPID
5
12
100
AcDbSymbolTableRecord
100
AcDbRegAppTableRecord
2
ACAD
70
0
0
APPID
5
14A
100
AcDbSymbolTableRecord
100
AcDbRegAppTableRecord
2
ACAD_DSTYLE_DIMBREAK
70
0
0
APPID
5
1B2
100
AcDbSymbolTableRecord
100
AcDbRegAppTableRecord
2
ACAD_DSTYLE_DIM_LINETYPE
70
0
0
APPID
5
1B3
100
AcDbSymbolTableRecord
100
AcDbRegAppTableRecord
2
ACAD_DSTYLE_DIM_EXT1_LINETYPE
70
0
0
APPID
5
1B4
100
AcDbSymbolTableRecord
100
AcDbRegAppTableRecord
2
ACAD_DSTYLE_DIM_EXT2_LINETYPE
70
0
0
APPID
5
1EF
100
AcDbSymbolTableRecord
100
AcDbRegAppTableRecord
2
ACAD_MLEADERVER
70
0
0
ENDTAB
0
TABLE
2
BLOCK_RECORD
5
20f
100
AcDbSymbolTable
0
BLOCK_RECORD
5
1F
100
AcDbSymbolTableRecord
100
AcDbBlockTableRecord
2
*Model_Space
340
0
70
0
0
BLOCK_RECORD
5
1B
100
AcDbSymbolTableRecord
100
AcDbBlockTableRecord
2
*Paper_Space
340
0
70
0
0
BLOCK_RECORD
5
23
100
AcDbSymbolTableRecord
100
AcDbBlockTableRecord
2
*Paper_Space0
340
0
70
0
0
BLOCK_RECORD
5
13F
100
AcDbSymbolTableRecord
100
AcDbBlockTableRecord
2
LABLE3D_1
340
0
70
0
0
BLOCK_RECORD
5
14F
100
AcDbSymbolTableRecord
100
AcDbBlockTableRecord
2
*D2
340
0
70
0
0
BLOCK_RECORD
5
15B
100
AcDbSymbolTableRecord
100
AcDbBlockTableRecord
2
_U0
340
0
70
0
0
BLOCK_RECORD
5
167
100
AcDbSymbolTableRecord
100
AcDbBlockTableRecord
2
*D4
340
0
70
0
0
BLOCK_RECORD
5
173
100
AcDbSymbolTableRecord
100
AcDbBlockTableRecord
2
_U1
340
0
70
0
0
BLOCK_RECORD
5
17F
100
AcDbSymbolTableRecord
100
AcDbBlockTableRecord
2
*D6
340
0
70
0
0
BLOCK_RECORD
5
18B
100
AcDbSymbolTableRecord
100
AcDbBlockTableRecord
2
_U2
340
0
70
0
0
ENDTAB
0
ENDSEC
0
SECTION
2
BLOCKS
0
BLOCK
5
20
100
AcDbEntity
8
0
100
AcDbBlockBegin
2
*Model_Space
70
0
10
0
20
0
30
0
3
*Model_Space
0
ENDBLK
5
21
100
AcDbEntity
8
0
100
AcDbBlockEnd
0
BLOCK
5
1C
100
AcDbEntity
8
0
100
AcDbBlockBegin
2
*Paper_Space
70
0
10
0
20
0
30
0
3
*Paper_Space
0
ENDBLK
5
1D
100
AcDbEntity
8
0
100
AcDbBlockEnd
0
BLOCK
5
24
100
AcDbEntity
8
0
100
AcDbBlockBegin
2
*Paper_Space0
70
0
10
0
20
0
30
0
3
*Paper_Space0
0
ENDBLK
5
25
100
AcDbEntity
8
0
100
AcDbBlockEnd
0
BLOCK
5
146
100
AcDbEntity
8
0
100
AcDbBlockBegin
2
LABLE3D_1
70
0
10
94.300458
20
-23.2448
30
0
3
LABLE3D_1
0
MTEXT
5
144
100
AcDbEntity
8
1
62
256
6
ByLayer
370
18
48
1
60
0
100
AcDbMText
10
95.959458
20
-25.359686
30
0
210
0
220
0
230
1
1
\W0.7167;R5
40
3
41
0
44
1.084337
50
0
71
7
72
5
7
iso_b_vert
0
ENDBLK
5
147
100
AcDbEntity
8
0
100
AcDbBlockEnd
0
BLOCK
5
150
100
AcDbEntity
8
0
100
AcDbBlockBegin
2
*D2
70
1
10
0
20
0
30
0
3
*D2
0
LINE
5
152
100
AcDbEntity
8
0
62
256
6
ByLayer
370
-2
48
1
60
0
100
AcDbLine
10
-45
20
4.4125
30
0
11
-45
21
-44.906855
31
0
39
0
210
0
220
0
230
1
0
LINE
5
153
100
AcDbEntity
8
0
62
256
6
ByLayer
370
-2
48
1
60
0
100
AcDbLine
10
80
20
3.4125
30
0
11
80
21
-44.906855
31
0
39
0
210
0
220
0
230
1
0
LINE
5
154
100
AcDbEntity
8
0
62
256
6
ByLayer
370
-2
48
1
60
0
100
AcDbLine
10
-41.5
20
-42.906855
30
0
11
76.5
21
-42.906855
31
0
39
0
210
0
220
0
230
1
0
SOLID
5
155
100
AcDbEntity
8
0
62
256
6
ByLayer
370
-1
48
1
60
0
100
AcDbTrace
10
-41.5
20
-42.323522
30
0
11
-41.5
21
-43.490189
31
0
12
-45
22
-42.906855
32
0
13
-45
23
-42.906855
33
0
39
0
210
0
220
0
230
1
0
SOLID
5
156
100
AcDbEntity
8
0
62
256
6
ByLayer
370
-1
48
1
60
0
100
AcDbTrace
10
76.5
20
-43.490189
30
0
11
76.5
21
-42.323522
31
0
12
80
22
-42.906855
32
0
13
80
23
-42.906855
33
0
39
0
210
0
220
0
230
1
0
MTEXT
5
157
100
AcDbEntity
8
0
62
256
6
ByLayer
370
18
48
1
60
0
100
AcDbMText
10
17.5
20
-36.906855
30
0
210
0
220
0
230
1
1
\A1;125
40
3
41
0
44
1
50
0
71
5
72
5
7
iso_b_vert
0
POINT
5
158
100
AcDbEntity
8
Defpoints
62
0
6
ByLayer
370
-1
48
1
60
0
100
AcDbPoint
10
-45
20
6
30
0
39
0
210
0
220
0
230
1
50
360
0
POINT
5
159
100
AcDbEntity
8
Defpoints
62
0
6
ByLayer
370
-1
48
1
60
0
100
AcDbPoint
10
80
20
5
30
0
39
0
210
0
220
0
230
1
50
360
0
POINT
5
15A
100
AcDbEntity
8
Defpoints
62
0
6
ByLayer
370
-1
48
1
60
0
100
AcDbPoint
10
80
20
-42.906855
30
0
39
0
210
0
220
0
230
1
50
360
0
ENDBLK
5
151
100
AcDbEntity
8
0
100
AcDbBlockEnd
0
BLOCK
5
162
100
AcDbEntity
8
0
100
AcDbBlockBegin
2
_U0
70
0
10
0
20
0
30
0
3
_U0
0
MTEXT
5
15C
100
AcDbEntity
8
SK2
62
256
6
ByLayer
370
18
48
1
60
0
100
AcDbMText
10
15.121201
20
-42.021741
30
0
210
0
220
0
230
1
1
\W0.6217;125
40
3
41
0
44
1.084337
50
0
71
7
72
5
7
iso_b_vert
0
LINE
5
15D
100
AcDbEntity
8
SK2
62
256
6
ByLayer
370
13
48
1
60
0
100
AcDbLine
10
-45
20
4.4125
30
0
11
-45
21
-44.906855
31
0
39
0
210
0
220
0
230
1
0
LINE
5
15E
100
AcDbEntity
8
SK2
62
256
6
ByLayer
370
13
48
1
60
0
100
AcDbLine
10
80
20
3.4125
30
0
11
80
21
-44.906855
31
0
39
0
210
0
220
0
230
1
0
LINE
5
15F
100
AcDbEntity
8
SK2
62
256
6
ByLayer
370
13
48
1
60
0
100
AcDbLine
10
-45
20
-42.906855
30
0
11
80
21
-42.906855
31
0
39
0
210
0
220
0
230
1
0
SOLID
5
160
100
AcDbEntity
8
SK2
62
256
6
ByLayer
370
18
48
1
60
0
100
AcDbTrace
10
-45
20
-42.906855
30
0
11
-41.500002
21
-42.446072
31
0
12
-41.499998
22
-43.367639
32
0
13
-41.499998
23
-43.367639
33
0
39
0
210
0
220
0
230
1
0
SOLID
5
161
100
AcDbEntity
8
SK2
62
256
6
ByLayer
370
18
48
1
60
0
100
AcDbTrace
10
80
20
-42.906855
30
0
11
76.500002
21
-43.367639
31
0
12
76.499998
22
-42.446072
32
0
13
76.499998
23
-42.446072
33
0
39
0
210
0
220
0
230
1
0
ENDBLK
5
163
100
AcDbEntity
8
0
100
AcDbBlockEnd
0
BLOCK
5
168
100
AcDbEntity
8
0
100
AcDbBlockBegin
2
*D4
70
1
10
0
20
0
30
0
3
*D4
0
LINE
5
16A
100
AcDbEntity
8
0
62
256
6
ByLayer
370
-2
48
1
60
0
100
AcDbLine
10
80
20
-6.5875
30
0
11
80
21
-32.906855
31
0
39
0
210
0
220
0
230
1
0
LINE
5
16B
100
AcDbEntity
8
0
62
256
6
ByLayer
370
-2
48
1
60
0
100
AcDbLine
10
0
20
-7.5875
30
0
11
0
21
-32.906855
31
0
39
0
210
0
220
0
230
1
0
LINE
5
16C
100
AcDbEntity
8
0
62
256
6
ByLayer
370
-2
48
1
60
0
100
AcDbLine
10
76.5
20
-30.906855
30
0
11
3.5
21
-30.906855
31
0
39
0
210
0
220
0
230
1
0
SOLID
5
16D
100
AcDbEntity
8
0
62
256
6
ByLayer
370
-1
48
1
60
0
100
AcDbTrace
10
76.5
20
-31.490189
30
0
11
76.5
21
-30.323522
31
0
12
80
22
-30.906855
32
0
13
80
23
-30.906855
33
0
39
0
210
0
220
0
230
1
0
SOLID
5
16E
100
AcDbEntity
8
0
62
256
6
ByLayer
370
-1
48
1
60
0
100
AcDbTrace
10
3.5
20
-30.323522
30
0
11
3.5
21
-31.490189
31
0
12
0
22
-30.906855
32
0
13
0
23
-30.906855
33
0
39
0
210
0
220
0
230
1
0
MTEXT
5
16F
100
AcDbEntity
8
0
62
256
6
ByLayer
370
18
48
1
60
0
100
AcDbMText
10
40
20
-24.906855
30
0
210
0
220
0
230
1
1
\A1;80
40
3
41
0
44
1
50
0
71
5
72
5
7
iso_b_vert
0
POINT
5
170
100
AcDbEntity
8
Defpoints
62
0
6
ByLayer
370
-1
48
1
60
0
100
AcDbPoint
10
80
20
-5
30
0
39
0
210
0
220
0
230
1
50
360
0
POINT
5
171
100
AcDbEntity
8
Defpoints
62
0
6
ByLayer
370
-1
48
1
60
0
100
AcDbPoint
10
0
20
-6
30
0
39
0
210
0
220
0
230
1
50
360
0
POINT
5
172
100
AcDbEntity
8
Defpoints
62
0
6
ByLayer
370
-1
48
1
60
0
100
AcDbPoint
10
0
20
-30.906855
30
0
39
0
210
0
220
0
230
1
50
360
0
ENDBLK
5
169
100
AcDbEntity
8
0
100
AcDbBlockEnd
0
BLOCK
5
17A
100
AcDbEntity
8
0
100
AcDbBlockBegin
2
_U1
70
0
10
0
20
0
30
0
3
_U1
0
MTEXT
5
174
100
AcDbEntity
8
SK2
62
256
6
ByLayer
370
18
48
1
60
0
100
AcDbMText
10
38.367172
20
-30.021741
30
0
210
0
220
0
230
1
1
\W0.6740;80
40
3
41
0
44
1.084337
50
0
71
7
72
5
7
iso_b_vert
0
LINE
5
175
100
AcDbEntity
8
SK2
62
256
6
ByLayer
370
13
48
1
60
0
100
AcDbLine
10
80
20
-6.5875
30
0
11
80
21
-32.906855
31
0
39
0
210
0
220
0
230
1
0
LINE
5
176
100
AcDbEntity
8
SK2
62
256
6
ByLayer
370
13
48
1
60
0
100
AcDbLine
10
0
20
-7.5875
30
0
11
0
21
-32.906855
31
0
39
0
210
0
220
0
230
1
0
LINE
5
177
100
AcDbEntity
8
SK2
62
256
6
ByLayer
370
13
48
1
60
0
100
AcDbLine
10
80
20
-30.906855
30
0
11
0
21
-30.906855
31
0
39
0
210
0
220
0
230
1
0
SOLID
5
178
100
AcDbEntity
8
SK2
62
256
6
ByLayer
370
18
48
1
60
0
100
AcDbTrace
10
80
20
-30.906855
30
0
11
76.500002
21
-31.367639
31
0
12
76.499998
22
-30.446072
32
0
13
76.499998
23
-30.446072
33
0
39
0
210
0
220
0
230
1
0
SOLID
5
179
100
AcDbEntity
8
SK2
62
256
6
ByLayer
370
18
48
1
60
0
100
AcDbTrace
10
0
20
-30.906855
30
0
11
3.499998
21
-30.446072
31
0
12
3.500002
22
-31.367639
32
0
13
3.500002
23
-31.367639
33
0
39
0
210
0
220
0
230
1
0
ENDBLK
5
17B
100
AcDbEntity
8
0
100
AcDbBlockEnd
0
BLOCK
5
180
100
AcDbEntity
8
0
100
AcDbBlockBegin
2
*D6
70
1
10
0
20
0
30
0
3
*D6
0
LINE
5
182
100
AcDbEntity
8
0
62
256
6
ByLayer
370
-2
48
1
60
0
100
AcDbLine
10
80
20
-6.5875
30
0
11
80
21
-18.906855
31
0
39
0
210
0
220
0
230
1
0
LINE
5
183
100
AcDbEntity
8
0
62
256
6
ByLayer
370
-2
48
1
60
0
100
AcDbLine
10
58
20
-7.5875
30
0
11
58
21
-18.906855
31
0
39
0
210
0
220
0
230
1
0
LINE
5
184
100
AcDbEntity
8
0
62
256
6
ByLayer
370
-2
48
1
60
0
100
AcDbLine
10
76.5
20
-16.906855
30
0
11
61.5
21
-16.906855
31
0
39
0
210
0
220
0
230
1
0
SOLID
5
185
100
AcDbEntity
8
0
62
256
6
ByLayer
370
-1
48
1
60
0
100
AcDbTrace
10
76.5
20
-17.490189
30
0
11
76.5
21
-16.323522
31
0
12
80
22
-16.906855
32
0
13
80
23
-16.906855
33
0
39
0
210
0
220
0
230
1
0
SOLID
5
186
100
AcDbEntity
8
0
62
256
6
ByLayer
370
-1
48
1
60
0
100
AcDbTrace
10
61.5
20
-16.323522
30
0
11
61.5
21
-17.490189
31
0
12
58
22
-16.906855
32
0
13
58
23
-16.906855
33
0
39
0
210
0
220
0
230
1
0
MTEXT
5
187
100
AcDbEntity
8
0
62
256
6
ByLayer
370
18
48
1
60
0
100
AcDbMText
10
69
20
-10.906855
30
0
210
0
220
0
230
1
1
\A1;22
40
3
41
0
44
1
50
0
71
5
72
5
7
iso_b_vert
0
POINT
5
188
100
AcDbEntity
8
Defpoints
62
0
6
ByLayer
370
-1
48
1
60
0
100
AcDbPoint
10
80
20
-5
30
0
39
0
210
0
220
0
230
1
50
360
0
POINT
5
189
100
AcDbEntity
8
Defpoints
62
0
6
ByLayer
370
-1
48
1
60
0
100
AcDbPoint
10
58
20
-6
30
0
39
0
210
0
220
0
230
1
50
360
0
POINT
5
18A
100
AcDbEntity
8
Defpoints
62
0
6
ByLayer
370
-1
48
1
60
0
100
AcDbPoint
10
58
20
-16.906855
30
0
39
0
210
0
220
0
230
1
50
360
0
ENDBLK
5
181
100
AcDbEntity
8
0
100
AcDbBlockEnd
0
BLOCK
5
192
100
AcDbEntity
8
0
100
AcDbBlockBegin
2
_U2
70
0
10
0
20
0
30
0
3
_U2
0
MTEXT
5
18C
100
AcDbEntity
8
SK2
62
256
6
ByLayer
370
18
48
1
60
0
100
AcDbMText
10
67.367172
20
-16.021741
30
0
210
0
220
0
230
1
1
\W0.6740;22
40
3
41
0
44
1.084337
50
0
71
7
72
5
7
iso_b_vert
0
LINE
5
18D
100
AcDbEntity
8
SK2
62
256
6
ByLayer
370
13
48
1
60
0
100
AcDbLine
10
80
20
-6.5875
30
0
11
80
21
-18.906855
31
0
39
0
210
0
220
0
230
1
0
LINE
5
18E
100
AcDbEntity
8
SK2
62
256
6
ByLayer
370
13
48
1
60
0
100
AcDbLine
10
58
20
-7.5875
30
0
11
58
21
-18.906855
31
0
39
0
210
0
220
0
230
1
0
LINE
5
18F
100
AcDbEntity
8
SK2
62
256
6
ByLayer
370
13
48
1
60
0
100
AcDbLine
10
80
20
-16.906855
30
0
11
58
21
-16.906855
31
0
39
0
210
0
220
0
230
1
0
SOLID
5
190
100
AcDbEntity
8
SK2
62
256
6
ByLayer
370
18
48
1
60
0
100
AcDbTrace
10
80
20
-16.906855
30
0
11
76.500002
21
-17.367639
31
0
12
76.499998
22
-16.446072
32
0
13
76.499998
23
-16.446072
33
0
39
0
210
0
220
0
230
1
0
SOLID
5
191
100
AcDbEntity
8
SK2
62
256
6
ByLayer
370
18
48
1
60
0
100
AcDbTrace
10
58
20
-16.906855
30
0
11
61.499998
21
-16.446072
31
0
12
61.500002
22
-17.367639
32
0
13
61.500002
23
-17.367639
33
0
39
0
210
0
220
0
230
1
0
ENDBLK
5
193
100
AcDbEntity
8
0
100
AcDbBlockEnd
0
ENDSEC
0
SECTION
2
ENTITIES
0
ARC
5
B3
100
AcDbEntity
8
1
62
256
6
ByLayer
370
18
48
1
60
0
100
AcDbCircle
39
0
10
75
20
0
30
0
40
5
210
0
220
0
230
1
100
AcDbArc
50
296.528122
51
347.674697
0
ARC
5
B4
100
AcDbEntity
8
1
62
256
6
ByLayer
370
18
48
1
60
0
100
AcDbCircle
39
0
10
75
20
0
30
0
40
5
210
0
220
0
230
1
100
AcDbArc
50
347.674697
51
349.076032
0
ARC
5
B5
100
AcDbEntity
8
1
62
256
6
ByLayer
370
18
48
1
60
0
100
AcDbCircle
39
0
10
75
20
0
30
0
40
5
210
0
220
0
230
1
100
AcDbArc
50
349.076032
51
11.755406
0
ARC
5
B6
100
AcDbEntity
8
1
62
256
6
ByLayer
370
18
48
1
60
0
100
AcDbCircle
39
0
10
75
20
0
30
0
40
5
210
0
220
0
230
1
100
AcDbArc
50
11.755406
51
63.884058
0
ARC
5
B7
100
AcDbEntity
8
SK2
62
256
6
ByLayer
370
13
48
1
60
0
100
AcDbCircle
39
0
10
345
20
0
30
0
40
319.366789177842
210
0
220
0
230
1
100
AcDbArc
50
178.939088
51
181.345285
0
ARC
5
B8
100
AcDbEntity
8
SK2
62
256
6
ByLayer
370
13
48
1
60
0
100
AcDbCircle
39
0
10
345
20
0
30
0
40
319.366789177842
210
0
220
0
230
1
100
AcDbArc
50
177.332903
51
178.939088
0
POINT
5
70
100
AcDbEntity
8
81
62
256
6
ByLayer
370
18
48
1
60
0
100
AcDbPoint
10
80
20
0
30
0
39
0
210
0
220
0
230
1
50
360
0
POINT
5
72
100
AcDbEntity
8
1
62
256
6
ByLayer
370
18
48
1
60
0
100
AcDbPoint
10
-45
20
0
30
0
39
0
210
0
220
0
230
1
50
360
0
POINT
5
74
100
AcDbEntity
8
80
62
256
6
ByLayer
370
18
48
1
60
0
100
AcDbPoint
10
0
20
0
30
0
39
0
210
0
220
0
230
1
50
360
0
POINT
5
76
100
AcDbEntity
8
1
62
256
6
ByLayer
370
18
48
1
60
1
100
AcDbPoint
10
-45
20
6
30
0
39
0
210
0
220
0
230
1
50
360
0
POINT
5
77
100
AcDbEntity
8
1
62
256
6
ByLayer
370
18
48
1
60
1
100
AcDbPoint
10
80
20
5
30
0
39
0
210
0
220
0
230
1
50
360
0
POINT
5
78
100
AcDbEntity
8
1
62
256
6
ByLayer
370
18
48
1
60
1
100
AcDbPoint
10
80
20
-5
30
0
39
0
210
0
220
0
230
1
50
360
0
POINT
5
79
100
AcDbEntity
8
1
62
256
6
ByLayer
370
18
48
1
60
1
100
AcDbPoint
10
0
20
-6
30
0
39
0
210
0
220
0
230
1
50
360
0
POINT
5
7A
100
AcDbEntity
8
1
62
256
6
ByLayer
370
18
48
1
60
1
100
AcDbPoint
10
80
20
-5
30
0
39
0
210
0
220
0
230
1
50
360
0
POINT
5
7B
100
AcDbEntity
8
1
62
256
6
ByLayer
370
18
48
1
60
1
100
AcDbPoint
10
58
20
-6
30
0
39
0
210
0
220
0
230
1
50
360
0
POINT
5
7C
100
AcDbEntity
8
1
62
256
6
ByLayer
370
18
48
1
60
1
100
AcDbPoint
10
79.7
20
-4.7448
30
0
39
0
210
0
220
0
230
1
50
360
0
SPLINE
5
B9
100
AcDbEntity
8
1
62
256
6
ByLayer
370
18
48
1
60
0
100
AcDbSpline
70
4
71
3
72
37
73
33
40
0
40
0
40
0
40
0
40
0.125000000000054
40
0.125000000000054
40
0.250000000000109
40
0.250000000000109
40
0.375000000000163
40
0.375000000000163
40
0.437500000000192
40
0.437500000000192
40
0.50000000000022
40
0.50000000000022
40
0.562500000000249
40
0.562500000000249
40
0.593750000000231
40
0.593750000000231
40
0.625000000000213
40
0.656250000000196
40
0.656250000000196
40
0.687500000000178
40
0.687500000000178
40
0.71875000000016
40
0.71875000000016
40
0.750000000000142
40
0.750000000000142
40
0.812500000000107
40
0.812500000000107
40
0.875000000000071
40
0.875000000000071
40
0.937500000000036
40
0.937500000000036
40
1
40
1
40
1
40
1
41
1
10
77.0408397162905
20
4.21598410735419
30
0
41
1
10
77.0557831446616
20
4.21979248721817
30
0
41
1
10
77.0707732467208
20
4.22403193638601
30
0
41
1
10
77.1006641680577
20
4.2336557758189
30
0
41
1
10
77.1155458496625
20
4.23902610165391
30
0
41
1
10
77.1450911006738
20
4.2514233104115
30
0
41
1
10
77.1597793107877
20
4.25845744793122
30
0
41
1
10
77.1810655245198
20
4.27078465313858
30
0
41
1
10
77.188049466411
20
4.27519884073985
30
0
41
1
10
77.2017136667765
20
4.28484732452236
30
0
41
1
10
77.2084118647897
20
4.290092138685
30
0
41
1
10
77.2212974962497
20
4.30170212387904
30
0
41
1
10
77.2273707624452
20
4.30796148428303
30
0
41
1
10
77.2357114972597
20
4.31829349197562
30
0
41
1
10
77.2383765438771
20
4.32192039068264
30
0
41
1
10
77.2432823090984
20
4.32938207439557
30
0
41
1
10
77.2477829744411
20
4.33706732391033
30
0
41
1
10
77.2513955009613
20
4.34524268720918
30
0
41
1
10
77.2545157069246
20
4.3536897475808
30
0
41
1
10
77.2558204423136
20
4.35804562828972
30
0
41
1
10
77.257827006609
20
4.3666976999024
30
0
41
1
10
77.2585458885185
20
4.37103545464768
30
0
41
1
10
77.259445806458
20
4.3797328651718
30
0
41
1
10
77.2596255610288
20
4.38412396980931
30
0
41
1
10
77.2594046695826
20
4.3970844485342
30
0
41
1
10
77.2582762152221
20
4.40537088980932
30
0
41
1
10
77.2545968322987
20
4.42142541976301
30
0
41
1
10
77.2520309336517
20
4.4291802550768
30
0
41
1
10
77.2460257876962
20
4.44382266414371
30
0
41
1
10
77.2425664849073
20
4.45078936454712
30
0
41
1
10
77.2349788928756
20
4.46419703302359
30
0
41
1
10
77.2308325232942
20
4.47065817957449
30
0
41
1
10
77.2264617833688
20
4.47685711394942
30
0
0
SPLINE
5
BA
100
AcDbEntity
8
1
62
256
6
ByLayer
370
18
48
1
60
0
100
AcDbSpline
70
4
71
3
72
30
73
26
40
0
40
0
40
0
40
0
40
0.180053528913715
40
0.180053528913715
40
0.282546837799508
40
0.282546837799508
40
0.385040146685302
40
0.385040146685302
40
0.590026764456893
40
0.590026764456893
40
0.692520073342689
40
0.692520073342689
40
0.795013382228485
40
0.795013382228485
40
0.846260036671364
40
0.846260036671364
40
0.897506691114243
40
0.897506691114243
40
0.923130018335682
40
0.923130018335682
40
0.948753345557121
40
0.948753345557121
40
0.97437667277856
40
0.97437667277856
40
1
40
1
40
1
40
1
41
1
10
76.8439213464278
20
3.866682406103
30
0
41
1
10
76.8501672527524
20
3.88127510153748
30
0
41
1
10
76.8576114445439
20
3.89749031970922
30
0
41
1
10
76.8705120738045
20
3.9255267008717
30
0
41
1
10
76.8754497707049
20
3.93623176951178
30
0
41
1
10
76.8857601627061
20
3.95873087850035
30
0
41
1
10
76.8911307157495
20
3.97052244321702
30
0
41
1
10
76.9075531666813
20
4.00689674483928
30
0
41
1
10
76.9189400926545
20
4.03266814816703
30
0
41
1
10
76.9372416396591
20
4.07352946092499
30
0
41
1
10
76.9435522189348
20
4.08751857085619
30
0
41
1
10
76.9570750663642
20
4.11626102111558
30
0
41
1
10
76.9642006679331
20
4.13090116664367
30
0
41
1
10
76.9762487970585
20
4.15283414228534
30
0
41
1
10
76.9804679383386
20
4.16008262191318
30
0
41
1
10
76.9896379610327
20
4.17429788702813
30
0
41
1
10
76.9945736894387
20
4.18127183675156
30
0
41
1
10
77.0030609603476
20
4.1912666292325
30
0
41
1
10
77.0060773046391
20
4.19450971637073
30
0
41
1
10
77.0123651493529
20
4.200487746687
30
0
41
1
10
77.015672841046
20
4.20326193272666
30
0
41
1
10
77.0226398806975
20
4.20820495374892
30
0
41
1
10
77.0261883486941
20
4.21029459566034
30
0
41
1
10
77.0334252928907
20
4.21371051532395
30
0
41
1
10
77.0371420918569
20
4.21504175611068
30
0
41
1
10
77.0408397162884
20
4.21598410736192
30
0
0
SPLINE
5
BB
100
AcDbEntity
8
1
62
256
6
ByLayer
370
18
48
1
60
0
100
AcDbSpline
70
4
71
3
72
16
73
12
40
0
40
0
40
0
40
0
40
0.209210519429053
40
0.209210519429053
40
0.313815779143569
40
0.313815779143569
40
0.418421038858086
40
0.418421038858086
40
0.836842077716133
40
0.836842077716133
40
1
40
1
40
1
40
1
41
1
10
77.9295886272869
20
3.29930416673034
30
-2E-16
41
1
10
77.8756644402334
20
3.32886561977338
30
2E-16
41
1
10
77.823117710933
20
3.35690180071609
30
1E-16
41
1
10
77.7461746452415
20
3.39680467827773
30
0
41
1
10
77.7208401598706
20
3.40974738676425
30
0
41
1
10
77.670769954194
20
3.43494260123163
30
-1E-16
41
1
10
77.6460336248567
20
3.44719478444097
30
-1E-16
41
1
10
77.524397022368
20
3.50650813765552
30
0
41
1
10
77.4330656913344
20
3.54801503345294
30
-1E-16
41
1
10
77.3123613178443
20
3.59957817310414
30
-1E-16
41
1
10
77.2791822344169
20
3.61337352660371
30
0
41
1
10
77.2466201462271
20
3.6265767094695
30
0
0
SPLINE
5
BC
100
AcDbEntity
8
1
62
256
6
ByLayer
370
18
48
1
60
0
100
AcDbSpline
70
4
71
3
72
8
73
4
40
0
40
0
40
0
40
0
40
1
40
1
40
1
40
1
41
1
10
58.0000000000001
20
-4.94717520739252
30
0
41
1
10
58.0000000000001
20
-5.04128637665994
30
-2E-16
41
1
10
58.0000000000001
20
-5.13539754592733
30
0
41
1
10
58.0000000000001
20
-5.22950871519473
30
-2E-16
0
SPLINE
5
BD
100
AcDbEntity
8
1
62
256
6
ByLayer
370
18
48
1
60
0
100
AcDbSpline
70
4
71
3
72
16
73
12
40
0
40
0
40
0
40
0
40
0.125
40
0.125
40
0.25
40
0.25
40
0.5
40
0.5
40
0.75
40
0.75
40
1
40
1
40
1
40
1
41
1
10
58.0000000000001
20
-5.22950871519976
30
-2E-16
41
1
10
57.9337393474128
20
-5.2047696618346
30
2E-16
41
1
10
57.867512839986
20
-5.17920246762091
30
1E-16
41
1
10
57.7342130097165
20
-5.12708932695338
30
0
41
1
10
57.667130321947
20
-5.10055133545924
30
0
41
1
10
57.4635250698855
20
-5.02045340395088
30
2E-16
41
1
10
57.3244233138843
20
-4.96659153172817
30
1E-16
41
1
10
57.0392628568775
20
-4.85947498686761
30
-2E-16
41
1
10
56.8932424668714
20
-4.8062006427034
30
2E-16
41
1
10
56.5953018828222
20
-4.7005465162259
30
-1E-16
41
1
10
56.4434004523261
20
-4.64815042912721
30
-2E-16
41
1
10
56.2891541360371
20
-4.59609269955493
30
1E-16
0
SPLINE
5
BE
100
AcDbEntity
8
1
62
256
6
ByLayer
370
18
48
1
60
0
100
AcDbSpline
70
4
71
3
72
40
73
36
40
0
40
0
40
0
40
0
40
0.124999999999997
40
0.124999999999997
40
0.156249999999997
40
0.156249999999997
40
0.187499999999996
40
0.187499999999996
40
0.249999999999995
40
0.249999999999995
40
0.374999999999988
40
0.374999999999988
40
0.499999999999982
40
0.499999999999982
40
0.562499999999978
40
0.562499999999978
40
0.624999999999975
40
0.624999999999975
40
0.749999999999984
40
0.749999999999984
40
0.812499999999988
40
0.812499999999988
40
0.874999999999991
40
0.874999999999991
40
0.906249999999993
40
0.906249999999993
40
0.937499999999995
40
0.937499999999995
40
0.953124999999996
40
0.953124999999996
40
0.968749999999998
40
0.968749999999998
40
0.984374999999999
40
0.984374999999999
40
1
40
1
40
1
40
1
41
1
10
76.8489573002132
20
1.43574337426352
30
2E-16
41
1
10
76.8387505535289
20
1.46660158823442
30
1E-16
41
1
10
76.8321371902292
20
1.49825982791557
30
0
41
1
10
76.8278314648255
20
1.53911852511956
30
-1E-16
41
1
10
76.8271687626807
20
1.54735471114895
30
-1E-16
41
1
10
76.8262283263367
20
1.5639637473848
30
-1E-16
41
1
10
76.825951191958
20
1.57235302676691
30
-1E-16
41
1
10
76.8256780889814
20
1.59748129973272
30
-2E-16
41
1
10
76.8262323197437
20
1.61425025712251
30
2E-16
41
1
10
76.8297868350539
20
1.66466647123391
30
1E-16
41
1
10
76.8346728864275
20
1.69846544371922
30
0
41
1
10
76.8481204640755
20
1.76645253532115
30
-1E-16
41
1
10
76.8564730402418
20
1.79969633498251
30
-2E-16
41
1
10
76.8705120738044
20
1.84869662454238
30
1E-16
41
1
10
76.8754497707048
20
1.86488401252348
30
1E-16
41
1
10
76.885760162706
20
1.89698738310108
30
0
41
1
10
76.8911307157493
20
1.9128902644496
30
0
41
1
10
76.9075531666811
20
1.95938162953411
30
-1E-16
41
1
10
76.9189400926543
20
1.98908582307578
30
-2E-16
41
1
10
76.937241639659
20
2.03145838958173
30
1E-16
41
1
10
76.9435522189345
20
2.04521420319429
30
1E-16
41
1
10
76.9570750663639
20
2.07171131917849
30
0
41
1
10
76.9642006679329
20
2.08436228324359
30
0
41
1
10
76.976248797058
20
2.1014808424693
30
0
41
1
10
76.9804679383381
20
2.10682743839047
30
-1E-16
41
1
10
76.9896379610321
20
2.11645245500154
30
-1E-16
41
1
10
76.9945736894382
20
2.12074763660121
30
-1E-16
41
1
10
77.0030609603471
20
2.1258056100699
30
-1E-16
41
1
10
77.0060773046384
20
2.12724451153181
30
-1E-16
41
1
10
77.0123651493523
20
2.12937516194671
30
-1E-16
41
1
10
77.0156728410452
20
2.13008475909967
30
-1E-16
41
1
10
77.0226398806968
20
2.13061729078575
30
-1E-16
41
1
10
77.0261883486934
20
2.1304317958936
30
-1E-16
41
1
10
77.03342529289
20
2.12917764314213
30
-1E-16
41
1
10
77.0371420918563
20
2.1280954951138
30
-1E-16
41
1
10
77.0408397162878
20
2.12663217882672
30
-1E-16
0
SPLINE
5
BF
100
AcDbEntity
8
1
62
256
6
ByLayer
370
18
48
1
60
0
100
AcDbSpline
70
4
71
3
72
37
73
33
40
0
40
0
40
0
40
0
40
0.125000000000097
40
0.125000000000097
40
0.250000000000193
40
0.250000000000193
40
0.37500000000029
40
0.37500000000029
40
0.4375000000003
40
0.4375000000003
40
0.500000000000311
40
0.500000000000311
40
0.562500000000321
40
0.562500000000321
40
0.593750000000297
40
0.593750000000297
40
0.625000000000272
40
0.656250000000247
40
0.656250000000247
40
0.687500000000223
40
0.687500000000223
40
0.718750000000198
40
0.718750000000198
40
0.750000000000174
40
0.750000000000174
40
0.81250000000013
40
0.81250000000013
40
0.875000000000087
40
0.875000000000087
40
0.937500000000044
40
0.937500000000044
40
1
40
1
40
1
40
1
41
1
10
77.0408397162896
20
2.12663217881848
30
-1E-16
41
1
10
77.0557831446606
20
2.12071839213758
30
-1E-16
41
1
10
77.0707732467195
20
2.11515478075719
30
-1E-16
41
1
10
77.100664168056
20
2.10503961366513
30
0
41
1
10
77.1155458496607
20
2.10048850256067
30
0
41
1
10
77.1450911006716
20
2.09284382004591
30
0
41
1
10
77.1597793107852
20
2.08974221206537
30
0
41
1
10
77.1810655245171
20
2.08690013500831
30
0
41
1
10
77.1880494664082
20
2.08625385093777
30
0
41
1
10
77.2017136667737
20
2.08576302906079
30
0
41
1
10
77.2084118647866
20
2.08591626632827
30
0
41
1
10
77.2212974962468
20
2.08736264099738
30
0
41
1
10
77.2273707624423
20
2.08864066267151
30
0
41
1
10
77.2357114972569
20
2.09170340413789
30
0
41
1
10
77.2383765438744
20
2.09292729661411
30
0
41
1
10
77.2432823090959
20
2.09577113588779
30
0
41
1
10
77.2477829744382
20
2.09901195664276
30
0
41
1
10
77.2513955009597
20
2.10312250805887
30
0
41
1
10
77.2545157069233
20
2.10771543580961
30
-1E-16
41
1
10
77.2558204423122
20
2.11025565960736
30
-1E-16
41
1
10
77.257827006608
20
2.11563244567265
30
-1E-16
41
1
10
77.2585458885179
20
2.11849065049307
30
-1E-16
41
1
10
77.2594458064577
20
2.12452929598371
30
-1E-16
41
1
10
77.2596255610285
20
2.12773416041705
30
-1E-16
41
1
10
77.259404669583
20
2.13762307540705
30
-1E-16
41
1
10
77.2582762152231
20
2.14451033440713
30
-1E-16
41
1
10
77.2545968323003
20
2.15872121383538
30
-2E-16
41
1
10
77.2520309336534
20
2.16604360624925
30
-2E-16
41
1
10
77.2460257876984
20
2.18055573964972
30
2E-16
41
1
10
77.2425664849098
20
2.18781651137778
30
2E-16
41
1
10
77.2349788928785
20
2.20235072366594
30
2E-16
41
1
10
77.2308325232975
20
2.20964996037162
30
2E-16
41
1
10
77.2264617833723
20
2.21689413601163
30
1E-16
0
SPLINE
5
C0
100
AcDbEntity
8
1
62
256
6
ByLayer
370
18
48
1
60
0
100
AcDbSpline
70
4
71
3
72
18
73
14
40
0
40
0
40
0
40
0
40
0.125000000000002
40
0.125000000000002
40
0.187499999999997
40
0.187499999999997
40
0.249999999999993
40
0.249999999999993
40
0.499999999999995
40
0.499999999999995
40
0.749999999999998
40
0.749999999999998
40
1
40
1
40
1
40
1
41
1
10
77.9295886272767
20
-0.38727620888281
30
0
41
1
10
77.8756644402237
20
-0.317370927544431
30
-1E-16
41
1
10
77.8231177109238
20
-0.246464422279416
30
-3E-16
41
1
10
77.7461746452331
20
-0.138744395492324
30
3E-16
41
1
10
77.7208401598625
20
-0.102610702821352
30
-2E-16
41
1
10
77.6707699541865
20
-0.0299096154831204
30
1E-16
41
1
10
77.6460336248496
20
0.0066608310117147
30
0
41
1
10
77.5243970223622
20
0.1896007582489
30
0
41
1
10
77.4330656913294
20
0.336998694074055
30
1E-16
41
1
10
77.2593824850085
20
0.633398995928985
30
-2E-16
41
1
10
77.1770373130607
20
0.782404829641592
30
-1E-16
41
1
10
77.0190901679473
20
1.08175579767533
30
1E-16
41
1
10
76.9434690769561
20
1.23209186027009
30
2E-16
41
1
10
76.8703920811289
20
1.38303273915383
30
-1E-16
0
SPLINE
5
C1
100
AcDbEntity
8
1
62
256
6
ByLayer
370
18
48
1
60
0
100
AcDbSpline
70
4
71
3
72
8
73
4
40
0
40
0
40
0
40
0
40
1
40
1
40
1
40
1
41
1
10
76.8703920811289
20
1.38303273915386
30
-1E-16
41
1
10
76.8620738528138
20
1.40021407889583
30
-2E-16
41
1
10
76.8548961356109
20
1.41776704968581
30
-2E-16
41
1
10
76.8489573002132
20
1.4357433742635
30
2E-16
0
SPLINE
5
C2
100
AcDbEntity
8
1
62
256
6
ByLayer
370
18
48
1
60
0
100
AcDbSpline
70
4
71
3
72
22
73
18
40
0
40
0
40
0
40
0
40
0.21541911444169
40
0.21541911444169
40
0.269273893052111
40
0.269273893052111
40
0.323128671662532
40
0.323128671662532
40
0.430838228883371
40
0.430838228883371
40
0.646257343325052
40
0.646257343325052
40
0.861676457766733
40
0.861676457766733
40
0.969386014987585
40
0.969386014987585
40
1
40
1
40
1
40
1
41
1
10
76.8489573002132
20
-2.33773332547449
30
1E-16
41
1
10
76.8387505535289
20
-2.31174289652594
30
1E-16
41
1
10
76.8321371902292
20
-2.28581095191075
30
0
41
1
10
76.8278314648255
20
-2.25428804457823
30
0
41
1
10
76.8271687626806
20
-2.2480282017614
30
-1E-16
41
1
10
76.8262283263366
20
-2.23561915120718
30
-1E-16
41
1
10
76.8259511919581
20
-2.22945859427227
30
-1E-16
41
1
10
76.8256780889814
20
-2.21135717853912
30
-1E-16
41
1
10
76.8262323197438
20
-2.19974342657423
30
-2E-16
41
1
10
76.8297868350541
20
-2.16639943774734
30
2E-16
41
1
10
76.8346728864276
20
-2.1461455429947
30
1E-16
41
1
10
76.8481204640756
20
-2.1103633890757
30
1E-16
41
1
10
76.856473040242
20
-2.09531993975654
30
0
41
1
10
76.8705120738045
20
-2.0768300763288
30
0
41
1
10
76.8754497707049
20
-2.07134775698776
30
0
41
1
10
76.8820702135895
20
-2.06518073004133
30
0
41
1
10
76.8835528581131
20
-2.06387164137843
30
0
41
1
10
76.8850503341241
20
-2.06261946574574
30
-1E-16
0
SPLINE
5
C3
100
AcDbEntity
8
1
62
256
6
ByLayer
370
18
48
1
60
0
100
AcDbSpline
70
4
71
3
72
18
73
14
40
0
40
0
40
0
40
0
40
0.125000000000013
40
0.125000000000013
40
0.187500000000014
40
0.187500000000014
40
0.250000000000016
40
0.250000000000016
40
0.50000000000001
40
0.50000000000001
40
0.750000000000005
40
0.750000000000005
40
1
40
1
40
1
40
1
41
1
10
77.929588627287
20
-3.68658037562648
30
0
41
1
10
77.8756644402334
20
-3.64623654733074
30
1E-16
41
1
10
77.823117710933
20
-3.60336622300804
30
0
41
1
10
77.7461746452415
20
-3.53554907378185
30
1E-16
41
1
10
77.7208401598705
20
-3.51235808959717
30
0
41
1
10
77.6707699541939
20
-3.4648522167258
30
-1E-16
41
1
10
77.6460336248568
20
-3.44053395344
30
1E-16
41
1
10
77.524397022368
20
-3.31690737941597
30
2E-16
41
1
10
77.4330656913344
20
-3.21101633938713
30
0
41
1
10
77.2593824850118
20
-2.98881095825834
30
-1E-16
41
1
10
77.1770373130632
20
-2.87249402627387
30
1E-16
41
1
10
77.0190901679485
20
-2.63234009801886
30
0
41
1
10
76.9434690769567
20
-2.50851236142003
30
1E-16
41
1
10
76.8703920811289
20
-2.38207498947295
30
-2E-16
0
SPLINE
5
C4
100
AcDbEntity
8
1
62
256
6
ByLayer
370
18
48
1
60
0
100
AcDbSpline
70
4
71
3
72
8
73
4
40
0
40
0
40
0
40
0
40
1
40
1
40
1
40
1
41
1
10
76.8703920811289
20
-2.38207498947298
30
-2E-16
41
1
10
76.8620738528139
20
-2.36768284163634
30
2E-16
41
1
10
76.8548961356108
20
-2.35290232057727
30
2E-16
41
1
10
76.8489573002132
20
-2.33773332547446
30
1E-16
0
SPLINE
5
C5
100
AcDbEntity
8
1
62
256
6
ByLayer
370
18
48
1
60
0
100
AcDbSpline
70
4
71
3
72
39
73
35
40
0
40
0
40
0
40
0
40
0.124999999999998
40
0.124999999999998
40
0.156249999999997
40
0.156249999999997
40
0.187499999999996
40
0.187499999999996
40
0.249999999999989
40
0.249999999999989
40
0.374999999999974
40
0.374999999999974
40
0.406249999999971
40
0.406249999999971
40
0.437499999999969
40
0.437499999999969
40
0.49999999999997
40
0.49999999999997
40
0.624999999999972
40
0.624999999999972
40
0.656249999999975
40
0.656249999999975
40
0.687499999999978
40
0.687499999999978
40
0.749999999999984
40
0.749999999999984
40
0.874999999999992
40
0.874999999999992
40
0.890624999999993
40
0.890624999999993
40
0.906249999999995
40
0.937499999999996
40
0.937499999999996
40
1
40
1
40
1
40
1
41
1
10
77.226461783373
20
4.4768571139582
30
0
41
1
10
77.3685215855382
20
4.40555987239935
30
0
41
1
10
77.5095782774705
20
4.32185770391595
30
0
41
1
10
77.6857913245505
20
4.20054313369567
30
0
41
1
10
77.7210287881093
20
4.17544111148155
30
0
41
1
10
77.7915227710151
20
4.1235084078869
30
0
41
1
10
77.8265388551465
20
4.0968544998978
30
0
41
1
10
77.9308823549557
20
4.01489340730748
30
0
41
1
10
77.9995323031462
20
3.95757123984154
30
1E-16
41
1
10
78.2030447795523
20
3.77762601177508
30
0
41
1
10
78.3354800645125
20
3.64708788889453
30
0
41
1
10
78.4976319685753
20
3.47011805263207
30
0
41
1
10
78.5299115261532
20
3.43400503885547
30
-1E-16
41
1
10
78.5940429756108
20
3.36046024575654
30
0
41
1
10
78.6256834663838
20
3.32327215512214
30
0
41
1
10
78.7193694714813
20
3.21048994423461
30
0
41
1
10
78.7801855951015
20
3.133681140292
30
0
41
1
10
78.95787278884
20
2.89851933866751
30
0
41
1
10
79.0700473692667
20
2.73547656709024
30
0
41
1
10
79.2022238898842
20
2.52363099272822
30
0
41
1
10
79.2282746722474
20
2.48081777504231
30
0
41
1
10
79.2794451161978
20
2.39452177109413
30
1E-16
41
1
10
79.3044061285526
20
2.35130924541846
30
0
41
1
10
79.3774497639755
20
2.22147402574305
30
0
41
1
10
79.4236955832062
20
2.13464983965713
30
0
41
1
10
79.5551737608445
20
1.87323154161595
30
1E-16
41
1
10
79.6332107535289
20
1.69775065924864
30
0
41
1
10
79.7096447704204
20
1.49822502305841
30
0
41
1
10
79.7179864810851
20
1.47600353429232
30
0
41
1
10
79.734284239113
20
1.43167484747352
30
0
41
1
10
79.7581694255786
20
1.36531171868771
30
0
41
1
10
79.7803870351421
20
1.29931117186283
30
0
41
1
10
79.8226318717921
20
1.16771438161612
30
0
41
1
10
79.8478775886923
20
1.08052111639427
30
0
41
1
10
79.8702519067625
20
0.993672757612785
30
0
0
SPLINE
5
C6
100
AcDbEntity
8
1
62
256
6
ByLayer
370
18
48
1
60
0
100
AcDbSpline
70
4
71
3
72
45
73
41
40
0
40
0
40
0
40
0
40
0.124999999999983
40
0.124999999999983
40
0.249999999999967
40
0.249999999999967
40
0.281249999999965
40
0.281249999999965
40
0.312499999999963
40
0.312499999999963
40
0.374999999999959
40
0.374999999999959
40
0.406249999999961
40
0.406249999999961
40
0.437499999999962
40
0.437499999999962
40
0.499999999999966
40
0.499999999999966
40
0.531249999999967
40
0.531249999999967
40
0.562499999999969
40
0.562499999999969
40
0.624999999999971
40
0.624999999999971
40
0.687499999999972
40
0.687499999999972
40
0.718749999999975
40
0.718749999999975
40
0.749999999999978
40
0.749999999999978
40
0.781249999999981
40
0.781249999999981
40
0.812499999999983
40
0.843749999999986
40
0.843749999999986
40
0.874999999999989
40
0.874999999999989
40
0.937499999999994
40
0.937499999999994
40
1
40
1
40
1
40
1
41
1
10
79.8702519067805
20
0.99367275759937
30
0
41
1
10
79.8783028963176
20
0.962421962572392
30
0
41
1
10
79.8858665667856
20
0.930449878375384
30
0
41
1
10
79.9000332204511
20
0.864962217969804
30
0
41
1
10
79.9066380509003
20
0.831453086543291
30
0
41
1
10
79.914243516054
20
0.788359374903479
30
0
41
1
10
79.915731736557
20
0.779679179929929
30
0
41
1
10
79.9186393649339
20
0.762184028681361
30
0
41
1
10
79.920061740443
20
0.75334881791639
30
0
41
1
10
79.9241750898316
20
0.72690943974041
30
0
41
1
10
79.9267256795635
20
0.709301183459417
30
0
41
1
10
79.9302375802015
20
0.682925141290099
30
0
41
1
10
79.9313556815292
20
0.674139225033827
30
0
41
1
10
79.9334788794577
20
0.656581867588386
30
0
41
1
10
79.93448659385
20
0.647782914875194
30
0
41
1
10
79.9372798044229
20
0.621833127607204
30
0
41
1
10
79.9388524376336
20
0.605015275796831
30
0
41
1
10
79.9407146176441
20
0.580680341821449
30
0
41
1
10
79.9412520345732
20
0.572718336731157
30
0
41
1
10
79.9421399091082
20
0.557141197221483
30
0
41
1
10
79.9424912579314
20
0.549475389965522
30
0
41
1
10
79.9432024714511
20
0.527720633134777
30
0
41
1
10
79.943236251357
20
0.51467709224562
30
0
41
1
10
79.9422934677153
20
0.492316262233857
30
0
41
1
10
79.9413406081463
20
0.483504552125424
30
0
41
1
10
79.9392014752416
20
0.473780135656995
30
0
41
1
10
79.9383668703503
20
0.471139246727944
30
0
41
1
10
79.9365195450285
20
0.467150140725437
30
0
41
1
10
79.9355012261889
20
0.46577133126317
30
0
41
1
10
79.9332861634089
20
0.464148949669379
30
0
41
1
10
79.9320815079135
20
0.463911446452414
30
0
41
1
10
79.9295582431474
20
0.464485054247291
30
0
41
1
10
79.9269140998128
20
0.46608742796451
30
0
41
1
10
79.9240481972347
20
0.469492345378512
30
0
41
1
10
79.9210770679767
20
0.473710710742864
30
0
41
1
10
79.9195318083532
20
0.476240422225629
30
0
41
1
10
79.9148007195485
20
0.484848912958313
30
0
41
1
10
79.9115281460348
20
0.491906908160189
30
0
41
1
10
79.9047607820502
20
0.508107299450728
30
0
41
1
10
79.9012656670583
20
0.517255905226364
30
0
41
1
10
79.8976590052394
20
0.527307258062137
30
0
0
SPLINE
5
C7
100
AcDbEntity
8
1
62
256
6
ByLayer
370
18
48
1
60
0
100
AcDbSpline
70
4
71
3
72
40
73
36
40
0
40
0
40
0
40
0
40
0.124999999999985
40
0.124999999999985
40
0.249999999999971
40
0.249999999999971
40
0.28124999999997
40
0.28124999999997
40
0.312499999999969
40
0.312499999999969
40
0.374999999999972
40
0.374999999999972
40
0.499999999999983
40
0.499999999999983
40
0.531249999999985
40
0.531249999999985
40
0.562499999999988
40
0.562499999999988
40
0.624999999999993
40
0.624999999999993
40
0.750000000000009
40
0.750000000000009
40
0.765625000000012
40
0.765625000000012
40
0.781250000000014
40
0.781250000000014
40
0.812500000000012
40
0.812500000000012
40
0.875000000000008
40
0.875000000000008
40
0.937500000000004
40
0.937500000000004
40
0.968750000000002
40
0.968750000000002
40
1
40
1
40
1
40
1
41
1
10
79.8976590052374
20
0.527307258067623
30
0
41
1
10
79.8643613362253
20
0.620104042646631
30
0
41
1
10
79.8232484304997
20
0.715278316722305
30
1E-16
41
1
10
79.7256154406336
20
0.911590072395626
30
1E-16
41
1
10
79.6691013067716
20
1.01273691947054
30
1E-16
41
1
10
79.5885668185633
20
1.14433257441181
30
0
41
1
10
79.57193403224
20
1.17095714469514
30
-1E-16
41
1
10
79.5378709553478
20
1.22444787672663
30
0
41
1
10
79.5204304723874
20
1.25133268300237
30
0
41
1
10
79.466905815827
20
1.33245368983407
30
0
41
1
10
79.4296195300146
20
1.38715438308898
30
1E-16
41
1
10
79.3131011941397
20
1.55357054182798
30
-1E-16
41
1
10
79.2292421912842
20
1.66760918921591
30
1E-16
41
1
10
79.1168427794165
20
1.81581737759419
30
2E-16
41
1
10
79.0939817974772
20
1.84574282223278
30
1E-16
41
1
10
79.047491522427
20
1.90621333154257
30
0
41
1
10
79.0238374356699
20
1.93678947427509
30
-1E-16
41
1
10
78.9523986996246
20
2.02864704212158
30
1E-16
41
1
10
78.9039325037982
20
2.0903282147963
30
0
41
1
10
78.7562377450571
20
2.27697124450114
30
0
41
1
10
78.6547423980189
20
2.40353285512461
30
1E-16
41
1
10
78.5374567092229
20
2.54910552402185
30
-2E-16
41
1
10
78.5243812384518
20
2.56532456399535
30
2E-16
41
1
10
78.4981427834468
20
2.59785397532022
30
1E-16
41
1
10
78.4849856626993
20
2.61415705200403
30
1E-16
41
1
10
78.4456131881392
20
2.66292188447747
30
0
41
1
10
78.4194217556247
20
2.6953324443669
30
-1E-16
41
1
10
78.341028173314
20
2.79227946453747
30
1E-16
41
1
10
78.2890081484731
20
2.85653295411367
30
0
41
1
10
78.1854714758085
20
2.98431326545853
30
1E-16
41
1
10
78.1339532176333
20
3.04783920890668
30
0
41
1
10
78.05704578666
20
3.14257100059541
30
2E-16
41
1
10
78.0314714120121
20
3.17405506007222
30
1E-16
41
1
10
77.9804408323231
20
3.23683006128809
30
0
41
1
10
77.954951831454
20
3.26816128320812
30
-1E-16
41
1
10
77.9295886272849
20
3.29930416671948
30
-2E-16
0
SPLINE
5
C8
100
AcDbEntity
8
1
62
256
6
ByLayer
370
18
48
1
60
0
100
AcDbSpline
70
4
71
3
72
30
73
26
40
0
40
0
40
0
40
0
40
0.125000000000045
40
0.125000000000045
40
0.156250000000051
40
0.156250000000051
40
0.187500000000056
40
0.187500000000056
40
0.250000000000042
40
0.250000000000042
40
0.375000000000039
40
0.375000000000039
40
0.437500000000038
40
0.437500000000038
40
0.500000000000037
40
0.500000000000037
40
0.625000000000034
40
0.625000000000034
40
0.750000000000031
40
0.750000000000031
40
0.875000000000028
40
0.875000000000028
40
0.937500000000014
40
0.937500000000014
40
1
40
1
40
1
40
1
41
1
10
77.9295886272714
20
3.29930416674003
30
-2E-16
41
1
10
77.8870789860448
20
3.31016755502495
30
-2E-16
41
1
10
77.8425159308408
20
3.32470638178438
30
2E-16
41
1
10
77.7845221314763
20
3.34672650647724
30
2E-16
41
1
10
77.7728080174917
20
3.35132395101013
30
1E-16
41
1
10
77.7491528939817
20
3.36089091138166
30
1E-16
41
1
10
77.7371845339712
20
3.36587224405182
30
1E-16
41
1
10
77.7011610827719
20
3.38126024342938
30
1E-16
41
1
10
77.67704016426
20
3.39208409654259
30
0
41
1
10
77.6043643901383
20
3.42600520318805
30
0
41
1
10
77.5554978360909
20
3.45054153242663
30
-1E-16
41
1
10
77.4815506031002
20
3.48951727515458
30
-2E-16
41
1
10
77.4567932390199
20
3.50287412040657
30
-2E-16
41
1
10
77.4070543441655
20
3.53022757270168
30
2E-16
41
1
10
77.3820899386667
20
3.54421645826503
30
1E-16
41
1
10
77.3077487435176
20
3.58650242517263
30
0
41
1
10
77.2586030876408
20
3.61528692673073
30
0
41
1
10
77.1608393887877
20
3.67357061082507
30
-2E-16
41
1
10
77.112223074075
20
3.70307245082967
30
2E-16
41
1
10
77.0153029558581
20
3.76245208412016
30
1E-16
41
1
10
76.9669999722248
20
3.7923311389543
30
0
41
1
10
76.8946529690725
20
3.83723029956963
30
-1E-16
41
1
10
76.8705648322893
20
3.85220478118165
30
-1E-16
41
1
10
76.8225904911467
20
3.88203759852297
30
-2E-16
41
1
10
76.7986807673962
20
3.89691055392058
30
2E-16
41
1
10
76.7748362673375
20
3.91172916463103
30
2E-16
0
SPLINE
5
C9
100
AcDbEntity
8
1
62
256
6
ByLayer
370
18
48
1
60
0
100
AcDbSpline
70
4
71
3
72
8
73
4
40
0
40
0
40
0
40
0
40
1
40
1
40
1
40
1
41
1
10
76.7748362673375
20
3.91172916463103
30
2E-16
41
1
10
76.7226690197318
20
3.94410567998767
30
1E-16
41
1
10
76.6708006444562
20
3.97613025191774
30
0
41
1
10
76.619234442419
20
4.00768321261955
30
-1E-16
0
SPLINE
5
CA
100
AcDbEntity
8
1
62
256
6
ByLayer
370
18
48
1
60
0
100
AcDbSpline
70
4
71
3
72
16
73
12
40
0
40
0
40
0
40
0
40
0.249999999999995
40
0.249999999999995
40
0.499999999999991
40
0.499999999999991
40
0.624999999999989
40
0.624999999999989
40
0.749999999999986
40
0.749999999999986
40
1
40
1
40
1
40
1
41
1
10
76.6192344424329
20
4.00768321261106
30
-1E-16
41
1
10
76.4988489513391
20
4.08134298283014
30
2E-16
41
1
10
76.381461521102
20
4.15154066568851
30
0
41
1
10
76.1503699249099
20
4.2842960554369
30
2E-16
41
1
10
76.0366843994237
20
4.34685538840048
30
0
41
1
10
75.8677628188722
20
4.43436445538936
30
-2E-16
41
1
10
75.8117272664605
20
4.4624782640802
30
2E-16
41
1
10
75.7000383588826
20
4.51648148554875
30
1E-16
41
1
10
75.6443044822688
20
4.54240435768702
30
0
41
1
10
75.4785152593378
20
4.6161948654981
30
1E-16
41
1
10
75.369599734163
20
4.66023149040578
30
0
41
1
10
75.2616797812147
20
4.6988827904751
30
1E-16
0
SPLINE
5
CB
100
AcDbEntity
8
1
62
256
6
ByLayer
370
18
48
1
60
0
100
AcDbSpline
70
4
71
3
72
10
73
6
40
0
40
0
40
0
40
0
40
0.5
40
0.5
40
1
40
1
40
1
40
1
41
1
10
75.2616797812148
20
3.8340870633254
30
-1E-16
41
1
10
75.4284924676148
20
3.73131174113968
30
1E-16
41
1
10
75.5940304966887
20
3.61865386840873
30
0
41
1
10
75.9254187418073
20
3.37611964861315
30
1E-16
41
1
10
76.0912486778659
20
3.24623283888704
30
-1E-16
41
1
10
76.2587577248033
20
3.10857282435614
30
-2E-16
0
SPLINE
5
CC
100
AcDbEntity
8
1
62
256
6
ByLayer
370
18
48
1
60
0
100
AcDbSpline
70
4
71
3
72
14
73
10
40
0
40
0
40
0
40
0
40
0.5
40
0.5
40
0.749999999999989
40
0.749999999999989
40
0.874999999999995
40
0.874999999999995
40
1
40
1
40
1
40
1
41
1
10
76.2587577248033
20
3.10857282435614
30
-2E-16
41
1
10
76.4251669394307
20
2.97181366144778
30
1E-16
41
1
10
76.5893576214531
20
2.82929000015238
30
0
41
1
10
76.8318596215768
20
2.60658702040391
30
1E-16
41
1
10
76.912048843157
20
2.53085078181053
30
-2E-16
41
1
10
77.031154523476
20
2.4147965503924
30
1E-16
41
1
10
77.0706781017805
20
2.37568285298289
30
2E-16
41
1
10
77.1491975231219
20
2.29666759533646
30
-1E-16
41
1
10
77.1880464530916
20
2.25691444554599
30
0
41
1
10
77.2264617833782
20
2.21689413601499
30
1E-16
0
SPLINE
5
CD
100
AcDbEntity
8
1
62
256
6
ByLayer
370
18
48
1
60
0
100
AcDbSpline
70
4
71
3
72
39
73
35
40
0
40
0
40
0
40
0
40
0.124999999999978
40
0.124999999999978
40
0.156249999999976
40
0.156249999999976
40
0.187499999999975
40
0.187499999999975
40
0.249999999999974
40
0.249999999999974
40
0.37499999999997
40
0.37499999999997
40
0.406249999999972
40
0.406249999999972
40
0.437499999999974
40
0.437499999999974
40
0.499999999999978
40
0.499999999999978
40
0.624999999999985
40
0.624999999999985
40
0.656249999999987
40
0.656249999999987
40
0.687499999999989
40
0.687499999999989
40
0.749999999999989
40
0.749999999999989
40
0.874999999999989
40
0.874999999999989
40
0.890624999999989
40
0.890624999999989
40
0.90624999999999
40
0.937499999999993
40
0.937499999999993
40
1
40
1
40
1
40
1
41
1
10
77.2264617833774
20
2.21689413601697
30
1E-16
41
1
10
77.3685215855431
20
2.0803543904085
30
0
41
1
10
77.5095782774757
20
1.94288833066261
30
-1E-16
41
1
10
77.6857913245562
20
1.77112326802416
30
-2E-16
41
1
10
77.7210287881151
20
1.73677394220255
30
-1E-16
41
1
10
77.7915227710212
20
1.66811426291284
30
1E-16
41
1
10
77.8265388551526
20
1.63403829709316
30
2E-16
41
1
10
77.930882354962
20
1.53267459204073
30
0
41
1
10
77.9995323031527
20
1.46622817807671
30
1E-16
41
1
10
78.2030447795592
20
1.27068083202531
30
1E-16
41
1
10
78.3354800645197
20
1.145327045822
30
0
41
1
10
78.4976319685828
20
0.996470764932155
30
-1E-16
41
1
10
78.5299115261608
20
0.967070974717132
30
0
41
1
10
78.5940429756184
20
0.909179973158956
30
1E-16
41
1
10
78.6256834663915
20
0.880879401012294
30
2E-16
41
1
10
78.7193694714891
20
0.797926579187589
30
-1E-16
41
1
10
78.7801855951093
20
0.745233806297449
30
0
41
1
10
78.9578727888478
20
0.594973980628822
30
-1E-16
41
1
10
79.0700473692745
20
0.505257242796233
30
1E-16
41
1
10
79.2022238898921
20
0.406641037714763
30
-1E-16
41
1
10
79.2282746722555
20
0.387575360440479
30
0
41
1
10
79.2794451162057
20
0.350880996537939
30
1E-16
41
1
10
79.3044061285603
20
0.333367110317511
30
1E-16
41
1
10
79.3774497639831
20
0.283249905393262
30
-2E-16
41
1
10
79.4236955832136
20
0.253050523656128
30
-1E-16
41
1
10
79.5551737608515
20
0.171334435932607
30
0
41
1
10
79.6332107535357
20
0.12883125078946
30
-1E-16
41
1
10
79.7096447704266
20
0.0923035487491859
30
0
41
1
10
79.7179864810912
20
0.0883980150686625
30
0
41
1
10
79.734284239119
20
0.0809223961781242
30
0
41
1
10
79.7581694255842
20
0.0702045257274051
30
1E-16
41
1
10
79.7803870351477
20
0.0609066295538128
30
1E-16
41
1
10
79.8226318717973
20
0.0440153344400471
30
-1E-16
41
1
10
79.847877588697
20
0.0350234830585805
30
-1E-16
41
1
10
79.870251906767
20
0.0278527846455745
30
-1E-16
0
SPLINE
5
CE
100
AcDbEntity
8
1
62
256
6
ByLayer
370
18
48
1
60
0
100
AcDbSpline
70
4
71
3
72
45
73
41
40
0
40
0
40
0
40
0
40
0.125000000000004
40
0.125000000000004
40
0.250000000000007
40
0.250000000000007
40
0.281250000000004
40
0.281250000000004
40
0.312500000000001
40
0.312500000000001
40
0.375000000000002
40
0.375000000000002
40
0.406250000000003
40
0.406250000000003
40
0.437500000000004
40
0.437500000000004
40
0.500000000000005
40
0.500000000000005
40
0.531250000000006
40
0.531250000000006
40
0.562500000000007
40
0.562500000000007
40
0.625000000000009
40
0.625000000000009
40
0.68750000000001
40
0.68750000000001
40
0.718750000000009
40
0.718750000000009
40
0.750000000000008
40
0.750000000000008
40
0.781250000000007
40
0.781250000000007
40
0.812500000000006
40
0.843750000000005
40
0.843750000000005
40
0.875000000000004
40
0.875000000000004
40
0.937500000000002
40
0.937500000000002
40
1
40
1
40
1
40
1
41
1
10
79.8702519067788
20
0.0278527846456313
30
-1E-16
41
1
10
79.8783028963161
20
0.0252725398436269
30
-1E-16
41
1
10
79.8858665667826
20
0.0204193342684675
30
0
41
1
10
79.9000332204486
20
0.0057962843324049
30
0
41
1
10
79.9066380508981
20
-0.0039516418270011
30
0
41
1
10
79.9142435160521
20
-0.0200470098647259
30
0
41
1
10
79.9157317365551
20
-0.0234652853270063
30
1E-16
41
1
10
79.9186393649321
20
-0.0307407734587173
30
0
41
1
10
79.9200617404412
20
-0.0346080978256111
30
0
41
1
10
79.9241750898301
20
-0.0468084621981859
30
0
41
1
10
79.9267256795621
20
-0.0557598497136382
30
0
41
1
10
79.9302375802002
20
-0.0706506604019239
30
1E-16
41
1
10
79.931355681528
20
-0.0758594732145923
30
0
41
1
10
79.9334788794566
20
-0.0868290994810081
30
0
41
1
10
79.9344865938489
20
-0.0926107398235558
30
0
41
1
10
79.9372798044221
20
-0.110606912484201
30
0
41
1
10
79.9388524376329
20
-0.123524792986387
30
0
41
1
10
79.9407146176436
20
-0.14459718622021
30
0
41
1
10
79.9412520345728
20
-0.151905803895829
30
0
41
1
10
79.9421399091078
20
-0.167181307253628
30
-1E-16
41
1
10
79.9424912579311
20
-0.175210021969605
30
0
41
1
10
79.9432024714509
20
-0.199751701611348
30
0
41
1
10
79.943236251357
20
-0.216883576148717
30
0
41
1
10
79.9422934677155
20
-0.252604801999098
30
0
41
1
10
79.9413406081467
20
-0.270374447395255
30
0
41
1
10
79.939201475242
20
-0.296894775104846
30
0
41
1
10
79.9383668703507
20
-0.30570700976935
30
1E-16
41
1
10
79.9365195450291
20
-0.322724481354186
30
0
41
1
10
79.9355012261894
20
-0.331005917663504
30
0
41
1
10
79.9332861634094
20
-0.347149333028256
30
0
41
1
10
79.932081507914
20
-0.355052649078487
30
1E-16
41
1
10
79.9295582431479
20
-0.370121211529352
30
0
41
1
10
79.9269140998133
20
-0.384522294551942
30
0
41
1
10
79.9240481972352
20
-0.397752478902902
30
0
41
1
10
79.9210770679771
20
-0.410453549040938
30
0
41
1
10
79.9195318083536
20
-0.416564217017793
30
0
41
1
10
79.9148007195489
20
-0.433950310407312
30
0
41
1
10
79.9115281460351
20
-0.444282815323163
30
0
41
1
10
79.9047607820503
20
-0.462952934360089
30
0
41
1
10
79.9012656670584
20
-0.471284668592062
30
0
41
1
10
79.8976590052394
20
-0.478749558592909
30
0
0
SPLINE
5
CF
100
AcDbEntity
8
1
62
256
6
ByLayer
370
18
48
1
60
0
100
AcDbSpline
70
4
71
3
72
40
73
36
40
0
40
0
40
0
40
0
40
0.124999999999987
40
0.124999999999987
40
0.249999999999975
40
0.249999999999975
40
0.281249999999972
40
0.281249999999972
40
0.312499999999969
40
0.312499999999969
40
0.374999999999963
40
0.374999999999963
40
0.49999999999995
40
0.49999999999995
40
0.53124999999995
40
0.53124999999995
40
0.562499999999949
40
0.562499999999949
40
0.624999999999955
40
0.624999999999955
40
0.749999999999965
40
0.749999999999965
40
0.765624999999969
40
0.765624999999969
40
0.781249999999973
40
0.781249999999973
40
0.812499999999974
40
0.812499999999974
40
0.874999999999983
40
0.874999999999983
40
0.937499999999991
40
0.937499999999991
40
0.968749999999996
40
0.968749999999996
40
1
40
1
40
1
40
1
41
1
10
79.8976590052374
20
-0.478749558597031
30
0
41
1
10
79.8643613362252
20
-0.54766742473592
30
0
41
1
10
79.8232484304993
20
-0.611336146413436
30
1E-16
41
1
10
79.7256154406327
20
-0.726827556241773
30
-1E-16
41
1
10
79.6691013067705
20
-0.778641125011546
30
0
41
1
10
79.5885668185618
20
-0.834237528210508
30
0
41
1
10
79.5719340322383
20
-0.844911217581029
30
0
41
1
10
79.537870955346
20
-0.865154471481333
30
0
41
1
10
79.5204304723856
20
-0.874734017579215
30
1E-16
41
1
10
79.4669058158248
20
-0.901787844286133
30
-1E-16
41
1
10
79.4296195300121
20
-0.917581513218579
30
-1E-16
41
1
10
79.3131011941366
20
-0.957628570377068
30
0
41
1
10
79.2292421912806
20
-0.974558896852102
30
1E-16
41
1
10
79.1168427794122
20
-0.980769574684388
30
1E-16
41
1
10
79.0939817974729
20
-0.981260991037146
30
1E-16
41
1
10
79.0474915224224
20
-0.980654612347649
30
1E-16
41
1
10
79.023837435665
20
-0.979550797306302
30
1E-16
41
1
10
78.9523986996195
20
-0.973786768383434
30
1E-16
41
1
10
78.9039325037929
20
-0.966682011082838
30
0
41
1
10
78.756237745051
20
-0.935192825073472
30
0
41
1
10
78.6547423980124
20
-0.900696626461837
30
-1E-16
41
1
10
78.5374567092158
20
-0.844803957174236
30
2E-16
41
1
10
78.5243812384446
20
-0.838355077993697
30
2E-16
41
1
10
78.4981427834395
20
-0.824971175617577
30
2E-16
41
1
10
78.4849856626919
20
-0.818038343709162
30
1E-16
41
1
10
78.4456131881317
20
-0.796627618237267
30
1E-16
41
1
10
78.4194217556171
20
-0.781499998273347
30
1E-16
41
1
10
78.3410281733061
20
-0.733581180354605
30
-1E-16
41
1
10
78.289008148465
20
-0.698256573387795
30
-1E-16
41
1
10
78.1854714758001
20
-0.620921922572592
30
1E-16
41
1
10
78.1339532176248
20
-0.578914969538459
30
0
41
1
10
78.0570457866511
20
-0.510859361327192
30
-1E-16
41
1
10
78.0314714120032
20
-0.487332419628217
30
-2E-16
41
1
10
77.980440832314
20
-0.438580408085443
30
1E-16
41
1
10
77.9549518314448
20
-0.413321543219979
30
1E-16
41
1
10
77.9295886272757
20
-0.387276208879314
30
0
0
SPLINE
5
D0
100
AcDbEntity
8
1
62
256
6
ByLayer
370
18
48
1
60
0
100
AcDbSpline
70
4
71
3
72
30
73
26
40
0
40
0
40
0
40
0
40
0.125000000000027
40
0.125000000000027
40
0.156250000000021
40
0.156250000000021
40
0.187500000000016
40
0.187500000000016
40
0.250000000000005
40
0.250000000000005
40
0.374999999999983
40
0.374999999999983
40
0.437499999999985
40
0.437499999999985
40
0.499999999999987
40
0.499999999999987
40
0.62499999999999
40
0.62499999999999
40
0.749999999999993
40
0.749999999999993
40
0.874999999999997
40
0.874999999999997
40
0.937499999999998
40
0.937499999999998
40
1
40
1
40
1
40
1
41
1
10
77.9295886272693
20
-0.387276208869508
30
0
41
1
10
77.8870789860426
20
-0.414501827551106
30
1E-16
41
1
10
77.8425159308388
20
-0.435811823662931
30
1E-16
41
1
10
77.7845221314743
20
-0.456084617058053
30
2E-16
41
1
10
77.7728080174897
20
-0.459818883100183
30
2E-16
41
1
10
77.7491528939797
20
-0.466665132473565
30
2E-16
41
1
10
77.7371845339692
20
-0.469783154953205
30
2E-16
41
1
10
77.70116108277
20
-0.478178889958229
30
2E-16
41
1
10
77.6770401642581
20
-0.482496513751187
30
2E-16
41
1
10
77.6043643901365
20
-0.492056943052376
30
3E-16
41
1
10
77.5554978360892
20
-0.493929388362687
30
3E-16
41
1
10
77.4815506030986
20
-0.491196485014143
30
3E-16
41
1
10
77.4567932390184
20
-0.489355475214921
30
3E-16
41
1
10
77.4070543441642
20
-0.483954527572593
30
2E-16
41
1
10
77.3820899386654
20
-0.48039038801042
30
2E-16
41
1
10
77.3077487435165
20
-0.467487712189296
30
2E-16
41
1
10
77.2586030876398
20
-0.455924244585759
30
2E-16
41
1
10
77.1608393887869
20
-0.42798144823044
30
1E-16
41
1
10
77.1122230740743
20
-0.411594651319035
30
1E-16
41
1
10
77.0153029558576
20
-0.374725312999374
30
0
41
1
10
76.9669999722243
20
-0.354239251671743
30
-1E-16
41
1
10
76.8946529690722
20
-0.320822915459331
30
-1E-16
41
1
10
76.8705648322891
20
-0.309238260160413
30
-2E-16
41
1
10
76.8225904911466
20
-0.285318925522233
30
-2E-16
41
1
10
76.7986807673961
20
-0.272973514569088
30
-2E-16
41
1
10
76.7748362673374
20
-0.260269072281801
30
-3E-16
0
SPLINE
5
D1
100
AcDbEntity
8
1
62
256
6
ByLayer
370
18
48
1
60
0
100
AcDbSpline
70
4
71
3
72
8
73
4
40
0
40
0
40
0
40
0
40
1
40
1
40
1
40
1
41
1
10
76.7748362673346
20
-0.260269072279243
30
-3E-16
41
1
10
76.722669019731
20
-0.232554038132093
30
-3E-16
41
1
10
76.6708006444542
20
-0.203297501440858
30
-4E-16
41
1
10
76.619234442419
20
-0.172719055796506
30
4E-16
0
SPLINE
5
D2
100
AcDbEntity
8
1
62
256
6
ByLayer
370
18
48
1
60
0
100
AcDbSpline
70
4
71
3
72
16
73
12
40
0
40
0
40
0
40
0
40
0.249999999999995
40
0.249999999999995
40
0.499999999999991
40
0.499999999999991
40
0.624999999999989
40
0.624999999999989
40
0.749999999999986
40
0.749999999999986
40
1
40
1
40
1
40
1
41
1
10
76.6192344424171
20
-0.172719055790509
30
4E-16
41
1
10
76.498848951324
20
-0.101337173320133
30
2E-16
41
1
10
76.3814615210969
20
-0.0237330953075059
30
1E-16
41
1
10
76.1503699249059
20
0.140448430223955
30
-3E-16
41
1
10
76.0366843994204
20
0.227055478365713
30
4E-16
41
1
10
75.8677628188697
20
0.362056676876449
30
0
41
1
10
75.8117272664582
20
0.407912120035263
30
-1E-16
41
1
10
75.7000383588809
20
0.501115984205057
30
-3E-16
41
1
10
75.6443044822672
20
0.548536280936418
30
-4E-16
41
1
10
75.4785152593368
20
0.691825763187182
30
2E-16
41
1
10
75.3695997341626
20
0.788924436215837
30
-1E-16
41
1
10
75.2616797812147
20
0.88690313587125
30
-3E-16
0
SPLINE
5
D3
100
AcDbEntity
8
1
62
256
6
ByLayer
370
18
48
1
60
0
100
AcDbSpline
70
4
71
3
72
14
73
10
40
0
40
0
40
0
40
0
40
0.500000000000001
40
0.500000000000001
40
0.750000000000001
40
0.750000000000001
40
0.875
40
0.875
40
1
40
1
40
1
40
1
41
1
10
76.2587577248033
20
-1.65729076880979
30
3E-16
41
1
10
76.4251669394287
20
-1.7760327393836
30
-3E-16
41
1
10
76.5893576214493
20
-1.88514313775607
30
0
41
1
10
76.8318596215701
20
-2.0353735035761
30
3E-16
41
1
10
76.9120488431494
20
-2.08321852680848
30
4E-16
41
1
10
77.0311545234671
20
-2.15187155607927
30
-3E-16
41
1
10
77.0706781017711
20
-2.17424846934711
30
2E-16
41
1
10
77.1491975231116
20
-2.21797457418572
30
-1E-16
41
1
10
77.1880464530811
20
-2.23924243057422
30
-1E-16
41
1
10
77.2264617833673
20
-2.25996297793537
30
0
0
SPLINE
5
D4
100
AcDbEntity
8
1
62
256
6
ByLayer
370
18
48
1
60
0
100
AcDbSpline
70
4
71
3
72
38
73
34
40
0
40
0
40
0
40
0
40
0.125000000000018
40
0.125000000000018
40
0.156250000000018
40
0.156250000000018
40
0.187500000000018
40
0.187500000000018
40
0.250000000000018
40
0.250000000000018
40
0.375000000000011
40
0.375000000000011
40
0.406250000000009
40
0.406250000000009
40
0.437500000000008
40
0.437500000000008
40
0.499999999999999
40
0.499999999999999
40
0.624999999999986
40
0.624999999999986
40
0.656249999999986
40
0.656249999999986
40
0.687499999999986
40
0.687499999999986
40
0.749999999999991
40
0.749999999999991
40
0.874999999999999
40
0.874999999999999
40
0.890625
40
0.890625
40
0.90625
40
0.937500000000001
40
1
40
1
40
1
40
1
41
1
10
77.2264617833667
20
-2.25996297793409
30
0
41
1
10
77.3685215855323
20
-2.32520548198369
30
1E-16
41
1
10
77.5095782774648
20
-2.37896937324623
30
-2E-16
41
1
10
77.6857913245451
20
-2.42941986566447
30
-1E-16
41
1
10
77.7210287881039
20
-2.43866716927198
30
-1E-16
41
1
10
77.7915227710099
20
-2.45539414496702
30
0
41
1
10
77.8265388551414
20
-2.46281620279768
30
0
41
1
10
77.9308823549508
20
-2.4822188152599
30
0
41
1
10
77.9995323031415
20
-2.49134306175807
30
1E-16
41
1
10
78.2030447795481
20
-2.50694517974324
30
1E-16
41
1
10
78.3354800645086
20
-2.50176084306614
30
1E-16
41
1
10
78.4976319685718
20
-2.47364728769375
30
0
41
1
10
78.5299115261497
20
-2.46693406413217
30
0
41
1
10
78.5940429756075
20
-2.45128027259159
30
0
41
1
10
78.6256834663806
20
-2.44239275410394
30
-1E-16
41
1
10
78.7193694714784
20
-2.41256336504134
30
-1E-16
41
1
10
78.7801855950987
20
-2.38844733398903
30
-2E-16
41
1
10
78.9578727888377
20
-2.30354535803363
30
1E-16
41
1
10
79.0700473692646
20
-2.23021932428927
30
-1E-16
41
1
10
79.2022238898825
20
-2.11698995500913
30
1E-16
41
1
10
79.2282746722458
20
-2.09324241459757
30
0
41
1
10
79.2794451161963
20
-2.04364077455216
30
-1E-16
41
1
10
79.3044061285511
20
-2.017942135097
30
1E-16
41
1
10
79.3774497639743
20
-1.93822412034618
30
1E-16
41
1
10
79.4236955832051
20
-1.88159931599756
30
0
41
1
10
79.5551737608438
20
-1.7018971056805
30
0
41
1
10
79.6332107535283
20
-1.56891940845665
30
-1E-16
41
1
10
79.70964477042
20
-1.40592147430706
30
0
41
1
10
79.7179864810848
20
-1.38760551922152
30
0
41
1
10
79.7342842391128
20
-1.35075245129335
30
-1E-16
41
1
10
79.7581694255784
20
-1.29510719295837
30
0
41
1
10
79.8100090133418
20
-1.16279975409458
30
-1E-16
41
1
10
79.8478775886923
20
-1.04549763333412
30
0
41
1
10
79.8702519067625
20
-0.965819972965733
30
0
0
SPLINE
5
D5
100
AcDbEntity
8
1
62
256
6
ByLayer
370
18
48
1
60
0
100
AcDbSpline
70
4
71
3
72
45
73
41
40
0
40
0
40
0
40
0
40
0.124999999999989
40
0.124999999999989
40
0.249999999999977
40
0.249999999999977
40
0.281249999999979
40
0.281249999999979
40
0.31249999999998
40
0.31249999999998
40
0.374999999999991
40
0.374999999999991
40
0.406249999999997
40
0.406249999999997
40
0.437500000000002
40
0.437500000000002
40
0.500000000000008
40
0.500000000000008
40
0.531250000000009
40
0.531250000000009
40
0.56250000000001
40
0.56250000000001
40
0.625000000000014
40
0.625000000000014
40
0.687500000000018
40
0.687500000000018
40
0.718750000000018
40
0.718750000000018
40
0.750000000000017
40
0.750000000000017
40
0.781250000000017
40
0.781250000000017
40
0.812500000000017
40
0.843750000000017
40
0.843750000000017
40
0.875000000000017
40
0.875000000000017
40
0.937500000000009
40
0.937500000000009
40
1
40
1
40
1
40
1
41
1
10
79.8702519067626
20
-0.965819972965733
30
0
41
1
10
79.8783028963002
20
-0.937149422739765
30
0
41
1
10
79.8858665667786
20
-0.910030544134202
30
0
41
1
10
79.9000332204452
20
-0.859165933661785
30
0
41
1
10
79.906638050895
20
-0.835404728393229
30
0
41
1
10
79.9142435160493
20
-0.808406384789294
30
0
41
1
10
79.9157317365525
20
-0.803144465277654
30
0
41
1
10
79.9186393649296
20
-0.79292480216003
30
0
41
1
10
79.9200617404388
20
-0.787956915761526
30
0
41
1
10
79.9241750898279
20
-0.773717901956445
30
0
41
1
10
79.9267256795602
20
-0.765061033189795
30
0
41
1
10
79.9302375801985
20
-0.7535758017072
30
0
41
1
10
79.9313556815264
20
-0.749998698263056
30
0
41
1
10
79.9334788794552
20
-0.74341096708298
30
0
41
1
10
79.9344865938476
20
-0.740393654711738
30
0
41
1
10
79.937279804421
20
-0.732440040102432
30
0
41
1
10
79.9388524376319
20
-0.728540068792967
30
0
41
1
10
79.940714617643
20
-0.72527752804956
30
0
41
1
10
79.9412520345722
20
-0.724624140634319
30
0
41
1
10
79.9421399091074
20
-0.724322504481222
30
0
41
1
10
79.9424912579308
20
-0.724685411940555
30
0
41
1
10
79.9432024714509
20
-0.727472334749478
30
0
41
1
10
79.9432362513571
20
-0.73156066839644
30
0
41
1
10
79.9422934677158
20
-0.744921064232528
30
0
41
1
10
79.9413406081471
20
-0.753878999519259
30
0
41
1
10
79.9392014752426
20
-0.770674910759197
30
0
41
1
10
79.9383668703513
20
-0.776846256494309
30
0
41
1
10
79.9365195450297
20
-0.789874622076098
30
0
41
1
10
79.9355012261901
20
-0.796777248923007
30
0
41
1
10
79.9332861634101
20
-0.811298282693684
30
0
41
1
10
79.9320815079146
20
-0.818964095526866
30
0
41
1
10
79.9295582431485
20
-0.834606265772578
30
0
41
1
10
79.9269140375256
20
-0.850609930373366
30
0
41
1
10
79.9240481972358
20
-0.867244824277634
30
0
41
1
10
79.9210770679776
20
-0.884164259780334
30
0
41
1
10
79.9195318083541
20
-0.892804639240154
30
0
41
1
10
79.9148007195492
20
-0.918799223362953
30
0
41
1
10
79.9115281460354
20
-0.936189723481135
30
0
41
1
10
79.9047607820505
20
-0.971060233809652
30
0
41
1
10
79.9012656670584
20
-0.988540573817943
30
0
41
1
10
79.8976590052393
20
-1.00605681665519
30
0
0
SPLINE
5
D6
100
AcDbEntity
8
1
62
256
6
ByLayer
370
18
48
1
60
0
100
AcDbSpline
70
4
71
3
72
40
73
36
40
0
40
0
40
0
40
0
40
0.124999999999978
40
0.124999999999978
40
0.249999999999956
40
0.249999999999956
40
0.281249999999953
40
0.281249999999953
40
0.312499999999951
40
0.312499999999951
40
0.37499999999995
40
0.37499999999995
40
0.499999999999954
40
0.499999999999954
40
0.531249999999954
40
0.531249999999954
40
0.562499999999955
40
0.562499999999955
40
0.624999999999957
40
0.624999999999957
40
0.749999999999954
40
0.749999999999954
40
0.765624999999953
40
0.765624999999953
40
0.781249999999953
40
0.781249999999953
40
0.812499999999959
40
0.812499999999959
40
0.87499999999997
40
0.87499999999997
40
0.937499999999982
40
0.937499999999982
40
0.968749999999991
40
0.968749999999991
40
1
40
1
40
1
40
1
41
1
10
79.8976590052374
20
-1.00605681666465
30
0
41
1
10
79.8643613362253
20
-1.16777146738227
30
0
41
1
10
79.8232484304997
20
-1.32661446313526
30
0
41
1
10
79.7256154406336
20
-1.63841762863657
30
0
41
1
10
79.6691013067716
20
-1.79137804448112
30
0
41
1
10
79.5885668185634
20
-1.97857010262126
30
0
41
1
10
79.5719340322401
20
-2.01586836227514
30
0
41
1
10
79.5378709553478
20
-2.08960234820691
30
0
41
1
10
79.5204304723876
20
-2.12606670058054
30
0
41
1
10
79.4669058158271
20
-2.23424153411918
30
0
41
1
10
79.4296195300146
20
-2.3047358963066
30
0
41
1
10
79.3131011941397
20
-2.51119911220428
30
0
41
1
10
79.2292421912841
20
-2.64216808606744
30
0
41
1
10
79.1168427794164
20
-2.79658695227846
30
0
41
1
10
79.0939817974772
20
-2.82700381326987
30
0
41
1
10
79.047491522427
20
-2.88686794389037
30
0
41
1
10
79.0238374356698
20
-2.9163402715817
30
-1E-16
41
1
10
78.9523986996247
20
-3.00243381050569
30
0
41
1
10
78.9039325037983
20
-3.05701022588005
30
-1E-16
41
1
10
78.7562377450571
20
-3.21216406957643
30
0
41
1
10
78.6547423980189
20
-3.30422948158892
30
0
41
1
10
78.537456709223
20
-3.39390948119959
30
0
41
1
10
78.5243812384518
20
-3.40367964199268
30
0
41
1
10
78.4981427834468
20
-3.42282515094166
30
0
41
1
10
78.4849856626993
20
-3.43219539571714
30
0
41
1
10
78.4456131881392
20
-3.459549502719
30
-1E-16
41
1
10
78.4194217556248
20
-3.47683244264474
30
-1E-16
41
1
10
78.341028173314
20
-3.52586064489725
30
0
41
1
10
78.2890081484731
20
-3.5547895275071
30
-1E-16
41
1
10
78.1854714758086
20
-3.60523518803782
30
0
41
1
10
78.1339532176333
20
-3.62675417845236
30
1E-16
41
1
10
78.05704578666
20
-3.65343036193062
30
-1E-16
41
1
10
78.0314714120122
20
-3.66138747970877
30
-1E-16
41
1
10
77.9804408323232
20
-3.67541046938243
30
0
41
1
10
77.954951831454
20
-3.68148282643733
30
0
41
1
10
77.929588627285
20
-3.68658037560831
30
0
0
SPLINE
5
D7
100
AcDbEntity
8
1
62
256
6
ByLayer
370
18
48
1
60
0
100
AcDbSpline
70
4
71
3
72
30
73
26
40
0
40
0
40
0
40
0
40
0.125000000000042
40
0.125000000000042
40
0.156250000000047
40
0.156250000000047
40
0.187500000000051
40
0.187500000000051
40
0.250000000000036
40
0.250000000000036
40
0.37500000000003
40
0.37500000000003
40
0.437500000000028
40
0.437500000000028
40
0.500000000000025
40
0.500000000000025
40
0.625000000000019
40
0.625000000000019
40
0.750000000000012
40
0.750000000000012
40
0.875000000000006
40
0.875000000000006
40
0.937500000000003
40
0.937500000000003
40
1
40
1
40
1
40
1
41
1
10
77.9295886272715
20
-3.68658037560815
30
0
41
1
10
77.8870789860448
20
-3.72466938257492
30
1E-16
41
1
10
77.8425159308408
20
-3.76051820544637
30
-1E-16
41
1
10
77.7845221314764
20
-3.80281112353461
30
0
41
1
10
77.7728080174918
20
-3.81114283410969
30
0
41
1
10
77.7491528939818
20
-3.82755604385466
30
1E-16
41
1
10
77.7371845339712
20
-3.83565539900457
30
1E-16
41
1
10
77.701161082772
20
-3.85943913338724
30
-1E-16
41
1
10
77.67704016426
20
-3.87458061029349
30
0
41
1
10
77.6043643901383
20
-3.91806214624035
30
1E-16
41
1
10
77.5554978360909
20
-3.94447092078929
30
-1E-16
41
1
10
77.4815506031002
20
-3.98071376016881
30
0
41
1
10
77.4567932390199
20
-3.99222959562164
30
0
41
1
10
77.4070543441656
20
-4.01418210027444
30
1E-16
41
1
10
77.3820899386668
20
-4.02460684627567
30
1E-16
41
1
10
77.3077487435177
20
-4.05399013736221
30
0
41
1
10
77.258603087641
20
-4.07121117131678
30
0
41
1
10
77.1608393887878
20
-4.10155205905579
30
1E-16
41
1
10
77.112223074075
20
-4.11466710214896
30
1E-16
41
1
10
77.0153029558583
20
-4.13717739711979
30
-1E-16
41
1
10
76.9669999722248
20
-4.14657039062627
30
-1E-16
41
1
10
76.8946529690726
20
-4.15805321502913
30
0
41
1
10
76.8705648322893
20
-4.16144304134218
30
0
41
1
10
76.8225904911467
20
-4.16735652404526
30
0
41
1
10
76.7986807673963
20
-4.16988406848972
30
0
41
1
10
76.7748362673375
20
-4.17199823691286
30
0
0
SPLINE
5
D8
100
AcDbEntity
8
1
62
256
6
ByLayer
370
18
48
1
60
0
100
AcDbSpline
70
4
71
3
72
8
73
4
40
0
40
0
40
0
40
0
40
1
40
1
40
1
40
1
41
1
10
76.7748362673375
20
-4.17199823691286
30
0
41
1
10
76.7226690197318
20
-4.1766597181213
30
0
41
1
10
76.6708006444562
20
-4.17942775335985
30
0
41
1
10
76.619234442419
20
-4.18040226841609
30
0
0
SPLINE
5
D9
100
AcDbEntity
8
1
62
256
6
ByLayer
370
18
48
1
60
0
100
AcDbSpline
70
4
71
3
72
38
73
34
40
0
40
0
40
0
40
0
40
0.0229405047348492
40
0.0561461824496512
40
0.0893518601644533
40
0.122557537879255
40
0.155763215594057
40
0.188968893308859
40
0.222174571023662
40
0.255380248738463
40
0.288585926453265
40
0.321791604168068
40
0.35499728188287
40
0.388202959597672
40
0.421408637312474
40
0.454614315027276
40
0.487819992742078
40
0.52102567045688
40
0.554231348171682
40
0.587437025886484
40
0.620642703601286
40
0.653848381316088
40
0.68705405903089
40
0.720259736745692
40
0.753465414460494
40
0.786671092175296
40
0.819876769890098
40
0.8530824476049
40
0.886288125319702
40
0.919493803034504
40
0.952699480749306
40
0.985905158464108
40
1
40
1
40
1
40
1
41
1
10
63.2625165620436
20
5.28451329089549
30
0
41
1
10
63.3416777080436
20
5.30089725825158
30
0
41
1
10
63.5354221873577
20
5.3378274295049
30
0
41
1
10
63.8437499999933
20
5.38410899066295
30
0
41
1
10
64.1874999999842
20
5.41905846163846
30
0
41
1
10
64.5312499999939
20
5.43717461870736
30
0
41
1
10
64.8750000000033
20
5.43837736178435
30
0
41
1
10
65.218749999993
20
5.42258331625831
30
0
41
1
10
65.5625000005795
20
5.38981731400327
30
0
41
1
10
65.9062500023794
20
5.34009891241467
30
0
41
1
10
66.2500000011964
20
5.27356063423454
30
1E-16
41
1
10
66.5937499928353
20
5.19033168129516
30
1E-16
41
1
10
66.9374999862664
20
5.09065240401782
30
1E-16
41
1
10
67.2812499904588
20
4.97475825919767
30
-1E-16
41
1
10
67.6250000000078
20
4.84300149309288
30
2E-16
41
1
10
67.96875000951
20
4.69573116254964
30
1E-16
41
1
10
68.3125000142275
20
4.53340301593067
30
0
41
1
10
68.6562500094223
20
4.35646860097458
30
0
41
1
10
68.9999999999642
20
4.1655113812192
30
0
41
1
10
69.3437499907208
20
3.96111194925121
30
0
41
1
10
69.6874999861714
20
3.7439788591949
30
1E-16
41
1
10
70.031249990795
20
3.51481747525568
30
2E-16
41
1
10
70.3750000000011
20
3.27440072718278
30
-1E-16
41
1
10
70.7187500092008
20
3.02349929554029
30
0
41
1
10
71.0625000132246
20
2.76297151853396
30
-3E-16
41
1
10
71.4062500069034
20
2.49367393498036
30
4E-16
41
1
10
71.7499999988527
20
2.2165614986823
30
1E-16
41
1
10
72.0937499976857
20
1.93258772688617
30
-1E-16
41
1
10
72.4374999993988
20
1.64274661552159
30
-3E-16
41
1
10
72.7812499999893
20
1.34803198735943
30
4E-16
41
1
10
73.1250000000046
20
1.04951550354508
30
2E-16
41
1
10
73.4028039491122
20
0.806060576664919
30
1E-16
41
1
10
73.5660245648904
20
0.662470346476539
30
0
41
1
10
73.6146618473398
20
0.619647755907096
30
-1E-16
0
SPLINE
5
DA
100
AcDbEntity
8
1
62
256
6
ByLayer
370
18
48
1
60
0
100
AcDbSpline
70
4
71
3
72
10
73
6
40
0
40
0
40
0
40
0
40
0.5
40
0.5
40
1
40
1
40
1
40
1
41
1
10
75.2616797812148
20
-0.853060268235112
30
2E-16
41
1
10
75.4284924676148
20
-0.999317486008465
30
-3E-16
41
1
10
75.5940304966886
20
-1.14049442619608
30
0
41
1
10
75.9254187418073
20
-1.40970619315723
30
-2E-16
41
1
10
76.0912486778659
20
-1.53776770768064
30
1E-16
41
1
10
76.2587577248033
20
-1.65729076880979
30
3E-16
0
SPLINE
5
DB
100
AcDbEntity
8
1
62
256
6
ByLayer
370
18
48
1
60
0
100
AcDbSpline
70
4
71
3
72
8
73
4
40
0
40
0
40
0
40
0
40
1
40
1
40
1
40
1
41
1
10
58.0000000000001
20
5.78417872281574
30
0
41
0.944536766859186
10
58.0000000000001
20
5.50950556850543
30
0
41
0.908691040286438
10
58
20
5.23340779605919
30
0
41
0.892462820281756
10
58
20
4.97392072281572
30
0
0
SPLINE
5
DC
100
AcDbEntity
8
1
62
256
6
ByLayer
370
18
48
1
60
0
100
AcDbSpline
70
4
71
3
72
40
73
36
40
0
40
0
40
0
40
0
40
0.0214919075482748
40
0.0526381235168022
40
0.0837843394853296
40
0.114930555453857
40
0.146076771422384
40
0.177222987390912
40
0.208369203359439
40
0.239515419327967
40
0.270661635296494
40
0.301807851265021
40
0.332954067233549
40
0.364100283202076
40
0.395246499170604
40
0.426392715139131
40
0.457538931107658
40
0.488685147076186
40
0.519831363044713
40
0.550977579013241
40
0.582123794981768
40
0.613270010950295
40
0.644416226918823
40
0.67556244288735
40
0.706708658855878
40
0.737854874824405
40
0.769001090792932
40
0.80014730676146
40
0.831293522729987
40
0.862439738698515
40
0.893585954667042
40
0.924732170635569
40
0.955878386604097
40
0.987024602572624
40
1
40
1
40
1
40
1
41
1
10
60.5128012591173
20
3.3249096325994
30
1E-16
41
1
10
60.5918675057528
20
3.29524128236238
30
0
41
1
10
60.7855170856533
20
3.22104813208131
30
0
41
1
10
61.0937500037215
20
3.09673761554836
30
-1E-16
41
1
10
61.4375000080238
20
2.95024581767129
30
2E-16
41
1
10
61.78125000448
20
2.79618903784999
30
1E-16
41
1
10
62.1249999992552
20
2.63494109250288
30
0
41
1
10
62.4687499984992
20
2.46683925256917
30
0
41
1
10
62.8124999996115
20
2.29228961972362
30
0
41
1
10
63.1562499999945
20
2.1116597816164
30
-1E-16
41
1
10
63.5000000000031
20
1.92538796011556
30
-1E-16
41
1
10
63.8437499999933
20
1.73388836215838
30
-1E-16
41
1
10
64.1874999999842
20
1.53762871435995
30
0
41
1
10
64.531249999994
20
1.33705762523667
30
0
41
1
10
64.8750000000034
20
1.1326789501789
30
0
41
1
10
65.2187499999927
20
0.924986595229882
30
1E-16
41
1
10
65.5625000005792
20
0.714510088420298
30
1E-16
41
1
10
65.9062500023808
20
0.501780244057187
30
2E-16
41
1
10
66.2500000011966
20
0.287363577948923
30
2E-16
41
1
10
66.5937499928332
20
0.0718311287577365
30
-2E-16
41
1
10
66.9374999862659
20
-0.144230485900437
30
-1E-16
41
1
10
67.2812499904607
20
-0.360213453386677
30
0
41
1
10
67.6250000000072
20
-0.575498191242303
30
0
41
1
10
67.9687500095106
20
-0.7894468879675
30
1E-16
41
1
10
68.3125000142283
20
-1.00143062430249
30
1E-16
41
1
10
68.6562500094206
20
-1.21078140399081
30
2E-16
41
1
10
68.9999999999648
20
-1.41682565817587
30
2E-16
41
1
10
69.3437499907204
20
-1.618859576695
30
-2E-16
41
1
10
69.6874999861706
20
-1.81620137920069
30
-2E-16
41
1
10
70.0312499907964
20
-2.00811478795842
30
-2E-16
41
1
10
70.3750000000005
20
-2.19396325337237
30
-2E-16
41
1
10
70.7187500092017
20
-2.37307126765867
30
-2E-16
41
1
10
71.0625000132255
20
-2.54478146837829
30
2E-16
41
1
10
71.3394016641795
20
-2.67655912235409
30
1E-16
41
1
10
71.5017199833323
20
-2.7508943964711
30
1E-16
41
1
10
71.5494549717206
20
-2.77249563909419
30
1E-16
0
SPLINE
5
DD
100
AcDbEntity
8
1
62
256
6
ByLayer
370
18
48
1
60
0
100
AcDbSpline
70
4
71
3
72
16
73
12
40
0
40
0
40
0
40
0
40
0.25
40
0.25
40
0.5
40
0.5
40
0.625
40
0.625
40
0.75
40
0.75
40
1
40
1
40
1
40
1
41
1
10
76.6192344424172
20
-4.18040226841171
30
0
41
1
10
76.498848951324
20
-4.18268015615973
30
0
41
1
10
76.3814615210969
20
-4.17527376099903
30
0
41
1
10
76.1503699249059
20
-4.14384762521516
30
-1E-16
41
1
10
76.0366843994203
20
-4.11979991003659
30
-1E-16
41
1
10
75.8677628188697
20
-4.07230777851424
30
2E-16
41
1
10
75.8117272664582
20
-4.05456614404611
30
2E-16
41
1
10
75.7000383588808
20
-4.01536550134455
30
1E-16
41
1
10
75.6443044822672
20
-3.99386807675131
30
0
41
1
10
75.4785152593369
20
-3.92436910231126
30
-1E-16
41
1
10
75.3695997341626
20
-3.87130705419008
30
2E-16
41
1
10
75.2616797812146
20
-3.81197965460385
30
0
0
SPLINE
5
DE
100
AcDbEntity
8
1
62
256
6
ByLayer
370
18
48
1
60
0
100
AcDbSpline
70
4
71
3
72
43
73
39
40
0
40
0
40
0
40
0
40
0.0094985967546068
40
0.0383538233535971
40
0.0672090499525873
40
0.0960642765515776
40
0.124919503150568
40
0.153774729749558
40
0.182629956348548
40
0.211485182947539
40
0.240340409546529
40
0.269195636145519
40
0.298050862744509
40
0.3269060893435
40
0.35576131594249
40
0.38461654254148
40
0.41347176914047
40
0.44232699573946
40
0.471182222338451
40
0.500037448937441
40
0.528892675536431
40
0.557747902135421
40
0.586603128734412
40
0.615458355333402
40
0.644313581932392
40
0.673168808531382
40
0.702024035130373
40
0.730879261729363
40
0.759734488328353
40
0.788589714927343
40
0.817444941526333
40
0.846300168125324
40
0.875155394724314
40
0.904010621323304
40
0.932865847922295
40
0.961721074521285
40
0.990576301120275
40
1
40
1
40
1
40
1
41
0.99213273466909
10
63.0431115707581
20
1.15793054244207
30
2E-16
41
0.992149447558444
10
63.0808297017371
20
1.12616431512953
30
2E-16
41
0.992217468291363
10
63.2331241819236
20
0.997691691047554
30
1E-16
41
0.992340388734584
10
63.500000000003
20
0.771221736516665
30
0
41
0.992505499841934
10
63.8437499999935
20
0.477802687008005
30
-2E-16
41
0.992676970080015
10
64.1874999999842
20
0.183573973823523
30
-4E-16
41
0.992854370091139
10
64.5312499999939
20
-0.110552101016146
30
3E-16
41
0.993037270088743
10
64.8750000000034
20
-0.403644282127208
30
1E-16
41
0.993225240177649
10
65.2187499999932
20
-0.694765146721273
30
-1E-16
41
0.993417851041449
10
65.5625000005796
20
-0.982975378180411
30
-4E-16
41
0.99361467373523
10
65.9062500023788
20
-1.26733204067545
30
3E-16
41
0.993815278495579
10
66.2500000011963
20
-1.54689249260167
30
1E-16
41
0.994019235438917
10
66.5937499928361
20
-1.82071128583707
30
-2E-16
41
0.994226115328113
10
66.9374999862665
20
-2.08786345856492
30
-4E-16
41
0.994435489341289
10
67.2812499904581
20
-2.34742555542628
30
2E-16
41
0.994646927646881
10
67.6250000000081
20
-2.59849732475275
30
-1E-16
41
0.994860000306733
10
67.9687500095098
20
-2.8401795849496
30
4E-16
41
0.995074278581597
10
68.3125000142271
20
-3.07161860160726
30
1E-16
41
0.995289334197699
10
68.6562500094231
20
-3.29196763629145
30
2E-16
41
0.995504731932275
10
68.999999999964
20
-3.50040643770961
30
2E-16
41
0.995720036511775
10
69.343749990721
20
-3.69611992630926
30
2E-16
41
0.995934809058373
10
69.6874999861717
20
-3.87835817246902
30
2E-16
41
0.99614861125102
10
70.0312499907944
20
-4.04638386751641
30
2E-16
41
0.996361017165299
10
70.3750000000014
20
-4.19958882620341
30
1E-16
41
0.996571600182494
10
70.7187500092004
20
-4.33737412625201
30
-1E-16
41
0.996779927691367
10
71.0625000132242
20
-4.45917655288784
30
-2E-16
41
0.996985568612646
10
71.4062500069047
20
-4.5644503825365
30
0
41
0.997188095934038
10
71.7499999988525
20
-4.65282317211128
30
0
41
0.997387080870849
10
72.0937499976851
20
-4.72393526389844
30
0
41
0.997582092393457
10
72.4374999993989
20
-4.7774398307704
30
0
41
0.997772701543642
10
72.7812499999893
20
-4.81301136523308
30
0
41
0.99795848001685
10
73.1250000000046
20
-4.83052779488788
30
0
41
0.998138997940388
10
73.4687499999923
20
-4.82988234523103
30
0
41
0.998313824653805
10
73.8124999999795
20
-4.81100456949877
30
0
41
0.998482531148849
10
74.1562499999931
20
-4.77384780503158
30
0
41
0.998644688907813
10
74.5000000000049
20
-4.71855723182988
30
0
41
0.998765034973365
10
74.766597220586
20
-4.66173798370242
30
0
41
0.998831481725296
10
74.9186090965874
20
-4.62413590014453
30
0
41
0.998847705742461
10
74.9560308666174
20
-4.61456524485629
30
0
0
SPLINE
5
DF
100
AcDbEntity
8
1
62
256
6
ByLayer
370
18
48
1
60
0
100
AcDbSpline
70
4
71
3
72
8
73
4
40
0
40
0
40
0
40
0
40
1
40
1
40
1
40
1
41
1
10
58.0000000000001
20
5.88403376671704
30
0
41
1
10
58.0000000000001
20
5.85074875208326
30
0
41
1
10
58.0000000000001
20
5.81746373744951
30
0
41
1
10
58.0000000000001
20
5.78417872281574
30
0
0
SPLINE
5
E0
100
AcDbEntity
8
1
62
256
6
ByLayer
370
18
48
1
60
0
100
AcDbSpline
70
4
71
3
72
43
73
39
40
0
40
0
40
0
40
0
40
0.007532295599371
40
0.0362782516883172
40
0.0650242077772634
40
0.0937701638662097
40
0.122516119955156
40
0.151262076044102
40
0.180008032133048
40
0.208753988221995
40
0.237499944310941
40
0.266245900399887
40
0.294991856488833
40
0.32373781257778
40
0.352483768666726
40
0.381229724755672
40
0.409975680844619
40
0.438721636933565
40
0.467467593022511
40
0.496213549111457
40
0.524959505200403
40
0.55370546128935
40
0.582451417378296
40
0.611197373467242
40
0.639943329556188
40
0.668689285645135
40
0.697435241734081
40
0.726181197823027
40
0.754927153911973
40
0.78367311000092
40
0.812419066089865
40
0.841165022178812
40
0.869910978267758
40
0.898656934356705
40
0.927402890445651
40
0.956148846534597
40
0.984894802623543
40
1
40
1
40
1
40
1
41
1
10
63.0661772743584
20
1.13760911896381
30
2E-16
41
1
10
63.0962015162214
20
1.11192894931196
30
2E-16
41
1
10
63.2408090914938
20
0.988087284111231
30
1E-16
41
1
10
63.5000000000031
20
0.764875027086504
30
0
41
1
10
63.8437499999934
20
0.467134168168712
30
-2E-16
41
1
10
64.1874999999842
20
0.168611324785473
30
-4E-16
41
1
10
64.5312499999939
20
-0.12975875690401
30
3E-16
41
1
10
64.8750000000033
20
-0.427023038480002
30
1E-16
41
1
10
65.2187499999932
20
-0.722221477659218
30
-1E-16
41
1
10
65.5625000005796
20
-1.01439270955208
30
-3E-16
41
1
10
65.9062500023787
20
-1.30257160669973
30
4E-16
41
1
10
66.2500000011963
20
-1.58579405709491
30
2E-16
41
1
10
66.5937499928363
20
-1.86309325358252
30
-1E-16
41
1
10
66.9374999862666
20
-2.13352368389914
30
-3E-16
41
1
10
67.281249990458
20
-2.39614246533523
30
3E-16
41
1
10
67.6250000000081
20
-2.65003072101706
30
0
41
1
10
67.9687500095098
20
-2.89427168560937
30
-3E-16
41
1
10
68.3125000142271
20
-3.1279950623051
30
2E-16
41
1
10
68.6562500094232
20
-3.35033984437481
30
-1E-16
41
1
10
68.999999999964
20
-3.5604722223577
30
-1E-16
41
1
10
69.343749990721
20
-3.7575654459844
30
-1E-16
41
1
10
69.6874999861718
20
-3.94085921298364
30
-1E-16
41
1
10
70.0312499907943
20
-4.10960918232121
30
-1E-16
41
1
10
70.3750000000014
20
-4.26320131972577
30
2E-16
41
1
10
70.7187500092003
20
-4.40103338049258
30
1E-16
41
1
10
71.0625000132241
20
-4.52253939759729
30
-1E-16
41
1
10
71.4062500069048
20
-4.62717491226832
30
0
41
1
10
71.7499999988526
20
-4.71457018828053
30
-1E-16
41
1
10
72.093749997685
20
-4.78437121608334
30
1E-16
41
1
10
72.4374999993989
20
-4.83623660757874
30
0
41
1
10
72.7812499999893
20
-4.86985066271279
30
0
41
1
10
73.1250000000045
20
-4.88510230473875
30
0
41
1
10
73.4687499999923
20
-4.88189881244804
30
0
41
1
10
73.8124999999794
20
-4.86018339919406
30
0
41
1
10
74.1562499999931
20
-4.8199274304155
30
0
41
1
10
74.5000000000049
20
-4.7612943031784
30
1E-16
41
1
10
74.7893770093113
20
-4.6966191090109
30
1E-16
41
1
10
74.9641706854456
20
-4.65059402564214
30
1E-16
41
1
10
75.0243810281794
20
-4.63392101900484
30
1E-16
0
SPLINE
5
E1
100
AcDbEntity
8
1
62
256
6
ByLayer
370
18
48
1
60
0
100
AcDbSpline
70
4
71
3
72
8
73
4
40
0
40
0
40
0
40
0
40
1
40
1
40
1
40
1
41
1
10
58.0000000000001
20
3.24544870111794
30
4E-16
41
0.843192598419221
10
58.0000000000001
20
2.85110584423732
30
4E-16
41
0.843192598419221
10
58.0000000000001
20
2.04903882578853
30
1E-16
41
1
10
58.0000000000001
20
1.21655778094137
30
-2E-16
0
SPLINE
5
E2
100
AcDbEntity
8
1
62
256
6
ByLayer
370
18
48
1
60
0
100
AcDbSpline
70
4
71
3
72
8
73
4
40
0
40
0
40
0
40
0
40
1
40
1
40
1
40
1
41
1
10
58.0000000000001
20
3.29071492972861
30
3E-16
41
1
10
58.0000000000001
20
3.27562618685837
30
3E-16
41
1
10
58.0000000000001
20
3.26053744398817
30
4E-16
41
1
10
58.0000000000001
20
3.24544870111794
30
4E-16
0
SPLINE
5
E3
100
AcDbEntity
8
1
62
256
6
ByLayer
370
18
48
1
60
0
100
AcDbSpline
70
4
71
3
72
48
73
44
40
0
40
0
40
0
40
0
40
0.124999999999979
40
0.124999999999979
40
0.249999999999957
40
0.249999999999957
40
0.312499999999946
40
0.312499999999946
40
0.374999999999936
40
0.374999999999936
40
0.40624999999993
40
0.40624999999993
40
0.437499999999925
40
0.437499999999925
40
0.499999999999914
40
0.499999999999914
40
0.531249999999909
40
0.531249999999909
40
0.562499999999904
40
0.562499999999904
40
0.624999999999906
40
0.624999999999906
40
0.656249999999907
40
0.656249999999907
40
0.687499999999907
40
0.718749999999908
40
0.734374999999909
40
0.734374999999909
40
0.74999999999991
40
0.74999999999991
40
0.812499999999929
40
0.812499999999929
40
0.828124999999935
40
0.828124999999935
40
0.843749999999941
40
0.843749999999941
40
0.874999999999953
40
0.874999999999953
40
0.937499999999977
40
0.937499999999977
40
0.968749999999989
40
0.968749999999989
40
1
40
1
40
1
40
1
41
1
10
56.0497929201179
20
4.41151911521058
30
3E-16
41
1
10
55.930893174674
20
4.45050766679202
30
2E-16
41
1
10
55.8104601758013
20
4.48532415919408
30
1E-16
41
1
10
55.5659095391237
20
4.54588183585699
30
0
41
1
10
55.4418010830848
20
4.571643543015
30
-1E-16
41
1
10
55.2520717040663
20
4.60217231737491
30
-1E-16
41
1
10
55.1882289664792
20
4.6109848030008
30
-1E-16
41
1
10
55.0591163522242
20
4.6254528147773
30
-2E-16
41
1
10
54.9938486700629
20
4.63111342275386
30
-2E-16
41
1
10
54.8946105677789
20
4.63669895996634
30
-2E-16
41
1
10
54.8612276490682
20
4.63807352295018
30
-2E-16
41
1
10
54.7946722484288
20
4.639704882903
30
-2E-16
41
1
10
54.7614384318352
20
4.63996759682263
30
-2E-16
41
1
10
54.6618813015649
20
4.63893850394345
30
-2E-16
41
1
10
54.5957009517144
20
4.63584979788706
30
-2E-16
41
1
10
54.4967895396017
20
4.62665959418433
30
-2E-16
41
1
10
54.4637863148607
20
4.62281349522064
30
-2E-16
41
1
10
54.3988976636135
20
4.61351612324512
30
-2E-16
41
1
10
54.3669144257042
20
4.60806020240807
30
-1E-16
41
1
10
54.2724542308703
20
4.58904832174875
30
-1E-16
41
1
10
54.2114569345017
20
4.57287316529809
30
-1E-16
41
1
10
54.1234931588217
20
4.54210831773827
30
0
41
1
10
54.0946250498625
20
4.53068880078237
30
0
41
1
10
54.0395103010018
20
4.5060117555328
30
1E-16
41
1
10
53.9867401162993
20
4.47942728779162
30
2E-16
41
1
10
53.9266242351754
20
4.44128815718355
30
3E-16
41
1
10
53.8932042551397
20
4.41610406882211
30
3E-16
41
1
10
53.8715180633571
20
4.39878986171394
30
4E-16
41
1
10
53.8609745546581
20
4.38986864472682
30
4E-16
41
1
10
53.8103255076165
20
4.34447050381067
30
-4E-16
41
1
10
53.7758531145015
20
4.30522880962636
30
-3E-16
41
1
10
53.7393917196989
20
4.2526473913064
30
-2E-16
41
1
10
53.7324334309744
20
4.24195365823221
30
-2E-16
41
1
10
53.7191709566229
20
4.22021069907171
30
-1E-16
41
1
10
53.7128535661581
20
4.20913498714035
30
-1E-16
41
1
10
53.6950040673439
20
4.17564001710252
30
0
41
1
10
53.6845438498089
20
4.15292317024458
30
0
41
1
10
53.6570629745827
20
4.08364911420503
30
2E-16
41
1
10
53.6439161335014
20
4.03597207170378
30
3E-16
41
1
10
53.6309280507409
20
3.9622754339963
30
-4E-16
41
1
10
53.6277281721885
20
3.93734533948535
30
-3E-16
41
1
10
53.6234893904908
20
3.88675546756343
30
-2E-16
41
1
10
53.6224621034803
20
3.86121774869824
30
-2E-16
41
1
10
53.6224621036405
20
3.83549469319121
30
-1E-16
0
SPLINE
5
E4
100
AcDbEntity
8
1
62
256
6
ByLayer
370
18
48
1
60
0
100
AcDbSpline
70
4
71
3
72
14
73
10
40
0
40
0
40
0
40
0
40
0.25
40
0.25
40
0.5
40
0.5
40
0.75
40
0.75
40
1
40
1
40
1
40
1
41
1
10
56.9522587980655
20
3.99740494194046
30
4E-16
41
1
10
57.0449605100394
20
3.94619895443714
30
-4E-16
41
1
10
57.1363107203962
20
3.89319650210268
30
-2E-16
41
1
10
57.316108186792
20
3.78322699459139
30
0
41
1
10
57.4045421728414
20
3.72624708020101
30
2E-16
41
1
10
57.5785042696473
20
3.60810547526026
30
4E-16
41
1
10
57.6639219169003
20
3.5468354501628
30
-3E-16
41
1
10
57.832871862482
20
3.4208758297915
30
0
41
1
10
57.9164185310385
20
3.35619670174114
30
1E-16
41
1
10
58.0000000000001
20
3.29071492972861
30
3E-16
0
SPLINE
5
E5
100
AcDbEntity
8
1
62
256
6
ByLayer
370
18
48
1
60
0
100
AcDbSpline
70
4
71
3
72
16
73
12
40
0
40
0
40
0
40
0
40
0.125000000000006
40
0.125000000000006
40
0.250000000000011
40
0.250000000000011
40
0.500000000000007
40
0.500000000000007
40
0.750000000000004
40
0.750000000000004
40
1
40
1
40
1
40
1
41
1
10
58.0000000000001
20
4.97635536151213
30
-1E-16
41
1
10
57.9337393474128
20
5.01157652190776
30
-2E-16
41
1
10
57.867512839986
20
5.04602007408721
30
2E-16
41
1
10
57.7342130097164
20
5.11280442460657
30
0
41
1
10
57.667130321947
20
5.14514063479402
30
-1E-16
41
1
10
57.4635250698855
20
5.23852308998448
30
2E-16
41
1
10
57.3244233138844
20
5.29582787943332
30
0
41
1
10
57.0392628568775
20
5.40175857180859
30
-2E-16
41
1
10
56.8932424668712
20
5.45041603855194
30
1E-16
41
1
10
56.5953018828222
20
5.54074823280754
30
-1E-16
41
1
10
56.4434004523262
20
5.58243178908779
30
-2E-16
41
1
10
56.2891541360371
20
5.62132296121894
30
2E-16
0
SPLINE
5
E6
100
AcDbEntity
8
1
62
256
6
ByLayer
370
18
48
1
60
0
100
AcDbSpline
70
4
71
3
72
8
73
4
40
0
40
0
40
0
40
0
40
1
40
1
40
1
40
1
41
1
10
56.2891541360371
20
5.62132296121897
30
2E-16
41
1
10
56.2094750332136
20
5.64141299498911
30
1E-16
41
1
10
56.1296198732339
20
5.66090677595767
30
1E-16
41
1
10
56.0497929201187
20
5.67991877615802
30
0
0
SPLINE
5
E7
100
AcDbEntity
8
1
62
256
6
ByLayer
370
18
48
1
60
0
100
AcDbSpline
70
4
71
3
72
10
73
6
40
0
40
0
40
0
40
0
40
0.5
40
0.5
40
1
40
1
40
1
40
1
41
1
10
56.0497929201179
20
4.41151911521061
30
3E-16
41
1
10
56.2076798310115
20
4.35339208933726
30
-4E-16
41
1
10
56.3612813215911
20
4.28954185571246
30
-3E-16
41
1
10
56.6616237273224
20
4.15128623934604
30
0
41
1
10
56.8083677737865
20
4.07688655920723
30
2E-16
41
1
10
56.9522587980655
20
3.99740494194046
30
4E-16
0
SPLINE
5
E8
100
AcDbEntity
8
1
62
256
6
ByLayer
370
18
48
1
60
0
100
AcDbSpline
70
4
71
3
72
14
73
10
40
0
40
0
40
0
40
0
40
0.25
40
0.25
40
0.5
40
0.5
40
0.75
40
0.75
40
1
40
1
40
1
40
1
41
1
10
56.9522587980656
20
-1.82118979255557
30
-2E-16
41
1
10
57.0449605100394
20
-1.88130379258752
30
0
41
1
10
57.1363107203962
20
-1.94257835626468
30
1E-16
41
1
10
57.316108186792
20
-2.06753924197733
30
4E-16
41
1
10
57.4045421728415
20
-2.13124061865653
30
-3E-16
41
1
10
57.5785042696472
20
-2.26089434110258
30
0
41
1
10
57.6639219169003
20
-2.32697101838724
30
1E-16
41
1
10
57.832871862482
20
-2.46004398046884
30
4E-16
41
1
10
57.9164185310385
20
-2.52702131480339
30
-3E-16
41
1
10
58.0000000000001
20
-2.59331883698843
30
-1E-16
0
SPLINE
5
E9
100
AcDbEntity
8
1
62
256
6
ByLayer
370
18
48
1
60
0
100
AcDbSpline
70
4
71
3
72
8
73
4
40
0
40
0
40
0
40
0
40
1
40
1
40
1
40
1
41
1
10
58.0000000000001
20
-0.206924785679064
30
-4E-16
41
1
10
58.0000000000001
20
-0.222334308348309
30
-4E-16
41
1
10
58.0000000000001
20
-0.237743831017554
30
-3E-16
41
1
10
58.0000000000001
20
-0.253153353686798
30
-3E-16
0
SPLINE
5
EA
100
AcDbEntity
8
1
62
256
6
ByLayer
370
18
48
1
60
0
100
AcDbSpline
70
4
71
3
72
16
73
12
40
0
40
0
40
0
40
0
40
0.125000000000006
40
0.125000000000006
40
0.250000000000011
40
0.250000000000011
40
0.500000000000007
40
0.500000000000007
40
0.750000000000004
40
0.750000000000004
40
1
40
1
40
1
40
1
41
1
10
58.0000000000001
20
-0.253153353687594
30
-3E-16
41
1
10
57.9337393474128
20
-0.193193139926848
30
-4E-16
41
1
10
57.867512839986
20
-0.13318239353373
30
3E-16
41
1
10
57.7342130097165
20
-0.0142849023467875
30
0
41
1
10
57.6671303219471
20
0.0445892993347456
30
-1E-16
41
1
10
57.4635250698856
20
0.218069686033573
30
4E-16
41
1
10
57.3244233138844
20
0.329236347705148
30
1E-16
41
1
10
57.0392628568775
20
0.542283584940947
30
-4E-16
41
1
10
56.8932424668713
20
0.644215395848533
30
3E-16
41
1
10
56.5953018828222
20
0.840201716581618
30
-2E-16
41
1
10
56.4434004523261
20
0.934281359960636
30
-4E-16
41
1
10
56.2891541360371
20
1.02523026166403
30
3E-16
0
SPLINE
5
EB
100
AcDbEntity
8
1
62
256
6
ByLayer
370
18
48
1
60
0
100
AcDbSpline
70
4
71
3
72
8
73
4
40
0
40
0
40
0
40
0
40
1
40
1
40
1
40
1
41
0.990914352163802
10
58.0000000000001
20
-4.88403993163896
30
-1E-16
41
0.99384675911194
10
58.0000000000001
20
-4.90524380154358
30
-1E-16
41
0.996875308390672
10
58.0000000000001
20
-4.92629044075347
30
0
41
1
10
58.0000000000001
20
-4.94717520739252
30
0
0
SPLINE
5
EC
100
AcDbEntity
8
1
62
256
6
ByLayer
370
18
48
1
60
0
100
AcDbSpline
70
4
71
3
72
8
73
4
40
0
40
0
40
0
40
0
40
1
40
1
40
1
40
1
41
1
10
58.0000000000001
20
-2.80829860269833
30
-1E-16
41
0.901570073649334
10
58.0000000000001
20
-3.380285236921
30
-1E-16
41
0.898541524370601
10
58.0000000000001
20
-4.1452577645946
30
-1E-16
41
0.990914352163802
10
58.0000000000001
20
-4.88403993163896
30
-1E-16
0
SPLINE
5
ED
100
AcDbEntity
8
1
62
256
6
ByLayer
370
18
48
1
60
0
100
AcDbSpline
70
4
71
3
72
38
73
34
40
0
40
0
40
0
40
0
40
0.0624999999999976
40
0.0624999999999976
40
0.124999999999995
40
0.124999999999995
40
0.140624999999995
40
0.140624999999995
40
0.156249999999995
40
0.156249999999995
40
0.187499999999995
40
0.187499999999995
40
0.249999999999998
40
0.249999999999998
40
0.312500000000001
40
0.312500000000001
40
0.34375
40
0.34375
40
0.374999999999999
40
0.374999999999999
40
0.49999999999999
40
0.49999999999999
40
0.624999999999981
40
0.624999999999981
40
0.656249999999982
40
0.656249999999982
40
0.687499999999984
40
0.687499999999984
40
0.749999999999987
40
0.749999999999987
40
0.874999999999993
40
0.874999999999993
40
1
40
1
40
1
40
1
41
1
10
53.6224621036406
20
-2.07809240793375
30
4E-16
41
1
10
53.6224621040483
20
-2.15794445850173
30
-3E-16
41
1
10
53.6282774986192
20
-2.23628333769582
30
-1E-16
41
1
10
53.649782137021
20
-2.39025872761948
30
3E-16
41
1
10
53.6654883525774
20
-2.4658924996827
30
-4E-16
41
1
10
53.6907950352701
20
-2.55885310783526
30
-2E-16
41
1
10
53.6961417261827
20
-2.57736588912601
30
-2E-16
41
1
10
53.7073989908828
20
-2.61423458570874
30
-1E-16
41
1
10
53.7133141895888
20
-2.63260141457363
30
0
41
1
10
53.7317864624963
20
-2.68715438360394
30
1E-16
41
1
10
53.7450991305962
20
-2.72289798191557
30
2E-16
41
1
10
53.7878618868641
20
-2.82836702047382
30
4E-16
41
1
10
53.8201253912025
20
-2.89633640782807
30
-3E-16
41
1
10
53.8916158632707
20
-3.02801314265486
30
0
41
1
10
53.9308551737388
20
-3.09171497948529
30
1E-16
41
1
10
53.9947039773149
20
-3.18429459466313
30
4E-16
41
1
10
54.0168197290902
20
-3.21465827331267
30
4E-16
41
1
10
54.0626862798739
20
-3.27442530722203
30
-3E-16
41
1
10
54.0864539359824
20
-3.3038404646542
30
-3E-16
41
1
10
54.2081070204937
20
-3.44724597965859
30
1E-16
41
1
10
54.3152711033051
20
-3.55147112619645
30
3E-16
41
1
10
54.5454046759164
20
-3.74383835393763
30
-1E-16
41
1
10
54.6683783556208
20
-3.83196758827918
30
1E-16
41
1
10
54.8298469448132
20
-3.93444854489445
30
3E-16
41
1
10
54.8625573726875
20
-3.95457384633607
30
4E-16
41
1
10
54.9284602350788
20
-3.9939568346112
30
-4E-16
41
1
10
54.961675733687
20
-4.01322991885488
30
-4E-16
41
1
10
55.0620466137049
20
-4.0699015167429
30
-2E-16
41
1
10
55.1299243764757
20
-4.10615611093533
30
-1E-16
41
1
10
55.3358880562622
20
-4.2111640915009
30
1E-16
41
1
10
55.4763405101081
20
-4.27613933126744
30
2E-16
41
1
10
55.7609576946884
20
-4.39948625415465
30
-4E-16
41
1
10
55.9051283151935
20
-4.45785035556645
30
-2E-16
41
1
10
56.0497929201179
20
-4.51444200136234
30
-1E-16
0
SPLINE
5
EE
100
AcDbEntity
8
1
62
256
6
ByLayer
370
18
48
1
60
0
100
AcDbSpline
70
4
71
3
72
8
73
4
40
0
40
0
40
0
40
0
40
1
40
1
40
1
40
1
41
1
10
56.2891541360371
20
-4.59609269955493
30
1E-16
41
1
10
56.2094750332136
20
-4.56920121010384
30
0
41
1
10
56.129619873233
20
-4.5420602879891
30
0
41
1
10
56.0497929201177
20
-4.5144420013628
30
-1E-16
0
SPLINE
5
EF
100
AcDbEntity
8
1
62
256
6
ByLayer
370
18
48
1
60
0
100
AcDbSpline
70
4
71
3
72
8
73
4
40
0
40
0
40
0
40
0
40
1
40
1
40
1
40
1
41
1
10
56.8160137338202
20
0.693851497799557
30
1E-16
41
1
10
56.8280876511896
20
0.685970419505878
30
1E-16
41
1
10
56.84016157234
20
0.678062657340604
30
1E-16
41
1
10
56.8522354996351
20
0.670126572224916
30
2E-16
0
SPLINE
5
F0
100
AcDbEntity
8
1
62
256
6
ByLayer
370
18
48
1
60
0
100
AcDbSpline
70
4
71
3
72
8
73
4
40
0
40
0
40
0
40
0
40
1
40
1
40
1
40
1
41
0.990914352163802
10
58.0000000000001
20
-0.195561791236807
30
-4E-16
41
0.99384675911194
10
58.0000000000001
20
-0.199718257615077
30
-4E-16
41
0.996875308390672
10
58.0000000000001
20
-0.203505167290829
30
-4E-16
41
1
10
58.0000000000001
20
-0.206924785679064
30
-4E-16
0
SPLINE
5
F1
100
AcDbEntity
8
1
62
256
6
ByLayer
370
18
48
1
60
0
100
AcDbSpline
70
4
71
3
72
8
73
4
40
0
40
0
40
0
40
0
40
1
40
1
40
1
40
1
41
1
10
58.0000000000001
20
1.21655778094137
30
-2E-16
41
0.901570073649334
10
58.0000000000001
20
0.470867171683828
30
-2E-16
41
0.898541524370601
10
58.0000000000001
20
-0.0507427911197116
30
1E-16
41
0.990914352163802
10
58.0000000000001
20
-0.195561791236807
30
-4E-16
0
SPLINE
5
F2
100
AcDbEntity
8
1
62
256
6
ByLayer
370
18
48
1
60
0
100
AcDbSpline
70
4
71
3
72
37
73
33
40
0
40
0
40
0
40
0
40
0.0624999999999924
40
0.0624999999999924
40
0.124999999999985
40
0.124999999999985
40
0.140624999999982
40
0.140624999999982
40
0.15624999999998
40
0.15624999999998
40
0.187499999999976
40
0.187499999999976
40
0.249999999999971
40
0.249999999999971
40
0.312499999999967
40
0.312499999999967
40
0.343749999999967
40
0.343749999999967
40
0.374999999999967
40
0.374999999999967
40
0.499999999999987
40
0.499999999999987
40
0.625000000000006
40
0.625000000000006
40
0.656250000000009
40
0.656250000000009
40
0.687500000000012
40
0.750000000000009
40
0.750000000000009
40
0.875000000000005
40
0.875000000000005
40
1
40
1
40
1
40
1
41
1
10
53.6224621036406
20
3.83549469319112
30
-1E-16
41
1
10
53.6224621040483
20
3.77003704192265
30
0
41
1
10
53.6282774986193
20
3.70415022408906
30
2E-16
41
1
10
53.6497821370209
20
3.57144371197614
30
-4E-16
41
1
10
53.6654883525774
20
3.50462533707082
30
-2E-16
41
1
10
53.6907950352701
20
3.42052227011541
30
0
41
1
10
53.6961417261827
20
3.40367279251112
30
0
41
1
10
53.7073989908828
20
3.36991667176878
30
1E-16
41
1
10
53.7133141895888
20
3.35299961418846
30
1E-16
41
1
10
53.7317864624963
20
3.3024569860286
30
3E-16
41
1
10
53.7450991305962
20
3.26894464886971
30
3E-16
41
1
10
53.7878618868641
20
3.16893292914156
30
-3E-16
41
1
10
53.8201253912025
20
3.10295532155186
30
-2E-16
41
1
10
53.8916158632707
20
2.97237850916488
30
1E-16
41
1
10
53.9308551737388
20
2.90778385463707
30
3E-16
41
1
10
53.9947039773149
20
2.81196303176284
30
-4E-16
41
1
10
54.0168197290902
20
2.78020156967028
30
-3E-16
41
1
10
54.062686279874
20
2.71704396952913
30
-1E-16
41
1
10
54.0864539359824
20
2.68563332058415
30
-1E-16
41
1
10
54.2081070204937
20
2.53097997018716
30
3E-16
41
1
10
54.3152711033051
20
2.41369112500524
30
-3E-16
41
1
10
54.5454046759164
20
2.18994765120738
30
2E-16
41
1
10
54.6683783556208
20
2.08349036408367
30
-4E-16
41
1
10
54.8298469448133
20
1.95586563707755
30
-1E-16
41
1
10
54.8625573726876
20
1.93059324681454
30
-1E-16
41
1
10
54.9284602350788
20
1.88074639951469
30
0
41
1
10
55.0281077323194
20
1.80696771933137
30
2E-16
41
1
10
55.1299243764757
20
1.73590153384981
30
4E-16
41
1
10
55.3358880562622
20
1.59665944840052
30
-2E-16
41
1
10
55.4763405101081
20
1.50774312193212
30
0
41
1
10
55.7609576946884
20
1.33428673865896
30
4E-16
41
1
10
55.9051283151936
20
1.24975468831286
30
-3E-16
41
1
10
56.0497929201179
20
1.16547677479528
30
-1E-16
0
SPLINE
5
F3
100
AcDbEntity
8
1
62
256
6
ByLayer
370
18
48
1
60
0
100
AcDbSpline
70
4
71
3
72
8
73
4
40
0
40
0
40
0
40
0
40
1
40
1
40
1
40
1
41
1
10
56.2891541360371
20
1.02523026166403
30
3E-16
41
1
10
56.2094750332136
20
1.07221178488527
30
2E-16
41
1
10
56.129619873233
20
1.1188464879688
30
0
41
1
10
56.0497929201177
20
1.16547677479542
30
-1E-16
0
SPLINE
5
F4
100
AcDbEntity
8
1
62
256
6
ByLayer
370
18
48
1
60
0
100
AcDbSpline
70
4
71
3
72
48
73
44
40
0
40
0
40
0
40
0
40
0.12499999999999
40
0.12499999999999
40
0.24999999999998
40
0.24999999999998
40
0.312499999999975
40
0.312499999999975
40
0.37499999999997
40
0.37499999999997
40
0.406249999999968
40
0.406249999999968
40
0.437499999999965
40
0.437499999999965
40
0.49999999999996
40
0.49999999999996
40
0.531249999999958
40
0.531249999999958
40
0.562499999999955
40
0.562499999999955
40
0.62499999999995
40
0.62499999999995
40
0.656249999999948
40
0.656249999999948
40
0.687499999999945
40
0.718749999999943
40
0.734374999999942
40
0.734374999999942
40
0.74999999999994
40
0.74999999999994
40
0.812499999999951
40
0.812499999999951
40
0.828124999999955
40
0.828124999999955
40
0.843749999999959
40
0.843749999999959
40
0.874999999999967
40
0.874999999999967
40
0.937499999999982
40
0.937499999999982
40
0.968749999999991
40
0.968749999999991
40
1
40
1
40
1
40
1
41
1
10
56.0497929201179
20
-1.31615388853427
30
4E-16
41
1
10
55.930893174674
20
-1.2600320642803
30
3E-16
41
1
10
55.8104601758013
20
-1.20885732857232
30
2E-16
41
1
10
55.5659095391237
20
-1.11863756200918
30
0
41
1
10
55.4418010830847
20
-1.07956177461634
30
-1E-16
41
1
10
55.2520717040663
20
-1.03285969455376
30
-2E-16
41
1
10
55.1882289664792
20
-1.01929490911255
30
-3E-16
41
1
10
55.0591163522242
20
-0.996954241049053
30
-3E-16
41
1
10
54.9938486700628
20
-0.988171052210134
30
-3E-16
41
1
10
54.8946105677788
20
-0.979494287186782
30
-4E-16
41
1
10
54.8612276490681
20
-0.977356227434086
30
-4E-16
41
1
10
54.7946722484287
20
-0.974818284163206
30
-4E-16
41
1
10
54.7614384318351
20
-0.974409278444853
30
-4E-16
41
1
10
54.6618813015648
20
-0.976010689630158
30
-4E-16
41
1
10
54.5957009517143
20
-0.980823662444749
30
-4E-16
41
1
10
54.4967895396016
20
-0.995073616237079
30
-3E-16
41
1
10
54.4637863148606
20
-1.00102986429735
30
-3E-16
41
1
10
54.3988976636135
20
-1.01538605054657
30
-3E-16
41
1
10
54.3669144257042
20
-1.02379336558525
30
-3E-16
41
1
10
54.2724542308703
20
-1.05297777594311
30
-2E-16
41
1
10
54.2114569345017
20
-1.07769283837462
30
-1E-16
41
1
10
54.1234931588216
20
-1.12410782513953
30
0
41
1
10
54.0946250498624
20
-1.14125331515285
30
0
41
1
10
54.0395103010017
20
-1.17805187414501
30
1E-16
41
1
10
53.9867401162993
20
-1.21746445485144
30
2E-16
41
1
10
53.9266242351754
20
-1.27320704909906
30
3E-16
41
1
10
53.8932042551397
20
-1.30956658155762
30
4E-16
41
1
10
53.8715180633571
20
-1.33445677822362
30
-4E-16
41
1
10
53.8609745546581
20
-1.34722919522667
30
-4E-16
41
1
10
53.8103255076165
20
-1.41193840629538
30
-2E-16
41
1
10
53.7758531145014
20
-1.46697588672791
30
-1E-16
41
1
10
53.7393917196989
20
-1.53924721987812
30
1E-16
41
1
10
53.7324334309743
20
-1.55387666391266
30
1E-16
41
1
10
53.719170956623
20
-1.58347591608543
30
2E-16
41
1
10
53.7128535661581
20
-1.59848126982516
30
2E-16
41
1
10
53.6950040673438
20
-1.64363485944864
30
3E-16
41
1
10
53.6845438498088
20
-1.67396263048752
30
4E-16
41
1
10
53.6570629745826
20
-1.76552323316187
30
-3E-16
41
1
10
53.6439161335013
20
-1.82732783418396
30
-2E-16
41
1
10
53.6309280507409
20
-1.92092461711502
30
1E-16
41
1
10
53.6277281721886
20
-1.9522734521662
30
1E-16
41
1
10
53.6234893904908
20
-2.01524370356381
30
3E-16
41
1
10
53.6224621034804
20
-2.04671274964625
30
4E-16
41
1
10
53.6224621036405
20
-2.07809240793378
30
4E-16
0
SPLINE
5
F5
100
AcDbEntity
8
1
62
256
6
ByLayer
370
18
48
1
60
0
100
AcDbSpline
70
4
71
3
72
8
73
4
40
0
40
0
40
0
40
0
40
1
40
1
40
1
40
1
41
0.93936436146048
10
58.0000000000001
20
-2.58002460269664
30
0
41
0.955953348493917
10
58
20
-2.64791542300804
30
0
41
0.97616522800709
10
58.0000000000001
20
-2.7244589528429
30
0
41
1
10
58.0000000000001
20
-2.80829860269833
30
-1E-16
0
SPLINE
5
F6
100
AcDbEntity
8
1
62
256
6
ByLayer
370
18
48
1
60
0
100
AcDbSpline
70
4
71
3
72
10
73
6
40
0
40
0
40
0
40
0
40
0.5
40
0.5
40
1
40
1
40
1
40
1
41
1
10
56.0497929201179
20
-1.31615388853427
30
4E-16
41
1
10
56.2076798310115
20
-1.38925201674033
30
-3E-16
41
1
10
56.3612813215912
20
-1.46898060101617
30
-1E-16
41
1
10
56.6616237273224
20
-1.63829720935547
30
3E-16
41
1
10
56.8083677737865
20
-1.72788121330782
30
-4E-16
41
1
10
56.9522587980655
20
-1.82118979255557
30
-2E-16
0
SPLINE
5
F7
100
AcDbEntity
8
1
62
256
6
ByLayer
370
18
48
1
60
0
100
AcDbSpline
70
4
71
3
72
34
73
30
40
0
40
0
40
0
40
0
40
0.035922163773567
40
0.071844327547134
40
0.107766491320701
40
0.143688655094268
40
0.215532982641402
40
0.251455146414969
40
0.287377310188536
40
0.323299473962103
40
0.35922163773567
40
0.395143801509237
40
0.431065965282804
40
0.466988129056371
40
0.502910292829938
40
0.538832456603505
40
0.574754620377072
40
0.610676784150639
40
0.646598947924206
40
0.682521111697773
40
0.71844327547134
40
0.754365439244907
40
0.790287603018474
40
0.826209766792041
40
0.862131930565608
40
0.898054094339175
40
0.933976258112742
40
0.969898421886309
40
1
40
1
40
1
40
1
41
1
10
58.0000000000001
20
5.78417872281574
30
0
41
1
10
58.1145833100045
20
5.78540153525876
30
0
41
1
10
58.3437499660736
20
5.78252971290442
30
0
41
1
10
58.6874999938623
20
5.76221476191668
30
0
41
1
10
59.0312500008402
20
5.7258065577326
30
0
41
1
10
59.4895833321906
20
5.65596431891385
30
0
41
1
10
59.9479166713055
20
5.55436323701184
30
1E-16
41
1
10
60.4062500007881
20
5.42169804810715
30
0
41
1
10
60.7499999988732
20
5.30689915462975
30
0
41
1
10
61.0937500037194
20
5.17708914318331
30
-1E-16
41
1
10
61.4375000080234
20
5.03263131965343
30
2E-16
41
1
10
61.7812500044823
20
4.87388555487439
30
1E-16
41
1
10
62.1249999992549
20
4.70130146635788
30
1E-16
41
1
10
62.4687499984983
20
4.51532648407132
30
1E-16
41
1
10
62.8124999996118
20
4.31649908770859
30
1E-16
41
1
10
63.1562499999946
20
4.10535503275793
30
2E-16
41
1
10
63.5000000000031
20
3.88251626034227
30
-2E-16
41
1
10
63.8437499999933
20
3.64860286065306
30
3E-16
41
1
10
64.1874999999842
20
3.40431378639005
30
0
41
1
10
64.5312499999939
20
3.15034617279579
30
-3E-16
41
1
10
64.8750000000033
20
2.88747424172874
30
3E-16
41
1
10
65.218749999993
20
2.61647084017682
30
1E-16
41
1
10
65.5625000005795
20
2.33817114110053
30
-1E-16
41
1
10
65.9062500023794
20
2.05340959934762
30
-4E-16
41
1
10
66.2500000011964
20
1.76308317206013
30
3E-16
41
1
10
66.5937499928353
20
1.46808806403016
30
1E-16
41
1
10
66.9374999862664
20
1.16936283277468
30
-1E-16
41
1
10
67.2626836780507
20
0.884131809384172
30
-2E-16
41
1
10
67.4732840381201
20
0.698387114885321
30
-4E-16
41
1
10
67.5693010619148
20
0.613586672303711
30
-3E-16
0
SPLINE
5
F8
100
AcDbEntity
8
1
62
256
6
ByLayer
370
18
48
1
60
0
100
AcDbSpline
70
4
71
3
72
33
73
29
40
0
40
0
40
0
40
0
40
0.0286516117861326
40
0.0688480343967734
40
0.109044457007414
40
0.149240879618055
40
0.189437302228696
40
0.229633724839337
40
0.269830147449977
40
0.310026570060618
40
0.350222992671259
40
0.3904194152819
40
0.430615837892541
40
0.470812260503181
40
0.511008683113822
40
0.551205105724462
40
0.591401528335104
40
0.631597950945745
40
0.671794373556385
40
0.711990796167026
40
0.752187218777667
40
0.792383641388308
40
0.832580063998949
40
0.872776486609589
40
0.91297290922023
40
0.953169331830871
40
0.993365754441512
40
1
40
1
40
1
40
1
41
1
10
68.0674784162813
20
2.14323760365073
30
1E-16
41
1
10
68.1491522823499
20
2.07693467589817
30
0
41
1
10
68.3454094823482
20
1.91626031809906
30
-1E-16
41
1
10
68.6562500094232
20
1.65713894582231
30
-3E-16
41
1
10
68.999999999964
20
1.36559916549166
30
4E-16
41
1
10
69.343749990721
20
1.07009148311943
30
2E-16
41
1
10
69.6874999861718
20
0.771693087947199
30
0
41
1
10
70.0312499907943
20
0.47149241043175
30
-2E-16
41
1
10
70.3750000000014
20
0.170544089297095
30
-4E-16
41
1
10
70.7187500092003
20
-0.130090288191326
30
3E-16
41
1
10
71.0625000132241
20
-0.429303216828657
30
1E-16
41
1
10
71.4062500069048
20
-0.725982792023103
30
-1E-16
41
1
10
71.7499999988526
20
-1.01905039982557
30
-3E-16
41
1
10
72.093749997685
20
-1.30742562327191
30
4E-16
41
1
10
72.4374999993989
20
-1.59000643884355
30
2E-16
41
1
10
72.7812499999893
20
-1.8656937964424
30
-1E-16
41
1
10
73.1250000000045
20
-2.13345609877075
30
-3E-16
41
1
10
73.4687499999923
20
-2.39226533854514
30
3E-16
41
1
10
73.8124999999794
20
-2.64109374459369
30
0
41
1
10
74.1562499999931
20
-2.87892405475117
30
1E-16
41
1
10
74.5000000000049
20
-3.10484245185529
30
2E-16
41
1
10
74.8437499999872
20
-3.31794391853526
30
-2E-16
41
1
10
75.1875000003697
20
-3.51735801586318
30
-2E-16
41
1
10
75.531250001582
20
-3.70223177800031
30
-2E-16
41
1
10
75.8750000008024
20
-3.87182356970672
30
2E-16
41
1
10
76.2187499952082
20
-4.02540507565107
30
1E-16
41
1
10
76.4668281422667
20
-4.12422773910808
30
-1E-16
41
1
10
76.6003229591516
20
-4.17350077874977
30
0
41
1
10
76.6192344424195
20
-4.18040226841092
30
0
0
SPLINE
5
F9
100
AcDbEntity
8
1
62
256
6
ByLayer
370
18
48
1
60
0
100
AcDbSpline
70
4
71
3
72
33
73
29
40
0
40
0
40
0
40
0
40
0.0255204892865467
40
0.065105042393563
40
0.104689595500579
40
0.144274148607596
40
0.183858701714612
40
0.223443254821629
40
0.263027807928645
40
0.302612361035661
40
0.342196914142678
40
0.381781467249694
40
0.421366020356711
40
0.460950573463727
40
0.500535126570744
40
0.540119679677759
40
0.579704232784776
40
0.619288785891793
40
0.658873338998809
40
0.698457892105826
40
0.738042445212842
40
0.777626998319858
40
0.817211551426875
40
0.856796104533891
40
0.896380657640908
40
0.935965210747924
40
0.975549763854941
40
1
40
1
40
1
40
1
41
0.994936191258567
10
68.0909061942206
20
2.12501594218668
30
0
41
0.994982196949995
10
68.1647756293934
20
2.06595480498039
30
0
41
0.99509974774126
10
68.3532182790093
20
1.91412721585132
30
-1E-16
41
0.995289334197699
10
68.6562500094231
20
1.66563062286313
30
-3E-16
41
0.995504731932275
10
68.999999999964
20
1.37873039234513
30
3E-16
41
0.995720036511775
10
69.343749990721
20
1.08780756010722
30
1E-16
41
0.995934809058373
10
69.6874999861717
20
0.793914340570223
30
-1E-16
41
0.99614861125102
10
70.0312499907944
20
0.498112859910406
30
-3E-16
41
0.996361017165299
10
70.3750000000014
20
0.201434164756605
30
4E-16
41
0.996571600182494
10
70.7187500092004
20
-0.0950842993544975
30
2E-16
41
0.996779927691367
10
71.0625000132242
20
-0.390358192032336
30
0
41
0.996985568612646
10
71.4062500069047
20
-0.683298825535972
30
-2E-16
41
0.997188095934038
10
71.7499999988525
20
-0.972847898865152
30
-4E-16
41
0.997387080870849
10
72.0937499976851
20
-1.25794490353196
30
3E-16
41
0.997582092393457
10
72.4374999993989
20
-1.53750680440982
30
0
41
0.997772701543642
10
72.7812499999893
20
-1.81045237048407
30
-2E-16
41
0.99795848001685
10
73.1250000000046
20
-2.07576463507661
30
4E-16
41
0.998138997940388
10
73.4687499999923
20
-2.33242896387077
30
1E-16
41
0.998313824653805
10
73.8124999999795
20
-2.57942985330391
30
-2E-16
41
0.998482531148849
10
74.1562499999931
20
-2.81576004880544
30
-1E-16
41
0.998644688907813
10
74.5000000000049
20
-3.04051275293964
30
0
41
0.998799868330699
10
74.8437499999872
20
-3.25278803025215
30
1E-16
41
0.998947639627508
10
75.1875000003697
20
-3.45171919917584
30
1E-16
41
0.999087573925598
10
75.5312500015821
20
-3.63645394859335
30
1E-16
41
0.999219240731583
10
75.8750000008024
20
-3.80624899367693
30
0
41
0.999342209248378
10
76.2187499952081
20
-3.96037198346552
30
0
41
0.999441541754939
10
76.518695830958
20
-4.08061908517652
30
-2E-16
41
0.99949875904485
10
76.7040601780168
20
-4.14754292696774
30
-1E-16
41
0.999519981531224
10
76.7748362673375
20
-4.17199823691286
30
0
0
SPLINE
5
FA
100
AcDbEntity
8
1
62
256
6
ByLayer
370
18
48
1
60
0
100
AcDbSpline
70
4
71
3
72
54
73
50
40
0
40
0
40
0
40
0
40
0.0809585505477023
40
0.0809585505477023
40
0.121437825821554
40
0.121437825821554
40
0.141677463458479
40
0.141677463458479
40
0.151797282276942
40
0.151797282276942
40
0.161917101095405
40
0.242875651643107
40
0.242875651643107
40
0.323834202190809
40
0.323834202190809
40
0.36431347746466
40
0.36431347746466
40
0.384553115101587
40
0.384553115101587
40
0.39467293392005
40
0.39467293392005
40
0.404792752738514
40
0.404792752738514
40
0.485751303286216
40
0.485751303286216
40
0.566709853833918
40
0.566709853833918
40
0.607189129107769
40
0.607189129107769
40
0.627428766744694
40
0.627428766744694
40
0.637548585563156
40
0.637548585563156
40
0.647668404381617
40
0.728626954929301
40
0.728626954929301
40
0.809585505476986
40
0.809585505476986
40
0.850064780750829
40
0.850064780750829
40
0.86018459956929
40
0.86018459956929
40
0.87030441838775
40
0.87030441838775
40
0.890544056024672
40
0.890544056024672
40
0.97150260657236
40
0.97150260657236
40
1
40
1
40
1
40
1
41
1
10
57.9999999999996
20
3.29071492972852
30
3E-16
41
1
10
58.3624825281309
20
3.00925905148358
30
1E-16
41
1
10
58.7229973335833
20
2.7156185388026
30
-1E-16
41
1
10
59.2641589767487
20
2.26032641550043
30
0
41
1
10
59.4446101768651
20
2.10608605572244
30
4E-16
41
1
10
59.7158082877024
20
1.87141758085136
30
1E-16
41
1
10
59.8062948668451
20
1.79264353947787
30
2E-16
41
1
10
59.942210530389
20
1.67370626811265
30
-4E-16
41
1
10
59.9875496730116
20
1.63392839444862
30
-3E-16
41
1
10
60.0780694634052
20
1.55432485498417
30
-1E-16
41
1
10
60.4849515200486
20
1.19566665115335
30
-1E-16
41
1
10
60.8881320220726
20
0.833485717695623
30
-2E-16
41
1
10
61.6036178715372
20
0.189159699310125
30
-4E-16
41
1
10
61.9607080050961
20
-0.133242357071964
30
3E-16
41
1
10
62.4987973637591
20
-0.613342048545945
30
-3E-16
41
1
10
62.6785714866482
20
-0.772788987741507
30
0
41
1
10
62.9493048670015
20
-1.01056578460802
30
-3E-16
41
1
10
63.0397282977732
20
-1.08959213144874
30
-1E-16
41
1
10
63.1756926369501
20
-1.20771415316406
30
2E-16
41
1
10
63.2210546755603
20
-1.24700587521679
30
3E-16
41
1
10
63.311598522609
20
-1.32518033939931
30
4E-16
41
1
10
63.3568169812435
20
-1.36409496682316
30
-4E-16
41
1
10
63.7633461640531
20
-1.71273590343765
30
-4E-16
41
1
10
64.1216097719467
20
-2.01134415636505
30
3E-16
41
1
10
64.8367917376938
20
-2.58152054932941
30
-2E-16
41
1
10
65.1936969406363
20
-2.85310186695065
30
-4E-16
41
1
10
65.731661904837
20
-3.23636397098727
30
-4E-16
41
1
10
65.9114187840866
20
-3.36009359023163
30
-1E-16
41
1
10
66.1821973393572
20
-3.53908416620135
30
3E-16
41
1
10
66.2726475481618
20
-3.59764652933529
30
4E-16
41
1
10
66.4086730749569
20
-3.68376107675201
30
-3E-16
41
1
10
66.4540202693739
20
-3.71214361803843
30
-2E-16
41
1
10
66.5445479173036
20
-3.76814124957457
30
-1E-16
41
1
10
66.9514268878504
20
-4.0168334487459
30
1E-16
41
1
10
67.354292958818
20
-4.2358171736785
30
2E-16
41
1
10
68.0693142765675
20
-4.57568227359874
30
1E-16
41
1
10
68.426203717754
20
-4.72091314163063
30
0
41
1
10
68.9645299477834
20
-4.89884072893625
30
-1E-16
41
1
10
69.1444745497146
20
-4.95148450061558
30
1E-16
41
1
10
69.3704873511301
20
-5.00855724653383
30
0
41
1
10
69.4157442126772
20
-5.01953488985905
30
0
41
1
10
69.5063785100512
20
-5.04060519121225
30
0
41
1
10
69.5517573666339
20
-5.05069706274804
30
1E-16
41
1
10
69.6876021309752
20
-5.0795300735227
30
-1E-16
41
1
10
69.7779399435109
20
-5.09686786275839
30
0
41
1
10
70.2287245946918
20
-5.17419030647608
30
0
41
1
10
70.5864568388581
20
-5.20614192809958
30
0
41
1
10
71.0698860138266
20
-5.20915329864846
30
0
41
1
10
71.1957260675673
20
-5.20625471897028
30
0
41
1
10
71.321664703405
20
-5.19964592542436
30
0
0
SPLINE
5
FB
100
AcDbEntity
8
1
62
256
6
ByLayer
370
18
48
1
60
0
100
AcDbSpline
70
4
71
3
72
69
73
65
40
0
40
0
40
0
40
0
40
0.0625000000000004
40
0.0625000000000004
40
0.125000000000001
40
0.125000000000001
40
0.132812500000001
40
0.132812500000001
40
0.140625000000001
40
0.156250000000002
40
0.156250000000002
40
0.187500000000002
40
0.187500000000002
40
0.250000000000004
40
0.250000000000004
40
0.281250000000005
40
0.281250000000005
40
0.289062500000005
40
0.289062500000005
40
0.296875000000005
40
0.296875000000005
40
0.312500000000006
40
0.312500000000006
40
0.37500000000001
40
0.37500000000001
40
0.437500000000014
40
0.437500000000014
40
0.453125000000015
40
0.453125000000015
40
0.460937500000015
40
0.460937500000015
40
0.468750000000016
40
0.500000000000018
40
0.500000000000018
40
0.562500000000023
40
0.562500000000023
40
0.593750000000026
40
0.593750000000026
40
0.609375000000026
40
0.617187500000026
40
0.617187500000026
40
0.625000000000026
40
0.625000000000026
40
0.687500000000023
40
0.687500000000023
40
0.750000000000021
40
0.750000000000021
40
0.781250000000019
40
0.781250000000019
40
0.789062500000019
40
0.789062500000019
40
0.796875000000019
40
0.796875000000019
40
0.812500000000018
40
0.812500000000018
40
0.875000000000012
40
0.875000000000012
40
0.937500000000005
40
0.937500000000005
40
0.968750000000002
40
0.968750000000002
40
0.984375000000001
40
0.984375000000001
40
1
40
1
40
1
40
1
41
1
10
75.2616797812147
20
-4.6988827904751
30
-1E-16
41
1
10
74.8977202978107
20
-4.82923410014308
30
0
41
1
10
74.5373591106504
20
-4.92795672564336
30
0
41
1
10
73.8173210532467
20
-5.06223933248521
30
0
41
1
10
73.4576420261657
20
-5.09779895805045
30
0
41
1
10
73.0498454531502
20
-5.10121440886871
30
0
41
1
10
73.0044550965484
20
-5.10108340134397
30
0
41
1
10
72.9138393352816
20
-5.09980192982488
30
0
41
1
10
72.7781089635986
20
-5.09635343601107
30
-1E-16
41
1
10
72.6428970166203
20
-5.08836745587757
30
0
41
1
10
72.3730069092705
20
-5.06644341653188
30
0
41
1
10
72.193787350925
20
-5.04389647803026
30
0
41
1
10
71.6571096108298
20
-4.95307681722821
30
1E-16
41
1
10
71.3006402238647
20
-4.86167459551945
30
1E-16
41
1
10
70.7633619243156
20
-4.6796959765054
30
-1E-16
41
1
10
70.5838440459631
20
-4.61154206370736
30
1E-16
41
1
10
70.358434397407
20
-4.51702453897562
30
-1E-16
41
1
10
70.3133016470902
20
-4.49765459733038
30
-1E-16
41
1
10
70.2229223973782
20
-4.4579816981875
30
-2E-16
41
1
10
70.1776721340603
20
-4.43767600184898
30
2E-16
41
1
10
70.0422205824243
20
-4.3755884878698
30
0
41
1
10
69.9521556803185
20
-4.33256632928629
30
-1E-16
41
1
10
69.5027649795311
20
-4.10955862012898
30
-1E-16
41
1
10
69.1462318906284
20
-3.90593727330051
30
-2E-16
41
1
10
68.4330136909711
20
-3.45380552465434
30
1E-16
41
1
10
68.0763459346814
20
-3.20528366847066
30
4E-16
41
1
10
67.6268052649321
20
-2.86912654172738
30
-4E-16
41
1
10
67.5367116602636
20
-2.80061692457474
30
3E-16
41
1
10
67.4012232495017
20
-2.69597505232878
30
1E-16
41
1
10
67.3560480378267
20
-2.66081632570024
30
0
41
1
10
67.2658648773565
20
-2.59011465686811
30
-1E-16
41
1
10
67.0406736993624
20
-2.41228174026628
30
3E-16
41
1
10
66.8166598719524
20
-2.22924178908258
30
-1E-16
41
1
10
66.2801943350815
20
-1.78120643719276
30
-3E-16
41
1
10
65.9241045482675
20
-1.47088279079043
30
-1E-16
41
1
10
65.388193991991
20
-0.992394045631585
30
-3E-16
41
1
10
65.209262740986
20
-0.830724885302487
30
2E-16
41
1
10
64.9399135519255
20
-0.585478578037055
30
-4E-16
41
1
10
64.8050005926034
20
-0.462169716461801
30
2E-16
41
1
10
64.6696319385987
20
-0.33792827560174
30
-1E-16
41
1
10
64.5792738583568
20
-0.254903968371536
30
-3E-16
41
1
10
64.534010055958
20
-0.213267142629917
30
-4E-16
41
1
10
64.1273497700352
20
0.161130025797348
30
-4E-16
41
1
10
63.7691270977717
20
0.493170942001683
30
-3E-16
41
1
10
63.0537339310924
20
1.15011557022555
30
0
41
1
10
62.6965855260323
20
1.47504219301069
30
1E-16
41
1
10
62.1578520781281
20
1.95301832656725
30
-1E-16
41
1
10
61.9777733811326
20
2.11077422287877
30
4E-16
41
1
10
61.7516438224845
20
2.30556304947265
30
-1E-16
41
1
10
61.7063662765892
20
2.34440040328812
30
-2E-16
41
1
10
61.6156975644148
20
2.42182282082891
30
-3E-16
41
1
10
61.5702844786582
20
2.46042617005168
30
-4E-16
41
1
10
61.4342790308207
20
2.57548634611678
30
2E-16
41
1
10
61.3437951605094
20
2.65130080533518
30
0
41
1
10
60.8920993258969
20
3.02578434596512
30
0
41
1
10
60.5331016428789
20
3.31074675416463
30
2E-16
41
1
10
59.8141187555101
20
3.84740841109226
30
-1E-16
41
1
10
59.454559557111
20
4.09948136539953
30
2E-16
41
1
10
58.9117308860413
20
4.45029651778657
30
-2E-16
41
1
10
58.730211908891
20
4.56268244019393
30
0
41
1
10
58.4565245551398
20
4.72393562213966
30
0
41
1
10
58.3652323377671
20
4.77637154715922
30
-1E-16
41
1
10
58.182680380729
20
4.87844774290446
30
1E-16
41
1
10
58.0913808119964
20
4.9281065082256
30
0
41
1
10
58.0000000000002
20
4.97635536151213
30
-1E-16
0
SPLINE
5
FC
100
AcDbEntity
8
1
62
256
6
ByLayer
370
18
48
1
60
0
100
AcDbSpline
70
4
71
3
72
14
73
10
40
0
40
0
40
0
40
0
40
0.25
40
0.25
40
0.5
40
0.5
40
0.75
40
0.75
40
1
40
1
40
1
40
1
41
1
10
56.9522587980655
20
5.81859473449603
30
-1E-16
41
1
10
57.0449605100394
20
5.82750274702465
30
-1E-16
41
1
10
57.1363107203961
20
5.83577485836736
30
1E-16
41
1
10
57.316108186792
20
5.85076623656872
30
-1E-16
41
1
10
57.4045421728414
20
5.85748769885754
30
0
41
1
10
57.5785042696472
20
5.86899981636282
30
0
41
1
10
57.6639219169002
20
5.87380646855004
30
0
41
1
10
57.832871862482
20
5.88091981026031
30
0
41
1
10
57.9164185310385
20
5.88321801654456
30
0
41
1
10
58.0000000000001
20
5.88403376671704
30
0
0
SPLINE
5
FD
100
AcDbEntity
8
1
62
256
6
ByLayer
370
18
48
1
60
0
100
AcDbSpline
70
4
71
3
72
65
73
61
40
0
40
0
40
0
40
0
40
0.0625000000000079
40
0.0625000000000079
40
0.0937500000000119
40
0.0937500000000119
40
0.109375000000015
40
0.109375000000015
40
0.117187500000016
40
0.117187500000016
40
0.125000000000017
40
0.187500000000032
40
0.187500000000032
40
0.250000000000046
40
0.250000000000046
40
0.281250000000054
40
0.281250000000054
40
0.296875000000057
40
0.296875000000057
40
0.304687500000058
40
0.304687500000058
40
0.31250000000006
40
0.375000000000066
40
0.375000000000066
40
0.437500000000073
40
0.437500000000073
40
0.468750000000076
40
0.468750000000076
40
0.484375000000079
40
0.484375000000079
40
0.49218750000008
40
0.49218750000008
40
0.50000000000008
40
0.50000000000008
40
0.56250000000008
40
0.56250000000008
40
0.62500000000008
40
0.62500000000008
40
0.65625000000008
40
0.65625000000008
40
0.664062500000079
40
0.664062500000079
40
0.671875000000078
40
0.671875000000078
40
0.687500000000075
40
0.687500000000075
40
0.750000000000064
40
0.750000000000064
40
0.812500000000052
40
0.812500000000052
40
0.82812500000005
40
0.835937500000048
40
0.835937500000048
40
0.843750000000046
40
0.843750000000046
40
0.875000000000037
40
0.875000000000037
40
0.937500000000018
40
0.937500000000018
40
1
40
1
40
1
40
1
41
1
10
57.9999999999996
20
5.88403376671707
30
0
41
1
10
58.3624825281309
20
5.88736340147099
30
0
41
1
10
58.7229973335834
20
5.86358160181916
30
0
41
1
10
59.2641589767487
20
5.78775109292076
30
0
41
1
10
59.4446101768652
20
5.75577196731246
30
-1E-16
41
1
10
59.7158082877025
20
5.69772993165748
30
0
41
1
10
59.8062948668451
20
5.67670314324582
30
0
41
1
10
59.942210530389
20
5.64263610675505
30
1E-16
41
1
10
59.9875496730115
20
5.6308577960952
30
-1E-16
41
1
10
60.0780694634052
20
5.60652146114899
30
0
41
1
10
60.4849515200486
20
5.49342999128981
30
0
41
1
10
60.8881320220724
20
5.34855313701866
30
-1E-16
41
1
10
61.6036178715372
20
5.0438003637322
30
2E-16
41
1
10
61.9607080050962
20
4.86781991554381
30
1E-16
41
1
10
62.4987973637591
20
4.56993044619944
30
0
41
1
10
62.6785714866483
20
4.4649737358846
30
2E-16
41
1
10
62.9493048670015
20
4.29917060732893
30
1E-16
41
1
10
63.0397282977733
20
4.24250779166411
30
-2E-16
41
1
10
63.17569263695
20
4.15543304893376
30
0
41
1
10
63.2210546755603
20
4.12606990336718
30
1E-16
41
1
10
63.3115985226091
20
4.06685143219497
30
-2E-16
41
1
10
63.7185632130664
20
3.79793852187615
30
0
41
1
10
64.1216097719467
20
3.50768594556973
30
-2E-16
41
1
10
64.8367917376938
20
2.96292640077522
30
2E-16
41
1
10
65.1936969406363
20
2.67615672712245
30
-1E-16
41
1
10
65.731661904837
20
2.22764891299522
30
1E-16
41
1
10
65.9114187840866
20
2.07508285075377
30
-4E-16
41
1
10
66.1821973393572
20
1.84202796476953
30
1E-16
41
1
10
66.2726475481618
20
1.76364182280167
30
3E-16
41
1
10
66.4086730749569
20
1.64505887413708
30
-3E-16
41
1
10
66.454020269374
20
1.60541009092171
30
-2E-16
41
1
10
66.5445479173036
20
1.52604613975515
30
0
41
1
10
66.5897568155756
20
1.48630618981434
30
1E-16
41
1
10
66.9961897846247
20
1.12817775832801
30
0
41
1
10
67.354292958818
20
0.806516608900949
30
-1E-16
41
1
10
68.0693142765675
20
0.162326528630899
30
-4E-16
41
1
10
68.426203717754
20
-0.16023462491134
30
4E-16
41
1
10
68.9645299477834
20
-0.640366589469835
30
-3E-16
41
1
10
69.1444745497146
20
-0.799787873060808
30
1E-16
41
1
10
69.3704873511301
20
-0.997775464952241
30
-3E-16
41
1
10
69.4157442126773
20
-1.03730830781564
30
-2E-16
41
1
10
69.5063785100512
20
-1.11623116851661
30
0
41
1
10
69.5517573666339
20
-1.15562209602149
30
0
41
1
10
69.6876021309751
20
-1.27313733956376
30
3E-16
41
1
10
69.7779399435108
20
-1.35074651106538
30
-4E-16
41
1
10
70.2287245946919
20
-1.73493217290056
30
-4E-16
41
1
10
70.5864568388581
20
-2.02996303359717
30
3E-16
41
1
10
71.301588861414
20
-2.59026761973792
30
-1E-16
41
1
10
71.6589683575145
20
-2.85556248081187
30
-4E-16
41
1
10
72.1089473306178
20
-3.1648185480644
30
3E-16
41
1
10
72.2441876868816
20
-3.25591254638374
30
1E-16
41
1
10
72.3799032986389
20
-3.34435894677151
30
-2E-16
41
1
10
72.4704978872684
20
-3.40272048486705
30
0
41
1
10
72.5158876468475
20
-3.43162108716632
30
0
41
1
10
72.7427532502048
20
-3.5743242278985
30
-1E-16
41
1
10
72.9233376053085
20
-3.68233423371345
30
2E-16
41
1
10
73.4634894438979
20
-3.98743527540739
30
0
41
1
10
73.8214587616018
20
-4.16564179267476
30
0
41
1
10
74.538918719931
20
-4.46813937211041
30
-2E-16
41
1
10
74.8983855828418
20
-4.59244997524939
30
1E-16
41
1
10
75.2616797812148
20
-4.68714733156048
30
1E-16
0
SPLINE
5
FE
100
AcDbEntity
8
1
62
256
6
ByLayer
370
18
48
1
60
0
100
AcDbSpline
70
4
71
3
72
61
73
57
40
0
40
0
40
0
40
0
40
0.0759950602671946
40
0.0759950602671946
40
0.151990120534389
40
0.151990120534389
40
0.161489503067788
40
0.161489503067788
40
0.170988885601186
40
0.189987650667983
40
0.189987650667983
40
0.227985180801576
40
0.227985180801576
40
0.303980241068761
40
0.303980241068761
40
0.341977771202355
40
0.341977771202355
40
0.351477153735753
40
0.351477153735753
40
0.360976536269151
40
0.360976536269151
40
0.379975301335948
40
0.379975301335948
40
0.455970361603136
40
0.455970361603136
40
0.531965421870325
40
0.531965421870325
40
0.550964186937122
40
0.550964186937122
40
0.560463569470521
40
0.560463569470521
40
0.56996295200392
40
0.607960482137518
40
0.607960482137518
40
0.683955542404711
40
0.683955542404711
40
0.721953072538308
40
0.721953072538308
40
0.740951837605106
40
0.750451220138505
40
0.750451220138505
40
0.759950602671904
40
0.759950602671904
40
0.835945662939095
40
0.835945662939095
40
0.911940723206286
40
0.911940723206286
40
0.949938253339881
40
0.949938253339881
40
0.95943763587328
40
0.95943763587328
40
0.968937018406679
40
0.968937018406679
40
0.987935783473478
40
0.987935783473478
40
1
40
1
40
1
40
1
41
1
10
75.2616797812147
20
-3.81197965460385
30
0
41
1
10
74.8977202978107
20
-3.61189830620364
30
0
41
1
10
74.5373591106504
20
-3.38702191899373
30
-1E-16
41
1
10
73.8173210532467
20
-2.89405627194304
30
-3E-16
41
1
10
73.4576420261655
20
-2.62596886340285
30
-1E-16
41
1
10
73.0498454531502
20
-2.30278353206646
30
1E-16
41
1
10
73.0044550965484
20
-2.26654478670011
30
0
41
1
10
72.9138393352816
20
-2.19368976926543
30
-2E-16
41
1
10
72.7781089635985
20
-2.08379919950195
30
4E-16
41
1
10
72.6428970166203
20
-1.97215598106823
30
2E-16
41
1
10
72.3730069092705
20
-1.74671376759142
30
-3E-16
41
1
10
72.193787350925
20
-1.59355045741333
30
2E-16
41
1
10
71.6571096108298
20
-1.12674074012776
30
0
41
1
10
71.3006402238647
20
-0.805780384575201
30
1E-16
41
1
10
70.7633619243155
20
-0.314550375498044
30
-2E-16
41
1
10
70.5838440459631
20
-0.149167456701861
30
3E-16
41
1
10
70.358434397407
20
0.0591278335317043
30
-1E-16
41
1
10
70.3133016470902
20
0.100865071675145
30
-2E-16
41
1
10
70.2229223973781
20
0.184484086738905
30
-4E-16
41
1
10
70.1776721340603
20
0.226369394592723
30
4E-16
41
1
10
70.0422205824243
20
0.35177180538841
30
1E-16
41
1
10
69.9521556803185
20
0.435185686566342
30
-1E-16
41
1
10
69.502764979531
20
0.85107616017828
30
-2E-16
41
1
10
69.1462318906284
20
1.18002130459459
30
-1E-16
41
1
10
68.4330136909711
20
1.82419219878113
30
2E-16
41
1
10
68.0763459346813
20
2.13943680321776
30
3E-16
41
1
10
67.6268052649321
20
2.52104530124987
30
3E-16
41
1
10
67.5367116602636
20
2.59674352770077
30
1E-16
41
1
10
67.4012232495016
20
2.70927795028729
30
-1E-16
41
1
10
67.3560480378267
20
2.74658235238576
30
-2E-16
41
1
10
67.2658648773564
20
2.82060076513659
30
-4E-16
41
1
10
67.0406736993624
20
3.00429708659993
30
1E-16
41
1
10
66.8166598719524
20
3.18116619591802
30
-3E-16
41
1
10
66.2801943350814
20
3.59190077303182
30
-4E-16
41
1
10
65.9241045482673
20
3.8474178928939
30
-1E-16
41
1
10
65.3881939919909
20
4.20027050828563
30
-1E-16
41
1
10
65.209262740986
20
4.31281089069162
30
1E-16
41
1
10
64.9399135519254
20
4.47356641272356
30
2E-16
41
1
10
64.8050005926034
20
4.55192946860379
30
0
41
1
10
64.6696319385986
20
4.62717952968964
30
-2E-16
41
1
10
64.5792738583568
20
4.67664375414276
30
1E-16
41
1
10
64.534010055958
20
4.70103931809882
30
1E-16
41
1
10
64.127349770035
20
4.91672343378065
30
0
41
1
10
63.7691270977716
20
5.08194191362307
30
1E-16
41
1
10
63.0537339310924
20
5.3590668916556
30
1E-16
41
1
10
62.6965855260322
20
5.47097551083263
30
1E-16
41
1
10
62.1578520781281
20
5.59771311447807
30
0
41
1
10
61.9777733811326
20
5.63309527659808
30
0
41
1
10
61.7516438224845
20
5.66854838753096
30
0
41
1
10
61.7063662765892
20
5.67520006694033
30
0
41
1
10
61.6156975644148
20
5.68761980709789
30
0
41
1
10
61.5702844786582
20
5.69338979813867
30
0
41
1
10
61.4342790308207
20
5.70931981878678
30
0
41
1
10
61.3437951605094
20
5.71811903843545
30
0
41
1
10
61.1960906192193
20
5.72956996436702
30
0
41
1
10
61.1387846949584
20
5.73329398132032
30
0
41
1
10
61.0815268076867
20
5.73629978039261
30
0
0
SPLINE
5
FF
100
AcDbEntity
8
1
62
256
6
ByLayer
370
18
48
1
60
0
100
AcDbSpline
70
4
71
3
72
10
73
6
40
0
40
0
40
0
40
0
40
0.5
40
0.5
40
1
40
1
40
1
40
1
41
1
10
56.0497929201179
20
5.72767300374485
30
-1E-16
41
1
10
56.2076798310114
20
5.74264410607759
30
1E-16
41
1
10
56.361281321591
20
5.7585224567286
30
1E-16
41
1
10
56.6616237273223
20
5.78958344870148
30
0
41
1
10
56.8083677737865
20
5.80476777251508
30
-1E-16
41
1
10
56.9522587980655
20
5.81859473449603
30
-1E-16
0
SPLINE
5
100
100
AcDbEntity
8
1
62
256
6
ByLayer
370
18
48
1
60
0
100
AcDbSpline
70
4
71
3
72
15
73
11
40
0
40
0
40
0
40
0
40
0.111813391540755
40
0.223626783081509
40
0.335440174622264
40
0.447253566163018
40
0.670880349244528
40
0.782693740785282
40
0.894507132326037
40
1
40
1
40
1
40
1
41
1
10
58.0000000000001
20
3.24544870111794
30
4E-16
41
1
10
58.1145833100045
20
3.15807302263363
30
-3E-16
41
1
10
58.3437499660736
20
2.98061927199328
30
1E-16
41
1
10
58.6874999938623
20
2.70703964100596
30
-1E-16
41
1
10
59.0312500008402
20
2.42675657862296
30
-4E-16
41
1
10
59.4895833321906
20
2.04516662091004
30
-4E-16
41
1
10
59.9479166713055
20
1.65332186685731
30
-3E-16
41
1
10
60.4062500007881
20
1.25451335504451
30
-3E-16
41
1
10
60.7435228973467
20
0.958467551503105
30
4E-16
41
1
10
60.9662124654664
20
0.761885146068835
30
3E-16
41
1
10
61.0743186986819
20
0.666313998493507
30
3E-16
0
SPLINE
5
101
100
AcDbEntity
8
1
62
256
6
ByLayer
370
18
48
1
60
0
100
AcDbSpline
70
4
71
3
72
28
73
24
40
0
40
0
40
0
40
0
40
0.0474036759300943
40
0.0948073518601886
40
0.142211027790283
40
0.189614703720377
40
0.284422055580566
40
0.33182573151066
40
0.379229407440754
40
0.426633083370849
40
0.474036759300943
40
0.521440435231037
40
0.568844111161132
40
0.616247787091226
40
0.66365146302132
40
0.711055138951414
40
0.758458814881509
40
0.805862490811603
40
0.853266166741697
40
0.900669842671792
40
0.948073518601886
40
0.99547719453198
40
1
40
1
40
1
40
1
41
1
10
58.0000000000001
20
1.21655778094137
30
-2E-16
41
1
10
58.1145833100273
20
1.14643927352893
30
0
41
1
10
58.3437499661005
20
1.00567260196439
30
-1E-16
41
1
10
58.6874999938569
20
0.7928678071722
30
-1E-16
41
1
10
59.031250000835
20
0.579106909979458
30
4E-16
41
1
10
59.4895833321936
20
0.292995192794336
30
2E-16
41
1
10
59.9479166713068
20
0.0065501993333044
30
0
41
1
10
60.4062500007858
20
-0.278014475619358
30
-2E-16
41
1
10
60.7499999988733
20
-0.48949841641118
30
3E-16
41
1
10
61.0937500037215
20
-0.69902092921356
30
-1E-16
41
1
10
61.4375000080238
20
-0.906109430421026
30
-1E-16
41
1
10
61.78125000448
20
-1.11026478497726
30
-1E-16
41
1
10
62.1249999992552
20
-1.31101265593983
30
0
41
1
10
62.4687499984992
20
-1.50785923883117
30
0
41
1
10
62.8124999996115
20
-1.70034165008829
30
0
41
1
10
63.1562499999945
20
-1.8879521470744
30
0
41
1
10
63.5000000000031
20
-2.07022695818534
30
0
41
1
10
63.8437499999933
20
-2.24667009398249
30
-1E-16
41
1
10
64.1874999999842
20
-2.41683663247036
30
-1E-16
41
1
10
64.531249999994
20
-2.58022147499977
30
-2E-16
41
1
10
64.8750000000034
20
-2.73638403225462
30
2E-16
41
1
10
65.1150991126465
20
-2.84007694430827
30
1E-16
41
1
10
65.2406148920792
20
-2.89266054985407
30
1E-16
41
1
10
65.2515473380742
20
-2.89722820365145
30
1E-16
0
SPLINE
5
102
100
AcDbEntity
8
1
62
256
6
ByLayer
370
18
48
1
60
0
100
AcDbSpline
70
4
71
3
72
38
73
34
40
0
40
0
40
0
40
0
40
0.0313772093426249
40
0.0627544186852498
40
0.0941316280278748
40
0.1255088373705
40
0.18826325605575
40
0.219640465398374
40
0.251017674740999
40
0.282394884083624
40
0.313772093426249
40
0.345149302768874
40
0.376526512111499
40
0.407903721454124
40
0.439280930796749
40
0.470658140139374
40
0.502035349481999
40
0.533412558824624
40
0.564789768167248
40
0.596166977509873
40
0.627544186852498
40
0.658921396195123
40
0.690298605537748
40
0.721675814880373
40
0.753053024222998
40
0.784430233565623
40
0.815807442908248
40
0.847184652250873
40
0.878561861593498
40
0.909939070936123
40
0.941316280278747
40
0.972693489621372
40
1
40
1
40
1
40
1
41
0.990914352163802
10
58.0000000000001
20
-0.195561791236807
30
-4E-16
41
0.990916608277065
10
58.1145833099974
20
-0.292084508129711
30
-2E-16
41
0.99092738908857
10
58.3437499660652
20
-0.484770851591132
30
2E-16
41
0.990952394291226
10
58.6874999938641
20
-0.771721317254187
30
0
41
0.990989987608432
10
59.0312500008419
20
-1.05586357977165
30
-2E-16
41
0.99104849192777
10
59.4895833321897
20
-1.4297529018457
30
-2E-16
41
0.991122563687257
10
59.9479166713051
20
-1.79464813195526
30
-2E-16
41
0.991211494402378
10
60.4062500007889
20
-2.14736491542267
30
-3E-16
41
0.991300021243684
10
60.7499999988732
20
-2.40533373961546
30
3E-16
41
0.991398779230297
10
61.0937500037187
20
-2.65571442347669
30
0
41
0.99150733748398
10
61.4375000080233
20
-2.89774243441108
30
-3E-16
41
0.991625265262845
10
61.7812500044831
20
-3.13065508551356
30
2E-16
41
0.991752132268557
10
62.1249999992548
20
-3.35372286799867
30
-1E-16
41
0.991887508233164
10
62.468749998498
20
-3.56621678757016
30
-1E-16
41
0.992030962943415
10
62.8124999996119
20
-3.7674526308166
30
-1E-16
41
0.992182066429241
10
63.1562499999946
20
-3.95675255875543
30
-1E-16
41
0.992340388734584
10
63.500000000003
20
-4.13348773346189
30
-1E-16
41
0.992505499841934
10
63.8437499999935
20
-4.29703332946045
30
-1E-16
41
0.992676970080015
10
64.1874999999842
20
-4.44682832267244
30
2E-16
41
0.992854370091139
10
64.5312499999939
20
-4.58232260843868
30
1E-16
41
0.993037270088743
10
64.8750000000034
20
-4.70303170672004
30
-1E-16
41
0.993225240177649
10
65.2187499999932
20
-4.80847865134721
30
-1E-16
41
0.993417851041449
10
65.5625000005796
20
-4.89826626993417
30
-1E-16
41
0.99361467373523
10
65.9062500023788
20
-4.97201253351967
30
1E-16
41
0.993815278495579
10
66.2500000011963
20
-5.02941687292964
30
0
41
0.994019235438917
10
66.5937499928361
20
-5.0701894464464
30
0
41
0.994226115328113
10
66.9374999862665
20
-5.09413269022222
30
-1E-16
41
0.994435489341289
10
67.2812499904581
20
-5.10106772787889
30
0
41
0.994646927646881
10
67.6250000000081
20
-5.09091051292564
30
0
41
0.994860000306733
10
67.9687500095098
20
-5.06359035118153
30
0
41
0.995074278581597
10
68.3125000142271
20
-5.01913621541103
30
0
41
0.99528003417079
10
68.6413876990723
20
-4.96025890269501
30
0
41
0.995414304003639
10
68.8557044378344
20
-4.91202504249012
30
0
41
0.995476777358379
10
68.9554286391774
20
-4.88746392435857
30
1E-16
0
SPLINE
5
103
100
AcDbEntity
8
1
62
256
6
ByLayer
370
18
48
1
60
0
100
AcDbSpline
70
4
71
3
72
9
73
5
40
0
40
0
40
0
40
0
40
0.580394415035833
40
1
40
1
40
1
40
1
41
1
10
58.0000000000001
20
-2.80829860269833
30
-1E-16
41
1
10
58.1145833100273
20
-2.85835881916214
30
0
41
1
10
58.3120065192591
20
-2.94229635889215
30
-2E-16
41
1
10
58.5094297500859
20
-3.02202441410543
30
0
41
1
10
58.5922696400872
20
-3.05471822786842
30
0
0
SPLINE
5
104
100
AcDbEntity
8
1
62
256
6
ByLayer
370
18
48
1
60
0
100
AcDbSpline
70
4
71
3
72
39
73
35
40
0
40
0
40
0
40
0
40
0.0311300927734805
40
0.0622601855469611
40
0.0933902783204417
40
0.124520371093922
40
0.186780556640883
40
0.217910649414364
40
0.249040742187844
40
0.280170834961325
40
0.311300927734806
40
0.342431020508286
40
0.373561113281767
40
0.404691206055247
40
0.435821298828728
40
0.466951391602208
40
0.498081484375689
40
0.529211577149169
40
0.56034166992265
40
0.59147176269613
40
0.622601855469611
40
0.653731948243091
40
0.684862041016572
40
0.715992133790053
40
0.747122226563533
40
0.778252319337014
40
0.809382412110494
40
0.840512504883975
40
0.871642597657455
40
0.902772690430936
40
0.933902783204416
40
0.965032875977897
40
0.996162968751377
40
1
40
1
40
1
40
1
41
1
10
58.0000000000001
20
-0.206924785679064
30
-4E-16
41
1
10
58.1145833099961
20
-0.304608369059196
30
-2E-16
41
1
10
58.3437499660636
20
-0.499634854956298
30
3E-16
41
1
10
58.6874999938644
20
-0.790086082994179
30
1E-16
41
1
10
59.0312500008421
20
-1.0777241507229
30
-1E-16
41
1
10
59.4895833321895
20
-1.45620361751204
30
-1E-16
41
1
10
59.9479166713049
20
-1.82557397715667
30
-2E-16
41
1
10
60.406250000789
20
-2.18259621041909
30
-2E-16
41
1
10
60.7499999988731
20
-2.44374691028844
30
4E-16
41
1
10
61.0937500037186
20
-2.69719604674839
30
1E-16
41
1
10
61.4375000080232
20
-2.94215953599309
30
-2E-16
41
1
10
61.7812500044833
20
-3.17785637467099
30
3E-16
41
1
10
62.1249999992548
20
-3.40353830611272
30
0
41
1
10
62.468749998498
20
-3.61845850955626
30
0
41
1
10
62.8124999996118
20
-3.8219148151114
30
1E-16
41
1
10
63.1562499999947
20
-4.01321383706897
30
1E-16
41
1
10
63.5000000000031
20
-4.19171077946123
30
1E-16
41
1
10
63.8437499999934
20
-4.35676665362655
30
0
41
1
10
64.1874999999842
20
-4.50780633698605
30
-1E-16
41
1
10
64.5312499999939
20
-4.64426905738552
30
-2E-16
41
1
10
64.8750000000033
20
-4.76565928849277
30
1E-16
41
1
10
65.2187499999932
20
-4.87149155088068
30
1E-16
41
1
10
65.5625000005796
20
-4.96136034952073
30
1E-16
41
1
10
65.9062500023787
20
-5.03487955006185
30
0
41
1
10
66.2500000011963
20
-5.09174410135873
30
-1E-16
41
1
10
66.5937499928363
20
-5.13166275146739
30
0
41
1
10
66.9374999862666
20
-5.15443674286871
30
0
41
1
10
67.281249990458
20
-5.15989070965261
30
0
41
1
10
67.6250000000081
20
-5.14794366572249
30
0
41
1
10
67.9687500095098
20
-5.11853133929125
30
0
41
1
10
68.3125000142271
20
-5.07168921157376
30
0
41
1
10
68.6562500094232
20
-5.00747879019715
30
0
41
1
10
68.8995399755404
20
-4.94986248560403
30
0
41
1
10
69.0282466115228
20
-4.91580565744584
30
0
41
1
10
69.0423699172865
20
-4.91202555082936
30
0
0
SPLINE
5
105
100
AcDbEntity
8
1
62
256
6
ByLayer
370
18
48
1
60
0
100
AcDbSpline
70
4
71
3
72
10
73
6
40
0
40
0
40
0
40
0
40
0.5
40
0.5
40
1
40
1
40
1
40
1
41
1
10
75.2616797812148
20
-4.68714733156051
30
1E-16
41
1
10
75.4284924676148
20
-4.73062922714811
30
0
41
1
10
75.5940304966886
20
-4.75914829460476
30
0
41
1
10
75.9254187418073
20
-4.78582584177039
30
1E-16
41
1
10
76.0912486778659
20
-4.78400054656765
30
0
41
1
10
76.2587577248033
20
-4.7658635931659
30
0
0
SPLINE
5
106
100
AcDbEntity
8
1
62
256
6
ByLayer
370
18
48
1
60
0
100
AcDbSpline
70
4
71
3
72
14
73
10
40
0
40
0
40
0
40
0
40
0.500000000000011
40
0.500000000000011
40
0.750000000000006
40
0.750000000000006
40
0.875000000000003
40
0.875000000000003
40
1
40
1
40
1
40
1
41
1
10
76.2587577248033
20
-4.7658635931659
30
0
41
1
10
76.4251669394293
20
-4.74784640083288
30
0
41
1
10
76.5893576214504
20
-4.71443313791164
30
1E-16
41
1
10
76.831859621572
20
-4.64196052398563
30
0
41
1
10
76.9120488431515
20
-4.61406930862543
30
0
41
1
10
77.0311545234696
20
-4.56666810647937
30
0
41
1
10
77.0706781017738
20
-4.54993132233818
30
0
41
1
10
77.1491975231145
20
-4.51464216953119
30
0
41
1
10
77.188046453084
20
-4.49615687612959
30
0
41
1
10
77.2264617833704
20
-4.47685711396016
30
0
0
SPLINE
5
107
100
AcDbEntity
8
1
62
256
6
ByLayer
370
18
48
1
60
0
100
AcDbSpline
70
4
71
3
72
20
73
16
40
0
40
0
40
0
40
0
40
0.0759959696932562
40
0.151991939386512
40
0.227987909079769
40
0.303983878773025
40
0.455975818159537
40
0.531971787852793
40
0.60796775754605
40
0.683963727239306
40
0.759959696932562
40
0.835955666625818
40
0.911951636319075
40
0.987947606012331
40
1
40
1
40
1
40
1
41
0.990914352163802
10
58.0000000000001
20
-4.88403993163896
30
-1E-16
41
0.990916608277065
10
58.1145833099974
20
-4.92446658893563
30
0
41
0.99092738908857
10
58.3437499660652
20
-5.00081291825718
30
2E-16
41
0.990952394291226
10
58.6874999938641
20
-5.10124914172077
30
0
41
0.990989987608432
10
59.0312500008419
20
-5.1872350383664
30
-1E-16
41
0.99104849192777
10
59.4895833321897
20
-5.28210578831935
30
-1E-16
41
0.991122563687257
10
59.9479166713051
20
-5.34686564403496
30
1E-16
41
0.991211494402378
10
60.4062500007889
20
-5.38072048489586
30
0
41
0.991300021243684
10
60.7499999988732
20
-5.3906371453511
30
0
41
0.991398779230297
10
61.0937500037187
20
-5.38483300808975
30
0
41
0.99150733748398
10
61.4375000080233
20
-5.36325854887301
30
0
41
0.991625265262845
10
61.7812500044831
20
-5.32588009827295
30
0
41
0.991752132268557
10
62.1249999992548
20
-5.27274137101483
30
0
41
0.991849539451063
10
62.3723481957608
20
-5.2232039419211
30
0
41
0.991903628711464
10
62.5051101904349
20
-5.19313287218261
30
0
41
0.991911066234295
10
62.5232824378152
20
-5.18895165771893
30
0
0
SPLINE
5
108
100
AcDbEntity
8
1
62
256
6
ByLayer
370
18
48
1
60
0
100
AcDbSpline
70
4
71
3
72
38
73
34
40
0
40
0
40
0
40
0
40
0.0237561480023561
40
0.0564794088921669
40
0.0892026697819777
40
0.121925930671789
40
0.154649191561599
40
0.18737245245141
40
0.220095713341221
40
0.252818974231032
40
0.285542235120843
40
0.318265496010654
40
0.350988756900464
40
0.383712017790275
40
0.416435278680086
40
0.449158539569897
40
0.481881800459708
40
0.514605061349519
40
0.54732832223933
40
0.58005158312914
40
0.612774844018951
40
0.645498104908762
40
0.678221365798573
40
0.710944626688384
40
0.743667887578195
40
0.776391148468005
40
0.809114409357816
40
0.841837670247627
40
0.874560931137438
40
0.907284192027249
40
0.94000745291706
40
0.97273071380687
40
1
40
1
40
1
40
1
41
1
10
66.3441973666629
20
3.53828535300707
30
1E-16
41
1
10
66.4273815757099
20
3.51412198561891
30
1E-16
41
1
10
66.6251491149699
20
3.45448076299951
30
1E-16
41
1
10
66.9374999862659
20
3.35217576424097
30
1E-16
41
1
10
67.2812499904607
20
3.22941520870953
30
0
41
1
10
67.6250000000072
20
3.09676987130351
30
-2E-16
41
1
10
67.9687500095106
20
2.95449189329315
30
2E-16
41
1
10
68.3125000142283
20
2.80292789782322
30
1E-16
41
1
10
68.6562500094206
20
2.6423851440405
30
0
41
1
10
68.9999999999648
20
2.47329578432621
30
0
41
1
10
69.3437499907204
20
2.29607021196884
30
-1E-16
41
1
10
69.6874999861706
20
2.11122455847792
30
-1E-16
41
1
10
70.0312499907964
20
1.91925522347486
30
-1E-16
41
1
10
70.3750000000005
20
1.72071282445447
30
0
41
1
10
70.7187500092017
20
1.51614046420843
30
0
41
1
10
71.0625000132255
20
1.30615953366953
30
0
41
1
10
71.4062500069006
20
1.0913914548567
30
1E-16
41
1
10
71.7499999988531
20
0.872521365774134
30
2E-16
41
1
10
72.0937499976869
20
0.650240652985275
30
-2E-16
41
1
10
72.4374999993985
20
0.425283474117634
30
-1E-16
41
1
10
72.7812499999892
20
0.198402519091559
30
0
41
1
10
73.1250000000046
20
-0.0296139318798225
30
1E-16
41
1
10
73.4687499999923
20
-0.25795935187773
30
2E-16
41
1
10
73.8124999999795
20
-0.485802210526458
30
-2E-16
41
1
10
74.156249999993
20
-0.712276288455797
30
-1E-16
41
1
10
74.500000000005
20
-0.936528171846248
30
0
41
1
10
74.8437499999871
20
-1.15767686853334
30
0
41
1
10
75.1875000003695
20
-1.37484392239716
30
1E-16
41
1
10
75.5312500015831
20
-1.5871038578241
30
2E-16
41
1
10
75.8750000008027
20
-1.79357487050456
30
2E-16
41
1
10
76.2187499952061
20
-1.99334156312591
30
-2E-16
41
1
10
76.5434024265903
20
-2.17486414683495
30
2E-16
41
1
10
76.7534715305632
20
-2.2875680269857
30
0
41
1
10
76.8489573002132
20
-2.33773332547449
30
1E-16
0
SPLINE
5
109
100
AcDbEntity
8
1
62
256
6
ByLayer
370
18
48
1
60
0
100
AcDbSpline
70
4
71
3
72
14
73
10
40
0
40
0
40
0
40
0
40
0.500000000000023
40
0.500000000000023
40
0.750000000000023
40
0.750000000000023
40
0.875000000000011
40
0.875000000000011
40
1
40
1
40
1
40
1
41
1
10
76.2587577248033
20
4.7658635931659
30
0
41
1
10
76.4251669394299
20
4.74784640083283
30
0
41
1
10
76.5893576214515
20
4.71443313791139
30
-1E-16
41
1
10
76.831859621574
20
4.64196052398495
30
0
41
1
10
76.9120488431538
20
4.61406930862461
30
0
41
1
10
77.0311545234723
20
4.56666810647826
30
0
41
1
10
77.0706781017767
20
4.54993132233696
30
0
41
1
10
77.1491975231177
20
4.51464216952976
30
0
41
1
10
77.1880464530873
20
4.49615687612803
30
0
41
1
10
77.2264617833737
20
4.47685711395849
30
0
0
SPLINE
5
10A
100
AcDbEntity
8
1
62
256
6
ByLayer
370
18
48
1
60
0
100
AcDbSpline
70
4
71
3
72
20
73
16
40
0
40
0
40
0
40
0
40
0.0743174868923059
40
0.148634973784612
40
0.222952460676918
40
0.297269947569223
40
0.445904921353835
40
0.520222408246141
40
0.594539895138447
40
0.668857382030753
40
0.743174868923059
40
0.817492355815365
40
0.891809842707671
40
0.966127329599976
40
1
40
1
40
1
40
1
41
1
10
58.0000000000001
20
-4.94717520739252
30
0
41
1
10
58.1145833099961
20
-4.98794894093763
30
1E-16
41
1
10
58.3437499660636
20
-5.06493578883757
30
-1E-16
41
1
10
58.6874999938644
20
-5.16615318138935
30
1E-16
41
1
10
59.0312500008421
20
-5.25273027692333
30
1E-16
41
1
10
59.4895833321895
20
-5.34810845446378
30
1E-16
41
1
10
59.9479166713049
20
-5.41295447487326
30
0
41
1
10
60.406250000789
20
-5.44645378099926
30
0
41
1
10
60.7499999988731
20
-5.45585313570712
30
0
41
1
10
61.0937500037186
20
-5.44928360331963
30
0
41
1
10
61.4375000080232
20
-5.42668875985021
30
0
41
1
10
61.7812500044833
20
-5.38803279535631
30
0
41
1
10
62.1249999992548
20
-5.33335612103593
30
0
41
1
10
62.4063918365992
20
-5.27552856207333
30
-1E-16
41
1
10
62.5732003415234
20
-5.23565928697616
30
-1E-16
41
1
10
62.6254255129363
20
-5.2226315695041
30
-1E-16
0
SPLINE
5
10B
100
AcDbEntity
8
1
62
256
6
ByLayer
370
18
48
1
60
0
100
AcDbSpline
70
4
71
3
72
11
73
7
40
0
40
0
40
0
40
0
40
0.113647725199271
40
0.532452339862964
40
0.951256954526658
40
1
40
1
40
1
40
1
41
1
10
75.4379692583435
20
4.62978262335071
30
0
41
1
10
75.4690628393306
20
4.63692320568242
30
0
41
1
10
75.6147397537983
20
4.66933517087983
30
0
41
1
10
75.8750000008025
20
4.71847220999646
30
0
41
1
10
76.1175025734705
20
4.75116677562912
30
0
41
1
10
76.2454218150289
20
4.76451448963667
30
1E-16
41
1
10
76.2587577248033
20
4.7658635931659
30
0
0
SPLINE
5
10C
100
AcDbEntity
8
1
62
256
6
ByLayer
370
18
48
1
60
0
100
AcDbSpline
70
4
71
3
72
10
73
6
40
0
40
0
40
0
40
0
40
0.5
40
0.5
40
1
40
1
40
1
40
1
41
1
10
75.2616797812148
20
4.68714733156051
30
-1E-16
41
1
10
75.4284924676148
20
4.73062922714811
30
0
41
1
10
75.5940304966887
20
4.75914829460478
30
0
41
1
10
75.9254187418073
20
4.78582584177039
30
-1E-16
41
1
10
76.091248677866
20
4.78400054656768
30
0
41
1
10
76.2587577248034
20
4.76586359316593
30
0
0
SPLINE
5
10D
100
AcDbEntity
8
1
62
256
6
ByLayer
370
18
48
1
60
0
100
AcDbSpline
70
4
71
3
72
19
73
15
40
0
40
0
40
0
40
0
40
0.0612241541210519
40
0.149640515230276
40
0.2380568763395
40
0.326473237448724
40
0.414889598557947
40
0.503305959667172
40
0.591722320776395
40
0.680138681885619
40
0.768555042994843
40
0.856971404104067
40
0.945387765213291
40
1
40
1
40
1
40
1
41
0.997829544376753
10
72.8869907994013
20
2.92571190418682
30
1E-16
41
0.997872635209546
10
72.9663307881462
20
2.86899152487038
30
1E-16
41
0.997976985945995
10
73.1602455076706
20
2.72838057430079
30
2E-16
41
0.998138997940388
10
73.4687499999923
20
2.49745338136027
30
4E-16
41
0.998313824653805
10
73.8124999999795
20
2.23157471619483
30
1E-16
41
0.998482531148849
10
74.1562499999931
20
1.95808775622616
30
-1E-16
41
0.998644688907813
10
74.5000000000049
20
1.67804447889024
30
-4E-16
41
0.998799868330699
10
74.8437499999872
20
1.39250656027849
30
3E-16
41
0.998947639627508
10
75.1875000003697
20
1.10257168862572
30
1E-16
41
0.999087573925598
10
75.5312500015821
20
0.809347599107187
30
-1E-16
41
0.999219240731583
10
75.8750000008024
20
0.513999816887555
30
-3E-16
41
0.999342209248378
10
76.2187499952081
20
0.217699350885767
30
4E-16
41
0.999441541754939
10
76.518695830958
20
-0.0406441420167833
30
1E-16
41
0.99949875904485
10
76.7040601780168
20
-0.19968223748418
30
-4E-16
41
0.999519981531224
10
76.7748362673375
20
-0.260269072281789
30
-3E-16
0
SPLINE
5
10E
100
AcDbEntity
8
1
62
256
6
ByLayer
370
18
48
1
60
0
100
AcDbSpline
70
4
71
3
72
22
73
18
40
0
40
0
40
0
40
0
40
0.0584934642333471
40
0.126554192379108
40
0.194614920524868
40
0.262675648670629
40
0.33073637681639
40
0.398797104962151
40
0.466857833107912
40
0.534918561253672
40
0.602979289399433
40
0.671040017545193
40
0.739100745690954
40
0.807161473836715
40
0.875222201982476
40
0.943282930128236
40
1
40
1
40
1
40
1
41
1
10
71.7983207720504
20
3.72363610861697
30
0
41
1
10
71.8967971801192
20
3.70296626855551
30
0
41
1
10
72.1098569219777
20
3.65485475228857
30
1E-16
41
1
10
72.4374999993985
20
3.56968097345504
30
1E-16
41
1
10
72.7812499999892
20
3.46776852254467
30
1E-16
41
1
10
73.1250000000046
20
3.35358696635015
30
-1E-16
41
1
10
73.4687499999923
20
3.22739165594388
30
0
41
1
10
73.8124999999795
20
3.0895132203226
30
-1E-16
41
1
10
74.156249999993
20
2.94024867296744
30
2E-16
41
1
10
74.500000000005
20
2.78007323885743
30
1E-16
41
1
10
74.8437499999871
20
2.6094473007403
30
1E-16
41
1
10
75.1875000003695
20
2.42891796497366
30
1E-16
41
1
10
75.5312500015831
20
2.23901675316057
30
1E-16
41
1
10
75.8750000008027
20
2.04042187706915
30
1E-16
41
1
10
76.2187499952061
20
1.83380899263867
30
1E-16
41
1
10
76.5434024265903
20
1.63181791438055
30
2E-16
41
1
10
76.7534715305632
20
1.49747653402412
30
0
41
1
10
76.8489573002132
20
1.43574337426352
30
2E-16
0
SPLINE
5
10F
100
AcDbEntity
8
1
62
256
6
ByLayer
370
18
48
1
60
0
100
AcDbSpline
70
4
71
3
72
48
73
44
40
0
40
0
40
0
40
0
40
0.050309854767952
40
0.050309854767952
40
0.145278869291152
40
0.145278869291152
40
0.169021122921952
40
0.169021122921952
40
0.180892249737352
40
0.180892249737352
40
0.192763376552752
40
0.240247883814355
40
0.240247883814355
40
0.335216898337563
40
0.335216898337563
40
0.382701405599168
40
0.382701405599168
40
0.406443659229971
40
0.418314786045373
40
0.418314786045373
40
0.430185912860775
40
0.430185912860775
40
0.525154927383988
40
0.525154927383988
40
0.620123941907201
40
0.620123941907201
40
0.667608449168807
40
0.667608449168807
40
0.679479575984207
40
0.679479575984207
40
0.691350702799607
40
0.691350702799607
40
0.715092956430407
40
0.715092956430407
40
0.810061970953604
40
0.810061970953604
40
0.905030985476802
40
0.905030985476802
40
0.952515492738402
40
0.952515492738402
40
0.976257746369201
40
0.976257746369201
40
1
40
1
40
1
40
1
41
1
10
69.3567542745529
20
-5.0047554307059
30
0
41
1
10
69.1674289458465
20
-5.07202157495831
30
0
41
1
10
68.9785365339968
20
-5.13111176245221
30
0
41
1
10
68.4330136909711
20
-5.27799772343545
30
0
41
1
10
68.0763459346813
20
-5.34472047168842
30
0
41
1
10
67.6268052649321
20
-5.39017184297723
30
0
41
1
10
67.5367116602636
20
-5.39736045227548
30
0
41
1
10
67.4012232495017
20
-5.40525300261603
30
0
41
1
10
67.3560480378267
20
-5.40739867808597
30
0
41
1
10
67.2658648773565
20
-5.41071542200464
30
0
41
1
10
67.0406736993625
20
-5.41657882686624
30
0
41
1
10
66.8166598719524
20
-5.41040798500057
30
0
41
1
10
66.2801943350815
20
-5.37310721022459
30
-1E-16
41
1
10
65.9241045482675
20
-5.3183006836843
30
0
41
1
10
65.388193991991
20
-5.19266455391718
30
0
41
1
10
65.209262740986
20
-5.14353577599405
30
1E-16
41
1
10
64.9399135519254
20
-5.05904499076061
30
-1E-16
41
1
10
64.8050005926034
20
-5.01409918506553
30
2E-16
41
1
10
64.6696319385987
20
-4.96510780529135
30
1E-16
41
1
10
64.5792738583568
20
-4.93154772251424
30
0
41
1
10
64.534010055958
20
-4.91430646072871
30
0
41
1
10
64.1273497700351
20
-4.75559340798324
30
0
41
1
10
63.7691270977716
20
-4.58877097162141
30
1E-16
41
1
10
63.0537339310925
20
-4.20895132142999
30
1E-16
41
1
10
62.6965855260323
20
-3.99593331782194
30
-4E-16
41
1
10
62.1578520781281
20
-3.64469478791079
30
-3E-16
41
1
10
61.9777733811326
20
-3.52232105371928
30
3E-16
41
1
10
61.7516438224845
20
-3.36298533805831
30
-1E-16
41
1
10
61.7063662765892
20
-3.33079966365221
30
-2E-16
41
1
10
61.6156975644148
20
-3.26579698626895
30
-3E-16
41
1
10
61.5702844786583
20
-3.23296362808699
30
-4E-16
41
1
10
61.4342790308208
20
-3.13383347267003
30
2E-16
41
1
10
61.3437951605094
20
-3.06681823310026
30
1E-16
41
1
10
60.8920993258969
20
-2.72735281378584
30
2E-16
41
1
10
60.5331016428789
20
-2.44170491111441
30
4E-16
41
1
10
59.8141187555101
20
-1.84880522515147
30
-1E-16
41
1
10
59.454559557111
20
-1.5411162281076
30
1E-16
41
1
10
58.9117308860414
20
-1.06624662481295
30
-2E-16
41
1
10
58.730211908891
20
-0.905722578779034
30
3E-16
41
1
10
58.4565245551398
20
-0.662130976412158
30
-2E-16
41
1
10
58.3652323377672
20
-0.580605428653683
30
-4E-16
41
1
10
58.1826803807292
20
-0.417173737377965
30
1E-16
41
1
10
58.0913808119964
20
-0.335240093852036
30
-1E-16
41
1
10
58.0000000000002
20
-0.253153353687594
30
-3E-16
0
SPLINE
5
110
100
AcDbEntity
8
1
62
256
6
ByLayer
370
18
48
1
60
0
100
AcDbSpline
70
4
71
3
72
31
73
27
40
0
40
0
40
0
40
0
40
0.152386761053359
40
0.152386761053359
40
0.22858014158004
40
0.22858014158004
40
0.266676831843379
40
0.266676831843379
40
0.285725176975049
40
0.285725176975049
40
0.304773522106718
40
0.457160283160081
40
0.457160283160081
40
0.609547044213443
40
0.609547044213443
40
0.685740424740123
40
0.685740424740123
40
0.723837115003462
40
0.723837115003462
40
0.742885460135131
40
0.742885460135131
40
0.761933805266799
40
0.761933805266799
40
0.914320566320162
40
0.914320566320162
40
1
40
1
40
1
40
1
41
1
10
57.9999999999996
20
-2.59331883698854
30
-1E-16
41
1
10
58.3624825281309
20
-2.87810434998741
30
-4E-16
41
1
10
58.7229973335833
20
-3.14796306301656
30
3E-16
41
1
10
59.2641589767487
20
-3.52742467742033
30
3E-16
41
1
10
59.4446101768651
20
-3.64968591159001
30
-3E-16
41
1
10
59.7158082877024
20
-3.82631235080612
30
1E-16
41
1
10
59.8062948668451
20
-3.88405960376795
30
2E-16
41
1
10
59.942210530389
20
-3.9689298386424
30
4E-16
41
1
10
59.9875496730116
20
-3.99692940164658
30
-4E-16
41
1
10
60.0780694634052
20
-4.05219660616484
30
-3E-16
41
1
10
60.4849515200486
20
-4.29776334013644
30
-1E-16
41
1
10
60.8881320220724
20
-4.51506741932309
30
-1E-16
41
1
10
61.6036178715372
20
-4.85464066442202
30
-2E-16
41
1
10
61.9607080050962
20
-5.00106227261574
30
2E-16
41
1
10
62.4987973637591
20
-5.18327249474544
30
2E-16
41
1
10
62.6785714866483
20
-5.23776272362613
30
-2E-16
41
1
10
62.9493048670016
20
-5.30973639193692
30
0
41
1
10
63.0397282977733
20
-5.33209992311285
30
1E-16
41
1
10
63.17569263695
20
-5.36314720209779
30
-1E-16
41
1
10
63.2210546755603
20
-5.37307577858397
30
-1E-16
41
1
10
63.3115985226091
20
-5.39203177159428
30
0
41
1
10
63.3568169812435
20
-5.40106771986549
30
0
41
1
10
63.7633461640531
20
-5.47842413905752
30
0
41
1
10
64.1216097719467
20
-5.51903010193482
30
1E-16
41
1
10
64.6802562316205
20
-5.53888383556654
30
0
41
1
10
64.8810949163121
20
-5.53721027843304
30
0
41
1
10
65.0821476333218
20
-5.52664462455974
30
0
0
SPLINE
5
111
100
AcDbEntity
8
1
62
256
6
ByLayer
370
18
48
1
60
0
100
AcDbSpline
70
4
71
3
72
28
73
24
40
0
40
0
40
0
40
0
40
0.0195650565954645
40
0.0708527287049619
40
0.122140400814459
40
0.173428072923956
40
0.224715745033453
40
0.27600341714295
40
0.327291089252447
40
0.378578761361945
40
0.429866433471442
40
0.481154105580938
40
0.532441777690436
40
0.583729449799933
40
0.63501712190943
40
0.686304794018927
40
0.737592466128424
40
0.788880138237921
40
0.840167810347418
40
0.891455482456915
40
0.942743154566413
40
0.99403082667591
40
1
40
1
40
1
40
1
41
1
10
69.5563673412632
20
4.95161998102637
30
1E-16
41
1
10
69.600078223214
20
4.96100638606265
30
1E-16
41
1
10
69.7583724381084
20
4.99348167256403
30
1E-16
41
1
10
70.031249990795
20
5.03992299950008
30
0
41
1
10
70.3750000000011
20
5.08082544109632
30
0
41
1
10
70.7187500092008
20
5.10392361640604
30
0
41
1
10
71.0625000132246
20
5.1090900217811
30
0
41
1
10
71.4062500069034
20
5.09619048403812
30
0
41
1
10
71.7499999988527
20
5.06529897957887
30
0
41
1
10
72.0937499976857
20
5.01648516713715
30
0
41
1
10
72.4374999993988
20
4.94985609943365
30
-1E-16
41
1
10
72.7812499999893
20
4.86551250790441
30
-1E-16
41
1
10
73.1250000000046
20
4.76378345472051
30
-1E-16
41
1
10
73.4687499999923
20
4.64499381019147
30
0
41
1
10
73.8124999999795
20
4.5095234469324
30
1E-16
41
1
10
74.156249999993
20
4.3577466985908
30
0
41
1
10
74.500000000005
20
4.19023562828414
30
0
41
1
10
74.8437499999872
20
4.00755855264822
30
-1E-16
41
1
10
75.1875000003696
20
3.81036175722221
30
0
41
1
10
75.5312500015824
20
3.59928723570803
30
0
41
1
10
75.8750000008025
20
3.37514049363045
30
1E-16
41
1
10
76.1175025734705
20
3.20835766859074
30
0
41
1
10
76.245421815029
20
3.11801657322698
30
-2E-16
41
1
10
76.2587577248033
20
3.10857282435612
30
-2E-16
0
SPLINE
5
112
100
AcDbEntity
8
1
62
256
6
ByLayer
370
18
48
1
60
0
100
AcDbSpline
70
4
71
3
72
19
73
15
40
0
40
0
40
0
40
0
40
0.0578325487559744
40
0.150519535287963
40
0.243206521819951
40
0.335893508351939
40
0.428580494883928
40
0.521267481415916
40
0.613954467947905
40
0.706641454479893
40
0.799328441011882
40
0.89201542754387
40
0.984702414075859
40
1
40
1
40
1
40
1
41
1
10
72.9105153200967
20
2.90869481871926
30
-1E-16
41
1
10
72.9820102134144
20
2.85645919088864
30
-1E-16
41
1
10
73.1680884400448
20
2.71880338445308
30
-2E-16
41
1
10
73.4687499999923
20
2.48963347390293
30
4E-16
41
1
10
73.8124999999794
20
2.21908965460037
30
1E-16
41
1
10
74.1562499999931
20
1.94100337566437
30
-1E-16
41
1
10
74.5000000000049
20
1.65645185132311
30
-3E-16
41
1
10
74.8437499999872
20
1.36652293367456
30
4E-16
41
1
10
75.1875000003697
20
1.07233851061048
30
2E-16
41
1
10
75.531250001582
20
0.775031413851991
30
0
41
1
10
75.8750000008024
20
0.475789161754392
30
-2E-16
41
1
10
76.2187499952082
20
0.175804804525256
30
-4E-16
41
1
10
76.4668281422667
20
-0.0403577208535353
30
1E-16
41
1
10
76.6003229591516
20
-0.1563022837706
30
4E-16
41
1
10
76.6192344424194
20
-0.172719055793095
30
4E-16
0
SPLINE
5
113
100
AcDbEntity
8
1
62
256
6
ByLayer
370
18
48
1
60
0
100
AcDbSpline
70
4
71
3
72
14
73
10
40
0
40
0
40
0
40
0
40
0.25
40
0.25
40
0.5
40
0.5
40
0.75
40
0.75
40
1
40
1
40
1
40
1
41
1
10
56.9522587980655
20
-5.81859473449603
30
1E-16
41
1
10
57.0449605100393
20
-5.82750274702465
30
1E-16
41
1
10
57.1363107203961
20
-5.83577485836736
30
-1E-16
41
1
10
57.316108186792
20
-5.85076623656872
30
1E-16
41
1
10
57.4045421728414
20
-5.85748769885754
30
0
41
1
10
57.5785042696472
20
-5.86899981636282
30
0
41
1
10
57.6639219169003
20
-5.87380646855004
30
0
41
1
10
57.832871862482
20
-5.88091981026034
30
0
41
1
10
57.9164185310385
20
-5.88321801654456
30
0
41
1
10
58.0000000000001
20
-5.88403376671704
30
0
0
SPLINE
5
114
100
AcDbEntity
8
1
62
256
6
ByLayer
370
18
48
1
60
0
100
AcDbSpline
70
4
71
3
72
8
73
4
40
0
40
0
40
0
40
0
40
1
40
1
40
1
40
1
41
1
10
57.9999999999996
20
-5.88403376671707
30
0
41
1
10
58.1495240420186
20
-5.88540724104539
30
0
41
1
10
58.2987132637293
20
-5.88216753541465
30
0
41
1
10
58.4477240013269
20
-5.87433848345751
30
0
0
SPLINE
5
115
100
AcDbEntity
8
1
62
256
6
ByLayer
370
18
48
1
60
0
100
AcDbSpline
70
4
71
3
72
26
73
22
40
0
40
0
40
0
40
0
40
0.148392664497391
40
0.148392664497391
40
0.254843581435231
40
0.254843581435231
40
0.281456310669688
40
0.281456310669688
40
0.308069039904145
40
0.308069039904145
40
0.361294498373058
40
0.361294498373058
40
0.574196332248704
40
0.574196332248704
40
0.78709816612435
40
0.78709816612435
40
0.893549083062175
40
0.893549083062175
40
0.946774541531087
40
0.946774541531087
40
1
40
1
40
1
40
1
41
1
10
63.0863646514793
20
-5.33909513539029
30
-1E-16
41
1
10
62.8371180061209
20
-5.42436631425136
30
-1E-16
41
1
10
62.5877615151162
20
-5.49657647252576
30
0
41
1
10
62.1578520781281
20
-5.59771311447807
30
0
41
1
10
61.9777733811326
20
-5.63309527659808
30
0
41
1
10
61.7516438224845
20
-5.66854838753096
30
0
41
1
10
61.7063662765892
20
-5.67520006694033
30
0
41
1
10
61.6156975644148
20
-5.68761980709786
30
0
41
1
10
61.5702844786583
20
-5.69338979813867
30
0
41
1
10
61.4342790308208
20
-5.70931981878678
30
0
41
1
10
61.3437951605095
20
-5.71811903843545
30
0
41
1
10
60.8920993258968
20
-5.75313715975093
30
0
41
1
10
60.533101642879
20
-5.75245166527901
30
0
41
1
10
59.8141187555101
20
-5.6962136362437
30
0
41
1
10
59.454559557111
20
-5.6405975935071
30
-1E-16
41
1
10
58.9117308860413
20
-5.51654314259949
30
0
41
1
10
58.730211908891
20
-5.46840501897296
30
-1E-16
41
1
10
58.4565245551398
20
-5.38606659855185
30
2E-16
41
1
10
58.3652323377672
20
-5.35697697581287
30
1E-16
41
1
10
58.1826803807291
20
-5.29562148028239
30
0
41
1
10
58.0913808119964
20
-5.26334660207763
30
-1E-16
41
1
10
58.0000000000002
20
-5.22950871519973
30
-2E-16
0
SPLINE
5
116
100
AcDbEntity
8
1
62
256
6
ByLayer
370
18
48
1
60
0
100
AcDbSpline
70
4
71
3
72
10
73
6
40
0
40
0
40
0
40
0
40
0.5
40
0.5
40
1
40
1
40
1
40
1
41
1
10
56.0497929201179
20
-5.72767300374485
30
1E-16
41
1
10
56.2076798310115
20
-5.74264410607756
30
-1E-16
41
1
10
56.3612813215911
20
-5.7585224567286
30
-1E-16
41
1
10
56.6616237273224
20
-5.78958344870148
30
0
41
1
10
56.8083677737866
20
-5.80476777251508
30
1E-16
41
1
10
56.9522587980655
20
-5.81859473449603
30
1E-16
0
SPLINE
5
117
100
AcDbEntity
8
1
62
256
6
ByLayer
370
18
48
1
60
0
100
AcDbSpline
70
4
71
3
72
26
73
22
40
0
40
0
40
0
40
0
40
0.0678558077681056
40
0.0678558077681056
40
0.110225998324101
40
0.110225998324101
40
0.152596188880097
40
0.152596188880097
40
0.32207695110408
40
0.32207695110408
40
0.491557713328062
40
0.491557713328062
40
0.533927903884055
40
0.533927903884055
40
0.576298094440048
40
0.576298094440048
40
0.661038475552034
40
0.661038475552034
40
0.830519237776017
40
0.830519237776017
40
1
40
1
40
1
40
1
41
1
10
53.8776522360209
20
5.99999997514144
30
0
41
1
10
53.9073848440937
20
5.99998552273624
30
0
41
1
10
53.9393364494717
20
5.99906829236375
30
0
41
1
10
53.9947039773149
20
5.99625762642603
30
0
41
1
10
54.0168197290903
20
5.99485984298298
30
0
41
1
10
54.062686279874
20
5.99146927675119
30
0
41
1
10
54.0864539359823
20
5.98947378523837
30
0
41
1
10
54.2081070204937
20
5.97822594984578
30
0
41
1
10
54.3152711033051
20
5.96516225120172
30
0
41
1
10
54.5454046759164
20
5.93378600514501
30
0
41
1
10
54.6683783556208
20
5.91545795236289
30
-1E-16
41
1
10
54.8298469448133
20
5.89031418197203
30
0
41
1
10
54.8625573726875
20
5.88516709315061
30
0
41
1
10
54.9284602350788
20
5.87470323412589
30
0
41
1
10
54.961675733687
20
5.86938304203233
30
0
41
1
10
55.0620466137049
20
5.85318050758042
30
1E-16
41
1
10
55.1299243764759
20
5.84205764478517
30
1E-16
41
1
10
55.3358880562623
20
5.80782353990145
30
-1E-16
41
1
10
55.4763405101081
20
5.78388245319957
30
0
41
1
10
55.7609576946884
20
5.73377299281364
30
1E-16
41
1
10
55.9051283151936
20
5.70760504387934
30
0
41
1
10
56.0497929201179
20
5.67991877615765
30
0
0
SPLINE
5
118
100
AcDbEntity
8
1
62
256
6
ByLayer
370
18
48
1
60
0
100
AcDbSpline
70
4
71
3
72
8
73
4
40
0
40
0
40
0
40
0
40
1
40
1
40
1
40
1
41
1
10
56.0497929201179
20
5.72767300374485
30
-1E-16
41
1
10
55.9993347424632
20
5.72040205700657
30
-1E-16
41
1
10
55.9486004337753
20
5.71327068905921
30
-1E-16
41
1
10
55.8975663727869
20
5.70633638659686
30
0
0
SPLINE
5
119
100
AcDbEntity
8
1
62
256
6
ByLayer
370
18
48
1
60
0
100
AcDbSpline
70
4
71
3
72
38
73
34
40
0
40
0
40
0
40
0
40
0.0654675115942474
40
0.0654675115942474
40
0.130935023188495
40
0.130935023188495
40
0.147301901087057
40
0.147301901087057
40
0.163668778985618
40
0.163668778985618
40
0.196402534782742
40
0.196402534782742
40
0.261870046376986
40
0.261870046376986
40
0.32733755797123
40
0.32733755797123
40
0.360071313768355
40
0.360071313768355
40
0.39280506956548
40
0.39280506956548
40
0.523740092753978
40
0.523740092753978
40
0.654675115942477
40
0.654675115942477
40
0.6874088717396
40
0.6874088717396
40
0.720142627536722
40
0.720142627536722
40
0.785610139130967
40
0.785610139130967
40
0.916545162319449
40
0.916545162319449
40
1
40
1
40
1
40
1
41
1
10
53.6224621036406
20
-5.9135871011249
30
1E-16
41
1
10
53.6224621040482
20
-5.92798150042435
30
0
41
1
10
53.6282774986193
20
-5.94043356178491
30
0
41
1
10
53.649782137021
20
-5.96170243959563
30
0
41
1
10
53.6654883525774
20
-5.97051783675352
30
0
41
1
10
53.6907950352701
20
-5.9793753779507
30
0
41
1
10
53.6961417261827
20
-5.98103868163716
30
0
41
1
10
53.7073989908828
20
-5.98415125747752
30
0
41
1
10
53.7133141895888
20
-5.98560102876209
30
0
41
1
10
53.7317864624963
20
-5.98961136963254
30
0
41
1
10
53.745099130596
20
-5.99184263078527
30
0
41
1
10
53.787861886864
20
-5.99729994961538
30
0
41
1
10
53.8201253912025
20
-5.99929172937996
30
0
41
1
10
53.8916158632707
20
-6.00039165181977
30
0
41
1
10
53.9308551737388
20
-5.99949883412239
30
0
41
1
10
53.9947039773149
20
-5.99625762642603
30
0
41
1
10
54.0168197290902
20
-5.99485984298298
30
0
41
1
10
54.062686279874
20
-5.99146927675119
30
0
41
1
10
54.0864539359823
20
-5.98947378523837
30
0
41
1
10
54.2081070204936
20
-5.97822594984578
30
0
41
1
10
54.3152711033051
20
-5.96516225120172
30
0
41
1
10
54.5454046759164
20
-5.93378600514504
30
0
41
1
10
54.6683783556208
20
-5.91545795236289
30
1E-16
41
1
10
54.8298469448132
20
-5.89031418197206
30
0
41
1
10
54.8625573726875
20
-5.88516709315064
30
0
41
1
10
54.9284602350787
20
-5.87470323412589
30
0
41
1
10
54.961675733687
20
-5.86938304203233
30
0
41
1
10
55.0620466137048
20
-5.85318050758042
30
-1E-16
41
1
10
55.1299243764757
20
-5.84205764478517
30
-1E-16
41
1
10
55.3358880562622
20
-5.80782353990145
30
1E-16
41
1
10
55.4763405101081
20
-5.7838824531996
30
0
41
1
10
55.7093531797407
20
-5.74285843999533
30
-1E-16
41
1
10
55.8008137025631
20
-5.7264369139524
30
0
41
1
10
55.8926764394593
20
-5.70945825118991
30
0
0
SPLINE
5
11A
100
AcDbEntity
8
1
62
256
6
ByLayer
370
18
48
1
60
0
100
AcDbSpline
70
4
71
3
72
49
73
45
40
0
40
0
40
0
40
0
40
0.124999999999965
40
0.124999999999965
40
0.249999999999929
40
0.249999999999929
40
0.312499999999911
40
0.312499999999911
40
0.374999999999894
40
0.374999999999894
40
0.406249999999891
40
0.406249999999891
40
0.437499999999889
40
0.437499999999889
40
0.499999999999884
40
0.499999999999884
40
0.531249999999882
40
0.531249999999882
40
0.562499999999879
40
0.562499999999879
40
0.624999999999875
40
0.624999999999875
40
0.656249999999878
40
0.656249999999878
40
0.687499999999881
40
0.718749999999885
40
0.718749999999885
40
0.734374999999886
40
0.734374999999886
40
0.749999999999888
40
0.749999999999888
40
0.81249999999991
40
0.81249999999991
40
0.828124999999918
40
0.828124999999918
40
0.843749999999926
40
0.843749999999926
40
0.874999999999943
40
0.874999999999943
40
0.937499999999972
40
0.937499999999972
40
0.968749999999986
40
0.968749999999986
40
1
40
1
40
1
40
1
41
1
10
56.0497929201179
20
-5.72767300374485
30
1E-16
41
1
10
55.930893174674
20
-5.71053973107232
30
1E-16
41
1
10
55.8104601758013
20
-5.6941814877664
30
0
41
1
10
55.5659095391237
20
-5.66451939786617
30
-1E-16
41
1
10
55.4418010830847
20
-5.65120531763134
30
-1E-16
41
1
10
55.2520717040663
20
-5.6350320119287
30
-1E-16
41
1
10
55.1882289664792
20
-5.63027971211338
30
-1E-16
41
1
10
55.0591163522244
20
-5.62240705582636
30
-1E-16
41
1
10
54.9938486700629
20
-5.61928447496399
30
-2E-16
41
1
10
54.8946105677789
20
-5.61619324715312
30
-2E-16
41
1
10
54.8612276490682
20
-5.61542975038427
30
-2E-16
41
1
10
54.7946722484288
20
-5.61452316706621
30
-2E-16
41
1
10
54.7614384318351
20
-5.61437687526745
30
-2E-16
41
1
10
54.6618813015649
20
-5.61494919357358
30
-2E-16
41
1
10
54.5957009517144
20
-5.61667346033181
30
-2E-16
41
1
10
54.4967895396016
20
-5.62173321042141
30
-2E-16
41
1
10
54.4637863148607
20
-5.62384335951799
30
-1E-16
41
1
10
54.3988976636135
20
-5.62890217379166
30
-1E-16
41
1
10
54.3669144257043
20
-5.63185356799332
30
-1E-16
41
1
10
54.2724542308704
20
-5.64202609769183
30
-1E-16
41
1
10
54.2114569345018
20
-5.65056600367271
30
-1E-16
41
1
10
54.1234931588218
20
-5.6662161428778
30
0
41
1
10
54.0946250498626
20
-5.6719421159352
30
0
41
1
10
54.0395103010018
20
-5.68406362967775
30
0
41
1
10
53.9867401162994
20
-5.69689174264303
30
0
41
1
10
53.9386474114002
20
-5.71097451355465
30
1E-16
41
1
10
53.904344127578
20
-5.72194551717141
30
1E-16
41
1
10
53.8932042551397
20
-5.72567065037967
30
1E-16
41
1
10
53.8715180633573
20
-5.73324663993751
30
1E-16
41
1
10
53.8609745546581
20
-5.73709783995344
30
-1E-16
41
1
10
53.8103255076165
20
-5.75640891010602
30
-1E-16
41
1
10
53.7758531145015
20
-5.77220469635424
30
0
41
1
10
53.7393917196989
20
-5.79189461118449
30
0
41
1
10
53.7324334309744
20
-5.79583032214484
30
0
41
1
10
53.719170956623
20
-5.80368661515709
30
1E-16
41
1
10
53.7128535661581
20
-5.80761625696547
30
1E-16
41
1
10
53.6950040673439
20
-5.81927487655113
30
1E-16
41
1
10
53.6845438498088
20
-5.82688580073207
30
1E-16
41
1
10
53.6570629745826
20
-5.8491723473669
30
-1E-16
41
1
10
53.6439161335014
20
-5.86329990588774
30
0
41
1
10
53.6309280507409
20
-5.88320005111129
30
0
41
1
10
53.6277281721885
20
-5.88961879165151
30
0
41
1
10
53.6234893904907
20
-5.90199917112724
30
1E-16
41
1
10
53.6224621034803
20
-5.90793049834448
30
1E-16
41
1
10
53.6224621036405
20
-5.91358710112499
30
1E-16
0
SPLINE
5
11B
100
AcDbEntity
8
1
62
256
6
ByLayer
370
18
48
1
60
0
100
AcDbSpline
70
4
71
3
72
10
73
6
40
0
40
0
40
0
40
0
40
0.570044170275624
40
0.570044170275624
40
1
40
1
40
1
40
1
41
1
10
75.2616797812147
20
4.6988827904751
30
1E-16
41
1
10
74.8977202978107
20
4.82923410014308
30
0
41
1
10
74.5373591106504
20
4.92795672564336
30
0
41
1
10
73.9057957205226
20
5.04573935885307
30
0
41
1
10
73.6344447836728
20
5.07841409001307
30
0
41
1
10
73.3619370110399
20
5.09271802567068
30
0
0
SPLINE
5
11C
100
AcDbEntity
8
1
62
256
6
ByLayer
370
18
48
1
60
0
100
AcDbSpline
70
4
71
3
72
27
73
23
40
0
40
0
40
0
40
0
40
0.0175471397322509
40
0.0175471397322509
40
0.0403948806687141
40
0.0403948806687141
40
0.0860903625416361
40
0.0860903625416361
40
0.268872290033321
40
0.268872290033321
40
0.451654217525006
40
0.451654217525006
40
0.497349699397927
40
0.520197440334386
40
0.520197440334386
40
0.543045181270845
40
0.543045181270845
40
0.634436145016675
40
0.634436145016675
40
0.817218072508338
40
0.817218072508338
40
1
40
1
40
1
40
1
41
1
10
69.3567541721101
20
5.00501649579903
30
0
41
1
10
69.3914894837872
20
5.01362698520816
30
0
41
1
10
69.4262576430233
20
5.02197901037488
30
0
41
1
10
69.5063785100512
20
5.04060519121222
30
0
41
1
10
69.5517573666339
20
5.05069706274804
30
-1E-16
41
1
10
69.6876021309751
20
5.0795300735227
30
1E-16
41
1
10
69.7779399435109
20
5.09686786275839
30
0
41
1
10
70.2287245946919
20
5.17419030647605
30
0
41
1
10
70.5864568388581
20
5.20614192809958
30
0
41
1
10
71.301588861414
20
5.21059661892667
30
0
41
1
10
71.6589683575145
20
5.18310249414492
30
0
41
1
10
72.1089473306178
20
5.11079171292948
30
0
41
1
10
72.2441876868817
20
5.08624654577923
30
0
41
1
10
72.3799032986389
20
5.0573818857178
30
0
41
1
10
72.4704978872684
20
5.03717334938128
30
0
41
1
10
72.5158876468475
20
5.02657807940716
30
0
41
1
10
72.7427532502048
20
4.9712741650809
30
-1E-16
41
1
10
72.9233376053085
20
4.91975710386944
30
0
41
1
10
73.4634894438979
20
4.74417472507332
30
0
41
1
10
73.8214587616018
20
4.59912681597865
30
-1E-16
41
1
10
74.538918719931
20
4.25600148389032
30
-2E-16
41
1
10
74.8983855828418
20
4.05791703148753
30
-2E-16
41
1
10
75.2616797812148
20
3.8340870633254
30
-1E-16
0
SPLINE
5
11D
100
AcDbEntity
8
1
62
256
6
ByLayer
370
18
48
1
60
0
100
AcDbSpline
70
4
71
3
72
51
73
47
40
0
40
0
40
0
40
0
40
0.0035649891407229
40
0.0035649891407229
40
0.0146364892613839
40
0.0146364892613839
40
0.0257079893820449
40
0.0257079893820449
40
0.114279990347326
40
0.114279990347326
40
0.202851991312606
40
0.202851991312606
40
0.247137991795247
40
0.247137991795247
40
0.269280992036567
40
0.269280992036567
40
0.280352492157226
40
0.280352492157226
40
0.291423992277885
40
0.291423992277885
40
0.379995993243154
40
0.379995993243154
40
0.468567994208424
40
0.468567994208424
40
0.51285399469106
40
0.51285399469106
40
0.523925494811718
40
0.523925494811718
40
0.534996994932377
40
0.534996994932377
40
0.557139995173695
40
0.557139995173695
40
0.645711996138963
40
0.645711996138963
40
0.734283997104231
40
0.734283997104231
40
0.756426997345548
40
0.767498497466205
40
0.767498497466205
40
0.778569997586863
40
0.778569997586863
40
0.822855998069491
40
0.822855998069491
40
0.911427999034746
40
0.911427999034746
40
1
40
1
40
1
40
1
41
1
10
63.0866079863542
20
5.34267163768814
30
0
41
1
10
63.1011901451734
20
5.34609018999498
30
0
41
1
10
63.1157778235823
20
5.34946573284472
30
0
41
1
10
63.1756926369501
20
5.36314720209779
30
1E-16
41
1
10
63.2210546755602
20
5.37307577858397
30
1E-16
41
1
10
63.311598522609
20
5.39203177159428
30
0
41
1
10
63.3568169812435
20
5.40106771986549
30
0
41
1
10
63.7633461640531
20
5.47842413905752
30
0
41
1
10
64.1216097719467
20
5.51903010193482
30
-1E-16
41
1
10
64.8367917376938
20
5.54444695010466
30
0
41
1
10
65.1936969406363
20
5.52925859407313
30
0
41
1
10
65.731661904837
20
5.46401288398249
30
0
41
1
10
65.9114187840866
20
5.43517644098537
30
0
41
1
10
66.1821973393572
20
5.38111213097093
30
0
41
1
10
66.2726475481617
20
5.361288352137
30
1E-16
41
1
10
66.4086730749569
20
5.32881995088911
30
-1E-16
41
1
10
66.4540202693739
20
5.31755370896013
30
0
41
1
10
66.5445479173036
20
5.29418738932972
30
0
41
1
10
66.5897568155755
20
5.28208057865047
30
1E-16
41
1
10
66.9961897846246
20
5.16934273206644
30
1E-16
41
1
10
67.3542929588179
20
5.04233378257948
30
0
41
1
10
68.0693142765675
20
4.73800880222964
30
0
41
1
10
68.426203717754
20
4.56067851671926
30
0
41
1
10
68.9645299477834
20
4.25847413946639
30
-2E-16
41
1
10
69.1444745497146
20
4.15169662755477
30
0
41
1
10
69.3704873511301
20
4.01078178158158
30
-1E-16
41
1
10
69.4157442126772
20
3.98222658204344
30
0
41
1
10
69.5063785100512
20
3.92437402269565
30
1E-16
41
1
10
69.5517573666339
20
3.89507496672655
30
2E-16
41
1
10
69.6876021309752
20
3.80639273395894
30
0
41
1
10
69.7779399435109
20
3.74612135169301
30
1E-16
41
1
10
70.2287245946919
20
3.43925813357549
30
-1E-16
41
1
10
70.5864568388582
20
3.17617889450247
30
-3E-16
41
1
10
71.301588861414
20
2.62032899918873
30
1E-16
41
1
10
71.6589683575145
20
2.32754001333305
30
-1E-16
41
1
10
72.1089473306178
20
1.94597316486508
30
-1E-16
41
1
10
72.2441876868816
20
1.83033399939549
30
2E-16
41
1
10
72.379903298639
20
1.71302293894629
30
4E-16
41
1
10
72.4704978872685
20
1.63445286451423
30
-3E-16
41
1
10
72.5158876468475
20
1.59495699224084
30
-2E-16
41
1
10
72.7427532502048
20
1.39694993718237
30
3E-16
41
1
10
72.9233376053085
20
1.23742287015597
30
-2E-16
41
1
10
73.4634894438979
20
0.756739449665901
30
0
41
1
10
73.8214587616019
20
0.433485023303916
30
-1E-16
41
1
10
74.538918719931
20
-0.212137888220155
30
-4E-16
41
1
10
74.8983855828417
20
-0.534532943761832
30
4E-16
41
1
10
75.2616797812148
20
-0.853060268235112
30
2E-16
0
SPLINE
5
11E
100
AcDbEntity
8
1
62
256
6
ByLayer
370
18
48
1
60
0
100
AcDbSpline
70
4
71
3
72
35
73
31
40
0
40
0
40
0
40
0
40
0.137287196764137
40
0.137287196764137
40
0.274574393528273
40
0.274574393528273
40
0.291735293123789
40
0.291735293123789
40
0.308896192719305
40
0.343217991910333
40
0.343217991910333
40
0.411861590292393
40
0.411861590292393
40
0.54914878705651
40
0.54914878705651
40
0.617792385438568
40
0.617792385438568
40
0.634953285034083
40
0.634953285034083
40
0.652114184629599
40
0.652114184629599
40
0.686435983820626
40
0.686435983820626
40
0.823723180584738
40
0.823723180584738
40
0.961010377348849
40
0.961010377348849
40
0.995332176539877
40
0.995332176539877
40
1
40
1
40
1
40
1
41
1
10
75.2616797812147
20
0.88690313587125
30
-3E-16
41
1
10
74.8977202978107
20
1.21733579393944
30
-2E-16
41
1
10
74.5373591106505
20
1.5409348066496
30
-1E-16
41
1
10
73.8173210532468
20
2.16818306054213
30
2E-16
41
1
10
73.4576420261656
20
2.4718300946476
30
4E-16
41
1
10
73.0498454531502
20
2.79843087680226
30
-3E-16
41
1
10
73.0044550965484
20
2.83453861464386
30
-4E-16
41
1
10
72.9138393352816
20
2.90611216055945
30
3E-16
41
1
10
72.7781089635986
20
3.01255423650909
30
0
41
1
10
72.6428970166203
20
3.11621147480932
30
-2E-16
41
1
10
72.3730069092706
20
3.31972964894047
30
2E-16
41
1
10
72.193787350925
20
3.45034602061693
30
-1E-16
41
1
10
71.6571096108298
20
3.82633607710039
30
-1E-16
41
1
10
71.3006402238642
20
4.05589421094473
30
-2E-16
41
1
10
70.7633619243152
20
4.36514560100778
30
0
41
1
10
70.5838440459631
20
4.46237460700547
30
2E-16
41
1
10
70.3584343974071
20
4.57615237250729
30
-1E-16
41
1
10
70.3133016470902
20
4.5985196690055
30
-1E-16
41
1
10
70.2229223973782
20
4.64246578492634
30
-2E-16
41
1
10
70.1776721340603
20
4.66404539644171
30
2E-16
41
1
10
70.0422205824243
20
4.72736029325822
30
0
41
1
10
69.9521556803186
20
4.76775201585258
30
-1E-16
41
1
10
69.502764979531
20
4.96063478030726
30
-1E-16
41
1
10
69.1462318906285
20
5.08595857789507
30
1E-16
41
1
10
68.4330136909712
20
5.27799772343545
30
0
41
1
10
68.0763459346814
20
5.34472047168842
30
0
41
1
10
67.6268052649322
20
5.39017184297725
30
0
41
1
10
67.5367116602636
20
5.39736045227548
30
0
41
1
10
67.4341016158463
20
5.40333775274317
30
0
41
1
10
67.4218162605805
20
5.40401745691906
30
0
41
1
10
67.4095319200303
20
5.40466122218805
30
0
0
SPLINE
5
11F
100
AcDbEntity
8
1
62
256
6
ByLayer
370
18
48
1
60
0
100
AcDbSpline
70
4
71
2
72
6
73
3
40
0
40
0
40
0
40
1
40
1
40
1
41
1
10
72.9093789192917
20
2.90952504121611
30
-2E-16
41
1
10
72.9093704249722
20
2.90953465478819
30
3E-16
41
1
10
72.9093619306499
20
2.90954532810315
30
3E-16
0
INSERT
5
145
100
AcDbEntity
8
1
62
256
6
ByLayer
370
18
48
1
60
0
100
AcDbBlockReference
2
LABLE3D_1
10
94.300458
20
-23.2448
30
0
41
1
42
1
43
1
50
0
210
0
220
0
230
1
0
LINE
5
7D
100
AcDbEntity
8
80
62
256
6
ByLayer
370
18
48
1
60
0
100
AcDbLine
10
0
20
0
30
0
11
-3
21
0
31
0
39
0
210
0
220
0
230
1
0
LINE
5
7E
100
AcDbEntity
8
81
62
256
6
ByLayer
370
18
48
1
60
0
100
AcDbLine
10
80
20
0
30
0
11
83
21
0
31
0
39
0
210
0
220
0
230
1
0
LINE
5
7F
100
AcDbEntity
8
SK4
62
256
6
ByLayer
370
18
48
0.05
60
0
100
AcDbLine
10
-48
20
0
30
0
11
83
21
0
31
0
39
0
210
0
220
0
230
1
0
LINE
5
81
100
AcDbEntity
8
4
62
256
6
ByLayer
370
18
48
0.05
60
0
100
AcDbLine
10
0
20
0
30
0
11
83
21
0
31
0
39
0
210
0
220
0
230
1
0
LINE
5
83
100
AcDbEntity
8
1
62
256
6
ByLayer
370
18
48
1
60
0
100
AcDbLine
10
0
20
-6
30
0
11
0
21
6
31
0
39
0
210
0
220
0
230
1
0
LINE
5
84
100
AcDbEntity
8
1
62
256
6
ByLayer
370
18
48
1
60
0
100
AcDbLine
10
56.049793
20
-5.727673
30
0
11
56.049793
21
-4.514442
31
0
39
0
210
0
220
0
230
1
0
LINE
5
85
100
AcDbEntity
8
1
62
256
6
ByLayer
370
18
48
1
60
0
100
AcDbLine
10
56.049793
20
4.411519
30
0
11
56.049793
21
5.679919
31
0
39
0
210
0
220
0
230
1
0
LINE
5
86
100
AcDbEntity
8
1
62
256
6
ByLayer
370
18
48
1
60
0
100
AcDbLine
10
56.049793
20
-1.316154
30
0
11
56.049793
21
1.165477
31
0
39
0
210
0
220
0
230
1
0
LINE
5
87
100
AcDbEntity
8
SK1
62
256
6
ByLayer
370
18
48
1
60
0
100
AcDbLine
10
-45
20
-5.2
30
0
11
-45
21
5.2
31
0
39
0
210
0
220
0
230
1
0
LINE
5
89
100
AcDbEntity
8
SK1
62
256
6
ByLayer
370
18
48
1
60
0
100
AcDbLine
10
0
20
-6
30
0
11
0
21
6
31
0
39
0
210
0
220
0
230
1
0
LINE
5
8A
100
AcDbEntity
8
SK1
62
256
6
ByLayer
370
18
48
1
60
0
100
AcDbLine
10
-44.2
20
-6
30
0
11
-44.2
21
6
31
0
39
0
210
0
220
0
230
1
0
LINE
5
8B
100
AcDbEntity
8
1
62
256
6
ByLayer
370
18
48
1
60
0
100
AcDbLine
10
53.880682
20
6
30
0
11
0
21
6
31
0
39
0
210
0
220
0
230
1
0
LINE
5
8C
100
AcDbEntity
8
1
62
256
6
ByLayer
370
18
48
1
60
0
100
AcDbLine
10
0
20
-6
30
0
11
53.880682
21
-6
31
0
39
0
210
0
220
0
230
1
0
LINE
5
8D
100
AcDbEntity
8
1
62
256
6
ByLayer
370
18
48
1
60
0
100
AcDbLine
10
73.363777
20
5.092613
30
0
11
71.322319
21
5.199601
31
0
39
0
210
0
220
0
230
1
0
LINE
5
8E
100
AcDbEntity
8
1
62
256
6
ByLayer
370
18
48
1
60
0
100
AcDbLine
10
58.448574
20
-5.874285
30
0
11
61.08175
21
-5.736286
31
0
39
0
210
0
220
0
230
1
0
LINE
5
8F
100
AcDbEntity
8
1
62
256
6
ByLayer
370
18
48
1
60
0
100
AcDbLine
10
67.409622
20
5.404657
30
0
11
65.082535
21
5.526614
31
0
39
0
210
0
220
0
230
1
0
LINE
5
90
100
AcDbEntity
8
1
62
256
6
ByLayer
370
18
48
1
60
0
100
AcDbLine
10
61.08175
20
5.736286
30
0
11
58.448574
21
5.874285
31
0
39
0
210
0
220
0
230
1
0
LINE
5
91
100
AcDbEntity
8
1
62
256
6
ByLayer
370
18
48
1
60
0
100
AcDbLine
10
71.322319
20
-5.199601
30
0
11
73.363777
21
-5.092613
31
0
39
0
210
0
220
0
230
1
0
LINE
5
92
100
AcDbEntity
8
1
62
256
6
ByLayer
370
18
48
1
60
0
100
AcDbLine
10
65.082535
20
-5.526614
30
0
11
67.409622
21
-5.404657
31
0
39
0
210
0
220
0
230
1
0
LINE
5
93
100
AcDbEntity
8
1
62
256
6
ByLayer
370
18
48
1
60
0
100
AcDbLine
10
56.853144
20
0.669527
30
0
11
56.853116
21
0.669545
31
0
39
0
210
0
220
0
230
1
0
LINE
5
94
100
AcDbEntity
8
SK1
62
256
6
ByLayer
370
18
48
1
60
0
100
AcDbLine
10
-45
20
-5.2
30
0
11
-44.2
21
-6
31
0
39
0
210
0
220
0
230
1
0
LINE
5
95
100
AcDbEntity
8
SK1
62
256
6
ByLayer
370
18
48
1
60
0
100
AcDbLine
10
-44.2
20
6
30
0
11
-45
21
5.2
31
0
39
0
210
0
220
0
230
1
0
LINE
5
96
100
AcDbEntity
8
SK1
62
256
6
ByLayer
370
18
48
1
60
0
100
AcDbLine
10
0
20
6
30
0
11
-44.2
21
6
31
0
39
0
210
0
220
0
230
1
0
LINE
5
97
100
AcDbEntity
8
SK1
62
256
6
ByLayer
370
18
48
1
60
0
100
AcDbLine
10
-44.2
20
-6
30
0
11
0
21
-6
31
0
39
0
210
0
220
0
230
1
0
LINE
5
98
100
AcDbEntity
8
SK2
62
256
6
ByLayer
370
13
48
1
60
0
100
AcDbLine
10
-51.5
20
-6
30
0
11
-51.5
21
25.625256
31
0
39
0
210
0
220
0
230
1
0
LINE
5
9A
100
AcDbEntity
8
SK2
62
256
6
ByLayer
370
13
48
1
60
0
100
AcDbLine
10
-46.5875
20
-6
30
0
11
-53.5
21
-6
31
0
39
0
210
0
220
0
230
1
0
LINE
5
9B
100
AcDbEntity
8
SK2
62
256
6
ByLayer
370
13
48
1
60
0
100
AcDbLine
10
-46.5875
20
6
30
0
11
-53.5
21
6
31
0
39
0
210
0
220
0
230
1
0
LINE
5
9C
100
AcDbEntity
8
1
62
256
6
ByLayer
370
18
48
1
60
1
100
AcDbLine
10
-51.5
20
-6
30
0
11
-51.960784
21
-2.500002
31
0
39
0
210
0
220
0
230
1
0
LINE
5
9D
100
AcDbEntity
8
1
62
256
6
ByLayer
370
18
48
1
60
1
100
AcDbLine
10
-51.960784
20
-2.500002
30
0
11
-51.039216
21
-2.499998
31
0
39
0
210
0
220
0
230
1
0
LINE
5
9E
100
AcDbEntity
8
1
62
256
6
ByLayer
370
18
48
1
60
1
100
AcDbLine
10
-51.039216
20
-2.499998
30
0
11
-51.5
21
-6
31
0
39
0
210
0
220
0
230
1
0
LINE
5
9F
100
AcDbEntity
8
1
62
256
6
ByLayer
370
18
48
1
60
1
100
AcDbLine
10
-51.5
20
6
30
0
11
-51.039216
21
2.500002
31
0
39
0
210
0
220
0
230
1
0
LINE
5
A0
100
AcDbEntity
8
1
62
256
6
ByLayer
370
18
48
1
60
1
100
AcDbLine
10
-51.039216
20
2.500002
30
0
11
-51.960784
21
2.499998
31
0
39
0
210
0
220
0
230
1
0
LINE
5
A1
100
AcDbEntity
8
1
62
256
6
ByLayer
370
18
48
1
60
1
100
AcDbLine
10
-51.960784
20
2.499998
30
0
11
-51.5
21
6
31
0
39
0
210
0
220
0
230
1
0
LINE
5
A2
100
AcDbEntity
8
SK2
62
256
6
ByLayer
370
13
48
1
60
0
100
AcDbLine
10
96.5
20
-5
30
0
11
96.5
21
24.625256
31
0
39
0
210
0
220
0
230
1
0
LINE
5
A3
100
AcDbEntity
8
SK2
62
256
6
ByLayer
370
13
48
1
60
0
100
AcDbLine
10
81.5875
20
-5
30
0
11
98.5
21
-5
31
0
39
0
210
0
220
0
230
1
0
LINE
5
A4
100
AcDbEntity
8
SK2
62
256
6
ByLayer
370
13
48
1
60
0
100
AcDbLine
10
81.5875
20
5
30
0
11
98.5
21
5
31
0
39
0
210
0
220
0
230
1
0
LINE
5
A5
100
AcDbEntity
8
1
62
256
6
ByLayer
370
18
48
1
60
1
100
AcDbLine
10
96.5
20
-5
30
0
11
96.039216
21
-1.500002
31
0
39
0
210
0
220
0
230
1
0
LINE
5
A6
100
AcDbEntity
8
1
62
256
6
ByLayer
370
18
48
1
60
1
100
AcDbLine
10
96.039216
20
-1.500002
30
0
11
96.960784
21
-1.499998
31
0
39
0
210
0
220
0
230
1
0
LINE
5
A7
100
AcDbEntity
8
1
62
256
6
ByLayer
370
18
48
1
60
1
100
AcDbLine
10
96.960784
20
-1.499998
30
0
11
96.5
21
-5
31
0
39
0
210
0
220
0
230
1
0
LINE
5
A8
100
AcDbEntity
8
1
62
256
6
ByLayer
370
18
48
1
60
1
100
AcDbLine
10
96.5
20
5
30
0
11
96.960784
21
1.500002
31
0
39
0
210
0
220
0
230
1
0
LINE
5
A9
100
AcDbEntity
8
1
62
256
6
ByLayer
370
18
48
1
60
1
100
AcDbLine
10
96.960784
20
1.500002
30
0
11
96.039216
21
1.499998
31
0
39
0
210
0
220
0
230
1
0
LINE
5
AA
100
AcDbEntity
8
1
62
256
6
ByLayer
370
18
48
1
60
1
100
AcDbLine
10
96.039216
20
1.499998
30
0
11
96.5
21
5
31
0
39
0
210
0
220
0
230
1
0
LINE
5
AB
100
AcDbEntity
8
SK2
62
256
6
ByLayer
370
13
48
1
60
0
100
AcDbLine
10
-21.4125
20
0
30
0
11
27.633211
21
0
31
0
39
0
210
0
220
0
230
1
0
LINE
5
AC
100
AcDbEntity
8
SK2
62
256
6
ByLayer
370
13
48
1
60
0
100
AcDbLine
10
46.412772
20
5.529393
30
0
11
23.688301
21
5.950217
31
0
39
0
210
0
220
0
230
1
0
LINE
5
AD
100
AcDbEntity
8
1
62
256
6
ByLayer
370
18
48
1
60
1
100
AcDbLine
10
25.633211
20
0
30
0
11
26.103582
21
-3.498723
31
0
39
0
210
0
220
0
230
1
0
LINE
5
AE
100
AcDbEntity
8
1
62
256
6
ByLayer
370
18
48
1
60
1
100
AcDbLine
10
26.103582
20
-3.498723
30
0
11
25.182018
21
-3.501251
31
0
39
0
210
0
220
0
230
1
0
LINE
5
AF
100
AcDbEntity
8
1
62
256
6
ByLayer
370
18
48
1
60
1
100
AcDbLine
10
25.182018
20
-3.501251
30
0
11
25.633211
21
0
31
0
39
0
210
0
220
0
230
1
0
LINE
5
B0
100
AcDbEntity
8
1
62
256
6
ByLayer
370
18
48
1
60
1
100
AcDbLine
10
25.687958
20
5.913186
30
0
11
25.301669
21
9.422187
31
0
39
0
210
0
220
0
230
1
0
LINE
5
B1
100
AcDbEntity
8
1
62
256
6
ByLayer
370
18
48
1
60
1
100
AcDbLine
10
25.301669
20
9.422187
30
0
11
26.223029
21
9.402603
31
0
39
0
210
0
220
0
230
1
0
LINE
5
B2
100
AcDbEntity
8
1
62
256
6
ByLayer
370
18
48
1
60
1
100
AcDbLine
10
26.223029
20
9.402603
30
0
11
25.687958
21
5.913186
31
0
39
0
210
0
220
0
230
1
0
LINE
5
124
100
AcDbEntity
8
1
62
256
6
ByLayer
370
18
48
1
60
1
100
AcDbLine
10
-51.5
20
-6
30
0
11
-51.960784
21
-2.500002
31
0
39
0
210
0
220
0
230
1
0
LINE
5
125
100
AcDbEntity
8
1
62
256
6
ByLayer
370
18
48
1
60
1
100
AcDbLine
10
-51.960784
20
-2.500002
30
0
11
-51.039216
21
-2.499998
31
0
39
0
210
0
220
0
230
1
0
LINE
5
126
100
AcDbEntity
8
1
62
256
6
ByLayer
370
18
48
1
60
1
100
AcDbLine
10
-51.039216
20
-2.499998
30
0
11
-51.5
21
-6
31
0
39
0
210
0
220
0
230
1
0
LINE
5
128
100
AcDbEntity
8
1
62
256
6
ByLayer
370
18
48
1
60
1
100
AcDbLine
10
-51.5
20
6
30
0
11
-51.039216
21
2.500002
31
0
39
0
210
0
220
0
230
1
0
LINE
5
129
100
AcDbEntity
8
1
62
256
6
ByLayer
370
18
48
1
60
1
100
AcDbLine
10
-51.039216
20
2.500002
30
0
11
-51.960784
21
2.499998
31
0
39
0
210
0
220
0
230
1
0
LINE
5
12A
100
AcDbEntity
8
1
62
256
6
ByLayer
370
18
48
1
60
1
100
AcDbLine
10
-51.960784
20
2.499998
30
0
11
-51.5
21
6
31
0
39
0
210
0
220
0
230
1
0
LINE
5
12E
100
AcDbEntity
8
1
62
256
6
ByLayer
370
18
48
1
60
1
100
AcDbLine
10
96.5
20
-5
30
0
11
96.039216
21
-1.500002
31
0
39
0
210
0
220
0
230
1
0
LINE
5
12F
100
AcDbEntity
8
1
62
256
6
ByLayer
370
18
48
1
60
1
100
AcDbLine
10
96.039216
20
-1.500002
30
0
11
96.960784
21
-1.499998
31
0
39
0
210
0
220
0
230
1
0
LINE
5
130
100
AcDbEntity
8
1
62
256
6
ByLayer
370
18
48
1
60
1
100
AcDbLine
10
96.960784
20
-1.499998
30
0
11
96.5
21
-5
31
0
39
0
210
0
220
0
230
1
0
LINE
5
132
100
AcDbEntity
8
1
62
256
6
ByLayer
370
18
48
1
60
1
100
AcDbLine
10
96.5
20
5
30
0
11
96.960784
21
1.500002
31
0
39
0
210
0
220
0
230
1
0
LINE
5
133
100
AcDbEntity
8
1
62
256
6
ByLayer
370
18
48
1
60
1
100
AcDbLine
10
96.960784
20
1.500002
30
0
11
96.039216
21
1.499998
31
0
39
0
210
0
220
0
230
1
0
LINE
5
134
100
AcDbEntity
8
1
62
256
6
ByLayer
370
18
48
1
60
1
100
AcDbLine
10
96.039216
20
1.499998
30
0
11
96.5
21
5
31
0
39
0
210
0
220
0
230
1
0
LINE
5
137
100
AcDbEntity
8
1
62
256
6
ByLayer
370
18
48
1
60
1
100
AcDbLine
10
25.633211
20
0
30
0
11
26.103582
21
-3.498723
31
0
39
0
210
0
220
0
230
1
0
LINE
5
138
100
AcDbEntity
8
1
62
256
6
ByLayer
370
18
48
1
60
1
100
AcDbLine
10
26.103582
20
-3.498723
30
0
11
25.182018
21
-3.501251
31
0
39
0
210
0
220
0
230
1
0
LINE
5
139
100
AcDbEntity
8
1
62
256
6
ByLayer
370
18
48
1
60
1
100
AcDbLine
10
25.182018
20
-3.501251
30
0
11
25.633211
21
0
31
0
39
0
210
0
220
0
230
1
0
LINE
5
13B
100
AcDbEntity
8
1
62
256
6
ByLayer
370
18
48
1
60
1
100
AcDbLine
10
25.687958
20
5.913186
30
0
11
25.301669
21
9.422187
31
0
39
0
210
0
220
0
230
1
0
LINE
5
13C
100
AcDbEntity
8
1
62
256
6
ByLayer
370
18
48
1
60
1
100
AcDbLine
10
25.301669
20
9.422187
30
0
11
26.223029
21
9.402603
31
0
39
0
210
0
220
0
230
1
0
LINE
5
13D
100
AcDbEntity
8
1
62
256
6
ByLayer
370
18
48
1
60
1
100
AcDbLine
10
26.223029
20
9.402603
30
0
11
25.687958
21
5.913186
31
0
39
0
210
0
220
0
230
1
0
LINE
5
140
100
AcDbEntity
8
1
62
256
6
ByLayer
370
13
48
1
60
0
100
AcDbLine
10
95.800458
20
-23.2448
30
0
11
95.800458
21
-23.2448
31
0
39
0
210
0
220
0
230
1
0
MTEXT
5
120
100
AcDbEntity
8
SK2
62
256
6
ByLayer
370
18
48
1
60
0
100
AcDbMText
10
-52.841114
20
10.658437
30
0
210
0
220
0
230
1
1
%%c
40
3
41
0
44
1.084337
50
90
71
7
72
5
7
iso_b_vert
0
MTEXT
5
123
100
AcDbEntity
8
SK2
62
256
6
ByLayer
370
18
48
1
60
0
100
AcDbMText
10
-52.841114
20
16.635
30
0
210
0
220
0
230
1
1
\W0.6563;12 h6
40
3
41
0
44
1.084337
50
90
71
7
72
5
7
iso_b_vert
0
MTEXT
5
12C
100
AcDbEntity
8
SK2
62
256
6
ByLayer
370
18
48
1
60
0
100
AcDbMText
10
95.158886
20
9.658437
30
0
210
0
220
0
230
1
1
%%c
40
3
41
0
44
1.084337
50
90
71
7
72
5
7
iso_b_vert
0
MTEXT
5
12D
100
AcDbEntity
8
SK2
62
256
6
ByLayer
370
18
48
1
60
0
100
AcDbMText
10
95.158886
20
15.635
30
0
210
0
220
0
230
1
1
\W0.6563;10 h6
40
3
41
0
44
1.084337
50
90
71
7
72
5
7
iso_b_vert
0
MTEXT
5
136
100
AcDbEntity
8
SK2
62
256
6
ByLayer
370
18
48
1
60
0
100
AcDbMText
10
25.094415
20
8.331999
30
0
210
0
220
0
230
1
1
\W0.8531;3.0%%d
40
3
41
0
44
1.084337
50
87.3328701059828
71
7
72
5
7
iso_b_vert
0
MTEXT
5
148
100
AcDbEntity
8
SK6
62
256
6
ByLayer
370
18
48
1
60
0
100
AcDbMText
10
-8.517339
20
-57.114886
30
0
210
0
220
0
230
1
1
\W0.7629;2T346-1000-TA1200   T2CH
40
3
41
0
44
1.084337
50
0
71
7
72
5
7
iso_b_vert
0
HATCH
5
127
100
AcDbEntity
8
SK2
62
256
6
ByLayer
370
13
48
1
60
0
100
AcDbHatch
10
0
20
0
30
0
210
0
220
0
230
1
2
ANSI31
70
0
71
0
91
1
92
5
93
3
72
1
10
-51.5
20
-6
11
-51.9607837415528
21
-2.50000169255318
72
1
10
-51.9607837415528
20
-2.50000169255318
11
-51.0392162584472
21
-2.49999830744682
72
1
10
-51.0392162584472
20
-2.49999830744682
11
-51.5
21
-6
97
0
75
0
76
1
52
0
41
0.0062
77
0
78
1
53
45
43
0
44
0
45
-0.0139193969876572
46
0.0139193969876572
79
0
47
0
98
1
10
0
20
0
0
HATCH
5
12B
100
AcDbEntity
8
SK2
62
256
6
ByLayer
370
13
48
1
60
0
100
AcDbHatch
10
0
20
0
30
0
210
0
220
0
230
1
2
ANSI31
70
0
71
0
91
1
92
5
93
3
72
1
10
-51.5
20
6
11
-51.0392162584472
21
2.50000169255318
72
1
10
-51.0392162584472
20
2.50000169255318
11
-51.9607837415528
21
2.49999830744682
72
1
10
-51.9607837415528
20
2.49999830744682
11
-51.5
21
6
97
0
75
0
76
1
52
0
41
0.0062
77
0
78
1
53
45
43
0
44
0
45
-0.0139193969876572
46
0.0139193969876572
79
0
47
0
98
1
10
0
20
0
0
HATCH
5
131
100
AcDbEntity
8
SK2
62
256
6
ByLayer
370
13
48
1
60
0
100
AcDbHatch
10
0
20
0
30
0
210
0
220
0
230
1
2
ANSI31
70
0
71
0
91
1
92
5
93
3
72
1
10
96.5
20
-5
11
96.0392162584472
21
-1.50000169255318
72
1
10
96.0392162584472
20
-1.50000169255318
11
96.9607837415528
21
-1.49999830744682
72
1
10
96.9607837415528
20
-1.49999830744682
11
96.5
21
-5
97
0
75
0
76
1
52
0
41
0.0062
77
0
78
1
53
45
43
0
44
0
45
-0.0139193969876572
46
0.0139193969876572
79
0
47
0
98
1
10
0
20
0
0
HATCH
5
135
100
AcDbEntity
8
SK2
62
256
6
ByLayer
370
13
48
1
60
0
100
AcDbHatch
10
0
20
0
30
0
210
0
220
0
230
1
2
ANSI31
70
0
71
0
91
1
92
5
93
3
72
1
10
96.5
20
5
11
96.9607837415528
21
1.50000169255318
72
1
10
96.9607837415528
20
1.50000169255318
11
96.0392162584472
21
1.49999830744682
72
1
10
96.0392162584472
20
1.49999830744682
11
96.5
21
5
97
0
75
0
76
1
52
0
41
0.0062
77
0
78
1
53
45
43
0
44
0
45
-0.0139193969876572
46
0.0139193969876572
79
0
47
0
98
1
10
0
20
0
0
HATCH
5
13A
100
AcDbEntity
8
SK2
62
256
6
ByLayer
370
13
48
1
60
0
100
AcDbHatch
10
0
20
0
30
0
210
0
220
0
230
1
2
ANSI31
70
0
71
0
91
1
92
5
93
3
72
1
10
25.6332108219738
20
2.84E-14
11
26.1035820091485
21
-3.49872273192454
72
1
10
26.1035820091485
20
-3.49872273192454
11
25.1820179941121
21
-3.5012509959214
72
1
10
25.1820179941121
20
-3.5012509959214
11
25.6332108219738
21
2.84E-14
97
0
75
0
76
1
52
0
41
0.0062
77
0
78
1
53
45
43
0
44
0
45
-0.0139193969876572
46
0.0139193969876572
79
0
47
0
98
1
10
0
20
0
0
HATCH
5
13E
100
AcDbEntity
8
SK2
62
256
6
ByLayer
370
13
48
1
60
0
100
AcDbHatch
10
0
20
0
30
0
210
0
220
0
230
1
2
ANSI31
70
0
71
0
91
1
92
5
93
3
72
1
10
25.6879578506056
20
5.91318596572617
11
25.3016691625687
21
9.42218737041449
72
1
10
25.3016691625687
20
9.42218737041449
11
26.2230285319353
21
9.40260323374329
72
1
10
26.2230285319353
20
9.40260323374329
11
25.6879578506056
21
5.91318596572617
97
0
75
0
76
1
52
0
41
0.0062
77
0
78
1
53
45
43
0
44
0
45
-0.0139193969876572
46
0.0139193969876572
79
0
47
0
98
1
10
0
20
0
0
DIMENSION
5
14B
100
AcDbEntity
8
SK2
62
256
6
ByLayer
370
18
48
1
60
0
100
AcDbDimension
2
_U0
10
80
20
-42.906855
30
0
11
17.5
21
-42.906855
31
0
70
32
71
1
72
1
41
1
210
0
220
0
230
1
3
Standard
100
AcDbAlignedDimension
13
-45
23
6
33
0
14
80
24
5
34
0
50
0
100
AcDbRotatedDimension
1001
ACAD
1000
DSTYLE
1002
{
1070
   371
1070
    13
1070
   372
1070
    13
1070
     3
1000

1070
   170
1070
     0
1070
   144
1040
1.0
1070
   277
1070
     2
1070
   284
1070
     8
1070
   278
1070
    46
1070
   146
1040
1.166667
1070
   345
1005
16
1070
   347
1005
16
1070
   346
1005
16
1070
   344
1005
0
1070
   343
1005
0
1070
   172
1070
     1
1070
    76
1070
     0
1070
    75
1070
     0
1070
   282
1070
     0
1070
   281
1070
     0
1070
    71
1070
     0
1070
    74
1070
     0
1070
   279
1070
     0
1070
   173
1070
     1
1070
   340
1005
121
1070
   271
1070
     2
1070
   272
1070
     2
1070
    77
1070
     1
1070
    73
1070
     1
1070
   171
1070
     3
1070
   274
1070
     4
1070
   177
1070
     2
1070
   176
1070
     2
1070
   178
1070
     2
1070
    78
1070
     8
1070
    48
1040
-0.1
1070
    41
1040
3.5
1070
   147
1040
1.5
1070
    42
1040
1.5875
1070
    44
1040
2.0
1070
   140
1040
3.0
1002
}
1001
ACAD_DSTYLE_DIM_LINETYPE
1070
   380
1005
16
1001
ACAD_DSTYLE_DIM_EXT1_LINETYPE
1070
   381
1005
16
1001
ACAD_DSTYLE_DIM_EXT2_LINETYPE
1070
   382
1005
16
0
DIMENSION
5
164
100
AcDbEntity
8
SK2
62
256
6
ByLayer
370
18
48
1
60
0
100
AcDbDimension
2
_U1
10
0
20
-30.906855
30
0
11
40
21
-30.906855
31
0
70
32
71
1
72
1
41
1
210
0
220
0
230
1
3
Standard
100
AcDbAlignedDimension
13
80
23
-5
33
0
14
0
24
-6
34
0
50
0
100
AcDbRotatedDimension
1001
ACAD
1000
DSTYLE
1002
{
1070
   371
1070
    13
1070
   372
1070
    13
1070
     3
1000

1070
   170
1070
     0
1070
   144
1040
1.0
1070
   277
1070
     2
1070
   284
1070
     8
1070
   278
1070
    46
1070
   146
1040
1.166667
1070
   345
1005
16
1070
   347
1005
16
1070
   346
1005
16
1070
   344
1005
0
1070
   343
1005
0
1070
   172
1070
     1
1070
    76
1070
     0
1070
    75
1070
     0
1070
   282
1070
     0
1070
   281
1070
     0
1070
    71
1070
     0
1070
    74
1070
     0
1070
   279
1070
     0
1070
   173
1070
     1
1070
   340
1005
121
1070
   271
1070
     2
1070
   272
1070
     2
1070
    77
1070
     1
1070
    73
1070
     1
1070
   171
1070
     3
1070
   274
1070
     4
1070
   177
1070
     2
1070
   176
1070
     2
1070
   178
1070
     2
1070
    78
1070
     8
1070
    48
1040
-0.1
1070
    41
1040
3.5
1070
   147
1040
1.5
1070
    42
1040
1.5875
1070
    44
1040
2.0
1070
   140
1040
3.0
1002
}
1001
ACAD_DSTYLE_DIM_LINETYPE
1070
   380
1005
16
1001
ACAD_DSTYLE_DIM_EXT1_LINETYPE
1070
   381
1005
16
1001
ACAD_DSTYLE_DIM_EXT2_LINETYPE
1070
   382
1005
16
0
DIMENSION
5
17C
100
AcDbEntity
8
SK2
62
256
6
ByLayer
370
18
48
1
60
0
100
AcDbDimension
2
_U2
10
58
20
-16.906855
30
0
11
69
21
-16.906855
31
0
70
32
71
1
72
1
41
1
210
0
220
0
230
1
3
Standard
100
AcDbAlignedDimension
13
80
23
-5
33
0
14
58
24
-6
34
0
50
0
100
AcDbRotatedDimension
1001
ACAD
1000
DSTYLE
1002
{
1070
   371
1070
    13
1070
   372
1070
    13
1070
     3
1000

1070
   170
1070
     0
1070
   144
1040
1.0
1070
   277
1070
     2
1070
   284
1070
     8
1070
   278
1070
    46
1070
   146
1040
1.166667
1070
   345
1005
16
1070
   347
1005
16
1070
   346
1005
16
1070
   344
1005
0
1070
   343
1005
0
1070
   172
1070
     1
1070
    76
1070
     0
1070
    75
1070
     0
1070
   282
1070
     0
1070
   281
1070
     0
1070
    71
1070
     0
1070
    74
1070
     0
1070
   279
1070
     0
1070
   173
1070
     1
1070
   340
1005
121
1070
   271
1070
     2
1070
   272
1070
     2
1070
    77
1070
     1
1070
    73
1070
     1
1070
   171
1070
     3
1070
   274
1070
     4
1070
   177
1070
     2
1070
   176
1070
     2
1070
   178
1070
     2
1070
    78
1070
     8
1070
    48
1040
-0.1
1070
    41
1040
3.5
1070
   147
1040
1.5
1070
    42
1040
1.5875
1070
    44
1040
2.0
1070
   140
1040
3.0
1002
}
1001
ACAD_DSTYLE_DIM_LINETYPE
1070
   380
1005
16
1001
ACAD_DSTYLE_DIM_EXT1_LINETYPE
1070
   381
1005
16
1001
ACAD_DSTYLE_DIM_EXT2_LINETYPE
1070
   382
1005
16
0
ENDSEC
0
SECTION
2
OBJECTS
0
DICTIONARY
5
204
330
0
100
AcDbDictionary
280
0
281
1
3
ACAD_GROUP
350
205
3
ACAD_MLINESTYLE
350
206
0
DICTIONARY
5
205
330
0
100
AcDbDictionary
280
0
281
1
0
DICTIONARY
5
206
330
0
100
AcDbDictionary
280
0
281
1
3
Standard
350
18
0
MLINESTYLE
5
18
330
206
100
AcDbMlineStyle
2
Standard
70
0
3

62
256
51
90
52
90
71
2
49
-0.5
62
256
6
ByLayer
49
0.5
62
256
6
ByLayer
0
RASTERVARIABLES
5
1f2
330

100
AcDbRasterVariables
90
0
70
1
71
1
72
1
0
ENDSEC
0
EOF
