0
SECTION
2
HEADER
9
$ACADVER
1
AC1015
9
$DWGCODEPAGE
3
ANSI_1252
9
$HANDSEED
5
216
9
$ANGBASE
50
0
9
$ANGDIR
70
0
9
$ATTMODE
70
1
9
$AUNITS
70
0
9
$AUPREC
70
0
9
$CECOLOR
62
256
9
$CELTSCALE
40
1
9
$CELTYPE
6
ByLayer
9
$CELWEIGHT
370
18
9
$CLAYER
8
0
9
$CMLJUST
70
0
9
$CMLSCALE
40
1
9
$CMLSTYLE
2
Standard
9
$DIMSTYLE
2
Standard
9
$TEXTSIZE
40
0.2
9
$TEXTSTYLE
7
Standard
9
$LUNITS
70
2
9
$LUPREC
70
4
9
$EXTNAMES
290
1
9
$INSUNITS
70
4
9
$LTSCALE
40
1
9
$LWDISPLAY
290
1
9
$PDMODE
70
0
9
$PDSIZE
40
0
9
$PLINEGEN
70
0
0
ENDSEC
0
SECTION
2
CLASSES
0
CLASS
1
RASTERVARIABLES
2
AcDbRasterVariables
3
ISM
90
0
280
0
281
0
0
ENDSEC
0
SECTION
2
TABLES
0
TABLE
2
VPORT
5
20c
100
AcDbSymbolTable
0
VPORT
5
1
100
AcDbSymbolTableRecord
100
AcDbViewportTableRecord
2
*Active
70
0
10
0
20
0
11
1
21
1
12
-1
22
1
13
0
23
0
14
0.5
24
0.5
15
10
25
10
16
0
26
0
36
1
17
0
27
0
37
0
0
ENDTAB
0
TABLE
2
LTYPE
5
20d
100
AcDbSymbolTable
0
LTYPE
5
14
100
AcDbSymbolTableRecord
100
AcDbLinetypeTableRecord
70
0
2
ByBlock
3

72
65
73
0
40
0
0
LTYPE
5
15
100
AcDbSymbolTableRecord
100
AcDbLinetypeTableRecord
70
0
2
ByLayer
3

72
65
73
0
40
0
0
LTYPE
5
16
100
AcDbSymbolTableRecord
100
AcDbLinetypeTableRecord
70
0
2
Continuous
3
Solid line
72
65
73
0
40
0
0
LTYPE
5
6E
100
AcDbSymbolTableRecord
100
AcDbLinetypeTableRecord
70
0
2
CENTER
3
____ _ ____ _ ____ _ ____
72
65
73
4
40
47.5
49
22
74
0
49
-8.5
74
0
49
8.5
74
0
49
-8.5
74
0
0
LTYPE
5
6F
100
AcDbSymbolTableRecord
100
AcDbLinetypeTableRecord
70
0
2
DASHED
3
__ __ __ __ __ __ __ __ __
72
65
73
2
40
25.72
49
12.86
74
0
49
-12.86
74
0
0
ENDTAB
0
TABLE
2
LAYER
5
20e
100
AcDbSymbolTable
0
LAYER
5
10
100
AcDbSymbolTableRecord
100
AcDbLayerTableRecord
2
0
70
0
62
7
6
Continuous
290
1
370
-3
390
0
0
LAYER
5
71
100
AcDbSymbolTableRecord
100
AcDbLayerTableRecord
2
81
70
0
62
-3
6
Continuous
290
1
370
-3
390
0
0
LAYER
5
73
100
AcDbSymbolTableRecord
100
AcDbLayerTableRecord
2
1
70
0
62
4
6
Continuous
290
1
370
-3
390
0
0
LAYER
5
75
100
AcDbSymbolTableRecord
100
AcDbLayerTableRecord
2
80
70
0
62
-6
6
Continuous
290
1
370
-3
390
0
0
LAYER
5
82
100
AcDbSymbolTableRecord
100
AcDbLayerTableRecord
2
4
70
0
62
-2
6
CENTER
290
1
370
-3
390
0
0
LAYER
5
152
100
AcDbSymbolTableRecord
100
AcDbLayerTableRecord
2
Defpoints
70
0
62
7
6
Continuous
290
0
370
-3
390
0
0
LAYER
5
1f8
100
AcDbSymbolTableRecord
100
AcDbLayerTableRecord
2
SK4
70
0
62
2
6
CENTER
290
1
370
-3
390
0
0
LAYER
5
1f9
100
AcDbSymbolTableRecord
100
AcDbLayerTableRecord
2
SK1
70
0
62
4
6
Continuous
290
1
370
-3
390
0
0
LAYER
5
1fa
100
AcDbSymbolTableRecord
100
AcDbLayerTableRecord
2
SK2
70
0
62
7
6
Continuous
290
1
370
-3
390
0
0
LAYER
5
1fb
100
AcDbSymbolTableRecord
100
AcDbLayerTableRecord
2
SK6
70
0
62
5
6
Continuous
290
1
370
-3
390
0
0
ENDTAB
0
TABLE
2
STYLE
5
20f
100
AcDbSymbolTable
0
STYLE
5
11
100
AcDbSymbolTableRecord
100
AcDbTextStyleTableRecord
2
Standard
3
txt
70
0
71
0
40
0
41
1
42
0
50
0
0
STYLE
5
125
100
AcDbSymbolTableRecord
100
AcDbTextStyleTableRecord
2
iso_b_vert
3
simplex.shx
70
0
71
0
40
0
41
1
42
0
50
0
0
STYLE
5
126
100
AcDbSymbolTableRecord
100
AcDbTextStyleTableRecord
2
DWGDirectTextStyle
3
simplex
70
0
71
0
40
0
41
1
42
0
50
0
0
ENDTAB
0
TABLE
2
DIMSTYLE
5
210
100
AcDbSymbolTable
100
AcDbDimStyleTable
0
DIMSTYLE
105
27
100
AcDbSymbolTableRecord
100
AcDbDimStyleTableRecord
2
Standard
70
0
3
<>
41
0.18
42
0.0625
44
0.18
140
0.18
147
0.09
73
0
74
0
77
1
271
2
275
0
278
52
280
0
340
11
0
ENDTAB
0
TABLE
2
VIEW
5
211
100
AcDbSymbolTable
0
ENDTAB
0
TABLE
2
UCS
5
212
100
AcDbSymbolTable
0
ENDTAB
0
TABLE
2
APPID
5
213
100
AcDbSymbolTable
0
APPID
5
12
100
AcDbSymbolTableRecord
100
AcDbRegAppTableRecord
2
ACAD
70
0
0
APPID
5
14E
100
AcDbSymbolTableRecord
100
AcDbRegAppTableRecord
2
ACAD_DSTYLE_DIMBREAK
70
0
0
APPID
5
1B7
100
AcDbSymbolTableRecord
100
AcDbRegAppTableRecord
2
ACAD_DSTYLE_DIM_LINETYPE
70
0
0
APPID
5
1B8
100
AcDbSymbolTableRecord
100
AcDbRegAppTableRecord
2
ACAD_DSTYLE_DIM_EXT1_LINETYPE
70
0
0
APPID
5
1B9
100
AcDbSymbolTableRecord
100
AcDbRegAppTableRecord
2
ACAD_DSTYLE_DIM_EXT2_LINETYPE
70
0
0
APPID
5
1F4
100
AcDbSymbolTableRecord
100
AcDbRegAppTableRecord
2
ACAD_MLEADERVER
70
0
0
ENDTAB
0
TABLE
2
BLOCK_RECORD
5
214
100
AcDbSymbolTable
0
BLOCK_RECORD
5
1F
100
AcDbSymbolTableRecord
100
AcDbBlockTableRecord
2
*Model_Space
340
0
70
0
0
BLOCK_RECORD
5
1B
100
AcDbSymbolTableRecord
100
AcDbBlockTableRecord
2
*Paper_Space
340
0
70
0
0
BLOCK_RECORD
5
23
100
AcDbSymbolTableRecord
100
AcDbBlockTableRecord
2
*Paper_Space0
340
0
70
0
0
BLOCK_RECORD
5
143
100
AcDbSymbolTableRecord
100
AcDbBlockTableRecord
2
LABLE3D_1
340
0
70
0
0
BLOCK_RECORD
5
153
100
AcDbSymbolTableRecord
100
AcDbBlockTableRecord
2
*D2
340
0
70
0
0
BLOCK_RECORD
5
15F
100
AcDbSymbolTableRecord
100
AcDbBlockTableRecord
2
_U0
340
0
70
0
0
BLOCK_RECORD
5
16B
100
AcDbSymbolTableRecord
100
AcDbBlockTableRecord
2
*D4
340
0
70
0
0
BLOCK_RECORD
5
177
100
AcDbSymbolTableRecord
100
AcDbBlockTableRecord
2
_U1
340
0
70
0
0
BLOCK_RECORD
5
183
100
AcDbSymbolTableRecord
100
AcDbBlockTableRecord
2
*D6
340
0
70
0
0
BLOCK_RECORD
5
190
100
AcDbSymbolTableRecord
100
AcDbBlockTableRecord
2
_U2
340
0
70
0
0
ENDTAB
0
ENDSEC
0
SECTION
2
BLOCKS
0
BLOCK
5
20
100
AcDbEntity
8
0
100
AcDbBlockBegin
2
*Model_Space
70
0
10
0
20
0
30
0
3
*Model_Space
0
ENDBLK
5
21
100
AcDbEntity
8
0
100
AcDbBlockEnd
0
BLOCK
5
1C
100
AcDbEntity
8
0
100
AcDbBlockBegin
2
*Paper_Space
70
0
10
0
20
0
30
0
3
*Paper_Space
0
ENDBLK
5
1D
100
AcDbEntity
8
0
100
AcDbBlockEnd
0
BLOCK
5
24
100
AcDbEntity
8
0
100
AcDbBlockBegin
2
*Paper_Space0
70
0
10
0
20
0
30
0
3
*Paper_Space0
0
ENDBLK
5
25
100
AcDbEntity
8
0
100
AcDbBlockEnd
0
BLOCK
5
14A
100
AcDbEntity
8
0
100
AcDbBlockBegin
2
LABLE3D_1
70
0
10
94.300458
20
-20.39795
30
0
3
LABLE3D_1
0
MTEXT
5
148
100
AcDbEntity
8
1
62
256
6
ByLayer
370
18
48
1
60
0
100
AcDbMText
10
95.959458
20
-22.512836
30
0
210
0
220
0
230
1
1
\W0.7167;R2
40
3
41
0
44
1.084337
50
0
71
7
72
5
7
iso_b_vert
0
ENDBLK
5
14B
100
AcDbEntity
8
0
100
AcDbBlockEnd
0
BLOCK
5
154
100
AcDbEntity
8
0
100
AcDbBlockBegin
2
*D2
70
1
10
0
20
0
30
0
3
*D2
0
LINE
5
156
100
AcDbEntity
8
0
62
256
6
ByLayer
370
-2
48
1
60
0
100
AcDbLine
10
-45
20
4.4125
30
0
11
-45
21
-42.85
31
0
39
0
210
0
220
0
230
1
0
LINE
5
157
100
AcDbEntity
8
0
62
256
6
ByLayer
370
-2
48
1
60
0
100
AcDbLine
10
80
20
0.4125
30
0
11
80
21
-42.85
31
0
39
0
210
0
220
0
230
1
0
LINE
5
158
100
AcDbEntity
8
0
62
256
6
ByLayer
370
-2
48
1
60
0
100
AcDbLine
10
-41.5
20
-40.85
30
0
11
76.5
21
-40.85
31
0
39
0
210
0
220
0
230
1
0
SOLID
5
159
100
AcDbEntity
8
0
62
256
6
ByLayer
370
-1
48
1
60
0
100
AcDbTrace
10
-41.5
20
-40.266667
30
0
11
-41.5
21
-41.433333
31
0
12
-45
22
-40.85
32
0
13
-45
23
-40.85
33
0
39
0
210
0
220
0
230
1
0
SOLID
5
15A
100
AcDbEntity
8
0
62
256
6
ByLayer
370
-1
48
1
60
0
100
AcDbTrace
10
76.5
20
-41.433333
30
0
11
76.5
21
-40.266667
31
0
12
80
22
-40.85
32
0
13
80
23
-40.85
33
0
39
0
210
0
220
0
230
1
0
MTEXT
5
15B
100
AcDbEntity
8
0
62
256
6
ByLayer
370
18
48
1
60
0
100
AcDbMText
10
17.5
20
-34.85
30
0
210
0
220
0
230
1
1
\A1;125
40
3
41
0
44
1
50
0
71
5
72
5
7
iso_b_vert
0
POINT
5
15C
100
AcDbEntity
8
Defpoints
62
0
6
ByLayer
370
-1
48
1
60
0
100
AcDbPoint
10
-45
20
6
30
0
39
0
210
0
220
0
230
1
50
360
0
POINT
5
15D
100
AcDbEntity
8
Defpoints
62
0
6
ByLayer
370
-1
48
1
60
0
100
AcDbPoint
10
80
20
2
30
0
39
0
210
0
220
0
230
1
50
360
0
POINT
5
15E
100
AcDbEntity
8
Defpoints
62
0
6
ByLayer
370
-1
48
1
60
0
100
AcDbPoint
10
80
20
-40.85
30
0
39
0
210
0
220
0
230
1
50
360
0
ENDBLK
5
155
100
AcDbEntity
8
0
100
AcDbBlockEnd
0
BLOCK
5
166
100
AcDbEntity
8
0
100
AcDbBlockBegin
2
_U0
70
0
10
0
20
0
30
0
3
_U0
0
MTEXT
5
160
100
AcDbEntity
8
SK2
62
256
6
ByLayer
370
18
48
1
60
0
100
AcDbMText
10
15.121201
20
-39.964886
30
0
210
0
220
0
230
1
1
\W0.6217;125
40
3
41
0
44
1.084337
50
0
71
7
72
5
7
iso_b_vert
0
LINE
5
161
100
AcDbEntity
8
SK2
62
256
6
ByLayer
370
13
48
1
60
0
100
AcDbLine
10
-45
20
4.4125
30
0
11
-45
21
-42.85
31
0
39
0
210
0
220
0
230
1
0
LINE
5
162
100
AcDbEntity
8
SK2
62
256
6
ByLayer
370
13
48
1
60
0
100
AcDbLine
10
80
20
0.4125
30
0
11
80
21
-42.85
31
0
39
0
210
0
220
0
230
1
0
LINE
5
163
100
AcDbEntity
8
SK2
62
256
6
ByLayer
370
13
48
1
60
0
100
AcDbLine
10
-45
20
-40.85
30
0
11
80
21
-40.85
31
0
39
0
210
0
220
0
230
1
0
SOLID
5
164
100
AcDbEntity
8
SK2
62
256
6
ByLayer
370
18
48
1
60
0
100
AcDbTrace
10
-45
20
-40.85
30
0
11
-41.500002
21
-40.389216
31
0
12
-41.499998
22
-41.310784
32
0
13
-41.499998
23
-41.310784
33
0
39
0
210
0
220
0
230
1
0
SOLID
5
165
100
AcDbEntity
8
SK2
62
256
6
ByLayer
370
18
48
1
60
0
100
AcDbTrace
10
80
20
-40.85
30
0
11
76.500002
21
-41.310784
31
0
12
76.499998
22
-40.389216
32
0
13
76.499998
23
-40.389216
33
0
39
0
210
0
220
0
230
1
0
ENDBLK
5
167
100
AcDbEntity
8
0
100
AcDbBlockEnd
0
BLOCK
5
16C
100
AcDbEntity
8
0
100
AcDbBlockBegin
2
*D4
70
1
10
0
20
0
30
0
3
*D4
0
LINE
5
16E
100
AcDbEntity
8
0
62
256
6
ByLayer
370
-2
48
1
60
0
100
AcDbLine
10
80
20
-3.5875
30
0
11
80
21
-30.85
31
0
39
0
210
0
220
0
230
1
0
LINE
5
16F
100
AcDbEntity
8
0
62
256
6
ByLayer
370
-2
48
1
60
0
100
AcDbLine
10
0
20
-7.5875
30
0
11
0
21
-30.85
31
0
39
0
210
0
220
0
230
1
0
LINE
5
170
100
AcDbEntity
8
0
62
256
6
ByLayer
370
-2
48
1
60
0
100
AcDbLine
10
76.5
20
-28.85
30
0
11
3.5
21
-28.85
31
0
39
0
210
0
220
0
230
1
0
SOLID
5
171
100
AcDbEntity
8
0
62
256
6
ByLayer
370
-1
48
1
60
0
100
AcDbTrace
10
76.5
20
-29.433333
30
0
11
76.5
21
-28.266667
31
0
12
80
22
-28.85
32
0
13
80
23
-28.85
33
0
39
0
210
0
220
0
230
1
0
SOLID
5
172
100
AcDbEntity
8
0
62
256
6
ByLayer
370
-1
48
1
60
0
100
AcDbTrace
10
3.5
20
-28.266667
30
0
11
3.5
21
-29.433333
31
0
12
0
22
-28.85
32
0
13
0
23
-28.85
33
0
39
0
210
0
220
0
230
1
0
MTEXT
5
173
100
AcDbEntity
8
0
62
256
6
ByLayer
370
18
48
1
60
0
100
AcDbMText
10
40
20
-22.85
30
0
210
0
220
0
230
1
1
\A1;80
40
3
41
0
44
1
50
0
71
5
72
5
7
iso_b_vert
0
POINT
5
174
100
AcDbEntity
8
Defpoints
62
0
6
ByLayer
370
-1
48
1
60
0
100
AcDbPoint
10
80
20
-2
30
0
39
0
210
0
220
0
230
1
50
360
0
POINT
5
175
100
AcDbEntity
8
Defpoints
62
0
6
ByLayer
370
-1
48
1
60
0
100
AcDbPoint
10
0
20
-6
30
0
39
0
210
0
220
0
230
1
50
360
0
POINT
5
176
100
AcDbEntity
8
Defpoints
62
0
6
ByLayer
370
-1
48
1
60
0
100
AcDbPoint
10
0
20
-28.85
30
0
39
0
210
0
220
0
230
1
50
360
0
ENDBLK
5
16D
100
AcDbEntity
8
0
100
AcDbBlockEnd
0
BLOCK
5
17E
100
AcDbEntity
8
0
100
AcDbBlockBegin
2
_U1
70
0
10
0
20
0
30
0
3
_U1
0
MTEXT
5
178
100
AcDbEntity
8
SK2
62
256
6
ByLayer
370
18
48
1
60
0
100
AcDbMText
10
38.367172
20
-27.964886
30
0
210
0
220
0
230
1
1
\W0.6740;80
40
3
41
0
44
1.084337
50
0
71
7
72
5
7
iso_b_vert
0
LINE
5
179
100
AcDbEntity
8
SK2
62
256
6
ByLayer
370
13
48
1
60
0
100
AcDbLine
10
80
20
-3.5875
30
0
11
80
21
-30.85
31
0
39
0
210
0
220
0
230
1
0
LINE
5
17A
100
AcDbEntity
8
SK2
62
256
6
ByLayer
370
13
48
1
60
0
100
AcDbLine
10
0
20
-7.5875
30
0
11
0
21
-30.85
31
0
39
0
210
0
220
0
230
1
0
LINE
5
17B
100
AcDbEntity
8
SK2
62
256
6
ByLayer
370
13
48
1
60
0
100
AcDbLine
10
80
20
-28.85
30
0
11
0
21
-28.85
31
0
39
0
210
0
220
0
230
1
0
SOLID
5
17C
100
AcDbEntity
8
SK2
62
256
6
ByLayer
370
18
48
1
60
0
100
AcDbTrace
10
80
20
-28.85
30
0
11
76.500002
21
-29.310784
31
0
12
76.499998
22
-28.389216
32
0
13
76.499998
23
-28.389216
33
0
39
0
210
0
220
0
230
1
0
SOLID
5
17D
100
AcDbEntity
8
SK2
62
256
6
ByLayer
370
18
48
1
60
0
100
AcDbTrace
10
0
20
-28.85
30
0
11
3.499998
21
-28.389216
31
0
12
3.500002
22
-29.310784
32
0
13
3.500002
23
-29.310784
33
0
39
0
210
0
220
0
230
1
0
ENDBLK
5
17F
100
AcDbEntity
8
0
100
AcDbBlockEnd
0
BLOCK
5
184
100
AcDbEntity
8
0
100
AcDbBlockBegin
2
*D6
70
1
10
0
20
0
30
0
3
*D6
0
LINE
5
186
100
AcDbEntity
8
0
62
256
6
ByLayer
370
-2
48
1
60
0
100
AcDbLine
10
80
20
-3.5875
30
0
11
80
21
-16.85
31
0
39
0
210
0
220
0
230
1
0
LINE
5
187
100
AcDbEntity
8
0
62
256
6
ByLayer
370
-2
48
1
60
0
100
AcDbLine
10
68
20
-7.5875
30
0
11
68
21
-16.85
31
0
39
0
210
0
220
0
230
1
0
LINE
5
188
100
AcDbEntity
8
0
62
256
6
ByLayer
370
-2
48
1
60
0
100
AcDbLine
10
83.5
20
-14.85
30
0
11
87
21
-14.85
31
0
39
0
210
0
220
0
230
1
0
LINE
5
189
100
AcDbEntity
8
0
62
256
6
ByLayer
370
-2
48
1
60
0
100
AcDbLine
10
64.5
20
-14.85
30
0
11
61
21
-14.85
31
0
39
0
210
0
220
0
230
1
0
SOLID
5
18A
100
AcDbEntity
8
0
62
256
6
ByLayer
370
-1
48
1
60
0
100
AcDbTrace
10
83.5
20
-14.266667
30
0
11
83.5
21
-15.433333
31
0
12
80
22
-14.85
32
0
13
80
23
-14.85
33
0
39
0
210
0
220
0
230
1
0
SOLID
5
18B
100
AcDbEntity
8
0
62
256
6
ByLayer
370
-1
48
1
60
0
100
AcDbTrace
10
64.5
20
-15.433333
30
0
11
64.5
21
-14.266667
31
0
12
68
22
-14.85
32
0
13
68
23
-14.85
33
0
39
0
210
0
220
0
230
1
0
MTEXT
5
18C
100
AcDbEntity
8
0
62
256
6
ByLayer
370
18
48
1
60
0
100
AcDbMText
10
74
20
-8.85
30
0
210
0
220
0
230
1
1
\A1;12
40
3
41
0
44
1
50
0
71
5
72
5
7
iso_b_vert
0
POINT
5
18D
100
AcDbEntity
8
Defpoints
62
0
6
ByLayer
370
-1
48
1
60
0
100
AcDbPoint
10
80
20
-2
30
0
39
0
210
0
220
0
230
1
50
360
0
POINT
5
18E
100
AcDbEntity
8
Defpoints
62
0
6
ByLayer
370
-1
48
1
60
0
100
AcDbPoint
10
68
20
-6
30
0
39
0
210
0
220
0
230
1
50
360
0
POINT
5
18F
100
AcDbEntity
8
Defpoints
62
0
6
ByLayer
370
-1
48
1
60
0
100
AcDbPoint
10
68
20
-14.85
30
0
39
0
210
0
220
0
230
1
50
360
0
ENDBLK
5
185
100
AcDbEntity
8
0
100
AcDbBlockEnd
0
BLOCK
5
197
100
AcDbEntity
8
0
100
AcDbBlockBegin
2
_U2
70
0
10
0
20
0
30
0
3
_U2
0
MTEXT
5
191
100
AcDbEntity
8
SK2
62
256
6
ByLayer
370
18
48
1
60
0
100
AcDbMText
10
72.742115
20
-13.964886
30
0
210
0
220
0
230
1
1
\W0.5321;12
40
3
41
0
44
1.084337
50
0
71
7
72
5
7
iso_b_vert
0
LINE
5
192
100
AcDbEntity
8
SK2
62
256
6
ByLayer
370
13
48
1
60
0
100
AcDbLine
10
80
20
-3.5875
30
0
11
80
21
-16.85
31
0
39
0
210
0
220
0
230
1
0
LINE
5
193
100
AcDbEntity
8
SK2
62
256
6
ByLayer
370
13
48
1
60
0
100
AcDbLine
10
68
20
-7.5875
30
0
11
68
21
-16.85
31
0
39
0
210
0
220
0
230
1
0
LINE
5
194
100
AcDbEntity
8
SK2
62
256
6
ByLayer
370
13
48
1
60
0
100
AcDbLine
10
80
20
-14.85
30
0
11
68
21
-14.85
31
0
39
0
210
0
220
0
230
1
0
SOLID
5
195
100
AcDbEntity
8
SK2
62
256
6
ByLayer
370
18
48
1
60
0
100
AcDbTrace
10
80
20
-14.85
30
0
11
76.500002
21
-15.310784
31
0
12
76.499998
22
-14.389216
32
0
13
76.499998
23
-14.389216
33
0
39
0
210
0
220
0
230
1
0
SOLID
5
196
100
AcDbEntity
8
SK2
62
256
6
ByLayer
370
18
48
1
60
0
100
AcDbTrace
10
68
20
-14.85
30
0
11
71.499998
21
-14.389216
31
0
12
71.500002
22
-15.310784
32
0
13
71.500002
23
-15.310784
33
0
39
0
210
0
220
0
230
1
0
ENDBLK
5
198
100
AcDbEntity
8
0
100
AcDbBlockEnd
0
ENDSEC
0
SECTION
2
ENTITIES
0
ARC
5
B4
100
AcDbEntity
8
1
62
256
6
ByLayer
370
18
48
1
60
0
100
AcDbCircle
39
0
10
78
20
0
30
0
40
2
210
0
220
0
230
1
100
AcDbArc
50
296.556543
51
350.150029
0
ARC
5
B5
100
AcDbEntity
8
1
62
256
6
ByLayer
370
18
48
1
60
0
100
AcDbCircle
39
0
10
78
20
0
30
0
40
2
210
0
220
0
230
1
100
AcDbArc
50
350.150029
51
10.75282
0
ARC
5
B6
100
AcDbEntity
8
1
62
256
6
ByLayer
370
18
48
1
60
0
100
AcDbCircle
39
0
10
78
20
0
30
0
40
2
210
0
220
0
230
1
100
AcDbArc
50
10.75282
51
63.442505
0
ARC
5
B7
100
AcDbEntity
8
SK2
62
256
6
ByLayer
370
13
48
1
60
0
100
AcDbCircle
39
0
10
89.428571
20
0
30
0
40
56.3297905902587
210
0
220
0
230
1
100
AcDbArc
50
170.073754
51
180
0
ARC
5
B8
100
AcDbEntity
8
SK2
62
256
6
ByLayer
370
13
48
1
60
0
100
AcDbCircle
39
0
10
89.428571
20
0
30
0
40
56.3297905902587
210
0
220
0
230
1
100
AcDbArc
50
162.314011
51
170.073754
0
POINT
5
70
100
AcDbEntity
8
81
62
256
6
ByLayer
370
18
48
1
60
0
100
AcDbPoint
10
80
20
0
30
0
39
0
210
0
220
0
230
1
50
360
0
POINT
5
72
100
AcDbEntity
8
1
62
256
6
ByLayer
370
18
48
1
60
0
100
AcDbPoint
10
-45
20
0
30
0
39
0
210
0
220
0
230
1
50
360
0
POINT
5
74
100
AcDbEntity
8
80
62
256
6
ByLayer
370
18
48
1
60
0
100
AcDbPoint
10
0
20
0
30
0
39
0
210
0
220
0
230
1
50
360
0
POINT
5
76
100
AcDbEntity
8
1
62
256
6
ByLayer
370
18
48
1
60
1
100
AcDbPoint
10
-45
20
6
30
0
39
0
210
0
220
0
230
1
50
360
0
POINT
5
77
100
AcDbEntity
8
1
62
256
6
ByLayer
370
18
48
1
60
1
100
AcDbPoint
10
80
20
2
30
0
39
0
210
0
220
0
230
1
50
360
0
POINT
5
78
100
AcDbEntity
8
1
62
256
6
ByLayer
370
18
48
1
60
1
100
AcDbPoint
10
80
20
-2
30
0
39
0
210
0
220
0
230
1
50
360
0
POINT
5
79
100
AcDbEntity
8
1
62
256
6
ByLayer
370
18
48
1
60
1
100
AcDbPoint
10
0
20
-6
30
0
39
0
210
0
220
0
230
1
50
360
0
POINT
5
7A
100
AcDbEntity
8
1
62
256
6
ByLayer
370
18
48
1
60
1
100
AcDbPoint
10
80
20
-2
30
0
39
0
210
0
220
0
230
1
50
360
0
POINT
5
7B
100
AcDbEntity
8
1
62
256
6
ByLayer
370
18
48
1
60
1
100
AcDbPoint
10
68
20
-6
30
0
39
0
210
0
220
0
230
1
50
360
0
POINT
5
7C
100
AcDbEntity
8
1
62
256
6
ByLayer
370
18
48
1
60
1
100
AcDbPoint
10
79.7
20
-1.89795
30
0
39
0
210
0
220
0
230
1
50
360
0
SPLINE
5
B9
100
AcDbEntity
8
1
62
256
6
ByLayer
370
18
48
1
60
0
100
AcDbSpline
70
4
71
3
72
14
73
10
40
0
40
0
40
0
40
0
40
0.198654443399686
40
0.198654443399686
40
0.397308886799373
40
0.397308886799373
40
0.794617773598787
40
0.794617773598787
40
1
40
1
40
1
40
1
41
1
10
79.1564198975996
20
1.3371767369959
30
0
41
1
10
79.1353410549615
20
1.34874717391759
30
-1E-16
41
1
10
79.1147843404771
20
1.35970649363446
30
0
41
1
10
79.0746233970569
20
1.38044961066757
30
0
41
1
10
79.0550036333113
20
1.3902393709717
30
0
41
1
10
78.9981161909686
20
1.41763233409284
30
0
41
1
10
78.9625857328174
20
1.43339109463784
30
0
41
1
10
78.9113429483334
20
1.45431312181785
30
0
41
1
10
78.8943349416744
20
1.46091958029697
30
0
41
1
10
78.8777245406115
20
1.46706142885694
30
0
0
SPLINE
5
BA
100
AcDbEntity
8
1
62
256
6
ByLayer
370
18
48
1
60
0
100
AcDbSpline
70
4
71
3
72
28
73
24
40
0
40
0
40
0
40
0
40
0.249999999999772
40
0.249999999999772
40
0.37499999999969
40
0.37499999999969
40
0.437499999999648
40
0.437499999999648
40
0.499999999999605
40
0.499999999999605
40
0.624999999999522
40
0.624999999999522
40
0.687499999999533
40
0.687499999999533
40
0.749999999999545
40
0.749999999999545
40
0.87499999999969
40
0.87499999999969
40
0.906249999999727
40
0.906249999999727
40
0.937499999999765
40
0.937499999999765
40
1
40
1
40
1
40
1
41
1
10
78.729529991246
20
0.627315900109409
30
1E-16
41
1
10
78.7310877185025
20
0.644683825681
30
0
41
1
10
78.7356630563055
20
0.661953074247918
30
0
41
1
10
78.7457568047043
20
0.6883816909328
30
-1E-16
41
1
10
78.7495770546671
20
0.697015116543355
30
-1E-16
41
1
10
78.7558469287263
20
0.709694889555976
30
-1E-16
41
1
10
78.7580296361197
20
0.713879204764794
30
1E-16
41
1
10
78.7625800755715
20
0.722163583486918
30
1E-16
41
1
10
78.7649605004812
20
0.726284099204065
30
1E-16
41
1
10
78.772282945827
20
0.738314574854712
30
0
41
1
10
78.7773955756779
20
0.745920523076165
30
0
41
1
10
78.7856029171253
20
0.756579707714877
30
0
41
1
10
78.7884307071237
20
0.760005747780099
30
0
41
1
10
78.7943623021794
20
0.766531029158614
30
0
41
1
10
78.7974752358318
20
0.769636365887123
30
0
41
1
10
78.8072063715341
20
0.77800992723985
30
0
41
1
10
78.8143637979914
20
0.782510240374762
30
-1E-16
41
1
10
78.8243662817978
20
0.784703558923042
30
-1E-16
41
1
10
78.8264522276623
20
0.784970489507344
30
-1E-16
41
1
10
78.8306335320901
20
0.785098140060398
30
-1E-16
41
1
10
78.8327315820207
20
0.784964285045675
30
-1E-16
41
1
10
78.8390585245608
20
0.783982504181409
30
-1E-16
41
1
10
78.8433169146311
20
0.782530425192078
30
-1E-16
41
1
10
78.847410636944
20
0.780523516444305
30
-1E-16
0
SPLINE
5
BB
100
AcDbEntity
8
1
62
256
6
ByLayer
370
18
48
1
60
0
100
AcDbSpline
70
4
71
3
72
22
73
18
40
0
40
0
40
0
40
0
40
0.250000000000067
40
0.250000000000067
40
0.500000000000134
40
0.500000000000134
40
0.625000000000166
40
0.625000000000166
40
0.750000000000199
40
0.750000000000199
40
0.812500000000149
40
0.812500000000149
40
0.8750000000001
40
0.8750000000001
40
0.93750000000005
40
0.93750000000005
40
1
40
1
40
1
40
1
41
1
10
78.8474106369549
20
0.780523516439075
30
-1E-16
41
1
10
78.8646649894567
20
0.772064732886207
30
0
41
1
10
78.8820260310382
20
0.764070255184919
30
0
41
1
10
78.9169564934506
20
0.749476936753979
30
0
41
1
10
78.9345582134818
20
0.742828976060451
30
0
41
1
10
78.9610107691836
20
0.734847834989381
30
1E-16
41
1
10
78.9697717471907
20
0.732544517720669
30
1E-16
41
1
10
78.9870675449709
20
0.729100527260101
30
1E-16
41
1
10
78.9955551757483
20
0.727953559090537
30
1E-16
41
1
10
79.0074587682921
20
0.727939554363161
30
1E-16
41
1
10
79.0113195742046
20
0.728225671139455
30
1E-16
41
1
10
79.018508857137
20
0.729711069902265
30
1E-16
41
1
10
79.0217768766508
20
0.730902523619335
30
1E-16
41
1
10
79.0271565315702
20
0.734539178930504
30
1E-16
41
1
10
79.0291719147527
20
0.73693408352392
30
0
41
1
10
79.0315445999406
20
0.742968131078726
30
0
41
1
10
79.0318393915534
20
0.746467062790401
30
0
41
1
10
79.031425153115
20
0.750229372595413
30
0
0
SPLINE
5
BC
100
AcDbEntity
8
1
62
256
6
ByLayer
370
18
48
1
60
0
100
AcDbSpline
70
4
71
3
72
16
73
12
40
0
40
0
40
0
40
0
40
0.12500000000001
40
0.12500000000001
40
0.25000000000002
40
0.25000000000002
40
0.500000000000013
40
0.500000000000013
40
0.750000000000007
40
0.750000000000007
40
1
40
1
40
1
40
1
41
1
10
79.1564198975985
20
-0.141342829740608
30
1E-16
41
1
10
79.1353410549594
20
-0.113455445810445
30
0
41
1
10
79.114784340474
20
-0.0851694498140034
30
0
41
1
10
79.0746233970521
20
-0.0278725175473085
30
1E-16
41
1
10
79.0550036333057
20
0.0011722255445079
30
0
41
1
10
78.9981161909604
20
0.0882821723727147
30
0
41
1
10
78.9625857328079
20
0.146671097801459
30
1E-16
41
1
10
78.8950247112007
20
0.263822146765108
30
0
41
1
10
78.8629441735175
20
0.322563558211783
30
-1E-16
41
1
10
78.8013626668396
20
0.440267258339333
30
1E-16
41
1
10
78.7719048641403
20
0.499248130158605
30
-1E-16
41
1
10
78.7434863844311
20
0.558337943130113
30
0
0
SPLINE
5
BD
100
AcDbEntity
8
1
62
256
6
ByLayer
370
18
48
1
60
0
100
AcDbSpline
70
4
71
3
72
10
73
6
40
0
40
0
40
0
40
0
40
0.5
40
0.5
40
1
40
1
40
1
40
1
41
1
10
78.7434863844312
20
0.558337943130113
30
0
41
1
10
78.7382202911027
20
0.569287595365211
30
0
41
1
10
78.7342663004582
20
0.580483179355952
30
0
41
1
10
78.7293692776341
20
0.603515917107643
30
-1E-16
41
1
10
78.7284456219972
20
0.615462479581879
30
-1E-16
41
1
10
78.729529991246
20
0.627315900109409
30
1E-16
0
SPLINE
5
BE
100
AcDbEntity
8
1
62
256
6
ByLayer
370
18
48
1
60
0
100
AcDbSpline
70
4
71
3
72
20
73
16
40
0
40
0
40
0
40
0
40
0.344524350953181
40
0.344524350953181
40
0.516786526429771
40
0.516786526429771
40
0.602917614168124
40
0.602917614168124
40
0.689048701906476
40
0.689048701906476
40
0.861310877383311
40
0.861310877383311
40
0.94744196512173
40
0.94744196512173
40
1
40
1
40
1
40
1
41
1
10
78.729529991246
20
-0.890152098626089
30
1E-16
41
1
10
78.7310877184894
20
-0.874677777586982
30
1E-16
41
1
10
78.7356630562307
20
-0.861031006982643
30
0
41
1
10
78.7457568044886
20
-0.843928857460099
30
0
41
1
10
78.7495770544062
20
-0.838962815263415
30
0
41
1
10
78.7558469283848
20
-0.832608743422071
30
0
41
1
10
78.7580296357501
20
-0.830671797581317
30
-1E-16
41
1
10
78.7625800751421
20
-0.82716408694526
30
-1E-16
41
1
10
78.76496050002
20
-0.825586929938396
30
-1E-16
41
1
10
78.7722829452798
20
-0.821489081855191
30
-1E-16
41
1
10
78.777395575069
20
-0.819576398659137
30
-1E-16
41
1
10
78.7856029164003
20
-0.817968819410567
30
-1E-16
41
1
10
78.7884307063561
20
-0.817645220228769
30
-1E-16
41
1
10
78.7932062625549
20
-0.817505826611779
30
-1E-16
41
1
10
78.795070808298
20
-0.817542660820834
30
-1E-16
41
1
10
78.7969864243008
20
-0.81767642075414
30
-1E-16
0
SPLINE
5
BF
100
AcDbEntity
8
1
62
256
6
ByLayer
370
18
48
1
60
0
100
AcDbSpline
70
4
71
3
72
16
73
12
40
0
40
0
40
0
40
0
40
0.125
40
0.125
40
0.25
40
0.25
40
0.5
40
0.5
40
0.75
40
0.75
40
1
40
1
40
1
40
1
41
1
10
79.1564198975991
20
-1.47851956673753
30
0
41
1
10
79.1353410549611
20
-1.46220261973042
30
0
41
1
10
79.1147843404766
20
-1.44487594345236
30
1E-16
41
1
10
79.0746233970565
20
-1.4083221282217
30
0
41
1
10
79.055003633311
20
-1.38906714543546
30
0
41
1
10
78.9981161909683
20
-1.32935016173278
30
0
41
1
10
78.9625857328173
20
-1.28671999685199
30
0
41
1
10
78.8950247112127
20
-1.1971535833614
30
0
41
1
10
78.8629441735307
20
-1.1502463625265
30
0
41
1
10
78.8013626668551
20
-1.05314382904822
30
0
41
1
10
78.7719048641569
20
-1.00292490447202
30
-1E-16
41
1
10
78.7434863844487
20
-0.951423279001318
30
0
0
SPLINE
5
C0
100
AcDbEntity
8
1
62
256
6
ByLayer
370
18
48
1
60
0
100
AcDbSpline
70
4
71
3
72
10
73
6
40
0
40
0
40
0
40
0
40
0.5
40
0.5
40
1
40
1
40
1
40
1
41
1
10
78.7434863844311
20
-0.9514232789696
30
0
41
1
10
78.7382202911052
20
-0.941879757677924
30
0
41
1
10
78.7342663004521
20
-0.931977115728387
30
0
41
1
10
78.7293692776333
20
-0.911459181510196
30
-1E-16
41
1
10
78.7284456219977
20
-0.900743330616791
30
-1E-16
41
1
10
78.729529991246
20
-0.890152098626089
30
1E-16
0
SPLINE
5
C1
100
AcDbEntity
8
1
62
256
6
ByLayer
370
18
48
1
60
0
100
AcDbSpline
70
4
71
3
72
36
73
32
40
0
40
0
40
0
40
0
40
0.0624999999999966
40
0.0624999999999966
40
0.124999999999993
40
0.124999999999993
40
0.249999999999987
40
0.249999999999987
40
0.312499999999984
40
0.312499999999984
40
0.34374999999999
40
0.34374999999999
40
0.374999999999996
40
0.374999999999996
40
0.500000000000006
40
0.500000000000006
40
0.562500000000011
40
0.562500000000011
40
0.593750000000013
40
0.593750000000013
40
0.625000000000015
40
0.625000000000015
40
0.750000000000012
40
0.750000000000012
40
0.812500000000011
40
0.812500000000011
40
0.843750000000011
40
0.843750000000011
40
0.87500000000001
40
0.87500000000001
40
1
40
1
40
1
40
1
41
1
10
79.0314251531159
20
1.70927679470557
30
0
41
1
10
79.0567511129588
20
1.69266065828899
30
0
41
1
10
79.0820821334917
20
1.67496331063538
30
0
41
1
10
79.1326682763111
20
1.63741042093432
30
0
41
1
10
79.1576487787369
20
1.61776076399877
30
0
41
1
10
79.2317514535158
20
1.55623217739867
30
0
41
1
10
79.2800405121768
20
1.51178748195929
30
0
41
1
10
79.3510778000011
20
1.43991182712281
30
0
41
1
10
79.3745247241928
20
1.41508110355321
30
0
41
1
10
79.4093631949178
20
1.37648544447421
30
0
41
1
10
79.4209463061243
20
1.36336500046841
30
0
41
1
10
79.4438704629291
20
1.33681863134649
30
0
41
1
10
79.4551960281285
20
1.32341220128456
30
0
41
1
10
79.51116022939
20
1.25572740629448
30
0
41
1
10
79.5538248479188
20
1.19950492487976
30
0
41
1
10
79.6147856982641
20
1.11214439157439
30
0
41
1
10
79.6345990320491
20
1.08251753646323
30
0
41
1
10
79.6635395966128
20
1.03730200120589
30
0
41
1
10
79.673056298568
20
1.02210076465977
30
0
41
1
10
79.6918240668372
20
0.991434875248927
30
0
41
1
10
79.7010966315357
20
0.975932725252761
30
0
41
1
10
79.7464301882965
20
0.8983518165264
30
0
41
1
10
79.7795123079032
20
0.835964165316767
30
0
41
1
10
79.8244603574693
20
0.74173713780749
30
0
41
1
10
79.8386603888539
20
0.710222168604588
30
0
41
1
10
79.8587622283553
20
0.662752425365397
30
0
41
1
10
79.8652628968587
20
0.646896147215557
30
0
41
1
10
79.8778577711308
20
0.615110385828842
30
0
41
1
10
79.8839618078979
20
0.599153945067712
30
0
41
1
10
79.9133259813452
20
0.519497258540383
30
0
41
1
10
79.932969248538
20
0.456669199250797
30
0
41
1
10
79.9489198122417
20
0.394280700530032
30
0
0
SPLINE
5
C2
100
AcDbEntity
8
1
62
256
6
ByLayer
370
18
48
1
60
0
100
AcDbSpline
70
4
71
3
72
38
73
34
40
0
40
0
40
0
40
0
40
0.125000000000003
40
0.125000000000003
40
0.250000000000006
40
0.250000000000006
40
0.312500000000007
40
0.312500000000007
40
0.375000000000008
40
0.375000000000008
40
0.43750000000001
40
0.43750000000001
40
0.500000000000011
40
0.500000000000011
40
0.531250000000012
40
0.531250000000012
40
0.562500000000013
40
0.562500000000013
40
0.625000000000011
40
0.625000000000011
40
0.687500000000009
40
0.687500000000009
40
0.718750000000008
40
0.718750000000008
40
0.750000000000007
40
0.750000000000007
40
0.781250000000006
40
0.781250000000006
40
0.812500000000005
40
0.812500000000005
40
0.875000000000003
40
0.875000000000003
40
1
40
1
40
1
40
1
41
1
10
79.9489198122417
20
0.394280700530146
30
0
41
1
10
79.9521136706836
20
0.381788349975949
30
0
41
1
10
79.9551130997734
20
0.369005853021577
30
0
41
1
10
79.9607288276753
20
0.342820402995983
30
0
41
1
10
79.9633458611751
20
0.32942003656126
30
0
41
1
10
79.9669601101701
20
0.308736999239926
30
0
41
1
10
79.9681186091773
20
0.301704764719091
30
0
41
1
10
79.9702879570483
20
0.28760989748946
30
0
41
1
10
79.9712963880235
20
0.280569278092372
30
0
41
1
10
79.9731467077842
20
0.266506480933771
30
0
41
1
10
79.9739947291763
20
0.259427271641584
30
0
41
1
10
79.9754633516507
20
0.2455959617715
30
0
41
1
10
79.9760826592794
20
0.238873110855536
30
0
41
1
10
79.9768143687006
20
0.229145476752592
30
0
41
1
10
79.9770251921011
20
0.225962771747618
30
0
41
1
10
79.9773726169083
20
0.219736054096956
30
0
41
1
10
79.9775095440814
20
0.21667191831321
30
0
41
1
10
79.977784455508
20
0.207977500886244
30
0
41
1
10
79.9777932009263
20
0.202765001355772
30
0
41
1
10
79.9774107950473
20
0.193829377597524
30
0
41
1
10
79.9770292294298
20
0.190307676607517
30
0
41
1
10
79.9761763901231
20
0.186419339896048
30
0
41
1
10
79.9758440472464
20
0.185362804623622
30
0
41
1
10
79.9751090690348
20
0.183765672820101
30
0
41
1
10
79.9747042085141
20
0.183212860925266
30
0
41
1
10
79.9738240320487
20
0.182560300772593
30
0
41
1
10
79.9733455507338
20
0.182462920920642
30
0
41
1
10
79.9723434724713
20
0.18268696003139
30
0
41
1
10
79.9718185684523
20
0.183004523756125
30
0
41
1
10
79.9701782398449
20
0.184496631464612
30
0
41
1
10
79.9689902415647
20
0.186220072275233
30
0
41
1
10
79.965235315194
20
0.193084312393069
30
0
41
1
10
79.9625477084205
20
0.199715868087765
30
0
41
1
10
79.9596860297042
20
0.207743152062818
30
0
0
SPLINE
5
C3
100
AcDbEntity
8
1
62
256
6
ByLayer
370
18
48
1
60
0
100
AcDbSpline
70
4
71
3
72
36
73
32
40
0
40
0
40
0
40
0
40
0.124999999999995
40
0.124999999999995
40
0.249999999999989
40
0.249999999999989
40
0.281249999999993
40
0.281249999999993
40
0.312499999999996
40
0.312499999999996
40
0.375000000000004
40
0.375000000000004
40
0.500000000000018
40
0.500000000000018
40
0.531250000000018
40
0.531250000000018
40
0.562500000000018
40
0.562500000000018
40
0.625000000000018
40
0.625000000000018
40
0.750000000000018
40
0.750000000000018
40
0.781250000000018
40
0.781250000000018
40
0.812500000000018
40
0.875000000000017
40
0.937500000000016
40
0.937500000000016
40
0.968750000000008
40
0.968750000000008
40
1
40
1
40
1
40
1
41
1
10
79.9596860297024
20
0.207743152068105
30
0
41
1
10
79.9462340252882
20
0.245477317981425
30
0
41
1
10
79.9295432033142
20
0.284191931896544
30
0
41
1
10
79.8897782553794
20
0.364117788680602
30
0
41
1
10
79.8667071705307
20
0.405342424769657
30
0
41
1
10
79.8337645100792
20
0.459068568724263
30
0
41
1
10
79.8269612237054
20
0.46993676980324
30
0
41
1
10
79.8130352783406
20
0.491757741322743
30
0
41
1
10
79.8059031642094
20
0.502726467632527
30
0
41
1
10
79.7840082639667
20
0.535822379997882
30
0
41
1
10
79.7687467987756
20
0.55813474046451
30
0
41
1
10
79.7210302229129
20
0.626018964517868
30
0
41
1
10
79.6866603440217
20
0.672561678544668
30
0
41
1
10
79.6405535318397
20
0.733122608754428
30
-1E-16
41
1
10
79.6311739471066
20
0.745354363297878
30
0
41
1
10
79.6120953918648
20
0.770079814079651
30
0
41
1
10
79.6024235641303
20
0.782538089457063
30
1E-16
41
1
10
79.573202610297
20
0.819986683356291
30
0
41
1
10
79.5533786836266
20
0.845142893651371
30
0
41
1
10
79.4929690839901
20
0.921299722934322
30
0
41
1
10
79.451457920723
20
0.972987388789051
30
1E-16
41
1
10
79.3981369157868
20
1.03909805118809
30
0
41
1
10
79.3874102913086
20
1.05238237164986
30
0
41
1
10
79.3660659679474
20
1.07879412948989
30
0
41
1
10
79.3341202145763
20
1.11829106692207
30
0
41
1
10
79.2812554630399
20
1.18354546652145
30
0
41
1
10
79.2393837425832
20
1.23515688415304
30
0
41
1
10
79.2081309782284
20
1.27363446101154
30
0
41
1
10
79.1977384582531
20
1.28642166743305
30
0
41
1
10
79.1770007551068
20
1.31191512737823
30
0
41
1
10
79.1666418757369
20
1.32463809459219
30
0
41
1
10
79.1564198975983
20
1.33717673698931
30
0
0
SPLINE
5
C4
100
AcDbEntity
8
1
62
256
6
ByLayer
370
18
48
1
60
0
100
AcDbSpline
70
4
71
3
72
21
73
17
40
0
40
0
40
0
40
0
40
0.12500000000001
40
0.12500000000001
40
0.187500000000015
40
0.187500000000015
40
0.25000000000002
40
0.25000000000002
40
0.500000000000104
40
0.500000000000104
40
0.562500000000126
40
0.562500000000126
40
0.625000000000147
40
0.750000000000121
40
0.750000000000121
40
1
40
1
40
1
40
1
41
1
10
79.1564198975902
20
1.33717673700178
30
0
41
1
10
79.1399501541502
20
1.34142122557876
30
0
41
1
10
79.1227784446469
20
1.34688433865082
30
0
41
1
10
79.0960676518719
20
1.3566480632386
30
0
41
1
10
79.087004385595
20
1.3601650446054
30
0
41
1
10
79.0685670566356
20
1.36768957498498
30
0
41
1
10
79.0592009372025
20
1.37169561641122
30
0
41
1
10
79.0124079077408
20
1.39250020295953
30
1E-16
41
1
10
78.974454726019
20
1.41181794577801
30
0
41
1
10
78.9262797348126
20
1.43793603065049
30
0
41
1
10
78.9166351383603
20
1.44324687053785
30
-1E-16
41
1
10
78.8974742888661
20
1.4539306886289
30
-1E-16
41
1
10
78.8688541491607
20
1.47008902062137
30
1E-16
41
1
10
78.8405322258918
20
1.48655298754676
30
1E-16
41
1
10
78.7841554853461
20
1.51970101725067
30
0
41
1
10
78.7469220368737
20
1.54208640080512
30
-1E-16
41
1
10
78.7097990808724
20
1.56440271592251
30
1E-16
0
SPLINE
5
C5
100
AcDbEntity
8
1
62
256
6
ByLayer
370
18
48
1
60
0
100
AcDbSpline
70
4
71
3
72
8
73
4
40
0
40
0
40
0
40
0
40
1
40
1
40
1
40
1
41
1
10
78.7097990808705
20
1.56440271592402
30
1E-16
41
1
10
78.6884804298224
20
1.57720410384155
30
1E-16
41
1
10
78.6672939679141
20
1.58989473106362
30
0
41
1
10
78.6462423412834
20
1.6024185403671
30
0
0
SPLINE
5
C6
100
AcDbEntity
8
1
62
256
6
ByLayer
370
18
48
1
60
0
100
AcDbSpline
70
4
71
3
72
16
73
12
40
0
40
0
40
0
40
0
40
0.249999999999989
40
0.249999999999989
40
0.499999999999978
40
0.499999999999978
40
0.624999999999972
40
0.624999999999972
40
0.749999999999966
40
0.749999999999966
40
1
40
1
40
1
40
1
41
1
10
78.6462423412893
20
1.6024185403636
30
0
41
1
10
78.5979546488268
20
1.63114437361293
30
0
41
1
10
78.5509520011667
20
1.65862457425362
30
0
41
1
10
78.4585229098237
20
1.71074704278291
30
0
41
1
10
78.4131049271125
20
1.73539036976339
30
0
41
1
10
78.3456942551736
20
1.76996868816545
30
0
41
1
10
78.3233453022612
20
1.7810968692215
30
0
41
1
10
78.2788264477625
20
1.80251047664783
30
0
41
1
10
78.2566370016896
20
1.81280308503935
30
0
41
1
10
78.1907138587858
20
1.84213961760182
30
0
41
1
10
78.1474688247707
20
1.85972144809722
30
0
41
1
10
78.104671912486
20
1.87522844335851
30
0
0
SPLINE
5
C7
100
AcDbEntity
8
1
62
256
6
ByLayer
370
18
48
1
60
0
100
AcDbSpline
70
4
71
3
72
14
73
10
40
0
40
0
40
0
40
0
40
0.25
40
0.25
40
0.5
40
0.5
40
0.75
40
0.75
40
1
40
1
40
1
40
1
41
1
10
78.1046719124859
20
1.53304204378264
30
0
41
1
10
78.156769647404
20
1.50096005176772
30
0
41
1
10
78.2084903804289
20
1.46650720391369
30
-1E-16
41
1
10
78.3117241909939
20
1.39339867470449
30
1E-16
41
1
10
78.3632354964701
20
1.35474167183582
30
-1E-16
41
1
10
78.4665936292515
20
1.27362289690811
30
-1E-16
41
1
10
78.518437537908
20
1.23116006472549
30
0
41
1
10
78.6230694663638
20
1.14272422732711
30
0
41
1
10
78.6751841637592
20
1.09732232667068
30
1E-16
41
1
10
78.7273872339333
20
1.05100358997748
30
0
0
SPLINE
5
C8
100
AcDbEntity
8
1
62
256
6
ByLayer
370
18
48
1
60
0
100
AcDbSpline
70
4
71
3
72
12
73
8
40
0
40
0
40
0
40
0
40
0.5
40
0.5
40
0.75
40
0.75
40
1
40
1
40
1
40
1
41
1
10
78.7273872339316
20
1.05100358997902
30
0
41
1
10
78.7807044933842
20
1.0036900888966
30
1E-16
41
1
10
78.832947740024
20
0.955209159853922
30
0
41
1
10
78.9092030087732
20
0.880239386602881
30
-1E-16
41
1
10
78.9342666929685
20
0.854871537342149
30
0
41
1
10
78.9835484469642
20
0.803243408732868
30
-1E-16
41
1
10
79.0078021328251
20
0.776943288820405
30
0
41
1
10
79.031425153116
20
0.750229372595925
30
0
0
SPLINE
5
C9
100
AcDbEntity
8
1
62
256
6
ByLayer
370
18
48
1
60
0
100
AcDbSpline
70
4
71
3
72
36
73
32
40
0
40
0
40
0
40
0
40
0.0625000000000002
40
0.0625000000000002
40
0.125
40
0.125
40
0.250000000000001
40
0.250000000000001
40
0.312500000000001
40
0.312500000000001
40
0.343750000000009
40
0.343750000000009
40
0.375000000000017
40
0.375000000000017
40
0.500000000000033
40
0.500000000000033
40
0.562500000000034
40
0.562500000000034
40
0.593750000000034
40
0.593750000000034
40
0.625000000000035
40
0.625000000000035
40
0.750000000000026
40
0.750000000000026
40
0.812500000000021
40
0.812500000000021
40
0.843750000000019
40
0.843750000000019
40
0.875000000000017
40
0.875000000000017
40
1
40
1
40
1
40
1
41
1
10
79.0314251531159
20
0.750229372596237
30
0
41
1
10
79.0567511129588
20
0.725545245964241
30
1E-16
41
1
10
79.0820821334916
20
0.700829302570952
30
-1E-16
41
1
10
79.132668276311
20
0.651555549536283
30
0
41
1
10
79.1576487787369
20
0.627265511387634
30
1E-16
41
1
10
79.2317514535158
20
0.555551663560493
30
0
41
1
10
79.2800405121768
20
0.509279804449392
30
-1E-16
41
1
10
79.3510778000011
20
0.442669785786393
30
1E-16
41
1
10
79.3745247241928
20
0.420937474777986
30
-1E-16
41
1
10
79.4093631949178
20
0.389110434645801
30
0
41
1
10
79.4209463061242
20
0.378607013626152
30
0
41
1
10
79.443870462929
20
0.357990771607376
30
0
41
1
10
79.4551960281284
20
0.347891452693545
30
1E-16
41
1
10
79.5111602293899
20
0.298446442832642
30
0
41
1
10
79.5538248479187
20
0.262249360057183
30
1E-16
41
1
10
79.6147856982641
20
0.213069958495794
30
-1E-16
41
1
10
79.6345990320491
20
0.197540605861093
30
0
41
1
10
79.6635395966129
20
0.175546592013262
30
0
41
1
10
79.6730562985679
20
0.168431866671796
30
0
41
1
10
79.6918240668372
20
0.154639555020481
30
1E-16
41
1
10
79.7010966315357
20
0.147946982702308
30
1E-16
41
1
10
79.7464301882965
20
0.115839326950123
30
0
41
1
10
79.7795123079031
20
0.0944157307392572
30
0
41
1
10
79.8244603574692
20
0.0678291506305015
30
0
41
1
10
79.8386603888539
20
0.0599045872130262
30
0
41
1
10
79.8587622283554
20
0.0493083374305172
30
0
41
1
10
79.8652628968587
20
0.0459911662766501
30
0
41
1
10
79.8778577711307
20
0.0397686852767833
30
0
41
1
10
79.8839618078978
20
0.0368589085111637
30
0
41
1
10
79.9133259813452
20
0.0233533325200881
30
-1E-16
41
1
10
79.9329692485381
20
0.0159554485094304
30
0
41
1
10
79.9489198122417
20
0.0108858980200068
30
0
0
SPLINE
5
CA
100
AcDbEntity
8
1
62
256
6
ByLayer
370
18
48
1
60
0
100
AcDbSpline
70
4
71
3
72
38
73
34
40
0
40
0
40
0
40
0
40
0.125000000000003
40
0.125000000000003
40
0.250000000000005
40
0.250000000000005
40
0.312500000000007
40
0.312500000000007
40
0.375000000000008
40
0.375000000000008
40
0.437500000000009
40
0.437500000000009
40
0.500000000000011
40
0.500000000000011
40
0.531250000000011
40
0.531250000000011
40
0.562500000000012
40
0.562500000000012
40
0.62500000000001
40
0.62500000000001
40
0.687500000000008
40
0.687500000000008
40
0.718750000000008
40
0.718750000000008
40
0.750000000000007
40
0.750000000000007
40
0.781250000000006
40
0.781250000000006
40
0.812500000000005
40
0.812500000000005
40
0.875000000000004
40
0.875000000000004
40
1
40
1
40
1
40
1
41
1
10
79.9489198122416
20
0.0108858980200353
30
0
41
1
10
79.9521136706836
20
0.0098707974299259
30
0
41
1
10
79.9551130997734
20
0.007943408193313
30
0
41
1
10
79.9607288276754
20
0.002117098950805
30
0
41
1
10
79.9633458611751
20
-0.0017730556762672
30
0
41
1
10
79.9669601101701
20
-0.0094898104570404
30
0
41
1
10
79.9681186091773
20
-0.0123981555549904
30
0
41
1
10
79.9702879570483
20
-0.0188992049971262
30
0
41
1
10
79.9712963880235
20
-0.0224774611847067
30
0
41
1
10
79.9731467077842
20
-0.0304162499393499
30
0
41
1
10
79.9739947291764
20
-0.0348153678001211
30
0
41
1
10
79.9754633516507
20
-0.0444098104487125
30
0
41
1
10
79.9760826592794
20
-0.0495755295407321
30
0
41
1
10
79.9768143687006
20
-0.0580028037497016
30
0
41
1
10
79.9770251921011
20
-0.060925767864461
30
0
41
1
10
79.9773726169084
20
-0.0670351576543737
30
0
41
1
10
79.9775095440814
20
-0.070246202577664
30
0
41
1
10
79.977784455508
20
-0.0800601841422122
30
0
41
1
10
79.9777932009262
20
-0.0869108468533568
30
0
41
1
10
79.9774107950473
20
-0.101192903903382
30
0
41
1
10
79.9770292294298
20
-0.108297421223142
30
0
41
1
10
79.976176390123
20
-0.118900395141082
30
0
41
1
10
79.9758440472464
20
-0.122423914342789
30
0
41
1
10
79.9751090690348
20
-0.129228799914017
30
0
41
1
10
79.9747042085142
20
-0.132540555551032
30
0
41
1
10
79.9738240320487
20
-0.138996724928404
30
0
41
1
10
79.9733455507338
20
-0.142157891669683
30
0
41
1
10
79.9723434724713
20
-0.14818658218374
30
0
41
1
10
79.9718185684523
20
-0.151067616199413
30
0
41
1
10
79.9701782398449
20
-0.15936045397072
30
0
41
1
10
79.9689902415648
20
-0.164452019080983
30
0
41
1
10
79.965235315194
20
-0.178377400049499
30
0
41
1
10
79.9625477084206
20
-0.185702037511191
30
0
41
1
10
79.9596860297042
20
-0.191687361939898
30
0
0
SPLINE
5
CB
100
AcDbEntity
8
1
62
256
6
ByLayer
370
18
48
1
60
0
100
AcDbSpline
70
4
71
3
72
36
73
32
40
0
40
0
40
0
40
0
40
0.124999999999978
40
0.124999999999978
40
0.249999999999955
40
0.249999999999955
40
0.28124999999995
40
0.28124999999995
40
0.312499999999944
40
0.312499999999944
40
0.374999999999944
40
0.374999999999944
40
0.499999999999957
40
0.499999999999957
40
0.531249999999956
40
0.531249999999956
40
0.562499999999956
40
0.562499999999956
40
0.624999999999955
40
0.624999999999955
40
0.749999999999954
40
0.749999999999954
40
0.781249999999953
40
0.781249999999953
40
0.812499999999953
40
0.874999999999969
40
0.937499999999984
40
0.937499999999984
40
0.968749999999992
40
0.968749999999992
40
1
40
1
40
1
40
1
41
1
10
79.9596860297024
20
-0.191687361943707
30
0
41
1
10
79.9462340252881
20
-0.219822809213326
30
0
41
1
10
79.9295432033142
20
-0.245794686992582
30
0
41
1
10
79.8897782553793
20
-0.292812630857242
30
0
41
1
10
79.8667071705305
20
-0.313843944003452
30
0
41
1
10
79.8337645100789
20
-0.336274139629353
30
0
41
1
10
79.8269612237053
20
-0.340570806235576
30
0
41
1
10
79.8130352783405
20
-0.348700243875101
30
0
41
1
10
79.8059031642092
20
-0.35254023402473
30
0
41
1
10
79.7840082639664
20
-0.363369002589764
30
0
41
1
10
79.7687467987753
20
-0.369673751931174
30
0
41
1
10
79.7210302229125
20
-0.385571561954094
30
0
41
1
10
79.6866603440213
20
-0.39212397035746
30
0
41
1
10
79.6405535318393
20
-0.39406465120004
30
0
41
1
10
79.6311739471062
20
-0.394138812848325
30
0
41
1
10
79.6120953918643
20
-0.39362054172986
30
0
41
1
10
79.6024235641298
20
-0.393027359377442
30
0
41
1
10
79.5732026102964
20
-0.390229351403178
30
0
41
1
10
79.5533786836261
20
-0.38700457924017
30
0
41
1
10
79.4929690839895
20
-0.373074616586848
30
0
41
1
10
79.4514579207222
20
-0.358144234260067
30
0
41
1
10
79.398136915786
20
-0.33152933460056
30
1E-16
41
1
10
79.387410291308
20
-0.325809129001243
30
1E-16
41
1
10
79.3660659679466
20
-0.313695406181154
30
1E-16
41
1
10
79.3341202145755
20
-0.294469148538525
30
0
41
1
10
79.2812556530779
20
-0.257193210093618
30
-1E-16
41
1
10
79.2393837425823
20
-0.221823025290263
30
1E-16
41
1
10
79.2081309782275
20
-0.193195218694399
30
0
41
1
10
79.1977384582522
20
-0.183302267411989
30
0
41
1
10
79.1770007551058
20
-0.162808848499026
30
-1E-16
41
1
10
79.1666418757359
20
-0.15219168993687
30
-1E-16
41
1
10
79.1564198975974
20
-0.141342829736573
30
1E-16
0
SPLINE
5
CC
100
AcDbEntity
8
1
62
256
6
ByLayer
370
18
48
1
60
0
100
AcDbSpline
70
4
71
3
72
21
73
17
40
0
40
0
40
0
40
0
40
0.125000000000034
40
0.125000000000034
40
0.18750000000005
40
0.18750000000005
40
0.250000000000066
40
0.250000000000066
40
0.500000000000067
40
0.500000000000067
40
0.562500000000067
40
0.562500000000067
40
0.625000000000067
40
0.750000000000067
40
0.750000000000067
40
1
40
1
40
1
40
1
41
1
10
79.15641989759
20
-0.141342829724721
30
1E-16
41
1
10
79.1399501541499
20
-0.151601551559622
30
-1E-16
41
1
10
79.1227784446468
20
-0.159814361055027
30
-1E-16
41
1
10
79.0960676518717
20
-0.169436001295395
30
0
41
1
10
79.0870043855947
20
-0.17219175309566
30
0
41
1
10
79.0685670566354
20
-0.176843487448281
30
0
41
1
10
79.0592009372023
20
-0.178732785813537
30
0
41
1
10
79.0124079077406
20
-0.1860421347574
30
0
41
1
10
78.9744547260188
20
-0.185367544680673
30
0
41
1
10
78.9262797348124
20
-0.178724083551543
30
0
41
1
10
78.9166351383602
20
-0.177100515931471
30
0
41
1
10
78.897474288866
20
-0.173345690951919
30
0
41
1
10
78.8688541491606
20
-0.1669407203118
30
-1E-16
41
1
10
78.8405322258917
20
-0.158447753674096
30
-1E-16
41
1
10
78.7841554853461
20
-0.139113250992466
30
1E-16
41
1
10
78.7469220368737
20
-0.123114096061982
30
1E-16
41
1
10
78.7097990808724
20
-0.104715805816937
30
0
0
SPLINE
5
CD
100
AcDbEntity
8
1
62
256
6
ByLayer
370
18
48
1
60
0
100
AcDbSpline
70
4
71
3
72
8
73
4
40
0
40
0
40
0
40
0
40
1
40
1
40
1
40
1
41
1
10
78.7097990808704
20
-0.104715805815346
30
0
41
1
10
78.6884804298247
20
-0.0941761398320864
30
0
41
1
10
78.6672939679185
20
-0.0829455812892093
30
0
41
1
10
78.6462423412899
20
-0.0711262405986872
30
-1E-16
0
SPLINE
5
CE
100
AcDbEntity
8
1
62
256
6
ByLayer
370
18
48
1
60
0
100
AcDbSpline
70
4
71
3
72
12
73
8
40
0
40
0
40
0
40
0
40
0.499999999999966
40
0.499999999999966
40
0.749999999999983
40
0.749999999999983
40
1
40
1
40
1
40
1
41
1
10
78.7273872339316
20
-0.806686048117655
30
-1E-16
41
1
10
78.7807044933842
20
-0.836504297771739
30
0
41
1
10
78.832947740024
20
-0.863716392482246
30
0
41
1
10
78.9092030087732
20
-0.901464942667019
30
-1E-16
41
1
10
78.9342666929684
20
-0.913538507404184
30
-1E-16
41
1
10
78.9835484469641
20
-0.936859176112534
30
0
41
1
10
79.007802132825
20
-0.948121097811196
30
0
41
1
10
79.0314251531158
20
-0.959047422109506
30
0
0
SPLINE
5
CF
100
AcDbEntity
8
1
62
256
6
ByLayer
370
18
48
1
60
0
100
AcDbSpline
70
4
71
3
72
36
73
32
40
0
40
0
40
0
40
0
40
0.0624999999999953
40
0.0624999999999953
40
0.124999999999991
40
0.124999999999991
40
0.249999999999981
40
0.249999999999981
40
0.312499999999977
40
0.312499999999977
40
0.343749999999982
40
0.343749999999982
40
0.374999999999988
40
0.374999999999988
40
0.499999999999995
40
0.499999999999995
40
0.562499999999999
40
0.562499999999999
40
0.593750000000001
40
0.593750000000001
40
0.625000000000002
40
0.625000000000002
40
0.749999999999997
40
0.749999999999997
40
0.8125
40
0.8125
40
0.843750000000001
40
0.843750000000001
40
0.875000000000003
40
0.875000000000003
40
1
40
1
40
1
40
1
41
1
10
79.0314251531159
20
-0.959047422109393
30
0
41
1
10
79.0567511129587
20
-0.96711541232483
30
0
41
1
10
79.0820821334917
20
-0.974134008064453
30
1E-16
41
1
10
79.1326682763111
20
-0.985854871398089
30
1E-16
41
1
10
79.1576487787369
20
-0.990495252611197
30
1E-16
41
1
10
79.2317514535158
20
-1.00068051383821
30
-1E-16
41
1
10
79.2800405121768
20
-1.00250767750993
30
-1E-16
41
1
10
79.3510778000011
20
-0.997242041336449
30
-1E-16
41
1
10
79.3745247241928
20
-0.994143628775248
30
1E-16
41
1
10
79.4093631949178
20
-0.98737500982844
30
1E-16
41
1
10
79.4209463061242
20
-0.984757986842311
30
1E-16
41
1
10
79.443870462929
20
-0.97882785973917
30
0
41
1
10
79.4551960281285
20
-0.975520748591038
30
0
41
1
10
79.51116022939
20
-0.957280963461869
30
0
41
1
10
79.5538248479189
20
-0.937255564822607
30
0
41
1
10
79.6147856982641
20
-0.899074433078624
30
0
41
1
10
79.6345990320491
20
-0.884976930602164
30
0
41
1
10
79.6635395966128
20
-0.861755409192654
30
0
41
1
10
79.6730562985679
20
-0.853668897987973
30
0
41
1
10
79.6918240668372
20
-0.836795320228447
30
0
41
1
10
79.7010966315356
20
-0.827985742550482
30
1E-16
41
1
10
79.7464301882965
20
-0.782512489576305
30
-1E-16
41
1
10
79.7795123079031
20
-0.741548434577538
30
0
41
1
10
79.8244603574693
20
-0.673907987176989
30
0
41
1
10
79.8386603888539
20
-0.65031758139159
30
0
41
1
10
79.8587622283554
20
-0.61344408793488
30
0
41
1
10
79.8652628968587
20
-0.600904980938935
30
0
41
1
10
79.8778577711308
20
-0.575341700552087
30
0
41
1
10
79.8839618078979
20
-0.562295036556549
30
0
41
1
10
79.9133259813452
20
-0.496143926020323
30
0
41
1
10
79.9329692485381
20
-0.440713750741395
30
0
41
1
10
79.9489198122417
20
-0.383394802510026
30
0
0
SPLINE
5
D0
100
AcDbEntity
8
1
62
256
6
ByLayer
370
18
48
1
60
0
100
AcDbSpline
70
4
71
3
72
38
73
34
40
0
40
0
40
0
40
0
40
0.125000000000018
40
0.125000000000018
40
0.250000000000037
40
0.250000000000037
40
0.312500000000036
40
0.312500000000036
40
0.375000000000034
40
0.375000000000034
40
0.437500000000033
40
0.437500000000033
40
0.500000000000032
40
0.500000000000032
40
0.531250000000031
40
0.531250000000031
40
0.562500000000031
40
0.562500000000031
40
0.625000000000026
40
0.625000000000026
40
0.687500000000022
40
0.687500000000022
40
0.71875000000002
40
0.71875000000002
40
0.750000000000018
40
0.750000000000018
40
0.781250000000015
40
0.781250000000015
40
0.812500000000013
40
0.812500000000013
40
0.875000000000009
40
0.875000000000009
40
1
40
1
40
1
40
1
41
1
10
79.9489198122417
20
-0.383394802510139
30
0
41
1
10
79.9521136706837
20
-0.371917552546023
30
0
41
1
10
79.9551130997734
20
-0.361062444828264
30
0
41
1
10
79.9607288276754
20
-0.340703304045178
30
0
41
1
10
79.9633458611751
20
-0.331193092237527
30
0
41
1
10
79.9669601101701
20
-0.318226809696966
30
0
41
1
10
79.9681186091773
20
-0.314102920274053
30
0
41
1
10
79.9702879570483
20
-0.306509102486587
30
0
41
1
10
79.9712963880234
20
-0.303046739278273
30
0
41
1
10
79.9731467077841
20
-0.296922730874343
30
0
41
1
10
79.9739947291764
20
-0.294242639441677
30
0
41
1
10
79.9754633516507
20
-0.290005772220212
30
0
41
1
10
79.9760826592794
20
-0.288448640396325
30
0
41
1
10
79.9768143687005
20
-0.287148280502322
30
0
41
1
10
79.9770251921011
20
-0.286888539612107
30
0
41
1
10
79.9773726169083
20
-0.286771211751358
30
0
41
1
10
79.9775095440814
20
-0.286918120890874
30
0
41
1
10
79.977784455508
20
-0.288037685028456
30
0
41
1
10
79.9777932009262
20
-0.289675848209186
30
0
41
1
10
79.9774107950473
20
-0.295022281500962
30
0
41
1
10
79.9770292294297
20
-0.298605097830745
30
0
41
1
10
79.976176390123
20
-0.305319735037216
30
0
41
1
10
79.9758440472464
20
-0.307786718966525
30
0
41
1
10
79.9751090690347
20
-0.312994472734204
30
0
41
1
10
79.9747042085141
20
-0.315753416476383
30
0
41
1
10
79.9738240320487
20
-0.321557025701111
30
0
41
1
10
79.9733455507338
20
-0.324620812590467
30
0
41
1
10
79.9723434724713
20
-0.330873542215244
30
0
41
1
10
79.9718185684522
20
-0.334072139955623
30
0
41
1
10
79.9701782398449
20
-0.343857085435417
30
0
41
1
10
79.9689902415647
20
-0.350672091356302
30
0
41
1
10
79.965235315194
20
-0.371461712442624
30
0
41
1
10
79.9625477084205
20
-0.385417905599183
30
0
41
1
10
79.9596860297042
20
-0.399430514002944
30
0
0
SPLINE
5
D1
100
AcDbEntity
8
1
62
256
6
ByLayer
370
18
48
1
60
0
100
AcDbSpline
70
4
71
3
72
36
73
32
40
0
40
0
40
0
40
0
40
0.124999999999958
40
0.124999999999958
40
0.249999999999915
40
0.249999999999915
40
0.281249999999907
40
0.281249999999907
40
0.312499999999899
40
0.312499999999899
40
0.374999999999882
40
0.374999999999882
40
0.499999999999861
40
0.499999999999861
40
0.531249999999859
40
0.531249999999859
40
0.562499999999858
40
0.562499999999858
40
0.624999999999869
40
0.624999999999869
40
0.749999999999891
40
0.749999999999891
40
0.781249999999905
40
0.781249999999905
40
0.812499999999918
40
0.874999999999945
40
0.937499999999973
40
0.937499999999973
40
0.968749999999986
40
0.968749999999986
40
1
40
1
40
1
40
1
41
1
10
79.9596860297024
20
-0.39943051401184
30
0
41
1
10
79.9462340252882
20
-0.46530012719478
30
0
41
1
10
79.9295432033142
20
-0.529986618889126
30
0
41
1
10
79.8897782553794
20
-0.656930419537872
30
0
41
1
10
79.8667071705306
20
-0.719186368773137
30
0
41
1
10
79.8337645100791
20
-0.795342708353701
30
0
41
1
10
79.8269612237053
20
-0.810507576038873
30
0
41
1
10
79.8130352783406
20
-0.840457985197929
30
0
41
1
10
79.8059031642093
20
-0.855266701657371
30
0
41
1
10
79.7840082639666
20
-0.899191382587787
30
0
41
1
10
79.7687467987755
20
-0.927808492395826
30
0
41
1
10
79.7210302229127
20
-1.01159052647213
30
0
41
1
10
79.6866603440214
20
-1.06468564890233
30
0
41
1
10
79.6405535318395
20
-1.12718725995472
30
0
41
1
10
79.6311739471064
20
-1.13949317614646
30
0
41
1
10
79.6120953918646
20
-1.16370035580979
30
0
41
1
10
79.60242356413
20
-1.17556544883485
30
0
41
1
10
79.5732026102967
20
-1.21021603475984
30
0
41
1
10
79.5533786836264
20
-1.23214747289194
30
0
41
1
10
79.4929690839898
20
-1.29437433952165
30
0
41
1
10
79.4514579207226
20
-1.33113162304971
30
0
41
1
10
79.3981369157864
20
-1.37062738578936
30
0
41
1
10
79.3874102913083
20
-1.37819150065178
30
0
41
1
10
79.3660659679471
20
-1.39248953567176
30
0
41
1
10
79.3341202145758
20
-1.41276021546133
30
0
41
1
10
79.2812556530785
20
-1.44073877565575
30
0
41
1
10
79.2393837425828
20
-1.45697990944422
30
0
41
1
10
79.208130978228
20
-1.46682967970696
30
0
41
1
10
79.1977384582527
20
-1.46972393484609
30
0
41
1
10
79.1770007551063
20
-1.47472397587833
30
0
41
1
10
79.1666418757364
20
-1.47682978453017
30
0
41
1
10
79.1564198975979
20
-1.47851956672702
30
0
0
SPLINE
5
D2
100
AcDbEntity
8
1
62
256
6
ByLayer
370
18
48
1
60
0
100
AcDbSpline
70
4
71
3
72
21
73
17
40
0
40
0
40
0
40
0
40
0.125
40
0.125
40
0.1875
40
0.1875
40
0.25
40
0.25
40
0.5
40
0.5
40
0.5625
40
0.5625
40
0.625
40
0.75
40
0.75
40
1
40
1
40
1
40
1
41
1
10
79.1564198975901
20
-1.47851956672648
30
0
41
1
10
79.1399501541501
20
-1.49302277713838
30
-1E-16
41
1
10
79.1227784446469
20
-1.50669869970585
30
0
41
1
10
79.0960676518718
20
-1.52608406453399
30
0
41
1
10
79.0870043855949
20
-1.53235679770111
30
0
41
1
10
79.0685670566355
20
-1.54453306243332
30
0
41
1
10
79.0592009372024
20
-1.55042840222475
30
0
41
1
10
79.0124079077407
20
-1.57854233771695
30
0
41
1
10
78.974454726019
20
-1.59718549045877
30
0
41
1
10
78.9262797348127
20
-1.61666011420212
30
0
41
1
10
78.9166351383603
20
-1.62034738646938
30
0
41
1
10
78.8974742888661
20
-1.62727637958088
30
0
41
1
10
78.8688541491607
20
-1.63702974093317
30
-1E-16
41
1
10
78.8405322258918
20
-1.64500074122091
30
0
41
1
10
78.7841554853461
20
-1.65881426824316
30
0
41
1
10
78.7469220368737
20
-1.6652004968671
30
0
41
1
10
78.7097990808724
20
-1.66911852173945
30
0
0
SPLINE
5
D3
100
AcDbEntity
8
1
62
256
6
ByLayer
370
18
48
1
60
0
100
AcDbSpline
70
4
71
3
72
16
73
12
40
0
40
0
40
0
40
0
40
0.250000000000011
40
0.250000000000011
40
0.500000000000023
40
0.500000000000023
40
0.625000000000029
40
0.625000000000029
40
0.750000000000034
40
0.750000000000034
40
1
40
1
40
1
40
1
41
1
10
78.6462423412893
20
-0.0711262405981188
30
-1E-16
41
1
10
78.5979546488263
20
-0.044017147613431
30
1E-16
41
1
10
78.5509520011712
20
-0.0142063508967851
30
0
41
1
10
78.4585229098273
20
0.0492796343625912
30
1E-16
41
1
10
78.4131049271156
20
0.0829687197358453
30
0
41
1
10
78.345694255176
20
0.135719510750505
30
-1E-16
41
1
10
78.3233453022634
20
0.153675895668215
30
1E-16
41
1
10
78.2788264477642
20
0.190246331640566
30
0
41
1
10
78.2566370016911
20
0.208878217260093
30
0
41
1
10
78.1907138587867
20
0.265234254406011
30
0
41
1
10
78.1474688247712
20
0.30353712483452
30
0
41
1
10
78.104671912486
20
0.342281073797466
30
1E-16
0
SPLINE
5
D4
100
AcDbEntity
8
1
62
256
6
ByLayer
370
18
48
1
60
0
100
AcDbSpline
70
4
71
3
72
8
73
4
40
0
40
0
40
0
40
0
40
1
40
1
40
1
40
1
41
1
10
78.7097990808704
20
-1.66911852173917
30
0
41
1
10
78.6884804298247
20
-1.67138024367213
30
0
41
1
10
78.6672939679185
20
-1.67284031235022
30
0
41
1
10
78.64624234129
20
-1.67354478096192
30
0
0
SPLINE
5
D5
100
AcDbEntity
8
1
62
256
6
ByLayer
370
18
48
1
60
0
100
AcDbSpline
70
4
71
3
72
8
73
4
40
0
40
0
40
0
40
0
40
1
40
1
40
1
40
1
41
1
10
68
20
-1.9576267437063
30
-1E-16
41
1
10
68
20
-1.99781252371122
30
0
41
1
10
68
20
-2.03799830371614
30
-1E-16
41
1
10
68
20
-2.07818408372105
30
0
0
SPLINE
5
D6
100
AcDbEntity
8
1
62
256
6
ByLayer
370
18
48
1
60
0
100
AcDbSpline
70
4
71
3
72
14
73
10
40
0
40
0
40
0
40
0
40
0.25
40
0.25
40
0.5
40
0.5
40
0.75
40
0.75
40
1
40
1
40
1
40
1
41
1
10
78.1046719124859
20
-0.342135557960404
30
-1E-16
41
1
10
78.156769647404
20
-0.38775956947407
30
0
41
1
10
78.2084903804289
20
-0.432085930407112
30
-1E-16
41
1
10
78.3117241909938
20
-0.517611603324696
30
1E-16
41
1
10
78.3632354964701
20
-0.558812995014961
30
0
41
1
10
78.4665936292514
20
-0.637445416368848
30
-1E-16
41
1
10
78.518437537908
20
-0.674880801049966
30
0
41
1
10
78.6230694663638
20
-0.745134349343857
30
0
41
1
10
78.6751841637592
20
-0.777497512159073
30
0
41
1
10
78.7273872339333
20
-0.806686048118848
30
-1E-16
0
SPLINE
5
D7
100
AcDbEntity
8
1
62
256
6
ByLayer
370
18
48
1
60
0
100
AcDbSpline
70
4
71
3
72
16
73
12
40
0
40
0
40
0
40
0
40
0.25
40
0.25
40
0.5
40
0.5
40
0.625
40
0.625
40
0.75
40
0.75
40
1
40
1
40
1
40
1
41
1
10
78.6462423412893
20
-1.67354478096175
30
0
41
1
10
78.5979546488263
20
-1.67516152122667
30
0
41
1
10
78.5509520011713
20
-1.67283092514788
30
0
41
1
10
78.4585229098273
20
-1.66146740841842
30
-1E-16
41
1
10
78.4131049271156
20
-1.65242165002596
30
1E-16
41
1
10
78.345694255176
20
-1.63424917741378
30
1E-16
41
1
10
78.3233453022634
20
-1.62742097355223
30
0
41
1
10
78.2788264477642
20
-1.61226414500649
30
0
41
1
10
78.2566370016912
20
-1.60392486777857
30
0
41
1
10
78.1907138587867
20
-1.57690536319549
30
-1E-16
41
1
10
78.1474688247711
20
-1.55618432326256
30
1E-16
41
1
10
78.104671912486
20
-1.53294736956104
30
0
0
SPLINE
5
D8
100
AcDbEntity
8
1
62
256
6
ByLayer
370
18
48
1
60
0
100
AcDbSpline
70
4
71
3
72
8
73
4
40
0
40
0
40
0
40
0
40
1
40
1
40
1
40
1
41
1
10
68
20
2.37860698471357
30
0
41
0.982126703460594
10
68
20
2.34610349581352
30
0
41
0.966227567138801
10
68.0000000000001
20
2.31359288561731
30
0
41
0.952302591034619
10
68
20
2.28127698471357
30
0
0
SPLINE
5
D9
100
AcDbEntity
8
1
62
256
6
ByLayer
370
18
48
1
60
0
100
AcDbSpline
70
4
71
3
72
28
73
24
40
0
40
0
40
0
40
0
40
0.030600492941694
40
0.030600492941694
40
0.192167077451246
40
0.192167077451246
40
0.272950369706074
40
0.272950369706074
40
0.353733661960902
40
0.353733661960902
40
0.515300246470679
40
0.515300246470679
40
0.596083538725567
40
0.596083538725567
40
0.676866830980455
40
0.676866830980455
40
0.838433415490232
40
0.838433415490232
40
0.878825061617726
40
0.878825061617726
40
0.91921670774522
40
0.91921670774522
40
1
40
1
40
1
40
1
41
1
10
78.7405391593591
20
1.52750438968448
30
0
41
1
10
78.7411370423214
20
1.52804738542537
30
0
41
1
10
78.7417549743058
20
1.52861291881561
30
0
41
1
10
78.7457568044885
20
1.53231054787449
30
0
41
1
10
78.7495770544062
20
1.53597793123277
30
0
41
1
10
78.7558469283848
20
1.54230363231079
30
0
41
1
10
78.7580296357501
20
1.54455100164839
30
0
41
1
10
78.762580075142
20
1.54932766967511
30
0
41
1
10
78.7649605000199
20
1.55187102835683
30
0
41
1
10
78.7722829452798
20
1.55980365586666
30
0
41
1
10
78.7773955750691
20
1.5654969208602
30
0
41
1
10
78.7856029164004
20
1.57454852622595
30
0
41
1
10
78.7884307063559
20
1.57765096710534
30
0
41
1
10
78.7943623013102
20
1.5840031112806
30
0
41
1
10
78.7974752349128
20
1.58726266839412
30
0
41
1
10
78.8072063704426
20
1.59691719994521
30
0
41
1
10
78.8143637967698
20
1.60339834708694
30
0
41
1
10
78.8243662803469
20
1.60973186213903
30
0
41
1
10
78.8264522261625
20
1.61092332666584
30
0
41
1
10
78.8306335305482
20
1.61301484913403
30
0
41
1
10
78.8327315804565
20
1.61391988471021
30
0
41
1
10
78.8390585229274
20
1.61620364890885
30
0
41
1
10
78.8433169146651
20
1.61712764900176
30
0
41
1
10
78.8474106369438
20
1.61750938292141
30
0
0
SPLINE
5
DA
100
AcDbEntity
8
1
62
256
6
ByLayer
370
18
48
1
60
0
100
AcDbSpline
70
4
71
3
72
22
73
18
40
0
40
0
40
0
40
0
40
0.250000000000066
40
0.250000000000066
40
0.500000000000131
40
0.500000000000131
40
0.625000000000164
40
0.625000000000164
40
0.750000000000197
40
0.750000000000197
40
0.812500000000147
40
0.812500000000147
40
0.875000000000098
40
0.875000000000098
40
0.937500000000049
40
0.937500000000049
40
1
40
1
40
1
40
1
41
1
10
78.8474106351535
20
1.61750938275449
30
0
41
1
10
78.8646649877982
20
1.61911832715489
30
0
41
1
10
78.8820260295242
20
1.62117529734289
30
0
41
1
10
78.91695649223
20
1.62687017603534
30
0
41
1
10
78.9345582123999
20
1.63046160308329
30
0
41
1
10
78.9610107683446
20
1.63833231757496
30
0
41
1
10
78.9697717464329
20
1.64135890313389
30
0
41
1
10
78.9870675443759
20
1.64878896816222
30
0
41
1
10
78.995555175247
20
1.65314944298149
30
0
41
1
10
79.0074587679225
20
1.66145882597814
30
0
41
1
10
79.011319573874
20
1.66455412237835
30
0
41
1
10
79.0185088569062
20
1.67164413351648
30
0
41
1
10
79.0217768764637
20
1.67558605299564
30
0
41
1
10
79.0271565314777
20
1.68441596434568
30
0
41
1
10
79.0291719146963
20
1.68916700100215
30
0
41
1
10
79.0315445999355
20
1.69924419852586
30
0
41
1
10
79.031839391557
20
1.70433032670846
30
0
41
1
10
79.0314251531149
20
1.70927679470515
30
0
0
SPLINE
5
DB
100
AcDbEntity
8
1
62
256
6
ByLayer
370
18
48
1
60
0
100
AcDbSpline
70
4
71
3
72
8
73
4
40
0
40
0
40
0
40
0
40
1
40
1
40
1
40
1
41
1
10
68
20
2.47833294448947
30
0
41
1
10
68
20
2.44509095789749
30
0
41
1
10
68
20
2.41184897130552
30
0
41
1
10
68
20
2.37860698471357
30
0
0
SPLINE
5
DC
100
AcDbEntity
8
1
62
256
6
ByLayer
370
18
48
1
60
0
100
AcDbSpline
70
4
71
3
72
8
73
4
40
0
40
0
40
0
40
0
40
1
40
1
40
1
40
1
41
1
10
68
20
1.60953833335915
30
0
41
0.838181963988761
10
68
20
1.41497991581175
30
0
41
0.838181963988761
10
68
20
1.08097393869112
30
-1E-16
41
1
10
68
20
0.76966497569822
30
0
0
SPLINE
5
DD
100
AcDbEntity
8
1
62
256
6
ByLayer
370
18
48
1
60
0
100
AcDbSpline
70
4
71
3
72
8
73
4
40
0
40
0
40
0
40
0
40
1
40
1
40
1
40
1
41
1
10
68
20
1.66580831801386
30
1E-16
41
1
10
68
20
1.64705165646228
30
-1E-16
41
1
10
68
20
1.62829499491073
30
0
41
1
10
68
20
1.60953833335915
30
0
0
SPLINE
5
DE
100
AcDbEntity
8
1
62
256
6
ByLayer
370
18
48
1
60
0
100
AcDbSpline
70
4
71
3
72
8
73
4
40
0
40
0
40
0
40
0
40
1
40
1
40
1
40
1
41
1
10
68
20
0.218116167550477
30
-1E-16
41
1
10
68
20
0.213974748525572
30
-1E-16
41
1
10
68
20
0.209833329500668
30
0
41
1
10
68
20
0.205691910475764
30
0
0
SPLINE
5
DF
100
AcDbEntity
8
1
62
256
6
ByLayer
370
18
48
1
60
0
100
AcDbSpline
70
4
71
3
72
9
73
5
40
0
40
0
40
0
40
0
40
0.182142958232224
40
1
40
1
40
1
40
1
41
1
10
67.6590750144831
20
0.508855684610154
30
1E-16
41
1
10
67.6643175598678
20
0.50450533553763
30
1E-16
41
1
10
67.6931002101392
20
0.480573622825745
30
1E-16
41
1
10
67.7218832634302
20
0.456394063960971
30
1E-16
41
1
10
67.7454236641621
20
0.436487035917537
30
1E-16
0
SPLINE
5
E0
100
AcDbEntity
8
1
62
256
6
ByLayer
370
18
48
1
60
0
100
AcDbSpline
70
4
71
3
72
8
73
4
40
0
40
0
40
0
40
0
40
1
40
1
40
1
40
1
41
0.992231222835468
10
68
20
0.221403764305037
30
-1E-16
41
0.994737698951194
10
68
20
0.220152983299434
30
-1E-16
41
0.997327291339371
10
68
20
0.219057428629105
30
-1E-16
41
1
10
68
20
0.218116167550477
30
-1E-16
0
SPLINE
5
E1
100
AcDbEntity
8
1
62
256
6
ByLayer
370
18
48
1
60
0
100
AcDbSpline
70
4
71
3
72
8
73
4
40
0
40
0
40
0
40
0
40
1
40
1
40
1
40
1
41
1
10
68
20
0.76966497569822
30
0
41
0.916728387844816
10
68
20
0.463043852147438
30
0
41
0.914138795456639
10
68
20
0.263809350008276
30
-2E-16
41
0.992231222835468
10
68
20
0.221403764305037
30
-1E-16
0
SPLINE
5
E2
100
AcDbEntity
8
1
62
256
6
ByLayer
370
18
48
1
60
0
100
AcDbSpline
70
4
71
3
72
8
73
4
40
0
40
0
40
0
40
0
40
1
40
1
40
1
40
1
41
0.992231222835468
10
68
20
-1.93000337434045
30
1E-16
41
0.994737698951194
10
68
20
-1.93928496026846
30
1E-16
41
0.997327291339371
10
68
20
-1.9484933258111
30
-1E-16
41
1
10
68
20
-1.9576267437063
30
-1E-16
0
SPLINE
5
E3
100
AcDbEntity
8
1
62
256
6
ByLayer
370
18
48
1
60
0
100
AcDbSpline
70
4
71
3
72
8
73
4
40
0
40
0
40
0
40
0
40
1
40
1
40
1
40
1
41
1
10
68
20
-0.994361601068448
30
1E-16
41
0.916728387844816
10
68
20
-1.27600555415325
30
1E-16
41
0.914138795456639
10
68
20
-1.61532711544707
30
0
41
0.992231222835468
10
68
20
-1.93000337434045
30
1E-16
0
SPLINE
5
E4
100
AcDbEntity
8
1
62
256
6
ByLayer
370
18
48
1
60
0
100
AcDbSpline
70
4
71
3
72
8
73
4
40
0
40
0
40
0
40
0
40
1
40
1
40
1
40
1
41
0.90703348982411
10
68
20
-0.825998601068066
30
1E-16
41
0.927239295107481
10
68
20
-0.872737807422636
30
1E-16
41
0.958228131832778
10
68
20
-0.929793746973435
30
1E-16
41
1
10
68
20
-0.994361601068448
30
1E-16
0
SPLINE
5
E5
100
AcDbEntity
8
1
62
256
6
ByLayer
370
18
48
1
60
0
100
AcDbSpline
70
4
71
3
72
49
73
45
40
0
40
0
40
0
40
0
40
0.062500000000018
40
0.062500000000018
40
0.125000000000036
40
0.125000000000036
40
0.187500000000054
40
0.187500000000054
40
0.218750000000068
40
0.218750000000068
40
0.250000000000082
40
0.250000000000082
40
0.281250000000096
40
0.281250000000096
40
0.31250000000011
40
0.31250000000011
40
0.343750000000124
40
0.343750000000124
40
0.359375000000132
40
0.359375000000132
40
0.375000000000139
40
0.375000000000139
40
0.406250000000153
40
0.421875000000161
40
0.421875000000161
40
0.437500000000168
40
0.437500000000168
40
0.500000000000104
40
0.500000000000104
40
0.531250000000087
40
0.531250000000087
40
0.562500000000071
40
0.562500000000071
40
0.625000000000008
40
0.625000000000008
40
0.656249999999991
40
0.656249999999991
40
0.687499999999973
40
0.687499999999973
40
0.749999999999968
40
0.749999999999968
40
0.874999999999984
40
0.874999999999984
40
1
40
1
40
1
40
1
41
1
10
66.3006350831228
20
-2.3971037980061
30
1E-16
41
1
10
66.3006350827369
20
-2.3862869087265
30
0
41
1
10
66.3016733489435
20
-2.37511438816031
30
0
41
1
10
66.3060869598637
20
-2.35209556757084
30
0
41
1
10
66.309457113928
20
-2.34024897393402
30
-1E-16
41
1
10
66.3190334054061
20
-2.3159277162251
30
1E-16
41
1
10
66.3252265741556
20
-2.30345236180673
30
1E-16
41
1
10
66.3373901726103
20
-2.28431917519691
30
0
41
1
10
66.341952568171
20
-2.27784210442664
30
0
41
1
10
66.3521471944575
20
-2.26491674160195
30
0
41
1
10
66.3577607932985
20
-2.25848562668614
30
0
41
1
10
66.3702092066936
20
-2.24574807121758
30
-1E-16
41
1
10
66.3770428418106
20
-2.23944130416126
30
-1E-16
41
1
10
66.3922105597392
20
-2.22703783037792
30
1E-16
41
1
10
66.4004835658134
20
-2.22100081960846
30
1E-16
41
1
10
66.4183420254076
20
-2.20956207205842
30
1E-16
41
1
10
66.4279611895706
20
-2.20413127086837
30
1E-16
41
1
10
66.4435900022906
20
-2.19652878501
30
0
41
1
10
66.4490001414337
20
-2.19408551094384
30
0
41
1
10
66.4602565161762
20
-2.18940302685942
30
0
41
1
10
66.4660679212758
20
-2.18718064506936
30
0
41
1
10
66.4837703515083
20
-2.18098618552108
30
0
41
1
10
66.5021719361882
20
-2.17566942176441
30
0
41
1
10
66.5215824744341
20
-2.17165402033558
30
0
41
1
10
66.5347427877912
20
-2.1692630912286
30
0
41
1
10
66.541464567152
20
-2.1682072931529
30
0
41
1
10
66.5750265156344
20
-2.16370562556739
30
0
41
1
10
66.601974637746
20
-2.16248333693767
30
0
41
1
10
66.6424989259716
20
-2.16311085295138
30
0
41
1
10
66.6559372611149
20
-2.16373816949866
30
0
41
1
10
66.6823420437328
20
-2.16563274413039
30
0
41
1
10
66.6953714248461
20
-2.16690137730288
30
0
41
1
10
66.7340405929361
20
-2.17146704978285
30
0
41
1
10
66.759265772987
20
-2.17551529741297
30
0
41
1
10
66.7965227727039
20
-2.18255989728567
30
0
41
1
10
66.8088277341409
20
-2.18507064614556
30
0
41
1
10
66.8330719144029
20
-2.19031243906934
30
0
41
1
10
66.8450388831475
20
-2.1930488913907
30
0
41
1
10
66.8805496713755
20
-2.20152753748735
30
1E-16
41
1
10
66.9037067436287
20
-2.20753561445883
30
1E-16
41
1
10
66.9720553378427
20
-2.22617937078462
30
1E-16
41
1
10
67.0161404724785
20
-2.23941504439625
30
-1E-16
41
1
10
67.1027393352029
20
-2.26604800335488
30
0
41
1
10
67.1452410443694
20
-2.27945775830438
30
0
41
1
10
67.1873769483102
20
-2.29254082421338
30
0
0
SPLINE
5
E6
100
AcDbEntity
8
1
62
256
6
ByLayer
370
18
48
1
60
0
100
AcDbSpline
70
4
71
3
72
16
73
12
40
0
40
0
40
0
40
0
40
0.249999999999986
40
0.249999999999986
40
0.499999999999973
40
0.499999999999973
40
0.624999999999979
40
0.624999999999979
40
0.749999999999986
40
0.749999999999986
40
1
40
1
40
1
40
1
41
1
10
68.0000000000001
20
-2.07818408372111
30
0
41
1
10
67.9282126118896
20
-2.04400302339525
30
-1E-16
41
1
10
67.8565579869334
20
-2.00764624657819
30
0
41
1
10
67.712035053357
20
-1.9317743505766
30
1E-16
41
1
10
67.6391744044869
20
-1.89225248246649
30
0
41
1
10
67.5280822033204
20
-1.83157498757569
30
1E-16
41
1
10
67.4907955800038
20
-1.81113800287122
30
0
41
1
10
67.4159804999331
20
-1.7696425915685
30
-1E-16
41
1
10
67.3784493230951
20
-1.74858509666655
30
1E-16
41
1
10
67.2656704058114
20
-1.6843446067632
30
-1E-16
41
1
10
67.1903276351066
20
-1.64012466514615
30
1E-16
41
1
10
67.1149489954902
20
-1.5944120158421
30
2E-16
0
SPLINE
5
E7
100
AcDbEntity
8
1
62
256
6
ByLayer
370
18
48
1
60
0
100
AcDbSpline
70
4
71
3
72
30
73
26
40
0
40
0
40
0
40
0
40
0.124999999999997
40
0.124999999999997
40
0.249999999999994
40
0.249999999999994
40
0.312499999999992
40
0.312499999999992
40
0.37499999999999
40
0.37499999999999
40
0.499999999999987
40
0.499999999999987
40
0.562499999999985
40
0.562499999999985
40
0.624999999999983
40
0.624999999999983
40
0.749999999999989
40
0.749999999999989
40
0.812499999999996
40
0.812499999999996
40
0.843749999999996
40
0.843749999999996
40
0.874999999999997
40
0.874999999999997
40
1
40
1
40
1
40
1
41
1
10
67.1149489954764
20
-1.5944120158328
30
2E-16
41
1
10
67.0590115032134
20
-1.5604892629178
30
1E-16
41
1
10
67.0037203520911
20
-1.52524803389056
30
0
41
1
10
66.8959983001378
20
-1.45046743119576
30
-2E-16
41
1
10
66.8435695694174
20
-1.41092747478541
30
2E-16
41
1
10
66.7682112850583
20
-1.34697549350389
30
0
41
1
10
66.7436768066574
20
-1.32490728333329
30
0
41
1
10
66.6962693032424
20
-1.27938274543618
30
-1E-16
41
1
10
66.6733480305259
20
-1.25588949372033
30
-2E-16
41
1
10
66.6071368936385
20
-1.18299472288115
30
1E-16
41
1
10
66.5663899019601
20
-1.13119033392067
30
0
41
1
10
66.5110148997111
20
-1.04780273929151
30
-2E-16
41
1
10
66.4934639721366
20
-1.01894793484146
30
2E-16
41
1
10
66.4608774947261
20
-0.960215052769826
30
0
41
1
10
66.4457722473986
20
-0.930254596863989
30
0
41
1
10
66.403845036345
20
-0.838612246798363
30
2E-16
41
1
10
66.3803847988878
20
-0.775179660678248
30
0
41
1
10
66.3515695888092
20
-0.676481522995317
30
-2E-16
41
1
10
66.3430311455833
20
-0.642989020454593
30
2E-16
41
1
10
66.3318527346503
20
-0.591825875346814
30
1E-16
41
1
10
66.3283988611374
20
-0.574617142072952
30
0
41
1
10
66.3220506246795
20
-0.539881099851669
30
-1E-16
41
1
10
66.3191624325163
20
-0.522380496794625
30
-1E-16
41
1
10
66.3062562988439
20
-0.434732660535246
30
1E-16
41
1
10
66.3006350841587
20
-0.363686691381503
30
0
41
1
10
66.3006350831228
20
-0.291606097203555
30
-2E-16
0
SPLINE
5
E8
100
AcDbEntity
8
1
62
256
6
ByLayer
370
18
48
1
60
0
100
AcDbSpline
70
4
71
3
72
49
73
45
40
0
40
0
40
0
40
0
40
0.0625000000000336
40
0.0625000000000336
40
0.125000000000067
40
0.125000000000067
40
0.187500000000101
40
0.187500000000101
40
0.218750000000118
40
0.218750000000118
40
0.250000000000134
40
0.250000000000134
40
0.281250000000151
40
0.281250000000151
40
0.312500000000168
40
0.312500000000168
40
0.343750000000185
40
0.343750000000185
40
0.359375000000193
40
0.359375000000193
40
0.375000000000202
40
0.375000000000202
40
0.406250000000218
40
0.421875000000227
40
0.421875000000227
40
0.437500000000235
40
0.437500000000235
40
0.500000000000175
40
0.500000000000175
40
0.531250000000145
40
0.531250000000145
40
0.562500000000115
40
0.562500000000115
40
0.625000000000086
40
0.625000000000086
40
0.656250000000086
40
0.656250000000086
40
0.687500000000086
40
0.687500000000086
40
0.750000000000058
40
0.750000000000058
40
0.875000000000029
40
0.875000000000029
40
1
40
1
40
1
40
1
41
1
10
66.3006350831228
20
-0.291606097203555
30
-2E-16
41
1
10
66.3006350827368
20
-0.264755461881407
30
2E-16
41
1
10
66.3016733489435
20
-0.238045434831093
30
1E-16
41
1
10
66.3060869598637
20
-0.184949338456704
30
0
41
1
10
66.309457113928
20
-0.158562444294517
30
-1E-16
41
1
10
66.319033405406
20
-0.106192922895332
30
-2E-16
41
1
10
66.3252265741556
20
-0.0802082373718349
30
2E-16
41
1
10
66.3373901726103
20
-0.0416536003446595
30
1E-16
41
1
10
66.341952568171
20
-0.0288160105559143
30
1E-16
41
1
10
66.3521471944574
20
-0.003619876540597
30
0
41
1
10
66.3577607932985
20
0.0087072306826315
30
0
41
1
10
66.3702092066936
20
0.0327225067647419
30
-1E-16
41
1
10
66.3770428418106
20
0.0444112845164852
30
-1E-16
41
1
10
66.3922105597391
20
0.0670060673554076
30
-2E-16
41
1
10
66.4004835658134
20
0.0778012913230839
30
-2E-16
41
1
10
66.4183420254076
20
0.0978854224234738
30
2E-16
41
1
10
66.4279611895705
20
0.107227499888125
30
2E-16
41
1
10
66.4435900022906
20
0.120027604116757
30
2E-16
41
1
10
66.4490001414337
20
0.124091610786508
30
2E-16
41
1
10
66.4602565161762
20
0.131779528007257
30
1E-16
41
1
10
66.4660679212757
20
0.135375276717753
30
1E-16
41
1
10
66.4837703515083
20
0.145244474725558
30
1E-16
41
1
10
66.5021719361882
20
0.153390251141388
30
1E-16
41
1
10
66.521582474434
20
0.159057311960254
30
1E-16
41
1
10
66.5347427877912
20
0.162295540621415
30
1E-16
41
1
10
66.5414645671519
20
0.163648320525851
30
1E-16
41
1
10
66.5750265156344
20
0.169010132432902
30
0
41
1
10
66.601974637746
20
0.169000772663509
30
0
41
1
10
66.6424989259716
20
0.164552928627444
30
1E-16
41
1
10
66.6559372611148
20
0.162321542020322
30
1E-16
41
1
10
66.6823420437327
20
0.156727421407396
30
1E-16
41
1
10
66.6953714248461
20
0.153356947206675
30
1E-16
41
1
10
66.7340405929361
20
0.141859250444583
30
1E-16
41
1
10
66.759265772987
20
0.132360289357592
30
1E-16
41
1
10
66.796522772704
20
0.116200565065782
30
2E-16
41
1
10
66.8088277341408
20
0.11049599546871
30
2E-16
41
1
10
66.8330719144029
20
0.0986400941671377
30
2E-16
41
1
10
66.8450388831474
20
0.0924764684976083
30
-2E-16
41
1
10
66.8805496713754
20
0.0733948713400991
30
-2E-16
41
1
10
66.9037067436287
20
0.059891384157595
30
-1E-16
41
1
10
66.9720553378427
20
0.0176954940860981
30
0
41
1
10
67.0161404724785
20
-0.012656979384559
30
0
41
1
10
67.102739335203
20
-0.0756554876180644
30
2E-16
41
1
10
67.1452410443694
20
-0.108320109780209
30
-2E-16
41
1
10
67.1873769483101
20
-0.141484754171557
30
-1E-16
0
SPLINE
5
E9
100
AcDbEntity
8
1
62
256
6
ByLayer
370
18
48
1
60
0
100
AcDbSpline
70
4
71
3
72
14
73
10
40
0
40
0
40
0
40
0
40
0.25
40
0.25
40
0.5
40
0.5
40
0.75
40
0.75
40
1
40
1
40
1
40
1
41
1
10
67.1873769483102
20
-0.141484754171557
30
-1E-16
41
1
10
67.2572587199536
20
-0.19648782493158
30
0
41
1
10
67.326776315899
20
-0.251612818377623
30
1E-16
41
1
10
67.4648397419342
20
-0.362373125076289
30
0
41
1
10
67.5334061945488
20
-0.417990383411876
30
1E-16
41
1
10
67.668812132588
20
-0.530570014441821
30
-1E-16
41
1
10
67.7355897641385
20
-0.587280618301577
30
0
41
1
10
67.8682049635186
20
-0.700434901890986
30
-1E-16
41
1
10
67.9340494393743
20
-0.756870055442363
30
0
41
1
10
68
20
-0.812524626475607
30
1E-16
0
SPLINE
5
EA
100
AcDbEntity
8
1
62
256
6
ByLayer
370
18
48
1
60
0
100
AcDbSpline
70
4
71
3
72
16
73
12
40
0
40
0
40
0
40
0
40
0.25
40
0.25
40
0.5
40
0.5
40
0.625
40
0.625
40
0.75
40
0.75
40
1
40
1
40
1
40
1
41
1
10
68.0000000000001
20
0.205691910475764
30
0
41
1
10
67.9282126118898
20
0.271309531254815
30
-2E-16
41
1
10
67.8565579869333
20
0.336821161264254
30
1E-16
41
1
10
67.7120350533569
20
0.466010768334485
30
-2E-16
41
1
10
67.6391744044869
20
0.529703426496582
30
1E-16
41
1
10
67.5280822033204
20
0.622902265065846
30
-1E-16
41
1
10
67.4907955800038
20
0.653552681500969
30
-2E-16
41
1
10
67.4159804999331
20
0.714343947016488
30
1E-16
41
1
10
67.3784493230951
20
0.744482326841762
30
0
41
1
10
67.2656704058114
20
0.834336901524239
30
-2E-16
41
1
10
67.1903276350928
20
0.893449494090646
30
1E-16
41
1
10
67.1149489954764
20
0.951916556626628
30
0
0
SPLINE
5
EB
100
AcDbEntity
8
1
62
256
6
ByLayer
370
18
48
1
60
0
100
AcDbSpline
70
4
71
3
72
30
73
26
40
0
40
0
40
0
40
0
40
0.124999999999995
40
0.124999999999995
40
0.24999999999999
40
0.24999999999999
40
0.312499999999979
40
0.312499999999979
40
0.374999999999969
40
0.374999999999969
40
0.499999999999962
40
0.499999999999962
40
0.562499999999965
40
0.562499999999965
40
0.624999999999968
40
0.624999999999968
40
0.749999999999983
40
0.749999999999983
40
0.812499999999991
40
0.812499999999991
40
0.843749999999992
40
0.843749999999992
40
0.874999999999994
40
0.874999999999994
40
1
40
1
40
1
40
1
41
1
10
67.1149489954764
20
0.951916556626628
30
0
41
1
10
67.0590115032134
20
0.995304191039878
30
-1E-16
41
1
10
67.0037203520911
20
1.03890048265129
30
-2E-16
41
1
10
66.8959983001378
20
1.12793885766007
30
0
41
1
10
66.8435695694175
20
1.17338394938389
30
-1E-16
41
1
10
66.7682112850584
20
1.24384791476908
30
2E-16
41
1
10
66.7436768066576
20
1.26768683654811
30
1E-16
41
1
10
66.6962693032426
20
1.31582096804362
30
0
41
1
10
66.6733480305257
20
1.34015738843323
30
0
41
1
10
66.6071368936385
20
1.41401436492481
30
-2E-16
41
1
10
66.5663899019601
20
1.46438230833368
30
1E-16
41
1
10
66.5110148997112
20
1.54159143394324
30
-1E-16
41
1
10
66.4934639721366
20
1.56769608887879
30
-1E-16
41
1
10
66.460877494726
20
1.61953393089826
30
2E-16
41
1
10
66.4457722473986
20
1.64534788436276
30
1E-16
41
1
10
66.403845036345
20
1.72235346149549
30
0
41
1
10
66.3803847988878
20
1.77310477942029
30
1E-16
41
1
10
66.3515695888093
20
1.84792600281284
30
-1E-16
41
1
10
66.3430311455833
20
1.87264938981193
30
1E-16
41
1
10
66.3318527346503
20
1.90936518096481
30
0
41
1
10
66.3283988611374
20
1.92154231849506
30
-1E-16
41
1
10
66.3220506246795
20
1.94576746261001
30
1E-16
41
1
10
66.3191624325163
20
1.95779611422603
30
1E-16
41
1
10
66.3062562988439
20
2.0171519655909
30
-1E-16
41
1
10
66.3006350841587
20
2.06245507153966
30
1E-16
41
1
10
66.3006350831228
20
2.10549770080257
30
0
0
SPLINE
5
EC
100
AcDbEntity
8
1
62
256
6
ByLayer
370
18
48
1
60
0
100
AcDbSpline
70
4
71
3
72
49
73
45
40
0
40
0
40
0
40
0
40
0.0624999999999096
40
0.0624999999999096
40
0.124999999999819
40
0.124999999999819
40
0.187499999999729
40
0.187499999999729
40
0.218749999999684
40
0.218749999999684
40
0.249999999999639
40
0.249999999999639
40
0.281249999999594
40
0.281249999999594
40
0.31249999999955
40
0.31249999999955
40
0.343749999999505
40
0.343749999999505
40
0.359374999999483
40
0.359374999999483
40
0.374999999999461
40
0.374999999999461
40
0.406249999999417
40
0.42187499999941
40
0.42187499999941
40
0.437499999999403
40
0.437499999999403
40
0.499999999999408
40
0.499999999999408
40
0.531249999999426
40
0.531249999999426
40
0.562499999999443
40
0.562499999999443
40
0.624999999999511
40
0.624999999999511
40
0.656249999999559
40
0.656249999999559
40
0.687499999999607
40
0.687499999999607
40
0.749999999999674
40
0.749999999999674
40
0.874999999999837
40
0.874999999999837
40
1
40
1
40
1
40
1
41
1
10
66.3006350831228
20
2.10549770080255
30
0
41
1
10
66.3006350827369
20
2.1215314468451
30
-1E-16
41
1
10
66.3016733489435
20
2.13706895332922
30
1E-16
41
1
10
66.3060869598637
20
2.16714622911414
30
0
41
1
10
66.3094571139279
20
2.18168652963951
30
0
41
1
10
66.3190334054061
20
2.20973479332977
30
-1E-16
41
1
10
66.3252265741555
20
2.22324412443493
30
-1E-16
41
1
10
66.3373901726102
20
2.24266557485228
30
1E-16
41
1
10
66.341952568171
20
2.24902609387075
30
1E-16
41
1
10
66.3521471944574
20
2.26129686506138
30
0
41
1
10
66.3577607932985
20
2.26719285736883
30
0
41
1
10
66.3702092066936
20
2.27847057798237
30
0
41
1
10
66.3770428418106
20
2.28385258867778
30
0
41
1
10
66.3922105597392
20
2.29404389773336
30
0
41
1
10
66.4004835658135
20
2.29880211093157
30
-1E-16
41
1
10
66.4183420254076
20
2.30744749448195
30
-1E-16
41
1
10
66.4279611895706
20
2.31135877075653
30
-1E-16
41
1
10
66.4435900022907
20
2.31655638912679
30
-1E-16
41
1
10
66.4490001414338
20
2.31817712173037
30
-1E-16
41
1
10
66.4602565161763
20
2.32118255486668
30
-1E-16
41
1
10
66.4660679212758
20
2.32255592178714
30
1E-16
41
1
10
66.4837703515083
20
2.32623066024667
30
1E-16
41
1
10
66.5021719361883
20
2.32905967290583
30
1E-16
41
1
10
66.5215824744341
20
2.33071133229583
30
1E-16
41
1
10
66.5347427877912
20
2.33155863185002
30
1E-16
41
1
10
66.5414645671519
20
2.33185561367875
30
1E-16
41
1
10
66.5750265156344
20
2.33271575800029
30
1E-16
41
1
10
66.6019746377461
20
2.33148410960115
30
1E-16
41
1
10
66.6424989259717
20
2.32766378157882
30
1E-16
41
1
10
66.6559372611149
20
2.32605971151895
30
1E-16
41
1
10
66.6823420437328
20
2.32236016553779
30
1E-16
41
1
10
66.6953714248462
20
2.32025832450955
30
-1E-16
41
1
10
66.7340405929361
20
2.31332630022737
30
-1E-16
41
1
10
66.7592657729871
20
2.30787558677056
30
-1E-16
41
1
10
66.796522772704
20
2.29876046235145
30
-1E-16
41
1
10
66.8088277341409
20
2.29556664161427
30
0
41
1
10
66.8330719144029
20
2.28895253323648
30
0
41
1
10
66.8450388831475
20
2.28552535988825
30
0
41
1
10
66.8805496713755
20
2.27492240882742
30
0
41
1
10
66.9037067436287
20
2.26742699861643
30
0
41
1
10
66.9720553378427
20
2.24387486487072
30
1E-16
41
1
10
67.0161404724785
20
2.22675806501172
30
-1E-16
41
1
10
67.102739335203
20
2.19039251573682
30
0
41
1
10
67.1452410443695
20
2.17113764852414
30
0
41
1
10
67.1873769483102
20
2.15105607004182
30
1E-16
0
SPLINE
5
ED
100
AcDbEntity
8
1
62
256
6
ByLayer
370
18
48
1
60
0
100
AcDbSpline
70
4
71
3
72
14
73
10
40
0
40
0
40
0
40
0
40
0.25
40
0.25
40
0.5
40
0.5
40
0.75
40
0.75
40
1
40
1
40
1
40
1
41
1
10
67.1873769483102
20
2.15105607004185
30
1E-16
41
1
10
67.2572587199536
20
2.11775107001824
30
-1E-16
41
1
10
67.3267763158989
20
2.08285244794868
30
0
41
1
10
67.4648397419342
20
2.0095671255589
30
0
41
1
10
67.5334061945488
20
1.97119708524988
30
0
41
1
10
67.668812132588
20
1.89017960127305
30
0
41
1
10
67.7355897641385
20
1.84768228661747
30
-1E-16
41
1
10
67.8682049635187
20
1.75917320671235
30
1E-16
41
1
10
67.9340494393743
20
1.71316469991285
30
0
41
1
10
68
20
1.66580831801386
30
1E-16
0
SPLINE
5
EE
100
AcDbEntity
8
1
62
256
6
ByLayer
370
18
48
1
60
0
100
AcDbSpline
70
4
71
3
72
27
73
23
40
0
40
0
40
0
40
0
40
0.0244731249058061
40
0.0955580600587702
40
0.166642995211734
40
0.237727930364698
40
0.308812865517663
40
0.379897800670627
40
0.450982735823591
40
0.486525203400073
40
0.522067670976555
40
0.557610138553037
40
0.593152606129519
40
0.664237541282483
40
0.735322476435447
40
0.770864944011929
40
0.806407411588411
40
0.841949879164893
40
0.877492346741375
40
0.94857728189434
40
0.984119749470822
40
1
40
1
40
1
40
1
41
1
10
72.7458949749551
20
0.836736981878289
30
0
41
1
10
72.7889299798494
20
0.80161502632501
30
0
41
1
10
72.9569649825179
20
0.663197420608412
30
0
41
1
10
73.2500000000339
20
0.414275921363668
30
-1E-16
41
1
10
73.6250000145262
20
0.0884998464944715
30
-2E-16
41
1
10
74.0000000024591
20
-0.23716114131463
30
1E-16
41
1
10
74.3749999756354
20
-0.554663730891633
30
0
41
1
10
74.7500000000076
20
-0.85613128048206
30
0
41
1
10
75.0625000202821
20
-1.08803864408944
30
1E-16
41
1
10
75.3125000091339
20
-1.258537707747
30
1E-16
41
1
10
75.4999999984815
20
-1.37818642412918
30
-1E-16
41
1
10
75.6874999969402
20
-1.48846334040852
30
-1E-16
41
1
10
75.9374999999656
20
-1.62160945566708
30
0
41
1
10
76.2500000000134
20
-1.76078162821366
30
0
41
1
10
76.5624999999945
20
-1.86021886306673
30
0
41
1
10
76.812500000006
20
-1.91421262290251
30
0
41
1
10
77.0000000000053
20
-1.94161534234456
30
0
41
1
10
77.1874999999728
20
-1.9555018156116
30
0
41
1
10
77.437500000426
20
-1.95566509300428
30
0
41
1
10
77.6875000024318
20
-1.92855197184218
30
0
41
1
10
77.9029247785567
20
-1.88193382377949
30
0
41
1
10
77.9933495586223
20
-1.85773614154292
30
0
41
1
10
78.021274340151
20
-1.8498263981804
30
0
0
SPLINE
5
EF
100
AcDbEntity
8
1
62
256
6
ByLayer
370
18
48
1
60
0
100
AcDbSpline
70
4
71
3
72
27
73
23
40
0
40
0
40
0
40
0
40
0.0285070876433548
40
0.0997068330939092
40
0.170906578544464
40
0.242106323995018
40
0.313306069445572
40
0.384505814896127
40
0.455705560346681
40
0.491305433071959
40
0.526905305797235
40
0.562505178522513
40
0.59810505124779
40
0.669304796698344
40
0.740504542148899
40
0.776104414874176
40
0.811704287599453
40
0.84730416032473
40
0.882904033050007
40
0.954103778500562
40
0.989703651225839
40
1
40
1
40
1
40
1
41
0.994513437133288
10
72.7248939497632
20
0.853854078388878
30
0
41
0.994552886695739
10
72.7749398635767
20
0.813781927961533
30
0
41
0.994691807377341
10
72.9499705892382
20
0.672050710806923
30
0
41
0.994935137091196
10
73.2500000000338
20
0.421043603397981
30
-1E-16
41
0.995246584050069
10
73.6250000145262
20
0.0999007168155255
30
2E-16
41
0.995563446272568
10
74.0000000024592
20
-0.221460215353714
30
1E-16
41
0.995883677167251
10
74.3749999756354
20
-0.535143430469434
30
-1E-16
41
0.996205273912375
10
74.7500000000074
20
-0.833405709815284
30
0
41
0.996498382797678
10
75.0625000202822
20
-1.06319198344741
30
0
41
0.996758757574163
10
75.3125000091337
20
-1.2323687087314
30
0
41
0.996982157357209
10
75.4999999984815
20
-1.3512205105289
30
1E-16
41
0.997202888523717
10
75.6874999969404
20
-1.46094702163514
30
1E-16
41
0.99745354530231
10
75.9374999999655
20
-1.59375388098513
30
0
41
0.997727357117604
10
76.2500000000134
20
-1.73314106125507
30
0
41
0.997992743984569
10
76.5624999999946
20
-1.83355586617574
30
0
41
0.998221614758908
10
76.8125000000059
20
-1.88879117660607
30
0
41
0.998412608247548
10
77.0000000000053
20
-1.91736727708924
30
0
41
0.998596179335809
10
77.1874999999728
20
-1.9326554482894
30
0
41
0.998798013379189
10
77.437500000426
20
-1.93497290379193
30
0
41
0.998988103636856
10
77.6875000024317
20
-1.91038049584732
30
0
41
0.999133656523174
10
77.893082988054
20
-1.86821506997387
30
0
41
0.999193271279928
10
77.9736621943269
20
-1.84805637133232
30
0
41
0.999206691852276
10
77.9917387849113
20
-1.84335235888878
30
0
0
SPLINE
5
F0
100
AcDbEntity
8
1
62
256
6
ByLayer
370
18
48
1
60
0
100
AcDbSpline
70
4
71
3
72
19
73
15
40
0
40
0
40
0
40
0
40
0.0845143668102045
40
0.169028733620409
40
0.253543100430614
40
0.338057467240818
40
0.422571834051023
40
0.507086200861227
40
0.591600567671431
40
0.676114934481636
40
0.76062930129184
40
0.845143668102045
40
0.929658034912249
40
1
40
1
40
1
40
1
41
1
10
68
20
2.37860698471357
30
0
41
1
10
68.1249999575043
20
2.39400133970005
30
0
41
1
10
68.3750000044415
20
2.41046778960279
30
0
41
1
10
68.7499999975819
20
2.39120594395717
30
0
41
1
10
69.1250000052298
20
2.32811134606189
30
0
41
1
10
69.4999999960298
20
2.22210828100555
30
0
41
1
10
69.8750000106509
20
2.07489826498926
30
0
41
1
10
70.2499999973437
20
1.88905725562464
30
0
41
1
10
70.6249999999749
20
1.66794818621034
30
1E-16
41
1
10
71.0000000000132
20
1.41569814249803
30
0
41
1
10
71.3749999999721
20
1.13717401820537
30
0
41
1
10
71.7500000000234
20
0.837851138279603
30
-2E-16
41
1
10
72.1040384725425
20
0.541363585984499
30
1E-16
41
1
10
72.333076947238
20
0.344950048145534
30
0
41
1
10
72.4371154187434
20
0.25544081520431
30
0
0
SPLINE
5
F1
100
AcDbEntity
8
1
62
256
6
ByLayer
370
18
48
1
60
0
100
AcDbSpline
70
4
71
3
72
21
73
17
40
0
40
0
40
0
40
0
40
0.0258734174189027
40
0.106447519944256
40
0.187021622469609
40
0.267595724994962
40
0.348169827520315
40
0.428743930045668
40
0.509318032571022
40
0.589892135096375
40
0.670466237621728
40
0.751040340147081
40
0.831614442672434
40
0.912188545197787
40
0.99276264772314
40
1
40
1
40
1
40
1
41
1
10
69.379582505827
20
1.45440134522585
30
0
41
1
10
69.4197216702916
20
1.43998897802894
30
0
41
1
10
69.5848608345698
20
1.37891254265725
30
0
41
1
10
69.8750000106501
20
1.25907052706236
30
-1E-16
41
1
10
70.2499999973446
20
1.08219372321085
30
-1E-16
41
1
10
70.6249999999742
20
0.886269457292627
30
-1E-16
41
1
10
71.0000000000134
20
0.674605486625211
30
0
41
1
10
71.3749999999721
20
0.450884693732718
30
1E-16
41
1
10
71.7500000000234
20
0.21907705393545
30
-1E-16
41
1
10
72.1249999999342
20
-0.0165399471038086
30
0
41
1
10
72.5000000036816
20
-0.251504071159644
30
-1E-16
41
1
10
72.8749999853411
20
-0.481165376710692
30
0
41
1
10
73.2500000000316
20
-0.700821468617647
30
1E-16
41
1
10
73.6250000145264
20
-0.905733585741473
30
-1E-16
41
1
10
73.8862277952779
20
-1.03503510056234
30
-1E-16
41
1
10
74.0224555771293
20
-1.09773027577444
30
-1E-16
41
1
10
74.0336833656717
20
-1.10286490662241
30
-1E-16
0
SPLINE
5
F2
100
AcDbEntity
8
1
62
256
6
ByLayer
370
18
48
1
60
0
100
AcDbSpline
70
4
71
3
72
23
73
19
40
0
40
0
40
0
40
0
40
0.0409177184289096
40
0.113772523964751
40
0.186627329500593
40
0.259482135036435
40
0.332336940572276
40
0.405191746108118
40
0.47804655164396
40
0.550901357179801
40
0.623756162715643
40
0.696610968251485
40
0.769465773787327
40
0.842320579323168
40
0.91517538485901
40
0.951602787626931
40
0.988030190394852
40
1
40
1
40
1
40
1
41
0.992959460146594
10
70.4144120815649
20
0.570677920680463
30
0
41
0.99299624542563
10
70.4846142223492
20
0.512271554285903
30
0
41
0.993101758763278
10
70.6798061025437
20
0.348530285809598
30
-1E-16
41
0.99328884361753
10
71.0000000000132
20
0.0760676392569295
30
-2E-16
41
0.993526991112291
10
71.3749999999722
20
-0.242397384793126
30
1E-16
41
0.993782236730479
10
71.7500000000234
20
-0.55367085557826
30
0
41
0.994052623003599
10
72.1249999999343
20
-0.851111304418897
30
2E-16
41
0.994336203843669
10
72.5000000036813
20
-1.12821369437208
30
0
41
0.994631023337918
10
72.8749999853402
20
-1.37869071099983
30
-1E-16
41
0.994935137091196
10
73.2500000000338
20
-1.59668144258355
30
0
41
0.995246584050069
10
73.6250000145262
20
-1.7768521321278
30
-1E-16
41
0.995563446272568
10
74.0000000024592
20
-1.91464028806656
30
0
41
0.995883677167251
10
74.3749999756354
20
-2.00614963821457
30
0
41
0.996205273912375
10
74.7500000000074
20
-2.04871331813031
30
0
41
0.996498382797678
10
75.0625000202822
20
-2.04234985410557
30
0
41
0.996758757574163
10
75.3125000091337
20
-2.01198178279142
30
0
41
0.996932160005479
10
75.4580443966225
20
-1.98454880227479
30
0
41
0.997030310752886
10
75.5410875773709
20
-1.96521745979778
30
0
41
0.997054359989253
10
75.5616251680683
20
-1.96021279517084
30
0
0
SPLINE
5
F3
100
AcDbEntity
8
1
62
256
6
ByLayer
370
18
48
1
60
0
100
AcDbSpline
70
4
71
3
72
16
73
12
40
0
40
0
40
0
40
0
40
0.111673366781726
40
0.223346733563453
40
0.335020100345179
40
0.446693467126906
40
0.558366833908632
40
0.670040200690359
40
0.781713567472085
40
0.893386934253812
40
1
40
1
40
1
40
1
41
1
10
68
20
0.76966497569822
30
0
41
1
10
68.1249999575421
20
0.696925526516566
30
-1E-16
41
1
10
68.3750000044236
20
0.547980665394647
30
0
41
1
10
68.7499999975851
20
0.31699055810293
30
-1E-16
41
1
10
69.1250000052294
20
0.0825757386083978
30
0
41
1
10
69.4999999960302
20
-0.151363013080669
30
-1E-16
41
1
10
69.8750000106501
20
-0.380889009971355
30
0
41
1
10
70.2499999973446
20
-0.602047887935584
30
1E-16
41
1
10
70.6249999999742
20
-0.810917110404517
30
-1E-16
41
1
10
70.9943358237847
20
-1.00078210195031
30
-1E-16
41
1
10
71.2386716475309
20
-1.11380549494564
30
0
41
1
10
71.358007471303
20
-1.16550958929125
30
0
0
SPLINE
5
F4
100
AcDbEntity
8
1
62
256
6
ByLayer
370
18
48
1
60
0
100
AcDbSpline
70
4
71
3
72
23
73
19
40
0
40
0
40
0
40
0
40
0.0404645850802578
40
0.112906389449334
40
0.185348193818409
40
0.257789998187485
40
0.330231802556561
40
0.402673606925637
40
0.475115411294712
40
0.547557215663788
40
0.619999020032864
40
0.69244082440194
40
0.764882628771015
40
0.837324433140091
40
0.909766237509167
40
0.945987139693705
40
0.982208041878243
40
1
40
1
40
1
40
1
41
1
10
70.4155322815369
20
0.569357380915164
30
0
41
1
10
70.4853548539815
20
0.510413483474736
30
0
41
1
10
70.6801774275162
20
0.344609026184798
30
0
41
1
10
71.0000000000132
20
0.0686093677409474
30
-2E-16
41
1
10
71.3749999999721
20
-0.25419603131806
30
2E-16
41
1
10
71.7500000000234
20
-0.569506576686081
30
0
41
1
10
72.1249999999343
20
-0.870556621260704
30
-2E-16
41
1
10
72.5000000036813
20
-1.15072404195826
30
0
41
1
10
72.8749999853401
20
-1.40361555301908
30
0
41
1
10
73.2500000000339
20
-1.6232801542975
30
0
41
1
10
73.6250000145262
20
-1.8043138787761
30
0
41
1
10
74.0000000024591
20
-1.94210747705816
30
0
41
1
10
74.3749999756354
20
-2.03274494574973
30
0
41
1
10
74.7500000000076
20
-2.07357117781214
30
0
41
1
10
75.0625000202821
20
-2.06507465244741
30
0
41
1
10
75.3125000091339
20
-2.03258838084486
30
0
41
1
10
75.4682004333404
20
-2.00173122769144
30
0
41
1
10
75.5614008644744
20
-1.97855919384199
30
0
41
1
10
75.5921012971565
20
-1.97042117041073
30
0
0
SPLINE
5
F5
100
AcDbEntity
8
1
62
256
6
ByLayer
370
18
48
1
60
0
100
AcDbSpline
70
4
71
3
72
21
73
17
40
0
40
0
40
0
40
0
40
0.075361213610068
40
0.150722427220136
40
0.226083640830204
40
0.301444854440272
40
0.37680606805034
40
0.452167281660408
40
0.527528495270476
40
0.602889708880544
40
0.678250922490612
40
0.75361213610068
40
0.828973349710748
40
0.904334563320816
40
0.979695776930884
40
1
40
1
40
1
40
1
41
0.992231222835468
10
68
20
0.221403764305037
30
-1E-16
41
0.992237074695524
10
68.1249999574866
20
0.115813125221216
30
2E-16
41
0.992264833945796
10
68.37500000445
20
-0.0959938922671744
30
-2E-16
41
0.992328498738608
10
68.7499999975804
20
-0.409621635896435
30
1E-16
41
0.992422979078459
10
69.1250000052301
20
-0.713541039354236
30
-1E-16
41
0.992546306184442
10
69.4999999960297
20
-1.00200605332283
30
1E-16
41
0.992696516943255
10
69.8750000106513
20
-1.26941356573314
30
1E-16
41
0.992871649675369
10
70.2499999973433
20
-1.51041421589996
30
0
41
0.993069743381058
10
70.6249999999753
20
-1.72000287197947
30
0
41
0.99328884361753
10
71.0000000000132
20
-1.8936844769972
30
0
41
0.993526991112291
10
71.3749999999722
20
-2.0275393801897
30
0
41
0.993782236730479
10
71.7500000000234
20
-2.11837310291869
30
0
41
0.994052623003599
10
72.1249999999343
20
-2.16379954932794
30
0
41
0.994336203843669
10
72.5000000036813
20
-2.16232760675364
30
0
41
0.994559227457214
10
72.7836986397438
20
-2.12535966601097
30
0
41
0.994686474097341
10
72.9423932589792
20
-2.09208884366813
30
0
41
0.994713587230858
10
72.9760724490082
20
-2.08446611036894
30
0
0
SPLINE
5
F6
100
AcDbEntity
8
1
62
256
6
ByLayer
370
18
48
1
60
0
100
AcDbSpline
70
4
71
3
72
12
73
8
40
0
40
0
40
0
40
0
40
0.227410430695539
40
0.454820861391078
40
0.682231292086618
40
0.909641722782157
40
1
40
1
40
1
40
1
41
1
10
68
20
1.60953833335915
30
0
41
1
10
68.1249999575043
20
1.52438850699733
30
0
41
1
10
68.3750000044415
20
1.34519446148775
30
0
41
1
10
68.7499999975819
20
1.05424882783811
30
2E-16
41
1
10
69.1250000052298
20
0.746381101749535
30
0
41
1
10
69.4246669573824
20
0.491360186045483
30
-1E-16
41
1
10
69.5993339203536
20
0.340986478545347
30
0
41
1
10
69.6490008809295
20
0.298152322506155
30
0
0
SPLINE
5
F7
100
AcDbEntity
8
1
62
256
6
ByLayer
370
18
48
1
60
0
100
AcDbSpline
70
4
71
3
72
12
73
8
40
0
40
0
40
0
40
0
40
0.5
40
0.5
40
0.75
40
0.75
40
1
40
1
40
1
40
1
41
1
10
78.7273872339316
20
1.85768963809667
30
0
41
1
10
78.7807044933842
20
1.84019438666834
30
0
41
1
10
78.832947740024
20
1.81892555233623
30
0
41
1
10
78.9092030087732
20
1.78170432926999
30
0
41
1
10
78.9342666929684
20
1.76841004474647
30
0
41
1
10
78.9835484469641
20
1.74010258484554
30
0
41
1
10
79.007802132825
20
1.72506438663174
30
0
41
1
10
79.0314251531158
20
1.7092767947056
30
0
0
SPLINE
5
F8
100
AcDbEntity
8
1
62
256
6
ByLayer
370
18
48
1
60
0
100
AcDbSpline
70
4
71
3
72
9
73
5
40
0
40
0
40
0
40
0
40
0.779650823014796
40
1
40
1
40
1
40
1
41
1
10
68
20
-0.994361601068448
30
1E-16
41
1
10
68.1249999575421
20
-1.05688232311823
30
0
41
1
10
68.2853281708278
20
-1.1329729681857
30
1E-16
41
1
10
68.4456563629571
20
-1.20291889022667
30
1E-16
41
1
10
68.4809845474579
20
-1.21802370978736
30
1E-16
0
SPLINE
5
F9
100
AcDbEntity
8
1
62
256
6
ByLayer
370
18
48
1
60
0
100
AcDbSpline
70
4
71
3
72
21
73
17
40
0
40
0
40
0
40
0
40
0.0748295930010844
40
0.149659186002169
40
0.224488779003253
40
0.299318372004338
40
0.374147965005422
40
0.448977558006507
40
0.523807151007591
40
0.598636744008675
40
0.67346633700976
40
0.748295930010844
40
0.823125523011929
40
0.897955116013013
40
0.972784709014097
40
1
40
1
40
1
40
1
41
1
10
68
20
0.218116167550477
30
-1E-16
41
1
10
68.124999957484
20
0.111181444911836
30
2E-16
41
1
10
68.3750000044511
20
-0.103326825588311
30
-2E-16
41
1
10
68.7499999975801
20
-0.420889303642781
30
1E-16
41
1
10
69.1250000052301
20
-0.728557871026482
30
-1E-16
41
1
10
69.4999999960297
20
-1.02048449007029
30
2E-16
41
1
10
69.8750000106513
20
-1.29096428203479
30
-1E-16
41
1
10
70.2499999973432
20
-1.53455038274228
30
0
41
1
10
70.6249999999753
20
-1.74614780622969
30
1E-16
41
1
10
71.0000000000132
20
-1.92118373859753
30
1E-16
41
1
10
71.3749999999721
20
-2.0556759980233
30
0
41
1
10
71.7500000000234
20
-2.14638633738545
30
0
41
1
10
72.1249999999343
20
-2.19090654019578
30
0
41
1
10
72.5000000036813
20
-2.18774675725896
30
0
41
1
10
72.7954621017021
20
-2.14732139103128
30
0
41
1
10
72.9659242160757
20
-2.1092529765991
30
0
41
1
10
73.0113863295166
20
-2.09806508031028
30
0
0
SPLINE
5
FA
100
AcDbEntity
8
1
62
256
6
ByLayer
370
18
48
1
60
0
100
AcDbSpline
70
4
71
3
72
14
73
10
40
0
40
0
40
0
40
0
40
0.164678221285443
40
0.329356442570886
40
0.494034663856329
40
0.658712885141772
40
0.823391106427215
40
0.988069327712658
40
1
40
1
40
1
40
1
41
0.992231222835468
10
68
20
-1.93000337434045
30
1E-16
41
0.992237074695524
10
68.1249999574866
20
-1.98605475830668
30
0
41
0.992264833945796
10
68.37500000445
20
-2.08635924960696
30
0
41
0.992328498738608
10
68.7499999975804
20
-2.19789624737963
30
0
41
0.992422979078459
10
69.1250000052301
20
-2.26825568083827
30
0
41
0.992546306184442
10
69.4999999960297
20
-2.29572321395814
30
0
41
0.992696516943255
10
69.8750000106513
20
-2.27930959877301
30
0
41
0.992817501459592
10
70.134070179329
20
-2.23756755259797
30
0
41
0.992884509808833
10
70.2681356896604
20
-2.20766512375886
30
0
41
0.992889056466447
10
70.2771918496071
20
-2.20560743039976
30
0
0
SPLINE
5
FB
100
AcDbEntity
8
1
62
256
6
ByLayer
370
18
48
1
60
0
100
AcDbSpline
70
4
71
3
72
10
73
6
40
0
40
0
40
0
40
0
40
0.0764045939838924
40
0.493805092987605
40
1
40
1
40
1
40
1
41
1
10
78.278178375309
20
1.81277066550973
30
0
41
1
10
78.2896189156084
20
1.81489118313439
30
0
41
1
10
78.3635594573687
20
1.8281226612975
30
0
41
1
10
78.5132957460714
20
1.84870097230842
30
0
41
1
10
78.6515914897378
20
1.85667067478087
30
0
41
1
10
78.7273872339334
20
1.85768963809639
30
0
0
SPLINE
5
FC
100
AcDbEntity
8
1
62
256
6
ByLayer
370
18
48
1
60
0
100
AcDbSpline
70
4
71
3
72
14
73
10
40
0
40
0
40
0
40
0
40
0.25
40
0.25
40
0.5
40
0.5
40
0.75
40
0.75
40
1
40
1
40
1
40
1
41
1
10
78.1046719124859
20
1.87517760174302
30
0
41
1
10
78.156769647404
20
1.88871962124176
30
0
41
1
10
78.2084903804289
20
1.89859313432078
30
0
41
1
10
78.3117241909938
20
1.91101027802912
30
0
41
1
10
78.3632354964701
20
1.91355466685079
30
0
41
1
10
78.4665936292515
20
1.91106831327696
30
0
41
1
10
78.5184375379081
20
1.90604086577545
30
0
41
1
10
78.6230694663639
20
1.88785857667099
30
0
41
1
10
78.6751841637592
20
1.87481983882975
30
0
41
1
10
78.7273872339332
20
1.8576896380963
30
0
0
SPLINE
5
FD
100
AcDbEntity
8
1
62
256
6
ByLayer
370
18
48
1
60
0
100
AcDbSpline
70
4
71
3
72
17
73
13
40
0
40
0
40
0
40
0
40
0.0691312242073305
40
0.160177215257585
40
0.251223206307839
40
0.342269197358093
40
0.524361179458602
40
0.615407170508856
40
0.70645316155911
40
0.797499152609365
40
0.888545143659619
40
1
40
1
40
1
40
1
41
1
10
76.6701312434045
20
1.52535480709358
30
0
41
1
10
76.7175874956042
20
1.51662270783501
30
0
41
1
10
76.8275437478073
20
1.4943306710943
30
0
41
1
10
77.0000000000053
20
1.45221766031145
30
0
41
1
10
77.1874999999727
20
1.39696419398535
30
-1E-16
41
1
10
77.4375000004258
20
1.31013603685176
30
0
41
1
10
77.6875000024335
20
1.20549248665
30
0
41
1
10
77.9374999956351
20
1.08486001874968
30
-1E-16
41
1
10
78.1249999921015
20
0.987387911665451
30
-1E-16
41
1
10
78.3124999960893
20
0.882900767142303
30
-1E-16
41
1
10
78.5140099985328
20
0.763304954747468
30
0
41
1
10
78.6530199946118
20
0.676306910081877
30
0
41
1
10
78.7295299912459
20
0.627315900109409
30
1E-16
0
SPLINE
5
FE
100
AcDbEntity
8
1
62
256
6
ByLayer
370
18
48
1
60
0
100
AcDbSpline
70
4
71
3
72
14
73
10
40
0
40
0
40
0
40
0
40
0.161936418896228
40
0.323872837792457
40
0.485809256688685
40
0.647745675584913
40
0.809682094481142
40
0.97161851337737
40
1
40
1
40
1
40
1
41
1
10
68
20
-1.9576267437063
30
-1E-16
41
1
10
68.124999957484
20
-2.01415343892944
30
1E-16
41
1
10
68.3750000044511
20
-2.11524596365462
30
1E-16
41
1
10
68.7499999975801
20
-2.22741382238618
30
0
41
1
10
69.1250000052301
20
-2.29780636746432
30
0
41
1
10
69.4999999960297
20
-2.32467095880404
30
0
41
1
10
69.8750000106513
20
-2.30699656229785
30
0
41
1
10
70.1469078945566
20
-2.26179346334823
30
0
41
1
10
70.2938157865675
20
-2.22725563843127
30
0
41
1
10
70.315723679957
20
-2.22188164675802
30
0
0
SPLINE
5
FF
100
AcDbEntity
8
1
62
256
6
ByLayer
370
18
48
1
60
0
100
AcDbSpline
70
4
71
3
72
8
73
4
40
0
40
0
40
0
40
0
40
1
40
1
40
1
40
1
41
0.992250055134472
10
68.2300965136605
20
-2.05329399747689
30
0
41
0.992251316504877
10
68.2413084934249
20
-2.04818046016147
30
0
41
0.992252620952821
10
68.252520485444
20
-2.04301894337996
30
0
41
0.992253965334464
10
68.2637324904076
20
-2.03780973944432
30
0
0
SPLINE
5
100
100
AcDbEntity
8
1
62
256
6
ByLayer
370
18
48
1
60
0
100
AcDbSpline
70
4
71
3
72
16
73
12
40
0
40
0
40
0
40
0
40
0.0100361358997419
40
0.118598337521595
40
0.227160539143447
40
0.444284942387153
40
0.552847144009006
40
0.661409345630859
40
0.769971547252712
40
0.878533748874564
40
1
40
1
40
1
40
1
41
0.998394029498889
10
76.9826781513916
20
1.28697684531942
30
-1E-16
41
0.998399818282441
10
76.9884559752275
20
1.28307006808258
30
-1E-16
41
0.998468141809066
10
77.0567294018026
20
1.23676612709005
30
-1E-16
41
0.998596179335809
10
77.1874999999728
20
1.14494556851951
30
0
41
0.998798013379189
10
77.437500000426
20
0.959756878623428
30
0
41
0.998988103636856
10
77.6875000024317
20
0.761840002045538
30
0
41
0.999165109365155
10
77.9374999956378
20
0.555237880730404
30
0
41
0.999307122077658
10
78.1249999921014
20
0.396905915322518
30
0
41
0.999437941218954
10
78.312499996087
20
0.2364462253492
30
-1E-16
41
0.999544156621895
10
78.5074348025339
20
0.0687620327095046
30
1E-16
41
0.999610018684587
10
78.6398684998475
20
-0.0449800705664307
30
1E-16
41
0.999642968674868
10
78.7097990808724
20
-0.104715805816897
30
0
0
SPLINE
5
101
100
AcDbEntity
8
1
62
256
6
ByLayer
370
18
48
1
60
0
100
AcDbSpline
70
4
71
3
72
22
73
18
40
0
40
0
40
0
40
0
40
0.0373286879645329
40
0.120081823832895
40
0.202834959701256
40
0.285588095569618
40
0.368341231437979
40
0.451094367306341
40
0.533847503174703
40
0.616600639043065
40
0.699353774911426
40
0.740730342845607
40
0.782106910779788
40
0.823483478713969
40
0.86486004664815
40
0.947613182516511
40
1
40
1
40
1
40
1
41
1
10
71.9558431718829
20
1.48284732053102
30
0
41
1
10
72.0122287813569
20
1.46580827486218
30
0
41
1
10
72.1936143912214
20
1.40780988506623
30
0
41
1
10
72.5000000036816
20
1.29298369953031
30
1E-16
41
1
10
72.8749999853411
20
1.12631783492168
30
0
41
1
10
73.2500000000316
20
0.936400992738726
30
0
41
1
10
73.6250000145264
20
0.726734398032448
30
1E-16
41
1
10
74.0000000024611
20
0.501253001191287
30
-1E-16
41
1
10
74.374999975636
20
0.264746903746669
30
0
41
1
10
74.7500000000028
20
0.0223628939206435
30
-1E-16
41
1
10
75.0625000202867
20
-0.179389121976072
30
0
41
1
10
75.3125000091282
20
-0.337907053127225
30
-1E-16
41
1
10
75.4999999984822
20
-0.454701770313477
30
0
41
1
10
75.6874999969431
20
-0.569102877367754
30
0
41
1
10
75.9374999999637
20
-0.718090589055436
30
-1E-16
41
1
10
76.2041311666591
20
-0.868659878298359
30
1E-16
41
1
10
76.4082623333076
20
-0.97396472817951
30
1E-16
41
1
10
76.487393499959
20
-1.01309140023295
30
0
0
SPLINE
5
102
100
AcDbEntity
8
1
62
256
6
ByLayer
370
18
48
1
60
0
100
AcDbSpline
70
4
71
3
72
10
73
6
40
0
40
0
40
0
40
0
40
0.939518304018554
40
0.939518304018554
40
1
40
1
40
1
40
1
41
1
10
78.7273872339316
20
-1.85768963809667
30
0
41
1
10
78.7807044933842
20
-1.84019438666834
30
0
41
1
10
78.832947740024
20
-1.81892555233623
30
0
41
1
10
78.8870572189084
20
-1.79251398738353
30
0
41
1
10
78.8903239715715
20
-1.79090186414712
30
0
41
1
10
78.8935846985707
20
-1.78927509317313
30
0
0
SPLINE
5
103
100
AcDbEntity
8
1
62
256
6
ByLayer
370
18
48
1
60
0
100
AcDbSpline
70
4
71
3
72
19
73
15
40
0
40
0
40
0
40
0
40
0.121534280756589
40
0.254506890026154
40
0.320993194660937
40
0.387479499295719
40
0.453965803930502
40
0.520452108565285
40
0.65342471783485
40
0.719911022469632
40
0.786397327104415
40
0.852883631739197
40
0.91936993637398
40
1
40
1
40
1
40
1
41
1
10
75.9072575687551
20
1.93778661131634
30
0
41
1
10
76.0215050463476
20
1.95805475498074
30
0
41
1
10
76.2607525231977
20
1.98593136426982
30
0
41
1
10
76.5624999999945
20
1.98138537810885
30
0
41
1
10
76.812500000006
20
1.95163155346089
30
0
41
1
10
77.0000000000053
20
1.91643699394336
30
0
41
1
10
77.1874999999727
20
1.86858525216829
30
0
41
1
10
77.4375000004259
20
1.78843965502477
30
0
41
1
10
77.6875000024326
20
1.68419649224575
30
1E-16
41
1
10
77.9374999956365
20
1.55776026391823
30
-1E-16
41
1
10
78.1249999921015
20
1.45246734700083
30
-1E-16
41
1
10
78.3124999960882
20
1.33739894547935
30
0
41
1
10
78.5132957460714
20
1.20461912770384
30
1E-16
41
1
10
78.6515914897378
20
1.10650245096431
30
1E-16
41
1
10
78.7273872339334
20
1.05100358997743
30
0
0
SPLINE
5
104
100
AcDbEntity
8
1
62
256
6
ByLayer
370
18
48
1
60
0
100
AcDbSpline
70
4
71
3
72
25
73
21
40
0
40
0
40
0
40
0
40
0.0849862060174338
40
0.171209999647599
40
0.214321896462681
40
0.257433793277764
40
0.300545690092846
40
0.343657586907929
40
0.429881380538093
40
0.516105174168258
40
0.559217070983341
40
0.602328967798423
40
0.645440864613505
40
0.688552761428588
40
0.774776555058753
40
0.817888451873835
40
0.861000348688918
40
0.904112245504
40
0.947224142319082
40
1
40
1
40
1
40
1
41
1
10
74.3803824352777
20
1.51082376195848
30
0
41
1
10
74.5035882847395
20
1.48051571974861
30
0
41
1
10
74.7517941504933
20
1.40840984595249
30
0
41
1
10
75.0625000202867
20
1.29250322414822
30
0
41
1
10
75.3125000091282
20
1.18539905910475
30
1E-16
41
1
10
75.4999999984822
20
1.09900779423626
30
1E-16
41
1
10
75.6874999969431
20
1.00599283740826
30
1E-16
41
1
10
75.9374999999637
20
0.872573183282384
30
0
41
1
10
76.2500000000137
20
0.690832926889357
30
-1E-16
41
1
10
76.5624999999945
20
0.494928309081274
30
0
41
1
10
76.812500000006
20
0.332977015783626
30
1E-16
41
1
10
77.0000000000053
20
0.209751346941374
30
0
41
1
10
77.1874999999727
20
0.0849385723734315
30
0
41
1
10
77.4375000004258
20
-0.0832569783046608
30
0
41
1
10
77.6875000024335
20
-0.250919456861254
30
-1E-16
41
1
10
77.9374999956351
20
-0.414509602496224
30
1E-16
41
1
10
78.1249999921015
20
-0.534276911689034
30
-1E-16
41
1
10
78.3124999960893
20
-0.650402734827821
30
0
41
1
10
78.5140099985328
20
-0.770528802858138
30
0
41
1
10
78.6530199946118
20
-0.848754887531953
30
0
41
1
10
78.7295299912459
20
-0.890152098626089
30
1E-16
0
SPLINE
5
105
100
AcDbEntity
8
1
62
256
6
ByLayer
370
18
48
1
60
0
100
AcDbSpline
70
4
71
3
72
8
73
4
40
0
40
0
40
0
40
0
40
1
40
1
40
1
40
1
41
1
10
68.2565079703593
20
-2.06359445323355
30
1E-16
41
1
10
68.2676532586762
20
-2.05834909375349
30
1E-16
41
1
10
68.2787985470889
20
-2.05305594227292
30
1E-16
41
1
10
68.2899438355413
20
-2.04771529745528
30
1E-16
0
SPLINE
5
106
100
AcDbEntity
8
1
62
256
6
ByLayer
370
18
48
1
60
0
100
AcDbSpline
70
4
71
3
72
16
73
12
40
0
40
0
40
0
40
0
40
0.0029816116711378
40
0.116537765066676
40
0.230093918462215
40
0.457206225253291
40
0.57076237864883
40
0.684318532044368
40
0.797874685439906
40
0.911430838835445
40
1
40
1
40
1
40
1
41
1
10
76.9950768657481
20
1.27845800311562
30
-1E-16
41
1
10
76.9967179104987
20
1.2773201183573
30
-1E-16
41
1
10
77.060858955244
20
1.23280829934782
30
-1E-16
41
1
10
77.1874999999728
20
1.14207443715045
30
0
41
1
10
77.437500000426
20
0.953403702492807
30
0
41
1
10
77.6875000024318
20
0.752103601551113
30
0
41
1
10
77.937499995638
20
0.542302351164921
30
1E-16
41
1
10
78.1249999921014
20
0.381648801398654
30
0
41
1
10
78.3124999960869
20
0.219014339112562
30
-1E-16
41
1
10
78.4862474476332
20
0.0677311422943205
30
1E-16
41
1
10
78.597494894518
20
-0.0289138289337814
30
1E-16
41
1
10
78.6462423412856
20
-0.0711262405949924
30
-1E-16
0
SPLINE
5
107
100
AcDbEntity
8
1
62
256
6
ByLayer
370
18
48
1
60
0
100
AcDbSpline
70
4
71
3
72
24
73
20
40
0
40
0
40
0
40
0
40
0.0607215902785792
40
0.109849951124611
40
0.158978311970643
40
0.208106672816675
40
0.257235033662707
40
0.355491755354771
40
0.453748477046834
40
0.502876837892866
40
0.552005198738898
40
0.60113355958493
40
0.650261920430961
40
0.748518642123025
40
0.797647002969057
40
0.846775363815089
40
0.895903724661121
40
0.945032085507153
40
1
40
1
40
1
40
1
41
0.996341305243542
10
74.8932884856268
20
1.10574160382841
30
0
41
0.996413353362476
10
74.9705286862904
20
1.04814166266593
30
0
41
0.996548115789395
10
75.1102614646732
20
0.941035678133224
30
-1E-16
41
0.996758757574163
10
75.3125000091337
20
0.77961307406002
30
-1E-16
41
0.996982157357209
10
75.4999999984815
20
0.625420276684506
30
1E-16
41
0.997202888523717
10
75.6874999969404
20
0.467849821645069
30
0
41
0.99745354530231
10
75.9374999999655
20
0.254857443276753
30
1E-16
41
0.997727357117604
10
76.2500000000134
20
-0.01442937820377
30
0
41
0.997992743984569
10
76.5624999999946
20
-0.281059416301041
30
0
41
0.998221614758908
10
76.8125000000059
20
-0.488756983973196
30
0
41
0.998412608247548
10
77.0000000000053
20
-0.640768607873587
30
-1E-16
41
0.998596179335809
10
77.1874999999728
20
-0.787709879769898
30
1E-16
41
0.998798013379189
10
77.437500000426
20
-0.975216025168528
30
1E-16
41
0.998988103636856
10
77.6875000024317
20
-1.14854049380178
30
0
41
0.999165109365155
10
77.9374999956378
20
-1.30386718417604
30
-1E-16
41
0.999307122077658
10
78.1249999921014
20
-1.41063379158387
30
0
41
0.999437941218954
10
78.312499996087
20
-1.50667124306783
30
0
41
0.999544156621895
10
78.5074348025339
20
-1.59446888633659
30
0
41
0.999610018684587
10
78.6398684998475
20
-1.64505845548481
30
0
41
0.999642968674868
10
78.7097990808724
20
-1.66911852173958
30
0
0
SPLINE
5
108
100
AcDbEntity
8
1
62
256
6
ByLayer
370
18
48
1
60
0
100
AcDbSpline
70
4
71
3
72
19
73
15
40
0
40
0
40
0
40
0
40
0.0678453820482382
40
0.155224858545658
40
0.242604335043077
40
0.329983811540497
40
0.417363288037917
40
0.504742764535336
40
0.592122241032756
40
0.679501717530175
40
0.766881194027595
40
0.854260670525014
40
0.941640147022434
40
1
40
1
40
1
40
1
41
1
10
70.7088330199829
20
2.21280226538809
30
0
41
1
10
70.8058886801273
20
2.22908445185999
30
0
41
1
10
71.0279443400775
20
2.25600560519004
30
0
41
1
10
71.3749999999721
20
2.26028668762356
30
0
41
1
10
71.7500000000234
20
2.21850275582776
30
0
41
1
10
72.1249999999342
20
2.13083905385696
30
0
41
1
10
72.5000000036814
20
1.99877340032001
30
0
41
1
10
72.8749999853405
20
1.82480036218575
30
-1E-16
41
1
10
73.250000000033
20
1.6123467121798
30
0
41
1
10
73.6250000145262
20
1.36583426283516
30
-1E-16
41
1
10
74.0000000024599
20
1.09042277622757
30
1E-16
41
1
10
74.3749999756357
20
0.792482573379317
30
-1E-16
41
1
10
74.7084862107141
20
0.513704966826538
30
2E-16
41
1
10
74.9169724376526
20
0.335621596250718
30
1E-16
41
1
10
75.0004586537583
20
0.264088204673584
30
0
0
SPLINE
5
109
100
AcDbEntity
8
1
62
256
6
ByLayer
370
18
48
1
60
0
100
AcDbSpline
70
4
71
3
72
14
73
10
40
0
40
0
40
0
40
0
40
0.25
40
0.25
40
0.5
40
0.5
40
0.75
40
0.75
40
1
40
1
40
1
40
1
41
1
10
78.1046719124859
20
-1.87517760174302
30
0
41
1
10
78.156769647404
20
-1.88871962124179
30
0
41
1
10
78.2084903804289
20
-1.89859313432078
30
0
41
1
10
78.3117241909938
20
-1.91101027802915
30
0
41
1
10
78.3632354964701
20
-1.91355466685079
30
0
41
1
10
78.4665936292514
20
-1.91106831327696
30
0
41
1
10
78.5184375379081
20
-1.90604086577545
30
0
41
1
10
78.6230694663639
20
-1.88785857667097
30
0
41
1
10
78.6751841637592
20
-1.87481983882972
30
0
41
1
10
78.7273872339332
20
-1.8576896380963
30
0
0
SPLINE
5
10A
100
AcDbEntity
8
1
62
256
6
ByLayer
370
18
48
1
60
0
100
AcDbSpline
70
4
71
3
72
23
73
19
40
0
40
0
40
0
40
0
40
0.0603324591212251
40
0.151660544691219
40
0.242988630261212
40
0.334316715831206
40
0.4256448014012
40
0.471308844186196
40
0.516972886971193
40
0.56263692975619
40
0.608300972541187
40
0.699629058111181
40
0.790957143681174
40
0.836621186466171
40
0.882285229251168
40
0.927949272036165
40
0.973613314821161
40
1
40
1
40
1
40
1
41
1
10
73.3772703821755
20
2.06975405214303
30
0
41
1
10
73.4598469259042
20
2.08430384410653
30
0
41
1
10
73.6674234722965
20
2.11220027456193
30
0
41
1
10
74.0000000024599
20
2.12109500128315
30
0
41
1
10
74.3749999756357
20
2.08181964189495
30
0
41
1
10
74.7500000000056
20
1.99385766975723
30
0
41
1
10
75.0625000202841
20
1.88139880194987
30
0
41
1
10
75.3125000091314
20
1.76939482624476
30
1E-16
41
1
10
75.4999999984817
20
1.67487520232729
30
1E-16
41
1
10
75.6874999969415
20
1.57043509436801
30
1E-16
41
1
10
75.9374999999648
20
1.41893280700285
30
0
41
1
10
76.2500000000135
20
1.20802518002199
30
1E-16
41
1
10
76.5624999999945
20
0.973428350237185
30
-1E-16
41
1
10
76.812500000006
20
0.775076479771428
30
0
41
1
10
77.0000000000053
20
0.621979642922554
30
1E-16
41
1
10
77.1874999999727
20
0.46554476393834
30
0
41
1
10
77.3486152393697
20
0.329164959494051
30
1E-16
41
1
10
77.4472304789756
20
0.245159748163047
30
0
41
1
10
77.483345718224
20
0.214359497223
30
0
0
SPLINE
5
10B
100
AcDbEntity
8
1
62
256
6
ByLayer
370
18
48
1
60
0
100
AcDbSpline
70
4
71
3
72
24
73
20
40
0
40
0
40
0
40
0
40
0.0434278821322509
40
0.0943636754478585
40
0.145299468763466
40
0.196235262079074
40
0.247171055394682
40
0.349042642025897
40
0.450914228657112
40
0.501850021972719
40
0.552785815288327
40
0.603721608603935
40
0.654657401919542
40
0.756528988550758
40
0.807464781866365
40
0.858400575181973
40
0.90933636849758
40
0.960272161813188
40
1
40
1
40
1
40
1
41
1
10
74.9651374211298
20
1.05090570947752
30
0
41
1
10
75.0184249536784
20
1.00977286196692
30
0
41
1
10
75.1342124867134
20
0.918809689597879
30
-1E-16
41
1
10
75.3125000091339
20
0.774050673097861
30
0
41
1
10
75.4999999984815
20
0.617242675249003
30
1E-16
41
1
10
75.6874999969402
20
0.457121371080092
30
0
41
1
10
75.9374999999656
20
0.240941186121233
30
-1E-16
41
1
10
76.2500000000134
20
-0.0319772125782549
30
1E-16
41
1
10
76.5624999999945
20
-0.301766557339732
30
0
41
1
10
76.812500000006
20
-0.511684419765686
30
1E-16
41
1
10
77.0000000000053
20
-0.665203738318326
30
0
41
1
10
77.1874999999728
20
-0.813427378461171
30
-1E-16
41
1
10
77.437500000426
20
-1.00226139051148
30
-1E-16
41
1
10
77.6875000024318
20
-1.17644837029107
30
1E-16
41
1
10
77.937499995638
20
-1.3321493592839
30
0
41
1
10
78.1249999921014
20
-1.43895725539275
30
0
41
1
10
78.3124999960869
20
-1.5347753242522
30
0
41
1
10
78.4862474476332
20
-1.61257139173236
30
0
41
1
10
78.597494894518
20
-1.65586691688387
30
0
41
1
10
78.6462423412856
20
-1.67354478096036
30
0
0
SPLINE
5
10C
100
AcDbEntity
8
1
62
256
6
ByLayer
370
18
48
1
60
0
100
AcDbSpline
70
4
71
3
72
62
73
58
40
0
40
0
40
0
40
0
40
0.0198480739926338
40
0.0198480739926338
40
0.0606877375762588
40
0.0606877375762588
40
0.0811075693680728
40
0.0811075693680728
40
0.101527401159887
40
0.101527401159887
40
0.142367064743518
40
0.142367064743518
40
0.183206728327148
40
0.183206728327148
40
0.224046391910779
40
0.224046391910779
40
0.234256307806689
40
0.234256307806689
40
0.244466223702599
40
0.244466223702599
40
0.264886055494419
40
0.264886055494419
40
0.346565382661698
40
0.346565382661698
40
0.387405046245338
40
0.387405046245338
40
0.407824878037156
40
0.407824878037156
40
0.428244709828975
40
0.428244709828975
40
0.509924036996248
40
0.509924036996248
40
0.550763700579885
40
0.550763700579885
40
0.560973616475795
40
0.560973616475795
40
0.571183532371705
40
0.591603364163525
40
0.591603364163525
40
0.673282691330801
40
0.673282691330801
40
0.714122354914439
40
0.714122354914439
40
0.724332270810351
40
0.724332270810351
40
0.734542186706263
40
0.754962018498089
40
0.754962018498089
40
0.836641345665395
40
0.836641345665395
40
0.877481009249048
40
0.877481009249048
40
0.897900841040873
40
0.897900841040873
40
0.918320672832698
40
0.918320672832698
40
1
40
1
40
1
40
1
41
1
10
75.7277138794121
20
-1.99701370958991
30
0
41
1
10
75.6768983135486
20
-2.01528822256566
30
0
41
1
10
75.6261553893686
20
-2.03213442316175
30
0
41
1
10
75.4710773057973
20
-2.07923731436557
30
0
41
1
10
75.366778889855
20
-2.10481207747893
30
0
41
1
10
75.2094493447975
20
-2.13370622983712
30
0
41
1
10
75.1568691528825
20
-2.14176222228434
30
0
41
1
10
75.0513540031735
20
-2.1546742431469
30
0
41
1
10
74.99830786661
20
-2.15953128752022
30
0
41
1
10
74.8399287254447
20
-2.16914331561696
30
0
41
1
10
74.7350042113788
20
-2.16901635597387
30
0
41
1
10
74.525642104375
20
-2.15613887243637
30
0
41
1
10
74.4212096751891
20
-2.14338663939088
30
0
41
1
10
74.2120497951842
20
-2.10548411480957
30
0
41
1
10
74.1073258738954
20
-2.08033140941762
30
0
41
1
10
73.9757069113122
20
-2.04118197718375
30
0
41
1
10
73.9493471984466
20
-2.0329663545208
30
0
41
1
10
73.8965426718333
20
-2.0157629603799
30
-1E-16
41
1
10
73.870069958126
20
-2.00676519517464
30
0
41
1
10
73.7907097009766
20
-1.97868574582088
30
0
41
1
10
73.7379905908902
20
-1.95856103970451
30
-1E-16
41
1
10
73.4750470349169
20
-1.85119201224546
30
-1E-16
41
1
10
73.2667395349757
20
-1.74382565676706
30
1E-16
41
1
10
72.9526651714936
20
-1.55437246377849
30
1E-16
41
1
10
72.8477069552155
20
-1.48646884470102
30
-1E-16
41
1
10
72.6892752421714
20
-1.37781778584429
30
-1E-16
41
1
10
72.636217896062
20
-1.34040378138622
30
0
41
1
10
72.530624786874
20
-1.26405950659796
30
1E-16
41
1
10
72.4779847458715
20
-1.22506153582248
30
0
41
1
10
72.2153176547239
20
-1.02623419829959
30
2E-16
41
1
10
72.0068752542346
20
-0.854948648542461
30
-2E-16
41
1
10
71.6923033621161
20
-0.584419308432842
30
0
41
1
10
71.5871311258418
20
-0.491964848919622
30
-2E-16
41
1
10
71.4548080390118
20
-0.373982581848082
30
0
41
1
10
71.4282746957516
20
-0.350242344854763
30
-1E-16
41
1
10
71.3753285823182
20
-0.302728687824498
30
-2E-16
41
1
10
71.2960331571402
20
-0.231358431655764
30
1E-16
41
1
10
71.2170557765598
20
-0.159746764654244
30
-1E-16
41
1
10
70.9542737073755
20
0.0792431898820212
30
-2E-16
41
1
10
70.7455517586185
20
0.271326960275331
30
-2E-16
41
1
10
70.4305403467669
20
0.556190501016658
30
0
41
1
10
70.3252205892932
20
0.650606789449654
30
-2E-16
41
1
10
70.1927343104015
20
0.767464730325202
30
0
41
1
10
70.1661666131017
20
0.790803012548679
30
-1E-16
41
1
10
70.1131282472404
20
0.837183283893239
30
-2E-16
41
1
10
70.0336914460048
20
0.906331850440949
30
1E-16
41
1
10
69.9545652663671
20
0.974177476880271
30
-1E-16
41
1
10
69.6912783546105
20
1.19726350973903
30
-1E-16
41
1
10
69.482128704551
20
1.36594564840041
30
-1E-16
41
1
10
69.1667068022402
20
1.60088909725988
30
0
41
1
10
69.0612862459243
20
1.67618555872281
30
1E-16
41
1
10
68.9022452140113
20
1.78411117345888
30
0
41
1
10
68.8489903711645
20
1.81930515531374
30
0
41
1
10
68.7427066785899
20
1.88753863794301
30
0
41
1
10
68.6896467866749
20
1.92060216648528
30
-1E-16
41
1
10
68.4245618897079
20
2.08057373127042
30
0
41
1
10
68.213230203363
20
2.19152311086427
30
0
41
1
10
67.9999999999999
20
2.28387599419682
30
0
0
SPLINE
5
10D
100
AcDbEntity
8
1
62
256
6
ByLayer
370
18
48
1
60
0
100
AcDbSpline
70
4
71
3
72
16
73
12
40
0
40
0
40
0
40
0
40
0.25000000000002
40
0.25000000000002
40
0.500000000000041
40
0.500000000000041
40
0.625000000000038
40
0.625000000000038
40
0.750000000000034
40
0.750000000000034
40
1
40
1
40
1
40
1
41
1
10
68.0000000000001
20
2.2838759941969
30
0
41
1
10
67.9282126118898
20
2.31531255465006
30
-1E-16
41
1
10
67.8565579869333
20
2.34446740784244
30
-1E-16
41
1
10
67.7120350533569
20
2.39778511891109
30
0
41
1
10
67.6391744044869
20
2.42195590896304
30
0
41
1
10
67.5280822033204
20
2.4544772526416
30
0
41
1
10
67.4907955800038
20
2.46469068437221
30
0
41
1
10
67.4159804999331
20
2.48398653858502
30
0
41
1
10
67.3784493230952
20
2.49306742350831
30
0
41
1
10
67.2656704058114
20
2.51868150828744
30
0
41
1
10
67.1903276350929
20
2.53357415922767
30
0
41
1
10
67.1149489954764
20
2.5463285724594
30
0
0
SPLINE
5
10E
100
AcDbEntity
8
1
62
256
6
ByLayer
370
18
48
1
60
0
100
AcDbSpline
70
4
71
3
72
14
73
10
40
0
40
0
40
0
40
0
40
0.399899631328074
40
0.399899631328074
40
0.799799262656148
40
0.799799262656148
40
0.999749078320185
40
0.999749078320185
40
1
40
1
40
1
40
1
41
1
10
67.1149489954764
20
2.5463285724594
30
0
41
1
10
67.0590115032134
20
2.55579345395768
30
0
41
1
10
67.0037203520911
20
2.56414851654188
30
0
41
1
10
66.8959983001378
20
2.57840628885583
30
0
41
1
10
66.8435695694174
20
2.5843114241693
30
0
41
1
10
66.7682112850583
20
2.59082340827303
30
0
41
1
10
66.7436768066576
20
2.59259411988103
30
0
41
1
10
66.7199433085601
20
2.59390055410015
30
0
41
1
10
66.7199135634024
20
2.59390219079307
30
0
41
1
10
66.719883819477
20
2.59390382675889
30
0
0
SPLINE
5
10F
100
AcDbEntity
8
1
62
256
6
ByLayer
370
18
48
1
60
0
100
AcDbSpline
70
4
71
3
72
10
73
6
40
0
40
0
40
0
40
0
40
0.434068279651388
40
0.434068279651388
40
1
40
1
40
1
40
1
41
1
10
67.6482890728348
20
2.41574019531424
30
0
41
1
10
67.6999053093634
20
2.42727043065918
30
0
41
1
10
67.7510395930227
20
2.43783410054007
30
0
41
1
10
67.8682049635187
20
2.45960810860336
30
0
41
1
10
67.9340494393743
20
2.47003475535521
30
0
41
1
10
68
20
2.47833294448947
30
0
0
SPLINE
5
110
100
AcDbEntity
8
1
62
256
6
ByLayer
370
18
48
1
60
0
100
AcDbSpline
70
4
71
3
72
65
73
61
40
0
40
0
40
0
40
0
40
0.0740685876682524
40
0.0740685876682524
40
0.0925857345853162
40
0.101844308043849
40
0.101844308043849
40
0.111102881502383
40
0.111102881502383
40
0.148137175336516
40
0.148137175336516
40
0.222205763004779
40
0.222205763004779
40
0.259240056838912
40
0.259240056838912
40
0.27775720375598
40
0.27775720375598
40
0.296274350673047
40
0.296274350673047
40
0.37034293834131
40
0.37034293834131
40
0.407377232175442
40
0.407377232175442
40
0.425894379092506
40
0.425894379092506
40
0.435152952551039
40
0.435152952551039
40
0.444411526009571
40
0.444411526009571
40
0.518480113677837
40
0.518480113677837
40
0.55551440751197
40
0.55551440751197
40
0.574031554429035
40
0.583290127887568
40
0.583290127887568
40
0.5925487013461
40
0.5925487013461
40
0.666617289014347
40
0.666617289014347
40
0.703651582848472
40
0.703651582848472
40
0.722168729765534
40
0.722168729765534
40
0.740685876682595
40
0.740685876682595
40
0.814754464350831
40
0.814754464350831
40
0.851788758184951
40
0.851788758184951
40
0.870305905102011
40
0.879564478560539
40
0.879564478560539
40
0.888823052019068
40
0.888823052019068
40
0.962891639687305
40
0.962891639687305
40
0.999925933521423
40
0.999925933521423
40
1
40
1
40
1
40
1
41
1
10
67.9999999999994
20
2.47833294448955
30
0
41
1
10
68.2122153745847
20
2.50467883497123
30
0
41
1
10
68.4226978681596
20
2.50936205060359
30
0
41
1
10
68.6866743397244
20
2.48815913051817
30
0
41
1
10
68.7659330576596
20
2.47976240990187
30
0
41
1
10
68.8453780475898
20
2.46829242114185
30
0
41
1
10
68.8983930765209
20
2.45995979075633
30
0
41
1
10
68.9249498032274
20
2.45544598572585
30
0
41
1
10
69.0574960859819
20
2.43122831831931
30
0
41
1
10
69.1628816995421
20
2.4065777593446
30
0
41
1
10
69.4780417514801
20
2.31741422294809
30
0
41
1
10
69.6868122687749
20
2.23773781373848
30
0
41
1
10
70.0016954791698
20
2.08935913098566
30
0
41
1
10
70.1069450324674
20
2.03507631264768
30
-1E-16
41
1
10
70.2657561512428
20
1.94649872424964
30
1E-16
41
1
10
70.318954409175
20
1.91571385087849
30
0
41
1
10
70.4248810683505
20
1.85229773061985
30
1E-16
41
1
10
70.4776820440024
20
1.81963056139224
30
0
41
1
10
70.7410878784185
20
1.65171955099942
30
-1E-16
41
1
10
70.9498954064928
20
1.50279493859708
30
0
41
1
10
71.2641839960461
20
1.26108506389011
30
-1E-16
41
1
10
71.3691254413789
20
1.17745176249068
30
-1E-16
41
1
10
71.5273200515123
20
1.04778882774892
30
2E-16
41
1
10
71.5801826691339
20
1.00386570227207
30
-1E-16
41
1
10
71.6597429103803
20
0.936974830012701
30
0
41
1
10
71.6863346489376
20
0.914486819284008
30
1E-16
41
1
10
71.7393900226383
20
0.86937838837062
30
2E-16
41
1
10
71.7658729547514
20
0.846741977575419
30
-2E-16
41
1
10
72.0038680854896
20
0.642333271101336
30
-2E-16
41
1
10
72.2129354155188
20
0.455817367106505
30
-2E-16
41
1
10
72.5270202698762
20
0.17353521533181
30
0
41
1
10
72.6317932114082
20
0.0790186686099332
30
-2E-16
41
1
10
72.7896118271275
20
-0.0627957151918963
30
1E-16
41
1
10
72.8686864585397
20
-0.133712358160182
30
-1E-16
41
1
10
72.948115186603
20
-0.204528235254287
30
0
41
1
10
73.0011591974431
20
-0.251702586497771
30
1E-16
41
1
10
73.0277506036123
20
-0.275292492683661
30
2E-16
41
1
10
73.266429388986
20
-0.486393181375121
30
-2E-16
41
1
10
73.4756628178184
20
-0.666912733866013
30
-2E-16
41
1
10
73.7895827806206
20
-0.922580111442585
30
-1E-16
41
1
10
73.8942340524439
20
-1.00527563522712
30
-1E-16
41
1
10
74.0518258523189
20
-1.12486273223666
30
0
41
1
10
74.1044588470642
20
-1.1639820362123
30
1E-16
41
1
10
74.2100335504203
20
-1.24061333190943
30
0
41
1
10
74.2630046277836
20
-1.2781455647783
30
1E-16
41
1
10
74.5286006427997
20
-1.46125424099836
30
1E-16
41
1
10
74.737956988194
20
-1.58944826363717
30
-1E-16
41
1
10
75.0521210487491
20
-1.75156285720209
30
1E-16
41
1
10
75.1568588382186
20
-1.8005581436509
30
0
41
1
10
75.3146005186712
20
-1.86598481794638
30
-1E-16
41
1
10
75.3936319182575
20
-1.89667887022958
30
0
41
1
10
75.4730234083916
20
-1.9242315990557
30
0
41
1
10
75.5260447654863
20
-1.94188804320089
30
0
41
1
10
75.5526280031659
20
-1.95036806462653
30
0
41
1
10
75.791825989369
20
-2.02325501970248
30
0
41
1
10
76.0012647887065
20
-2.06292525286321
30
0
41
1
10
76.3157245174736
20
-2.08463583997249
30
0
41
1
10
76.4205886045336
20
-2.08555157337523
30
0
41
1
10
76.526143671412
20
-2.0799860310515
30
0
41
1
10
76.5263543561023
20
-2.07997489659832
30
0
41
1
10
76.5265650427176
20
-2.07996373624135
30
0
0
SPLINE
5
111
100
AcDbEntity
8
1
62
256
6
ByLayer
370
18
48
1
60
0
100
AcDbSpline
70
4
71
3
72
74
73
70
40
0
40
0
40
0
40
0
40
0.0373587363803951
40
0.0373587363803951
40
0.0747174727607903
40
0.0747174727607903
40
0.112076209141186
40
0.112076209141186
40
0.121415893236285
40
0.121415893236285
40
0.130755577331384
40
0.149434945521581
40
0.149434945521581
40
0.186793681901973
40
0.186793681901973
40
0.224152418282366
40
0.224152418282366
40
0.233492102377464
40
0.233492102377464
40
0.242831786472562
40
0.261511154662755
40
0.261511154662755
40
0.298869891043145
40
0.298869891043145
40
0.336228627423534
40
0.336228627423534
40
0.35490799561373
40
0.35490799561373
40
0.373587363803927
40
0.373587363803927
40
0.410946100184316
40
0.410946100184316
40
0.448304836564706
40
0.448304836564706
40
0.485663572945095
40
0.485663572945095
40
0.495003257040193
40
0.495003257040193
40
0.50434294113529
40
0.50434294113529
40
0.523022309325485
40
0.523022309325485
40
0.597739782086267
40
0.597739782086267
40
0.635098518466658
40
0.635098518466658
40
0.653777886656852
40
0.653777886656852
40
0.672457254847046
40
0.672457254847046
40
0.747174727607822
40
0.747174727607822
40
0.78453346398821
40
0.78453346398821
40
0.793873148083306
40
0.793873148083306
40
0.803212832178402
40
0.821892200368593
40
0.821892200368593
40
0.896609673129354
40
0.896609673129354
40
0.933968409509734
40
0.933968409509734
40
0.94330809360483
40
0.94330809360483
40
0.952647777699927
40
0.97132714589012
40
0.97132714589012
40
1
40
1
40
1
40
1
41
1
10
78.1046719124859
20
-1.87522844335857
30
0
41
1
10
77.998274094087
20
-1.91378053456421
30
0
41
1
10
77.8926464591519
20
-1.9455929933203
30
0
41
1
10
77.6818617709127
20
-1.99587412893271
30
0
41
1
10
77.5767567533089
20
-2.01435362075418
30
0
41
1
10
77.3662041610825
20
-2.03787860410643
30
0
41
1
10
77.2607301506873
20
-2.04292797348668
30
0
41
1
10
77.1281497075117
20
-2.04061148468847
30
0
41
1
10
77.1015960281546
20
-2.03971454839319
30
0
41
1
10
77.0486426520795
20
-2.03706608835029
30
0
41
1
10
76.9693497893396
20
-2.03181097062324
30
0
41
1
10
76.8903758463996
20
-2.0227543367804
30
0
41
1
10
76.7325986720774
20
-1.99969552364158
30
0
41
1
10
76.6276175871106
20
-1.97774861013772
30
0
41
1
10
76.4172987428387
20
-1.92106348862157
30
-1E-16
41
1
10
76.3119642305208
20
-1.88632237582809
30
0
41
1
10
76.1795525826043
20
-1.83496752633758
30
1E-16
41
1
10
76.1530008540643
20
-1.82428585151857
30
1E-16
41
1
10
76.1000049731621
20
-1.80221058889256
30
0
41
1
10
76.0206678959686
20
-1.76803138566413
30
-1E-16
41
1
10
75.9417377109115
20
-1.73072056312097
30
1E-16
41
1
10
75.7842582400959
20
-1.65207989138642
30
1E-16
41
1
10
75.6797961348452
20
-1.59428802775386
30
0
41
1
10
75.4710773057973
20
-1.46864599695615
30
1E-16
41
1
10
75.3667788898549
20
-1.4008203176094
30
0
41
1
10
75.2094493447974
20
-1.29232837805324
30
-1E-16
41
1
10
75.1568691528825
20
-1.2550308638524
30
1E-16
41
1
10
75.0513540031735
20
-1.17821055565838
30
1E-16
41
1
10
74.99830786661
20
-1.13860091171796
30
0
41
1
10
74.8399287254446
20
-1.0176420851551
30
-1E-16
41
1
10
74.7350042113787
20
-0.933932923936538
30
0
41
1
10
74.525642104375
20
-0.761345553844194
30
0
41
1
10
74.4212096751891
20
-0.672461740043474
30
-2E-16
41
1
10
74.2120497951843
20
-0.490361411098832
30
-2E-16
41
1
10
74.1073258738953
20
-0.397140601052399
30
0
41
1
10
73.9757069113122
20
-0.278431277397232
30
2E-16
41
1
10
73.9493471984466
20
-0.254580341250289
30
2E-16
41
1
10
73.8965426718333
20
-0.2066728330648
30
0
41
1
10
73.8700699581258
20
-0.182590809794561
30
0
41
1
10
73.7907097009765
20
-0.110244008515792
30
-2E-16
41
1
10
73.7379905908903
20
-0.0619800739495133
30
1E-16
41
1
10
73.4750470349169
20
0.179202502917093
30
0
41
1
10
73.2667395349757
20
0.371679159515225
30
0
41
1
10
72.9526651714936
20
0.654671629368977
30
-2E-16
41
1
10
72.8477069552155
20
0.748048666079086
30
0
41
1
10
72.6892752421714
20
0.886026822361572
30
1E-16
41
1
10
72.636217896062
20
0.93173921515023
30
0
41
1
10
72.5306247868739
20
1.02154910971936
30
-2E-16
41
1
10
72.4779847458714
20
1.06573827957811
30
2E-16
41
1
10
72.2153176547238
20
1.28293443083044
30
1E-16
41
1
10
72.0068752542346
20
1.44473229978894
30
-1E-16
41
1
10
71.6923033621162
20
1.66585372217693
30
1E-16
41
1
10
71.5871311258418
20
1.73595744163393
30
-1E-16
41
1
10
71.4548080390118
20
1.8186250069717
30
0
41
1
10
71.4282746957515
20
1.83492511987748
30
-1E-16
41
1
10
71.3753285823181
20
1.86688488175787
30
1E-16
41
1
10
71.2960331571401
20
1.91390073845315
30
0
41
1
10
71.2170557765598
20
1.95814081389548
30
1E-16
41
1
10
70.9542737073755
20
2.09940083249546
30
0
41
1
10
70.7455517586186
20
2.19261168042195
30
0
41
1
10
70.4305403467669
20
2.30117510125214
30
0
41
1
10
70.3252205892932
20
2.33214160509311
30
0
41
1
10
70.1927343104015
20
2.36404881283087
30
0
41
1
10
70.1661666131017
20
2.37009567028738
30
0
41
1
10
70.1131282472404
20
2.38146073880947
30
0
41
1
10
70.0336914460048
20
2.3974238660615
30
0
41
1
10
69.9545652663671
20
2.41015822088207
30
0
41
1
10
69.8210787346252
20
2.42808659848558
30
0
41
1
10
69.7404675186429
20
2.43561480476012
30
0
41
1
10
69.659926653228
20
2.43984311233797
30
0
0
SPLINE
5
112
100
AcDbEntity
8
1
62
256
6
ByLayer
370
18
48
1
60
0
100
AcDbSpline
70
4
71
3
72
61
73
57
40
0
40
0
40
0
40
0
40
0.0016847085106083
40
0.0016847085106083
40
0.0848776494680777
40
0.0848776494680777
40
0.126474119946813
40
0.126474119946813
40
0.14727235518618
40
0.14727235518618
40
0.157671472805863
40
0.157671472805863
40
0.168070590425547
40
0.168070590425547
40
0.251263531383002
40
0.251263531383002
40
0.29286000186173
40
0.29286000186173
40
0.313658237101095
40
0.324057354720777
40
0.324057354720777
40
0.334456472340459
40
0.334456472340459
40
0.417649413297905
40
0.417649413297905
40
0.459245883776629
40
0.459245883776629
40
0.480044119015989
40
0.480044119015989
40
0.50084235425535
40
0.50084235425535
40
0.584035295212787
40
0.584035295212787
40
0.625631765691504
40
0.625631765691504
40
0.646430000930861
40
0.656829118550539
40
0.656829118550539
40
0.667228236170217
40
0.667228236170217
40
0.750421177127657
40
0.750421177127657
40
0.792017647606378
40
0.792017647606378
40
0.812815882845739
40
0.823215000465421
40
0.823215000465421
40
0.833614118085103
40
0.833614118085103
40
0.875210588563827
40
0.875210588563827
40
0.916807059042551
40
0.916807059042551
40
0.958403529521276
40
0.958403529521276
40
1
40
1
40
1
40
1
41
1
10
70.5175589153705
20
2.27087012286015
30
0
41
1
10
70.5218278150638
20
2.27187625550383
30
0
41
1
10
70.5260959060313
20
2.27287328768691
30
0
41
1
10
70.7410878784185
20
2.32264659786884
30
0
41
1
10
70.9498954064928
20
2.34932417051581
30
0
41
1
10
71.2641839960461
20
2.35567278494239
30
0
41
1
10
71.3691254413789
20
2.35216280385509
30
0
41
1
10
71.5273200515123
20
2.33824884246229
30
0
41
1
10
71.5801826691339
20
2.33216824177114
30
0
41
1
10
71.6597429103803
20
2.32084684001367
30
0
41
1
10
71.6863346489377
20
2.31670105538049
30
0
41
1
10
71.7393900226383
20
2.3077097541904
30
0
41
1
10
71.7658729547514
20
2.30286224472704
30
0
41
1
10
72.0038680854896
20
2.25610341496045
30
0
41
1
10
72.2129354155188
20
2.19236089661598
30
0
41
1
10
72.5270202698762
20
2.06556967755182
30
0
41
1
10
72.6317932114083
20
2.01809322418447
30
-1E-16
41
1
10
72.7896118271275
20
1.93918625890242
30
-1E-16
41
1
10
72.8686864585399
20
1.89780845830512
30
0
41
1
10
72.948115186603
20
1.853555216199
30
1E-16
41
1
10
73.0011591974432
20
1.82341473718427
30
-1E-16
41
1
10
73.0277506036123
20
1.80801084617622
30
0
41
1
10
73.2664293889861
20
1.66717261643402
30
1E-16
41
1
10
73.4756628178183
20
1.5255069143349
30
0
41
1
10
73.7895827806205
20
1.29254254845631
30
1E-16
41
1
10
73.8942340524439
20
1.21146468053416
30
0
41
1
10
74.0518258523189
20
1.08518424756804
30
-1E-16
41
1
10
74.1044588470642
20
1.04231280050723
30
0
41
1
10
74.2100335504203
20
0.955088346760391
30
0
41
1
10
74.2630046277836
20
0.910710459267136
30
1E-16
41
1
10
74.5286006427998
20
0.685555580544616
30
2E-16
41
1
10
74.737956988194
20
0.49971534599598
30
2E-16
41
1
10
75.0521210487491
20
0.217801084816841
30
-1E-16
41
1
10
75.1568588382186
20
0.123296402478871
30
2E-16
41
1
10
75.3146005186712
20
-0.0185896758810884
30
0
41
1
10
75.3936319182575
20
-0.0895631241407386
30
2E-16
41
1
10
75.4730234083916
20
-0.160452685979692
30
-1E-16
41
1
10
75.5260447654863
20
-0.207679018467843
30
0
41
1
10
75.5526280031659
20
-0.231298283590519
30
1E-16
41
1
10
75.7918259893691
20
-0.44317460485189
30
2E-16
41
1
10
76.0012647887065
20
-0.624049459462583
30
1E-16
41
1
10
76.3157245174735
20
-0.879161876237447
30
1E-16
41
1
10
76.4205886045336
20
-0.961496054085558
30
0
41
1
10
76.5786051806978
20
-1.080208695403
30
1E-16
41
1
10
76.6577936082709
20
-1.13836693358729
30
0
41
1
10
76.7373813230819
20
-1.19457512724446
30
-1E-16
41
1
10
76.7905444073665
20
-1.23159475432561
30
0
41
1
10
76.8171633261799
20
-1.24986714591915
30
0
41
1
10
76.9498058820758
20
-1.33955405093292
30
0
41
1
10
77.0550602361964
20
-1.40636139706376
30
0
41
1
10
77.2647624864248
20
-1.52966558192233
30
0
41
1
10
77.3692117912954
20
-1.58616099351818
30
-1E-16
41
1
10
77.5781730062128
20
-1.68827927307405
30
0
41
1
10
77.6826873479811
20
-1.73390015857535
30
1E-16
41
1
10
77.8926955706431
20
-1.81350952922088
30
0
41
1
10
77.9981894916668
20
-1.84749910437125
30
0
41
1
10
78.1046719124859
20
-1.87517760174302
30
0
0
SPLINE
5
113
100
AcDbEntity
8
1
62
256
6
ByLayer
370
18
48
1
60
0
100
AcDbSpline
70
4
71
3
72
56
73
52
40
0
40
0
40
0
40
0
40
0.0550994519312371
40
0.0550994519312371
40
0.110198903862474
40
0.110198903862474
40
0.165298355793711
40
0.165298355793711
40
0.179073218776522
40
0.179073218776522
40
0.192848081759332
40
0.220397807724948
40
0.220397807724948
40
0.275497259656182
40
0.275497259656182
40
0.330596711587415
40
0.330596711587415
40
0.344371574570223
40
0.344371574570223
40
0.358146437553031
40
0.385696163518644
40
0.385696163518644
40
0.440795615449866
40
0.440795615449866
40
0.495895067381087
40
0.495895067381087
40
0.523444793346698
40
0.523444793346698
40
0.550994519312308
40
0.550994519312308
40
0.606093971243534
40
0.606093971243534
40
0.661193423174759
40
0.661193423174759
40
0.716292875105985
40
0.716292875105985
40
0.730067738088791
40
0.730067738088791
40
0.743842601071597
40
0.743842601071597
40
0.77139232703721
40
0.77139232703721
40
0.881591230899661
40
0.881591230899661
40
0.936690682830888
40
0.936690682830888
40
0.9642404087965
40
0.9642404087965
40
0.991790134762112
40
0.991790134762112
40
1
40
1
40
1
40
1
41
1
10
78.1046719124859
20
-1.53294736956124
30
0
41
1
10
77.998274094087
20
-1.47517775376266
30
-1E-16
41
1
10
77.8926464591519
20
-1.41217681418328
30
0
41
1
10
77.6818617709127
20
-1.27684472449045
30
1E-16
41
1
10
77.5767567533089
20
-1.20447006305477
30
-1E-16
41
1
10
77.3662041610825
20
-1.0511228404965
30
0
41
1
10
77.2607301506872
20
-0.970178615652259
30
1E-16
41
1
10
77.1281497075116
20
-0.863980836850374
30
0
41
1
10
77.1015960281546
20
-0.842489556425392
30
0
41
1
10
77.0486426520795
20
-0.799225258506141
30
1E-16
41
1
10
76.9693497893395
20
-0.733832246771357
30
-1E-16
41
1
10
76.8903758463996
20
-0.667053567606985
30
0
41
1
10
76.7325986720774
20
-0.531933600456597
30
-1E-16
41
1
10
76.6276175871107
20
-0.439799210540912
30
1E-16
41
1
10
76.4172987428387
20
-0.252273588471155
30
1E-16
41
1
10
76.3119642305209
20
-0.156878344917487
30
-1E-16
41
1
10
76.1795525826043
20
-0.0361292038021759
30
1E-16
41
1
10
76.1530008540643
20
-0.0118746895214201
30
0
41
1
10
76.1000049731621
20
0.0365926678742881
30
-1E-16
41
1
10
76.0206678959687
20
0.109235132581148
30
2E-16
41
1
10
75.9417377109115
20
0.181638764133851
30
0
41
1
10
75.7842582400959
20
0.325962876184235
30
1E-16
41
1
10
75.6797961348452
20
0.421553737283091
30
-1E-16
41
1
10
75.4710773057972
20
0.610591317409416
30
-1E-16
41
1
10
75.3667788898549
20
0.703991759869496
30
1E-16
41
1
10
75.2094493447975
20
0.841377851783847
30
0
41
1
10
75.1568691528825
20
0.886731358431945
30
-1E-16
41
1
10
75.0513540031734
20
0.97646368748849
30
-1E-16
41
1
10
74.99830786661
20
1.02093037580224
30
1E-16
41
1
10
74.8399287254447
20
1.15150123046186
30
0
41
1
10
74.7350042113789
20
1.2350834320373
30
0
41
1
10
74.5256421043752
20
1.39479331859218
30
1E-16
41
1
10
74.4212096751891
20
1.47092489934741
30
1E-16
41
1
10
74.2120497951843
20
1.61512270371071
30
0
41
1
10
74.1073258738953
20
1.68319080836522
30
1E-16
41
1
10
73.9757069113122
20
1.76275069978649
30
1E-16
41
1
10
73.9493471984466
20
1.77838601327048
30
1E-16
41
1
10
73.8965426718332
20
1.8090901273151
30
0
41
1
10
73.8700699581258
20
1.82417438538005
30
-1E-16
41
1
10
73.7907097009764
20
1.86844173730506
30
1E-16
41
1
10
73.7379905908903
20
1.89658096575499
30
0
41
1
10
73.4750470349169
20
2.03039451516256
30
0
41
1
10
73.2667395349757
20
2.11550481628225
30
0
41
1
10
72.9526651714936
20
2.20904409314747
30
0
41
1
10
72.8477069552156
20
2.23451751078011
30
0
41
1
10
72.6892752421714
20
2.26384460820583
30
0
41
1
10
72.636217896062
20
2.27214299653647
30
0
41
1
10
72.530624786874
20
2.28560861631735
30
0
41
1
10
72.4779847458714
20
2.29079981540056
30
0
41
1
10
72.4097962795776
20
2.2955683656989
30
0
41
1
10
72.3941506186053
20
2.29652893151072
30
0
41
1
10
72.3785131193295
20
2.29735557818208
30
0
0
SPLINE
5
114
100
AcDbEntity
8
1
62
256
6
ByLayer
370
18
48
1
60
0
100
AcDbSpline
70
4
71
3
72
40
73
36
40
0
40
0
40
0
40
0
40
0.0954903177780093
40
0.0954903177780093
40
0.160098152222423
40
0.160098152222423
40
0.192402069444627
40
0.192402069444627
40
0.224705986666832
40
0.224705986666832
40
0.353921655555653
40
0.353921655555653
40
0.418529490000067
40
0.418529490000067
40
0.450833407222276
40
0.466985365833382
40
0.466985365833382
40
0.483137324444489
40
0.483137324444489
40
0.612352993333362
40
0.612352993333362
40
0.676960827777799
40
0.676960827777799
40
0.709264745000015
40
0.725416703611125
40
0.725416703611125
40
0.741568662222235
40
0.741568662222235
40
0.806176496666677
40
0.806176496666677
40
0.870784331111118
40
0.870784331111118
40
0.935392165555559
40
0.935392165555559
40
1
40
1
40
1
40
1
41
1
10
73.2198461838323
20
2.13518763659008
30
0
41
1
10
73.3756526089018
20
2.17223181025207
30
0
41
1
10
73.5302849910024
20
2.19636997944366
30
0
41
1
10
73.7895827806205
20
2.21512265989892
30
0
41
1
10
73.8942340524439
20
2.21674031576131
30
0
41
1
10
74.0518258523189
20
2.2100469798047
30
0
41
1
10
74.1044588470642
20
2.20629483671954
30
0
41
1
10
74.2100335504203
20
2.19570167866982
30
0
41
1
10
74.2630046277837
20
2.18885602404543
30
0
41
1
10
74.5286006427998
20
2.14680982154292
30
0
41
1
10
74.737956988194
20
2.08916360963318
30
0
41
1
10
75.0521210487491
20
1.9693639420189
30
0
41
1
10
75.1568588382186
20
1.92385454612975
30
0
41
1
10
75.3146005186712
20
1.84739514206527
30
-1E-16
41
1
10
75.3936319182575
20
1.80711574608881
30
0
41
1
10
75.4730234083916
20
1.76377891307601
30
1E-16
41
1
10
75.5260447654863
20
1.73420902473308
30
-1E-16
41
1
10
75.5526280031659
20
1.71906978103601
30
0
41
1
10
75.791825989369
20
1.58008041485056
30
1E-16
41
1
10
76.0012647887065
20
1.43887579340066
30
0
41
1
10
76.3157245174735
20
1.20547396373504
30
1E-16
41
1
10
76.4205886045336
20
1.12405551928967
30
0
41
1
10
76.5786051806978
20
0.997011227313465
30
1E-16
41
1
10
76.6577936082709
20
0.932258715695809
30
0
41
1
10
76.7373813230819
20
0.865750085874197
30
0
41
1
10
76.7905444073666
20
0.821031271216214
30
1E-16
41
1
10
76.8171633261799
20
0.798494013238383
30
-1E-16
41
1
10
76.9498058820758
20
0.685529999409454
30
-1E-16
41
1
10
77.0550602361964
20
0.593779468509752
30
-1E-16
41
1
10
77.2647624864248
20
0.408558124621294
30
-1E-16
41
1
10
77.3692117912954
20
0.315088856135191
30
1E-16
41
1
10
77.5781730062128
20
0.127406759599097
30
1E-16
41
1
10
77.682687347981
20
0.0331966337171821
30
-1E-16
41
1
10
77.8926955706431
20
-0.154949192091152
30
-1E-16
41
1
10
77.9981894916668
20
-0.248884763063359
30
-1E-16
41
1
10
78.1046719124859
20
-0.342135557960375
30
-1E-16
0
SPLINE
5
115
100
AcDbEntity
8
1
62
256
6
ByLayer
370
18
48
1
60
0
100
AcDbSpline
70
4
71
3
72
36
73
32
40
0
40
0
40
0
40
0
40
0.0993591304063436
40
0.0993591304063436
40
0.198718260812687
40
0.198718260812687
40
0.298077391219031
40
0.298077391219031
40
0.322917173820617
40
0.322917173820617
40
0.347756956422202
40
0.397436521625367
40
0.397436521625367
40
0.496795652031703
40
0.496795652031703
40
0.596154782438039
40
0.596154782438039
40
0.620994565039623
40
0.620994565039623
40
0.645834347641207
40
0.695513912844375
40
0.695513912844375
40
0.794873043250712
40
0.794873043250712
40
0.894232173657048
40
0.894232173657048
40
0.943911738860217
40
0.943911738860217
40
0.993591304063385
40
0.993591304063385
40
1
40
1
40
1
40
1
41
1
10
78.1046719124859
20
0.342281073797295
30
1E-16
41
1
10
77.998274094087
20
0.438602780801517
30
1E-16
41
1
10
77.8926464591519
20
0.533416179136992
30
1E-16
41
1
10
77.6818617709129
20
0.71902940444221
30
1E-16
41
1
10
77.5767567533089
20
0.809883557699436
30
1E-16
41
1
10
77.3662041610825
20
0.986755763609921
30
-1E-16
41
1
10
77.2607301506873
20
1.07274935783442
30
-1E-16
41
1
10
77.1281497075116
20
1.17663064783807
30
-1E-16
41
1
10
77.1015960281546
20
1.1972249919678
30
1E-16
41
1
10
77.0486426520796
20
1.23784082984415
30
0
41
1
10
76.9693497893396
20
1.29797872385188
30
1E-16
41
1
10
76.8903758463996
20
1.35570076917344
30
-1E-16
41
1
10
76.7325986720774
20
1.46776192318495
30
-1E-16
41
1
10
76.6276175871108
20
1.53794939959681
30
-1E-16
41
1
10
76.4172987428389
20
1.66878990015039
30
1E-16
41
1
10
76.3119642305209
20
1.72944403091063
30
-1E-16
41
1
10
76.1795525826043
20
1.7988383225354
30
0
41
1
10
76.1530008540643
20
1.81241116199712
30
0
41
1
10
76.1000049731621
20
1.83880325676682
30
-1E-16
41
1
10
76.0206678959686
20
1.87726651824525
30
0
41
1
10
75.9417377109115
20
1.91235932725482
30
0
41
1
10
75.784258240096
20
1.97804276757066
30
0
41
1
10
75.6797961348453
20
2.01584176503692
30
1E-16
41
1
10
75.4710773057972
20
2.0792373143656
30
0
41
1
10
75.3667788898549
20
2.10481207747893
30
0
41
1
10
75.2094493447974
20
2.13370622983712
30
0
41
1
10
75.1568691528825
20
2.14176222228434
30
0
41
1
10
75.0513540031734
20
2.1546742431469
30
0
41
1
10
74.99830786661
20
2.15953128752022
30
0
41
1
10
74.9387044824523
20
2.16314861615942
30
0
41
1
10
74.9318968977156
20
2.1635347480175
30
0
41
1
10
74.9250919531466
20
2.16389375235258
30
0
0
SPLINE
5
116
100
AcDbEntity
8
1
62
256
6
ByLayer
370
18
48
1
60
0
100
AcDbSpline
70
4
71
3
72
8
73
4
40
0
40
0
40
0
40
0
40
1
40
1
40
1
40
1
41
1
10
68.4207898262405
20
-2.0769921729011
30
0
41
1
10
68.4095077244248
20
-2.08318162433534
30
0
41
1
10
68.3982251738385
20
-2.08932128268259
30
0
41
1
10
68.3869417766581
20
-2.09541091109469
30
0
0
SPLINE
5
117
100
AcDbEntity
8
1
62
256
6
ByLayer
370
18
48
1
60
0
100
AcDbSpline
70
4
71
3
72
14
73
10
40
0
40
0
40
0
40
0
40
0.15924368702703
40
0.15924368702703
40
0.369432765270284
40
0.369432765270284
40
0.579621843513538
40
0.579621843513538
40
1
40
1
40
1
40
1
41
1
10
67.64879449683
20
-2.41792616661206
30
0
41
1
10
67.6210511553201
20
-2.42685360651487
30
0
41
1
10
67.5931682033795
20
-2.43542385236367
30
0
41
1
10
67.5280822033204
20
-2.4544772526416
30
0
41
1
10
67.4907955800038
20
-2.46469068437221
30
0
41
1
10
67.415980499933
20
-2.48398653858499
30
0
41
1
10
67.3784493230951
20
-2.49306742350831
30
0
41
1
10
67.2656704058114
20
-2.51868150828744
30
0
41
1
10
67.1903276351067
20
-2.53357415922645
30
0
41
1
10
67.1149489954902
20
-2.54632857245846
30
0
0
SPLINE
5
118
100
AcDbEntity
8
1
62
256
6
ByLayer
370
18
48
1
60
0
100
AcDbSpline
70
4
71
3
72
30
73
26
40
0
40
0
40
0
40
0
40
0.124999999999991
40
0.124999999999991
40
0.249999999999982
40
0.249999999999982
40
0.312499999999986
40
0.312499999999986
40
0.37499999999999
40
0.37499999999999
40
0.499999999999998
40
0.499999999999998
40
0.562500000000002
40
0.562500000000002
40
0.625000000000007
40
0.625000000000007
40
0.750000000000005
40
0.750000000000005
40
0.812500000000004
40
0.812500000000004
40
0.843750000000003
40
0.843750000000003
40
0.875000000000003
40
0.875000000000003
40
1
40
1
40
1
40
1
41
1
10
67.1149489954764
20
-2.54632857245943
30
0
41
1
10
67.0590115032134
20
-2.55579345395768
30
0
41
1
10
67.0037203520911
20
-2.56414851654188
30
0
41
1
10
66.8959983001378
20
-2.57840628885583
30
0
41
1
10
66.8435695694173
20
-2.5843114241693
30
0
41
1
10
66.7682112850583
20
-2.59082340827303
30
0
41
1
10
66.7436768066576
20
-2.59259411988106
30
0
41
1
10
66.6962693032426
20
-2.59520371347943
30
0
41
1
10
66.6733480305259
20
-2.59604688215359
30
0
41
1
10
66.6071368936385
20
-2.59700908780596
30
0
41
1
10
66.5663899019601
20
-2.59557264225438
30
0
41
1
10
66.5110148997111
20
-2.58939417323478
30
0
41
1
10
66.4934639721365
20
-2.58664402372031
30
0
41
1
10
66.460877494726
20
-2.57974898366811
30
0
41
1
10
66.4457722473986
20
-2.57560248122678
30
0
41
1
10
66.4038450363449
20
-2.56096570829385
30
0
41
1
10
66.3803847988878
20
-2.54828444009854
30
0
41
1
10
66.3515695888092
20
-2.52440752580816
30
0
41
1
10
66.3430311455834
20
-2.51563841026649
30
0
41
1
10
66.3318527346503
20
-2.50119105631163
30
0
41
1
10
66.3283988611374
20
-2.49615946056804
30
0
41
1
10
66.3220506246795
20
-2.48564856246173
30
1E-16
41
1
10
66.3191624325164
20
-2.48017661102068
30
0
41
1
10
66.3062562988439
20
-2.45188462612614
30
0
41
1
10
66.3006350841587
20
-2.42614176292116
30
0
41
1
10
66.3006350831228
20
-2.39710379800613
30
1E-16
0
SPLINE
5
119
100
AcDbEntity
8
1
62
256
6
ByLayer
370
18
48
1
60
0
100
AcDbSpline
70
4
71
3
72
14
73
10
40
0
40
0
40
0
40
0
40
0.25
40
0.25
40
0.5
40
0.5
40
0.75
40
0.75
40
1
40
1
40
1
40
1
41
1
10
67.1873769483102
20
-2.2925408242134
30
0
41
1
10
67.2572587199536
20
-2.31423889494982
30
1E-16
41
1
10
67.3267763158989
20
-2.3344652663263
30
-1E-16
41
1
10
67.4648397419342
20
-2.37194025063519
30
0
41
1
10
67.5334061945488
20
-2.38918746866179
30
0
41
1
10
67.668812132588
20
-2.42074961571487
30
0
41
1
10
67.7355897641385
20
-2.43496290491905
30
0
41
1
10
67.8682049635186
20
-2.45960810860333
30
0
41
1
10
67.9340494393743
20
-2.47003475535521
30
0
41
1
10
68
20
-2.47833294448944
30
0
0
SPLINE
5
11A
100
AcDbEntity
8
1
62
256
6
ByLayer
370
18
48
1
60
0
100
AcDbSpline
70
4
71
3
72
8
73
4
40
0
40
0
40
0
40
0
40
1
40
1
40
1
40
1
41
1
10
67.9999999999994
20
-2.47833294448955
30
0
41
1
10
68.1834071655996
20
-2.50110238382871
30
0
41
1
10
68.3655199933472
20
-2.50769135845346
30
0
41
1
10
68.5479081381856
20
-2.49811092191911
30
0
0
SPLINE
5
11B
100
AcDbEntity
8
1
62
256
6
ByLayer
370
18
48
1
60
0
100
AcDbSpline
70
4
71
3
72
23
73
19
40
0
40
0
40
0
40
0
40
0.203451847477613
40
0.203451847477613
40
0.336209872898021
40
0.336209872898021
40
0.402588885608219
40
0.435778391963314
40
0.435778391963314
40
0.468967898318408
40
0.468967898318408
40
0.601725923738806
40
0.601725923738806
40
0.734483949159204
40
0.734483949159204
40
0.867241974579602
40
0.867241974579602
40
1
40
1
40
1
40
1
41
1
10
75.7278268994817
20
1.99978107934848
30
0
41
1
10
75.8897493377874
20
2.040424095954
30
0
41
1
10
76.0502679594349
20
2.06630847656214
30
0
41
1
10
76.3157245174736
20
2.08463583997249
30
0
41
1
10
76.4205886045336
20
2.08555157337523
30
0
41
1
10
76.5786051806978
20
2.07721992271647
30
0
41
1
10
76.6577936082709
20
2.07062564928313
30
0
41
1
10
76.7373813230819
20
2.06032521311869
30
0
41
1
10
76.7905444073665
20
2.05262602554183
30
0
41
1
10
76.8171633261798
20
2.04836115915751
30
0
41
1
10
76.9498058820758
20
2.02508405034231
30
0
41
1
10
77.0550602361964
20
2.00014086557354
30
0
41
1
10
77.2647624864249
20
1.93822370654365
30
0
41
1
10
77.3692117912954
20
1.9012498496534
30
0
41
1
10
77.5781730062129
20
1.81568603267311
30
0
41
1
10
77.6826873479811
20
1.76709679229253
30
0
41
1
10
77.8926955706431
20
1.6585603371297
30
1E-16
41
1
10
77.9981894916668
20
1.59861434130792
30
0
41
1
10
78.1046719124859
20
1.53304204378264
30
0
0
SPLINE
5
11C
100
AcDbEntity
8
1
62
256
6
ByLayer
370
18
48
1
60
0
100
AcDbSpline
70
4
71
3
72
12
73
8
40
0
40
0
40
0
40
0
40
0.406669240336975
40
0.406669240336975
40
0.81333848067395
40
0.81333848067395
40
1
40
1
40
1
40
1
41
1
10
78.1046719124859
20
1.87522844335854
30
0
41
1
10
77.998274094087
20
1.91378053456421
30
0
41
1
10
77.8926464591518
20
1.9455929933203
30
0
41
1
10
77.6818617709127
20
1.99587412893271
30
0
41
1
10
77.5767567533089
20
2.01435362075418
30
0
41
1
10
77.4231585497772
20
2.03151510588628
30
0
41
1
10
77.3747949875652
20
2.03549976690164
30
0
41
1
10
77.326351802033
20
2.03805177622181
30
0
0
SPLINE
5
11D
100
AcDbEntity
8
1
62
256
6
ByLayer
370
18
48
1
60
0
100
AcDbSpline
70
4
71
3
72
23
73
19
40
0
40
0
40
0
40
0
40
0.118887200707088
40
0.118887200707088
40
0.150355514967547
40
0.150355514967547
40
0.181823829228005
40
0.24476045774893
40
0.24476045774893
40
0.496506971832614
40
0.496506971832614
40
0.622380228874456
40
0.622380228874456
40
0.685316857395382
40
0.685316857395382
40
0.748253485916307
40
0.748253485916307
40
1
40
1
40
1
40
1
41
1
10
70.5180578105756
20
-2.27096435475656
30
0
41
1
10
70.4188476405681
20
-2.30459566847412
30
0
41
1
10
70.3193381222488
20
-2.33355830348307
30
0
41
1
10
70.1927343104015
20
-2.36404881283087
30
0
41
1
10
70.1661666131018
20
-2.37009567028738
30
0
41
1
10
70.1131282472404
20
-2.38146073880947
30
0
41
1
10
70.0336914460048
20
-2.3974238660615
30
0
41
1
10
69.9545652663671
20
-2.41015822088207
30
0
41
1
10
69.6912783546105
20
-2.44551989453137
30
0
41
1
10
69.482128704551
20
-2.45121152029483
30
0
41
1
10
69.1667068022401
20
-2.4265939364121
30
0
41
1
10
69.0612862459244
20
-2.41284692426595
30
0
41
1
10
68.9022452140114
20
-2.38387342797915
30
0
41
1
10
68.8489903711646
20
-2.37279940351618
30
0
41
1
10
68.74270667859
20
-2.34800005427411
30
0
41
1
10
68.6896467866749
20
-2.33427466399854
30
0
41
1
10
68.424561889708
20
-2.25916232161407
30
0
41
1
10
68.213230203363
20
-2.17835177083296
30
0
41
1
10
67.9999999999999
20
-2.07818408372105
30
0
0
SPLINE
5
11E
100
AcDbEntity
8
1
62
256
6
ByLayer
370
18
48
1
60
0
100
AcDbSpline
70
4
71
3
72
27
73
23
40
0
40
0
40
0
40
0
40
0.187309788684148
40
0.187309788684148
40
0.234137235855185
40
0.257550959440707
40
0.257550959440707
40
0.280964683026229
40
0.280964683026229
40
0.374619577368316
40
0.374619577368316
40
0.561929366052497
40
0.561929366052497
40
0.655584260394584
40
0.655584260394584
40
0.702411707565625
40
0.702411707565625
40
0.749239154736665
40
0.749239154736665
40
0.93654894342084
40
0.93654894342084
40
1
40
1
40
1
40
1
41
1
10
67.9999999999994
20
-0.812524626475664
30
1E-16
41
1
10
68.2122153745847
20
-0.989880732276731
30
1E-16
41
1
10
68.4226978681596
20
-1.15757202839302
30
0
41
1
10
68.6866743397245
20
-1.35218177347843
30
1E-16
41
1
10
68.7659330576597
20
-1.40943566270295
30
2E-16
41
1
10
68.8453780475899
20
-1.46490120983395
30
-1E-16
41
1
10
68.898393076521
20
-1.50146929705923
30
0
41
1
10
68.9249498032274
20
-1.51956447211333
30
0
41
1
10
69.0574960859818
20
-1.60872694262838
30
0
41
1
10
69.1628816995421
20
-1.67593786842471
30
-1E-16
41
1
10
69.4780417514801
20
-1.86474611107832
30
-1E-16
41
1
10
69.6868122687749
20
-1.97357082331996
30
0
41
1
10
70.0016954791698
20
-2.10857504930942
30
1E-16
41
1
10
70.1069450324674
20
-2.14885886904958
30
-1E-16
41
1
10
70.2657561512428
20
-2.20173965813706
30
1E-16
41
1
10
70.318954409175
20
-2.21813404079288
30
0
41
1
10
70.4248810683505
20
-2.24808191791035
30
0
41
1
10
70.4776820440024
20
-2.26166487769322
30
0
41
1
10
70.7410878784185
20
-2.32264659786884
30
0
41
1
10
70.9498954064929
20
-2.34932417051581
30
0
41
1
10
71.2303978223985
20
-2.35499030585606
30
0
41
1
10
71.3014564819102
20
-2.35384158802364
30
0
41
1
10
71.3727037900262
20
-2.35006695010151
30
0
0
SPLINE
5
11F
100
AcDbEntity
8
1
62
256
6
ByLayer
370
18
48
1
60
0
100
AcDbSpline
70
4
71
3
72
42
73
38
40
0
40
0
40
0
40
0
40
0.0314477453035229
40
0.0314477453035229
40
0.0919822612220458
40
0.0919822612220458
40
0.122249519181305
40
0.122249519181305
40
0.152516777140564
40
0.152516777140564
40
0.273585808977606
40
0.273585808977606
40
0.334120324896126
40
0.334120324896126
40
0.349253953875759
40
0.349253953875759
40
0.364387582855391
40
0.39465484081466
40
0.39465484081466
40
0.515723872651732
40
0.515723872651732
40
0.576258388570265
40
0.576258388570265
40
0.591392017549901
40
0.591392017549901
40
0.606525646529536
40
0.636792904488803
40
0.636792904488803
40
0.757861936325861
40
0.757861936325861
40
0.818396452244393
40
0.818396452244393
40
0.84866371020366
40
0.84866371020366
40
0.878930968162928
40
0.878930968162928
40
1
40
1
40
1
40
1
41
1
10
73.2203556443935
20
-2.12467977131607
30
0
41
1
10
73.1660587113461
20
-2.14393349537559
30
0
41
1
10
73.1117439477729
20
-2.16166641630429
30
0
41
1
10
72.9526651714936
20
-2.20904409314747
30
0
41
1
10
72.8477069552156
20
-2.23451751078011
30
0
41
1
10
72.6892752421715
20
-2.26384460820583
30
0
41
1
10
72.636217896062
20
-2.27214299653647
30
0
41
1
10
72.530624786874
20
-2.28560861631735
30
0
41
1
10
72.4779847458715
20
-2.29079981540056
30
0
41
1
10
72.2153176547239
20
-2.30916862913006
30
0
41
1
10
72.0068752542346
20
-2.29968094833143
30
0
41
1
10
71.6923033621162
20
-2.25027303060978
30
1E-16
41
1
10
71.5871311258418
20
-2.22792229055355
30
0
41
1
10
71.4548080390118
20
-2.19260758881978
30
0
41
1
10
71.4282746957515
20
-2.18516746473225
30
0
41
1
10
71.3753285823181
20
-2.16961356958234
30
0
41
1
10
71.2960331571401
20
-2.14525917010886
30
0
41
1
10
71.2170557765599
20
-2.11788757854975
30
1E-16
41
1
10
70.9542737073756
20
-2.02015764261344
30
1E-16
41
1
10
70.7455517586185
20
-1.92128472014662
30
1E-16
41
1
10
70.4305403467669
20
-1.74498460023551
30
1E-16
41
1
10
70.3252205892933
20
-1.68153481564346
30
-1E-16
41
1
10
70.1927343104015
20
-1.5965840825057
30
0
41
1
10
70.1661666131018
20
-1.5792926577387
30
-1E-16
41
1
10
70.1131282472404
20
-1.54427745491623
30
1E-16
41
1
10
70.0336914460048
20
-1.49109201562058
30
-1E-16
41
1
10
69.9545652663671
20
-1.4359807440018
30
0
41
1
10
69.6912783546105
20
-1.24825638479237
30
-2E-16
41
1
10
69.482128704551
20
-1.08526587189445
30
-1E-16
41
1
10
69.1667068022401
20
-0.825704839152223
30
2E-16
41
1
10
69.0612862459243
20
-0.736661365543114
30
-1E-16
41
1
10
68.9022452140113
20
-0.599762254520272
30
1E-16
41
1
10
68.8489903711646
20
-0.553494248202469
30
0
41
1
10
68.74270667859
20
-0.460461416331157
30
2E-16
41
1
10
68.6896467866749
20
-0.413672497513261
30
1E-16
41
1
10
68.4245618897079
20
-0.178588590343651
30
0
41
1
10
68.213230203363
20
0.013171340031306
30
0
41
1
10
67.9999999999999
20
0.205691910475764
30
0
0
SPLINE
5
120
100
AcDbEntity
8
1
62
256
6
ByLayer
370
18
48
1
60
0
100
AcDbSpline
70
4
71
3
72
48
73
44
40
0
40
0
40
0
40
0
40
0.104764142092707
40
0.104764142092707
40
0.130955177615882
40
0.144050695377471
40
0.144050695377471
40
0.15714621313906
40
0.15714621313906
40
0.209528284185417
40
0.209528284185417
40
0.314292426278132
40
0.314292426278132
40
0.366674497324489
40
0.366674497324489
40
0.392865532847666
40
0.392865532847666
40
0.419056568370842
40
0.419056568370842
40
0.523820710463549
40
0.523820710463549
40
0.576202781509902
40
0.576202781509902
40
0.602393817033079
40
0.602393817033079
40
0.615489334794667
40
0.615489334794667
40
0.628584852556255
40
0.628584852556255
40
0.733348994648947
40
0.733348994648947
40
0.78573106569529
40
0.78573106569529
40
0.811922101218464
40
0.825017618980051
40
0.825017618980051
40
0.838113136741638
40
0.838113136741638
40
0.942877278834317
40
0.942877278834317
40
0.995259349880659
40
0.995259349880659
40
1
40
1
40
1
40
1
41
1
10
67.9999999999994
20
1.66580831801392
30
1E-16
41
1
10
68.2122153745847
20
1.5147981026945
30
0
41
1
10
68.4226978681596
20
1.35179002221059
30
-1E-16
41
1
10
68.6866743397245
20
1.13597735703976
30
0
41
1
10
68.7659330576597
20
1.07032674719892
30
2E-16
41
1
10
68.8453780475899
20
1.0033912113079
30
-1E-16
41
1
10
68.898393076521
20
0.958490493697099
30
0
41
1
10
68.9249498032274
20
0.935881513612514
30
0
41
1
10
69.0574960859819
20
0.822501375690933
30
-2E-16
41
1
10
69.1628816995421
20
0.730639890919889
30
1E-16
41
1
10
69.4780417514801
20
0.45266811186977
30
-2E-16
41
1
10
69.6868122687749
20
0.264166990418516
30
-2E-16
41
1
10
70.0016954791698
20
-0.0192159183237663
30
0
41
1
10
70.1069450324674
20
-0.113782556401929
30
-2E-16
41
1
10
70.2657561512428
20
-0.25524093388745
30
2E-16
41
1
10
70.318954409175
20
-0.302420189914386
30
-2E-16
41
1
10
70.4248810683505
20
-0.395784187290474
30
0
41
1
10
70.4776820440024
20
-0.442034316300976
30
1E-16
41
1
10
70.7410878784185
20
-0.670927046869451
30
-2E-16
41
1
10
70.9498954064929
20
-0.846529231918737
30
2E-16
41
1
10
71.2641839960461
20
-1.09458772105228
30
-1E-16
41
1
10
71.3691254413788
20
-1.17471104136442
30
1E-16
41
1
10
71.5273200515122
20
-1.29046001471337
30
-1E-16
41
1
10
71.5801826691339
20
-1.32830253949908
30
0
41
1
10
71.6597429103803
20
-1.38387201000094
30
-1E-16
41
1
10
71.6863346489377
20
-1.40221423609651
30
0
41
1
10
71.7393900226384
20
-1.43833136581978
30
0
41
1
10
71.7658729547514
20
-1.45612026715162
30
1E-16
41
1
10
72.0038680854896
20
-1.61377014385911
30
0
41
1
10
72.2129354155188
20
-1.73654352950945
30
1E-16
41
1
10
72.5270202698762
20
-1.89203446222001
30
0
41
1
10
72.6317932114083
20
-1.93907455557451
30
1E-16
41
1
10
72.7896118271275
20
-2.00198197409432
30
0
41
1
10
72.8686864585397
20
-2.0315208164653
30
1E-16
41
1
10
72.948115186603
20
-2.05808345145328
30
0
41
1
10
73.0011591974431
20
-2.07511732368204
30
0
41
1
10
73.0277506036122
20
-2.08330333885991
30
0
41
1
10
73.2664293889861
20
-2.15356579780914
30
0
41
1
10
73.4756628178184
20
-2.19241964820091
30
0
41
1
10
73.7895827806206
20
-2.21512265989892
30
0
41
1
10
73.8942340524438
20
-2.21674031576131
30
0
41
1
10
74.0088034367445
20
-2.21187425432871
30
0
41
1
10
74.018314975787
20
-2.21142058483917
30
0
41
1
10
74.0278301776241
20
-2.2109169445306
30
0
0
SPLINE
5
121
100
AcDbEntity
8
1
62
256
6
ByLayer
370
18
48
1
60
0
100
AcDbSpline
70
4
71
2
72
6
73
3
40
0
40
0
40
0
40
1
40
1
40
1
41
1
10
76.9902904198201
20
1.28177418969301
30
1E-16
41
1
10
76.9903005145177
20
1.28178261184487
30
1E-16
41
1
10
76.9903106092087
20
1.28178975063676
30
1E-16
0
SPLINE
5
122
100
AcDbEntity
8
1
62
256
6
ByLayer
370
18
48
1
60
0
100
AcDbSpline
70
4
71
2
72
6
73
3
40
0
40
0
40
0
40
1
40
1
40
1
41
1
10
74.9169654075876
20
1.08788869201968
30
-1E-16
41
1
10
74.9169635338862
20
1.08790646954347
30
-1E-16
41
1
10
74.9169616601848
20
1.08792447270872
30
-1E-16
0
SPLINE
5
123
100
AcDbEntity
8
1
62
256
6
ByLayer
370
18
48
1
60
0
100
AcDbSpline
70
4
71
1
72
4
73
2
40
0
40
0
40
1
40
1
41
1
10
70.4156174649205
20
0.569285469253344
30
0
41
1
10
70.4156261182762
20
0.569280296572288
30
0
0
INSERT
5
149
100
AcDbEntity
8
1
62
256
6
ByLayer
370
18
48
1
60
0
100
AcDbBlockReference
2
LABLE3D_1
10
94.300458
20
-20.39795
30
0
41
1
42
1
43
1
50
0
210
0
220
0
230
1
0
LINE
5
7D
100
AcDbEntity
8
80
62
256
6
ByLayer
370
18
48
1
60
0
100
AcDbLine
10
0
20
0
30
0
11
-3
21
0
31
0
39
0
210
0
220
0
230
1
0
LINE
5
7E
100
AcDbEntity
8
81
62
256
6
ByLayer
370
18
48
1
60
0
100
AcDbLine
10
80
20
0
30
0
11
83
21
0
31
0
39
0
210
0
220
0
230
1
0
LINE
5
7F
100
AcDbEntity
8
SK4
62
256
6
ByLayer
370
18
48
0.05
60
0
100
AcDbLine
10
-48
20
0
30
0
11
83
21
0
31
0
39
0
210
0
220
0
230
1
0
LINE
5
81
100
AcDbEntity
8
4
62
256
6
ByLayer
370
18
48
0.05
60
0
100
AcDbLine
10
0
20
0
30
0
11
83
21
0
31
0
39
0
210
0
220
0
230
1
0
LINE
5
83
100
AcDbEntity
8
1
62
256
6
ByLayer
370
18
48
1
60
0
100
AcDbLine
10
0
20
-6
30
0
11
0
21
6
31
0
39
0
210
0
220
0
230
1
0
LINE
5
84
100
AcDbEntity
8
1
62
256
6
ByLayer
370
18
48
1
60
0
100
AcDbLine
10
1.727825
20
-6
30
0
11
1.727825
21
6
31
0
39
0
210
0
220
0
230
1
0
LINE
5
85
100
AcDbEntity
8
SK1
62
256
6
ByLayer
370
18
48
1
60
0
100
AcDbLine
10
-45
20
-5.2
30
0
11
-45
21
5.2
31
0
39
0
210
0
220
0
230
1
0
LINE
5
87
100
AcDbEntity
8
SK1
62
256
6
ByLayer
370
18
48
1
60
0
100
AcDbLine
10
0
20
-6
30
0
11
0
21
6
31
0
39
0
210
0
220
0
230
1
0
LINE
5
88
100
AcDbEntity
8
SK1
62
256
6
ByLayer
370
18
48
1
60
0
100
AcDbLine
10
-44.2
20
-6
30
0
11
-44.2
21
6
31
0
39
0
210
0
220
0
230
1
0
LINE
5
89
100
AcDbEntity
8
1
62
256
6
ByLayer
370
18
48
1
60
0
100
AcDbLine
10
1.727825
20
6
30
0
11
0
21
6
31
0
39
0
210
0
220
0
230
1
0
LINE
5
8A
100
AcDbEntity
8
1
62
256
6
ByLayer
370
18
48
1
60
0
100
AcDbLine
10
0
20
-6
30
0
11
1.727825
21
-6
31
0
39
0
210
0
220
0
230
1
0
LINE
5
8B
100
AcDbEntity
8
1
62
256
6
ByLayer
370
18
48
1
60
0
100
AcDbLine
10
77.32722
20
2.038004
30
0
11
76.527391
21
2.079921
31
0
39
0
210
0
220
0
230
1
0
LINE
5
8C
100
AcDbEntity
8
1
62
256
6
ByLayer
370
18
48
1
60
0
100
AcDbLine
10
74.925444
20
2.163875
30
0
11
74.028821
21
2.210865
31
0
39
0
210
0
220
0
230
1
0
LINE
5
8D
100
AcDbEntity
8
1
62
256
6
ByLayer
370
18
48
1
60
0
100
AcDbLine
10
72.379287
20
2.297314
30
0
11
71.373607
21
2.350019
31
0
39
0
210
0
220
0
230
1
0
LINE
5
8E
100
AcDbEntity
8
1
62
256
6
ByLayer
370
18
48
1
60
0
100
AcDbLine
10
69.660716
20
2.439788
30
0
11
68.548279
21
2.498088
31
0
39
0
210
0
220
0
230
1
0
LINE
5
8F
100
AcDbEntity
8
1
62
256
6
ByLayer
370
18
48
1
60
0
100
AcDbLine
10
66.726386
20
2.59357
30
0
11
1.727825
21
6
31
0
39
0
210
0
220
0
230
1
0
LINE
5
90
100
AcDbEntity
8
1
62
256
6
ByLayer
370
18
48
1
60
0
100
AcDbLine
10
1.727825
20
-6
30
0
11
66.726386
21
-2.59357
31
0
39
0
210
0
220
0
230
1
0
LINE
5
91
100
AcDbEntity
8
1
62
256
6
ByLayer
370
18
48
1
60
0
100
AcDbLine
10
68.548279
20
-2.498088
30
0
11
69.660716
21
-2.439788
31
0
39
0
210
0
220
0
230
1
0
LINE
5
92
100
AcDbEntity
8
1
62
256
6
ByLayer
370
18
48
1
60
0
100
AcDbLine
10
71.373607
20
-2.350019
30
0
11
72.379287
21
-2.297314
31
0
39
0
210
0
220
0
230
1
0
LINE
5
93
100
AcDbEntity
8
1
62
256
6
ByLayer
370
18
48
1
60
0
100
AcDbLine
10
74.028821
20
-2.210865
30
0
11
74.925444
21
-2.163875
31
0
39
0
210
0
220
0
230
1
0
LINE
5
94
100
AcDbEntity
8
1
62
256
6
ByLayer
370
18
48
1
60
0
100
AcDbLine
10
76.527391
20
-2.079921
30
0
11
77.32722
21
-2.038004
31
0
39
0
210
0
220
0
230
1
0
LINE
5
95
100
AcDbEntity
8
SK1
62
256
6
ByLayer
370
18
48
1
60
0
100
AcDbLine
10
-45
20
-5.2
30
0
11
-44.2
21
-6
31
0
39
0
210
0
220
0
230
1
0
LINE
5
96
100
AcDbEntity
8
SK1
62
256
6
ByLayer
370
18
48
1
60
0
100
AcDbLine
10
-44.2
20
6
30
0
11
-45
21
5.2
31
0
39
0
210
0
220
0
230
1
0
LINE
5
97
100
AcDbEntity
8
SK1
62
256
6
ByLayer
370
18
48
1
60
0
100
AcDbLine
10
0
20
6
30
0
11
-44.2
21
6
31
0
39
0
210
0
220
0
230
1
0
LINE
5
98
100
AcDbEntity
8
SK1
62
256
6
ByLayer
370
18
48
1
60
0
100
AcDbLine
10
-44.2
20
-6
30
0
11
0
21
-6
31
0
39
0
210
0
220
0
230
1
0
LINE
5
99
100
AcDbEntity
8
SK2
62
256
6
ByLayer
370
13
48
1
60
0
100
AcDbLine
10
-51.5
20
-6
30
0
11
-51.5
21
25.625256
31
0
39
0
210
0
220
0
230
1
0
LINE
5
9B
100
AcDbEntity
8
SK2
62
256
6
ByLayer
370
13
48
1
60
0
100
AcDbLine
10
-46.5875
20
-6
30
0
11
-53.5
21
-6
31
0
39
0
210
0
220
0
230
1
0
LINE
5
9C
100
AcDbEntity
8
SK2
62
256
6
ByLayer
370
13
48
1
60
0
100
AcDbLine
10
-46.5875
20
6
30
0
11
-53.5
21
6
31
0
39
0
210
0
220
0
230
1
0
LINE
5
9D
100
AcDbEntity
8
1
62
256
6
ByLayer
370
18
48
1
60
1
100
AcDbLine
10
-51.5
20
-6
30
0
11
-51.960784
21
-2.500002
31
0
39
0
210
0
220
0
230
1
0
LINE
5
9E
100
AcDbEntity
8
1
62
256
6
ByLayer
370
18
48
1
60
1
100
AcDbLine
10
-51.960784
20
-2.500002
30
0
11
-51.039216
21
-2.499998
31
0
39
0
210
0
220
0
230
1
0
LINE
5
9F
100
AcDbEntity
8
1
62
256
6
ByLayer
370
18
48
1
60
1
100
AcDbLine
10
-51.039216
20
-2.499998
30
0
11
-51.5
21
-6
31
0
39
0
210
0
220
0
230
1
0
LINE
5
A0
100
AcDbEntity
8
1
62
256
6
ByLayer
370
18
48
1
60
1
100
AcDbLine
10
-51.5
20
6
30
0
11
-51.039216
21
2.500002
31
0
39
0
210
0
220
0
230
1
0
LINE
5
A1
100
AcDbEntity
8
1
62
256
6
ByLayer
370
18
48
1
60
1
100
AcDbLine
10
-51.039216
20
2.500002
30
0
11
-51.960784
21
2.499998
31
0
39
0
210
0
220
0
230
1
0
LINE
5
A2
100
AcDbEntity
8
1
62
256
6
ByLayer
370
18
48
1
60
1
100
AcDbLine
10
-51.960784
20
2.499998
30
0
11
-51.5
21
6
31
0
39
0
210
0
220
0
230
1
0
LINE
5
A3
100
AcDbEntity
8
SK2
62
256
6
ByLayer
370
13
48
1
60
0
100
AcDbLine
10
96.5
20
-9.5
30
0
11
96.5
21
20.449199
31
0
39
0
210
0
220
0
230
1
0
LINE
5
A4
100
AcDbEntity
8
SK2
62
256
6
ByLayer
370
13
48
1
60
0
100
AcDbLine
10
81.5875
20
-2
30
0
11
98.5
21
-2
31
0
39
0
210
0
220
0
230
1
0
LINE
5
A5
100
AcDbEntity
8
SK2
62
256
6
ByLayer
370
13
48
1
60
0
100
AcDbLine
10
81.5875
20
2
30
0
11
98.5
21
2
31
0
39
0
210
0
220
0
230
1
0
LINE
5
A6
100
AcDbEntity
8
1
62
256
6
ByLayer
370
18
48
1
60
1
100
AcDbLine
10
96.5
20
-2
30
0
11
96.960784
21
-5.499998
31
0
39
0
210
0
220
0
230
1
0
LINE
5
A7
100
AcDbEntity
8
1
62
256
6
ByLayer
370
18
48
1
60
1
100
AcDbLine
10
96.960784
20
-5.499998
30
0
11
96.039216
21
-5.500002
31
0
39
0
210
0
220
0
230
1
0
LINE
5
A8
100
AcDbEntity
8
1
62
256
6
ByLayer
370
18
48
1
60
1
100
AcDbLine
10
96.039216
20
-5.500002
30
0
11
96.5
21
-2
31
0
39
0
210
0
220
0
230
1
0
LINE
5
A9
100
AcDbEntity
8
1
62
256
6
ByLayer
370
18
48
1
60
1
100
AcDbLine
10
96.5
20
2
30
0
11
96.039216
21
5.499998
31
0
39
0
210
0
220
0
230
1
0
LINE
5
AA
100
AcDbEntity
8
1
62
256
6
ByLayer
370
18
48
1
60
1
100
AcDbLine
10
96.039216
20
5.499998
30
0
11
96.960784
21
5.500002
31
0
39
0
210
0
220
0
230
1
0
LINE
5
AB
100
AcDbEntity
8
1
62
256
6
ByLayer
370
18
48
1
60
1
100
AcDbLine
10
96.960784
20
5.500002
30
0
11
96.5
21
2
31
0
39
0
210
0
220
0
230
1
0
LINE
5
AC
100
AcDbEntity
8
SK2
62
256
6
ByLayer
370
13
48
1
60
0
100
AcDbLine
10
-31.4125
20
0
30
0
11
35.098781
21
0
31
0
39
0
210
0
220
0
230
1
0
LINE
5
AD
100
AcDbEntity
8
SK2
62
256
6
ByLayer
370
13
48
1
60
0
100
AcDbLine
10
56.436264
20
5.773654
30
0
11
31.971951
21
10.054909
31
0
39
0
210
0
220
0
230
1
0
LINE
5
AE
100
AcDbEntity
8
1
62
256
6
ByLayer
370
18
48
1
60
1
100
AcDbLine
10
33.098781
20
0
30
0
11
32.6924
21
3.506731
31
0
39
0
210
0
220
0
230
1
0
LINE
5
AF
100
AcDbEntity
8
1
62
256
6
ByLayer
370
18
48
1
60
1
100
AcDbLine
10
32.6924
20
3.506731
30
0
11
33.613857
21
3.492425
31
0
39
0
210
0
220
0
230
1
0
LINE
5
B0
100
AcDbEntity
8
1
62
256
6
ByLayer
370
18
48
1
60
1
100
AcDbLine
10
33.613857
20
3.492425
30
0
11
33.098781
21
0
31
0
39
0
210
0
220
0
230
1
0
LINE
5
B1
100
AcDbEntity
8
1
62
256
6
ByLayer
370
18
48
1
60
1
100
AcDbLine
10
33.942011
20
9.710148
30
0
11
33.847352
21
6.181218
31
0
39
0
210
0
220
0
230
1
0
LINE
5
B2
100
AcDbEntity
8
1
62
256
6
ByLayer
370
18
48
1
60
1
100
AcDbLine
10
33.847352
20
6.181218
30
0
11
32.937222
21
6.325959
31
0
39
0
210
0
220
0
230
1
0
LINE
5
B3
100
AcDbEntity
8
1
62
256
6
ByLayer
370
18
48
1
60
1
100
AcDbLine
10
32.937222
20
6.325959
30
0
11
33.942011
21
9.710148
31
0
39
0
210
0
220
0
230
1
0
LINE
5
128
100
AcDbEntity
8
1
62
256
6
ByLayer
370
18
48
1
60
1
100
AcDbLine
10
-51.5
20
-6
30
0
11
-51.960784
21
-2.500002
31
0
39
0
210
0
220
0
230
1
0
LINE
5
129
100
AcDbEntity
8
1
62
256
6
ByLayer
370
18
48
1
60
1
100
AcDbLine
10
-51.960784
20
-2.500002
30
0
11
-51.039216
21
-2.499998
31
0
39
0
210
0
220
0
230
1
0
LINE
5
12A
100
AcDbEntity
8
1
62
256
6
ByLayer
370
18
48
1
60
1
100
AcDbLine
10
-51.039216
20
-2.499998
30
0
11
-51.5
21
-6
31
0
39
0
210
0
220
0
230
1
0
LINE
5
12C
100
AcDbEntity
8
1
62
256
6
ByLayer
370
18
48
1
60
1
100
AcDbLine
10
-51.5
20
6
30
0
11
-51.039216
21
2.500002
31
0
39
0
210
0
220
0
230
1
0
LINE
5
12D
100
AcDbEntity
8
1
62
256
6
ByLayer
370
18
48
1
60
1
100
AcDbLine
10
-51.039216
20
2.500002
30
0
11
-51.960784
21
2.499998
31
0
39
0
210
0
220
0
230
1
0
LINE
5
12E
100
AcDbEntity
8
1
62
256
6
ByLayer
370
18
48
1
60
1
100
AcDbLine
10
-51.960784
20
2.499998
30
0
11
-51.5
21
6
31
0
39
0
210
0
220
0
230
1
0
LINE
5
132
100
AcDbEntity
8
1
62
256
6
ByLayer
370
18
48
1
60
1
100
AcDbLine
10
96.5
20
-2
30
0
11
96.960784
21
-5.499998
31
0
39
0
210
0
220
0
230
1
0
LINE
5
133
100
AcDbEntity
8
1
62
256
6
ByLayer
370
18
48
1
60
1
100
AcDbLine
10
96.960784
20
-5.499998
30
0
11
96.039216
21
-5.500002
31
0
39
0
210
0
220
0
230
1
0
LINE
5
134
100
AcDbEntity
8
1
62
256
6
ByLayer
370
18
48
1
60
1
100
AcDbLine
10
96.039216
20
-5.500002
30
0
11
96.5
21
-2
31
0
39
0
210
0
220
0
230
1
0
LINE
5
136
100
AcDbEntity
8
1
62
256
6
ByLayer
370
18
48
1
60
1
100
AcDbLine
10
96.5
20
2
30
0
11
96.039216
21
5.499998
31
0
39
0
210
0
220
0
230
1
0
LINE
5
137
100
AcDbEntity
8
1
62
256
6
ByLayer
370
18
48
1
60
1
100
AcDbLine
10
96.039216
20
5.499998
30
0
11
96.960784
21
5.500002
31
0
39
0
210
0
220
0
230
1
0
LINE
5
138
100
AcDbEntity
8
1
62
256
6
ByLayer
370
18
48
1
60
1
100
AcDbLine
10
96.960784
20
5.500002
30
0
11
96.5
21
2
31
0
39
0
210
0
220
0
230
1
0
LINE
5
13B
100
AcDbEntity
8
1
62
256
6
ByLayer
370
18
48
1
60
1
100
AcDbLine
10
33.098781
20
0
30
0
11
32.6924
21
3.506731
31
0
39
0
210
0
220
0
230
1
0
LINE
5
13C
100
AcDbEntity
8
1
62
256
6
ByLayer
370
18
48
1
60
1
100
AcDbLine
10
32.6924
20
3.506731
30
0
11
33.613857
21
3.492425
31
0
39
0
210
0
220
0
230
1
0
LINE
5
13D
100
AcDbEntity
8
1
62
256
6
ByLayer
370
18
48
1
60
1
100
AcDbLine
10
33.613857
20
3.492425
30
0
11
33.098781
21
0
31
0
39
0
210
0
220
0
230
1
0
LINE
5
13F
100
AcDbEntity
8
1
62
256
6
ByLayer
370
18
48
1
60
1
100
AcDbLine
10
33.942011
20
9.710148
30
0
11
33.847352
21
6.181218
31
0
39
0
210
0
220
0
230
1
0
LINE
5
140
100
AcDbEntity
8
1
62
256
6
ByLayer
370
18
48
1
60
1
100
AcDbLine
10
33.847352
20
6.181218
30
0
11
32.937222
21
6.325959
31
0
39
0
210
0
220
0
230
1
0
LINE
5
141
100
AcDbEntity
8
1
62
256
6
ByLayer
370
18
48
1
60
1
100
AcDbLine
10
32.937222
20
6.325959
30
0
11
33.942011
21
9.710148
31
0
39
0
210
0
220
0
230
1
0
LINE
5
144
100
AcDbEntity
8
1
62
256
6
ByLayer
370
13
48
1
60
0
100
AcDbLine
10
95.800458
20
-20.39795
30
0
11
95.800458
21
-20.39795
31
0
39
0
210
0
220
0
230
1
0
MTEXT
5
124
100
AcDbEntity
8
SK2
62
256
6
ByLayer
370
18
48
1
60
0
100
AcDbMText
10
-52.841114
20
10.658437
30
0
210
0
220
0
230
1
1
%%c
40
3
41
0
44
1.084337
50
90
71
7
72
5
7
iso_b_vert
0
MTEXT
5
127
100
AcDbEntity
8
SK2
62
256
6
ByLayer
370
18
48
1
60
0
100
AcDbMText
10
-52.841114
20
16.635
30
0
210
0
220
0
230
1
1
\W0.6563;12 h6
40
3
41
0
44
1.084337
50
90
71
7
72
5
7
iso_b_vert
0
MTEXT
5
130
100
AcDbEntity
8
SK2
62
256
6
ByLayer
370
18
48
1
60
0
100
AcDbMText
10
95.158886
20
6.658437
30
0
210
0
220
0
230
1
1
%%c
40
3
41
0
44
1.084337
50
90
71
7
72
5
7
iso_b_vert
0
MTEXT
5
131
100
AcDbEntity
8
SK2
62
256
6
ByLayer
370
18
48
1
60
0
100
AcDbMText
10
95.158886
20
12.635
30
0
210
0
220
0
230
1
1
\W0.7202;4 h6
40
3
41
0
44
1.084337
50
90
71
7
72
5
7
iso_b_vert
0
MTEXT
5
13A
100
AcDbEntity
8
SK2
62
256
6
ByLayer
370
18
48
1
60
0
100
AcDbMText
10
33.264649
20
11.062837
30
0
210
0
220
0
230
1
1
\W0.8531;3.0%%d
40
3
41
0
44
1.084337
50
72.3079754055303
71
7
72
5
7
iso_b_vert
0
MTEXT
5
14C
100
AcDbEntity
8
SK6
62
256
6
ByLayer
370
18
48
1
60
0
100
AcDbMText
10
-9.050225
20
-57.114886
30
0
210
0
220
0
230
1
1
\W0.7786;2T346-0400-TA1200   T2CH
40
3
41
0
44
1.084337
50
0
71
7
72
5
7
iso_b_vert
0
HATCH
5
12B
100
AcDbEntity
8
SK2
62
256
6
ByLayer
370
13
48
1
60
0
100
AcDbHatch
10
0
20
0
30
0
210
0
220
0
230
1
2
ANSI31
70
0
71
0
91
1
92
5
93
3
72
1
10
-51.5
20
-6
11
-51.9607837415528
21
-2.50000169255318
72
1
10
-51.9607837415528
20
-2.50000169255318
11
-51.0392162584472
21
-2.49999830744682
72
1
10
-51.0392162584472
20
-2.49999830744682
11
-51.5
21
-6
97
0
75
0
76
1
52
0
41
0.0062
77
0
78
1
53
45
43
0
44
0
45
-0.0139193969876572
46
0.0139193969876572
79
0
47
0
98
1
10
0
20
0
0
HATCH
5
12F
100
AcDbEntity
8
SK2
62
256
6
ByLayer
370
13
48
1
60
0
100
AcDbHatch
10
0
20
0
30
0
210
0
220
0
230
1
2
ANSI31
70
0
71
0
91
1
92
5
93
3
72
1
10
-51.5
20
6
11
-51.0392162584472
21
2.50000169255318
72
1
10
-51.0392162584472
20
2.50000169255318
11
-51.9607837415528
21
2.49999830744682
72
1
10
-51.9607837415528
20
2.49999830744682
11
-51.5
21
6
97
0
75
0
76
1
52
0
41
0.0062
77
0
78
1
53
45
43
0
44
0
45
-0.0139193969876572
46
0.0139193969876572
79
0
47
0
98
1
10
0
20
0
0
HATCH
5
135
100
AcDbEntity
8
SK2
62
256
6
ByLayer
370
13
48
1
60
0
100
AcDbHatch
10
0
20
0
30
0
210
0
220
0
230
1
2
ANSI31
70
0
71
0
91
1
92
5
93
3
72
1
10
96.5
20
-2
11
96.9607837415528
21
-5.49999830744682
72
1
10
96.9607837415528
20
-5.49999830744682
11
96.0392162584472
21
-5.50000169255318
72
1
10
96.0392162584472
20
-5.50000169255318
11
96.5
21
-2
97
0
75
0
76
1
52
0
41
0.0062
77
0
78
1
53
45
43
0
44
0
45
-0.0139193969876572
46
0.0139193969876572
79
0
47
0
98
1
10
0
20
0
0
HATCH
5
139
100
AcDbEntity
8
SK2
62
256
6
ByLayer
370
13
48
1
60
0
100
AcDbHatch
10
0
20
0
30
0
210
0
220
0
230
1
2
ANSI31
70
0
71
0
91
1
92
5
93
3
72
1
10
96.5
20
2
11
96.0392162584472
21
5.49999830744682
72
1
10
96.0392162584472
20
5.49999830744682
11
96.9607837415528
21
5.50000169255318
72
1
10
96.9607837415528
20
5.50000169255318
11
96.5
21
2
97
0
75
0
76
1
52
0
41
0.0062
77
0
78
1
53
45
43
0
44
0
45
-0.0139193969876572
46
0.0139193969876572
79
0
47
0
98
1
10
0
20
0
0
HATCH
5
13E
100
AcDbEntity
8
SK2
62
256
6
ByLayer
370
13
48
1
60
0
100
AcDbHatch
10
0
20
0
30
0
210
0
220
0
230
1
2
ANSI31
70
0
71
0
91
1
92
5
93
3
72
1
10
33.0987808383134
20
0
11
32.6924002841632
21
3.50673133470735
72
1
10
32.6924002841632
20
3.50673133470735
11
33.6138567109122
21
3.49242470925589
72
1
10
33.6138567109122
20
3.49242470925589
11
33.0987808383134
21
0
97
0
75
0
76
1
52
0
41
0.0062
77
0
78
1
53
45
43
0
44
0
45
-0.0139193969876572
46
0.0139193969876572
79
0
47
0
98
1
10
0
20
0
0
HATCH
5
142
100
AcDbEntity
8
SK2
62
256
6
ByLayer
370
13
48
1
60
0
100
AcDbHatch
10
0
20
0
30
0
210
0
220
0
230
1
2
ANSI31
70
0
71
0
91
1
92
5
93
3
72
1
10
33.9420114886665
20
9.71014798948346
11
33.8473521177506
21
6.18121763991465
72
1
10
33.8473521177506
20
6.18121763991465
11
32.9372222190474
21
6.32595945631735
72
1
10
32.9372222190474
20
6.32595945631735
11
33.9420114886665
21
9.71014798948346
97
0
75
0
76
1
52
0
41
0.0062
77
0
78
1
53
45
43
0
44
0
45
-0.0139193969876572
46
0.0139193969876572
79
0
47
0
98
1
10
0
20
0
0
DIMENSION
5
14F
100
AcDbEntity
8
SK2
62
256
6
ByLayer
370
18
48
1
60
0
100
AcDbDimension
2
_U0
10
80
20
-40.85
30
0
11
17.5
21
-40.85
31
0
70
32
71
1
72
1
41
1
210
0
220
0
230
1
3
Standard
100
AcDbAlignedDimension
13
-45
23
6
33
0
14
80
24
2
34
0
50
0
100
AcDbRotatedDimension
1001
ACAD
1000
DSTYLE
1002
{
1070
   371
1070
    13
1070
   372
1070
    13
1070
     3
1000

1070
   170
1070
     0
1070
   144
1040
1.0
1070
   277
1070
     2
1070
   284
1070
     8
1070
   278
1070
    46
1070
   146
1040
1.166667
1070
   345
1005
16
1070
   347
1005
16
1070
   346
1005
16
1070
   344
1005
0
1070
   343
1005
0
1070
   172
1070
     1
1070
    76
1070
     0
1070
    75
1070
     0
1070
   282
1070
     0
1070
   281
1070
     0
1070
    71
1070
     0
1070
    74
1070
     0
1070
   279
1070
     0
1070
   173
1070
     1
1070
   340
1005
125
1070
   271
1070
     2
1070
   272
1070
     2
1070
    77
1070
     1
1070
    73
1070
     1
1070
   171
1070
     3
1070
   274
1070
     4
1070
   177
1070
     2
1070
   176
1070
     2
1070
   178
1070
     2
1070
    78
1070
     8
1070
    48
1040
-0.1
1070
    41
1040
3.5
1070
   147
1040
1.5
1070
    42
1040
1.5875
1070
    44
1040
2.0
1070
   140
1040
3.0
1002
}
1001
ACAD_DSTYLE_DIM_LINETYPE
1070
   380
1005
16
1001
ACAD_DSTYLE_DIM_EXT1_LINETYPE
1070
   381
1005
16
1001
ACAD_DSTYLE_DIM_EXT2_LINETYPE
1070
   382
1005
16
0
DIMENSION
5
168
100
AcDbEntity
8
SK2
62
256
6
ByLayer
370
18
48
1
60
0
100
AcDbDimension
2
_U1
10
0
20
-28.85
30
0
11
40
21
-28.85
31
0
70
32
71
1
72
1
41
1
210
0
220
0
230
1
3
Standard
100
AcDbAlignedDimension
13
80
23
-2
33
0
14
0
24
-6
34
0
50
0
100
AcDbRotatedDimension
1001
ACAD
1000
DSTYLE
1002
{
1070
   371
1070
    13
1070
   372
1070
    13
1070
     3
1000

1070
   170
1070
     0
1070
   144
1040
1.0
1070
   277
1070
     2
1070
   284
1070
     8
1070
   278
1070
    46
1070
   146
1040
1.166667
1070
   345
1005
16
1070
   347
1005
16
1070
   346
1005
16
1070
   344
1005
0
1070
   343
1005
0
1070
   172
1070
     1
1070
    76
1070
     0
1070
    75
1070
     0
1070
   282
1070
     0
1070
   281
1070
     0
1070
    71
1070
     0
1070
    74
1070
     0
1070
   279
1070
     0
1070
   173
1070
     1
1070
   340
1005
125
1070
   271
1070
     2
1070
   272
1070
     2
1070
    77
1070
     1
1070
    73
1070
     1
1070
   171
1070
     3
1070
   274
1070
     4
1070
   177
1070
     2
1070
   176
1070
     2
1070
   178
1070
     2
1070
    78
1070
     8
1070
    48
1040
-0.1
1070
    41
1040
3.5
1070
   147
1040
1.5
1070
    42
1040
1.5875
1070
    44
1040
2.0
1070
   140
1040
3.0
1002
}
1001
ACAD_DSTYLE_DIM_LINETYPE
1070
   380
1005
16
1001
ACAD_DSTYLE_DIM_EXT1_LINETYPE
1070
   381
1005
16
1001
ACAD_DSTYLE_DIM_EXT2_LINETYPE
1070
   382
1005
16
0
DIMENSION
5
180
100
AcDbEntity
8
SK2
62
256
6
ByLayer
370
18
48
1
60
0
100
AcDbDimension
2
_U2
10
68
20
-14.85
30
0
11
74
21
-14.85
31
0
70
32
71
1
72
1
41
1
210
0
220
0
230
1
3
Standard
100
AcDbAlignedDimension
13
80
23
-2
33
0
14
68
24
-6
34
0
50
0
100
AcDbRotatedDimension
1001
ACAD
1000
DSTYLE
1002
{
1070
   371
1070
    13
1070
   372
1070
    13
1070
     3
1000

1070
   170
1070
     0
1070
   144
1040
1.0
1070
   277
1070
     2
1070
   284
1070
     8
1070
   278
1070
    46
1070
   146
1040
1.166667
1070
   345
1005
16
1070
   347
1005
16
1070
   346
1005
16
1070
   344
1005
0
1070
   343
1005
0
1070
   172
1070
     1
1070
    76
1070
     0
1070
    75
1070
     0
1070
   282
1070
     0
1070
   281
1070
     0
1070
    71
1070
     0
1070
    74
1070
     0
1070
   279
1070
     0
1070
   173
1070
     1
1070
   340
1005
125
1070
   271
1070
     2
1070
   272
1070
     2
1070
    77
1070
     1
1070
    73
1070
     1
1070
   171
1070
     3
1070
   274
1070
     4
1070
   177
1070
     2
1070
   176
1070
     2
1070
   178
1070
     2
1070
    78
1070
     8
1070
    48
1040
-0.1
1070
    41
1040
3.5
1070
   147
1040
1.5
1070
    42
1040
1.5875
1070
    44
1040
2.0
1070
   140
1040
3.0
1002
}
1001
ACAD_DSTYLE_DIM_LINETYPE
1070
   380
1005
16
1001
ACAD_DSTYLE_DIM_EXT1_LINETYPE
1070
   381
1005
16
1001
ACAD_DSTYLE_DIM_EXT2_LINETYPE
1070
   382
1005
16
0
ENDSEC
0
SECTION
2
OBJECTS
0
DICTIONARY
5
209
330
0
100
AcDbDictionary
280
0
281
1
3
ACAD_GROUP
350
20a
3
ACAD_MLINESTYLE
350
20b
0
DICTIONARY
5
20a
330
0
100
AcDbDictionary
280
0
281
1
0
DICTIONARY
5
20b
330
0
100
AcDbDictionary
280
0
281
1
3
Standard
350
18
0
MLINESTYLE
5
18
330
20b
100
AcDbMlineStyle
2
Standard
70
0
3

62
256
51
90
52
90
71
2
49
-0.5
62
256
6
ByLayer
49
0.5
62
256
6
ByLayer
0
RASTERVARIABLES
5
1f7
330

100
AcDbRasterVariables
90
0
70
1
71
1
72
1
0
ENDSEC
0
EOF
