0
SECTION
2
HEADER
9
$ACADVER
1
AC1015
9
$DWGCODEPAGE
3
ANSI_1252
9
$HANDSEED
5
20b
9
$ANGBASE
50
0
9
$ANGDIR
70
0
9
$ATTMODE
70
1
9
$AUNITS
70
0
9
$AUPREC
70
0
9
$CECOLOR
62
256
9
$CELTSCALE
40
1
9
$CELTYPE
6
ByLayer
9
$CELWEIGHT
370
18
9
$CLAYER
8
0
9
$CMLJUST
70
0
9
$CMLSCALE
40
1
9
$CMLSTYLE
2
Standard
9
$DIMSTYLE
2
Standard
9
$TEXTSIZE
40
0.2
9
$TEXTSTYLE
7
Standard
9
$LUNITS
70
2
9
$LUPREC
70
4
9
$EXTNAMES
290
1
9
$INSUNITS
70
4
9
$LTSCALE
40
1
9
$LWDISPLAY
290
1
9
$PDMODE
70
0
9
$PDSIZE
40
0
9
$PLINEGEN
70
0
0
ENDSEC
0
SECTION
2
CLASSES
0
CLASS
1
RASTERVARIABLES
2
AcDbRasterVariables
3
ISM
90
0
280
0
281
0
0
ENDSEC
0
SECTION
2
TABLES
0
TABLE
2
VPORT
5
201
100
AcDbSymbolTable
0
VPORT
5
1
100
AcDbSymbolTableRecord
100
AcDbViewportTableRecord
2
*Active
70
0
10
0
20
0
11
1
21
1
12
-1
22
1
13
0
23
0
14
0.5
24
0.5
15
10
25
10
16
0
26
0
36
1
17
0
27
0
37
0
0
ENDTAB
0
TABLE
2
LTYPE
5
202
100
AcDbSymbolTable
0
LTYPE
5
14
100
AcDbSymbolTableRecord
100
AcDbLinetypeTableRecord
70
0
2
ByBlock
3

72
65
73
0
40
0
0
LTYPE
5
15
100
AcDbSymbolTableRecord
100
AcDbLinetypeTableRecord
70
0
2
ByLayer
3

72
65
73
0
40
0
0
LTYPE
5
16
100
AcDbSymbolTableRecord
100
AcDbLinetypeTableRecord
70
0
2
Continuous
3
Solid line
72
65
73
0
40
0
0
LTYPE
5
6E
100
AcDbSymbolTableRecord
100
AcDbLinetypeTableRecord
70
0
2
CENTER
3
____ _ ____ _ ____ _ ____
72
65
73
4
40
47.5
49
22
74
0
49
-8.5
74
0
49
8.5
74
0
49
-8.5
74
0
0
LTYPE
5
6F
100
AcDbSymbolTableRecord
100
AcDbLinetypeTableRecord
70
0
2
DASHED
3
__ __ __ __ __ __ __ __ __
72
65
73
2
40
25.72
49
12.86
74
0
49
-12.86
74
0
0
ENDTAB
0
TABLE
2
LAYER
5
203
100
AcDbSymbolTable
0
LAYER
5
10
100
AcDbSymbolTableRecord
100
AcDbLayerTableRecord
2
0
70
0
62
7
6
Continuous
290
1
370
-3
390
0
0
LAYER
5
71
100
AcDbSymbolTableRecord
100
AcDbLayerTableRecord
2
81
70
0
62
-3
6
Continuous
290
1
370
-3
390
0
0
LAYER
5
73
100
AcDbSymbolTableRecord
100
AcDbLayerTableRecord
2
1
70
0
62
4
6
Continuous
290
1
370
-3
390
0
0
LAYER
5
75
100
AcDbSymbolTableRecord
100
AcDbLayerTableRecord
2
80
70
0
62
-6
6
Continuous
290
1
370
-3
390
0
0
LAYER
5
80
100
AcDbSymbolTableRecord
100
AcDbLayerTableRecord
2
4
70
0
62
-2
6
CENTER
290
1
370
-3
390
0
0
LAYER
5
147
100
AcDbSymbolTableRecord
100
AcDbLayerTableRecord
2
Defpoints
70
0
62
7
6
Continuous
290
0
370
-3
390
0
0
LAYER
5
1ed
100
AcDbSymbolTableRecord
100
AcDbLayerTableRecord
2
SK4
70
0
62
2
6
CENTER
290
1
370
-3
390
0
0
LAYER
5
1ee
100
AcDbSymbolTableRecord
100
AcDbLayerTableRecord
2
SK1
70
0
62
4
6
Continuous
290
1
370
-3
390
0
0
LAYER
5
1ef
100
AcDbSymbolTableRecord
100
AcDbLayerTableRecord
2
SK2
70
0
62
7
6
Continuous
290
1
370
-3
390
0
0
LAYER
5
1f0
100
AcDbSymbolTableRecord
100
AcDbLayerTableRecord
2
SK6
70
0
62
5
6
Continuous
290
1
370
-3
390
0
0
ENDTAB
0
TABLE
2
STYLE
5
204
100
AcDbSymbolTable
0
STYLE
5
11
100
AcDbSymbolTableRecord
100
AcDbTextStyleTableRecord
2
Standard
3
txt
70
0
71
0
40
0
41
1
42
0
50
0
0
STYLE
5
11A
100
AcDbSymbolTableRecord
100
AcDbTextStyleTableRecord
2
iso_b_vert
3
simplex.shx
70
0
71
0
40
0
41
1
42
0
50
0
0
STYLE
5
11B
100
AcDbSymbolTableRecord
100
AcDbTextStyleTableRecord
2
DWGDirectTextStyle
3
simplex
70
0
71
0
40
0
41
1
42
0
50
0
0
ENDTAB
0
TABLE
2
DIMSTYLE
5
205
100
AcDbSymbolTable
100
AcDbDimStyleTable
0
DIMSTYLE
105
27
100
AcDbSymbolTableRecord
100
AcDbDimStyleTableRecord
2
Standard
70
0
3
<>
41
0.18
42
0.0625
44
0.18
140
0.18
147
0.09
73
0
74
0
77
1
271
2
275
0
278
52
280
0
340
11
0
ENDTAB
0
TABLE
2
VIEW
5
206
100
AcDbSymbolTable
0
ENDTAB
0
TABLE
2
UCS
5
207
100
AcDbSymbolTable
0
ENDTAB
0
TABLE
2
APPID
5
208
100
AcDbSymbolTable
0
APPID
5
12
100
AcDbSymbolTableRecord
100
AcDbRegAppTableRecord
2
ACAD
70
0
0
APPID
5
143
100
AcDbSymbolTableRecord
100
AcDbRegAppTableRecord
2
ACAD_DSTYLE_DIMBREAK
70
0
0
APPID
5
1AC
100
AcDbSymbolTableRecord
100
AcDbRegAppTableRecord
2
ACAD_DSTYLE_DIM_LINETYPE
70
0
0
APPID
5
1AD
100
AcDbSymbolTableRecord
100
AcDbRegAppTableRecord
2
ACAD_DSTYLE_DIM_EXT1_LINETYPE
70
0
0
APPID
5
1AE
100
AcDbSymbolTableRecord
100
AcDbRegAppTableRecord
2
ACAD_DSTYLE_DIM_EXT2_LINETYPE
70
0
0
APPID
5
1E9
100
AcDbSymbolTableRecord
100
AcDbRegAppTableRecord
2
ACAD_MLEADERVER
70
0
0
ENDTAB
0
TABLE
2
BLOCK_RECORD
5
209
100
AcDbSymbolTable
0
BLOCK_RECORD
5
1F
100
AcDbSymbolTableRecord
100
AcDbBlockTableRecord
2
*Model_Space
340
0
70
0
0
BLOCK_RECORD
5
1B
100
AcDbSymbolTableRecord
100
AcDbBlockTableRecord
2
*Paper_Space
340
0
70
0
0
BLOCK_RECORD
5
23
100
AcDbSymbolTableRecord
100
AcDbBlockTableRecord
2
*Paper_Space0
340
0
70
0
0
BLOCK_RECORD
5
138
100
AcDbSymbolTableRecord
100
AcDbBlockTableRecord
2
LABLE3D_1
340
0
70
0
0
BLOCK_RECORD
5
148
100
AcDbSymbolTableRecord
100
AcDbBlockTableRecord
2
*D2
340
0
70
0
0
BLOCK_RECORD
5
154
100
AcDbSymbolTableRecord
100
AcDbBlockTableRecord
2
_U0
340
0
70
0
0
BLOCK_RECORD
5
160
100
AcDbSymbolTableRecord
100
AcDbBlockTableRecord
2
*D4
340
0
70
0
0
BLOCK_RECORD
5
16C
100
AcDbSymbolTableRecord
100
AcDbBlockTableRecord
2
_U1
340
0
70
0
0
BLOCK_RECORD
5
178
100
AcDbSymbolTableRecord
100
AcDbBlockTableRecord
2
*D6
340
0
70
0
0
BLOCK_RECORD
5
185
100
AcDbSymbolTableRecord
100
AcDbBlockTableRecord
2
_U2
340
0
70
0
0
ENDTAB
0
ENDSEC
0
SECTION
2
BLOCKS
0
BLOCK
5
20
100
AcDbEntity
8
0
100
AcDbBlockBegin
2
*Model_Space
70
0
10
0
20
0
30
0
3
*Model_Space
0
ENDBLK
5
21
100
AcDbEntity
8
0
100
AcDbBlockEnd
0
BLOCK
5
1C
100
AcDbEntity
8
0
100
AcDbBlockBegin
2
*Paper_Space
70
0
10
0
20
0
30
0
3
*Paper_Space
0
ENDBLK
5
1D
100
AcDbEntity
8
0
100
AcDbBlockEnd
0
BLOCK
5
24
100
AcDbEntity
8
0
100
AcDbBlockBegin
2
*Paper_Space0
70
0
10
0
20
0
30
0
3
*Paper_Space0
0
ENDBLK
5
25
100
AcDbEntity
8
0
100
AcDbBlockEnd
0
BLOCK
5
13F
100
AcDbEntity
8
0
100
AcDbBlockBegin
2
LABLE3D_1
70
0
10
84.300458
20
-21.3469
30
0
3
LABLE3D_1
0
MTEXT
5
13D
100
AcDbEntity
8
1
62
256
6
ByLayer
370
18
48
1
60
0
100
AcDbMText
10
85.959458
20
-23.461786
30
0
210
0
220
0
230
1
1
\W0.7167;R3
40
3
41
0
44
1.084337
50
0
71
7
72
5
7
iso_b_vert
0
ENDBLK
5
140
100
AcDbEntity
8
0
100
AcDbBlockEnd
0
BLOCK
5
149
100
AcDbEntity
8
0
100
AcDbBlockBegin
2
*D2
70
1
10
0
20
0
30
0
3
*D2
0
LINE
5
14B
100
AcDbEntity
8
0
62
256
6
ByLayer
370
-2
48
1
60
0
100
AcDbLine
10
-40
20
3.4125
30
0
11
-40
21
-42.097768
31
0
39
0
210
0
220
0
230
1
0
LINE
5
14C
100
AcDbEntity
8
0
62
256
6
ByLayer
370
-2
48
1
60
0
100
AcDbLine
10
70
20
1.4125
30
0
11
70
21
-42.097768
31
0
39
0
210
0
220
0
230
1
0
LINE
5
14D
100
AcDbEntity
8
0
62
256
6
ByLayer
370
-2
48
1
60
0
100
AcDbLine
10
-36.5
20
-40.097768
30
0
11
66.5
21
-40.097768
31
0
39
0
210
0
220
0
230
1
0
SOLID
5
14E
100
AcDbEntity
8
0
62
256
6
ByLayer
370
-1
48
1
60
0
100
AcDbTrace
10
-36.5
20
-39.514435
30
0
11
-36.5
21
-40.681101
31
0
12
-40
22
-40.097768
32
0
13
-40
23
-40.097768
33
0
39
0
210
0
220
0
230
1
0
SOLID
5
14F
100
AcDbEntity
8
0
62
256
6
ByLayer
370
-1
48
1
60
0
100
AcDbTrace
10
66.5
20
-40.681101
30
0
11
66.5
21
-39.514435
31
0
12
70
22
-40.097768
32
0
13
70
23
-40.097768
33
0
39
0
210
0
220
0
230
1
0
MTEXT
5
150
100
AcDbEntity
8
0
62
256
6
ByLayer
370
18
48
1
60
0
100
AcDbMText
10
15
20
-34.097768
30
0
210
0
220
0
230
1
1
\A1;110
40
3
41
0
44
1
50
0
71
5
72
5
7
iso_b_vert
0
POINT
5
151
100
AcDbEntity
8
Defpoints
62
0
6
ByLayer
370
-1
48
1
60
0
100
AcDbPoint
10
-40
20
5
30
0
39
0
210
0
220
0
230
1
50
360
0
POINT
5
152
100
AcDbEntity
8
Defpoints
62
0
6
ByLayer
370
-1
48
1
60
0
100
AcDbPoint
10
70
20
3
30
0
39
0
210
0
220
0
230
1
50
360
0
POINT
5
153
100
AcDbEntity
8
Defpoints
62
0
6
ByLayer
370
-1
48
1
60
0
100
AcDbPoint
10
70
20
-40.097768
30
0
39
0
210
0
220
0
230
1
50
360
0
ENDBLK
5
14A
100
AcDbEntity
8
0
100
AcDbBlockEnd
0
BLOCK
5
15B
100
AcDbEntity
8
0
100
AcDbBlockBegin
2
_U0
70
0
10
0
20
0
30
0
3
_U0
0
MTEXT
5
155
100
AcDbEntity
8
SK2
62
256
6
ByLayer
370
18
48
1
60
0
100
AcDbMText
10
12.996143
20
-39.212653
30
0
210
0
220
0
230
1
1
\W0.5296;110
40
3
41
0
44
1.084337
50
0
71
7
72
5
7
iso_b_vert
0
LINE
5
156
100
AcDbEntity
8
SK2
62
256
6
ByLayer
370
13
48
1
60
0
100
AcDbLine
10
-40
20
3.4125
30
0
11
-40
21
-42.097768
31
0
39
0
210
0
220
0
230
1
0
LINE
5
157
100
AcDbEntity
8
SK2
62
256
6
ByLayer
370
13
48
1
60
0
100
AcDbLine
10
70
20
1.4125
30
0
11
70
21
-42.097768
31
0
39
0
210
0
220
0
230
1
0
LINE
5
158
100
AcDbEntity
8
SK2
62
256
6
ByLayer
370
13
48
1
60
0
100
AcDbLine
10
-40
20
-40.097768
30
0
11
70
21
-40.097768
31
0
39
0
210
0
220
0
230
1
0
SOLID
5
159
100
AcDbEntity
8
SK2
62
256
6
ByLayer
370
18
48
1
60
0
100
AcDbTrace
10
-40
20
-40.097768
30
0
11
-36.500002
21
-39.636984
31
0
12
-36.499998
22
-40.558552
32
0
13
-36.499998
23
-40.558552
33
0
39
0
210
0
220
0
230
1
0
SOLID
5
15A
100
AcDbEntity
8
SK2
62
256
6
ByLayer
370
18
48
1
60
0
100
AcDbTrace
10
70
20
-40.097768
30
0
11
66.500002
21
-40.558552
31
0
12
66.499998
22
-39.636984
32
0
13
66.499998
23
-39.636984
33
0
39
0
210
0
220
0
230
1
0
ENDBLK
5
15C
100
AcDbEntity
8
0
100
AcDbBlockEnd
0
BLOCK
5
161
100
AcDbEntity
8
0
100
AcDbBlockBegin
2
*D4
70
1
10
0
20
0
30
0
3
*D4
0
LINE
5
163
100
AcDbEntity
8
0
62
256
6
ByLayer
370
-2
48
1
60
0
100
AcDbLine
10
70
20
-4.5875
30
0
11
70
21
-30.097768
31
0
39
0
210
0
220
0
230
1
0
LINE
5
164
100
AcDbEntity
8
0
62
256
6
ByLayer
370
-2
48
1
60
0
100
AcDbLine
10
0
20
-6.5875
30
0
11
0
21
-30.097768
31
0
39
0
210
0
220
0
230
1
0
LINE
5
165
100
AcDbEntity
8
0
62
256
6
ByLayer
370
-2
48
1
60
0
100
AcDbLine
10
66.5
20
-28.097768
30
0
11
3.5
21
-28.097768
31
0
39
0
210
0
220
0
230
1
0
SOLID
5
166
100
AcDbEntity
8
0
62
256
6
ByLayer
370
-1
48
1
60
0
100
AcDbTrace
10
66.5
20
-28.681101
30
0
11
66.5
21
-27.514435
31
0
12
70
22
-28.097768
32
0
13
70
23
-28.097768
33
0
39
0
210
0
220
0
230
1
0
SOLID
5
167
100
AcDbEntity
8
0
62
256
6
ByLayer
370
-1
48
1
60
0
100
AcDbTrace
10
3.5
20
-27.514435
30
0
11
3.5
21
-28.681101
31
0
12
0
22
-28.097768
32
0
13
0
23
-28.097768
33
0
39
0
210
0
220
0
230
1
0
MTEXT
5
168
100
AcDbEntity
8
0
62
256
6
ByLayer
370
18
48
1
60
0
100
AcDbMText
10
35
20
-22.097768
30
0
210
0
220
0
230
1
1
\A1;70
40
3
41
0
44
1
50
0
71
5
72
5
7
iso_b_vert
0
POINT
5
169
100
AcDbEntity
8
Defpoints
62
0
6
ByLayer
370
-1
48
1
60
0
100
AcDbPoint
10
70
20
-3
30
0
39
0
210
0
220
0
230
1
50
360
0
POINT
5
16A
100
AcDbEntity
8
Defpoints
62
0
6
ByLayer
370
-1
48
1
60
0
100
AcDbPoint
10
0
20
-5
30
0
39
0
210
0
220
0
230
1
50
360
0
POINT
5
16B
100
AcDbEntity
8
Defpoints
62
0
6
ByLayer
370
-1
48
1
60
0
100
AcDbPoint
10
0
20
-28.097768
30
0
39
0
210
0
220
0
230
1
50
360
0
ENDBLK
5
162
100
AcDbEntity
8
0
100
AcDbBlockEnd
0
BLOCK
5
173
100
AcDbEntity
8
0
100
AcDbBlockBegin
2
_U1
70
0
10
0
20
0
30
0
3
_U1
0
MTEXT
5
16D
100
AcDbEntity
8
SK2
62
256
6
ByLayer
370
18
48
1
60
0
100
AcDbMText
10
33.367172
20
-27.212653
30
0
210
0
220
0
230
1
1
\W0.6740;70
40
3
41
0
44
1.084337
50
0
71
7
72
5
7
iso_b_vert
0
LINE
5
16E
100
AcDbEntity
8
SK2
62
256
6
ByLayer
370
13
48
1
60
0
100
AcDbLine
10
70
20
-4.5875
30
0
11
70
21
-30.097768
31
0
39
0
210
0
220
0
230
1
0
LINE
5
16F
100
AcDbEntity
8
SK2
62
256
6
ByLayer
370
13
48
1
60
0
100
AcDbLine
10
0
20
-6.5875
30
0
11
0
21
-30.097768
31
0
39
0
210
0
220
0
230
1
0
LINE
5
170
100
AcDbEntity
8
SK2
62
256
6
ByLayer
370
13
48
1
60
0
100
AcDbLine
10
70
20
-28.097768
30
0
11
0
21
-28.097768
31
0
39
0
210
0
220
0
230
1
0
SOLID
5
171
100
AcDbEntity
8
SK2
62
256
6
ByLayer
370
18
48
1
60
0
100
AcDbTrace
10
70
20
-28.097768
30
0
11
66.500002
21
-28.558552
31
0
12
66.499998
22
-27.636984
32
0
13
66.499998
23
-27.636984
33
0
39
0
210
0
220
0
230
1
0
SOLID
5
172
100
AcDbEntity
8
SK2
62
256
6
ByLayer
370
18
48
1
60
0
100
AcDbTrace
10
0
20
-28.097768
30
0
11
3.499998
21
-27.636984
31
0
12
3.500002
22
-28.558552
32
0
13
3.500002
23
-28.558552
33
0
39
0
210
0
220
0
230
1
0
ENDBLK
5
174
100
AcDbEntity
8
0
100
AcDbBlockEnd
0
BLOCK
5
179
100
AcDbEntity
8
0
100
AcDbBlockBegin
2
*D6
70
1
10
0
20
0
30
0
3
*D6
0
LINE
5
17B
100
AcDbEntity
8
0
62
256
6
ByLayer
370
-2
48
1
60
0
100
AcDbLine
10
70
20
-4.5875
30
0
11
70
21
-16.097768
31
0
39
0
210
0
220
0
230
1
0
LINE
5
17C
100
AcDbEntity
8
0
62
256
6
ByLayer
370
-2
48
1
60
0
100
AcDbLine
10
55
20
-6.5875
30
0
11
55
21
-16.097768
31
0
39
0
210
0
220
0
230
1
0
LINE
5
17D
100
AcDbEntity
8
0
62
256
6
ByLayer
370
-2
48
1
60
0
100
AcDbLine
10
73.5
20
-14.097768
30
0
11
77
21
-14.097768
31
0
39
0
210
0
220
0
230
1
0
LINE
5
17E
100
AcDbEntity
8
0
62
256
6
ByLayer
370
-2
48
1
60
0
100
AcDbLine
10
51.5
20
-14.097768
30
0
11
48
21
-14.097768
31
0
39
0
210
0
220
0
230
1
0
SOLID
5
17F
100
AcDbEntity
8
0
62
256
6
ByLayer
370
-1
48
1
60
0
100
AcDbTrace
10
73.5
20
-13.514435
30
0
11
73.5
21
-14.681101
31
0
12
70
22
-14.097768
32
0
13
70
23
-14.097768
33
0
39
0
210
0
220
0
230
1
0
SOLID
5
180
100
AcDbEntity
8
0
62
256
6
ByLayer
370
-1
48
1
60
0
100
AcDbTrace
10
51.5
20
-14.681101
30
0
11
51.5
21
-13.514435
31
0
12
55
22
-14.097768
32
0
13
55
23
-14.097768
33
0
39
0
210
0
220
0
230
1
0
MTEXT
5
181
100
AcDbEntity
8
0
62
256
6
ByLayer
370
18
48
1
60
0
100
AcDbMText
10
62.5
20
-8.097768
30
0
210
0
220
0
230
1
1
\A1;15
40
3
41
0
44
1
50
0
71
5
72
5
7
iso_b_vert
0
POINT
5
182
100
AcDbEntity
8
Defpoints
62
0
6
ByLayer
370
-1
48
1
60
0
100
AcDbPoint
10
70
20
-3
30
0
39
0
210
0
220
0
230
1
50
360
0
POINT
5
183
100
AcDbEntity
8
Defpoints
62
0
6
ByLayer
370
-1
48
1
60
0
100
AcDbPoint
10
55
20
-5
30
0
39
0
210
0
220
0
230
1
50
360
0
POINT
5
184
100
AcDbEntity
8
Defpoints
62
0
6
ByLayer
370
-1
48
1
60
0
100
AcDbPoint
10
55
20
-14.097768
30
0
39
0
210
0
220
0
230
1
50
360
0
ENDBLK
5
17A
100
AcDbEntity
8
0
100
AcDbBlockEnd
0
BLOCK
5
18C
100
AcDbEntity
8
0
100
AcDbBlockBegin
2
_U2
70
0
10
0
20
0
30
0
3
_U2
0
MTEXT
5
186
100
AcDbEntity
8
SK2
62
256
6
ByLayer
370
18
48
1
60
0
100
AcDbMText
10
61.242115
20
-13.212653
30
0
210
0
220
0
230
1
1
\W0.5321;15
40
3
41
0
44
1.084337
50
0
71
7
72
5
7
iso_b_vert
0
LINE
5
187
100
AcDbEntity
8
SK2
62
256
6
ByLayer
370
13
48
1
60
0
100
AcDbLine
10
70
20
-4.5875
30
0
11
70
21
-16.097768
31
0
39
0
210
0
220
0
230
1
0
LINE
5
188
100
AcDbEntity
8
SK2
62
256
6
ByLayer
370
13
48
1
60
0
100
AcDbLine
10
55
20
-6.5875
30
0
11
55
21
-16.097768
31
0
39
0
210
0
220
0
230
1
0
LINE
5
189
100
AcDbEntity
8
SK2
62
256
6
ByLayer
370
13
48
1
60
0
100
AcDbLine
10
70
20
-14.097768
30
0
11
55
21
-14.097768
31
0
39
0
210
0
220
0
230
1
0
SOLID
5
18A
100
AcDbEntity
8
SK2
62
256
6
ByLayer
370
18
48
1
60
0
100
AcDbTrace
10
70
20
-14.097768
30
0
11
66.500002
21
-14.558552
31
0
12
66.499998
22
-13.636984
32
0
13
66.499998
23
-13.636984
33
0
39
0
210
0
220
0
230
1
0
SOLID
5
18B
100
AcDbEntity
8
SK2
62
256
6
ByLayer
370
18
48
1
60
0
100
AcDbTrace
10
55
20
-14.097768
30
0
11
58.499998
21
-13.636984
31
0
12
58.500002
22
-14.558552
32
0
13
58.500002
23
-14.558552
33
0
39
0
210
0
220
0
230
1
0
ENDBLK
5
18D
100
AcDbEntity
8
0
100
AcDbBlockEnd
0
ENDSEC
0
SECTION
2
ENTITIES
0
ARC
5
B2
100
AcDbEntity
8
1
62
256
6
ByLayer
370
18
48
1
60
0
100
AcDbCircle
39
0
10
67
20
0
30
0
40
3
210
0
220
0
230
1
100
AcDbArc
50
296.333423
51
346.167388
0
ARC
5
B3
100
AcDbEntity
8
1
62
256
6
ByLayer
370
18
48
1
60
0
100
AcDbCircle
39
0
10
67
20
0
30
0
40
3
210
0
220
0
230
1
100
AcDbArc
50
346.167388
51
349.074938
0
ARC
5
B4
100
AcDbEntity
8
1
62
256
6
ByLayer
370
18
48
1
60
0
100
AcDbCircle
39
0
10
67
20
0
30
0
40
3
210
0
220
0
230
1
100
AcDbArc
50
349.074938
51
10.925669
0
ARC
5
B5
100
AcDbEntity
8
1
62
256
6
ByLayer
370
18
48
1
60
0
100
AcDbCircle
39
0
10
67
20
0
30
0
40
3
210
0
220
0
230
1
100
AcDbArc
50
10.925669
51
13.833636
0
ARC
5
B6
100
AcDbEntity
8
1
62
256
6
ByLayer
370
18
48
1
60
0
100
AcDbCircle
39
0
10
67
20
0
30
0
40
3
210
0
220
0
230
1
100
AcDbArc
50
13.833636
51
63.670358
0
ARC
5
B7
100
AcDbEntity
8
SK2
62
256
6
ByLayer
370
13
48
1
60
0
100
AcDbCircle
39
0
10
111
20
0
30
0
40
89.6370202551268
210
0
220
0
230
1
100
AcDbArc
50
176.099506
51
184.782842
0
ARC
5
B8
100
AcDbEntity
8
SK2
62
256
6
ByLayer
370
13
48
1
60
0
100
AcDbCircle
39
0
10
111
20
0
30
0
40
89.6370202551268
210
0
220
0
230
1
100
AcDbArc
50
169.419863
51
176.099506
0
POINT
5
70
100
AcDbEntity
8
81
62
256
6
ByLayer
370
18
48
1
60
0
100
AcDbPoint
10
70
20
0
30
0
39
0
210
0
220
0
230
1
50
360
0
POINT
5
72
100
AcDbEntity
8
1
62
256
6
ByLayer
370
18
48
1
60
0
100
AcDbPoint
10
-40
20
0
30
0
39
0
210
0
220
0
230
1
50
360
0
POINT
5
74
100
AcDbEntity
8
80
62
256
6
ByLayer
370
18
48
1
60
0
100
AcDbPoint
10
0
20
0
30
0
39
0
210
0
220
0
230
1
50
360
0
POINT
5
76
100
AcDbEntity
8
1
62
256
6
ByLayer
370
18
48
1
60
1
100
AcDbPoint
10
-40
20
5
30
0
39
0
210
0
220
0
230
1
50
360
0
POINT
5
77
100
AcDbEntity
8
1
62
256
6
ByLayer
370
18
48
1
60
1
100
AcDbPoint
10
70
20
3
30
0
39
0
210
0
220
0
230
1
50
360
0
POINT
5
78
100
AcDbEntity
8
1
62
256
6
ByLayer
370
18
48
1
60
1
100
AcDbPoint
10
70
20
-3
30
0
39
0
210
0
220
0
230
1
50
360
0
POINT
5
79
100
AcDbEntity
8
1
62
256
6
ByLayer
370
18
48
1
60
1
100
AcDbPoint
10
0
20
-5
30
0
39
0
210
0
220
0
230
1
50
360
0
POINT
5
7A
100
AcDbEntity
8
1
62
256
6
ByLayer
370
18
48
1
60
1
100
AcDbPoint
10
70
20
-3
30
0
39
0
210
0
220
0
230
1
50
360
0
POINT
5
7B
100
AcDbEntity
8
1
62
256
6
ByLayer
370
18
48
1
60
1
100
AcDbPoint
10
55
20
-5
30
0
39
0
210
0
220
0
230
1
50
360
0
POINT
5
7C
100
AcDbEntity
8
1
62
256
6
ByLayer
370
18
48
1
60
1
100
AcDbPoint
10
69.7
20
-2.8469
30
0
39
0
210
0
220
0
230
1
50
360
0
SPLINE
5
B9
100
AcDbEntity
8
1
62
256
6
ByLayer
370
18
48
1
60
0
100
AcDbSpline
70
4
71
3
72
8
73
4
40
0
40
0
40
0
40
0
40
1
40
1
40
1
40
1
41
1
10
55
20
-3.4259345547768
30
0
41
1
10
55
20
-3.48658376495669
30
0
41
1
10
55
20
-3.54723297513661
30
0
41
1
10
55
20
-3.60788218531653
30
0
0
SPLINE
5
BA
100
AcDbEntity
8
1
62
256
6
ByLayer
370
18
48
1
60
0
100
AcDbSpline
70
4
71
3
72
30
73
26
40
0
40
0
40
0
40
0
40
0.0786968781378279
40
0.0786968781378279
40
0.181063891678021
40
0.181063891678021
40
0.385797918758468
40
0.385797918758468
40
0.488164932298723
40
0.488164932298723
40
0.590531945838979
40
0.590531945838979
40
0.692898959379234
40
0.692898959379234
40
0.744082466149362
40
0.744082466149362
40
0.795265972919489
40
0.795265972919489
40
0.846449479689617
40
0.846449479689617
40
0.897632986459744
40
0.897632986459744
40
0.948816493229872
40
0.948816493229872
40
1
40
1
40
1
40
1
41
1
10
68.1175767748086
20
2.31321252315655
30
0
41
1
10
68.1195932997659
20
2.31641180626673
30
0
41
1
10
68.1217311720359
20
2.31978836673554
30
0
41
1
10
68.1268515270818
20
2.32788910874788
30
0
41
1
10
68.1298912676895
20
2.33270814114854
30
0
41
1
10
68.1393908320882
20
2.34787442748581
30
0
41
1
10
68.1462112128789
20
2.3589271391829
30
0
41
1
10
68.1572460840753
20
2.37693497763291
30
0
41
1
10
68.1610556216516
20
2.38316528544502
30
0
41
1
10
68.1689055164859
20
2.39588832646086
30
0
41
1
10
68.1729574825725
20
2.40240455412712
30
0
41
1
10
68.1814888558099
20
2.41571435537705
30
0
41
1
10
68.1859897569078
20
2.42255011381232
30
0
41
1
10
68.1932320090925
20
2.43277654192062
30
0
41
1
10
68.1957293656131
20
2.43618047873167
30
0
41
1
10
68.2009743480284
20
2.44294415998297
30
0
41
1
10
68.2037371161776
20
2.44632136116814
30
0
41
1
10
68.2095269673179
20
2.45283404578006
30
0
41
1
10
68.2125591668308
20
2.45598040003802
30
0
41
1
10
68.2190488648691
20
2.4619217417532
30
0
41
1
10
68.2225187218879
20
2.46471115050335
30
0
41
1
10
68.2296807691523
20
2.46947853318793
30
0
41
1
10
68.2334756691393
20
2.47151150075271
30
0
41
1
10
68.2410019319603
20
2.4745359946406
30
0
41
1
10
68.2447517273041
20
2.47555926523324
30
0
41
1
10
68.2484974762752
20
2.47616298506893
30
0
0
SPLINE
5
BB
100
AcDbEntity
8
1
62
256
6
ByLayer
370
18
48
1
60
0
100
AcDbSpline
70
4
71
3
72
28
73
24
40
0
40
0
40
0
40
0
40
0.250000000000068
40
0.250000000000068
40
0.375000000000102
40
0.375000000000102
40
0.500000000000135
40
0.500000000000135
40
0.625000000000169
40
0.625000000000169
40
0.687500000000186
40
0.687500000000186
40
0.750000000000203
40
0.750000000000203
40
0.781250000000176
40
0.781250000000176
40
0.812500000000149
40
0.812500000000149
40
0.8750000000001
40
0.8750000000001
40
0.93750000000005
40
0.93750000000005
40
1
40
1
40
1
40
1
41
1
10
68.2484974762722
20
2.47616298506725
30
0
41
1
10
68.2700107388333
20
2.47963037795392
30
0
41
1
10
68.2916273102267
20
2.48387350733259
30
0
41
1
10
68.324194951018
20
2.49239292461766
30
0
41
1
10
68.3350745564274
20
2.49559729996884
30
0
41
1
10
68.3568780008418
20
2.50311288360237
30
0
41
1
10
68.3677358141736
20
2.50739815519395
30
0
41
1
10
68.3889608381265
20
2.51754073271081
30
0
41
1
10
68.3994156670184
20
2.52339905654816
30
0
41
1
10
68.4143369842017
20
2.53437278250709
30
0
41
1
10
68.4191125836465
20
2.53835456743783
30
0
41
1
10
68.4280875267272
20
2.54725427185747
30
0
41
1
10
68.432250158806
20
2.55215548320257
30
0
41
1
10
68.4375750873805
20
2.56014389227539
30
0
41
1
10
68.4392065192617
20
2.56292344581217
30
0
41
1
10
68.4421295555945
20
2.56875893320924
30
0
41
1
10
68.4434035425204
20
2.57179075032531
30
0
41
1
10
68.4465259926036
20
2.58097728548782
30
0
41
1
10
68.447718840066
20
2.58743291828168
30
0
41
1
10
68.4483040710551
20
2.60003596625262
30
0
41
1
10
68.4477255820585
20
2.60629389659724
30
0
41
1
10
68.4453501076174
20
2.61812983927115
30
0
41
1
10
68.4435728941463
20
2.62374903325235
30
0
41
1
10
68.4413845201624
20
2.62915685413751
30
0
0
SPLINE
5
BC
100
AcDbEntity
8
1
62
256
6
ByLayer
370
18
48
1
60
0
100
AcDbSpline
70
4
71
3
72
16
73
12
40
0
40
0
40
0
40
0
40
0.20910660002064
40
0.20910660002064
40
0.31365990003096
40
0.31365990003096
40
0.41821320004128
40
0.41821320004128
40
0.836426400082529
40
0.836426400082529
40
1
40
1
40
1
40
1
41
1
10
68.7500924130494
20
1.98828660300583
30
0
41
1
10
68.7180953937601
20
2.00574284219732
30
0
41
1
10
68.6869112206132
20
2.02229120802096
30
-1E-16
41
1
10
68.6412605816869
20
2.04581143688685
30
1E-16
41
1
10
68.6262305634551
20
2.05343488344698
30
1E-16
41
1
10
68.5965212823328
20
2.06826255096038
30
0
41
1
10
68.5818318574248
20
2.07547105263683
30
0
41
1
10
68.5095909892702
20
2.11032559909324
30
-1E-16
41
1
10
68.4553956076111
20
2.13455928070633
30
0
41
1
10
68.3837000436173
20
2.16442997177413
30
0
41
1
10
68.3639443999106
20
2.17240673336363
30
0
41
1
10
68.3445520455652
20
2.18000549057243
30
0
0
SPLINE
5
BD
100
AcDbEntity
8
1
62
256
6
ByLayer
370
18
48
1
60
0
100
AcDbSpline
70
4
71
3
72
8
73
4
40
0
40
0
40
0
40
0
40
1
40
1
40
1
40
1
41
0.991427962243179
10
55
20
-3.38459565274036
30
0
41
0.994192810360879
10
55
20
-3.39833169623648
30
0
41
0.997050156279819
10
55
20
-3.4121127335271
30
0
41
1
10
55
20
-3.4259345547768
30
0
0
SPLINE
5
BE
100
AcDbEntity
8
1
62
256
6
ByLayer
370
18
48
1
60
0
100
AcDbSpline
70
4
71
3
72
10
73
6
40
0
40
0
40
0
40
0
40
0.326145376879371
40
0.326145376879371
40
1
40
1
40
1
40
1
41
1
10
55
20
-3.15100865274405
30
0
41
1
10
55
20
-3.17579775694642
30
0
41
1
10
55
20
-3.20086951889988
30
0
41
1
10
55
20
-3.27835173954614
30
0
41
1
10
55
20
-3.33140779037603
30
0
41
1
10
55
20
-3.38459565274036
30
0
0
SPLINE
5
BF
100
AcDbEntity
8
1
62
256
6
ByLayer
370
18
48
1
60
0
100
AcDbSpline
70
4
71
3
72
38
73
34
40
0
40
0
40
0
40
0
40
0.125000000000055
40
0.125000000000055
40
0.187500000000081
40
0.187500000000081
40
0.250000000000108
40
0.250000000000108
40
0.375000000000159
40
0.375000000000159
40
0.437500000000185
40
0.437500000000185
40
0.500000000000211
40
0.500000000000211
40
0.625000000000229
40
0.625000000000229
40
0.687500000000217
40
0.687500000000217
40
0.750000000000205
40
0.750000000000205
40
0.812500000000193
40
0.812500000000193
40
0.843750000000161
40
0.843750000000161
40
0.875000000000129
40
0.875000000000129
40
0.906250000000097
40
0.906250000000097
40
0.937500000000064
40
0.937500000000064
40
0.968750000000032
40
0.968750000000032
40
1
40
1
40
1
40
1
41
1
10
68.1004367496584
20
0.89433552709977
30
1E-16
41
1
10
68.0979022216807
20
0.910426204168289
30
1E-16
41
1
10
68.0970499227165
20
0.926708620072219
30
0
41
1
10
68.0979038919149
20
0.951587986775849
30
0
41
1
10
68.0985452201352
20
0.959956939714999
30
0
41
1
10
68.1004908824893
20
0.976874198804467
30
-1E-16
41
1
10
68.1017961668192
20
0.985401226395936
30
-1E-16
41
1
10
68.1065162473099
20
1.01075510230751
30
-1E-16
41
1
10
68.1107428072428
20
1.0275294160017
30
-2E-16
41
1
10
68.1183151847375
20
1.05260873542471
30
2E-16
41
1
10
68.1210617978385
20
1.06099440455105
30
2E-16
41
1
10
68.1268515270824
20
1.07751366776313
30
1E-16
41
1
10
68.12989126769
20
1.08564562605011
30
1E-16
41
1
10
68.1393908320889
20
1.10968591492326
30
1E-16
41
1
10
68.1462112128798
20
1.12524883540121
30
0
41
1
10
68.1572460840763
20
1.14785906878441
30
0
41
1
10
68.1610556216526
20
1.15525310858899
30
0
41
1
10
68.168905516487
20
1.16950311983291
30
-1E-16
41
1
10
68.1729574825738
20
1.17639081011589
30
-1E-16
41
1
10
68.1814888558113
20
1.18957185291467
30
-1E-16
41
1
10
68.1859897569094
20
1.19590453207621
30
-1E-16
41
1
10
68.1932320090942
20
1.20457069848425
30
-2E-16
41
1
10
68.1957293656149
20
1.20732044427837
30
-2E-16
41
1
10
68.2009743480303
20
1.21245877854716
30
-2E-16
41
1
10
68.2037371161796
20
1.21485828511254
30
-2E-16
41
1
10
68.2095269673201
20
1.21906566260031
30
-2E-16
41
1
10
68.2125591668332
20
1.22088429713617
30
-2E-16
41
1
10
68.2190488648718
20
1.22373619072425
30
-2E-16
41
1
10
68.2225187218906
20
1.22475373192771
30
-2E-16
41
1
10
68.2296807691552
20
1.22565513155123
30
-2E-16
41
1
10
68.2334756691423
20
1.22553790895873
30
-2E-16
41
1
10
68.2410019319633
20
1.22415706961442
30
-2E-16
41
1
10
68.2447517273056
20
1.2229187487294
30
-2E-16
41
1
10
68.2484974762767
20
1.22122322008445
30
-2E-16
0
SPLINE
5
C0
100
AcDbEntity
8
1
62
256
6
ByLayer
370
18
48
1
60
0
100
AcDbSpline
70
4
71
3
72
28
73
24
40
0
40
0
40
0
40
0
40
0.25000000000013
40
0.25000000000013
40
0.375000000000137
40
0.375000000000137
40
0.500000000000143
40
0.500000000000143
40
0.62500000000015
40
0.62500000000015
40
0.687500000000153
40
0.687500000000153
40
0.750000000000157
40
0.750000000000157
40
0.781250000000119
40
0.781250000000119
40
0.812500000000082
40
0.812500000000082
40
0.875000000000055
40
0.875000000000055
40
0.937500000000027
40
0.937500000000027
40
1
40
1
40
1
40
1
41
1
10
68.2484974762767
20
1.22122322008343
30
-2E-16
41
1
10
68.2700107388374
20
1.21148515349208
30
-2E-16
41
1
10
68.2916273102304
20
1.20245768662792
30
-2E-16
41
1
10
68.3241949510212
20
1.19068906144841
30
-1E-16
41
1
10
68.3350745564304
20
1.18706549356924
30
-1E-16
41
1
10
68.3568780008444
20
1.18068825929552
30
-1E-16
41
1
10
68.3677358141759
20
1.17795202527532
30
-1E-16
41
1
10
68.3889608381285
20
1.17396417084615
30
-1E-16
41
1
10
68.3994156670201
20
1.1726662644314
30
-1E-16
41
1
10
68.414336984203
20
1.17276229888995
30
-1E-16
41
1
10
68.4191125836477
20
1.17314297385531
30
-1E-16
41
1
10
68.4280875267281
20
1.17490424799263
30
-1E-16
41
1
10
68.4322501588067
20
1.17629203578326
30
-1E-16
41
1
10
68.437575087381
20
1.17933118422917
30
-1E-16
41
1
10
68.4392065192624
20
1.18050653548224
30
-1E-16
41
1
10
68.4421295555951
20
1.18324137608843
30
-1E-16
41
1
10
68.4434035425209
20
1.18479250742706
30
-1E-16
41
1
10
68.4465259926038
20
1.18988604170684
30
-1E-16
41
1
10
68.4477188400662
20
1.19399941255469
30
-1E-16
41
1
10
68.4483040710551
20
1.20296997926715
30
-2E-16
41
1
10
68.4477255820588
20
1.20789342963772
30
-2E-16
41
1
10
68.4453501076176
20
1.21791072437833
30
-2E-16
41
1
10
68.4435728941463
20
1.22302412347929
30
-2E-16
41
1
10
68.4413845201626
20
1.22821480013178
30
-2E-16
0
SPLINE
5
C1
100
AcDbEntity
8
1
62
256
6
ByLayer
370
18
48
1
60
0
100
AcDbSpline
70
4
71
3
72
18
73
14
40
0
40
0
40
0
40
0
40
0.125000000000036
40
0.125000000000036
40
0.187500000000045
40
0.187500000000045
40
0.250000000000054
40
0.250000000000054
40
0.500000000000036
40
0.500000000000036
40
0.750000000000018
40
0.750000000000018
40
1
40
1
40
1
40
1
41
1
10
68.75009241305
20
-0.225659837379368
30
1E-16
41
1
10
68.7180953937607
20
-0.183883137697677
30
0
41
1
10
68.6869112206137
20
-0.141517396865566
30
-1E-16
41
1
10
68.6412605816874
20
-0.0771556397405959
30
2E-16
41
1
10
68.6262305634556
20
-0.0555667570552316
30
1E-16
41
1
10
68.5965212823334
20
-0.0121363655100311
30
0
41
1
10
68.5818318574253
20
0.0097197330158281
30
0
41
1
10
68.5095909892706
20
0.119024656590909
30
2E-16
41
1
10
68.4553956076113
20
0.207001727529558
30
0
41
1
10
68.3523199405499
20
0.383702488319159
30
0
41
1
10
68.3034104910394
20
0.47241420144627
30
-2E-16
41
1
10
68.2095515208345
20
0.650412866224599
30
-2E-16
41
1
10
68.1646183622749
20
0.7397062706643
30
0
41
1
10
68.1212434199999
20
0.829281187219379
30
-2E-16
0
SPLINE
5
C2
100
AcDbEntity
8
1
62
256
6
ByLayer
370
18
48
1
60
0
100
AcDbSpline
70
4
71
3
72
8
73
4
40
0
40
0
40
0
40
0
40
1
40
1
40
1
40
1
41
1
10
68.12124342
20
0.829281187219038
30
-2E-16
41
1
10
68.1111283254484
20
0.850170177564365
30
-2E-16
41
1
10
68.1039682332597
20
0.871759884986687
30
2E-16
41
1
10
68.1004367496585
20
0.89433552709977
30
1E-16
0
SPLINE
5
C3
100
AcDbEntity
8
1
62
256
6
ByLayer
370
18
48
1
60
0
100
AcDbSpline
70
4
71
3
72
26
73
22
40
0
40
0
40
0
40
0
40
0.163609599219005
40
0.163609599219005
40
0.24541439882851
40
0.24541439882851
40
0.327219198438014
40
0.327219198438014
40
0.49082879765702
40
0.49082879765702
40
0.572633597266524
40
0.572633597266524
40
0.654438396876029
40
0.654438396876029
40
0.818047996094987
40
0.818047996094987
40
0.899852795704495
40
0.899852795704495
40
0.981657595314003
40
0.981657595314003
40
1
40
1
40
1
40
1
41
1
10
68.1004367496584
20
-1.37223141641746
30
1E-16
41
1
10
68.0979022216808
20
-1.3583601145279
30
1E-16
41
1
10
68.0970499227165
20
-1.34488650529229
30
0
41
1
10
68.0979038919149
20
-1.32562659905801
30
0
41
1
10
68.0985452201352
20
-1.31936477933192
30
0
41
1
10
68.1004908824894
20
-1.30721569721806
30
0
41
1
10
68.1017961668192
20
-1.30134709752451
30
-1E-16
41
1
10
68.1065162473099
20
-1.28471855330486
30
-1E-16
41
1
10
68.1107428072428
20
-1.2748074039589
30
1E-16
41
1
10
68.1183151847374
20
-1.26178494934629
30
1E-16
41
1
10
68.1210617978386
20
-1.25773496771364
30
1E-16
41
1
10
68.1268515270824
20
-1.25037544098566
30
0
41
1
10
68.1298912676901
20
-1.24706251509946
30
0
41
1
10
68.139390832089
20
-1.23818851256377
30
0
41
1
10
68.1462112128798
20
-1.23367830378305
30
-2E-16
41
1
10
68.1572460840762
20
-1.22907590885015
30
2E-16
41
1
10
68.1610556216526
20
-1.22791217685778
30
2E-16
41
1
10
68.168905516487
20
-1.22638520662991
30
2E-16
41
1
10
68.1729574825738
20
-1.22601374401319
30
2E-16
41
1
10
68.1781796283562
20
-1.2260925584531
30
2E-16
41
1
10
68.1791479130067
20
-1.22612904945916
30
2E-16
41
1
10
68.1801290608353
20
-1.22618870544753
30
2E-16
0
SPLINE
5
C4
100
AcDbEntity
8
1
62
256
6
ByLayer
370
18
48
1
60
0
100
AcDbSpline
70
4
71
3
72
12
73
8
40
0
40
0
40
0
40
0
40
0.308432529456666
40
0.308432529456666
40
0.654216264728333
40
0.654216264728333
40
1
40
1
40
1
40
1
41
1
10
68.4450878011963
20
-1.38923311825852
30
1E-16
41
1
10
68.4467731889359
20
-1.39159112359749
30
2E-16
41
1
10
68.4477504480928
20
-1.3936296941848
30
2E-16
41
1
10
68.4483040710549
20
-1.39706598698587
30
2E-16
41
1
10
68.4477255820586
20
-1.39840046695997
30
2E-16
41
1
10
68.4453501076175
20
-1.4002191148931
30
2E-16
41
1
10
68.4435728941464
20
-1.40072490977332
30
2E-16
41
1
10
68.4413845201626
20
-1.4009420540059
30
2E-16
0
SPLINE
5
C5
100
AcDbEntity
8
1
62
256
6
ByLayer
370
18
48
1
60
0
100
AcDbSpline
70
4
71
3
72
18
73
14
40
0
40
0
40
0
40
0
40
0.125000000000007
40
0.125000000000007
40
0.18750000000001
40
0.18750000000001
40
0.250000000000013
40
0.250000000000013
40
0.500000000000009
40
0.500000000000009
40
0.750000000000004
40
0.750000000000004
40
1
40
1
40
1
40
1
41
1
10
68.7500924130497
20
-2.21394644038458
30
1E-16
41
1
10
68.7180953937603
20
-2.18962597989437
30
0
41
1
10
68.6869112206134
20
-2.16380860488599
30
0
41
1
10
68.6412605816872
20
-2.12296707662694
30
1E-16
41
1
10
68.6262305634552
20
-2.10900164050176
30
1E-16
41
1
10
68.5965212823331
20
-2.08039891646996
30
0
41
1
10
68.5818318574251
20
-2.06575131962055
30
0
41
1
10
68.5095909892704
20
-1.99130094250194
30
0
41
1
10
68.4553956076111
20
-1.92755755317646
30
1E-16
41
1
10
68.3523199405498
20
-1.79380144943241
30
0
41
1
10
68.3034104910393
20
-1.72380611925965
30
0
41
1
10
68.2095515208345
20
-1.5791855855488
30
-1E-16
41
1
10
68.1646183622749
20
-1.50455005314131
30
0
41
1
10
68.1212434199999
20
-1.42821178990238
30
0
0
SPLINE
5
C6
100
AcDbEntity
8
1
62
256
6
ByLayer
370
18
48
1
60
0
100
AcDbSpline
70
4
71
3
72
8
73
4
40
0
40
0
40
0
40
0
40
1
40
1
40
1
40
1
41
1
10
68.12124342
20
-1.42821178990246
30
0
41
1
10
68.1111283254484
20
-1.41040960481422
30
0
41
1
10
68.1039682332597
20
-1.39174863150325
30
-1E-16
41
1
10
68.1004367496584
20
-1.37223141641746
30
1E-16
0
SPLINE
5
C7
100
AcDbEntity
8
1
62
256
6
ByLayer
370
18
48
1
60
0
100
AcDbSpline
70
4
71
3
72
36
73
32
40
0
40
0
40
0
40
0
40
0.062500000000006
40
0.062500000000006
40
0.0937500000000036
40
0.0937500000000036
40
0.125000000000001
40
0.125000000000001
40
0.249999999999992
40
0.249999999999992
40
0.312499999999988
40
0.312499999999988
40
0.343749999999986
40
0.343749999999986
40
0.374999999999983
40
0.374999999999983
40
0.500000000000003
40
0.500000000000003
40
0.625000000000023
40
0.625000000000023
40
0.656250000000024
40
0.656250000000024
40
0.687500000000025
40
0.687500000000025
40
0.75000000000002
40
0.75000000000002
40
0.87500000000001
40
0.87500000000001
40
0.937500000000005
40
0.937500000000005
40
1
40
1
40
1
40
1
41
1
10
68.4413845201602
20
2.62915685413253
30
0
41
1
10
68.4816345491085
20
2.60589014974164
30
0
41
1
10
68.5217975140828
20
2.58090362896394
30
0
41
1
10
68.5820033115603
20
2.5407386986021
30
0
41
1
10
68.6020656116423
20
2.52690233824364
30
0
41
1
10
68.6421920789373
20
2.49831030255305
30
0
41
1
10
68.6622963002843
20
2.48352297156231
30
0
41
1
10
68.7620458904809
20
2.40784803592507
30
0
41
1
10
68.8398147188941
20
2.34150542149789
30
0
41
1
10
68.9540003456065
20
2.23337445178035
30
0
41
1
10
68.9916473696561
20
2.19588908660475
30
0
41
1
10
69.0475491607326
20
2.1374486401744
30
0
41
1
10
69.0660878034589
20
2.11759944454582
30
0
41
1
10
69.1029787658658
20
2.07714990676357
30
0
41
1
10
69.1213511206316
20
2.05652651110074
30
0
41
1
10
69.2125426431242
20
1.95173389567103
30
0
41
1
10
69.2818621370195
20
1.86434041566997
30
0
41
1
10
69.4137325610475
20
1.68280194089007
30
1E-16
41
1
10
69.4762955378345
20
1.58866008383248
30
1E-16
41
1
10
69.5500686936149
20
1.46657502755463
30
0
41
1
10
69.5645970614108
20
1.44193624511288
30
0
41
1
10
69.5929097976409
20
1.39271413220274
30
0
41
1
10
69.6067326653899
20
1.36806845415276
30
0
41
1
10
69.6472122977767
20
1.29401845621817
30
0
41
1
10
69.6728817430119
20
1.24450103388042
30
0
41
1
10
69.745964360788
20
1.09542313620406
30
0
41
1
10
69.7894825499384
20
0.995365355052769
30
0
41
1
10
69.8465266273651
20
0.843715495854582
30
0
41
1
10
69.8639463470277
20
0.793476044179499
30
0
41
1
10
69.8956090125643
20
0.693646273289176
30
0
41
1
10
69.9098658984264
20
0.644015732133425
30
0
41
1
10
69.9225711162852
20
0.594570817952217
30
0
0
SPLINE
5
C8
100
AcDbEntity
8
1
62
256
6
ByLayer
370
18
48
1
60
0
100
AcDbSpline
70
4
71
3
72
40
73
36
40
0
40
0
40
0
40
0
40
0.125000000000009
40
0.125000000000009
40
0.250000000000017
40
0.250000000000017
40
0.312500000000029
40
0.312500000000029
40
0.37500000000004
40
0.37500000000004
40
0.406250000000041
40
0.406250000000041
40
0.437500000000041
40
0.437500000000041
40
0.500000000000033
40
0.500000000000033
40
0.531250000000032
40
0.531250000000032
40
0.562500000000031
40
0.562500000000031
40
0.625000000000028
40
0.625000000000028
40
0.687500000000024
40
0.687500000000024
40
0.718750000000025
40
0.718750000000025
40
0.750000000000027
40
0.750000000000027
40
0.781250000000028
40
0.781250000000028
40
0.812500000000029
40
0.812500000000029
40
0.87500000000002
40
0.87500000000002
40
1
40
1
40
1
40
1
41
1
10
69.9225711162976
20
0.594570817956253
30
0
41
1
10
69.9273892723297
20
0.575819993361165
30
0
41
1
10
69.9319151634734
20
0.556635413062224
30
0
41
1
10
69.9403908743307
20
0.517338311049485
30
0
41
1
10
69.9443417989603
20
0.497229654000307
30
0
41
1
10
69.9498001056147
20
0.466195803631621
30
0
41
1
10
69.9515499268625
20
0.455645701578334
30
0
41
1
10
69.9548286440587
20
0.434492513553977
30
0
41
1
10
69.9563532124044
20
0.423926518402709
30
0
41
1
10
69.9584520303027
20
0.408098959568434
30
0
41
1
10
69.9591201765393
20
0.402826703040887
30
0
41
1
10
69.9603888015598
20
0.392290731983309
30
0
41
1
10
69.9609908222586
20
0.387010680344815
30
0
41
1
10
69.9626592156201
20
0.37143930935332
30
0
41
1
10
69.9635982019956
20
0.361347569029419
30
0
41
1
10
69.964709495523
20
0.346744792554261
30
0
41
1
10
69.9650300881395
20
0.341966937734412
30
0
41
1
10
69.9655594607109
20
0.332619192673121
30
0
41
1
10
69.9657687923118
20
0.328018515638632
30
0
41
1
10
69.9661918715391
20
0.314959973883532
30
0
41
1
10
69.9662106817742
20
0.307131922055163
30
0
41
1
10
69.9656442322803
20
0.293701993634329
30
0
41
1
10
69.9650731994315
20
0.288408303623214
30
0
41
1
10
69.9637925334058
20
0.282562920929394
30
0
41
1
10
69.9632928436179
20
0.280974071570995
30
0
41
1
10
69.9621869979778
20
0.278572535086283
30
0
41
1
10
69.9615775061192
20
0.277741371507204
30
0
41
1
10
69.9602519036729
20
0.27676038742382
30
0
41
1
10
69.9595309909097
20
0.276614117290706
30
0
41
1
10
69.9580207454363
20
0.276951459719243
30
0
41
1
10
69.9572294917946
20
0.27742925531615
30
0
41
1
10
69.9547564416483
20
0.279673697914745
30
0
41
1
10
69.9529647168077
20
0.282265943020491
30
0
41
1
10
69.9473018665068
20
0.292586466178875
30
0
41
1
10
69.9432481291683
20
0.302554212776585
30
0
41
1
10
69.9389318628675
20
0.314616082128509
30
0
0
SPLINE
5
C9
100
AcDbEntity
8
1
62
256
6
ByLayer
370
18
48
1
60
0
100
AcDbSpline
70
4
71
3
72
36
73
32
40
0
40
0
40
0
40
0
40
0.125000000000006
40
0.125000000000006
40
0.250000000000012
40
0.250000000000012
40
0.281250000000011
40
0.281250000000011
40
0.312500000000011
40
0.375000000000004
40
0.375000000000004
40
0.499999999999997
40
0.499999999999997
40
0.531249999999997
40
0.531249999999997
40
0.562499999999998
40
0.562499999999998
40
0.625000000000009
40
0.625000000000009
40
0.750000000000031
40
0.750000000000031
40
0.781250000000031
40
0.781250000000031
40
0.812500000000031
40
0.875000000000021
40
0.875000000000021
40
0.93750000000001
40
0.93750000000001
40
0.968750000000005
40
0.968750000000005
40
1
40
1
40
1
40
1
41
1
10
69.9389318628646
20
0.314616082136695
30
0
41
1
10
69.9188894674235
20
0.370624849547823
30
0
41
1
10
69.8941012412188
20
0.428076590554014
30
0
41
1
10
69.8351686018207
20
0.546614150634213
30
1E-16
41
1
10
69.8010273287923
20
0.607688548578579
30
0
41
1
10
69.7523402774506
20
0.687162994122872
30
1E-16
41
1
10
69.7422849850961
20
0.703241745292985
30
0
41
1
10
69.7216983866024
20
0.73553626107892
30
1E-16
41
1
10
69.6900739540849
20
0.784235945996357
30
-1E-16
41
1
10
69.6562608148375
20
0.833790843947668
30
0
41
1
10
69.5858059241264
20
0.93431238086032
30
0
41
1
10
69.535084245037
20
1.0032123499229
30
1E-16
41
1
10
69.4670769415367
20
1.09279133683447
30
1E-16
41
1
10
69.4532438056752
20
1.11088045510306
30
1E-16
41
1
10
69.4251101465273
20
1.14743693174196
30
0
41
1
10
69.4108116029692
20
1.16590105798801
30
-1E-16
41
1
10
69.3676324856318
20
1.22136631841218
30
0
41
1
10
69.3383366911849
20
1.25861373161922
30
-1E-16
41
1
10
69.2490601985362
20
1.37134261134861
30
-1E-16
41
1
10
69.1877101612508
20
1.44781354033168
30
-1E-16
41
1
10
69.1089256620088
20
1.54557979157926
30
-1E-16
41
1
10
69.0930256653752
20
1.56528732257738
30
1E-16
41
1
10
69.0613607950013
20
1.60450122438721
30
0
41
1
10
69.0139666619131
20
1.66314332916278
30
1E-16
41
1
10
68.9669000477297
20
1.72127450761823
30
0
41
1
10
68.9044462170166
20
1.79834456676608
30
0
41
1
10
68.8733706059886
20
1.83666075900115
30
-1E-16
41
1
10
68.8269741640073
20
1.8937954785597
30
0
41
1
10
68.8115444107057
20
1.91278341604996
30
0
41
1
10
68.7807537537993
20
1.95064122518951
30
1E-16
41
1
10
68.7653515060928
20
1.9695621585268
30
0
41
1
10
68.7500924130478
20
1.98828660299725
30
0
0
SPLINE
5
CA
100
AcDbEntity
8
1
62
256
6
ByLayer
370
18
48
1
60
0
100
AcDbSpline
70
4
71
3
72
26
73
22
40
0
40
0
40
0
40
0
40
0.125000000000057
40
0.125000000000057
40
0.187500000000066
40
0.187500000000066
40
0.250000000000074
40
0.250000000000074
40
0.37500000000009
40
0.37500000000009
40
0.437500000000099
40
0.437500000000099
40
0.500000000000108
40
0.500000000000108
40
0.625000000000081
40
0.625000000000081
40
0.750000000000054
40
0.750000000000054
40
0.875000000000027
40
0.875000000000027
40
1
40
1
40
1
40
1
41
1
10
68.7500924130372
20
1.98828660301339
30
0
41
1
10
68.724901778985
20
1.99476959314731
30
0
41
1
10
68.6985551280808
20
2.00331307010956
30
0
41
1
10
68.6574819480655
20
2.01873434263283
30
-1E-16
41
1
10
68.643530515627
20
2.02431094354591
30
-1E-16
41
1
10
68.6151219523407
20
2.03627389680744
30
-1E-16
41
1
10
68.6008332660892
20
2.04258926333498
30
1E-16
41
1
10
68.5578397185981
20
2.06234616352609
30
1E-16
41
1
10
68.528953627392
20
2.07661594887915
30
0
41
1
10
68.4852744415205
20
2.0992681168797
30
0
41
1
10
68.4706561691178
20
2.10702841735468
30
-1E-16
41
1
10
68.4412981861374
20
2.12291712521122
30
-1E-16
41
1
10
68.4265146495162
20
2.1310704189336
30
-1E-16
41
1
10
68.3823840292661
20
2.15578538560908
30
1E-16
41
1
10
68.3532292542064
20
2.1726085397523
30
0
41
1
10
68.2952683888197
20
2.20667396305106
30
-1E-16
41
1
10
68.2664632732262
20
2.22391765166148
30
-1E-16
41
1
10
68.2090721329208
20
2.25862733871577
30
0
41
1
10
68.180486608984
20
2.27609406941127
30
0
41
1
10
68.1234337810236
20
2.31109473764255
30
-1E-16
41
1
10
68.0949420991676
20
2.32864411216386
30
1E-16
41
1
10
68.0666605919693
20
2.34604430814008
30
1E-16
0
SPLINE
5
CB
100
AcDbEntity
8
1
62
256
6
ByLayer
370
18
48
1
60
0
100
AcDbSpline
70
4
71
3
72
8
73
4
40
0
40
0
40
0
40
0
40
1
40
1
40
1
40
1
41
1
10
68.06666059197
20
2.34604430813991
30
1E-16
41
1
10
68.034584155198
20
2.36574914865986
30
0
41
1
10
68.0027018641063
20
2.3852526753887
30
0
41
1
10
67.9710172207538
20
2.40447521532803
30
-1E-16
0
SPLINE
5
CC
100
AcDbEntity
8
1
62
256
6
ByLayer
370
18
48
1
60
0
100
AcDbSpline
70
4
71
3
72
16
73
12
40
0
40
0
40
0
40
0
40
0.25
40
0.25
40
0.5
40
0.5
40
0.625
40
0.625
40
0.75
40
0.75
40
1
40
1
40
1
40
1
41
1
10
67.9710172207618
20
2.40447521532315
30
-1E-16
41
1
10
67.8986805495322
20
2.44835851681711
30
0
41
1
10
67.8282050211396
20
2.49023368172536
30
-1E-16
41
1
10
67.6895557741028
20
2.56951299109906
30
0
41
1
10
67.6213911057769
20
2.60691692434173
30
1E-16
41
1
10
67.5201308533319
20
2.65927934136519
30
0
41
1
10
67.4865442808299
20
2.67610907490317
30
-1E-16
41
1
10
67.4196001660832
20
2.70844727271796
30
1E-16
41
1
10
67.3862017758548
20
2.72397132508931
30
1E-16
41
1
10
67.286881046218
20
2.76816456913161
30
0
41
1
10
67.2216343282479
20
2.79456036171837
30
-1E-16
41
1
10
67.1570078687289
20
2.81775815622734
30
1E-16
0
SPLINE
5
CD
100
AcDbEntity
8
1
62
256
6
ByLayer
370
18
48
1
60
0
100
AcDbSpline
70
4
71
3
72
14
73
10
40
0
40
0
40
0
40
0
40
0.5
40
0.5
40
0.749999999999984
40
0.749999999999984
40
0.874999999999992
40
0.874999999999992
40
1
40
1
40
1
40
1
41
1
10
67.1570078687288
20
2.30011953257983
30
-1E-16
41
1
10
67.2851914057999
20
2.22115618483647
30
1E-16
41
1
10
67.4120272467745
20
2.13255594496195
30
-1E-16
41
1
10
67.6029607140518
20
1.98753825379484
30
-2E-16
41
1
10
67.666716680736
20
1.93716647795898
30
-1E-16
41
1
10
67.7628820173826
20
1.85875801060345
30
1E-16
41
1
10
67.7950717824525
20
1.83210754042966
30
1E-16
41
1
10
67.8594028402516
20
1.77813132545782
30
-2E-16
41
1
10
67.8915527055875
20
1.75079991019004
30
-1E-16
41
1
10
67.9237176151411
20
1.72315030995793
30
0
0
SPLINE
5
CE
100
AcDbEntity
8
1
62
256
6
ByLayer
370
18
48
1
60
0
100
AcDbSpline
70
4
71
3
72
12
73
8
40
0
40
0
40
0
40
0
40
0.499999999999979
40
0.499999999999979
40
0.749999999999989
40
0.749999999999989
40
1
40
1
40
1
40
1
41
1
10
67.9237176151407
20
1.72315030995821
30
0
41
1
10
68.0135089408269
20
1.64596016159246
30
1E-16
41
1
10
68.1018501916419
20
1.56637609067513
30
-1E-16
41
1
10
68.2316148892476
20
1.44290788513246
30
2E-16
41
1
10
68.274405616463
20
1.40106317843916
30
-2E-16
41
1
10
68.3588655589293
20
1.31581347068337
30
0
41
1
10
68.4006065354416
20
1.27232999248025
30
1E-16
41
1
10
68.4413845201601
20
1.22821480013008
30
-2E-16
0
SPLINE
5
CF
100
AcDbEntity
8
1
62
256
6
ByLayer
370
18
48
1
60
0
100
AcDbSpline
70
4
71
3
72
36
73
32
40
0
40
0
40
0
40
0
40
0.062500000000027
40
0.062500000000027
40
0.093750000000035
40
0.093750000000035
40
0.125000000000043
40
0.125000000000043
40
0.250000000000075
40
0.250000000000075
40
0.312500000000091
40
0.312500000000091
40
0.343750000000093
40
0.343750000000093
40
0.375000000000096
40
0.375000000000096
40
0.500000000000098
40
0.500000000000098
40
0.6250000000001
40
0.6250000000001
40
0.656250000000095
40
0.656250000000095
40
0.687500000000089
40
0.687500000000089
40
0.750000000000072
40
0.750000000000072
40
0.875000000000036
40
0.875000000000036
40
0.937500000000018
40
0.937500000000018
40
1
40
1
40
1
40
1
41
1
10
68.4413845201602
20
1.22821480012934
30
-2E-16
41
1
10
68.4816345491083
20
1.18917367131311
30
-1E-16
41
1
10
68.5217975140826
20
1.15006079909421
30
0
41
1
10
68.58200331156
20
1.09138246988294
30
1E-16
41
1
10
68.6020656116419
20
1.07182168052753
30
2E-16
41
1
10
68.6421920789368
20
1.03271299920203
30
-2E-16
41
1
10
68.6622963002837
20
1.0131261330923
30
-2E-16
41
1
10
68.7620458904801
20
0.916058317701925
30
1E-16
41
1
10
68.8398147188933
20
0.840768577462143
30
-2E-16
41
1
10
68.9540003456054
20
0.732198107122144
30
1E-16
41
1
10
68.9916473696549
20
0.696735002422486
30
1E-16
41
1
10
69.0475491607314
20
0.644761637476762
30
-2E-16
41
1
10
69.0660878034576
20
0.627640256986211
30
-1E-16
41
1
10
69.1029787658645
20
0.593822685006387
30
-1E-16
41
1
10
69.1213511206302
20
0.577108418766926
30
0
41
1
10
69.2125426431226
20
0.494851571695534
30
0
41
1
10
69.2818621370179
20
0.434647694253613
30
1E-16
41
1
10
69.4137325610458
20
0.325573272929176
30
-1E-16
41
1
10
69.4762955378326
20
0.276748310749468
30
0
41
1
10
69.5500686936131
20
0.223049251743618
30
-1E-16
41
1
10
69.564597061409
20
0.212680104123791
30
-1E-16
41
1
10
69.592909797639
20
0.192884155307638
30
0
41
1
10
69.606732665388
20
0.183429985692356
30
0
41
1
10
69.6472122977747
20
0.156340967216977
30
1E-16
41
1
10
69.67288174301
20
0.139976128556242
30
-1E-16
41
1
10
69.7459643607862
20
0.0956173737146457
30
0
41
1
10
69.7894825499367
20
0.0724222640418191
30
1E-16
41
1
10
69.8465266273635
20
0.0456559405877783
30
0
41
1
10
69.8639463470261
20
0.0381828712530137
30
0
41
1
10
69.8956090125628
20
0.0256783871497248
30
1E-16
41
1
10
69.9098658984251
20
0.0206364468581341
30
0
41
1
10
69.922571116284
20
0.0165761118003047
30
0
0
SPLINE
5
D0
100
AcDbEntity
8
1
62
256
6
ByLayer
370
18
48
1
60
0
100
AcDbSpline
70
4
71
3
72
40
73
36
40
0
40
0
40
0
40
0
40
0.125000000000014
40
0.125000000000014
40
0.250000000000028
40
0.250000000000028
40
0.312500000000028
40
0.312500000000028
40
0.375000000000028
40
0.375000000000028
40
0.406250000000028
40
0.406250000000028
40
0.437500000000029
40
0.437500000000029
40
0.50000000000002
40
0.50000000000002
40
0.531250000000016
40
0.531250000000016
40
0.562500000000012
40
0.562500000000012
40
0.625000000000004
40
0.625000000000004
40
0.687499999999996
40
0.687499999999996
40
0.718749999999995
40
0.718749999999995
40
0.749999999999994
40
0.749999999999994
40
0.781249999999993
40
0.781249999999993
40
0.812499999999992
40
0.812499999999992
40
0.87499999999999
40
0.87499999999999
40
1
40
1
40
1
40
1
41
1
10
69.9225711163008
20
0.0165761117995658
30
0
41
1
10
69.9273892723328
20
0.0150363249129839
30
0
41
1
10
69.9319151634749
20
0.0121307368203531
30
0
41
1
10
69.9403908743319
20
0.0033662607912959
30
0
41
1
10
69.9443417989613
20
-0.0024795004480893
30
0
41
1
10
69.9498001056157
20
-0.014066142138546
30
0
41
1
10
69.9515499268633
20
-0.0184312840945609
30
0
41
1
10
69.9548286440594
20
-0.0281901626494232
30
0
41
1
10
69.9563532124051
20
-0.0335605232568525
30
0
41
1
10
69.9584520303034
20
-0.0424945860897878
30
0
41
1
10
69.9591201765398
20
-0.045619779956354
30
0
41
1
10
69.9603888015603
20
-0.0522014496927738
30
0
41
1
10
69.960990822259
20
-0.0556703165379986
30
0
41
1
10
69.9626592156204
20
-0.066467158740636
30
0
41
1
10
69.963598201996
20
-0.0742171539903893
30
0
41
1
10
69.9647094955232
20
-0.0868588157740646
30
0
41
1
10
69.9650300881397
20
-0.0912432804691719
30
0
41
1
10
69.9655594607111
20
-0.100406814602678
30
0
41
1
10
69.9657687923119
20
-0.105223319998032
30
0
41
1
10
69.9661918715391
20
-0.119947929885655
30
0
41
1
10
69.9662106817742
20
-0.130223017777468
30
0
41
1
10
69.9656442322802
20
-0.1516588422366
30
0
41
1
10
69.9650731994314
20
-0.162321731855286
30
0
41
1
10
69.9637925334056
20
-0.17823496398907
30
0
41
1
10
69.9632928436176
20
-0.18352444997285
30
0
41
1
10
69.9621869979776
20
-0.193738913385516
30
0
41
1
10
69.961577506119
20
-0.198709630492942
30
0
41
1
10
69.9602519036727
20
-0.208399176538023
30
0
41
1
10
69.9595309909095
20
-0.213143349384296
30
0
41
1
10
69.9580207454361
20
-0.222190390297698
30
0
41
1
10
69.9572294917944
20
-0.226513284005904
30
0
41
1
10
69.9547564416482
20
-0.238954955717389
30
0
41
1
10
69.9529647168076
20
-0.246592287437551
30
0
41
1
10
69.9473018665067
20
-0.267471434597297
30
0
41
1
10
69.943248129168
20
-0.278445405913885
30
0
41
1
10
69.9389318628673
20
-0.287407789232418
30
0
0
SPLINE
5
D1
100
AcDbEntity
8
1
62
256
6
ByLayer
370
18
48
1
60
0
100
AcDbSpline
70
4
71
3
72
36
73
32
40
0
40
0
40
0
40
0
40
0.125000000000006
40
0.125000000000006
40
0.250000000000012
40
0.250000000000012
40
0.281250000000014
40
0.281250000000014
40
0.312500000000015
40
0.375000000000018
40
0.375000000000018
40
0.500000000000025
40
0.500000000000025
40
0.531250000000024
40
0.531250000000024
40
0.562500000000024
40
0.562500000000024
40
0.625000000000022
40
0.625000000000022
40
0.750000000000018
40
0.750000000000018
40
0.781250000000017
40
0.781250000000017
40
0.812500000000016
40
0.875000000000014
40
0.875000000000014
40
0.937500000000013
40
0.937500000000013
40
0.968750000000006
40
0.968750000000006
40
1
40
1
40
1
40
1
41
1
10
69.9389318628646
20
-0.28740778923796
30
0
41
1
10
69.9188894674236
20
-0.32902422762001
30
0
41
1
10
69.8941012412188
20
-0.367458314556927
30
0
41
1
10
69.8351686018207
20
-0.437126563937483
30
0
41
1
10
69.8010273287924
20
-0.46837511160561
30
0
41
1
10
69.7523402774507
20
-0.501875575365318
30
1E-16
41
1
10
69.7422849850963
20
-0.508302761976637
30
1E-16
41
1
10
69.7216983866026
20
-0.520479471197262
30
1E-16
41
1
10
69.6900739540851
20
-0.53775258739455
30
-1E-16
41
1
10
69.6562608148377
20
-0.551954960941003
30
0
41
1
10
69.5858059241266
20
-0.575902482352404
30
0
41
1
10
69.5350842450373
20
-0.585934672990533
30
0
41
1
10
69.4670769415371
20
-0.589375599308084
30
0
41
1
10
69.4532438056756
20
-0.589606727420033
30
0
41
1
10
69.4251101465276
20
-0.589101337221564
30
0
41
1
10
69.4108116029695
20
-0.588361765122755
30
0
41
1
10
69.3676324856322
20
-0.584657417534686
30
0
41
1
10
69.3383366911851
20
-0.58020897280835
30
0
41
1
10
69.2490601985364
20
-0.560665737424415
30
0
41
1
10
69.1877101612513
20
-0.53940679479777
30
-1E-16
41
1
10
69.1089256620093
20
-0.501254572898745
30
-2E-16
41
1
10
69.0930256653756
20
-0.4930196283089
30
-2E-16
41
1
10
69.0613607950019
20
-0.475541654710895
30
-2E-16
41
1
10
69.0139666619135
20
-0.44777079710073
30
2E-16
41
1
10
68.9669000477302
20
-0.415392778827169
30
1E-16
41
1
10
68.904446217017
20
-0.368165481262793
30
0
41
1
10
68.8733706059891
20
-0.342522561033206
30
-1E-16
41
1
10
68.8269741640079
20
-0.300999745918631
30
-2E-16
41
1
10
68.8115444107062
20
-0.286649120155545
30
-2E-16
41
1
10
68.7807537538
20
-0.256917928118952
30
2E-16
41
1
10
68.7653515060934
20
-0.241493230315768
30
1E-16
41
1
10
68.7500924130484
20
-0.225659837373342
30
1E-16
0
SPLINE
5
D2
100
AcDbEntity
8
1
62
256
6
ByLayer
370
18
48
1
60
0
100
AcDbSpline
70
4
71
3
72
26
73
22
40
0
40
0
40
0
40
0
40
0.124999999999964
40
0.124999999999964
40
0.187499999999967
40
0.187499999999967
40
0.24999999999997
40
0.24999999999997
40
0.374999999999975
40
0.374999999999975
40
0.437499999999978
40
0.437499999999978
40
0.499999999999981
40
0.499999999999981
40
0.624999999999986
40
0.624999999999986
40
0.74999999999999
40
0.74999999999999
40
0.874999999999995
40
0.874999999999995
40
1
40
1
40
1
40
1
41
1
10
68.7500924130375
20
-0.225659837356233
30
1E-16
41
1
10
68.7249017789852
20
-0.241599241716727
30
1E-16
41
1
10
68.6985551280809
20
-0.254168216160878
30
2E-16
41
1
10
68.6574819480657
20
-0.268644578229896
30
2E-16
41
1
10
68.6435305156271
20
-0.272736918544126
30
2E-16
41
1
10
68.6151219523408
20
-0.279532593832755
30
2E-16
41
1
10
68.6008332660895
20
-0.282195328634174
30
2E-16
41
1
10
68.5578397185983
20
-0.288204129146749
30
-2E-16
41
1
10
68.5289536273921
20
-0.289595779083299
30
-2E-16
41
1
10
68.4852744415205
20
-0.288457188865976
30
-2E-16
41
1
10
68.4706561691179
20
-0.287536389810668
30
-2E-16
41
1
10
68.4412981861375
20
-0.28469420018726
30
-2E-16
41
1
10
68.4265146495163
20
-0.282764595175081
30
2E-16
41
1
10
68.3823840292661
20
-0.275646300029536
30
2E-16
41
1
10
68.3532292542064
20
-0.269149484754962
30
2E-16
41
1
10
68.2952683888199
20
-0.253313381801235
30
1E-16
41
1
10
68.2664632732264
20
-0.243969919977218
30
1E-16
41
1
10
68.2090721329209
20
-0.222872454372975
30
1E-16
41
1
10
68.180486608984
20
-0.211116351729288
30
1E-16
41
1
10
68.1234337810236
20
-0.185500623745838
30
0
41
1
10
68.0949420991676
20
-0.171623998462394
30
0
41
1
10
68.0666605919693
20
-0.156915237063714
30
-1E-16
0
SPLINE
5
D3
100
AcDbEntity
8
1
62
256
6
ByLayer
370
18
48
1
60
0
100
AcDbSpline
70
4
71
3
72
8
73
4
40
0
40
0
40
0
40
0
40
1
40
1
40
1
40
1
41
1
10
68.06666059197
20
-0.156915237064226
30
-1E-16
41
1
10
68.0345841552008
20
-0.140287822364712
30
-1E-16
41
1
10
68.0027018641118
20
-0.122659852384601
30
-2E-16
41
1
10
67.971017220762
20
-0.104176710964367
30
-2E-16
0
SPLINE
5
D4
100
AcDbEntity
8
1
62
256
6
ByLayer
370
18
48
1
60
0
100
AcDbSpline
70
4
71
3
72
12
73
8
40
0
40
0
40
0
40
0
40
0.5
40
0.5
40
0.75
40
0.75
40
1
40
1
40
1
40
1
41
1
10
67.9237176151407
20
-1.10898925213297
30
-1E-16
41
1
10
68.0135089408269
20
-1.16664043988854
30
1E-16
41
1
10
68.1018501916418
20
-1.2193205443603
30
2E-16
41
1
10
68.2316148892476
20
-1.29188727151842
30
-1E-16
41
1
10
68.274405616463
20
-1.3150043545227
30
0
41
1
10
68.3588655589293
20
-1.35934148855094
30
1E-16
41
1
10
68.4006065354416
20
-1.38059427583175
30
1E-16
41
1
10
68.4413845201601
20
-1.40094205400257
30
2E-16
0
SPLINE
5
D5
100
AcDbEntity
8
1
62
256
6
ByLayer
370
18
48
1
60
0
100
AcDbSpline
70
4
71
3
72
36
73
32
40
0
40
0
40
0
40
0
40
0.0624999999999902
40
0.0624999999999902
40
0.0937499999999851
40
0.0937499999999851
40
0.12499999999998
40
0.12499999999998
40
0.24999999999996
40
0.24999999999996
40
0.312499999999955
40
0.312499999999955
40
0.343749999999957
40
0.343749999999957
40
0.37499999999996
40
0.37499999999996
40
0.49999999999997
40
0.49999999999997
40
0.62499999999998
40
0.62499999999998
40
0.656249999999979
40
0.656249999999979
40
0.687499999999978
40
0.687499999999978
40
0.749999999999982
40
0.749999999999982
40
0.874999999999991
40
0.874999999999991
40
0.937499999999995
40
0.937499999999995
40
1
40
1
40
1
40
1
41
1
10
68.4413845201602
20
-1.40094205400322
30
2E-16
41
1
10
68.4816345491084
20
-1.41671647842861
30
2E-16
41
1
10
68.5217975140827
20
-1.43084282986996
30
-2E-16
41
1
10
68.5820033115601
20
-1.44935622871947
30
-2E-16
41
1
10
68.6020656116422
20
-1.45508065771642
30
-1E-16
41
1
10
68.642192078937
20
-1.46559730335144
30
-1E-16
41
1
10
68.662296300284
20
-1.47039683847046
30
-1E-16
41
1
10
68.7620458904805
20
-1.4917897182238
30
-1E-16
41
1
10
68.8398147188938
20
-1.50073684403657
30
0
41
1
10
68.9540003456061
20
-1.50117634465928
30
0
41
1
10
68.9916473696557
20
-1.4991540841834
30
0
41
1
10
69.0475491607322
20
-1.49268700269889
30
-1E-16
41
1
10
69.0660878034583
20
-1.48995918756086
30
-1E-16
41
1
10
69.1029787658653
20
-1.48332722175851
30
-1E-16
41
1
10
69.1213511206311
20
-1.47941809233524
30
-1E-16
41
1
10
69.2125426431236
20
-1.45688232397705
30
1E-16
41
1
10
69.2818621370189
20
-1.42969272141801
30
0
41
1
10
69.4137325610469
20
-1.35722866796274
30
1E-16
41
1
10
69.4762955378338
20
-1.31191177308494
30
0
41
1
10
69.5500686936143
20
-1.243525775813
30
0
41
1
10
69.5645970614101
20
-1.22925614099111
30
0
41
1
10
69.5929097976402
20
-1.19982997689712
30
0
41
1
10
69.6067326653892
20
-1.18463846846242
30
0
41
1
10
69.6472122977759
20
-1.13767748900324
30
0
41
1
10
69.6728817430112
20
-1.10452490532623
30
0
41
1
10
69.7459643607873
20
-0.999805762491491
30
0
41
1
10
69.7894825499378
20
-0.922943091012996
30
1E-16
41
1
10
69.8465266273645
20
-0.798059555268878
30
0
41
1
10
69.8639463470271
20
-0.755293172928532
30
0
41
1
10
69.8956090125637
20
-0.667967886141469
30
0
41
1
10
69.9098658984259
20
-0.623379285277309
30
0
41
1
10
69.9225711162848
20
-0.57799470615393
30
0
0
SPLINE
5
D6
100
AcDbEntity
8
1
62
256
6
ByLayer
370
18
48
1
60
0
100
AcDbSpline
70
4
71
3
72
40
73
36
40
0
40
0
40
0
40
0
40
0.124999999999998
40
0.124999999999998
40
0.249999999999996
40
0.249999999999996
40
0.312500000000002
40
0.312500000000002
40
0.375000000000007
40
0.375000000000007
40
0.406250000000005
40
0.406250000000005
40
0.437500000000003
40
0.437500000000003
40
0.500000000000006
40
0.500000000000006
40
0.531250000000008
40
0.531250000000008
40
0.56250000000001
40
0.56250000000001
40
0.625000000000011
40
0.625000000000011
40
0.687500000000012
40
0.687500000000012
40
0.718750000000016
40
0.718750000000016
40
0.75000000000002
40
0.75000000000002
40
0.781250000000025
40
0.781250000000025
40
0.812500000000029
40
0.812500000000029
40
0.875000000000024
40
0.875000000000024
40
1
40
1
40
1
40
1
41
1
10
69.9225711163006
20
-0.577994706154499
30
0
41
1
10
69.9273892723326
20
-0.560783668446049
30
0
41
1
10
69.9319151634741
20
-0.544504676238489
30
0
41
1
10
69.9403908743312
20
-0.513972050254637
30
0
41
1
10
69.9443417989608
20
-0.499709154444759
30
0
41
1
10
69.9498001056152
20
-0.480261945766443
30
0
41
1
10
69.9515499268629
20
-0.474076985669114
30
0
41
1
10
69.954828644059
20
-0.462682676199677
30
0
41
1
10
69.9563532124047
20
-0.457487041655924
30
0
41
1
10
69.958452030303
20
-0.450593545654613
30
0
41
1
10
69.9591201765395
20
-0.44844648299366
30
0
41
1
10
69.9603888015599
20
-0.44449218167253
30
0
41
1
10
69.9609908222587
20
-0.44268099687929
30
0
41
1
10
69.9626592156202
20
-0.437906468090574
30
0
41
1
10
69.9635982019958
20
-0.435564723016512
30
0
41
1
10
69.964709495523
20
-0.433603608325171
30
0
41
1
10
69.9650300881395
20
-0.433210218200514
30
0
41
1
10
69.965559460711
20
-0.433026007272787
30
0
41
1
10
69.9657687923118
20
-0.433241835633709
30
0
41
1
10
69.9661918715391
20
-0.434907903766458
30
0
41
1
10
69.9662106817742
20
-0.437354939830044
30
0
41
1
10
69.9656442322803
20
-0.445360835868769
30
0
41
1
10
69.9650731994315
20
-0.450730035476596
30
0
41
1
10
69.9637925334057
20
-0.460797884916843
30
0
41
1
10
69.9632928436178
20
-0.464498521542339
30
0
41
1
10
69.9621869979777
20
-0.472311448470521
30
0
41
1
10
69.9615775061192
20
-0.47645100199901
30
0
41
1
10
69.9602519036728
20
-0.485159563960849
30
0
41
1
10
69.9595309909096
20
-0.489757466674092
30
0
41
1
10
69.9580207454363
20
-0.499141850016258
30
0
41
1
10
69.9572294917945
20
-0.503942539321429
30
0
41
1
10
69.9547564416483
20
-0.518628653631708
30
0
41
1
10
69.9529647168077
20
-0.528858230457672
30
0
41
1
10
69.9473018665068
20
-0.560057900776116
30
0
41
1
10
69.9432481291683
20
-0.580999618689845
30
0
41
1
10
69.9389318628675
20
-0.602023871360416
30
0
0
SPLINE
5
D7
100
AcDbEntity
8
1
62
256
6
ByLayer
370
18
48
1
60
0
100
AcDbSpline
70
4
71
3
72
35
73
31
40
0
40
0
40
0
40
0
40
0.125000000000015
40
0.125000000000015
40
0.250000000000031
40
0.250000000000031
40
0.28125000000004
40
0.28125000000004
40
0.312500000000048
40
0.375000000000059
40
0.375000000000059
40
0.500000000000071
40
0.500000000000071
40
0.531250000000071
40
0.531250000000071
40
0.562500000000072
40
0.562500000000072
40
0.625000000000063
40
0.625000000000063
40
0.750000000000057
40
0.750000000000057
40
0.78125000000005
40
0.78125000000005
40
0.812500000000043
40
0.875000000000029
40
0.937500000000014
40
0.937500000000014
40
0.968750000000007
40
0.968750000000007
40
1
40
1
40
1
40
1
41
1
10
69.9389318628646
20
-0.602023871374655
30
0
41
1
10
69.9188894674235
20
-0.699649077167862
30
0
41
1
10
69.8941012412189
20
-0.795534905110941
30
0
41
1
10
69.8351686018207
20
-0.983740714571695
30
0
41
1
10
69.8010273287924
20
-1.07606366018419
30
0
41
1
10
69.7523402774506
20
-1.18903856948822
30
0
41
1
10
69.7422849850962
20
-1.21154450726959
30
0
41
1
10
69.7216983866026
20
-1.25601573227618
30
0
41
1
10
69.6900739540852
20
-1.32198853339085
30
0
41
1
10
69.6562608148375
20
-1.38574580488864
30
0
41
1
10
69.5858059241264
20
-1.51021486321264
30
0
41
1
10
69.5350842450371
20
-1.58914702291335
30
0
41
1
10
69.4670769415369
20
-1.68216693614244
30
0
41
1
10
69.4532438056755
20
-1.70048718252295
30
0
41
1
10
69.4251101465274
20
-1.73653826896336
30
0
41
1
10
69.4108116029693
20
-1.75426282311062
30
0
41
1
10
69.3676324856319
20
-1.8060237359467
30
0
41
1
10
69.3383366911849
20
-1.8388227044274
30
0
41
1
10
69.2490601985363
20
-1.9320083487728
30
0
41
1
10
69.1877101612509
20
-1.98722033512914
30
0
41
1
10
69.1089256620089
20
-2.04683436447763
30
0
41
1
10
69.0930256653754
20
-2.05830695088591
30
0
41
1
10
69.0613607950016
20
-2.08004287909773
30
0
41
1
10
69.0139666619133
20
-2.11091412626308
30
-1E-16
41
1
10
68.9355223049412
20
-2.15383605989959
30
1E-16
41
1
10
68.8733706059887
20
-2.17918332003382
30
0
41
1
10
68.8269741640075
20
-2.19479522447779
30
0
41
1
10
68.8115444107058
20
-2.19943253620494
30
0
41
1
10
68.7807537537996
20
-2.20755915330787
30
0
41
1
10
68.7653515060931
20
-2.21105538884197
30
0
41
1
10
68.750092413048
20
-2.21394644037
30
1E-16
0
SPLINE
5
D8
100
AcDbEntity
8
1
62
256
6
ByLayer
370
18
48
1
60
0
100
AcDbSpline
70
4
71
3
72
26
73
22
40
0
40
0
40
0
40
0
40
0.124999999999964
40
0.124999999999964
40
0.187499999999966
40
0.187499999999966
40
0.249999999999969
40
0.249999999999969
40
0.374999999999974
40
0.374999999999974
40
0.437499999999976
40
0.437499999999976
40
0.499999999999979
40
0.499999999999979
40
0.624999999999984
40
0.624999999999984
40
0.749999999999989
40
0.749999999999989
40
0.874999999999995
40
0.874999999999995
40
1
40
1
40
1
40
1
41
1
10
68.7500924130374
20
-2.21394644036965
30
1E-16
41
1
10
68.7249017789851
20
-2.23636883486407
30
-1E-16
41
1
10
68.6985551280808
20
-2.25748128627046
30
0
41
1
10
68.6574819480655
20
-2.28737892086272
30
0
41
1
10
68.6435305156271
20
-2.29704786209001
30
1E-16
41
1
10
68.6151219523408
20
-2.31580649064017
30
1E-16
41
1
10
68.6008332660894
20
-2.32478459196915
30
-1E-16
41
1
10
68.5578397185982
20
-2.35055029267286
30
0
41
1
10
68.5289536273921
20
-2.36621172796245
30
0
41
1
10
68.4852744415206
20
-2.3877253057457
30
0
41
1
10
68.4706561691179
20
-2.39456480716532
30
1E-16
41
1
10
68.4412981861374
20
-2.40761132539845
30
1E-16
41
1
10
68.4265146495162
20
-2.41383501410866
30
1E-16
41
1
10
68.3823840292661
20
-2.43143168563859
30
-1E-16
41
1
10
68.3532292542063
20
-2.44175802450721
30
-1E-16
41
1
10
68.2952683888197
20
-2.45998734485227
30
0
41
1
10
68.2664632732262
20
-2.4678875716387
30
0
41
1
10
68.2090721329208
20
-2.48149979308872
30
0
41
1
10
68.180486608984
20
-2.48721042114056
30
1E-16
41
1
10
68.1234337810236
20
-2.49659536138836
30
1E-16
41
1
10
68.0949420991676
20
-2.50026811062622
30
1E-16
41
1
10
68.0666605919693
20
-2.50295954520377
30
1E-16
0
SPLINE
5
D9
100
AcDbEntity
8
1
62
256
6
ByLayer
370
18
48
1
60
0
100
AcDbSpline
70
4
71
3
72
16
73
12
40
0
40
0
40
0
40
0
40
0.250000000000007
40
0.250000000000007
40
0.500000000000015
40
0.500000000000015
40
0.625000000000019
40
0.625000000000019
40
0.750000000000022
40
0.750000000000022
40
1
40
1
40
1
40
1
41
1
10
67.9710172207618
20
-0.104176710964168
30
-2E-16
41
1
10
67.8986805495315
20
-0.0619833547379187
30
1E-16
41
1
10
67.8282050211463
20
-0.0159282277485033
30
0
41
1
10
67.689555774108
20
0.0817552310956273
30
-2E-16
41
1
10
67.6213911057814
20
0.133398510191824
30
1E-16
41
1
10
67.5201308533353
20
0.213985244032898
30
-1E-16
41
1
10
67.4865442808331
20
0.241371907726062
30
-1E-16
41
1
10
67.4196001660857
20
0.297051260405936
30
2E-16
41
1
10
67.386201775857
20
0.325378689534716
30
1E-16
41
1
10
67.2868810462193
20
0.410966680771196
30
-1E-16
41
1
10
67.2216343282485
20
0.468987525291055
30
-2E-16
41
1
10
67.1570078687288
20
0.527578546723532
30
1E-16
0
SPLINE
5
DA
100
AcDbEntity
8
1
62
256
6
ByLayer
370
18
48
1
60
0
100
AcDbSpline
70
4
71
3
72
8
73
4
40
0
40
0
40
0
40
0
40
1
40
1
40
1
40
1
41
1
10
68.06666059197
20
-2.50295954520416
30
1E-16
41
1
10
68.0345841552008
20
-2.50603697102287
30
1E-16
41
1
10
68.0027018641118
20
-2.50791252776992
30
1E-16
41
1
10
67.971017220762
20
-2.5086519262874
30
1E-16
0
SPLINE
5
DB
100
AcDbEntity
8
1
62
256
6
ByLayer
370
18
48
1
60
0
100
AcDbSpline
70
4
71
3
72
28
73
24
40
0
40
0
40
0
40
0
40
0.0206692087460109
40
0.0970156486514954
40
0.17336208855698
40
0.249708528462464
40
0.287881748415207
40
0.326054968367949
40
0.364228188320691
40
0.402401408273434
40
0.478747848178918
40
0.51692106813166
40
0.555094288084403
40
0.593267508037144
40
0.631440727989887
40
0.707787167895372
40
0.745960387848114
40
0.784133607800856
40
0.822306827753598
40
0.860480047706341
40
0.936826487611825
40
0.974999707564567
40
1
40
1
40
1
40
1
41
1
10
60.0293456992316
20
3.1472826930094
30
0
41
1
10
60.0716471330755
20
3.15524980420562
30
0
41
1
10
60.270198567659
20
3.18976752426283
30
0
41
1
10
60.6250000057035
20
3.22701409642514
30
0
41
1
10
61.093749977211
20
3.22468979459472
30
0
41
1
10
61.4843749962207
20
3.17908703593278
30
0
41
1
10
61.7968750113603
20
3.11683342265008
30
0
41
1
10
62.0312500168763
20
3.05733627075767
30
1E-16
41
1
10
62.2656250107514
20
2.9852296925304
30
-1E-16
41
1
10
62.5781249960187
20
2.87284655624796
30
-1E-16
41
1
10
62.8906249848632
20
2.73659277858238
30
0
41
1
10
63.2031249910414
20
2.57793222161422
30
0
41
1
10
63.4375000000018
20
2.44823464615962
30
0
41
1
10
63.6718750089515
20
2.30844593141933
30
-1E-16
41
1
10
63.984375014169
20
2.10945860205646
30
-1E-16
41
1
10
64.2968749992619
20
1.89254614182073
30
0
41
1
10
64.6093749977495
20
1.66059551064527
30
1E-16
41
1
10
64.8437499994163
20
1.479860527987
30
1E-16
41
1
10
65.0781249999903
20
1.29314105651193
30
1E-16
41
1
10
65.3906250000092
20
1.03739876676408
30
-2E-16
41
1
10
65.7031249999745
20
0.773108655473749
30
0
41
1
10
65.9886653941847
20
0.527103016746452
30
1E-16
41
1
10
66.1179557883851
20
0.4150294769629
30
2E-16
41
1
10
66.1691211825799
20
0.370614736989097
30
2E-16
0
SPLINE
5
DC
100
AcDbEntity
8
1
62
256
6
ByLayer
370
18
48
1
60
0
100
AcDbSpline
70
4
71
3
72
14
73
10
40
0
40
0
40
0
40
0
40
0.50000000000003
40
0.50000000000003
40
0.750000000000031
40
0.750000000000031
40
0.875000000000015
40
0.875000000000015
40
1
40
1
40
1
40
1
41
1
10
67.1570078687288
20
-0.512347824751316
30
-1E-16
41
1
10
67.2851914057999
20
-0.624690382174265
30
1E-16
41
1
10
67.4120272467745
20
-0.731968542032035
30
-1E-16
41
1
10
67.6029607140518
20
-0.882413947248892
30
-2E-16
41
1
10
67.666716680736
20
-0.930810266066175
30
0
41
1
10
67.7628820173826
20
-1.00029898373555
30
1E-16
41
1
10
67.7950717824525
20
-1.02297352116099
30
2E-16
41
1
10
67.8594028402516
20
-1.06698943148714
30
-2E-16
41
1
10
67.8915527055876
20
-1.08833907614971
30
-1E-16
41
1
10
67.9237176151411
20
-1.10898925213328
30
-1E-16
0
SPLINE
5
DD
100
AcDbEntity
8
1
62
256
6
ByLayer
370
18
48
1
60
0
100
AcDbSpline
70
4
71
3
72
27
73
23
40
0
40
0
40
0
40
0
40
0.0194290978185341
40
0.0897176188847875
40
0.160006139951041
40
0.230294661017294
40
0.300583182083548
40
0.370871703149801
40
0.441160224216054
40
0.511448745282308
40
0.546593005815434
40
0.581737266348561
40
0.616881526881688
40
0.652025787414815
40
0.722314308481068
40
0.757458569014195
40
0.792602829547321
40
0.827747090080448
40
0.862891350613574
40
0.933179871679828
40
0.968324132212955
40
1
40
1
40
1
40
1
41
1
10
58.1516784921614
20
2.08781607577458
30
0
41
1
10
58.194868994624
20
2.07285974821227
30
0
41
1
10
58.394309497639
20
2.00212565808437
30
1E-16
41
1
10
58.7500000000118
20
1.86245896159249
30
1E-16
41
1
10
59.2187499999728
20
1.65278840075945
30
-1E-16
41
1
10
59.6875000000131
20
1.41993362771433
30
0
41
1
10
60.1562499999751
20
1.16697645381987
30
-1E-16
41
1
10
60.6250000057038
20
0.897100840742553
30
1E-16
41
1
10
61.0937499772124
20
0.614010630862396
30
-1E-16
41
1
10
61.4843749962185
20
0.371289080406484
30
0
41
1
10
61.7968750113623
20
0.17537059135816
30
0
41
1
10
62.0312500168764
20
0.0283718800561132
30
-1E-16
41
1
10
62.2656250107491
20
-0.119042753788193
30
-2E-16
41
1
10
62.5781249960203
20
-0.316654302721446
30
-1E-16
41
1
10
62.8906249848616
20
-0.512461980923064
30
-1E-16
41
1
10
63.2031249910429
20
-0.703898012888715
30
-1E-16
41
1
10
63.4375000000014
20
-0.844540986454945
30
2E-16
41
1
10
63.6718750089516
20
-0.982140325184758
30
1E-16
41
1
10
63.9843750141695
20
-1.16140248320713
30
1E-16
41
1
10
64.2968749992616
20
-1.33152075423769
30
0
41
1
10
64.6016648289245
20
-1.4863331808871
30
-1E-16
41
1
10
64.7502046610292
20
-1.55818798473416
30
0
41
1
10
64.8206194925289
20
-1.59136069850325
30
0
0
SPLINE
5
DE
100
AcDbEntity
8
1
62
256
6
ByLayer
370
18
48
1
60
0
100
AcDbSpline
70
4
71
3
72
16
73
12
40
0
40
0
40
0
40
0
40
0.25
40
0.25
40
0.5
40
0.5
40
0.625
40
0.625
40
0.75
40
0.75
40
1
40
1
40
1
40
1
41
1
10
67.9710172207618
20
-2.50865192628734
30
1E-16
41
1
10
67.8986805495315
20
-2.51034187155545
30
1E-16
41
1
10
67.8282050211462
20
-2.50616190946997
30
1E-16
41
1
10
67.689555774108
20
-2.48775776000053
30
1E-16
41
1
10
67.6213911057814
20
-2.47351841414752
30
0
41
1
10
67.5201308533354
20
-2.44529409733056
30
0
41
1
10
67.4865442808331
20
-2.43473716717557
30
-1E-16
41
1
10
67.4196001660858
20
-2.41139601231086
30
1E-16
41
1
10
67.386201775857
20
-2.39859263555363
30
1E-16
41
1
10
67.2868810462193
20
-2.35719788835996
30
0
41
1
10
67.2216343282486
20
-2.32557283642711
30
-1E-16
41
1
10
67.1570078687289
20
-2.29017960950387
30
0
0
SPLINE
5
DF
100
AcDbEntity
8
1
62
256
6
ByLayer
370
18
48
1
60
0
100
AcDbSpline
70
4
71
3
72
8
73
4
40
0
40
0
40
0
40
0
40
1
40
1
40
1
40
1
41
1
10
55
20
3.05795596886136
30
-1E-16
41
0.840876633015391
10
55
20
2.64558637749158
30
0
41
0.840876633015391
10
55
20
2.12814506605211
30
-1E-16
41
1
10
55
20
1.75264304562242
30
-1E-16
0
SPLINE
5
E0
100
AcDbEntity
8
1
62
256
6
ByLayer
370
18
48
1
60
0
100
AcDbSpline
70
4
71
3
72
14
73
10
40
0
40
0
40
0
40
0
40
0.330441342094023
40
0.330441342094023
40
0.660882684188045
40
0.660882684188045
40
0.991324026282067
40
0.991324026282067
40
1
40
1
40
1
40
1
41
1
10
55
20
1.75264304562242
30
-1E-16
41
1
10
55
20
1.71275776399409
30
0
41
1
10
55
20
1.67454468800565
30
1E-16
41
1
10
55
20
1.60278697090052
30
-2E-16
41
1
10
55
20
1.56924641889847
30
-1E-16
41
1
10
55
20
1.50806472014793
30
0
41
1
10
55
20
1.48042751426482
30
1E-16
41
1
10
55
20
1.45560881394036
30
1E-16
41
1
10
55
20
1.45497623535826
30
1E-16
41
1
10
55
20
1.45434604562163
30
1E-16
0
SPLINE
5
E1
100
AcDbEntity
8
1
62
256
6
ByLayer
370
18
48
1
60
0
100
AcDbSpline
70
4
71
3
72
8
73
4
40
0
40
0
40
0
40
0
40
1
40
1
40
1
40
1
41
1
10
55
20
3.1375299307098
30
0
41
1
10
55
20
3.11100527676032
30
0
41
1
10
55
20
3.08448062281084
30
1E-16
41
1
10
55
20
3.05795596886136
30
-1E-16
0
SPLINE
5
E2
100
AcDbEntity
8
1
62
256
6
ByLayer
370
18
48
1
60
0
100
AcDbSpline
70
4
71
3
72
8
73
4
40
0
40
0
40
0
40
0
40
1
40
1
40
1
40
1
41
1
10
55
20
-2.04068613195071
30
-1E-16
41
1
10
55
20
-2.08490743433771
30
0
41
1
10
55
20
-2.12912873672474
30
1E-16
41
1
10
55
20
-2.17335003911177
30
2E-16
0
SPLINE
5
E3
100
AcDbEntity
8
1
62
256
6
ByLayer
370
18
48
1
60
0
100
AcDbSpline
70
4
71
3
72
8
73
4
40
0
40
0
40
0
40
0
40
1
40
1
40
1
40
1
41
0.890470588835119
10
54.9999999999999
20
-0.0641957692626334
30
0
41
0.86111407472599
10
55
20
-0.18136615705175
30
0
41
0.897623878447617
10
55
20
-0.419959556004339
30
0
41
1
10
55
20
-0.719530769262661
30
-1E-16
0
SPLINE
5
E4
100
AcDbEntity
8
1
62
256
6
ByLayer
370
18
48
1
60
0
100
AcDbSpline
70
4
71
3
72
16
73
12
40
0
40
0
40
0
40
0
40
0.25
40
0.25
40
0.375
40
0.375
40
0.5
40
0.5
40
0.75
40
0.75
40
1
40
1
40
1
40
1
41
1
10
55.0000000000015
20
1.43453214620447
30
2E-16
41
1
10
54.9094764738724
20
1.51214372207036
30
0
41
1
10
54.8190881210471
20
1.58862581981495
30
-2E-16
41
1
10
54.6811729212466
20
1.69894874256266
30
0
41
1
10
54.6348195032319
20
1.73500175520289
30
-1E-16
41
1
10
54.5410650031795
20
1.80540524406649
30
2E-16
41
1
10
54.4936653092069
20
1.83975844604433
30
1E-16
41
1
10
54.3500685646626
20
1.94053693180993
30
-1E-16
41
1
10
54.2525530862504
20
2.00476921792392
30
2E-16
41
1
10
54.0545685130742
20
2.12830462129804
30
-1E-16
41
1
10
53.9541093737176
20
2.18761718607647
30
2E-16
41
1
10
53.8524580371271
20
2.24487566160354
30
1E-16
0
SPLINE
5
E5
100
AcDbEntity
8
1
62
256
6
ByLayer
370
18
48
1
60
0
100
AcDbSpline
70
4
71
3
72
34
73
30
40
0
40
0
40
0
40
0
40
0.125000000000009
40
0.125000000000009
40
0.250000000000018
40
0.250000000000018
40
0.312500000000022
40
0.312500000000022
40
0.375000000000027
40
0.375000000000027
40
0.500000000000024
40
0.500000000000024
40
0.562500000000017
40
0.562500000000017
40
0.593750000000018
40
0.593750000000018
40
0.62500000000002
40
0.62500000000002
40
0.750000000000018
40
0.750000000000018
40
0.781250000000017
40
0.781250000000017
40
0.812500000000017
40
0.812500000000017
40
0.875000000000011
40
0.875000000000011
40
0.937500000000006
40
0.937500000000006
40
1
40
1
40
1
40
1
41
1
10
53.8524580371271
20
2.24487566160354
30
1E-16
41
1
10
53.7621843239059
20
2.29572531466852
30
0
41
1
10
53.6719813968651
20
2.3457816493931
30
-2E-16
41
1
10
53.4939549049353
20
2.44651502358622
30
0
41
1
10
53.4061481532876
20
2.49721032594954
30
-1E-16
41
1
10
53.277808987184
20
2.57497892961547
30
2E-16
41
1
10
53.2355208541968
20
2.60123444270772
30
1E-16
41
1
10
53.1528110423786
20
2.65417610673248
30
0
41
1
10
53.1123730436699
20
2.68086937437215
30
-1E-16
41
1
10
52.9942512802288
20
2.76172209019578
30
2E-16
41
1
10
52.9197454297953
20
2.81666442902153
30
1E-16
41
1
10
52.8160770665451
20
2.90073808814933
30
-1E-16
41
1
10
52.7828662077524
20
2.92903311508457
30
-2E-16
41
1
10
52.7352794722327
20
2.97184556349069
30
1E-16
41
1
10
52.7197543332834
20
2.98621134204865
30
1E-16
41
1
10
52.6897119305252
20
3.01483349528863
30
0
41
1
10
52.6751837088336
20
3.02909747160402
30
0
41
1
10
52.6050200346352
20
3.1001334616802
30
-2E-16
41
1
10
52.5567859055105
20
3.15605849805237
30
2E-16
41
1
10
52.5066765657643
20
3.22397960334394
30
0
41
1
10
52.4971663106879
20
3.23746431173569
30
0
41
1
10
52.4791952876121
20
3.26421334461264
30
-1E-16
41
1
10
52.4707151214689
20
3.27751058029261
30
1E-16
41
1
10
52.447059171705
20
3.31678666824294
30
0
41
1
10
52.4336977067853
20
3.34206329595992
30
-1E-16
41
1
10
52.4118822495377
20
3.39072840532259
30
0
41
1
10
52.4034255562553
20
3.41411723599657
30
0
41
1
10
52.3918488514216
20
3.4589222152284
30
-1E-16
41
1
10
52.3887205051115
20
3.48033885603473
30
1E-16
41
1
10
52.3887205048258
20
3.50071493283201
30
0
0
SPLINE
5
E6
100
AcDbEntity
8
1
62
256
6
ByLayer
370
18
48
1
60
0
100
AcDbSpline
70
4
71
3
72
51
73
47
40
0
40
0
40
0
40
0
40
0.0625000000000208
40
0.0625000000000208
40
0.125000000000042
40
0.125000000000042
40
0.140625000000049
40
0.140625000000049
40
0.156250000000057
40
0.156250000000057
40
0.187500000000072
40
0.187500000000072
40
0.218750000000088
40
0.218750000000088
40
0.234375000000095
40
0.234375000000095
40
0.250000000000103
40
0.250000000000103
40
0.312500000000133
40
0.312500000000133
40
0.32812500000013
40
0.32812500000013
40
0.343750000000126
40
0.375000000000118
40
0.375000000000118
40
0.40625000000011
40
0.40625000000011
40
0.437500000000101
40
0.437500000000101
40
0.468750000000093
40
0.468750000000093
40
0.500000000000085
40
0.500000000000085
40
0.562500000000051
40
0.562500000000051
40
0.625000000000017
40
0.625000000000017
40
0.656250000000009
40
0.656250000000009
40
0.687500000000001
40
0.687500000000001
40
0.75
40
0.75
40
0.875
40
0.875
40
1
40
1
40
1
40
1
41
1
10
52.3887205048339
20
3.50071493282479
30
0
41
1
10
52.3887205045863
20
3.5183814705544
30
0
41
1
10
52.3915682114108
20
3.53487786854771
30
-1E-16
41
1
10
52.4037130610678
20
3.56556207234928
30
1E-16
41
1
10
52.4129887796787
20
3.57975126278339
30
1E-16
41
1
10
52.4296273734362
20
3.59601611909096
30
0
41
1
10
52.433210603532
20
3.59919523904054
30
0
41
1
10
52.4409304388083
20
3.60540371274675
30
0
41
1
10
52.4450763449185
20
3.60843794240705
30
0
41
1
10
52.4582667529876
20
3.61721614629215
30
0
41
1
10
52.4680940507682
20
3.62266682982428
30
0
41
1
10
52.4900448794401
20
3.63277899638922
30
0
41
1
10
52.5021665313533
20
3.63744073431761
30
0
41
1
10
52.5223193731871
20
3.64384076667631
30
0
41
1
10
52.5293868306331
20
3.64588045814725
30
0
41
1
10
52.54414383519
20
3.64973586647648
30
0
41
1
10
52.5517888288204
20
3.65154101067873
30
0
41
1
10
52.5913713367424
20
3.6599787893386
30
0
41
1
10
52.6273554704764
20
3.66486161160691
30
0
41
1
10
52.6783353643764
20
3.66890579503684
30
0
41
1
10
52.6888323340291
20
3.66960935289171
30
0
41
1
10
52.7100395596604
20
3.67079580473654
30
-1E-16
41
1
10
52.7423121846431
20
3.67225618746568
30
-1E-16
41
1
10
52.7759054438546
20
3.67284513107705
30
1E-16
41
1
10
52.8217752744372
20
3.67296873881332
30
1E-16
41
1
10
52.845358150023
20
3.67269403029474
30
1E-16
41
1
10
52.8923502778686
20
3.67159884814893
30
-1E-16
41
1
10
52.9158880120239
20
3.67078109714475
30
-1E-16
41
1
10
52.9630342890694
20
3.6687009397231
30
0
41
1
10
52.986642862645
20
3.66743803003706
30
0
41
1
10
53.0339209466418
20
3.66452776108346
30
0
41
1
10
53.0576674475632
20
3.66287395737416
30
0
41
1
10
53.1284157291093
20
3.65743555015459
30
0
41
1
10
53.1746561233688
20
3.65320832508596
30
0
41
1
10
53.265805125164
20
3.64377183219614
30
0
41
1
10
53.3107072377593
20
3.63855764759501
30
0
41
1
10
53.3772785400599
20
3.63004768215617
30
0
41
1
10
53.3993376378136
20
3.62709559654812
30
1E-16
41
1
10
53.4432197632355
20
3.62096287637624
30
0
41
1
10
53.4650710412413
20
3.617777798269
30
0
41
1
10
53.5300667275384
20
3.6079166241955
30
0
41
1
10
53.5726362658603
20
3.60094047440612
30
0
41
1
10
53.6985308362233
20
3.57880917059154
30
1E-16
41
1
10
53.7800526914456
20
3.56244699435263
30
0
41
1
10
53.9399410772577
20
3.52644375351227
30
0
41
1
10
54.0183119640079
20
3.50680729922345
30
0
41
1
10
54.0956722933244
20
3.48553173156981
30
0
0
SPLINE
5
E7
100
AcDbEntity
8
1
62
256
6
ByLayer
370
18
48
1
60
0
100
AcDbSpline
70
4
71
3
72
14
73
10
40
0
40
0
40
0
40
0
40
0.25
40
0.25
40
0.5
40
0.5
40
0.75
40
0.75
40
1
40
1
40
1
40
1
41
1
10
54.0956722933199
20
3.48553173157353
30
0
41
1
10
54.1754625236376
20
3.46358789474891
30
1E-16
41
1
10
54.2542327663446
20
3.44014057322065
30
-1E-16
41
1
10
54.409494177639
20
3.38983100616986
30
1E-16
41
1
10
54.4860001918453
20
3.36297737194829
30
-1E-16
41
1
10
54.6362852703409
20
3.3052682957983
30
0
41
1
10
54.7100061320397
20
3.27437071486588
30
1E-16
41
1
10
54.8557859560929
20
3.20867433263808
30
0
41
1
10
54.927848903603
20
3.17387069839401
30
-1E-16
41
1
10
54.9999999999998
20
3.13752993070977
30
0
0
SPLINE
5
E8
100
AcDbEntity
8
1
62
256
6
ByLayer
370
18
48
1
60
0
100
AcDbSpline
70
4
71
3
72
34
73
30
40
0
40
0
40
0
40
0
40
0.125000000000017
40
0.125000000000017
40
0.250000000000034
40
0.250000000000034
40
0.312500000000037
40
0.312500000000037
40
0.375000000000039
40
0.375000000000039
40
0.500000000000044
40
0.500000000000044
40
0.562500000000046
40
0.562500000000046
40
0.593750000000043
40
0.593750000000043
40
0.625000000000039
40
0.625000000000039
40
0.750000000000033
40
0.750000000000033
40
0.781250000000029
40
0.781250000000029
40
0.812500000000025
40
0.812500000000025
40
0.875000000000017
40
0.875000000000017
40
0.937500000000008
40
0.937500000000008
40
1
40
1
40
1
40
1
41
1
10
53.8524580371272
20
-3.66210719795222
30
0
41
1
10
53.7621843239057
20
-3.65898145138533
30
0
41
1
10
53.6719813968649
20
-3.65439318651562
30
0
41
1
10
53.4939549049348
20
-3.64145497262487
30
0
41
1
10
53.4061481532869
20
-3.6331015300772
30
0
41
1
10
53.2778089871831
20
-3.61664997815339
30
0
41
1
10
53.2355208541958
20
-3.61049356891147
30
0
41
1
10
53.1528110423775
20
-3.59669002833365
30
0
41
1
10
53.1123730436686
20
-3.58904388061743
30
0
41
1
10
52.9942512802274
20
-3.56351184811214
30
-1E-16
41
1
10
52.919745429794
20
-3.5430621185256
30
1E-16
41
1
10
52.8160770665436
20
-3.505411902063
30
0
41
1
10
52.7828662077509
20
-3.49169442504871
30
0
41
1
10
52.7352794722312
20
-3.46907786904316
30
-1E-16
41
1
10
52.7197543332819
20
-3.4611785193741
30
-1E-16
41
1
10
52.6897119305237
20
-3.44477389712111
30
1E-16
41
1
10
52.6751837088322
20
-3.43626632123949
30
1E-16
41
1
10
52.6050200346338
20
-3.39214234232574
30
0
41
1
10
52.5567859055092
20
-3.35178873870569
30
1E-16
41
1
10
52.5066765657631
20
-3.29392531679005
30
-1E-16
41
1
10
52.4971663106867
20
-3.28198002505994
30
-1E-16
41
1
10
52.479195287611
20
-3.25730719016343
30
1E-16
41
1
10
52.4707151214678
20
-3.2445462973885
30
1E-16
41
1
10
52.447059171704
20
-3.2052810592576
30
0
41
1
10
52.4336977067844
20
-3.1778947845591
30
-1E-16
41
1
10
52.411882249537
20
-3.12062191252147
30
2E-16
41
1
10
52.4034255562547
20
-3.09073605387593
30
1E-16
41
1
10
52.3918488514213
20
-3.02831977762756
30
0
41
1
10
52.3887205051115
20
-2.99579109940925
30
-1E-16
41
1
10
52.3887205048258
20
-2.9618191551242
30
-2E-16
0
SPLINE
5
E9
100
AcDbEntity
8
1
62
256
6
ByLayer
370
18
48
1
60
0
100
AcDbSpline
70
4
71
3
72
51
73
47
40
0
40
0
40
0
40
0
40
0.0624999999999795
40
0.0624999999999795
40
0.124999999999959
40
0.124999999999959
40
0.140624999999958
40
0.140624999999958
40
0.156249999999957
40
0.156249999999957
40
0.187499999999955
40
0.187499999999955
40
0.218749999999953
40
0.218749999999953
40
0.234374999999952
40
0.234374999999952
40
0.249999999999951
40
0.249999999999951
40
0.312499999999933
40
0.312499999999933
40
0.328124999999937
40
0.328124999999937
40
0.34374999999994
40
0.374999999999947
40
0.374999999999947
40
0.406249999999954
40
0.406249999999954
40
0.437499999999961
40
0.437499999999961
40
0.468749999999968
40
0.468749999999968
40
0.499999999999974
40
0.499999999999974
40
0.562499999999988
40
0.562499999999988
40
0.625000000000001
40
0.625000000000001
40
0.656250000000008
40
0.656250000000008
40
0.687500000000015
40
0.687500000000015
40
0.750000000000012
40
0.750000000000012
40
0.875000000000006
40
0.875000000000006
40
1
40
1
40
1
40
1
41
1
10
52.3887205048267
20
-2.96181915512273
30
-2E-16
41
1
10
52.388720504579
20
-2.93236468057231
30
2E-16
41
1
10
52.391568211411
20
-2.90240735318906
30
1E-16
41
1
10
52.4037130610683
20
-2.84162524575484
30
0
41
1
10
52.4129887796793
20
-2.81079835330414
30
-1E-16
41
1
10
52.4296273734369
20
-2.77185163818129
30
-2E-16
41
1
10
52.4332106035329
20
-2.76404192280461
30
-2E-16
41
1
10
52.4409304388092
20
-2.74838645854715
30
2E-16
41
1
10
52.4450763449194
20
-2.74052665581266
30
2E-16
41
1
10
52.4582667529886
20
-2.71716250192918
30
1E-16
41
1
10
52.4680940507692
20
-2.70179770267779
30
1E-16
41
1
10
52.4900448794414
20
-2.67161073879353
30
0
41
1
10
52.5021665313546
20
-2.65678785101201
30
0
41
1
10
52.5223193731885
20
-2.63507957341324
30
0
41
1
10
52.5293868306346
20
-2.6279122768004
30
-1E-16
41
1
10
52.5441438351916
20
-2.61386729915026
30
-1E-16
41
1
10
52.5517888288219
20
-2.6070298155723
30
-1E-16
41
1
10
52.5913713367442
20
-2.57380850842796
30
-2E-16
41
1
10
52.6273554704781
20
-2.55030630554546
30
2E-16
41
1
10
52.6783353643783
20
-2.52554898283159
30
1E-16
41
1
10
52.6888323340311
20
-2.52083420224705
30
1E-16
41
1
10
52.7100395596623
20
-2.51204183372505
30
1E-16
41
1
10
52.7423121846449
20
-2.49973735764277
30
1E-16
41
1
10
52.7759054438566
20
-2.48998447324635
30
1E-16
41
1
10
52.821775274439
20
-2.47909304637449
30
0
41
1
10
52.8453581500249
20
-2.47469900451446
30
0
41
1
10
52.8923502778703
20
-2.46801170070498
30
0
41
1
10
52.9158880120256
20
-2.46567783854562
30
0
41
1
10
52.9630342890711
20
-2.4627193578807
30
0
41
1
10
52.9866428626467
20
-2.46209562346476
30
0
41
1
10
53.0339209466434
20
-2.46231992659636
30
0
41
1
10
53.0576674475648
20
-2.46317424084978
30
0
41
1
10
53.1284157291107
20
-2.46763082286634
30
0
41
1
10
53.1746561233701
20
-2.47305915260159
30
0
41
1
10
53.2658051251651
20
-2.48735361354309
30
1E-16
41
1
10
53.3107072377604
20
-2.49623640091011
30
1E-16
41
1
10
53.3772785400608
20
-2.51148250549738
30
1E-16
41
1
10
53.3993376378146
20
-2.51688759935695
30
1E-16
41
1
10
53.4432197632365
20
-2.52826036889735
30
2E-16
41
1
10
53.4650710412421
20
-2.53423652775962
30
2E-16
41
1
10
53.5300667275392
20
-2.55283117141462
30
2E-16
41
1
10
53.572636265861
20
-2.56609945726529
30
-2E-16
41
1
10
53.6985308362239
20
-2.60777928755823
30
-1E-16
41
1
10
53.7800526914459
20
-2.63804509908266
30
0
41
1
10
53.9399410772578
20
-2.70084970931936
30
1E-16
41
1
10
54.0183119640079
20
-2.73338543960966
30
2E-16
41
1
10
54.0956722933244
20
-2.76615860414725
30
-2E-16
0
SPLINE
5
EA
100
AcDbEntity
8
1
62
256
6
ByLayer
370
18
48
1
60
0
100
AcDbSpline
70
4
71
3
72
14
73
10
40
0
40
0
40
0
40
0
40
0.25
40
0.25
40
0.5
40
0.5
40
0.75
40
0.75
40
1
40
1
40
1
40
1
41
1
10
54.09567229332
20
-2.76615860414748
30
-2E-16
41
1
10
54.1754625236377
20
-2.79996117931489
30
-1E-16
41
1
10
54.2542327663445
20
-2.83355714533297
30
0
41
1
10
54.4094941776389
20
-2.90023417348044
30
1E-16
41
1
10
54.4860001918453
20
-2.93330551243668
30
2E-16
41
1
10
54.6362852703409
20
-2.99891287109327
30
-1E-16
41
1
10
54.7100061320397
20
-3.03147897415241
30
0
41
1
10
54.8557859560929
20
-3.09488219105077
30
-1E-16
41
1
10
54.927848903603
20
-3.12570984157
30
0
41
1
10
54.9999999999998
20
-3.15495625819705
30
1E-16
0
SPLINE
5
EB
100
AcDbEntity
8
1
62
256
6
ByLayer
370
18
48
1
60
0
100
AcDbSpline
70
4
71
3
72
16
73
12
40
0
40
0
40
0
40
0
40
0.250000000000016
40
0.250000000000016
40
0.375000000000013
40
0.375000000000013
40
0.50000000000001
40
0.50000000000001
40
0.750000000000005
40
0.750000000000005
40
1
40
1
40
1
40
1
41
1
10
55.0000000000015
20
-2.17335003911188
30
2E-16
41
1
10
54.9094764738725
20
-2.11012883299898
30
1E-16
41
1
10
54.8190881210471
20
-2.04519919414614
30
-1E-16
41
1
10
54.6811729212466
20
-1.94815382512405
30
1E-16
41
1
10
54.634819503232
20
-1.9158608969062
30
0
41
1
10
54.5410650031796
20
-1.85176559865201
30
-1E-16
41
1
10
54.493665309207
20
-1.8199631518313
30
-2E-16
41
1
10
54.3500685646627
20
-1.72519829246892
30
0
41
1
10
54.2525530862504
20
-1.66279170365638
30
-1E-16
41
1
10
54.0545685130741
20
-1.5392038474688
30
1E-16
41
1
10
53.9541093737176
20
-1.47800971107756
30
-1E-16
41
1
10
53.8524580371271
20
-1.41723153634868
30
2E-16
0
SPLINE
5
EC
100
AcDbEntity
8
1
62
256
6
ByLayer
370
18
48
1
60
0
100
AcDbSpline
70
4
71
3
72
51
73
47
40
0
40
0
40
0
40
0
40
0.062500000000004
40
0.062500000000004
40
0.125000000000008
40
0.125000000000008
40
0.140625000000006
40
0.140625000000006
40
0.156250000000005
40
0.156250000000005
40
0.187500000000002
40
0.187500000000002
40
0.218749999999999
40
0.218749999999999
40
0.234374999999997
40
0.234374999999997
40
0.249999999999996
40
0.249999999999996
40
0.312499999999965
40
0.312499999999965
40
0.328124999999965
40
0.328124999999965
40
0.343749999999965
40
0.374999999999965
40
0.374999999999965
40
0.406249999999965
40
0.406249999999965
40
0.437499999999965
40
0.437499999999965
40
0.468749999999965
40
0.468749999999965
40
0.499999999999965
40
0.499999999999965
40
0.562499999999965
40
0.562499999999965
40
0.624999999999965
40
0.624999999999965
40
0.656249999999966
40
0.656249999999966
40
0.687499999999966
40
0.687499999999966
40
0.749999999999966
40
0.749999999999966
40
0.874999999999983
40
0.874999999999983
40
1
40
1
40
1
40
1
41
1
10
52.3887205048267
20
0.538895777707097
30
1E-16
41
1
10
52.3887205045791
20
0.586016789987241
30
0
41
1
10
52.3915682114109
20
0.632470515359302
30
-1E-16
41
1
10
52.4037130610682
20
0.723936826595178
30
1E-16
41
1
10
52.4129887796793
20
0.768952909479992
30
0
41
1
10
52.4296273734369
20
0.824164480910355
30
-2E-16
41
1
10
52.4332106035329
20
0.835153316236614
30
-2E-16
41
1
10
52.4409304388092
20
0.857017254200258
30
2E-16
41
1
10
52.4450763449194
20
0.867911286594989
30
2E-16
41
1
10
52.4582667529886
20
0.900053644363538
30
1E-16
41
1
10
52.4680940507692
20
0.920869127147
30
1E-16
41
1
10
52.4900448794413
20
0.961168257596171
30
0
41
1
10
52.5021665313545
20
0.98065288330605
30
-1E-16
41
1
10
52.5223193731885
20
1.00876119326347
30
-1E-16
41
1
10
52.5293868306346
20
1.01796818134721
30
-2E-16
41
1
10
52.5441438351915
20
1.03586856732653
30
-2E-16
41
1
10
52.551788828822
20
1.04451119510676
30
2E-16
41
1
10
52.5913713367442
20
1.08617028091092
30
1E-16
41
1
10
52.6273554704781
20
1.11455530606165
30
1E-16
41
1
10
52.6783353643783
20
1.14335681220538
30
0
41
1
10
52.688832334031
20
1.14877515064475
30
0
41
1
10
52.7100395596622
20
1.15875397101158
30
-1E-16
41
1
10
52.7423121846449
20
1.17251882982296
30
-1E-16
41
1
10
52.7759054438566
20
1.18286065783073
30
-1E-16
41
1
10
52.821775274439
20
1.19387569243881
30
-1E-16
41
1
10
52.8453581500248
20
1.19799502578022
30
-1E-16
41
1
10
52.8923502778703
20
1.2035871474439
30
-2E-16
41
1
10
52.9158880120256
20
1.20510325859905
30
-2E-16
41
1
10
52.9630342890711
20
1.20598158184231
30
-2E-16
41
1
10
52.9866428626467
20
1.20534240657221
30
-2E-16
41
1
10
53.0339209466434
20
1.20220783448698
30
-2E-16
41
1
10
53.0576674475648
20
1.19969971652427
30
-1E-16
41
1
10
53.1284157291108
20
1.18980472728811
30
-1E-16
41
1
10
53.1746561233701
20
1.18014917248422
30
-1E-16
41
1
10
53.2658051251651
20
1.1564182186529
30
0
41
1
10
53.3107072377604
20
1.14232124668476
30
0
41
1
10
53.3772785400608
20
1.11856517665868
30
0
41
1
10
53.3993376378146
20
1.11020799719105
30
1E-16
41
1
10
53.4432197632364
20
1.09270250747878
30
1E-16
41
1
10
53.4650710412421
20
1.08354127050927
30
1E-16
41
1
10
53.5300667275391
20
1.05508545278079
30
2E-16
41
1
10
53.572636265861
20
1.03484101714068
30
-2E-16
41
1
10
53.6985308362238
20
0.971029883033196
30
-1E-16
41
1
10
53.780052691446
20
0.924401895269881
30
1E-16
41
1
10
53.9399410772578
20
0.825594044192854
30
-2E-16
41
1
10
54.0183119640079
20
0.773421859613762
30
0
41
1
10
54.0956722933244
20
0.719373127422585
30
1E-16
0
SPLINE
5
ED
100
AcDbEntity
8
1
62
256
6
ByLayer
370
18
48
1
60
0
100
AcDbSpline
70
4
71
3
72
14
73
10
40
0
40
0
40
0
40
0
40
0.25
40
0.25
40
0.5
40
0.5
40
0.75
40
0.75
40
1
40
1
40
1
40
1
41
1
10
54.09567229332
20
0.719373127426024
30
1E-16
41
1
10
54.1754625236377
20
0.66362671543402
30
2E-16
41
1
10
54.2542327663446
20
0.606583427887642
30
-1E-16
41
1
10
54.4094941776389
20
0.489596832689415
30
2E-16
41
1
10
54.4860001918454
20
0.429671859511643
30
-1E-16
41
1
10
54.6362852703408
20
0.306355424705003
30
2E-16
41
1
10
54.7100061320397
20
0.242891740713446
30
-1E-16
41
1
10
54.8557859560929
20
0.113792141587339
30
2E-16
41
1
10
54.927848903603
20
0.0481608568240119
30
-1E-16
41
1
10
54.9999999999998
20
-0.0174263274872715
30
0
0
SPLINE
5
EE
100
AcDbEntity
8
1
62
256
6
ByLayer
370
18
48
1
60
0
100
AcDbSpline
70
4
71
3
72
8
73
4
40
0
40
0
40
0
40
0
40
1
40
1
40
1
40
1
41
0.991427962243179
10
55
20
-2.00992402307357
30
-2E-16
41
0.994192810360879
10
55
20
-2.02035371046491
30
-2E-16
41
0.997050156279819
10
55
20
-2.03060819465838
30
-1E-16
41
1
10
55
20
-2.04068613195071
30
-1E-16
0
SPLINE
5
EF
100
AcDbEntity
8
1
62
256
6
ByLayer
370
18
48
1
60
0
100
AcDbSpline
70
4
71
3
72
22
73
18
40
0
40
0
40
0
40
0
40
0.125
40
0.125
40
0.250000000000001
40
0.250000000000001
40
0.375000000000001
40
0.375000000000001
40
0.5
40
0.5
40
0.625
40
0.625
40
0.75
40
0.75
40
0.875
40
0.875
40
1
40
1
40
1
40
1
41
1
10
55
20
-0.719530769262661
30
-1E-16
41
1
10
55
20
-0.772326385481762
30
0
41
1
10
55
20
-0.827002268403277
30
2E-16
41
1
10
55
20
-0.939035737207206
30
0
41
1
10
55
20
-0.996391043069764
30
1E-16
41
1
10
55
20
-1.11243654398726
30
-1E-16
41
1
10
55
20
-1.17112310457688
30
1E-16
41
1
10
55
20
-1.28830751154652
30
-1E-16
41
1
10
55
20
-1.34680087319856
30
0
41
1
10
55
20
-1.46202258045398
30
-1E-16
41
1
10
55
20
-1.51874636620755
30
0
41
1
10
55
20
-1.62893877880558
30
-2E-16
41
1
10
55
20
-1.68240359834968
30
-1E-16
41
1
10
55.0000000000001
20
-1.78480274623126
30
2E-16
41
1
10
55.0000000000001
20
-1.83373464987744
30
-1E-16
41
1
10
55
20
-1.926103081512
30
1E-16
41
1
10
55
20
-1.96953882935824
30
2E-16
41
1
10
55
20
-2.00992402307358
30
-2E-16
0
SPLINE
5
F0
100
AcDbEntity
8
1
62
256
6
ByLayer
370
18
48
1
60
0
100
AcDbSpline
70
4
71
3
72
34
73
30
40
0
40
0
40
0
40
0
40
0.124999999999986
40
0.124999999999986
40
0.249999999999971
40
0.249999999999971
40
0.312499999999964
40
0.312499999999964
40
0.374999999999957
40
0.374999999999957
40
0.499999999999942
40
0.499999999999942
40
0.56249999999994
40
0.56249999999994
40
0.593749999999939
40
0.593749999999939
40
0.624999999999938
40
0.624999999999938
40
0.749999999999942
40
0.749999999999942
40
0.781249999999948
40
0.781249999999948
40
0.812499999999953
40
0.812499999999953
40
0.874999999999969
40
0.874999999999969
40
0.937499999999984
40
0.937499999999984
40
1
40
1
40
1
40
1
41
1
10
53.8524580371271
20
-1.41723153634868
30
2E-16
41
1
10
53.7621843239058
20
-1.36325613671667
30
1E-16
41
1
10
53.6719813968648
20
-1.30861153712232
30
0
41
1
10
53.4939549049346
20
-1.19493994903829
30
1E-16
41
1
10
53.4061481532868
20
-1.1358912041272
30
0
41
1
10
53.277808987183
20
-1.04167104853727
30
2E-16
41
1
10
53.2355208541957
20
-1.00925912620306
30
1E-16
41
1
10
53.1528110423774
20
-0.94251392160038
30
0
41
1
10
53.1123730436686
20
-0.90817450624445
30
-1E-16
41
1
10
52.9942512802274
20
-0.801789757915429
30
1E-16
41
1
10
52.9197454297939
20
-0.726397689502988
30
-1E-16
41
1
10
52.8160770665436
20
-0.604673813912427
30
1E-16
41
1
10
52.7828662077509
20
-0.562661309962806
30
0
41
1
10
52.7352794722311
20
-0.497232305551023
30
-2E-16
41
1
10
52.7197543332819
20
-0.474967177324004
30
-2E-16
41
1
10
52.6897119305237
20
-0.429940401831033
30
1E-16
41
1
10
52.6751837088322
20
-0.40716884963399
30
1E-16
41
1
10
52.6050200346337
20
-0.292008880643948
30
-2E-16
41
1
10
52.5567859055091
20
-0.195730240651642
30
0
41
1
10
52.5066765657631
20
-0.0699457134444117
30
2E-16
41
1
10
52.4971663106867
20
-0.0445157133225109
30
1E-16
41
1
10
52.479195287611
20
0.0069061544509736
30
0
41
1
10
52.4707151214678
20
0.0329642829059082
30
-1E-16
41
1
10
52.447059171704
20
0.11150560898713
30
2E-16
41
1
10
52.4336977067844
20
0.164168511402636
30
1E-16
41
1
10
52.411882249537
20
0.27010649280291
30
-2E-16
41
1
10
52.4034255562547
20
0.323381182122432
30
1E-16
41
1
10
52.3918488514213
20
0.430602437602602
30
-1E-16
41
1
10
52.3887205051115
20
0.48454775662546
30
2E-16
41
1
10
52.3887205048258
20
0.538895777707808
30
1E-16
0
SPLINE
5
F1
100
AcDbEntity
8
1
62
256
6
ByLayer
370
18
48
1
60
0
100
AcDbSpline
70
4
71
3
72
32
73
28
40
0
40
0
40
0
40
0
40
0.0171886023637191
40
0.0799439566351611
40
0.142699310906603
40
0.205454665178045
40
0.268210019449487
40
0.299587696585208
40
0.330965373720929
40
0.36234305085665
40
0.393720727992371
40
0.456476082263813
40
0.487853759399534
40
0.519231436535255
40
0.550609113670976
40
0.581986790806697
40
0.644742145078139
40
0.67611982221386
40
0.707497499349581
40
0.738875176485302
40
0.770252853621023
40
0.833008207892465
40
0.864385885028186
40
0.895763562163907
40
0.927141239299628
40
0.958518916435349
40
1
40
1
40
1
40
1
41
1
10
59.5591100410603
20
0.911522197165141
30
-1E-16
41
1
10
59.6019066940408
20
0.875511427130192
30
-1E-16
41
1
10
59.8009533470247
20
0.707325239760905
30
-1E-16
41
1
10
60.1562499999752
20
0.402098211743521
30
-1E-16
41
1
10
60.6250000057034
20
-0.004678621421931
30
0
41
1
10
61.0937499772101
20
-0.409052780091002
30
1E-16
41
1
10
61.4843749962219
20
-0.738746194358384
30
0
41
1
10
61.7968750113592
20
-0.995116126230442
30
1E-16
41
1
10
62.0312500168762
20
-1.18310250787761
30
1E-16
41
1
10
62.2656250107527
20
-1.36545275678318
30
1E-16
41
1
10
62.5781249960178
20
-1.59934514716164
30
2E-16
41
1
10
62.8906249848641
20
-1.81874888068091
30
-2E-16
41
1
10
63.2031249910405
20
-2.02043707383254
30
-2E-16
41
1
10
63.437500000002
20
-2.16257603711264
30
2E-16
41
1
10
63.6718750089515
20
-2.29450399517521
30
0
41
1
10
63.9843750141687
20
-2.45530940127429
30
0
41
1
10
64.2968749992622
20
-2.59313702608759
30
1E-16
41
1
10
64.6093749977487
20
-2.70614395707022
30
-1E-16
41
1
10
64.8437499994164
20
-2.77821886683682
30
1E-16
41
1
10
65.0781249999905
20
-2.83685375338294
30
0
41
1
10
65.390625000009
20
-2.89638292699323
30
0
41
1
10
65.7031249999746
20
-2.92824173482143
30
0
41
1
10
66.0156249999927
20
-2.9315840916108
30
0
41
1
10
66.2500000000049
20
-2.919856182975
30
0
41
1
10
66.4843749999877
20
-2.89380552966009
30
0
41
1
10
66.7439057384158
20
-2.84905702107889
30
0
41
1
10
66.9253114773747
20
-2.80514339265417
30
0
41
1
10
67.0285922152308
20
-2.77615493835458
30
0
0
SPLINE
5
F2
100
AcDbEntity
8
1
62
256
6
ByLayer
370
18
48
1
60
0
100
AcDbSpline
70
4
71
3
72
25
73
21
40
0
40
0
40
0
40
0
40
0.000633589394804
40
0.0719379473213585
40
0.143242305247913
40
0.214546663174468
40
0.285851021101022
40
0.357155379027577
40
0.428459736954131
40
0.499764094880686
40
0.57106845280724
40
0.642372810733795
40
0.713677168660349
40
0.784981526586904
40
0.856285884513458
40
0.891938063476736
40
0.927590242440013
40
0.96324242140329
40
0.998894600366568
40
1
40
1
40
1
40
1
41
1
10
55.9333348263997
20
3.34087168878912
30
0
41
1
10
55.9347232175996
20
3.34114992183586
30
0
41
1
10
56.092361609011
20
3.3726700162299
30
0
41
1
10
56.4062500051735
20
3.41947115411733
30
0
41
1
10
56.8749999962412
20
3.44082034303159
30
0
41
1
10
57.343750009862
20
3.41310325152938
30
0
41
1
10
57.8124999975397
20
3.33636272568387
30
0
41
1
10
58.2812499999797
20
3.21144370334565
30
0
41
1
10
58.7500000000118
20
3.03983491318439
30
0
41
1
10
59.2187499999729
20
2.82396919758483
30
0
41
1
10
59.687500000013
20
2.56657075330463
30
2E-16
41
1
10
60.1562499999752
20
2.27158177177398
30
0
41
1
10
60.6250000057035
20
1.94310363543053
30
-1E-16
41
1
10
61.093749977211
20
1.5862985799302
30
-2E-16
41
1
10
61.4843749962207
20
1.2697811442182
30
1E-16
41
1
10
61.7968750113603
20
1.00812632066419
30
-1E-16
41
1
10
62.0312500168763
20
0.808477749492937
30
-1E-16
41
1
10
62.2656250107514
20
0.60622953139773
30
-1E-16
41
1
10
62.4242972772769
20
0.468145561146969
30
0
41
1
10
62.5048445478024
20
0.397894195028584
30
0
41
1
10
62.5072668217041
20
0.395781410749635
30
0
0
SPLINE
5
F3
100
AcDbEntity
8
1
62
256
6
ByLayer
370
18
48
1
60
0
100
AcDbSpline
70
4
71
3
72
32
73
28
40
0
40
0
40
0
40
0
40
0.0159879591683206
40
0.0792557180924514
40
0.142523477016582
40
0.205791235940713
40
0.269058994864844
40
0.300692874326909
40
0.332326753788975
40
0.36396063325104
40
0.395594512713105
40
0.458862271637236
40
0.490496151099302
40
0.522130030561367
40
0.553763910023432
40
0.585397789485498
40
0.648665548409629
40
0.680299427871694
40
0.711933307333759
40
0.743567186795824
40
0.77520106625789
40
0.838468825182021
40
0.870102704644086
40
0.901736584106152
40
0.933370463568217
40
0.965004343030283
40
1
40
1
40
1
40
1
41
0.99291650596986
10
59.5690865401251
20
0.903238128263344
30
-1E-16
41
0.992938514479171
10
59.6085707408415
20
0.870488710975245
30
-1E-16
41
0.993048486281075
10
59.8042892801909
20
0.707526073382514
30
-1E-16
41
0.993253792712672
10
60.1562499999753
20
0.409580017927972
30
-1E-16
41
0.993541416403193
10
60.6250000057035
20
0.0085427842703041
30
0
41
0.993841434576328
10
61.0937499772103
20
-0.390362133580254
30
0
41
0.994124576853773
10
61.4843749962217
20
-0.715752867245587
30
-1E-16
41
0.994384043329932
10
61.7968750113594
20
-0.968864353337482
30
0
41
0.994612762464725
10
62.0312500168763
20
-1.15448244469476
30
0
41
0.994844528815841
10
62.2656250107526
20
-1.33464301746926
30
0
41
0.995115087854466
10
62.5781249960179
20
-1.56599326104345
30
1E-16
41
0.995387957353123
10
62.8906249848641
20
-1.78325046831371
30
2E-16
41
0.995661861175538
10
63.2031249910406
20
-1.98323177629082
30
2E-16
41
0.995899246065368
10
63.437500000002
20
-2.12428403539781
30
1E-16
41
0.996136115903662
10
63.6718750089515
20
-2.25538402677687
30
0
41
0.996408138047563
10
63.9843750141688
20
-2.41551948614639
30
1E-16
41
0.996677728264168
10
64.2968749992622
20
-2.55318099164327
30
0
41
0.996943653555049
10
64.6093749977487
20
-2.66652967976626
30
0
41
0.997170321316602
10
64.8437499994164
20
-2.73912181545759
30
0
41
0.997392939394948
10
65.0781249999905
20
-2.79854885986166
30
0
41
0.997644116944899
10
65.3906250000091
20
-2.85951761572937
30
0
41
0.997888156220634
10
65.7031249999746
20
-2.89329422955472
30
0
41
0.998123822638022
10
66.0156249999927
20
-2.89900236548752
30
0
41
0.998320484194013
10
66.2500000000049
20
-2.88929787758576
30
0
41
0.998509568431965
10
66.4843749999878
20
-2.86548299220974
30
0
41
0.998671142983567
10
66.7270637521045
20
-2.8261385972104
30
0
41
0.998776316490761
10
66.891626373501
20
-2.78918181709984
30
0
41
0.998830279157669
10
66.9780577472351
20
-2.76699616058458
30
0
0
SPLINE
5
F4
100
AcDbEntity
8
1
62
256
6
ByLayer
370
18
48
1
60
0
100
AcDbSpline
70
4
71
3
72
15
73
11
40
0
40
0
40
0
40
0
40
0.129487000932577
40
0.258974001865153
40
0.38846100279773
40
0.517948003730306
40
0.647435004662883
40
0.77692200559546
40
0.906409006528036
40
1
40
1
40
1
40
1
41
1
10
55
20
3.05795596886136
30
-1E-16
41
1
10
55.1562499605942
20
2.98244219306852
30
-1E-16
41
1
10
55.468750003786
20
2.81818465470644
30
1E-16
41
1
10
55.93749999776
20
2.53496228510932
30
-2E-16
41
1
10
56.4062500051735
20
2.21866974861979
30
1E-16
41
1
10
56.8749999962412
20
1.87354075231082
30
1E-16
41
1
10
57.343750009862
20
1.50432794566257
30
0
41
1
10
57.8124999975397
20
1.1161373331623
30
0
41
1
10
58.2379348320128
20
0.751660612000762
30
1E-16
41
1
10
58.5071196644815
20
0.517296601045842
30
1E-16
41
1
10
58.6200544967658
20
0.418693155045872
30
1E-16
0
SPLINE
5
F5
100
AcDbEntity
8
1
62
256
6
ByLayer
370
18
48
1
60
0
100
AcDbSpline
70
4
71
3
72
27
73
23
40
0
40
0
40
0
40
0
40
0.0333572477714518
40
0.0777984977456072
40
0.122239747719763
40
0.166680997693918
40
0.211122247668074
40
0.300004747616384
40
0.34444599759054
40
0.388887247564696
40
0.43332849753885
40
0.477769747513006
40
0.566652247461317
40
0.611093497435473
40
0.655534747409628
40
0.699975997383783
40
0.744417247357939
40
0.83329974730625
40
0.877740997280405
40
0.922182247254561
40
0.966623497228716
40
1
40
1
40
1
40
1
41
0.995302689239553
10
62.7928653617474
20
1.32095416310666
30
1E-16
41
0.995353902443163
10
62.8515017101299
20
1.27443459821686
30
1E-16
41
0.995473511758212
10
62.9882534532944
20
1.16480929692074
30
1E-16
41
0.995661861175538
10
63.2031249910406
20
0.988885107938966
30
-1E-16
41
0.995899246065368
10
63.437500000002
20
0.792908813491426
30
-1E-16
41
0.996136115903662
10
63.6718750089515
20
0.59400868407925
30
-1E-16
41
0.996408138047563
10
63.9843750141688
20
0.326493687816317
30
1E-16
41
0.996677728264168
10
64.2968749992622
20
0.0568262619219409
30
-1E-16
41
0.996943653555049
10
64.6093749977487
20
-0.211374324956056
30
1E-16
41
0.997170321316602
10
64.8437499994164
20
-0.411203446518257
30
1E-16
41
0.997392939394948
10
65.0781249999905
20
-0.60839539316801
30
1E-16
41
0.997644116944899
10
65.3906250000091
20
-0.866113137802839
30
-2E-16
41
0.997888156220634
10
65.7031249999746
20
-1.11485396016594
30
-1E-16
41
0.998123822638022
10
66.0156249999927
20
-1.35091413300501
30
1E-16
41
0.998320484194013
10
66.2500000000049
20
-1.52104853767136
30
0
41
0.998509568431965
10
66.4843749999878
20
-1.68310109073795
30
-1E-16
41
0.998717630805658
10
66.7968750004193
20
-1.88687739206863
30
0
41
0.998913830935845
10
67.1093750022727
20
-2.07122642801283
30
0
41
0.999096971358176
10
67.4218749959179
20
-2.23331014794697
30
-1E-16
41
0.999244337398317
10
67.6562499926147
20
-2.34323368449472
30
-1E-16
41
0.999369285227368
10
67.8711762789428
20
-2.43258475969784
30
-1E-16
41
0.999433863316588
10
68.0079838720667
20
-2.48271701962565
30
0
41
0.999460290011913
10
68.0666605919694
20
-2.50295954520393
30
1E-16
0
SPLINE
5
F6
100
AcDbEntity
8
1
62
256
6
ByLayer
370
18
48
1
60
0
100
AcDbSpline
70
4
71
3
72
20
73
16
40
0
40
0
40
0
40
0
40
0.0771901381893293
40
0.154380276378659
40
0.231570414567988
40
0.308760552757317
40
0.385950690946646
40
0.463140829135975
40
0.540330967325305
40
0.617521105514634
40
0.694711243703963
40
0.771901381893292
40
0.849091520082622
40
0.926281658271951
40
1
40
1
40
1
40
1
41
1
10
55
20
1.75264304562242
30
-1E-16
41
1
10
55.156249960631
20
1.6775812933449
30
1E-16
41
1
10
55.4687500037686
20
1.52085326096187
30
0
41
1
10
55.9374999977633
20
1.2675199290546
30
1E-16
41
1
10
56.4062500051733
20
0.99956545511273
30
-1E-16
41
1
10
56.8749999962416
20
0.720271898889905
30
1E-16
41
1
10
57.3437500098613
20
0.433093607695867
30
-1E-16
41
1
10
57.8124999975409
20
0.141594483937069
30
1E-16
41
1
10
58.281249999979
20
-0.150479294617384
30
-1E-16
41
1
10
58.7500000000118
20
-0.439332088057171
30
1E-16
41
1
10
59.2187499999728
20
-0.721135950924378
30
-1E-16
41
1
10
59.6875000000131
20
-0.991941617288347
30
1E-16
41
1
10
60.1562499999751
20
-1.24801415362489
30
-2E-16
41
1
10
60.6179723177578
20
-1.48183151002021
30
-1E-16
41
1
10
60.9234446118321
20
-1.62242026754231
30
0
41
1
10
61.0726669223603
20
-1.68717113956464
30
0
0
SPLINE
5
F7
100
AcDbEntity
8
1
62
256
6
ByLayer
370
18
48
1
60
0
100
AcDbSpline
70
4
71
3
72
27
73
23
40
0
40
0
40
0
40
0
40
0.0024233586606067
40
0.0650816141012866
40
0.127739869541966
40
0.190398124982646
40
0.253056380423326
40
0.315714635864006
40
0.378372891304686
40
0.441031146745366
40
0.503689402186045
40
0.566347657626725
40
0.629005913067405
40
0.691664168508085
40
0.754322423948765
40
0.785651551669105
40
0.816980679389445
40
0.848309807109785
40
0.879638934830124
40
0.942297190270804
40
0.973626317991144
40
1
40
1
40
1
40
1
41
0.991526444876243
10
55.9193828925279
20
0.62125955557017
30
-1E-16
41
0.991527441197926
10
55.9254260438203
20
0.616184813819262
30
-1E-16
41
0.991554401669384
10
56.0877165629322
20
0.479858888351656
30
-1E-16
41
0.991618155330773
10
56.4062500051737
20
0.210127031801909
30
0
41
0.991740836816679
10
56.8749999962409
20
-0.187432302883122
30
0
41
0.991890546766606
10
57.3437500098623
20
-0.580003085203866
30
0
41
0.992065453712644
10
57.8124999975392
20
-0.961907684011298
30
0
41
0.992263719785686
10
58.28124999998
20
-1.32742436741512
30
0
41
0.99248351588923
10
58.7500000000118
20
-1.67095754900924
30
-1E-16
41
0.992723012148153
10
59.218749999973
20
-1.98721023610594
30
2E-16
41
0.992980379277389
10
59.687500000013
20
-2.27087677289181
30
0
41
0.993253792712672
10
60.1562499999753
20
-2.51747225489847
30
-1E-16
41
0.993541416403193
10
60.6250000057035
20
-2.7223926696808
30
-1E-16
41
0.993841434576328
10
61.0937499772103
20
-2.88229628432706
30
1E-16
41
0.994124576853773
10
61.4843749962217
20
-2.97539700945597
30
0
41
0.994384043329932
10
61.7968750113594
20
-3.02487517904623
30
0
41
0.994612762464725
10
62.0312500168763
20
-3.04926639655305
30
0
41
0.994844528815841
10
62.2656250107526
20
-3.06046392884782
30
0
41
0.995115087854466
10
62.5781249960179
20
-3.05743061579555
30
0
41
0.995387957353123
10
62.8906249848641
20
-3.02799221841223
30
0
41
0.995651030076647
10
63.1907709314137
20
-2.97432580325867
30
0
41
0.995795218984582
10
63.3346745899836
20
-2.94123495822976
30
0
41
0.995861667872467
10
63.4004466355101
20
-2.92458682691548
30
0
0
SPLINE
5
F8
100
AcDbEntity
8
1
62
256
6
ByLayer
370
18
48
1
60
0
100
AcDbSpline
70
4
71
3
72
27
73
23
40
0
40
0
40
0
40
0
40
0.0470803888919546
40
0.0917282503288521
40
0.13637611176575
40
0.181023973202647
40
0.225671834639545
40
0.31496755751334
40
0.359615418950238
40
0.404263280387135
40
0.448911141824033
40
0.493559003260931
40
0.582854726134726
40
0.627502587571624
40
0.672150449008521
40
0.716798310445419
40
0.761446171882317
40
0.850741894756112
40
0.895389756193009
40
0.940037617629907
40
0.984685479066805
40
1
40
1
40
1
40
1
41
1
10
62.721605653937
20
1.37694908323954
30
1E-16
41
1
10
62.8039870974175
20
1.31102179125128
30
1E-16
41
1
10
62.9644935404091
20
1.18061735521317
30
1E-16
41
1
10
63.2031249910405
20
0.981962195211452
30
-1E-16
41
1
10
63.437500000002
20
0.782695472183889
30
-1E-16
41
1
10
63.6718750089515
20
0.580561513218811
30
0
41
1
10
63.9843750141687
20
0.30897916346791
30
2E-16
41
1
10
64.2968749992622
20
0.035444495976634
30
-1E-16
41
1
10
64.6093749977487
20
-0.236357678505897
30
1E-16
41
1
10
64.8437499994164
20
-0.438815623001318
30
1E-16
41
1
10
65.0781249999905
20
-0.63845151245178
30
2E-16
41
1
10
65.390625000009
20
-0.899038960324646
30
-1E-16
41
1
10
65.7031249999746
20
-1.15024180207743
30
0
41
1
10
66.0156249999927
20
-1.38830903806212
30
1E-16
41
1
10
66.2500000000049
20
-1.55975211844114
30
1E-16
41
1
10
66.4843749999877
20
-1.72284740763439
30
0
41
1
10
66.7968750004193
20
-1.92757351301572
30
1E-16
41
1
10
67.1093750022726
20
-2.11235489737436
30
1E-16
41
1
10
67.421874995918
20
-2.27434808251553
30
0
41
1
10
67.6562499926147
20
-2.38394865254898
30
0
41
1
10
67.8392974032737
20
-2.45958078776275
30
0
41
1
10
67.9442198126504
20
-2.49888051144859
30
1E-16
41
1
10
67.971017220762
20
-2.5086519262874
30
1E-16
0
SPLINE
5
F9
100
AcDbEntity
8
1
62
256
6
ByLayer
370
18
48
1
60
0
100
AcDbSpline
70
4
71
3
72
12
73
8
40
0
40
0
40
0
40
0
40
0.220128815735191
40
0.440257631470382
40
0.660386447205573
40
0.880515262940764
40
1
40
1
40
1
40
1
41
1
10
55
20
-0.719530769262661
30
-1E-16
41
1
10
55.156249960631
20
-0.812233102859835
30
1E-16
41
1
10
55.4687500037686
20
-0.993549708337724
30
1E-16
41
1
10
55.9374999977633
20
-1.25005818188939
30
-2E-16
41
1
10
56.4062500051733
20
-1.48790085150887
30
-1E-16
41
1
10
56.8035616570994
20
-1.6711713586877
30
0
41
1
10
57.0446233209487
20
-1.7727195870203
30
0
41
1
10
57.1294349817917
20
-1.80718506783046
30
0
0
SPLINE
5
FA
100
AcDbEntity
8
1
62
256
6
ByLayer
370
18
48
1
60
0
100
AcDbSpline
70
4
71
3
72
14
73
10
40
0
40
0
40
0
40
0
40
0.5
40
0.5
40
0.75
40
0.75
40
0.875
40
0.875
40
1
40
1
40
1
40
1
41
1
10
67.1570078687288
20
-2.81246735733114
30
-1E-16
41
1
10
67.2851914057999
20
-2.84584656701071
30
0
41
1
10
67.4120272467745
20
-2.86452448699399
30
0
41
1
10
67.6029607140518
20
-2.86995220104376
30
0
41
1
10
67.666716680736
20
-2.86797674402513
30
-1E-16
41
1
10
67.7628820173825
20
-2.859056994339
30
0
41
1
10
67.7950717824525
20
-2.85508106159062
30
0
41
1
10
67.8594028402516
20
-2.84512075694497
30
0
41
1
10
67.8915527055875
20
-2.83913898633972
30
0
41
1
10
67.9237176151411
20
-2.83213956209116
30
0
0
SPLINE
5
FB
100
AcDbEntity
8
1
62
256
6
ByLayer
370
18
48
1
60
0
100
AcDbSpline
70
4
71
3
72
12
73
8
40
0
40
0
40
0
40
0
40
0.644239547483416
40
0.644239547483416
40
0.966359321225151
40
0.966359321225151
40
1
40
1
40
1
40
1
41
1
10
67.9237176151407
20
-2.83213956209119
30
0
41
1
10
68.013508940827
20
-2.812600601481
30
0
41
1
10
68.1018501916419
20
-2.78569663503544
30
0
41
1
10
68.2316148892476
20
-2.73479515665088
30
0
41
1
10
68.2744056164633
20
-2.71606753296211
30
0
41
1
10
68.321045887879
20
-2.69347488741621
30
0
41
1
10
68.3254508547261
20
-2.69131917578071
30
0
41
1
10
68.3298499483322
20
-2.68914438192164
30
0
0
SPLINE
5
FC
100
AcDbEntity
8
1
62
256
6
ByLayer
370
18
48
1
60
0
100
AcDbSpline
70
4
71
3
72
27
73
23
40
0
40
0
40
0
40
0
40
0.0583717838410653
40
0.120974268625012
40
0.183576753408959
40
0.246179238192907
40
0.308781722976854
40
0.371384207760801
40
0.433986692544748
40
0.496589177328695
40
0.559191662112642
40
0.621794146896589
40
0.684396631680537
40
0.746999116464484
40
0.778300358856457
40
0.809601601248431
40
0.840902843640404
40
0.872204086032378
40
0.934806570816325
40
0.966107813208298
40
0.997409055600272
40
1
40
1
40
1
40
1
41
1
10
55.9691783124277
20
0.579316416125977
30
-1E-16
41
1
10
56.1148688754529
20
0.455133477267594
30
-1E-16
41
1
10
56.416809442423
20
0.19602029372129
30
0
41
1
10
56.8749999962409
20
-0.197748767281752
30
0
41
1
10
57.3437500098624
20
-0.595477403779313
30
1E-16
41
1
10
57.8124999975391
20
-0.982304993827057
30
1E-16
41
1
10
58.28124999998
20
-1.35239944150646
30
1E-16
41
1
10
58.7500000000118
20
-1.70005639146987
30
0
41
1
10
59.218749999973
20
-2.01987673653633
30
-2E-16
41
1
10
59.6875000000129
20
-2.30645588915911
30
1E-16
41
1
10
60.1562499999752
20
-2.55522811153858
30
0
41
1
10
60.6250000057034
20
-2.76151404798787
30
0
41
1
10
61.0937499772101
20
-2.92192345154251
30
0
41
1
10
61.4843749962219
20
-3.01472066685838
30
0
41
1
10
61.7968750113592
20
-3.06348984780007
30
0
41
1
10
62.0312500168762
20
-3.0870847848791
30
0
41
1
10
62.2656250107527
20
-3.09723109530387
30
0
41
1
10
62.5781249960178
20
-3.09246950883158
30
0
41
1
10
62.8906249848641
20
-3.06086009884487
30
0
41
1
10
63.2031249910405
20
-3.00239926904399
30
0
41
1
10
63.3658417543542
20
-2.96273785547154
30
0
41
1
10
63.4504335146783
20
-2.93956353885668
30
0
41
1
10
63.4569002720169
20
-2.93777702434335
30
0
0
SPLINE
5
FD
100
AcDbEntity
8
1
62
256
6
ByLayer
370
18
48
1
60
0
100
AcDbSpline
70
4
71
3
72
17
73
13
40
0
40
0
40
0
40
0
40
0.104267799325502
40
0.208537920118807
40
0.312808040912111
40
0.417078161705415
40
0.52134828249872
40
0.625618403292024
40
0.729888524085328
40
0.834158644878633
40
0.938428765671937
40
1
40
1
40
1
40
1
41
0.991427962629775
10
55.0000104362986
20
-2.00993083185331
30
-2E-16
41
0.991433750735617
10
55.1562569182676
20
-2.11186800479306
30
1E-16
41
0.991461228759611
10
55.4687534827608
20
-2.30620756401284
30
1E-16
41
0.991524339048944
10
55.9374999977587
20
-2.56434104027707
30
-2E-16
41
0.991618155330773
10
56.4062500051737
20
-2.78546837060564
30
1E-16
41
0.991740836816679
10
56.8749999962409
20
-2.96611052493829
30
1E-16
41
0.991890546766606
10
57.3437500098623
20
-3.10337874755288
30
-1E-16
41
0.992065453712644
10
57.8124999975392
20
-3.19483640103916
30
0
41
0.992263719785686
10
58.28124999998
20
-3.23871253045519
30
0
41
0.99248351588923
10
58.7500000000118
20
-3.23384584917373
30
0
41
0.992690320700559
10
59.15477854718
20
-3.18736091775622
30
0
41
0.992824828028596
10
59.4033159026179
20
-3.13819264161337
30
0
41
0.992875741952802
10
59.4955863672153
20
-3.11714517008231
30
0
0
SPLINE
5
FE
100
AcDbEntity
8
1
62
256
6
ByLayer
370
18
48
1
60
0
100
AcDbSpline
70
4
71
3
72
12
73
8
40
0
40
0
40
0
40
0
40
0.5
40
0.5
40
0.75
40
0.75
40
1
40
1
40
1
40
1
41
1
10
67.9237176151407
20
2.83213956209119
30
0
41
1
10
68.0135089408269
20
2.812600601481
30
0
41
1
10
68.1018501916419
20
2.78569663503541
30
0
41
1
10
68.2316148892476
20
2.73479515665085
30
0
41
1
10
68.2744056164632
20
2.71606753296203
30
0
41
1
10
68.3588655589296
20
2.67515495923445
30
0
41
1
10
68.4006065354417
20
2.65292426831201
30
0
41
1
10
68.4413845201601
20
2.62915685413262
30
0
0
SPLINE
5
FF
100
AcDbEntity
8
1
62
256
6
ByLayer
370
18
48
1
60
0
100
AcDbSpline
70
4
71
3
72
17
73
13
40
0
40
0
40
0
40
0
40
0.102656395526876
40
0.205312791053752
40
0.307969186580628
40
0.410625582107504
40
0.513281977634381
40
0.615938373161257
40
0.718594768688133
40
0.821251164215009
40
0.923907559741885
40
1
40
1
40
1
40
1
41
1
10
55
20
-2.04068613195071
30
-1E-16
41
1
10
55.1562499605779
20
-2.14373060575443
30
1E-16
41
1
10
55.4687500037937
20
-2.34016421175065
30
2E-16
41
1
10
55.9374999977584
20
-2.60096292443012
30
-1E-16
41
1
10
56.4062500051737
20
-2.82421904433639
30
0
41
1
10
56.8749999962409
20
-3.00638028328109
30
-1E-16
41
1
10
57.3437500098624
20
-3.14449406764263
30
0
41
1
10
57.8124999975391
20
-3.23607116941406
30
0
41
1
10
58.28124999998
20
-3.27930391522119
30
0
41
1
10
58.7500000000118
20
-3.27301041116064
30
0
41
1
10
59.1783178574932
20
-3.22180324768357
30
0
41
1
10
59.4503857150274
20
-3.16417120483209
30
0
41
1
10
59.5662035725482
20
-3.13518890670818
30
0
0
SPLINE
5
100
100
AcDbEntity
8
1
62
256
6
ByLayer
370
18
48
1
60
0
100
AcDbSpline
70
4
71
3
72
8
73
4
40
0
40
0
40
0
40
0
40
1
40
1
40
1
40
1
41
0.991427962629775
10
55.0000104362986
20
-3.38459419449306
30
0
41
0.991432921613439
10
55.1338753691025
20
-3.36588931877308
30
0
41
0.991443716669898
10
55.2677421994398
20
-3.34167234439001
30
0
41
0.991457642353359
10
55.401611102298
20
-3.31198511528072
30
0
0
SPLINE
5
101
100
AcDbEntity
8
1
62
256
6
ByLayer
370
18
48
1
60
0
100
AcDbSpline
70
4
71
3
72
11
73
7
40
0
40
0
40
0
40
0
40
0.125240332388409
40
0.533778367259692
40
0.942316402130977
40
1
40
1
40
1
40
1
41
1
10
67.350025621377
20
2.75698051477005
30
1E-16
41
1
10
67.3739754129665
20
2.76188986672085
30
1E-16
41
1
10
67.4760502031325
20
2.78188167169751
30
0
41
1
10
67.6562499926147
20
2.81011117834191
30
0
41
1
10
67.8235308680457
20
2.82611202089248
30
0
41
1
10
67.9126867422043
20
2.83151851612377
30
0
41
1
10
67.9237176151404
20
2.83213956209113
30
0
0
SPLINE
5
102
100
AcDbEntity
8
1
62
256
6
ByLayer
370
18
48
1
60
0
100
AcDbSpline
70
4
71
3
72
14
73
10
40
0
40
0
40
0
40
0
40
0.500000000000015
40
0.500000000000015
40
0.750000000000008
40
0.750000000000008
40
0.875000000000004
40
0.875000000000004
40
1
40
1
40
1
40
1
41
1
10
67.1570078687288
20
2.81246735733114
30
1E-16
41
1
10
67.2851914057999
20
2.84584656701071
30
0
41
1
10
67.4120272467746
20
2.86452448699399
30
0
41
1
10
67.6029607140518
20
2.86995220104376
30
0
41
1
10
67.666716680736
20
2.86797674402513
30
1E-16
41
1
10
67.7628820173826
20
2.859056994339
30
0
41
1
10
67.7950717824525
20
2.85508106159062
30
0
41
1
10
67.8594028402516
20
2.84512075694494
30
0
41
1
10
67.8915527055875
20
2.83913898633975
30
0
41
1
10
67.9237176151411
20
2.83213956209116
30
0
0
SPLINE
5
103
100
AcDbEntity
8
1
62
256
6
ByLayer
370
18
48
1
60
0
100
AcDbSpline
70
4
71
3
72
18
73
14
40
0
40
0
40
0
40
0
40
0.0765475297690842
40
0.23181229510898
40
0.309444677778928
40
0.387077060448876
40
0.464709443118824
40
0.542341825788772
40
0.697606591128668
40
0.775238973798616
40
0.852871356468564
40
0.930503739138512
40
1
40
1
40
1
40
1
41
1
10
65.0814002104497
20
2.2430872136483
30
0
41
1
10
65.1584334736942
20
2.22743220209776
30
0
41
1
10
65.3917167368587
20
2.17468724927943
30
0
41
1
10
65.7031249999745
20
2.08481228473357
30
0
41
1
10
66.0156249999928
20
1.97579026745882
30
0
41
1
10
66.2500000000049
20
1.88588485899027
30
0
41
1
10
66.4843749999876
20
1.78708155591275
30
0
41
1
10
66.7968750004191
20
1.64267764407685
30
-1E-16
41
1
10
67.1093750022743
20
1.48212346727314
30
1E-16
41
1
10
67.4218749959154
20
1.30759164241127
30
0
41
1
10
67.6562499926147
20
1.17082252208834
30
-1E-16
41
1
10
67.882437246538
20
1.03301776276072
30
-2E-16
41
1
10
68.0304994991362
20
0.939242477166829
30
0
41
1
10
68.1004367496586
20
0.894335527099713
30
1E-16
0
SPLINE
5
104
100
AcDbEntity
8
1
62
256
6
ByLayer
370
18
48
1
60
0
100
AcDbSpline
70
4
71
3
72
9
73
5
40
0
40
0
40
0
40
0
40
0.996917011203016
40
1
40
1
40
1
40
1
41
1
10
55
20
-3.4259345547768
30
0
41
1
10
55.1562499605779
20
-3.4035501156572
30
0
41
1
10
55.3129831889731
20
-3.37345668059845
30
0
41
1
10
55.4697164054852
20
-3.33577538657215
30
0
41
1
10
55.4701996122357
20
-3.33565914345101
30
0
0
SPLINE
5
105
100
AcDbEntity
8
1
62
256
6
ByLayer
370
18
48
1
60
0
100
AcDbSpline
70
4
71
3
72
16
73
12
40
0
40
0
40
0
40
0
40
0.0750534209921313
40
0.180749216406628
40
0.286445011821125
40
0.392140807235623
40
0.603532398064617
40
0.709228193479114
40
0.814923988893611
40
0.920619784308108
40
1
40
1
40
1
40
1
41
0.997998145582497
10
65.8492212063891
20
1.6702611746766
30
-1E-16
41
0.998040429498444
10
65.9046919450247
20
1.62976079605006
30
-1E-16
41
0.998142827421229
10
66.0382783286579
20
1.53070604777891
30
-1E-16
41
0.998320484194013
10
66.2500000000049
20
1.36824933991441
30
-1E-16
41
0.998509568431965
10
66.4843749999878
20
1.18238190147179
30
-1E-16
41
0.998717630805658
10
66.7968750004193
20
0.927943493442614
30
0
41
0.998913830935845
10
67.1093750022727
20
0.665134871392083
30
2E-16
41
0.999096971358176
10
67.4218749959179
20
0.397858159972889
30
0
41
0.999244337398317
10
67.6562499926147
20
0.195984200754708
30
0
41
0.999369285227367
10
67.8711762789428
20
0.0106911978342669
30
0
41
0.999433863316588
10
68.0079838720667
20
-0.106718180625137
30
-2E-16
41
0.999460290011913
10
68.0666605919694
20
-0.156915237063707
30
-1E-16
0
SPLINE
5
106
100
AcDbEntity
8
1
62
256
6
ByLayer
370
18
48
1
60
0
100
AcDbSpline
70
4
71
3
72
23
73
19
40
0
40
0
40
0
40
0
40
0.0295099798859758
40
0.142744793492395
40
0.199362200295604
40
0.255979607098813
40
0.312597013902022
40
0.369214420705232
40
0.482449234311651
40
0.53906664111486
40
0.59568404791807
40
0.652301454721279
40
0.708918861524488
40
0.822153675130907
40
0.878771081934117
40
0.935388488737326
40
0.992005895540535
40
1
40
1
40
1
40
1
41
1
10
63.7840896728045
20
2.942789711882
30
0
41
1
10
63.8248097859754
20
2.95091429571951
30
0
41
1
10
64.0217798998121
20
2.98732090463565
30
0
41
1
10
64.2968749992619
20
3.01830141672858
30
0
41
1
10
64.6093749977495
20
3.02621949986218
30
0
41
1
10
64.8437499994163
20
3.0183521103346
30
0
41
1
10
65.0781249999903
20
2.9966690582601
30
0
41
1
10
65.3906250000092
20
2.94963559830003
30
0
41
1
10
65.7031249999745
20
2.87550396529753
30
0
41
1
10
66.0156249999928
20
2.77493704476265
30
-1E-16
41
1
10
66.2500000000049
20
2.68662747987116
30
-1E-16
41
1
10
66.4843749999877
20
2.58587143750626
30
-1E-16
41
1
10
66.7968750004192
20
2.43559752887083
30
1E-16
41
1
10
67.1093750022733
20
2.26214283354901
30
0
41
1
10
67.4218749959168
20
2.06796167278989
30
0
41
1
10
67.6562499926147
20
1.91264107485779
30
0
41
1
10
67.8235308680457
20
1.79538419136372
30
-2E-16
41
1
10
67.9126867422043
20
1.73112717117971
30
-1E-16
41
1
10
67.9237176151405
20
1.72315030995833
30
0
0
SPLINE
5
107
100
AcDbEntity
8
1
62
256
6
ByLayer
370
18
48
1
60
0
100
AcDbSpline
70
4
71
3
72
31
73
27
40
0
40
0
40
0
40
0
40
0.0043969393782237
40
0.0414148153905562
40
0.0784326914028887
40
0.115450567415221
40
0.189486319439886
40
0.226504195452219
40
0.263522071464551
40
0.300539947476884
40
0.337557823489217
40
0.411593575513881
40
0.448611451526214
40
0.485629327538547
40
0.522647203550879
40
0.559665079563212
40
0.633700831587877
40
0.670718707600209
40
0.707736583612542
40
0.744754459624874
40
0.781772335637207
40
0.855808087661872
40
0.892825963674205
40
0.929843839686537
40
0.96686171569887
40
1
40
1
40
1
40
1
41
1
10
61.7690362250137
20
2.1525010571568
30
1E-16
41
1
10
61.7783158201512
20
2.14990863594548
30
1E-16
41
1
10
61.8657204182044
20
2.12533422866036
30
1E-16
41
1
10
62.0312500168764
20
2.07604876311453
30
0
41
1
10
62.2656250107491
20
1.99816900768715
30
0
41
1
10
62.5781249960203
20
1.88220670641073
30
0
41
1
10
62.8906249848616
20
1.75091397971929
30
-1E-16
41
1
10
63.2031249910429
20
1.60562199396864
30
0
41
1
10
63.4375000000014
20
1.49127910601251
30
1E-16
41
1
10
63.6718750089516
20
1.37064570037538
30
-1E-16
41
1
10
63.9843750141695
20
1.20025239874897
30
-1E-16
41
1
10
64.2968749992616
20
1.01909085440803
30
-2E-16
41
1
10
64.6093749977506
20
0.829400353531838
30
-2E-16
41
1
10
64.843749999416
20
0.684268633789173
30
2E-16
41
1
10
65.0781249999901
20
0.535790970778976
30
1E-16
41
1
10
65.3906250000093
20
0.332837064149345
30
1E-16
41
1
10
65.7031249999745
20
0.12614355371295
30
1E-16
41
1
10
66.0156249999928
20
-0.0814620781988538
30
2E-16
41
1
10
66.2500000000049
20
-0.236580328004919
30
1E-16
41
1
10
66.4843749999876
20
-0.390970035890121
30
0
41
1
10
66.7968750004191
20
-0.595596857797773
30
1E-16
41
1
10
67.1093750022743
20
-0.795178977075125
30
1E-16
41
1
10
67.4218749959154
20
-0.986667759070713
30
1E-16
41
1
10
67.6562499926147
20
-1.12554642521252
30
0
41
1
10
67.882437246538
20
-1.25435180030493
30
1E-16
41
1
10
68.0304994991362
20
-1.33505167918355
30
0
41
1
10
68.1004367496585
20
-1.37223141641752
30
1E-16
0
SPLINE
5
108
100
AcDbEntity
8
1
62
256
6
ByLayer
370
18
48
1
60
0
100
AcDbSpline
70
4
71
3
72
17
73
13
40
0
40
0
40
0
40
0
40
0.0235445547620569
40
0.128056460205262
40
0.232568365648468
40
0.337080271091674
40
0.441592176534879
40
0.650615987421291
40
0.755127892864497
40
0.859639798307702
40
0.964151703750908
40
1
40
1
40
1
40
1
41
1
10
65.7284497472381
20
1.75663349355588
30
-1E-16
41
1
10
65.7460498314863
20
1.74383396039551
30
-1E-16
41
1
10
65.841774915734
20
1.67385726162345
30
-1E-16
41
1
10
66.0156249999927
20
1.54327505354871
30
-1E-16
41
1
10
66.2500000000049
20
1.36010406453386
30
-1E-16
41
1
10
66.4843749999877
20
1.1709581220257
30
-1E-16
41
1
10
66.7968750004193
20
0.912350503280578
30
1E-16
41
1
10
67.1093750022726
20
0.645565253803454
30
-2E-16
41
1
10
67.421874995918
20
0.374576502489475
30
0
41
1
10
67.6562499926147
20
0.170021415192707
30
0
41
1
10
67.8392974032737
20
0.0102622669601544
30
0
41
1
10
67.9442198126504
20
-0.0809196789294617
30
2E-16
41
1
10
67.971017220762
20
-0.104176710964396
30
-2E-16
0
SPLINE
5
109
100
AcDbEntity
8
1
62
256
6
ByLayer
370
18
48
1
60
0
100
AcDbSpline
70
4
71
3
72
57
73
53
40
0
40
0
40
0
40
0
40
0.0324566337390398
40
0.0324566337390398
40
0.0544462556995174
40
0.0544462556995174
40
0.0764358776599951
40
0.0764358776599951
40
0.0984254996204727
40
0.0984254996204727
40
0.12041512158095
40
0.12041512158095
40
0.164394365501906
40
0.164394365501906
40
0.208373609422861
40
0.208373609422861
40
0.252352853343816
40
0.252352853343816
40
0.296332097264772
40
0.296332097264772
40
0.318321719225249
40
0.318321719225249
40
0.340311341185727
40
0.340311341185727
40
0.384290585106682
40
0.384290585106682
40
0.472249072948593
40
0.472249072948593
40
0.494238694909071
40
0.494238694909071
40
0.516228316869549
40
0.516228316869549
40
0.560207560790504
40
0.560207560790504
40
0.648166048632415
40
0.648166048632415
40
0.692145292553369
40
0.692145292553369
40
0.714134914513846
40
0.725129725494083
40
0.725129725494083
40
0.73612453647432
40
0.73612453647432
40
0.824083024316212
40
0.824083024316212
40
0.912041512158105
40
0.912041512158105
40
0.934031134118579
40
0.934031134118579
40
0.956020756079052
40
0.956020756079052
40
1
40
1
40
1
40
1
41
1
10
63.6360657455312
20
-2.99111796012505
30
-1E-16
41
1
10
63.543459023344
20
-3.02477241370033
30
0
41
1
10
63.4509809333269
20
-3.05525229429858
30
0
41
1
10
63.2956828464665
20
-3.10092384684575
30
0
41
1
10
63.2329094587092
20
-3.11787476005878
30
0
41
1
10
63.1071033716781
20
-3.1487457994933
30
0
41
1
10
63.0440797933388
20
-3.16266901733701
30
0
41
1
10
62.9177832287855
20
-3.18746527073537
30
0
41
1
10
62.8545127953359
20
-3.19833792633412
30
0
41
1
10
62.7276420640167
20
-3.21697883495665
30
0
41
1
10
62.6639494548023
20
-3.22475087153089
30
0
41
1
10
62.4737046115461
20
-3.24320438457932
30
0
41
1
10
62.3475439447633
20
-3.24911250781449
30
0
41
1
10
62.0961995699296
20
-3.24841222693632
30
0
41
1
10
61.9709896661971
20
-3.24178868463008
30
0
41
1
10
61.7202459332137
20
-3.21632307856251
30
0
41
1
10
61.5946690189584
20
-3.19750737235444
30
1E-16
41
1
10
61.342727472565
20
-3.14782555304356
30
0
41
1
10
61.2163505661033
20
-3.11695989369244
30
0
41
1
10
61.0257285628156
20
-3.06163272576072
30
1E-16
41
1
10
60.9618962112178
20
-3.04164270388361
30
0
41
1
10
60.8346645763722
20
-2.99893896204855
30
-1E-16
41
1
10
60.7712075990965
20
-2.97621417996626
30
1E-16
41
1
10
60.5811990006147
20
-2.90403894064718
30
-1E-16
41
1
10
60.4550122614921
20
-2.85058889139879
30
0
41
1
10
60.0769614766296
20
-2.67507583947653
30
1E-16
41
1
10
59.8256013824016
20
-2.53789493079671
30
2E-16
41
1
10
59.5092137831538
20
-2.34325684271596
30
2E-16
41
1
10
59.4458264150029
20
-2.3031682196079
30
1E-16
41
1
10
59.318753619501
20
-2.22070926328732
30
-1E-16
41
1
10
59.2550252117161
20
-2.17830970268258
30
2E-16
41
1
10
59.0635439049926
20
-2.04792868556868
30
-1E-16
41
1
10
58.9365774250782
20
-1.9575086857497
30
1E-16
41
1
10
58.5568033291644
20
-1.67685679848034
30
-1E-16
41
1
10
58.3051056388121
20
-1.47726920254286
30
-1E-16
41
1
10
57.926303404738
20
-1.16289693637839
30
1E-16
41
1
10
57.7998309403053
20
-1.05559790422515
30
-2E-16
41
1
10
57.6093836610804
20
-0.891301546316299
30
-1E-16
41
1
10
57.5139755736161
20
-0.808315687911403
30
1E-16
41
1
10
57.418207491524
20
-0.724149137778795
30
-1E-16
41
1
10
57.3542725064299
20
-0.667784206867282
30
-2E-16
41
1
10
57.3222777832581
20
-0.639490180640394
30
2E-16
41
1
10
57.0349097890729
20
-0.384656378197491
30
0
41
1
10
56.7818751283043
20
-0.155299264003389
30
-1E-16
41
1
10
56.2760933680168
20
0.304054975503561
30
2E-16
41
1
10
56.0233593771139
20
0.534066711530812
30
1E-16
41
1
10
55.7049792461566
20
0.819042527533639
30
-1E-16
41
1
10
55.6411811303602
20
0.87591193200501
30
2E-16
41
1
10
55.5132758915788
20
0.989327222829871
30
-1E-16
41
1
10
55.4491007109755
20
1.04593350991632
30
2E-16
41
1
10
55.2566687412115
20
1.21457201984939
30
-2E-16
41
1
10
55.1284520296055
20
1.32547071374319
30
0
41
1
10
54.9999999999999
20
1.43453214620479
30
2E-16
0
SPLINE
5
10A
100
AcDbEntity
8
1
62
256
6
ByLayer
370
18
48
1
60
0
100
AcDbSpline
70
4
71
3
72
53
73
49
40
0
40
0
40
0
40
0
40
0.0775569588035315
40
0.0775569588035315
40
0.116335438205297
40
0.116335438205297
40
0.135724677906179
40
0.135724677906179
40
0.155113917607061
40
0.155113917607061
40
0.232670876410585
40
0.232670876410585
40
0.310227835214109
40
0.310227835214109
40
0.329617074914991
40
0.329617074914991
40
0.349006314615873
40
0.349006314615873
40
0.387784794017633
40
0.387784794017633
40
0.465341752821155
40
0.465341752821155
40
0.504120232222916
40
0.504120232222916
40
0.523509471923795
40
0.523509471923795
40
0.542898711624675
40
0.542898711624675
40
0.620455670428192
40
0.620455670428192
40
0.698012629231709
40
0.698012629231709
40
0.71740186893259
40
0.727096488783032
40
0.727096488783032
40
0.736791108633474
40
0.736791108633474
40
0.77556958803524
40
0.77556958803524
40
0.853126546838774
40
0.853126546838774
40
0.891905026240541
40
0.891905026240541
40
0.911294265941424
40
0.911294265941424
40
0.930683505642308
40
0.930683505642308
40
1
40
1
40
1
40
1
41
1
10
54.9999999999983
20
3.13752993070986
30
0
41
1
10
55.2551922902558
20
3.01013763697674
30
1E-16
41
1
10
55.508727008718
20
2.86546900272836
30
-1E-16
41
1
10
55.8896096391451
20
2.62484471326027
30
1E-16
41
1
10
56.0166662597642
20
2.54069175259753
30
-2E-16
41
1
10
56.207790882647
20
2.40877464904059
30
1E-16
41
1
10
56.2716785309509
20
2.36378891730777
30
-2E-16
41
1
10
56.3990599858604
20
2.2724218531678
30
0
41
1
10
56.4625925580098
20
2.22601628618079
30
1E-16
41
1
10
56.7796342265746
20
1.99056690039927
30
2E-16
41
1
10
57.0312877402943
20
1.79128676521665
30
-2E-16
41
1
10
57.5348051835276
20
1.375211316655
30
-1E-16
41
1
10
57.7866465483149
20
1.15839396114146
30
0
41
1
10
58.1042812421115
20
0.878893308432254
30
2E-16
41
1
10
58.1679509549973
20
0.822569017544737
30
-2E-16
41
1
10
58.2956493340194
20
0.709134002366284
30
1E-16
41
1
10
58.359376963976
20
0.652290429197052
30
-2E-16
41
1
10
58.5500199143508
20
0.48175424723658
30
2E-16
41
1
10
58.67651991977
20
0.367947380609536
30
0
41
1
10
59.0550789756844
20
0.027111809419921
30
-1E-16
41
1
10
59.3061973422092
20
-0.199335796072518
30
0
41
1
10
59.6842907393522
20
-0.534125921193919
30
-1E-16
41
1
10
59.8105583168234
20
-0.644907464442525
30
2E-16
41
1
10
60.0007587116085
20
-0.809346404362088
30
1E-16
41
1
10
60.0642923535777
20
-0.863870042061592
30
-2E-16
41
1
10
60.191703231446
20
-0.972249804665097
30
1E-16
41
1
10
60.2556705722322
20
-1.02617980033682
30
2E-16
41
1
10
60.5741484237453
20
-1.29192691256478
30
-1E-16
41
1
10
60.8262016224081
20
-1.4934517976038
30
-1E-16
41
1
10
61.3296243702574
20
-1.87022209534138
30
-1E-16
41
1
10
61.5809509364958
20
-2.04551018880031
30
-1E-16
41
1
10
61.8976631683576
20
-2.24505030542383
30
-1E-16
41
1
10
61.9928709530005
20
-2.3034388647209
30
1E-16
41
1
10
62.0884596323722
20
-2.35951226958778
30
2E-16
41
1
10
62.1522808916613
20
-2.39636712542415
30
-2E-16
41
1
10
62.1842198826491
20
-2.41451898191678
30
-1E-16
41
1
10
62.3435338168275
20
-2.50357441494137
30
1E-16
41
1
10
62.4702587161983
20
-2.56965380869155
30
0
41
1
10
62.849234923047
20
-2.75208725023316
30
0
41
1
10
63.1003067061656
20
-2.85266813088069
30
0
41
1
10
63.4783572496965
20
-2.96997888881083
30
1E-16
41
1
10
63.6046089797897
20
-3.00348025531247
30
-1E-16
41
1
10
63.7948460897608
20
-3.04495485102075
30
0
41
1
10
63.8584019570607
20
-3.05731597836336
30
-1E-16
41
1
10
63.985885015879
20
-3.07903787727884
30
0
41
1
10
64.0498894958739
20
-3.08840205329898
30
0
41
1
10
64.3413545842831
20
-3.12394942465042
30
0
41
1
10
64.5668631198787
20
-3.13171968877299
30
0
41
1
10
64.7920557463137
20
-3.11983233489232
30
0
0
SPLINE
5
10B
100
AcDbEntity
8
1
62
256
6
ByLayer
370
18
48
1
60
0
100
AcDbSpline
70
4
71
3
72
81
73
77
40
0
40
0
40
0
40
0
40
0.03125000000001
40
0.03125000000001
40
0.06250000000002
40
0.06250000000002
40
0.0937500000000299
40
0.0937500000000299
40
0.109375000000035
40
0.109375000000035
40
0.117187500000037
40
0.117187500000037
40
0.12500000000004
40
0.156250000000044
40
0.156250000000044
40
0.187500000000049
40
0.187500000000049
40
0.218750000000053
40
0.218750000000053
40
0.226562500000054
40
0.226562500000054
40
0.234375000000056
40
0.234375000000056
40
0.250000000000058
40
0.250000000000058
40
0.28125000000006
40
0.28125000000006
40
0.312500000000063
40
0.312500000000063
40
0.328125000000063
40
0.328125000000063
40
0.343750000000064
40
0.343750000000064
40
0.359375000000064
40
0.359375000000064
40
0.375000000000064
40
0.375000000000064
40
0.406250000000065
40
0.406250000000065
40
0.437500000000066
40
0.437500000000066
40
0.468750000000066
40
0.468750000000066
40
0.500000000000067
40
0.500000000000067
40
0.515625000000068
40
0.515625000000068
40
0.531250000000068
40
0.56250000000007
40
0.56250000000007
40
0.625000000000074
40
0.625000000000074
40
0.640625000000073
40
0.640625000000073
40
0.656250000000073
40
0.656250000000073
40
0.68750000000007
40
0.68750000000007
40
0.750000000000062
40
0.750000000000062
40
0.781250000000059
40
0.781250000000059
40
0.796875000000057
40
0.804687500000056
40
0.804687500000056
40
0.812500000000054
40
0.812500000000054
40
0.875000000000037
40
0.875000000000037
40
0.937500000000019
40
0.937500000000019
40
0.953125000000015
40
0.953125000000015
40
0.968750000000011
40
0.968750000000011
40
1
40
1
40
1
40
1
41
1
10
67.1570078687288
20
-2.81775815622737
30
-1E-16
41
1
10
67.0289692970573
20
-2.86371785287429
30
0
41
1
10
66.9016956979182
20
-2.90315912725265
30
0
41
1
10
66.6478642527378
20
-2.96907643024295
30
0
41
1
10
66.5212942268816
20
-2.99555524391326
30
0
41
1
10
66.2683430819076
20
-3.03548769508961
30
0
41
1
10
66.1419341746092
20
-3.04892433693772
30
0
41
1
10
65.9515113597894
20
-3.0591427256519
30
0
41
1
10
65.8878995076305
20
-3.06089481230006
30
0
41
1
10
65.7922453906901
20
-3.06101596600055
30
0
41
1
10
65.7602938873532
20
-3.06063721063418
30
0
41
1
10
65.6964977347615
20
-3.05904368764348
30
0
41
1
10
65.5372237210795
20
-3.05297260019214
30
0
41
1
10
65.3788807755125
20
-3.03657186873821
30
0
41
1
10
65.1259912783548
20
-2.99746285948061
30
0
41
1
10
64.9998508238926
20
-2.97145070649759
30
0
41
1
10
64.747397639292
20
-2.90669741937552
30
-1E-16
41
1
10
64.6210005429322
20
-2.86798602828924
30
1E-16
41
1
10
64.4621387011478
20
-2.81187388018347
30
-1E-16
41
1
10
64.430328182003
20
-2.80026265959202
30
-1E-16
41
1
10
64.366628367947
20
-2.77625835182525
30
1E-16
41
1
10
64.3347697231308
20
-2.76387547953848
30
0
41
1
10
64.2394147423132
20
-2.72570066769103
30
-1E-16
41
1
10
64.1760358768384
20
-2.69884494721214
30
1E-16
41
1
10
63.9863289833649
20
-2.61419988159918
30
-1E-16
41
1
10
63.8604011437545
20
-2.5523574672811
30
0
41
1
10
63.6091089213816
20
-2.41833804555864
30
-1E-16
41
1
10
63.4838470926963
20
-2.34607713057824
30
2E-16
41
1
10
63.2956828464665
20
-2.23042164133639
30
-1E-16
41
1
10
63.2329094587093
20
-2.19066499973482
30
-2E-16
41
1
10
63.1071033716781
20
-2.10886542940176
30
1E-16
41
1
10
63.0440797933388
20
-2.06681582720765
30
0
41
1
10
62.9177832287854
20
-1.98040394684943
30
2E-16
41
1
10
62.8545127953358
20
-1.93603875323109
30
1E-16
41
1
10
62.7276420640167
20
-1.84503188368291
30
-1E-16
41
1
10
62.6639494548023
20
-1.79831831344327
30
2E-16
41
1
10
62.4737046115461
20
-1.65594580842591
30
-1E-16
41
1
10
62.3475439447633
20
-1.55781126150887
30
1E-16
41
1
10
62.0961995699296
20
-1.35555692721977
30
1E-16
41
1
10
61.9709896661971
20
-1.25145595453128
30
-2E-16
41
1
10
61.7202459332137
20
-1.03862712155444
30
2E-16
41
1
10
61.5946690189584
20
-0.929950909107163
30
0
41
1
10
61.342727472565
20
-0.708480867178366
30
-1E-16
41
1
10
61.2163505661032
20
-0.59569890182658
30
1E-16
41
1
10
61.0257285628156
20
-0.423884758121915
30
1E-16
41
1
10
60.9618962112178
20
-0.366067333661647
30
0
41
1
10
60.8346645763722
20
-0.250402367192919
30
1E-16
41
1
10
60.6442923701759
20
-0.0767085446538545
30
2E-16
41
1
10
60.4550122614921
20
0.0972212268583519
30
2E-16
41
1
10
60.0769614766296
20
0.444378062904946
30
-2E-16
41
1
10
59.8256013824016
20
0.674876532883786
30
2E-16
41
1
10
59.5092137831538
20
0.958516507249442
30
0
41
1
10
59.4458264150029
20
1.01501955414713
30
-2E-16
41
1
10
59.318753619501
20
1.12748908082753
30
0
41
1
10
59.2550252117161
20
1.18349288986721
30
-1E-16
41
1
10
59.0635439049925
20
1.3503287260834
30
-1E-16
41
1
10
58.9365774250782
20
1.45904749743215
30
1E-16
41
1
10
58.5568033291645
20
1.77702256485924
30
-2E-16
41
1
10
58.3051056388119
20
1.9781067051097
30
-2E-16
41
1
10
57.926303404738
20
2.26049935850779
30
0
41
1
10
57.7998309403053
20
2.3514222984079
30
-2E-16
41
1
10
57.6093836610804
20
2.48258440568074
30
0
41
1
10
57.5139755736161
20
2.54685947429837
30
-2E-16
41
1
10
57.418207491524
20
2.6090914118584
30
1E-16
41
1
10
57.3542725064298
20
2.65011536172963
30
0
41
1
10
57.3222777832581
20
2.67038351024635
30
0
41
1
10
57.0349097890729
20
2.85003490926488
30
0
41
1
10
56.7818751283043
20
2.99124474006567
30
1E-16
41
1
10
56.2760933680168
20
3.23555269876715
30
0
41
1
10
56.023359377114
20
3.33865378610881
30
-1E-16
41
1
10
55.7049792461566
20
3.44236189956303
30
-1E-16
41
1
10
55.6411811303602
20
3.46184271646769
30
0
41
1
10
55.5132758915788
20
3.49823752938895
30
0
41
1
10
55.4491007109756
20
3.51516710932123
30
0
41
1
10
55.2566687412115
20
3.56187411130327
30
0
41
1
10
55.1284520296055
20
3.587598956975
30
0
41
1
10
54.9999999999999
20
3.60788218531653
30
0
0
SPLINE
5
10C
100
AcDbEntity
8
1
62
256
6
ByLayer
370
18
48
1
60
0
100
AcDbSpline
70
4
71
3
72
12
73
8
40
0
40
0
40
0
40
0
40
0.557510399116183
40
0.557510399116183
40
0.836265598674298
40
0.836265598674298
40
1
40
1
40
1
40
1
41
1
10
55.0000000000015
20
3.60788218531644
30
0
41
1
10
54.9094764738724
20
3.6222725550694
30
0
41
1
10
54.8190881210472
20
3.63382501396114
30
0
41
1
10
54.6811729212467
20
3.64710256768674
30
0
41
1
10
54.6348195032319
20
3.65086265210905
30
0
41
1
10
54.560407633292
20
3.65586939054745
30
0
41
1
10
54.5326927640645
20
3.65751387422543
30
0
41
1
10
54.5048091067912
20
3.65896177537328
30
0
0
SPLINE
5
10D
100
AcDbEntity
8
1
62
256
6
ByLayer
370
18
48
1
60
0
100
AcDbSpline
70
4
71
3
72
61
73
57
40
0
40
0
40
0
40
0
40
0.0319780651837977
40
0.0319780651837977
40
0.0486680985426986
40
0.0486680985426986
40
0.0653581319015994
40
0.0653581319015994
40
0.132118265337203
40
0.132118265337203
40
0.198878398772806
40
0.198878398772806
40
0.215568432131708
40
0.215568432131708
40
0.232258465490611
40
0.232258465490611
40
0.265638532208413
40
0.265638532208413
40
0.332398665644017
40
0.332398665644017
40
0.365778732361818
40
0.365778732361818
40
0.382468765720718
40
0.382468765720718
40
0.399158799079618
40
0.399158799079618
40
0.465918932515217
40
0.465918932515217
40
0.532679065950817
40
0.532679065950817
40
0.549369099309717
40
0.557714115989166
40
0.557714115989166
40
0.566059132668615
40
0.566059132668615
40
0.59943919938641
40
0.59943919938641
40
0.666199332822001
40
0.666199332822001
40
0.699579399539798
40
0.699579399539798
40
0.716269432898696
40
0.716269432898696
40
0.732959466257595
40
0.732959466257595
40
0.799719599693194
40
0.799719599693194
40
0.866479733128793
40
0.866479733128793
40
0.883169766487694
40
0.883169766487694
40
0.899859799846595
40
0.899859799846595
40
0.933239866564397
40
0.933239866564397
40
1
40
1
40
1
40
1
41
1
10
55.7786468010321
20
3.40439631632728
30
0
41
1
10
55.9002833248449
20
3.43328472976
30
0
41
1
10
56.0220178970499
20
3.45736089190942
30
0
41
1
10
56.207790882647
20
3.48648163341977
30
0
41
1
10
56.2716785309509
20
3.49512934477647
30
0
41
1
10
56.3990599858604
20
3.50962079317264
30
0
41
1
10
56.4625925580099
20
3.51547486188184
30
0
41
1
10
56.7796342265746
20
3.53784305282315
30
0
41
1
10
57.0312877402943
20
3.53370104933811
30
0
41
1
10
57.5348051835276
20
3.48195849269084
30
0
41
1
10
57.7866465483149
20
3.4343579660376
30
-1E-16
41
1
10
58.1042812421115
20
3.34727346320497
30
0
41
1
10
58.1679509549973
20
3.32847415370685
30
0
41
1
10
58.2956493340195
20
3.28808655374621
30
1E-16
41
1
10
58.359376963976
20
3.26659212264477
30
-1E-16
41
1
10
58.5500199143508
20
3.19839024702958
30
1E-16
41
1
10
58.67651991977
20
3.14792803941501
30
0
41
1
10
59.0550789756843
20
2.98220509764815
30
-1E-16
41
1
10
59.3061973422092
20
2.8526437550081
30
0
41
1
10
59.6842907393522
20
2.63157706456579
30
1E-16
41
1
10
59.8105583168234
20
2.55342520930898
30
-2E-16
41
1
10
60.0007587116085
20
2.4296769950991
30
1E-16
41
1
10
60.0642923535777
20
2.38734050708712
30
2E-16
41
1
10
60.191703231446
20
2.30051634254977
30
-1E-16
41
1
10
60.2556705722322
20
2.25596142748046
30
0
41
1
10
60.5741484237452
20
2.02960542503717
30
1E-16
41
1
10
60.8262016224082
20
1.83604227267736
30
1E-16
41
1
10
61.3296243702575
20
1.42900017561988
30
2E-16
41
1
10
61.5809509364958
20
1.21547975359582
30
-2E-16
41
1
10
61.8976631683576
20
0.938876597644423
30
0
41
1
10
61.9928709530005
20
0.855168155475951
30
2E-16
41
1
10
62.0884596323722
20
0.7704437283044
30
0
41
1
10
62.1522808916613
20
0.713743894474419
30
1E-16
41
1
10
62.184219882649
20
0.685302658568844
30
2E-16
41
1
10
62.3435338168275
20
0.543157737038598
30
1E-16
41
1
10
62.4702587161983
20
0.429204500016994
30
-1E-16
41
1
10
62.849234923047
20
0.0877125133190475
30
-2E-16
41
1
10
63.1003067061656
20
-0.139441540187448
30
-1E-16
41
1
10
63.4783572496965
20
-0.475131182871934
30
-2E-16
41
1
10
63.6046089797896
20
-0.586192552615842
30
0
41
1
10
63.7948460897609
20
-0.750950938506946
30
0
41
1
10
63.8584019570608
20
-0.805564440990196
30
1E-16
41
1
10
63.985885015879
20
-0.914081828456034
30
-1E-16
41
1
10
64.049889495874
20
-0.968048043171962
30
0
41
1
10
64.3684307110266
20
-1.23366221674249
30
-2E-16
41
1
10
64.6204490324155
20
-1.43434130506282
30
-2E-16
41
1
10
65.1242698932349
20
-1.80735472390046
30
-2E-16
41
1
10
65.3760284995315
20
-1.97973392250429
30
2E-16
41
1
10
65.6939917111233
20
-2.17385462659809
30
2E-16
41
1
10
65.7577720332447
20
-2.21161937828262
30
-1E-16
41
1
10
65.8856646445803
20
-2.28484057741258
30
0
41
1
10
65.9494536577946
20
-2.3201121734968
30
1E-16
41
1
10
66.1404879269446
20
-2.42185377610383
30
-1E-16
41
1
10
66.2673993748849
20
-2.48425506078112
30
0
41
1
10
66.6478704215319
20
-2.65462908769163
30
0
41
1
10
66.9011502040172
20
-2.74584158904858
30
0
41
1
10
67.1570078687289
20
-2.81246735733114
30
-1E-16
0
SPLINE
5
10E
100
AcDbEntity
8
1
62
256
6
ByLayer
370
18
48
1
60
0
100
AcDbSpline
70
4
71
3
72
65
73
61
40
0
40
0
40
0
40
0
40
0.0444513610113682
40
0.0444513610113682
40
0.0889027220227363
40
0.0889027220227363
40
0.133354083034105
40
0.133354083034105
40
0.155579763539789
40
0.155579763539789
40
0.166692603792631
40
0.166692603792631
40
0.177805444045473
40
0.222256805056846
40
0.222256805056846
40
0.26670816606822
40
0.26670816606822
40
0.311159527079593
40
0.311159527079593
40
0.322272367332437
40
0.322272367332437
40
0.33338520758528
40
0.33338520758528
40
0.355610888090967
40
0.355610888090967
40
0.40006224910234
40
0.40006224910234
40
0.444513610113714
40
0.444513610113714
40
0.466739290619401
40
0.466739290619401
40
0.488964971125087
40
0.488964971125087
40
0.511190651630774
40
0.511190651630774
40
0.533416332136461
40
0.533416332136461
40
0.577867693147834
40
0.577867693147834
40
0.622319054159208
40
0.622319054159208
40
0.666770415170581
40
0.666770415170581
40
0.711221776181955
40
0.711221776181955
40
0.733447456687643
40
0.733447456687643
40
0.755673137193331
40
0.755673137193331
40
0.800124498204707
40
0.800124498204707
40
0.889027220227462
40
0.889027220227462
40
0.91125290073315
40
0.91125290073315
40
0.933478581238839
40
0.933478581238839
40
0.977929942250219
40
0.977929942250219
40
1
40
1
40
1
40
1
41
1
10
67.1570078687288
20
-2.29017960950387
30
0
41
1
10
67.0289692970573
20
-2.22005820325972
30
-1E-16
41
1
10
66.9016956979182
20
-2.14483138515644
30
1E-16
41
1
10
66.6478642527378
20
-1.98500465420849
30
2E-16
41
1
10
66.5212942268815
20
-1.90041842059915
30
0
41
1
10
66.2683430819076
20
-1.72234380580565
30
0
41
1
10
66.1419341746093
20
-1.62887100367115
30
-2E-16
41
1
10
65.9515113597894
20
-1.48279558003279
30
-1E-16
41
1
10
65.8878995076304
20
-1.43313003437856
30
-2E-16
41
1
10
65.7922453906901
20
-1.35718283426246
30
1E-16
41
1
10
65.7602938873532
20
-1.33160235960574
30
0
41
1
10
65.6964977347615
20
-1.28011802165531
30
-1E-16
41
1
10
65.5372237210796
20
-1.15056190399051
30
0
41
1
10
65.3788807755124
20
-1.01695829191917
30
2E-16
41
1
10
65.1259912783548
20
-0.798830706067776
30
1E-16
41
1
10
64.9998508238926
20
-0.687506276786763
30
-2E-16
41
1
10
64.7473976392921
20
-0.461150975695887
30
2E-16
41
1
10
64.6210005429322
20
-0.34621106537557
30
-1E-16
41
1
10
64.4621387011479
20
-0.201026204694102
30
0
41
1
10
64.4303281820031
20
-0.171907955196161
30
0
41
1
10
64.3666283679471
20
-0.113509999726659
30
-2E-16
41
1
10
64.3347697231309
20
-0.084256985942659
30
2E-16
41
1
10
64.2394147423132
20
0.0034067116959591
30
0
41
1
10
64.1760358768383
20
0.0618150788876335
30
-1E-16
41
1
10
63.9863289833648
20
0.236790587848219
30
-1E-16
41
1
10
63.8604011437546
20
0.35307714900128
30
1E-16
41
1
10
63.6091089213817
20
0.584382577170203
30
0
41
1
10
63.4838470926963
20
0.699509567993971
30
1E-16
41
1
10
63.2956828464665
20
0.870502205509354
30
2E-16
41
1
10
63.2329094587092
20
0.927209760323962
30
0
41
1
10
63.107103371678
20
1.03988037009157
30
-2E-16
41
1
10
63.0440797933388
20
1.09585319012933
30
1E-16
41
1
10
62.9177832287855
20
1.20706132388591
30
-2E-16
41
1
10
62.8545127953359
20
1.26229917310303
30
2E-16
41
1
10
62.7276420640166
20
1.37194695127374
30
-1E-16
41
1
10
62.6639494548023
20
1.42643255808755
30
2E-16
41
1
10
62.4737046115461
20
1.58725857615335
30
-2E-16
41
1
10
62.3475439447634
20
1.69130124630558
30
0
41
1
10
62.0961995699296
20
1.89285529971656
30
0
41
1
10
61.9709896661972
20
1.9903327300988
30
2E-16
41
1
10
61.7202459332137
20
2.17769595700804
30
-2E-16
41
1
10
61.5946690189584
20
2.26755646324727
30
0
41
1
10
61.342727472565
20
2.43934468586519
30
1E-16
41
1
10
61.2163505661033
20
2.5212609918658
30
-1E-16
41
1
10
61.0257285628156
20
2.63774796763875
30
0
41
1
10
60.9618962112178
20
2.67557537022194
30
-1E-16
41
1
10
60.8346645763722
20
2.74853659485564
30
0
41
1
10
60.7712075990965
20
2.78371026043743
30
-1E-16
41
1
10
60.5811990006147
20
2.8853069864974
30
-1E-16
41
1
10
60.4550122614921
20
2.94781011825711
30
0
41
1
10
60.0769614766297
20
3.11945390238145
30
0
41
1
10
59.8256013824016
20
3.2127714636805
30
0
41
1
10
59.5092137831538
20
3.3017733499654
30
0
41
1
10
59.4458264150029
20
3.318187773755
30
0
41
1
10
59.318753619501
20
3.34819834411482
30
0
41
1
10
59.2550252117161
20
3.36180259254977
30
0
41
1
10
59.0635439049925
20
3.39825741165205
30
0
41
1
10
58.9365774250782
20
3.41655618318185
30
0
41
1
10
58.7471335693363
20
3.43517421751778
30
0
41
1
10
58.6843725986961
20
3.43990998968957
30
0
41
1
10
58.6216676207551
20
3.44321326935577
30
0
0
SPLINE
5
10F
100
AcDbEntity
8
1
62
256
6
ByLayer
370
18
48
1
60
0
100
AcDbSpline
70
4
71
3
72
43
73
39
40
0
40
0
40
0
40
0
40
0.0178847823570376
40
0.0178847823570376
40
0.0437299196634332
40
0.0437299196634332
40
0.0695750569698287
40
0.0695750569698287
40
0.172955606195414
40
0.172955606195414
40
0.276336155421
40
0.276336155421
40
0.302181292727396
40
0.315103861380593
40
0.315103861380593
40
0.32802643003379
40
0.32802643003379
40
0.379716704646573
40
0.379716704646573
40
0.483097253872136
40
0.483097253872136
40
0.534787528484918
40
0.534787528484918
40
0.560632665791309
40
0.560632665791309
40
0.5864778030977
40
0.5864778030977
40
0.689858352323273
40
0.689858352323273
40
0.793238901548845
40
0.793238901548845
40
0.819084038855239
40
0.819084038855239
40
0.844929176161633
40
0.844929176161633
40
0.896619450774421
40
0.896619450774421
40
1
40
1
40
1
40
1
41
1
10
59.8059193355431
20
3.19533500676601
30
0
41
1
10
59.8496768268671
20
3.20602915346581
30
0
41
1
10
59.8934858181263
20
3.21607385779646
30
0
41
1
10
60.0007587116085
20
3.23902339946122
30
0
41
1
10
60.0642923535777
20
3.25121054914871
30
0
41
1
10
60.1917032314459
20
3.27276614721487
30
0
41
1
10
60.2556705722321
20
3.28214122781728
30
0
41
1
10
60.5741484237452
20
3.32153233760195
30
0
41
1
10
60.8262016224082
20
3.32949407028121
30
0
41
1
10
61.3296243702575
20
3.29922227096128
30
0
41
1
10
61.5809509364958
20
3.26098994239612
30
0
41
1
10
61.8976631683576
20
3.18392690306831
30
0
41
1
10
61.9928709530005
20
3.15860702019685
30
0
41
1
10
62.0884596323722
20
3.12995599789218
30
0
41
1
10
62.1522808916613
20
3.1101110198986
30
0
41
1
10
62.184219882649
20
3.09982164048566
30
0
41
1
10
62.3435338168275
20
3.04673215197999
30
0
41
1
10
62.4702587161983
20
2.99885830870858
30
1E-16
41
1
10
62.8492349230469
20
2.83979976355221
30
0
41
1
10
63.1003067061655
20
2.7132265906933
30
1E-16
41
1
10
63.4783572496965
20
2.49484770593892
30
-1E-16
41
1
10
63.6046089797895
20
2.41728770269668
30
1E-16
41
1
10
63.7948460897608
20
2.29400391251383
30
0
41
1
10
63.8584019570607
20
2.25175153737319
30
1E-16
41
1
10
63.9858850158789
20
2.16495604882283
30
-2E-16
41
1
10
64.0498894958739
20
2.12035401012702
30
-1E-16
41
1
10
64.3684307110266
20
1.89358943918842
30
0
41
1
10
64.6204490324155
20
1.69894310965989
30
0
41
1
10
65.1242698932349
20
1.28888066024842
30
1E-16
41
1
10
65.3760284995315
20
1.07342300965931
30
1E-16
41
1
10
65.6939917111233
20
0.794214468002821
30
-1E-16
41
1
10
65.7577720332447
20
0.737858452289203
30
0
41
1
10
65.8856646445803
20
0.624317181824864
30
-1E-16
41
1
10
65.9494536577946
20
0.567419972844306
30
0
41
1
10
66.1404879269445
20
0.396503521160071
30
0
41
1
10
66.2673993748849
20
0.282258158365522
30
-2E-16
41
1
10
66.6478704215319
20
-0.0601845759177309
30
1E-16
41
1
10
66.9011502040172
20
-0.288109166287427
30
-2E-16
41
1
10
67.1570078687289
20
-0.512347824751345
30
-1E-16
0
SPLINE
5
110
100
AcDbEntity
8
1
62
256
6
ByLayer
370
18
48
1
60
0
100
AcDbSpline
70
4
71
3
72
43
73
39
40
0
40
0
40
0
40
0
40
0.0803761627557482
40
0.0803761627557482
40
0.160752325511496
40
0.160752325511496
40
0.241128488267245
40
0.241128488267245
40
0.281316569645121
40
0.281316569645121
40
0.301410610334062
40
0.301410610334062
40
0.321504651023002
40
0.401880813778774
40
0.401880813778774
40
0.482256976534546
40
0.482256976534546
40
0.562633139290317
40
0.562633139290317
40
0.582727179979261
40
0.582727179979261
40
0.602821220668206
40
0.602821220668206
40
0.643009302046094
40
0.643009302046094
40
0.723385464801865
40
0.723385464801865
40
0.803761627557637
40
0.803761627557637
40
0.84394970893552
40
0.84394970893552
40
0.884137790313404
40
0.884137790313404
40
0.924325871691287
40
0.924325871691287
40
0.96451395306917
40
0.96451395306917
40
1
40
1
40
1
40
1
41
1
10
67.1570078687288
20
0.527578546723532
30
1E-16
41
1
10
67.0289692970573
20
0.643659649614563
30
-2E-16
41
1
10
66.9016956979182
20
0.758327742096213
30
0
41
1
10
66.6478642527378
20
0.984071776034455
30
-1E-16
41
1
10
66.5212942268815
20
1.09513682331413
30
1E-16
41
1
10
66.2683430819076
20
1.31314388928396
30
0
41
1
10
66.1419341746093
20
1.42005333326657
30
-2E-16
41
1
10
65.9515113597894
20
1.57634714561914
30
-1E-16
41
1
10
65.8878995076305
20
1.62776477792153
30
2E-16
41
1
10
65.7922453906901
20
1.70383313173812
30
0
41
1
10
65.7602938873532
20
1.72903485102847
30
-1E-16
41
1
10
65.6964977347614
20
1.77892566598823
30
-2E-16
41
1
10
65.5372237210795
20
1.90241069620163
30
0
41
1
10
65.3788807755125
20
2.01961357681913
30
2E-16
41
1
10
65.1259912783548
20
2.19863215341283
30
2E-16
41
1
10
64.9998508238926
20
2.28394442971086
30
0
41
1
10
64.747397639292
20
2.44554644367966
30
0
41
1
10
64.6210005429321
20
2.5217749629137
30
1E-16
41
1
10
64.4621387011478
20
2.6108476754894
30
1E-16
41
1
10
64.430328182003
20
2.62835470439589
30
1E-16
41
1
10
64.3666283679471
20
2.66274835209862
30
0
41
1
10
64.3347697231308
20
2.67961849359583
30
-1E-16
41
1
10
64.2394147423132
20
2.72910737938702
30
0
41
1
10
64.1760358768383
20
2.76066002609977
30
0
41
1
10
63.9863289833648
20
2.8509904694474
30
0
41
1
10
63.8604011437545
20
2.90543461628241
30
1E-16
41
1
10
63.6091089213816
20
3.00272062272885
30
1E-16
41
1
10
63.4838470926963
20
3.04558669857227
30
0
41
1
10
63.2956828464665
20
3.10092384684575
30
0
41
1
10
63.2329094587092
20
3.11787476005878
30
0
41
1
10
63.1071033716781
20
3.14874579949333
30
0
41
1
10
63.0440797933388
20
3.16266901733701
30
0
41
1
10
62.9177832287854
20
3.18746527073537
30
0
41
1
10
62.8545127953359
20
3.19833792633412
30
0
41
1
10
62.7276420640167
20
3.21697883495665
30
0
41
1
10
62.6639494548023
20
3.22475087153089
30
0
41
1
10
62.5445391538288
20
3.2363335221269
30
0
41
1
10
62.4886742479629
20
3.24051862822378
30
0
41
1
10
62.4329242345311
20
3.24346906085859
30
0
0
SPLINE
5
111
100
AcDbEntity
8
1
62
256
6
ByLayer
370
18
48
1
60
0
100
AcDbSpline
70
4
71
3
72
23
73
19
40
0
40
0
40
0
40
0
40
0.0269743932610049
40
0.0269743932610049
40
0.0810313714131716
40
0.0810313714131716
40
0.135088349565338
40
0.135088349565338
40
0.351316262173993
40
0.351316262173993
40
0.567544174782647
40
0.567544174782647
40
0.621601152934813
40
0.621601152934813
40
0.67565813108698
40
0.78377208739132
40
0.78377208739132
40
1
40
1
40
1
40
1
41
1
10
63.6366072967021
20
3.00934527183378
30
0
41
1
10
63.6681839355425
20
3.016968525387
30
0
41
1
10
63.6997909927035
20
3.02423138796425
30
0
41
1
10
63.7948460897608
20
3.04495485102075
30
0
41
1
10
63.8584019570607
20
3.05731597836336
30
1E-16
41
1
10
63.985885015879
20
3.07903787727884
30
0
41
1
10
64.0498894958739
20
3.08840205329898
30
0
41
1
10
64.3684307110266
20
3.12725165593088
30
0
41
1
10
64.6204490324155
20
3.13328441472268
30
0
41
1
10
65.1242698932349
20
3.09623538414883
30
0
41
1
10
65.3760284995315
20
3.05315693216363
30
0
41
1
10
65.6939917111233
20
2.96806909460091
30
0
41
1
10
65.7577720332447
20
2.94947783057179
30
0
41
1
10
65.8856646445803
20
2.90915775923742
30
0
41
1
10
66.0770322029744
20
2.84427933632253
30
0
41
1
10
66.2673993748849
20
2.76651321914662
30
0
41
1
10
66.6478704215319
20
2.59444451177387
30
-1E-16
41
1
10
66.9011502040172
20
2.45773242276115
30
0
41
1
10
67.1570078687289
20
2.30011953257983
30
-1E-16
0
SPLINE
5
112
100
AcDbEntity
8
1
62
256
6
ByLayer
370
18
48
1
60
0
100
AcDbSpline
70
4
71
3
72
14
73
10
40
0
40
0
40
0
40
0
40
0.332115532665068
40
0.332115532665068
40
0.664231065330137
40
0.664231065330137
40
0.996346597995205
40
0.996346597995205
40
1
40
1
40
1
40
1
41
1
10
67.1570078687288
20
2.81775815622734
30
1E-16
41
1
10
67.0289692970574
20
2.86371785287426
30
0
41
1
10
66.9016956979183
20
2.90315912725265
30
0
41
1
10
66.6478642527379
20
2.96907643024292
30
0
41
1
10
66.5212942268816
20
2.99555524391326
30
0
41
1
10
66.2683430819077
20
3.03548769508961
30
0
41
1
10
66.1419341746092
20
3.04892433693772
30
0
41
1
10
66.0135891472914
20
3.05581153362112
30
0
41
1
10
66.0121925965929
20
3.05588567054744
30
0
41
1
10
66.0107959790879
20
3.05595900667555
30
0
0
SPLINE
5
113
100
AcDbEntity
8
1
62
256
6
ByLayer
370
18
48
1
60
0
100
AcDbSpline
70
4
71
3
72
14
73
10
40
0
40
0
40
0
40
0
40
0.0128330863656943
40
0.0128330863656943
40
0.259624814774271
40
0.259624814774271
40
0.506416543182847
40
0.506416543182847
40
1
40
1
40
1
40
1
41
1
10
55.7785876736303
20
-3.41837439905746
30
1E-16
41
1
10
55.7752772030325
20
-3.41945975944725
30
1E-16
41
1
10
55.7719664041627
20
-3.42054171951099
30
1E-16
41
1
10
55.7049792461566
20
-3.44236189956305
30
1E-16
41
1
10
55.6411811303602
20
-3.46184271646769
30
0
41
1
10
55.5132758915789
20
-3.49823752938895
30
0
41
1
10
55.4491007109755
20
-3.51516710932123
30
0
41
1
10
55.2566687412115
20
-3.56187411130327
30
0
41
1
10
55.1284520296055
20
-3.587598956975
30
0
41
1
10
54.9999999999999
20
-3.60788218531653
30
0
0
SPLINE
5
114
100
AcDbEntity
8
1
62
256
6
ByLayer
370
18
48
1
60
0
100
AcDbSpline
70
4
71
3
72
16
73
12
40
0
40
0
40
0
40
0
40
0.25
40
0.25
40
0.375
40
0.375
40
0.5
40
0.5
40
0.75
40
0.75
40
1
40
1
40
1
40
1
41
1
10
55.0000000000015
20
-3.60788218531644
30
0
41
1
10
54.9094764738724
20
-3.6222725550694
30
0
41
1
10
54.8190881210472
20
-3.63382501396114
30
0
41
1
10
54.6811729212467
20
-3.64710256768674
30
0
41
1
10
54.6348195032319
20
-3.65086265210905
30
0
41
1
10
54.5410650031796
20
-3.65717084271847
30
0
41
1
10
54.493665309207
20
-3.65972159787563
30
0
41
1
10
54.3500685646627
20
-3.66573522427885
30
0
41
1
10
54.2525530862504
20
-3.6675609215803
30
0
41
1
10
54.0545685130742
20
-3.66750846876681
30
0
41
1
10
53.9541093737176
20
-3.66562689715403
30
0
41
1
10
53.8524580371271
20
-3.66210719795222
30
0
0
SPLINE
5
115
100
AcDbEntity
8
1
62
256
6
ByLayer
370
18
48
1
60
0
100
AcDbSpline
70
4
71
3
72
16
73
12
40
0
40
0
40
0
40
0
40
0.368731507360456
40
0.368731507360456
40
0.553097261040679
40
0.553097261040679
40
0.645280137880796
40
0.645280137880796
40
0.737463014720913
40
0.737463014720913
40
1
40
1
40
1
40
1
41
1
10
54.9999999999983
20
-3.15495625819716
30
1E-16
41
1
10
55.2551922902558
20
-3.25727525373995
30
1E-16
41
1
10
55.5087270087181
20
-3.33937862877076
30
1E-16
41
1
10
55.8896096391451
20
-3.43116410733094
30
0
41
1
10
56.0166662597642
20
-3.45652199896944
30
0
41
1
10
56.207790882647
20
-3.48648163341977
30
0
41
1
10
56.2716785309509
20
-3.49512934477647
30
0
41
1
10
56.3990599858603
20
-3.50962079317264
30
0
41
1
10
56.4625925580099
20
-3.51547486188184
30
0
41
1
10
56.7065879307174
20
-3.53268942900868
30
0
41
1
10
56.8861713101057
20
-3.53425904504283
30
0
41
1
10
57.0655036101796
20
-3.52476825978204
30
0
0
SPLINE
5
116
100
AcDbEntity
8
1
62
256
6
ByLayer
370
18
48
1
60
0
100
AcDbSpline
70
4
71
3
72
33
73
29
40
0
40
0
40
0
40
0
40
0.0489022153973213
40
0.0489022153973213
40
0.0885312897557675
40
0.0885312897557675
40
0.128160364114214
40
0.128160364114214
40
0.207418512831111
40
0.207418512831111
40
0.365934810264904
40
0.365934810264904
40
0.445192958981801
40
0.445192958981801
40
0.48482203334025
40
0.504636570519472
40
0.504636570519472
40
0.524451107698693
40
0.524451107698693
40
0.682967405132459
40
0.682967405132459
40
0.841483702566225
40
0.841483702566225
40
0.881112776924669
40
0.881112776924669
40
0.920741851283112
40
0.920741851283112
40
1
40
1
40
1
40
1
41
1
10
59.8063158964625
20
-3.21179106329578
30
0
41
1
10
59.7284934732415
20
-3.23793686857266
30
0
41
1
10
59.6505756629231
20
-3.26200733518431
30
0
41
1
10
59.5092137831538
20
-3.3017733499654
30
0
41
1
10
59.4458264150029
20
-3.318187773755
30
0
41
1
10
59.3187536195009
20
-3.34819834411485
30
0
41
1
10
59.2550252117162
20
-3.36180259254979
30
0
41
1
10
59.0635439049925
20
-3.39825741165205
30
0
41
1
10
58.9365774250782
20
-3.41655618318185
30
0
41
1
10
58.5568033291644
20
-3.45387936333955
30
0
41
1
10
58.305105638812
20
-3.45537590765255
30
0
41
1
10
57.926303404738
20
-3.42339629488615
30
0
41
1
10
57.7998309403052
20
-3.40702020263305
30
0
41
1
10
57.6093836610804
20
-3.37388595199707
30
0
41
1
10
57.5139755736161
20
-3.35517516220972
30
1E-16
41
1
10
57.418207491524
20
-3.33324054963717
30
0
41
1
10
57.3542725064299
20
-3.31789956859689
30
0
41
1
10
57.3222777832581
20
-3.30987369088672
30
0
41
1
10
57.0349097890729
20
-3.23469128746237
30
0
41
1
10
56.7818751283043
20
-3.14654400406906
30
0
41
1
10
56.2760933680169
20
-2.93149772326359
30
2E-16
41
1
10
56.0233593771139
20
-2.804587074578
30
-1E-16
41
1
10
55.7049792461565
20
-2.62331937202939
30
-1E-16
41
1
10
55.6411811303602
20
-2.58593078446268
30
-2E-16
41
1
10
55.5132758915788
20
-2.50891030655907
30
1E-16
41
1
10
55.4491007109755
20
-2.4692335994049
30
0
41
1
10
55.2566687412115
20
-2.34730209145386
30
2E-16
41
1
10
55.1284520296055
20
-2.26212824323184
30
0
41
1
10
54.9999999999999
20
-2.17335003911177
30
2E-16
0
SPLINE
5
117
100
AcDbEntity
8
1
62
256
6
ByLayer
370
18
48
1
60
0
100
AcDbSpline
70
4
71
3
72
34
73
30
40
0
40
0
40
0
40
0
40
0.125624203807792
40
0.125624203807792
40
0.188436305711688
40
0.188436305711688
40
0.219842356663636
40
0.219842356663636
40
0.251248407615584
40
0.251248407615584
40
0.376872611423384
40
0.376872611423384
40
0.502496815231184
40
0.502496815231184
40
0.533902866183136
40
0.533902866183136
40
0.565308917135089
40
0.565308917135089
40
0.628121019038995
40
0.628121019038995
40
0.753745222846809
40
0.753745222846809
40
0.816557324750719
40
0.816557324750719
40
0.847963375702673
40
0.847963375702673
40
0.879369426654628
40
0.879369426654628
40
1
40
1
40
1
40
1
41
1
10
54.9999999999983
20
-0.0174263274872999
30
0
41
1
10
55.2551922902558
20
-0.247137616763212
30
1E-16
41
1
10
55.5087270087181
20
-0.473909626042399
30
-2E-16
41
1
10
55.8896096391451
20
-0.80631939407067
30
1E-16
41
1
10
56.0166662597642
20
-0.915830246371911
30
-1E-16
41
1
10
56.2077908826471
20
-1.07770698437921
30
-1E-16
41
1
10
56.2716785309509
20
-1.13134042746873
30
0
41
1
10
56.3990599858604
20
-1.23719894000485
30
-2E-16
41
1
10
56.4625925580099
20
-1.28945857570102
30
-1E-16
41
1
10
56.7796342265746
20
-1.54727615242388
30
1E-16
41
1
10
57.0312877402943
20
-1.74241428412142
30
1E-16
41
1
10
57.5348051835276
20
-2.10674717603584
30
1E-16
41
1
10
57.786646548315
20
-2.27596400489611
30
0
41
1
10
58.1042812421115
20
-2.46838015477272
30
0
41
1
10
58.1679509549973
20
-2.50590513616214
30
1E-16
41
1
10
58.2956493340195
20
-2.57895255137993
30
-2E-16
41
1
10
58.359376963976
20
-2.61430169344772
30
-1E-16
41
1
10
58.5500199143508
20
-2.716635999793
30
1E-16
41
1
10
58.67651991977
20
-2.77998065880547
30
-1E-16
41
1
10
59.0550789756843
20
-2.9550932882282
30
0
41
1
10
59.3061973422092
20
-3.05197955108062
30
0
41
1
10
59.6842907393522
20
-3.16570298575971
30
1E-16
41
1
10
59.8105583168234
20
-3.19833267375154
30
-1E-16
41
1
10
60.0007587116085
20
-3.23902339946125
30
0
41
1
10
60.0642923535777
20
-3.25121054914874
30
0
41
1
10
60.191703231446
20
-3.27276614721487
30
0
41
1
10
60.2556705722321
20
-3.28214122781728
30
0
41
1
10
60.5640206894219
20
-3.32027968316237
30
0
41
1
10
60.8061588065552
20
-3.32882389055217
30
0
41
1
10
61.0478942337686
20
-3.31605363277365
30
0
0
SPLINE
5
118
100
AcDbEntity
8
1
62
256
6
ByLayer
370
18
48
1
60
0
100
AcDbSpline
70
4
71
1
72
4
73
2
40
0
40
0
40
1
40
1
41
1
10
59.6005198898504
20
0.876632024415869
30
2E-16
41
1
10
59.6005314869501
20
0.876629844120174
30
2E-16
0
INSERT
5
13E
100
AcDbEntity
8
1
62
256
6
ByLayer
370
18
48
1
60
0
100
AcDbBlockReference
2
LABLE3D_1
10
84.300458
20
-21.3469
30
0
41
1
42
1
43
1
50
0
210
0
220
0
230
1
0
LINE
5
7D
100
AcDbEntity
8
80
62
256
6
ByLayer
370
18
48
1
60
0
100
AcDbLine
10
0
20
0
30
0
11
-3
21
0
31
0
39
0
210
0
220
0
230
1
0
LINE
5
7E
100
AcDbEntity
8
81
62
256
6
ByLayer
370
18
48
1
60
0
100
AcDbLine
10
70
20
0
30
0
11
73
21
0
31
0
39
0
210
0
220
0
230
1
0
LINE
5
7F
100
AcDbEntity
8
4
62
256
6
ByLayer
370
18
48
0.05
60
0
100
AcDbLine
10
0
20
0
30
0
11
73
21
0
31
0
39
0
210
0
220
0
230
1
0
LINE
5
81
100
AcDbEntity
8
SK4
62
256
6
ByLayer
370
18
48
0.05
60
0
100
AcDbLine
10
-43
20
0
30
0
11
73
21
0
31
0
39
0
210
0
220
0
230
1
0
LINE
5
83
100
AcDbEntity
8
1
62
256
6
ByLayer
370
18
48
1
60
0
100
AcDbLine
10
0
20
-5
30
0
11
0
21
5
31
0
39
0
210
0
220
0
230
1
0
LINE
5
84
100
AcDbEntity
8
1
62
256
6
ByLayer
370
18
48
1
60
0
100
AcDbLine
10
28.916284
20
-5
30
0
11
28.916284
21
5
31
0
39
0
210
0
220
0
230
1
0
LINE
5
85
100
AcDbEntity
8
SK1
62
256
6
ByLayer
370
18
48
1
60
0
100
AcDbLine
10
-40
20
-4.4
30
0
11
-40
21
4.4
31
0
39
0
210
0
220
0
230
1
0
LINE
5
87
100
AcDbEntity
8
SK1
62
256
6
ByLayer
370
18
48
1
60
0
100
AcDbLine
10
0
20
-5
30
0
11
0
21
5
31
0
39
0
210
0
220
0
230
1
0
LINE
5
88
100
AcDbEntity
8
SK1
62
256
6
ByLayer
370
18
48
1
60
0
100
AcDbLine
10
-39.4
20
-5
30
0
11
-39.4
21
5
31
0
39
0
210
0
220
0
230
1
0
LINE
5
89
100
AcDbEntity
8
1
62
256
6
ByLayer
370
18
48
1
60
0
100
AcDbLine
10
28.916284
20
5
30
0
11
0
21
5
31
0
39
0
210
0
220
0
230
1
0
LINE
5
8A
100
AcDbEntity
8
1
62
256
6
ByLayer
370
18
48
1
60
0
100
AcDbLine
10
0
20
-5
30
0
11
28.916284
21
-5
31
0
39
0
210
0
220
0
230
1
0
LINE
5
8B
100
AcDbEntity
8
1
62
256
6
ByLayer
370
18
48
1
60
0
100
AcDbLine
10
66.011894
20
3.055901
30
0
11
64.792431
21
3.119811
31
0
39
0
210
0
220
0
230
1
0
LINE
5
8C
100
AcDbEntity
8
1
62
256
6
ByLayer
370
18
48
1
60
0
100
AcDbLine
10
62.434071
20
3.243407
30
0
11
61.048071
21
3.316044
31
0
39
0
210
0
220
0
230
1
0
LINE
5
8D
100
AcDbEntity
8
1
62
256
6
ByLayer
370
18
48
1
60
0
100
AcDbLine
10
58.622862
20
3.443144
30
0
11
57.065757
21
3.524749
31
0
39
0
210
0
220
0
230
1
0
LINE
5
8E
100
AcDbEntity
8
1
62
256
6
ByLayer
370
18
48
1
60
0
100
AcDbLine
10
54.503194
20
3.659047
30
0
11
28.916284
21
5
31
0
39
0
210
0
220
0
230
1
0
LINE
5
8F
100
AcDbEntity
8
1
62
256
6
ByLayer
370
18
48
1
60
0
100
AcDbLine
10
28.916284
20
-5
30
0
11
54.503194
21
-3.659047
31
0
39
0
210
0
220
0
230
1
0
LINE
5
90
100
AcDbEntity
8
1
62
256
6
ByLayer
370
18
48
1
60
0
100
AcDbLine
10
57.065757
20
-3.524749
30
0
11
58.622862
21
-3.443144
31
0
39
0
210
0
220
0
230
1
0
LINE
5
91
100
AcDbEntity
8
1
62
256
6
ByLayer
370
18
48
1
60
0
100
AcDbLine
10
61.048071
20
-3.316044
30
0
11
62.434071
21
-3.243407
31
0
39
0
210
0
220
0
230
1
0
LINE
5
92
100
AcDbEntity
8
1
62
256
6
ByLayer
370
18
48
1
60
0
100
AcDbLine
10
64.792431
20
-3.119811
30
0
11
66.011894
21
-3.055901
31
0
39
0
210
0
220
0
230
1
0
LINE
5
93
100
AcDbEntity
8
SK1
62
256
6
ByLayer
370
18
48
1
60
0
100
AcDbLine
10
-40
20
-4.4
30
0
11
-39.4
21
-5
31
0
39
0
210
0
220
0
230
1
0
LINE
5
94
100
AcDbEntity
8
SK1
62
256
6
ByLayer
370
18
48
1
60
0
100
AcDbLine
10
-39.4
20
5
30
0
11
-40
21
4.4
31
0
39
0
210
0
220
0
230
1
0
LINE
5
95
100
AcDbEntity
8
SK1
62
256
6
ByLayer
370
18
48
1
60
0
100
AcDbLine
10
0
20
5
30
0
11
-39.4
21
5
31
0
39
0
210
0
220
0
230
1
0
LINE
5
96
100
AcDbEntity
8
SK1
62
256
6
ByLayer
370
18
48
1
60
0
100
AcDbLine
10
-39.4
20
-5
30
0
11
0
21
-5
31
0
39
0
210
0
220
0
230
1
0
LINE
5
97
100
AcDbEntity
8
SK2
62
256
6
ByLayer
370
13
48
1
60
0
100
AcDbLine
10
-46.5
20
-5
30
0
11
-46.5
21
24.625256
31
0
39
0
210
0
220
0
230
1
0
LINE
5
99
100
AcDbEntity
8
SK2
62
256
6
ByLayer
370
13
48
1
60
0
100
AcDbLine
10
-41.5875
20
-5
30
0
11
-48.5
21
-5
31
0
39
0
210
0
220
0
230
1
0
LINE
5
9A
100
AcDbEntity
8
SK2
62
256
6
ByLayer
370
13
48
1
60
0
100
AcDbLine
10
-41.5875
20
5
30
0
11
-48.5
21
5
31
0
39
0
210
0
220
0
230
1
0
LINE
5
9B
100
AcDbEntity
8
1
62
256
6
ByLayer
370
18
48
1
60
1
100
AcDbLine
10
-46.5
20
-5
30
0
11
-46.960784
21
-1.500002
31
0
39
0
210
0
220
0
230
1
0
LINE
5
9C
100
AcDbEntity
8
1
62
256
6
ByLayer
370
18
48
1
60
1
100
AcDbLine
10
-46.960784
20
-1.500002
30
0
11
-46.039216
21
-1.499998
31
0
39
0
210
0
220
0
230
1
0
LINE
5
9D
100
AcDbEntity
8
1
62
256
6
ByLayer
370
18
48
1
60
1
100
AcDbLine
10
-46.039216
20
-1.499998
30
0
11
-46.5
21
-5
31
0
39
0
210
0
220
0
230
1
0
LINE
5
9E
100
AcDbEntity
8
1
62
256
6
ByLayer
370
18
48
1
60
1
100
AcDbLine
10
-46.5
20
5
30
0
11
-46.039216
21
1.500002
31
0
39
0
210
0
220
0
230
1
0
LINE
5
9F
100
AcDbEntity
8
1
62
256
6
ByLayer
370
18
48
1
60
1
100
AcDbLine
10
-46.039216
20
1.500002
30
0
11
-46.960784
21
1.499998
31
0
39
0
210
0
220
0
230
1
0
LINE
5
A0
100
AcDbEntity
8
1
62
256
6
ByLayer
370
18
48
1
60
1
100
AcDbLine
10
-46.960784
20
1.499998
30
0
11
-46.5
21
5
31
0
39
0
210
0
220
0
230
1
0
LINE
5
A1
100
AcDbEntity
8
SK2
62
256
6
ByLayer
370
13
48
1
60
0
100
AcDbLine
10
86.5
20
-10.5
30
0
11
86.5
21
21.133313
31
0
39
0
210
0
220
0
230
1
0
LINE
5
A2
100
AcDbEntity
8
SK2
62
256
6
ByLayer
370
13
48
1
60
0
100
AcDbLine
10
71.5875
20
-3
30
0
11
88.5
21
-3
31
0
39
0
210
0
220
0
230
1
0
LINE
5
A3
100
AcDbEntity
8
SK2
62
256
6
ByLayer
370
13
48
1
60
0
100
AcDbLine
10
71.5875
20
3
30
0
11
88.5
21
3
31
0
39
0
210
0
220
0
230
1
0
LINE
5
A4
100
AcDbEntity
8
1
62
256
6
ByLayer
370
18
48
1
60
1
100
AcDbLine
10
86.5
20
-3
30
0
11
86.960784
21
-6.499998
31
0
39
0
210
0
220
0
230
1
0
LINE
5
A5
100
AcDbEntity
8
1
62
256
6
ByLayer
370
18
48
1
60
1
100
AcDbLine
10
86.960784
20
-6.499998
30
0
11
86.039216
21
-6.500002
31
0
39
0
210
0
220
0
230
1
0
LINE
5
A6
100
AcDbEntity
8
1
62
256
6
ByLayer
370
18
48
1
60
1
100
AcDbLine
10
86.039216
20
-6.500002
30
0
11
86.5
21
-3
31
0
39
0
210
0
220
0
230
1
0
LINE
5
A7
100
AcDbEntity
8
1
62
256
6
ByLayer
370
18
48
1
60
1
100
AcDbLine
10
86.5
20
3
30
0
11
86.039216
21
6.499998
31
0
39
0
210
0
220
0
230
1
0
LINE
5
A8
100
AcDbEntity
8
1
62
256
6
ByLayer
370
18
48
1
60
1
100
AcDbLine
10
86.039216
20
6.499998
30
0
11
86.960784
21
6.500002
31
0
39
0
210
0
220
0
230
1
0
LINE
5
A9
100
AcDbEntity
8
1
62
256
6
ByLayer
370
18
48
1
60
1
100
AcDbLine
10
86.960784
20
6.500002
30
0
11
86.5
21
3
31
0
39
0
210
0
220
0
230
1
0
LINE
5
AA
100
AcDbEntity
8
SK2
62
256
6
ByLayer
370
13
48
1
60
0
100
AcDbLine
10
-23.4125
20
0
30
0
11
23.36298
21
0
31
0
39
0
210
0
220
0
230
1
0
LINE
5
AB
100
AcDbEntity
8
SK2
62
256
6
ByLayer
370
13
48
1
60
0
100
AcDbLine
10
43.416177
20
4.607988
30
0
11
19.575239
21
6.233506
31
0
39
0
210
0
220
0
230
1
0
LINE
5
AC
100
AcDbEntity
8
1
62
256
6
ByLayer
370
18
48
1
60
1
100
AcDbLine
10
21.36298
20
0
30
0
11
21.857902
21
-3.495334
31
0
39
0
210
0
220
0
230
1
0
LINE
5
AD
100
AcDbEntity
8
1
62
256
6
ByLayer
370
18
48
1
60
1
100
AcDbLine
10
21.857902
20
-3.495334
30
0
11
20.936379
21
-3.504332
31
0
39
0
210
0
220
0
230
1
0
LINE
5
AE
100
AcDbEntity
8
1
62
256
6
ByLayer
370
18
48
1
60
1
100
AcDbLine
10
20.936379
20
-3.504332
30
0
11
21.36298
21
0
31
0
39
0
210
0
220
0
230
1
0
LINE
5
AF
100
AcDbEntity
8
1
62
256
6
ByLayer
370
18
48
1
60
1
100
AcDbLine
10
21.570607
20
6.097459
30
0
11
21.383372
21
9.62269
31
0
39
0
210
0
220
0
230
1
0
LINE
5
B0
100
AcDbEntity
8
1
62
256
6
ByLayer
370
18
48
1
60
1
100
AcDbLine
10
21.383372
20
9.62269
30
0
11
22.302149
21
9.551033
31
0
39
0
210
0
220
0
230
1
0
LINE
5
B1
100
AcDbEntity
8
1
62
256
6
ByLayer
370
18
48
1
60
1
100
AcDbLine
10
22.302149
20
9.551033
30
0
11
21.570607
21
6.097459
31
0
39
0
210
0
220
0
230
1
0
LINE
5
11D
100
AcDbEntity
8
1
62
256
6
ByLayer
370
18
48
1
60
1
100
AcDbLine
10
-46.5
20
-5
30
0
11
-46.960784
21
-1.500002
31
0
39
0
210
0
220
0
230
1
0
LINE
5
11E
100
AcDbEntity
8
1
62
256
6
ByLayer
370
18
48
1
60
1
100
AcDbLine
10
-46.960784
20
-1.500002
30
0
11
-46.039216
21
-1.499998
31
0
39
0
210
0
220
0
230
1
0
LINE
5
11F
100
AcDbEntity
8
1
62
256
6
ByLayer
370
18
48
1
60
1
100
AcDbLine
10
-46.039216
20
-1.499998
30
0
11
-46.5
21
-5
31
0
39
0
210
0
220
0
230
1
0
LINE
5
121
100
AcDbEntity
8
1
62
256
6
ByLayer
370
18
48
1
60
1
100
AcDbLine
10
-46.5
20
5
30
0
11
-46.039216
21
1.500002
31
0
39
0
210
0
220
0
230
1
0
LINE
5
122
100
AcDbEntity
8
1
62
256
6
ByLayer
370
18
48
1
60
1
100
AcDbLine
10
-46.039216
20
1.500002
30
0
11
-46.960784
21
1.499998
31
0
39
0
210
0
220
0
230
1
0
LINE
5
123
100
AcDbEntity
8
1
62
256
6
ByLayer
370
18
48
1
60
1
100
AcDbLine
10
-46.960784
20
1.499998
30
0
11
-46.5
21
5
31
0
39
0
210
0
220
0
230
1
0
LINE
5
127
100
AcDbEntity
8
1
62
256
6
ByLayer
370
18
48
1
60
1
100
AcDbLine
10
86.5
20
-3
30
0
11
86.960784
21
-6.499998
31
0
39
0
210
0
220
0
230
1
0
LINE
5
128
100
AcDbEntity
8
1
62
256
6
ByLayer
370
18
48
1
60
1
100
AcDbLine
10
86.960784
20
-6.499998
30
0
11
86.039216
21
-6.500002
31
0
39
0
210
0
220
0
230
1
0
LINE
5
129
100
AcDbEntity
8
1
62
256
6
ByLayer
370
18
48
1
60
1
100
AcDbLine
10
86.039216
20
-6.500002
30
0
11
86.5
21
-3
31
0
39
0
210
0
220
0
230
1
0
LINE
5
12B
100
AcDbEntity
8
1
62
256
6
ByLayer
370
18
48
1
60
1
100
AcDbLine
10
86.5
20
3
30
0
11
86.039216
21
6.499998
31
0
39
0
210
0
220
0
230
1
0
LINE
5
12C
100
AcDbEntity
8
1
62
256
6
ByLayer
370
18
48
1
60
1
100
AcDbLine
10
86.039216
20
6.499998
30
0
11
86.960784
21
6.500002
31
0
39
0
210
0
220
0
230
1
0
LINE
5
12D
100
AcDbEntity
8
1
62
256
6
ByLayer
370
18
48
1
60
1
100
AcDbLine
10
86.960784
20
6.500002
30
0
11
86.5
21
3
31
0
39
0
210
0
220
0
230
1
0
LINE
5
130
100
AcDbEntity
8
1
62
256
6
ByLayer
370
18
48
1
60
1
100
AcDbLine
10
21.36298
20
0
30
0
11
21.857902
21
-3.495334
31
0
39
0
210
0
220
0
230
1
0
LINE
5
131
100
AcDbEntity
8
1
62
256
6
ByLayer
370
18
48
1
60
1
100
AcDbLine
10
21.857902
20
-3.495334
30
0
11
20.936379
21
-3.504332
31
0
39
0
210
0
220
0
230
1
0
LINE
5
132
100
AcDbEntity
8
1
62
256
6
ByLayer
370
18
48
1
60
1
100
AcDbLine
10
20.936379
20
-3.504332
30
0
11
21.36298
21
0
31
0
39
0
210
0
220
0
230
1
0
LINE
5
134
100
AcDbEntity
8
1
62
256
6
ByLayer
370
18
48
1
60
1
100
AcDbLine
10
21.570607
20
6.097459
30
0
11
21.383372
21
9.62269
31
0
39
0
210
0
220
0
230
1
0
LINE
5
135
100
AcDbEntity
8
1
62
256
6
ByLayer
370
18
48
1
60
1
100
AcDbLine
10
21.383372
20
9.62269
30
0
11
22.302149
21
9.551033
31
0
39
0
210
0
220
0
230
1
0
LINE
5
136
100
AcDbEntity
8
1
62
256
6
ByLayer
370
18
48
1
60
1
100
AcDbLine
10
22.302149
20
9.551033
30
0
11
21.570607
21
6.097459
31
0
39
0
210
0
220
0
230
1
0
LINE
5
139
100
AcDbEntity
8
1
62
256
6
ByLayer
370
13
48
1
60
0
100
AcDbLine
10
85.800458
20
-21.3469
30
0
11
85.800458
21
-21.3469
31
0
39
0
210
0
220
0
230
1
0
MTEXT
5
119
100
AcDbEntity
8
SK2
62
256
6
ByLayer
370
18
48
1
60
0
100
AcDbMText
10
-47.841114
20
9.658437
30
0
210
0
220
0
230
1
1
%%c
40
3
41
0
44
1.084337
50
90
71
7
72
5
7
iso_b_vert
0
MTEXT
5
11C
100
AcDbEntity
8
SK2
62
256
6
ByLayer
370
18
48
1
60
0
100
AcDbMText
10
-47.841114
20
15.635
30
0
210
0
220
0
230
1
1
\W0.6563;10 h6
40
3
41
0
44
1.084337
50
90
71
7
72
5
7
iso_b_vert
0
MTEXT
5
125
100
AcDbEntity
8
SK2
62
256
6
ByLayer
370
18
48
1
60
0
100
AcDbMText
10
85.158886
20
7.658437
30
0
210
0
220
0
230
1
1
%%c
40
3
41
0
44
1.084337
50
90
71
7
72
5
7
iso_b_vert
0
MTEXT
5
126
100
AcDbEntity
8
SK2
62
256
6
ByLayer
370
18
48
1
60
0
100
AcDbMText
10
85.158886
20
13.635
30
0
210
0
220
0
230
1
1
\W0.6903;6 h6
40
3
41
0
44
1.084337
50
90
71
7
72
5
7
iso_b_vert
0
MTEXT
5
12F
100
AcDbEntity
8
SK2
62
256
6
ByLayer
370
18
48
1
60
0
100
AcDbMText
10
21.139239
20
10.130303
30
0
210
0
220
0
230
1
1
\W0.8531;3.0%%d
40
3
41
0
44
1.084337
50
79.4183644790554
71
7
72
5
7
iso_b_vert
0
MTEXT
5
141
100
AcDbEntity
8
SK6
62
256
6
ByLayer
370
18
48
1
60
0
100
AcDbMText
10
-11.392282
20
-57.114886
30
0
210
0
220
0
230
1
1
\W0.7738;2T346-0600-TA1000   T2CH
40
3
41
0
44
1.084337
50
0
71
7
72
5
7
iso_b_vert
0
HATCH
5
120
100
AcDbEntity
8
SK2
62
256
6
ByLayer
370
13
48
1
60
0
100
AcDbHatch
10
0
20
0
30
0
210
0
220
0
230
1
2
ANSI31
70
0
71
0
91
1
92
5
93
3
72
1
10
-46.5
20
-5
11
-46.9607837415528
21
-1.50000169255318
72
1
10
-46.9607837415528
20
-1.50000169255318
11
-46.0392162584472
21
-1.49999830744682
72
1
10
-46.0392162584472
20
-1.49999830744682
11
-46.5
21
-5
97
0
75
0
76
1
52
0
41
0.0062
77
0
78
1
53
45
43
0
44
0
45
-0.0139193969876572
46
0.0139193969876572
79
0
47
0
98
1
10
0
20
0
0
HATCH
5
124
100
AcDbEntity
8
SK2
62
256
6
ByLayer
370
13
48
1
60
0
100
AcDbHatch
10
0
20
0
30
0
210
0
220
0
230
1
2
ANSI31
70
0
71
0
91
1
92
5
93
3
72
1
10
-46.5
20
5
11
-46.0392162584472
21
1.50000169255318
72
1
10
-46.0392162584472
20
1.50000169255318
11
-46.9607837415528
21
1.49999830744682
72
1
10
-46.9607837415528
20
1.49999830744682
11
-46.5
21
5
97
0
75
0
76
1
52
0
41
0.0062
77
0
78
1
53
45
43
0
44
0
45
-0.0139193969876572
46
0.0139193969876572
79
0
47
0
98
1
10
0
20
0
0
HATCH
5
12A
100
AcDbEntity
8
SK2
62
256
6
ByLayer
370
13
48
1
60
0
100
AcDbHatch
10
0
20
0
30
0
210
0
220
0
230
1
2
ANSI31
70
0
71
0
91
1
92
5
93
3
72
1
10
86.5
20
-3
11
86.9607837415528
21
-6.49999830744682
72
1
10
86.9607837415528
20
-6.49999830744682
11
86.0392162584472
21
-6.50000169255318
72
1
10
86.0392162584472
20
-6.50000169255318
11
86.5
21
-3
97
0
75
0
76
1
52
0
41
0.0062
77
0
78
1
53
45
43
0
44
0
45
-0.0139193969876572
46
0.0139193969876572
79
0
47
0
98
1
10
0
20
0
0
HATCH
5
12E
100
AcDbEntity
8
SK2
62
256
6
ByLayer
370
13
48
1
60
0
100
AcDbHatch
10
0
20
0
30
0
210
0
220
0
230
1
2
ANSI31
70
0
71
0
91
1
92
5
93
3
72
1
10
86.5
20
3
11
86.0392162584472
21
6.49999830744682
72
1
10
86.0392162584472
20
6.49999830744682
11
86.9607837415528
21
6.50000169255318
72
1
10
86.9607837415528
20
6.50000169255318
11
86.5
21
3
97
0
75
0
76
1
52
0
41
0.0062
77
0
78
1
53
45
43
0
44
0
45
-0.0139193969876572
46
0.0139193969876572
79
0
47
0
98
1
10
0
20
0
0
HATCH
5
133
100
AcDbEntity
8
SK2
62
256
6
ByLayer
370
13
48
1
60
0
100
AcDbHatch
10
0
20
0
30
0
210
0
220
0
230
1
2
ANSI31
70
0
71
0
91
1
92
5
93
3
72
1
10
21.3629797448665
20
0
11
21.8579022109545
21
-3.49533425600058
72
1
10
21.8579022109545
20
-3.49533425600058
11
20.9363786568578
21
-3.50433232100843
72
1
10
20.9363786568578
20
-3.50433232100843
11
21.3629797448665
21
0
97
0
75
0
76
1
52
0
41
0.0062
77
0
78
1
53
45
43
0
44
0
45
-0.0139193969876572
46
0.0139193969876572
79
0
47
0
98
1
10
0
20
0
0
HATCH
5
137
100
AcDbEntity
8
SK2
62
256
6
ByLayer
370
13
48
1
60
0
100
AcDbHatch
10
0
20
0
30
0
210
0
220
0
230
1
2
ANSI31
70
0
71
0
91
1
92
5
93
3
72
1
10
21.5706066308884
20
6.09745863880264
11
21.3833717286824
21
9.62268953904248
72
1
10
21.3833717286824
20
9.62268953904248
11
22.3021491940989
21
9.55103345087286
72
1
10
22.3021491940989
20
9.55103345087286
11
21.5706066308884
21
6.09745863880264
97
0
75
0
76
1
52
0
41
0.0062
77
0
78
1
53
45
43
0
44
0
45
-0.0139193969876572
46
0.0139193969876572
79
0
47
0
98
1
10
0
20
0
0
DIMENSION
5
144
100
AcDbEntity
8
SK2
62
256
6
ByLayer
370
18
48
1
60
0
100
AcDbDimension
2
_U0
10
70
20
-40.097768
30
0
11
15
21
-40.097768
31
0
70
32
71
1
72
1
41
1
210
0
220
0
230
1
3
Standard
100
AcDbAlignedDimension
13
-40
23
5
33
0
14
70
24
3
34
0
50
0
100
AcDbRotatedDimension
1001
ACAD
1000
DSTYLE
1002
{
1070
   371
1070
    13
1070
   372
1070
    13
1070
     3
1000

1070
   170
1070
     0
1070
   144
1040
1.0
1070
   277
1070
     2
1070
   284
1070
     8
1070
   278
1070
    46
1070
   146
1040
1.166667
1070
   345
1005
16
1070
   347
1005
16
1070
   346
1005
16
1070
   344
1005
0
1070
   343
1005
0
1070
   172
1070
     1
1070
    76
1070
     0
1070
    75
1070
     0
1070
   282
1070
     0
1070
   281
1070
     0
1070
    71
1070
     0
1070
    74
1070
     0
1070
   279
1070
     0
1070
   173
1070
     1
1070
   340
1005
11A
1070
   271
1070
     2
1070
   272
1070
     2
1070
    77
1070
     1
1070
    73
1070
     1
1070
   171
1070
     3
1070
   274
1070
     4
1070
   177
1070
     2
1070
   176
1070
     2
1070
   178
1070
     2
1070
    78
1070
     8
1070
    48
1040
-0.1
1070
    41
1040
3.5
1070
   147
1040
1.5
1070
    42
1040
1.5875
1070
    44
1040
2.0
1070
   140
1040
3.0
1002
}
1001
ACAD_DSTYLE_DIM_LINETYPE
1070
   380
1005
16
1001
ACAD_DSTYLE_DIM_EXT1_LINETYPE
1070
   381
1005
16
1001
ACAD_DSTYLE_DIM_EXT2_LINETYPE
1070
   382
1005
16
0
DIMENSION
5
15D
100
AcDbEntity
8
SK2
62
256
6
ByLayer
370
18
48
1
60
0
100
AcDbDimension
2
_U1
10
0
20
-28.097768
30
0
11
35
21
-28.097768
31
0
70
32
71
1
72
1
41
1
210
0
220
0
230
1
3
Standard
100
AcDbAlignedDimension
13
70
23
-3
33
0
14
0
24
-5
34
0
50
0
100
AcDbRotatedDimension
1001
ACAD
1000
DSTYLE
1002
{
1070
   371
1070
    13
1070
   372
1070
    13
1070
     3
1000

1070
   170
1070
     0
1070
   144
1040
1.0
1070
   277
1070
     2
1070
   284
1070
     8
1070
   278
1070
    46
1070
   146
1040
1.166667
1070
   345
1005
16
1070
   347
1005
16
1070
   346
1005
16
1070
   344
1005
0
1070
   343
1005
0
1070
   172
1070
     1
1070
    76
1070
     0
1070
    75
1070
     0
1070
   282
1070
     0
1070
   281
1070
     0
1070
    71
1070
     0
1070
    74
1070
     0
1070
   279
1070
     0
1070
   173
1070
     1
1070
   340
1005
11A
1070
   271
1070
     2
1070
   272
1070
     2
1070
    77
1070
     1
1070
    73
1070
     1
1070
   171
1070
     3
1070
   274
1070
     4
1070
   177
1070
     2
1070
   176
1070
     2
1070
   178
1070
     2
1070
    78
1070
     8
1070
    48
1040
-0.1
1070
    41
1040
3.5
1070
   147
1040
1.5
1070
    42
1040
1.5875
1070
    44
1040
2.0
1070
   140
1040
3.0
1002
}
1001
ACAD_DSTYLE_DIM_LINETYPE
1070
   380
1005
16
1001
ACAD_DSTYLE_DIM_EXT1_LINETYPE
1070
   381
1005
16
1001
ACAD_DSTYLE_DIM_EXT2_LINETYPE
1070
   382
1005
16
0
DIMENSION
5
175
100
AcDbEntity
8
SK2
62
256
6
ByLayer
370
18
48
1
60
0
100
AcDbDimension
2
_U2
10
55
20
-14.097768
30
0
11
62.5
21
-14.097768
31
0
70
32
71
1
72
1
41
1
210
0
220
0
230
1
3
Standard
100
AcDbAlignedDimension
13
70
23
-3
33
0
14
55
24
-5
34
0
50
0
100
AcDbRotatedDimension
1001
ACAD
1000
DSTYLE
1002
{
1070
   371
1070
    13
1070
   372
1070
    13
1070
     3
1000

1070
   170
1070
     0
1070
   144
1040
1.0
1070
   277
1070
     2
1070
   284
1070
     8
1070
   278
1070
    46
1070
   146
1040
1.166667
1070
   345
1005
16
1070
   347
1005
16
1070
   346
1005
16
1070
   344
1005
0
1070
   343
1005
0
1070
   172
1070
     1
1070
    76
1070
     0
1070
    75
1070
     0
1070
   282
1070
     0
1070
   281
1070
     0
1070
    71
1070
     0
1070
    74
1070
     0
1070
   279
1070
     0
1070
   173
1070
     1
1070
   340
1005
11A
1070
   271
1070
     2
1070
   272
1070
     2
1070
    77
1070
     1
1070
    73
1070
     1
1070
   171
1070
     3
1070
   274
1070
     4
1070
   177
1070
     2
1070
   176
1070
     2
1070
   178
1070
     2
1070
    78
1070
     8
1070
    48
1040
-0.1
1070
    41
1040
3.5
1070
   147
1040
1.5
1070
    42
1040
1.5875
1070
    44
1040
2.0
1070
   140
1040
3.0
1002
}
1001
ACAD_DSTYLE_DIM_LINETYPE
1070
   380
1005
16
1001
ACAD_DSTYLE_DIM_EXT1_LINETYPE
1070
   381
1005
16
1001
ACAD_DSTYLE_DIM_EXT2_LINETYPE
1070
   382
1005
16
0
ENDSEC
0
SECTION
2
OBJECTS
0
DICTIONARY
5
1fe
330
0
100
AcDbDictionary
280
0
281
1
3
ACAD_GROUP
350
1ff
3
ACAD_MLINESTYLE
350
200
0
DICTIONARY
5
1ff
330
0
100
AcDbDictionary
280
0
281
1
0
DICTIONARY
5
200
330
0
100
AcDbDictionary
280
0
281
1
3
Standard
350
18
0
MLINESTYLE
5
18
330
200
100
AcDbMlineStyle
2
Standard
70
0
3

62
256
51
90
52
90
71
2
49
-0.5
62
256
6
ByLayer
49
0.5
62
256
6
ByLayer
0
RASTERVARIABLES
5
1ec
330

100
AcDbRasterVariables
90
0
70
1
71
1
72
1
0
ENDSEC
0
EOF
