0
SECTION
2
HEADER
9
$ACADVER
1
AC1015
9
$DWGCODEPAGE
3
ANSI_1252
9
$HANDSEED
5
20b
9
$ANGBASE
50
0
9
$ANGDIR
70
0
9
$ATTMODE
70
1
9
$AUNITS
70
0
9
$AUPREC
70
0
9
$CECOLOR
62
256
9
$CELTSCALE
40
1
9
$CELTYPE
6
ByLayer
9
$CELWEIGHT
370
18
9
$CLAYER
8
0
9
$CMLJUST
70
0
9
$CMLSCALE
40
1
9
$CMLSTYLE
2
Standard
9
$DIMSTYLE
2
Standard
9
$TEXTSIZE
40
0.2
9
$TEXTSTYLE
7
Standard
9
$LUNITS
70
2
9
$LUPREC
70
4
9
$EXTNAMES
290
1
9
$INSUNITS
70
4
9
$LTSCALE
40
1
9
$LWDISPLAY
290
1
9
$PDMODE
70
0
9
$PDSIZE
40
0
9
$PLINEGEN
70
0
0
ENDSEC
0
SECTION
2
CLASSES
0
CLASS
1
RASTERVARIABLES
2
AcDbRasterVariables
3
ISM
90
0
280
0
281
0
0
ENDSEC
0
SECTION
2
TABLES
0
TABLE
2
VPORT
5
201
100
AcDbSymbolTable
0
VPORT
5
1
100
AcDbSymbolTableRecord
100
AcDbViewportTableRecord
2
*Active
70
0
10
0
20
0
11
1
21
1
12
-1
22
1
13
0
23
0
14
0.5
24
0.5
15
10
25
10
16
0
26
0
36
1
17
0
27
0
37
0
0
ENDTAB
0
TABLE
2
LTYPE
5
202
100
AcDbSymbolTable
0
LTYPE
5
14
100
AcDbSymbolTableRecord
100
AcDbLinetypeTableRecord
70
0
2
ByBlock
3

72
65
73
0
40
0
0
LTYPE
5
15
100
AcDbSymbolTableRecord
100
AcDbLinetypeTableRecord
70
0
2
ByLayer
3

72
65
73
0
40
0
0
LTYPE
5
16
100
AcDbSymbolTableRecord
100
AcDbLinetypeTableRecord
70
0
2
Continuous
3
Solid line
72
65
73
0
40
0
0
LTYPE
5
6E
100
AcDbSymbolTableRecord
100
AcDbLinetypeTableRecord
70
0
2
CENTER
3
____ _ ____ _ ____ _ ____
72
65
73
4
40
47.5
49
22
74
0
49
-8.5
74
0
49
8.5
74
0
49
-8.5
74
0
0
LTYPE
5
6F
100
AcDbSymbolTableRecord
100
AcDbLinetypeTableRecord
70
0
2
DASHED
3
__ __ __ __ __ __ __ __ __
72
65
73
2
40
25.72
49
12.86
74
0
49
-12.86
74
0
0
ENDTAB
0
TABLE
2
LAYER
5
203
100
AcDbSymbolTable
0
LAYER
5
10
100
AcDbSymbolTableRecord
100
AcDbLayerTableRecord
2
0
70
0
62
7
6
Continuous
290
1
370
-3
390
0
0
LAYER
5
71
100
AcDbSymbolTableRecord
100
AcDbLayerTableRecord
2
81
70
0
62
-3
6
Continuous
290
1
370
-3
390
0
0
LAYER
5
73
100
AcDbSymbolTableRecord
100
AcDbLayerTableRecord
2
1
70
0
62
4
6
Continuous
290
1
370
-3
390
0
0
LAYER
5
75
100
AcDbSymbolTableRecord
100
AcDbLayerTableRecord
2
80
70
0
62
-6
6
Continuous
290
1
370
-3
390
0
0
LAYER
5
80
100
AcDbSymbolTableRecord
100
AcDbLayerTableRecord
2
4
70
0
62
-2
6
CENTER
290
1
370
-3
390
0
0
LAYER
5
147
100
AcDbSymbolTableRecord
100
AcDbLayerTableRecord
2
Defpoints
70
0
62
7
6
Continuous
290
0
370
-3
390
0
0
LAYER
5
1ed
100
AcDbSymbolTableRecord
100
AcDbLayerTableRecord
2
SK4
70
0
62
2
6
CENTER
290
1
370
-3
390
0
0
LAYER
5
1ee
100
AcDbSymbolTableRecord
100
AcDbLayerTableRecord
2
SK1
70
0
62
4
6
Continuous
290
1
370
-3
390
0
0
LAYER
5
1ef
100
AcDbSymbolTableRecord
100
AcDbLayerTableRecord
2
SK2
70
0
62
7
6
Continuous
290
1
370
-3
390
0
0
LAYER
5
1f0
100
AcDbSymbolTableRecord
100
AcDbLayerTableRecord
2
SK6
70
0
62
5
6
Continuous
290
1
370
-3
390
0
0
ENDTAB
0
TABLE
2
STYLE
5
204
100
AcDbSymbolTable
0
STYLE
5
11
100
AcDbSymbolTableRecord
100
AcDbTextStyleTableRecord
2
Standard
3
txt
70
0
71
0
40
0
41
1
42
0
50
0
0
STYLE
5
11A
100
AcDbSymbolTableRecord
100
AcDbTextStyleTableRecord
2
iso_b_vert
3
simplex.shx
70
0
71
0
40
0
41
1
42
0
50
0
0
STYLE
5
11B
100
AcDbSymbolTableRecord
100
AcDbTextStyleTableRecord
2
DWGDirectTextStyle
3
simplex
70
0
71
0
40
0
41
1
42
0
50
0
0
ENDTAB
0
TABLE
2
DIMSTYLE
5
205
100
AcDbSymbolTable
100
AcDbDimStyleTable
0
DIMSTYLE
105
27
100
AcDbSymbolTableRecord
100
AcDbDimStyleTableRecord
2
Standard
70
0
3
<>
41
0.18
42
0.0625
44
0.18
140
0.18
147
0.09
73
0
74
0
77
1
271
2
275
0
278
52
280
0
340
11
0
ENDTAB
0
TABLE
2
VIEW
5
206
100
AcDbSymbolTable
0
ENDTAB
0
TABLE
2
UCS
5
207
100
AcDbSymbolTable
0
ENDTAB
0
TABLE
2
APPID
5
208
100
AcDbSymbolTable
0
APPID
5
12
100
AcDbSymbolTableRecord
100
AcDbRegAppTableRecord
2
ACAD
70
0
0
APPID
5
143
100
AcDbSymbolTableRecord
100
AcDbRegAppTableRecord
2
ACAD_DSTYLE_DIMBREAK
70
0
0
APPID
5
1AC
100
AcDbSymbolTableRecord
100
AcDbRegAppTableRecord
2
ACAD_DSTYLE_DIM_LINETYPE
70
0
0
APPID
5
1AD
100
AcDbSymbolTableRecord
100
AcDbRegAppTableRecord
2
ACAD_DSTYLE_DIM_EXT1_LINETYPE
70
0
0
APPID
5
1AE
100
AcDbSymbolTableRecord
100
AcDbRegAppTableRecord
2
ACAD_DSTYLE_DIM_EXT2_LINETYPE
70
0
0
APPID
5
1E9
100
AcDbSymbolTableRecord
100
AcDbRegAppTableRecord
2
ACAD_MLEADERVER
70
0
0
ENDTAB
0
TABLE
2
BLOCK_RECORD
5
209
100
AcDbSymbolTable
0
BLOCK_RECORD
5
1F
100
AcDbSymbolTableRecord
100
AcDbBlockTableRecord
2
*Model_Space
340
0
70
0
0
BLOCK_RECORD
5
1B
100
AcDbSymbolTableRecord
100
AcDbBlockTableRecord
2
*Paper_Space
340
0
70
0
0
BLOCK_RECORD
5
23
100
AcDbSymbolTableRecord
100
AcDbBlockTableRecord
2
*Paper_Space0
340
0
70
0
0
BLOCK_RECORD
5
138
100
AcDbSymbolTableRecord
100
AcDbBlockTableRecord
2
LABLE3D_1
340
0
70
0
0
BLOCK_RECORD
5
148
100
AcDbSymbolTableRecord
100
AcDbBlockTableRecord
2
*D2
340
0
70
0
0
BLOCK_RECORD
5
154
100
AcDbSymbolTableRecord
100
AcDbBlockTableRecord
2
_U0
340
0
70
0
0
BLOCK_RECORD
5
160
100
AcDbSymbolTableRecord
100
AcDbBlockTableRecord
2
*D4
340
0
70
0
0
BLOCK_RECORD
5
16C
100
AcDbSymbolTableRecord
100
AcDbBlockTableRecord
2
_U1
340
0
70
0
0
BLOCK_RECORD
5
178
100
AcDbSymbolTableRecord
100
AcDbBlockTableRecord
2
*D6
340
0
70
0
0
BLOCK_RECORD
5
185
100
AcDbSymbolTableRecord
100
AcDbBlockTableRecord
2
_U2
340
0
70
0
0
ENDTAB
0
ENDSEC
0
SECTION
2
BLOCKS
0
BLOCK
5
20
100
AcDbEntity
8
0
100
AcDbBlockBegin
2
*Model_Space
70
0
10
0
20
0
30
0
3
*Model_Space
0
ENDBLK
5
21
100
AcDbEntity
8
0
100
AcDbBlockEnd
0
BLOCK
5
1C
100
AcDbEntity
8
0
100
AcDbBlockBegin
2
*Paper_Space
70
0
10
0
20
0
30
0
3
*Paper_Space
0
ENDBLK
5
1D
100
AcDbEntity
8
0
100
AcDbBlockEnd
0
BLOCK
5
24
100
AcDbEntity
8
0
100
AcDbBlockBegin
2
*Paper_Space0
70
0
10
0
20
0
30
0
3
*Paper_Space0
0
ENDBLK
5
25
100
AcDbEntity
8
0
100
AcDbBlockEnd
0
BLOCK
5
13F
100
AcDbEntity
8
0
100
AcDbBlockBegin
2
LABLE3D_1
70
0
10
78.601373
20
-20.8724
30
0
3
LABLE3D_1
0
MTEXT
5
13D
100
AcDbEntity
8
1
62
256
6
ByLayer
370
18
48
1
60
0
100
AcDbMText
10
80.260373
20
-22.987286
30
0
210
0
220
0
230
1
1
\W0.7607;R2.50
40
3
41
0
44
1.084337
50
0
71
7
72
5
7
iso_b_vert
0
ENDBLK
5
140
100
AcDbEntity
8
0
100
AcDbBlockEnd
0
BLOCK
5
149
100
AcDbEntity
8
0
100
AcDbBlockBegin
2
*D2
70
1
10
0
20
0
30
0
3
*D2
0
LINE
5
14B
100
AcDbEntity
8
0
62
256
6
ByLayer
370
-2
48
1
60
0
100
AcDbLine
10
-40
20
3.4125
30
0
11
-40
21
-41.85
31
0
39
0
210
0
220
0
230
1
0
LINE
5
14C
100
AcDbEntity
8
0
62
256
6
ByLayer
370
-2
48
1
60
0
100
AcDbLine
10
70
20
0.9125
30
0
11
70
21
-41.85
31
0
39
0
210
0
220
0
230
1
0
LINE
5
14D
100
AcDbEntity
8
0
62
256
6
ByLayer
370
-2
48
1
60
0
100
AcDbLine
10
-36.5
20
-39.85
30
0
11
66.5
21
-39.85
31
0
39
0
210
0
220
0
230
1
0
SOLID
5
14E
100
AcDbEntity
8
0
62
256
6
ByLayer
370
-1
48
1
60
0
100
AcDbTrace
10
-36.5
20
-39.266667
30
0
11
-36.5
21
-40.433333
31
0
12
-40
22
-39.85
32
0
13
-40
23
-39.85
33
0
39
0
210
0
220
0
230
1
0
SOLID
5
14F
100
AcDbEntity
8
0
62
256
6
ByLayer
370
-1
48
1
60
0
100
AcDbTrace
10
66.5
20
-40.433333
30
0
11
66.5
21
-39.266667
31
0
12
70
22
-39.85
32
0
13
70
23
-39.85
33
0
39
0
210
0
220
0
230
1
0
MTEXT
5
150
100
AcDbEntity
8
0
62
256
6
ByLayer
370
18
48
1
60
0
100
AcDbMText
10
15
20
-33.85
30
0
210
0
220
0
230
1
1
\A1;110
40
3
41
0
44
1
50
0
71
5
72
5
7
iso_b_vert
0
POINT
5
151
100
AcDbEntity
8
Defpoints
62
0
6
ByLayer
370
-1
48
1
60
0
100
AcDbPoint
10
-40
20
5
30
0
39
0
210
0
220
0
230
1
50
360
0
POINT
5
152
100
AcDbEntity
8
Defpoints
62
0
6
ByLayer
370
-1
48
1
60
0
100
AcDbPoint
10
70
20
2.5
30
0
39
0
210
0
220
0
230
1
50
360
0
POINT
5
153
100
AcDbEntity
8
Defpoints
62
0
6
ByLayer
370
-1
48
1
60
0
100
AcDbPoint
10
70
20
-39.85
30
0
39
0
210
0
220
0
230
1
50
360
0
ENDBLK
5
14A
100
AcDbEntity
8
0
100
AcDbBlockEnd
0
BLOCK
5
15B
100
AcDbEntity
8
0
100
AcDbBlockBegin
2
_U0
70
0
10
0
20
0
30
0
3
_U0
0
MTEXT
5
155
100
AcDbEntity
8
SK2
62
256
6
ByLayer
370
18
48
1
60
0
100
AcDbMText
10
12.996143
20
-38.964886
30
0
210
0
220
0
230
1
1
\W0.5296;110
40
3
41
0
44
1.084337
50
0
71
7
72
5
7
iso_b_vert
0
LINE
5
156
100
AcDbEntity
8
SK2
62
256
6
ByLayer
370
13
48
1
60
0
100
AcDbLine
10
-40
20
3.4125
30
0
11
-40
21
-41.85
31
0
39
0
210
0
220
0
230
1
0
LINE
5
157
100
AcDbEntity
8
SK2
62
256
6
ByLayer
370
13
48
1
60
0
100
AcDbLine
10
70
20
0.9125
30
0
11
70
21
-41.85
31
0
39
0
210
0
220
0
230
1
0
LINE
5
158
100
AcDbEntity
8
SK2
62
256
6
ByLayer
370
13
48
1
60
0
100
AcDbLine
10
-40
20
-39.85
30
0
11
70
21
-39.85
31
0
39
0
210
0
220
0
230
1
0
SOLID
5
159
100
AcDbEntity
8
SK2
62
256
6
ByLayer
370
18
48
1
60
0
100
AcDbTrace
10
-40
20
-39.85
30
0
11
-36.500002
21
-39.389216
31
0
12
-36.499998
22
-40.310784
32
0
13
-36.499998
23
-40.310784
33
0
39
0
210
0
220
0
230
1
0
SOLID
5
15A
100
AcDbEntity
8
SK2
62
256
6
ByLayer
370
18
48
1
60
0
100
AcDbTrace
10
70
20
-39.85
30
0
11
66.500002
21
-40.310784
31
0
12
66.499998
22
-39.389216
32
0
13
66.499998
23
-39.389216
33
0
39
0
210
0
220
0
230
1
0
ENDBLK
5
15C
100
AcDbEntity
8
0
100
AcDbBlockEnd
0
BLOCK
5
161
100
AcDbEntity
8
0
100
AcDbBlockBegin
2
*D4
70
1
10
0
20
0
30
0
3
*D4
0
LINE
5
163
100
AcDbEntity
8
0
62
256
6
ByLayer
370
-2
48
1
60
0
100
AcDbLine
10
70
20
-4.0875
30
0
11
70
21
-29.85
31
0
39
0
210
0
220
0
230
1
0
LINE
5
164
100
AcDbEntity
8
0
62
256
6
ByLayer
370
-2
48
1
60
0
100
AcDbLine
10
0
20
-6.5875
30
0
11
0
21
-29.85
31
0
39
0
210
0
220
0
230
1
0
LINE
5
165
100
AcDbEntity
8
0
62
256
6
ByLayer
370
-2
48
1
60
0
100
AcDbLine
10
66.5
20
-27.85
30
0
11
3.5
21
-27.85
31
0
39
0
210
0
220
0
230
1
0
SOLID
5
166
100
AcDbEntity
8
0
62
256
6
ByLayer
370
-1
48
1
60
0
100
AcDbTrace
10
66.5
20
-28.433333
30
0
11
66.5
21
-27.266667
31
0
12
70
22
-27.85
32
0
13
70
23
-27.85
33
0
39
0
210
0
220
0
230
1
0
SOLID
5
167
100
AcDbEntity
8
0
62
256
6
ByLayer
370
-1
48
1
60
0
100
AcDbTrace
10
3.5
20
-27.266667
30
0
11
3.5
21
-28.433333
31
0
12
0
22
-27.85
32
0
13
0
23
-27.85
33
0
39
0
210
0
220
0
230
1
0
MTEXT
5
168
100
AcDbEntity
8
0
62
256
6
ByLayer
370
18
48
1
60
0
100
AcDbMText
10
35
20
-21.85
30
0
210
0
220
0
230
1
1
\A1;70
40
3
41
0
44
1
50
0
71
5
72
5
7
iso_b_vert
0
POINT
5
169
100
AcDbEntity
8
Defpoints
62
0
6
ByLayer
370
-1
48
1
60
0
100
AcDbPoint
10
70
20
-2.5
30
0
39
0
210
0
220
0
230
1
50
360
0
POINT
5
16A
100
AcDbEntity
8
Defpoints
62
0
6
ByLayer
370
-1
48
1
60
0
100
AcDbPoint
10
0
20
-5
30
0
39
0
210
0
220
0
230
1
50
360
0
POINT
5
16B
100
AcDbEntity
8
Defpoints
62
0
6
ByLayer
370
-1
48
1
60
0
100
AcDbPoint
10
0
20
-27.85
30
0
39
0
210
0
220
0
230
1
50
360
0
ENDBLK
5
162
100
AcDbEntity
8
0
100
AcDbBlockEnd
0
BLOCK
5
173
100
AcDbEntity
8
0
100
AcDbBlockBegin
2
_U1
70
0
10
0
20
0
30
0
3
_U1
0
MTEXT
5
16D
100
AcDbEntity
8
SK2
62
256
6
ByLayer
370
18
48
1
60
0
100
AcDbMText
10
33.367172
20
-26.964886
30
0
210
0
220
0
230
1
1
\W0.6740;70
40
3
41
0
44
1.084337
50
0
71
7
72
5
7
iso_b_vert
0
LINE
5
16E
100
AcDbEntity
8
SK2
62
256
6
ByLayer
370
13
48
1
60
0
100
AcDbLine
10
70
20
-4.0875
30
0
11
70
21
-29.85
31
0
39
0
210
0
220
0
230
1
0
LINE
5
16F
100
AcDbEntity
8
SK2
62
256
6
ByLayer
370
13
48
1
60
0
100
AcDbLine
10
0
20
-6.5875
30
0
11
0
21
-29.85
31
0
39
0
210
0
220
0
230
1
0
LINE
5
170
100
AcDbEntity
8
SK2
62
256
6
ByLayer
370
13
48
1
60
0
100
AcDbLine
10
70
20
-27.85
30
0
11
0
21
-27.85
31
0
39
0
210
0
220
0
230
1
0
SOLID
5
171
100
AcDbEntity
8
SK2
62
256
6
ByLayer
370
18
48
1
60
0
100
AcDbTrace
10
70
20
-27.85
30
0
11
66.500002
21
-28.310784
31
0
12
66.499998
22
-27.389216
32
0
13
66.499998
23
-27.389216
33
0
39
0
210
0
220
0
230
1
0
SOLID
5
172
100
AcDbEntity
8
SK2
62
256
6
ByLayer
370
18
48
1
60
0
100
AcDbTrace
10
0
20
-27.85
30
0
11
3.499998
21
-27.389216
31
0
12
3.500002
22
-28.310784
32
0
13
3.500002
23
-28.310784
33
0
39
0
210
0
220
0
230
1
0
ENDBLK
5
174
100
AcDbEntity
8
0
100
AcDbBlockEnd
0
BLOCK
5
179
100
AcDbEntity
8
0
100
AcDbBlockBegin
2
*D6
70
1
10
0
20
0
30
0
3
*D6
0
LINE
5
17B
100
AcDbEntity
8
0
62
256
6
ByLayer
370
-2
48
1
60
0
100
AcDbLine
10
70
20
-4.0875
30
0
11
70
21
-15.85
31
0
39
0
210
0
220
0
230
1
0
LINE
5
17C
100
AcDbEntity
8
0
62
256
6
ByLayer
370
-2
48
1
60
0
100
AcDbLine
10
57.5
20
-6.5875
30
0
11
57.5
21
-15.85
31
0
39
0
210
0
220
0
230
1
0
LINE
5
17D
100
AcDbEntity
8
0
62
256
6
ByLayer
370
-2
48
1
60
0
100
AcDbLine
10
73.5
20
-13.85
30
0
11
77
21
-13.85
31
0
39
0
210
0
220
0
230
1
0
LINE
5
17E
100
AcDbEntity
8
0
62
256
6
ByLayer
370
-2
48
1
60
0
100
AcDbLine
10
54
20
-13.85
30
0
11
50.5
21
-13.85
31
0
39
0
210
0
220
0
230
1
0
SOLID
5
17F
100
AcDbEntity
8
0
62
256
6
ByLayer
370
-1
48
1
60
0
100
AcDbTrace
10
73.5
20
-13.266667
30
0
11
73.5
21
-14.433333
31
0
12
70
22
-13.85
32
0
13
70
23
-13.85
33
0
39
0
210
0
220
0
230
1
0
SOLID
5
180
100
AcDbEntity
8
0
62
256
6
ByLayer
370
-1
48
1
60
0
100
AcDbTrace
10
54
20
-14.433333
30
0
11
54
21
-13.266667
31
0
12
57.5
22
-13.85
32
0
13
57.5
23
-13.85
33
0
39
0
210
0
220
0
230
1
0
MTEXT
5
181
100
AcDbEntity
8
0
62
256
6
ByLayer
370
18
48
1
60
0
100
AcDbMText
10
63.75
20
-7.85
30
0
210
0
220
0
230
1
1
\A1;12.5
40
3
41
0
44
1
50
0
71
5
72
5
7
iso_b_vert
0
POINT
5
182
100
AcDbEntity
8
Defpoints
62
0
6
ByLayer
370
-1
48
1
60
0
100
AcDbPoint
10
70
20
-2.5
30
0
39
0
210
0
220
0
230
1
50
360
0
POINT
5
183
100
AcDbEntity
8
Defpoints
62
0
6
ByLayer
370
-1
48
1
60
0
100
AcDbPoint
10
57.5
20
-5
30
0
39
0
210
0
220
0
230
1
50
360
0
POINT
5
184
100
AcDbEntity
8
Defpoints
62
0
6
ByLayer
370
-1
48
1
60
0
100
AcDbPoint
10
57.5
20
-13.85
30
0
39
0
210
0
220
0
230
1
50
360
0
ENDBLK
5
17A
100
AcDbEntity
8
0
100
AcDbBlockEnd
0
BLOCK
5
18C
100
AcDbEntity
8
0
100
AcDbBlockBegin
2
_U2
70
0
10
0
20
0
30
0
3
_U2
0
MTEXT
5
186
100
AcDbEntity
8
SK2
62
256
6
ByLayer
370
18
48
1
60
0
100
AcDbMText
10
59.642572
20
-12.964886
30
0
210
0
220
0
230
1
1
\W0.6864;12.50
40
3
41
0
44
1.084337
50
0
71
7
72
5
7
iso_b_vert
0
LINE
5
187
100
AcDbEntity
8
SK2
62
256
6
ByLayer
370
13
48
1
60
0
100
AcDbLine
10
70
20
-4.0875
30
0
11
70
21
-15.85
31
0
39
0
210
0
220
0
230
1
0
LINE
5
188
100
AcDbEntity
8
SK2
62
256
6
ByLayer
370
13
48
1
60
0
100
AcDbLine
10
57.5
20
-6.5875
30
0
11
57.5
21
-15.85
31
0
39
0
210
0
220
0
230
1
0
LINE
5
189
100
AcDbEntity
8
SK2
62
256
6
ByLayer
370
13
48
1
60
0
100
AcDbLine
10
70
20
-13.85
30
0
11
57.5
21
-13.85
31
0
39
0
210
0
220
0
230
1
0
SOLID
5
18A
100
AcDbEntity
8
SK2
62
256
6
ByLayer
370
18
48
1
60
0
100
AcDbTrace
10
70
20
-13.85
30
0
11
66.500002
21
-14.310784
31
0
12
66.499998
22
-13.389216
32
0
13
66.499998
23
-13.389216
33
0
39
0
210
0
220
0
230
1
0
SOLID
5
18B
100
AcDbEntity
8
SK2
62
256
6
ByLayer
370
18
48
1
60
0
100
AcDbTrace
10
57.5
20
-13.85
30
0
11
60.999998
21
-13.389216
31
0
12
61.000002
22
-14.310784
32
0
13
61.000002
23
-14.310784
33
0
39
0
210
0
220
0
230
1
0
ENDBLK
5
18D
100
AcDbEntity
8
0
100
AcDbBlockEnd
0
ENDSEC
0
SECTION
2
ENTITIES
0
ARC
5
B2
100
AcDbEntity
8
1
62
256
6
ByLayer
370
18
48
1
60
0
100
AcDbCircle
39
0
10
67.5
20
0
30
0
40
2.5
210
0
220
0
230
1
100
AcDbArc
50
296.441911
51
347.234118
0
ARC
5
B3
100
AcDbEntity
8
1
62
256
6
ByLayer
370
18
48
1
60
0
100
AcDbCircle
39
0
10
67.5
20
0
30
0
40
2.5
210
0
220
0
230
1
100
AcDbArc
50
347.234118
51
349.134356
0
ARC
5
B4
100
AcDbEntity
8
1
62
256
6
ByLayer
370
18
48
1
60
0
100
AcDbCircle
39
0
10
67.5
20
0
30
0
40
2.5
210
0
220
0
230
1
100
AcDbArc
50
349.134356
51
10.858719
0
ARC
5
B5
100
AcDbEntity
8
1
62
256
6
ByLayer
370
18
48
1
60
0
100
AcDbCircle
39
0
10
67.5
20
0
30
0
40
2.5
210
0
220
0
230
1
100
AcDbArc
50
10.858719
51
12.717107
0
ARC
5
B6
100
AcDbEntity
8
1
62
256
6
ByLayer
370
18
48
1
60
0
100
AcDbCircle
39
0
10
67.5
20
0
30
0
40
2.5
210
0
220
0
230
1
100
AcDbArc
50
12.717107
51
63.568177
0
ARC
5
B7
100
AcDbEntity
8
SK2
62
256
6
ByLayer
370
13
48
1
60
0
100
AcDbCircle
39
0
10
92.5
20
0
30
0
40
69.2355766673414
210
0
220
0
230
1
100
AcDbArc
50
174.289407
51
186.182504
0
ARC
5
B8
100
AcDbEntity
8
SK2
62
256
6
ByLayer
370
13
48
1
60
0
100
AcDbCircle
39
0
10
92.5
20
0
30
0
40
69.2355766673414
210
0
220
0
230
1
100
AcDbArc
50
165.967008
51
174.289407
0
POINT
5
70
100
AcDbEntity
8
81
62
256
6
ByLayer
370
18
48
1
60
0
100
AcDbPoint
10
70
20
0
30
0
39
0
210
0
220
0
230
1
50
360
0
POINT
5
72
100
AcDbEntity
8
1
62
256
6
ByLayer
370
18
48
1
60
0
100
AcDbPoint
10
-40
20
0
30
0
39
0
210
0
220
0
230
1
50
360
0
POINT
5
74
100
AcDbEntity
8
80
62
256
6
ByLayer
370
18
48
1
60
0
100
AcDbPoint
10
0
20
0
30
0
39
0
210
0
220
0
230
1
50
360
0
POINT
5
76
100
AcDbEntity
8
1
62
256
6
ByLayer
370
18
48
1
60
1
100
AcDbPoint
10
-40
20
5
30
0
39
0
210
0
220
0
230
1
50
360
0
POINT
5
77
100
AcDbEntity
8
1
62
256
6
ByLayer
370
18
48
1
60
1
100
AcDbPoint
10
70
20
2.5
30
0
39
0
210
0
220
0
230
1
50
360
0
POINT
5
78
100
AcDbEntity
8
1
62
256
6
ByLayer
370
18
48
1
60
1
100
AcDbPoint
10
70
20
-2.5
30
0
39
0
210
0
220
0
230
1
50
360
0
POINT
5
79
100
AcDbEntity
8
1
62
256
6
ByLayer
370
18
48
1
60
1
100
AcDbPoint
10
0
20
-5
30
0
39
0
210
0
220
0
230
1
50
360
0
POINT
5
7A
100
AcDbEntity
8
1
62
256
6
ByLayer
370
18
48
1
60
1
100
AcDbPoint
10
70
20
-2.5
30
0
39
0
210
0
220
0
230
1
50
360
0
POINT
5
7B
100
AcDbEntity
8
1
62
256
6
ByLayer
370
18
48
1
60
1
100
AcDbPoint
10
57.5
20
-5
30
0
39
0
210
0
220
0
230
1
50
360
0
POINT
5
7C
100
AcDbEntity
8
1
62
256
6
ByLayer
370
18
48
1
60
1
100
AcDbPoint
10
69.7
20
-2.3724
30
0
39
0
210
0
220
0
230
1
50
360
0
SPLINE
5
B9
100
AcDbEntity
8
1
62
256
6
ByLayer
370
18
48
1
60
0
100
AcDbSpline
70
4
71
3
72
8
73
4
40
0
40
0
40
0
40
0
40
1
40
1
40
1
40
1
41
1
10
57.5
20
-2.85494476487975
30
0
41
1
10
57.5
20
-2.90538430837091
30
0
41
1
10
57.5
20
-2.95582385186205
30
0
41
1
10
57.5
20
-3.00626339535322
30
0
0
SPLINE
5
BA
100
AcDbEntity
8
1
62
256
6
ByLayer
370
18
48
1
60
0
100
AcDbSpline
70
4
71
3
72
30
73
26
40
0
40
0
40
0
40
0
40
0.250000000000191
40
0.250000000000191
40
0.375000000000222
40
0.375000000000222
40
0.500000000000252
40
0.500000000000252
40
0.625000000000283
40
0.625000000000283
40
0.687500000000238
40
0.687500000000238
40
0.750000000000193
40
0.750000000000193
40
0.812500000000148
40
0.812500000000148
40
0.843750000000124
40
0.843750000000124
40
0.8750000000001
40
0.8750000000001
40
0.906250000000076
40
0.906250000000076
40
0.937500000000051
40
0.937500000000051
40
1
40
1
40
1
40
1
41
1
10
68.5486821592561
20
2.04525165580239
30
0
41
1
10
68.5679897767244
20
2.04776485305658
30
0
41
1
10
68.5873821901267
20
2.05088030399151
30
0
41
1
10
68.6165697320586
20
2.05715060715801
30
0
41
1
10
68.6263152348948
20
2.0595108837577
30
0
41
1
10
68.645829983397
20
2.06501220728865
30
0
41
1
10
68.6555994306026
20
2.06814569663857
30
0
41
1
10
68.6751465948586
20
2.07565426426086
30
0
41
1
10
68.6850168788408
20
2.08006396757753
30
0
41
1
10
68.6992236402571
20
2.08811722829282
30
0
41
1
10
68.7038696838242
20
2.09104715989477
30
0
41
1
10
68.7128981195731
20
2.09761848123094
30
0
41
1
10
68.717261607744
20
2.10125139403561
30
0
41
1
10
68.7253031311544
20
2.10932911981976
30
0
41
1
10
68.7290547013006
20
2.11386764776367
30
0
41
1
10
68.7337101645608
20
2.12127601537728
30
0
41
1
10
68.7351054471965
20
2.12384683649543
30
0
41
1
10
68.7375359213971
20
2.12922166808806
30
0
41
1
10
68.7385611889231
20
2.13201823832313
30
0
41
1
10
68.7401474361264
20
2.13762275809552
30
0
41
1
10
68.7407219836251
20
2.1404581411972
30
0
41
1
10
68.7414452277013
20
2.14619323747127
30
0
41
1
10
68.7415895153374
20
2.14909806114744
30
0
41
1
10
68.741426972279
20
2.15759970341085
30
0
41
1
10
68.7405300801416
20
2.16315285750801
30
0
41
1
10
68.7391253266604
20
2.16838147338331
30
0
0
SPLINE
5
BB
100
AcDbEntity
8
1
62
256
6
ByLayer
370
18
48
1
60
0
100
AcDbSpline
70
4
71
3
72
16
73
12
40
0
40
0
40
0
40
0
40
0.205613402303784
40
0.205613402303784
40
0.308420103455657
40
0.308420103455657
40
0.411226804607531
40
0.411226804607531
40
0.822453609215096
40
0.822453609215096
40
1
40
1
40
1
40
1
41
1
10
68.9534235654295
20
1.66256657746666
30
1E-16
41
1
10
68.9269180310811
20
1.67705069540761
30
1E-16
41
1
10
68.9010865582917
20
1.69076502093273
30
0
41
1
10
68.8632642543892
20
1.71023788150805
30
0
41
1
10
68.850810775485
20
1.71654597114301
30
0
41
1
10
68.8261964293076
20
1.72880806333015
30
-1E-16
41
1
10
68.8140374609317
20
1.73476080116117
30
0
41
1
10
68.7542604731715
20
1.76351844672752
30
0
41
1
10
68.7093885473245
20
1.78345813076905
30
0
41
1
10
68.648268064271
20
1.80863106465779
30
0
41
1
10
68.6302458576483
20
1.8157821264447
30
0
41
1
10
68.6125905807678
20
1.82254072123308
30
0
0
SPLINE
5
BC
100
AcDbEntity
8
1
62
256
6
ByLayer
370
18
48
1
60
0
100
AcDbSpline
70
4
71
3
72
8
73
4
40
0
40
0
40
0
40
0
40
1
40
1
40
1
40
1
41
0.99160096674306
10
57.5
20
-2.81963417542043
30
0
41
0.994308075473926
10
57.5
20
-2.83136333257272
30
0
41
0.997107753226239
10
57.5
20
-2.84313473700531
30
0
41
1
10
57.5
20
-2.85494476487975
30
0
0
SPLINE
5
BD
100
AcDbEntity
8
1
62
256
6
ByLayer
370
18
48
1
60
0
100
AcDbSpline
70
4
71
3
72
10
73
6
40
0
40
0
40
0
40
0
40
0.32232247008796
40
0.32232247008796
40
1
40
1
40
1
40
1
41
1
10
57.5
20
-2.62578217541127
30
0
41
1
10
57.5
20
-2.6460885293387
30
0
41
1
10
57.5
20
-2.66662853420215
30
0
41
1
10
57.5
20
-2.73088062168961
30
0
41
1
10
57.5
20
-2.77517071934457
30
0
41
1
10
57.5
20
-2.81963417542042
30
0
0
SPLINE
5
BE
100
AcDbEntity
8
1
62
256
6
ByLayer
370
18
48
1
60
0
100
AcDbSpline
70
4
71
3
72
32
73
28
40
0
40
0
40
0
40
0
40
0.124999999999989
40
0.124999999999989
40
0.187499999999985
40
0.187499999999985
40
0.24999999999998
40
0.24999999999998
40
0.375000000000001
40
0.375000000000001
40
0.500000000000023
40
0.500000000000023
40
0.625000000000044
40
0.625000000000044
40
0.687500000000055
40
0.687500000000055
40
0.750000000000066
40
0.750000000000066
40
0.812500000000076
40
0.812500000000076
40
0.875000000000087
40
0.875000000000087
40
0.906250000000093
40
0.906250000000093
40
0.937500000000099
40
0.937500000000099
40
1
40
1
40
1
40
1
41
1
10
68.4143618480893
20
0.760426328953884
30
0
41
1
10
68.4135670707113
20
0.77281729952773
30
0
41
1
10
68.4139938156641
20
0.785277126775725
30
-1E-16
41
1
10
68.4161535198101
20
0.804201954262339
30
-1E-16
41
1
10
68.4171279615708
20
0.810549173019268
30
1E-16
41
1
10
68.4195486658637
20
0.823341687967769
30
1E-16
41
1
10
68.4210040606604
20
0.829817674387613
30
1E-16
41
1
10
68.4259354034211
20
0.849055269921166
30
0
41
1
10
68.4299739840829
20
0.86170638748095
30
0
41
1
10
68.4392205647459
20
0.886775878112672
30
-1E-16
41
1
10
68.4444782948131
20
0.899289347480646
30
-1E-16
41
1
10
68.4556796173095
20
0.923256921286082
30
1E-16
41
1
10
68.461639977073
20
0.934805412968103
30
0
41
1
10
68.4712675077354
20
0.951397103281778
30
0
41
1
10
68.4746102427455
20
0.95682719227645
30
0
41
1
10
68.4815448986212
20
0.967248498613571
30
0
41
1
10
68.4851287868876
20
0.972236201434441
30
-1E-16
41
1
10
68.4926936153317
20
0.981633095597914
30
-1E-16
41
1
10
68.4966957344843
20
0.986067241338333
30
-1E-16
41
1
10
68.5052227031596
20
0.993845570508768
30
-1E-16
41
1
10
68.5097932543264
20
0.997249222760018
30
1E-16
41
1
10
68.5173693418749
20
1.00095108824107
30
1E-16
41
1
10
68.5199800086742
20
1.00192896111156
30
1E-16
41
1
10
68.5254364657949
20
1.0032557539833
30
1E-16
41
1
10
68.5283100557236
20
1.00359604281675
30
1E-16
41
1
10
68.5369390371789
20
1.00349279797607
30
1E-16
41
1
10
68.542916694605
20
1.00189737372085
30
1E-16
41
1
10
68.5486821592625
20
0.999186715155332
30
1E-16
0
SPLINE
5
BF
100
AcDbEntity
8
1
62
256
6
ByLayer
370
18
48
1
60
0
100
AcDbSpline
70
4
71
3
72
30
73
26
40
0
40
0
40
0
40
0
40
0.250000000000129
40
0.250000000000129
40
0.375000000000129
40
0.375000000000129
40
0.500000000000128
40
0.500000000000128
40
0.625000000000128
40
0.625000000000128
40
0.687500000000068
40
0.687500000000068
40
0.750000000000008
40
0.750000000000008
40
0.812499999999948
40
0.812499999999948
40
0.843749999999957
40
0.843749999999957
40
0.874999999999966
40
0.874999999999966
40
0.906249999999975
40
0.906249999999975
40
0.937499999999984
40
0.937499999999984
40
1
40
1
40
1
40
1
41
1
10
68.5486821592592
20
0.999186715156981
30
1E-16
41
1
10
68.567989776727
20
0.990109153891098
30
-1E-16
41
1
10
68.5873821901288
20
0.981619425210397
30
-1E-16
41
1
10
68.61656973206
20
0.970260669263524
30
-1E-16
41
1
10
68.626315234896
20
0.966706560253044
30
0
41
1
10
68.6458299833977
20
0.960235157953576
30
0
41
1
10
68.655599430603
20
0.957312327421818
30
0
41
1
10
68.6751465948586
20
0.952436484115793
30
0
41
1
10
68.6850168788404
20
0.950460845308157
30
0
41
1
10
68.6992236402564
20
0.948896147829345
30
0
41
1
10
68.7038696838235
20
0.948606259518783
30
0
41
1
10
68.7128981195722
20
0.948689783594631
30
0
41
1
10
68.7172616077431
20
0.94906688732172
30
0
41
1
10
68.7253031311533
20
0.950770892103492
30
0
41
1
10
68.7290547012996
20
0.952127672810065
30
0
41
1
10
68.7337101645599
20
0.955103057791632
30
0
41
1
10
68.7351054471957
20
0.956249678956766
30
0
41
1
10
68.7375359213964
20
0.958899234869193
30
0
41
1
10
68.7385611889223
20
0.960401904385066
30
0
41
1
10
68.740147436126
20
0.963657070213969
30
0
41
1
10
68.7407219836247
20
0.965422489232481
30
0
41
1
10
68.7414452277011
20
0.96922318803513
30
-1E-16
41
1
10
68.7415895153372
20
0.971264524610177
30
-1E-16
41
1
10
68.7414269722792
20
0.977548040110833
30
-1E-16
41
1
10
68.7405300801423
20
0.982070538275622
30
-1E-16
41
1
10
68.7391253266613
20
0.986632251536093
30
-1E-16
0
SPLINE
5
C0
100
AcDbEntity
8
1
62
256
6
ByLayer
370
18
48
1
60
0
100
AcDbSpline
70
4
71
3
72
18
73
14
40
0
40
0
40
0
40
0
40
0.124999999999988
40
0.124999999999988
40
0.187499999999994
40
0.187499999999994
40
0.249999999999999
40
0.249999999999999
40
0.5
40
0.5
40
0.75
40
0.75
40
1
40
1
40
1
40
1
41
1
10
68.9534235654374
20
-0.183642440696076
30
0
41
1
10
68.9269180310732
20
-0.148855670269143
30
-1E-16
41
1
10
68.901086558269
20
-0.113578317904142
30
-2E-16
41
1
10
68.863264254345
20
-0.059991414927822
30
1E-16
41
1
10
68.850810775434
20
-0.0420174426034237
30
1E-16
41
1
10
68.826196429243
20
-0.0058576031975406
30
0
41
1
10
68.8140374608607
20
0.0123265627344153
30
0
41
1
10
68.7542604730694
20
0.103245087116619
30
0
41
1
10
68.7093885472003
20
0.176377436025319
30
0
41
1
10
68.6240097250979
20
0.323173553027431
30
-1E-16
41
1
10
68.5835137224052
20
0.396841694206017
30
0
41
1
10
68.5058664031181
20
0.544608336272177
30
1E-16
41
1
10
68.4687196528752
20
0.618708894875112
30
1E-16
41
1
10
68.4328414030747
20
0.692992942037336
30
-1E-16
0
SPLINE
5
C1
100
AcDbEntity
8
1
62
256
6
ByLayer
370
18
48
1
60
0
100
AcDbSpline
70
4
71
3
72
10
73
6
40
0
40
0
40
0
40
0
40
0.5
40
0.5
40
1
40
1
40
1
40
1
41
1
10
68.4328414030747
20
0.692992942037307
30
-1E-16
41
1
10
68.4276273827914
20
0.70378829941356
30
-1E-16
41
1
10
68.4234145444636
20
0.714777554547766
30
1E-16
41
1
10
68.417154671392
20
0.737218033904981
30
0
41
1
10
68.4151009119432
20
0.748667274410906
30
0
41
1
10
68.4143618480893
20
0.760426328953855
30
0
0
SPLINE
5
C2
100
AcDbEntity
8
1
62
256
6
ByLayer
370
18
48
1
60
0
100
AcDbSpline
70
4
71
3
72
22
73
18
40
0
40
0
40
0
40
0
40
0.168272261593556
40
0.168272261593556
40
0.252408392390335
40
0.252408392390335
40
0.336544523187113
40
0.336544523187113
40
0.504816784780672
40
0.504816784780672
40
0.673089046374232
40
0.673089046374232
40
0.841361307967791
40
0.841361307967791
40
0.925497438764569
40
0.925497438764569
40
1
40
1
40
1
40
1
41
1
10
68.4143618480893
20
-1.13109016698215
30
0
41
1
10
68.4135670707113
20
-1.12027003919982
30
0
41
1
10
68.4139938156642
20
-1.10989522058901
30
-1E-16
41
1
10
68.4161535198102
20
-1.09520669072583
30
-1E-16
41
1
10
68.4171279615708
20
-1.09045593207884
30
-1E-16
41
1
10
68.4195486658636
20
-1.08127936508942
30
1E-16
41
1
10
68.4210040606604
20
-1.07683478714867
30
1E-16
41
1
10
68.4259354034209
20
-1.06427476483597
30
1E-16
41
1
10
68.4299739840826
20
-1.05686642698279
30
0
41
1
10
68.4392205647454
20
-1.0439903586898
30
0
41
1
10
68.4444782948125
20
-1.03849794478222
30
0
41
1
10
68.4556796173088
20
-1.02985185976448
30
0
41
1
10
68.4616399770721
20
-1.02663211832518
30
0
41
1
10
68.4712675077343
20
-1.02350417721922
30
0
41
1
10
68.4746102427443
20
-1.02274617850747
30
0
41
1
10
68.4811478902886
20
-1.02192261666889
30
0
41
1
10
68.4843096060865
20
-1.02178465520478
30
0
41
1
10
68.4876196292784
20
-1.02192380185736
30
0
0
SPLINE
5
C3
100
AcDbEntity
8
1
62
256
6
ByLayer
370
18
48
1
60
0
100
AcDbSpline
70
4
71
3
72
18
73
14
40
0
40
0
40
0
40
0
40
0.125000000000007
40
0.125000000000007
40
0.187500000000011
40
0.187500000000011
40
0.250000000000015
40
0.250000000000015
40
0.50000000000001
40
0.50000000000001
40
0.750000000000005
40
0.750000000000005
40
1
40
1
40
1
40
1
41
1
10
68.9534235654302
20
-1.84620901815276
30
0
41
1
10
68.9269180310816
20
-1.82590636568713
30
-1E-16
41
1
10
68.9010865582922
20
-1.80434333886822
30
0
41
1
10
68.8632642543895
20
-1.77022929649939
30
0
41
1
10
68.8508107754855
20
-1.75856341382078
30
0
41
1
10
68.826196429308
20
-1.73466566662395
30
0
41
1
10
68.8140374609321
20
-1.72243423853385
30
0
41
1
10
68.7542604731718
20
-1.66027335977199
30
-1E-16
41
1
10
68.7093885473248
20
-1.60708069494836
30
0
41
1
10
68.6240097252626
20
-1.49544849258248
30
0
41
1
10
68.5835137225881
20
-1.43700233192013
30
0
41
1
10
68.5058664033349
20
-1.31613880923464
30
0
41
1
10
68.468719653108
20
-1.25371914797361
30
1E-16
41
1
10
68.4328414033225
20
-1.18983642844927
30
-1E-16
0
SPLINE
5
C4
100
AcDbEntity
8
1
62
256
6
ByLayer
370
18
48
1
60
0
100
AcDbSpline
70
4
71
3
72
10
73
6
40
0
40
0
40
0
40
0
40
0.5
40
0.5
40
1
40
1
40
1
40
1
41
1
10
68.4328414030747
20
-1.18983642800791
30
-1E-16
41
1
10
68.4276273828273
20
-1.18055264757987
30
1E-16
41
1
10
68.4234145443623
20
-1.17100932374512
30
1E-16
41
1
10
68.417154671364
20
-1.15142587831565
30
0
41
1
10
68.4151009119381
20
-1.14138646354908
30
0
41
1
10
68.4143618480893
20
-1.13109016698215
30
0
0
SPLINE
5
C5
100
AcDbEntity
8
1
62
256
6
ByLayer
370
18
48
1
60
0
100
AcDbSpline
70
4
71
3
72
38
73
34
40
0
40
0
40
0
40
0
40
0.125000000000003
40
0.125000000000003
40
0.250000000000007
40
0.250000000000007
40
0.312500000000009
40
0.312500000000009
40
0.37500000000001
40
0.37500000000001
40
0.437500000000012
40
0.437500000000012
40
0.500000000000014
40
0.500000000000014
40
0.531250000000018
40
0.531250000000018
40
0.562500000000023
40
0.562500000000023
40
0.625000000000032
40
0.625000000000032
40
0.68750000000004
40
0.68750000000004
40
0.718750000000041
40
0.718750000000041
40
0.750000000000042
40
0.750000000000042
40
0.781250000000042
40
0.781250000000042
40
0.812500000000043
40
0.812500000000043
40
0.875000000000029
40
0.875000000000029
40
1
40
1
40
1
40
1
41
1
10
69.9358213817676
20
-0.480426387259684
30
0
41
1
10
69.9398244619995
20
-0.466082868596573
30
0
41
1
10
69.9435843737614
20
-0.452515225506602
30
0
41
1
10
69.9506248413589
20
-0.427067409202976
30
0
41
1
10
69.9539063183673
20
-0.415179515573754
30
0
41
1
10
69.9584390153453
20
-0.398970991903269
30
0
41
1
10
69.9598919884963
20
-0.393816060354766
30
0
41
1
10
69.9626139953225
20
-0.384320305788151
30
0
41
1
10
69.9638794899354
20
-0.379990725927172
30
0
41
1
10
69.9662018734427
20
-0.372332539749237
30
0
41
1
10
69.9672664201354
20
-0.368980955080389
30
0
41
1
10
69.9691111076307
20
-0.363680344032588
30
0
41
1
10
69.9698893416086
20
-0.361731745107022
30
0
41
1
10
69.970809525331
20
-0.360102995506452
30
0
41
1
10
69.9710748026805
20
-0.359777214765586
30
0
41
1
10
69.9715123574221
20
-0.35962829373608
30
0
41
1
10
69.9716850530145
20
-0.359810754553308
30
0
41
1
10
69.9720328174832
20
-0.361206753765629
30
0
41
1
10
69.9720458874224
20
-0.363252140767258
30
0
41
1
10
69.9715705599499
20
-0.369931546269299
30
0
41
1
10
69.9710940878854
20
-0.374408716854902
30
0
41
1
10
69.9700274504141
20
-0.382801035364451
30
0
41
1
10
69.9696115951023
20
-0.385884653339957
30
0
41
1
10
69.9686916306051
20
-0.392394381876073
30
0
41
1
10
69.968184737714
20
-0.395843220414235
30
0
41
1
10
69.9670825165263
20
-0.403098325685761
30
0
41
1
10
69.9664832230267
20
-0.406928492449453
30
0
41
1
10
69.965227992622
20
-0.414745287307454
30
0
41
1
10
69.964570410375
20
-0.418744045850047
30
0
41
1
10
69.9625152832846
20
-0.430976947167039
30
0
41
1
10
69.9610265641616
20
-0.439497524014399
30
0
41
1
10
69.9563212807478
20
-0.465487272427083
30
0
41
1
10
69.9529530766085
20
-0.482933937998354
30
0
41
1
10
69.9493666123872
20
-0.500450814730073
30
0
0
SPLINE
5
C6
100
AcDbEntity
8
1
62
256
6
ByLayer
370
18
48
1
60
0
100
AcDbSpline
70
4
71
3
72
35
73
31
40
0
40
0
40
0
40
0
40
0.125000000000011
40
0.125000000000011
40
0.250000000000022
40
0.250000000000022
40
0.281250000000021
40
0.281250000000021
40
0.31250000000002
40
0.375000000000027
40
0.375000000000027
40
0.50000000000003
40
0.50000000000003
40
0.531250000000029
40
0.531250000000029
40
0.562500000000027
40
0.562500000000027
40
0.625000000000023
40
0.625000000000023
40
0.750000000000015
40
0.750000000000015
40
0.781250000000017
40
0.781250000000017
40
0.812500000000018
40
0.875000000000008
40
0.937499999999997
40
0.937499999999997
40
0.968749999999999
40
0.968749999999999
40
1
40
1
40
1
40
1
41
1
10
69.9493666123848
20
-0.500450814742095
30
0
41
1
10
69.9326272856053
20
-0.582208419352583
30
0
41
1
10
69.9118955731074
20
-0.662502884320901
30
0
41
1
10
69.8625628967037
20
-0.820089018307925
30
0
41
1
10
69.8339644972879
20
-0.897383849538215
30
0
41
1
10
69.7931583348045
20
-0.991959015146932
30
0
41
1
10
69.7847310154798
20
-1.01079576102265
30
0
41
1
10
69.7674800574679
20
-1.04800618188426
30
0
41
1
10
69.7409777672445
20
-1.10320422491625
30
0
41
1
10
69.7126349246366
20
-1.15654008437886
30
0
41
1
10
69.6535676027454
20
-1.26065807874093
30
0
41
1
10
69.6110274412205
20
-1.32668574919435
30
0
41
1
10
69.5539772681681
20
-1.40446337233067
30
0
41
1
10
69.5423722589293
20
-1.41977985700561
30
0
41
1
10
69.5187688042599
20
-1.44991585392998
30
0
41
1
10
69.5067837122708
20
-1.46471550045294
30
0
41
1
10
69.4705878041816
20
-1.50793080435739
30
0
41
1
10
69.4460306361208
20
-1.53530229487478
30
0
41
1
10
69.3711958587825
20
-1.61302644546006
30
0
41
1
10
69.3197697327399
20
-1.65902427462666
30
0
41
1
10
69.2537219885144
20
-1.70859541896735
30
0
41
1
10
69.2404057420188
20
-1.71811953791877
30
0
41
1
10
69.2139043491867
20
-1.73614128865845
30
0
41
1
10
69.1742388916418
20
-1.76171959659359
30
0
41
1
10
69.108586876168
20
-1.79718766513355
30
0
41
1
10
69.0565704174363
20
-1.81800329264243
30
0
41
1
10
69.0177383076006
20
-1.83075512821841
30
0
41
1
10
69.0048244198473
20
-1.83452813110242
30
0
41
1
10
68.9790552425947
20
-1.84110488483844
30
0
41
1
10
68.9661646787447
20
-1.84391370273275
30
0
41
1
10
68.9534235654291
20
-1.84620901814336
30
0
0
SPLINE
5
C7
100
AcDbEntity
8
1
62
256
6
ByLayer
370
18
48
1
60
0
100
AcDbSpline
70
4
71
3
72
22
73
18
40
0
40
0
40
0
40
0
40
0.124999999999949
40
0.124999999999949
40
0.187499999999949
40
0.187499999999949
40
0.24999999999995
40
0.24999999999995
40
0.375000000000002
40
0.375000000000002
40
0.437500000000002
40
0.437500000000002
40
0.500000000000002
40
0.500000000000002
40
0.750000000000001
40
0.750000000000001
40
1
40
1
40
1
40
1
41
1
10
68.9534235654221
20
-1.84620901814301
30
0
41
1
10
68.9325796955015
20
-1.8646834854122
30
0
41
1
10
68.9108090392911
20
-1.88209028227075
30
0
41
1
10
68.8769000242931
20
-1.90674919958511
30
0
41
1
10
68.8653870380567
20
-1.91472560002444
30
0
41
1
10
68.8419524772243
20
-1.93020328420937
30
0
41
1
10
68.830107318016
20
-1.93765195493731
30
0
41
1
10
68.7945488646944
20
-1.95898311269894
30
0
41
1
10
68.7706668793185
20
-1.97195368925563
30
0
41
1
10
68.7345677264825
20
-1.98977870383746
30
0
41
1
10
68.7224884872181
20
-1.99544700283238
30
0
41
1
10
68.6982341626767
20
-2.00626275356308
30
0
41
1
10
68.686034266117
20
-2.01141998738694
30
0
41
1
10
68.6250650188853
20
-2.03583995162157
30
0
41
1
10
68.5772612211162
20
-2.05074950420755
30
0
41
1
10
68.4825044079311
20
-2.0734788126799
30
0
41
1
10
68.4355668034939
20
-2.08125775344402
30
0
41
1
10
68.3887543036104
20
-2.08590150038816
30
0
0
SPLINE
5
C8
100
AcDbEntity
8
1
62
256
6
ByLayer
370
18
48
1
60
0
100
AcDbSpline
70
4
71
3
72
32
73
28
40
0
40
0
40
0
40
0
40
0.0625000000000196
40
0.0625000000000196
40
0.0937500000000226
40
0.0937500000000226
40
0.125000000000026
40
0.125000000000026
40
0.250000000000011
40
0.250000000000011
40
0.31250000000001
40
0.31250000000001
40
0.343750000000016
40
0.343750000000016
40
0.375000000000022
40
0.375000000000022
40
0.500000000000021
40
0.500000000000021
40
0.625000000000019
40
0.625000000000019
40
0.750000000000018
40
0.750000000000018
40
0.812500000000014
40
0.812500000000014
40
0.875000000000009
40
0.875000000000009
40
1
40
1
40
1
40
1
41
1
10
68.7391253266636
20
2.16838147338515
30
0
41
1
10
68.771851833594
20
2.14837093552026
30
0
41
1
10
68.8045275258662
20
2.12697384596746
30
0
41
1
10
68.8535362953816
20
2.09270314114824
30
0
41
1
10
68.869895547058
20
2.0808988474196
30
0
41
1
10
68.9025154082478
20
2.0566249406431
30
0
41
1
10
68.9187215479435
20
2.04419701799603
30
0
41
1
10
68.9992623314598
20
1.98061647086095
30
0
41
1
10
69.0621415258244
20
1.9251628416894
30
0
41
1
10
69.1545428645031
20
1.83509740811789
30
0
41
1
10
69.1850229760149
20
1.80392307616944
30
0
41
1
10
69.2302968463791
20
1.75538611897889
30
0
41
1
10
69.2453132327104
20
1.73891102678232
30
0
41
1
10
69.2751994051972
20
1.70535658808782
30
0
41
1
10
69.2900859258102
20
1.68825566151403
30
0
41
1
10
69.3634459564978
20
1.60205837223774
30
0
41
1
10
69.4192850141256
20
1.53029982289917
30
0
41
1
10
69.5255781858805
20
1.38140905639261
30
0
41
1
10
69.5760444523423
20
1.30428016065284
30
0
41
1
10
69.6712853589753
20
1.1443686743813
30
0
41
1
10
69.7146848030208
20
1.06390816179416
30
0
41
1
10
69.7735336618197
20
0.942436077696669
30
0
41
1
10
69.7921088900351
20
0.901806678485087
30
0
41
1
10
69.8271387664603
20
0.820206174226655
30
0
41
1
10
69.8436026183036
20
0.779207696434497
30
0
41
1
10
69.8896356706869
20
0.655735890824246
30
0
41
1
10
69.9151869766616
20
0.574638624728863
30
0
41
1
10
69.9358213817542
20
0.49412954197328
30
0
0
SPLINE
5
C9
100
AcDbEntity
8
1
62
256
6
ByLayer
370
18
48
1
60
0
100
AcDbSpline
70
4
71
3
72
38
73
34
40
0
40
0
40
0
40
0
40
0.125000000000011
40
0.125000000000011
40
0.250000000000022
40
0.250000000000022
40
0.312500000000019
40
0.312500000000019
40
0.375000000000016
40
0.375000000000016
40
0.437500000000013
40
0.437500000000013
40
0.50000000000001
40
0.50000000000001
40
0.531250000000008
40
0.531250000000008
40
0.562500000000007
40
0.562500000000007
40
0.625000000000006
40
0.625000000000006
40
0.687500000000005
40
0.687500000000005
40
0.718750000000005
40
0.718750000000005
40
0.750000000000004
40
0.750000000000004
40
0.781250000000004
40
0.781250000000004
40
0.812500000000003
40
0.812500000000003
40
0.875000000000002
40
0.875000000000002
40
1
40
1
40
1
40
1
41
1
10
69.9358213817723
20
0.494129541959865
30
0
41
1
10
69.939824462004
20
0.478510757884493
30
0
41
1
10
69.9435843737631
20
0.462530461008981
30
0
41
1
10
69.9506248413604
20
0.429795838969426
30
0
41
1
10
69.9539063183686
20
0.413044740810591
30
0
41
1
10
69.9584390153465
20
0.387191185457084
30
0
41
1
10
69.9598919884974
20
0.378401753920315
30
0
41
1
10
69.9626139953235
20
0.360779234124152
30
0
41
1
10
69.9638794899363
20
0.35197674778172
30
0
41
1
10
69.9662018734434
20
0.334395443851832
30
0
41
1
10
69.9672664201361
20
0.325545860541979
30
0
41
1
10
69.9691111076311
20
0.30825112915025
30
0
41
1
10
69.969889341609
20
0.29984486410126
30
0
41
1
10
69.9708095253313
20
0.28768139406273
30
0
41
1
10
69.9710748026807
20
0.283701724332559
30
0
41
1
10
69.9715123574222
20
0.275915785106491
30
0
41
1
10
69.9716850530147
20
0.272084343283609
30
0
41
1
10
69.9720328174832
20
0.261212067487776
30
0
41
1
10
69.9720458874223
20
0.254693461593007
30
0
41
1
10
69.9715705599497
20
0.243517441142274
30
0
41
1
10
69.9710940878853
20
0.239112282614826
30
0
41
1
10
69.9700274504138
20
0.234247997179352
30
0
41
1
10
69.969611595102
20
0.232926149764239
30
0
41
1
10
69.9686916306048
20
0.2309277957213
30
0
41
1
10
69.9681847377137
20
0.230235995145534
30
0
41
1
10
69.9670825165259
20
0.229419089433463
30
0
41
1
10
69.9664832230264
20
0.229296950446553
30
0
41
1
10
69.9652279926216
20
0.229576527868858
30
0
41
1
10
69.9645704103747
20
0.229973418449106
30
0
41
1
10
69.9625152832843
20
0.231838820126995
30
0
41
1
10
69.9610265641613
20
0.233994066864113
30
0
41
1
10
69.9563212807477
20
0.242577655144515
30
0
41
1
10
69.952953076608
20
0.250870549883132
30
0
41
1
10
69.9493666123867
20
0.260908811273083
30
0
0
SPLINE
5
CA
100
AcDbEntity
8
1
62
256
6
ByLayer
370
18
48
1
60
0
100
AcDbSpline
70
4
71
3
72
35
73
31
40
0
40
0
40
0
40
0
40
0.124999999999994
40
0.124999999999994
40
0.249999999999988
40
0.249999999999988
40
0.281249999999983
40
0.281249999999983
40
0.312499999999977
40
0.374999999999966
40
0.374999999999966
40
0.499999999999954
40
0.499999999999954
40
0.531249999999953
40
0.531249999999953
40
0.562499999999953
40
0.562499999999953
40
0.624999999999953
40
0.624999999999953
40
0.749999999999952
40
0.749999999999952
40
0.781249999999958
40
0.781249999999958
40
0.812499999999964
40
0.874999999999976
40
0.937499999999988
40
0.937499999999988
40
0.968749999999994
40
0.968749999999994
40
1
40
1
40
1
40
1
41
1
10
69.9493666123848
20
0.260908811278569
30
0
41
1
10
69.9326272856052
20
0.307761010922263
30
0
41
1
10
69.9118955731074
20
0.355839872827005
30
1E-16
41
1
10
69.8625628967037
20
0.455102885525918
30
0
41
1
10
69.8339644972878
20
0.506273393930428
30
0
41
1
10
69.7931583348044
20
0.572887580550116
30
0
41
1
10
69.7847310154797
20
0.586363175338988
30
0
41
1
10
69.7674800574678
20
0.613424651273874
30
0
41
1
10
69.7409777672444
20
0.654235508424904
30
0
41
1
10
69.7126349246364
20
0.695766705351417
30
0
41
1
10
69.6535676027453
20
0.780003802069842
30
-1E-16
41
1
10
69.6110274412202
20
0.837711189507758
30
0
41
1
10
69.5539772681678
20
0.912770202807195
30
1E-16
41
1
10
69.5423722589292
20
0.927928642151073
30
0
41
1
10
69.5187688042597
20
0.958566026254715
30
0
41
1
10
69.5067837122705
20
0.974027194388157
30
-1E-16
41
1
10
69.4705878041813
20
1.02047970335673
30
1E-16
41
1
10
69.4460306361204
20
1.05167937495111
30
0
41
1
10
69.3711958587821
20
1.14611897127463
30
0
41
1
10
69.3197697327395
20
1.21019789020514
30
1E-16
41
1
10
69.2537219885139
20
1.29214006024199
30
1E-16
41
1
10
69.2404057420184
20
1.30864185854301
30
0
41
1
10
69.2139043491864
20
1.34145548363833
30
0
41
1
10
69.1742388916414
20
1.39052683202559
30
1E-16
41
1
10
69.1085865490425
20
1.4716008199803
30
1E-16
41
1
10
69.0565704174358
20
1.53572664855062
30
0
41
1
10
69.0177383076
20
1.58353511967397
30
1E-16
41
1
10
69.0048244198467
20
1.59942358986635
30
0
41
1
10
68.9790552425941
20
1.63110181415769
30
0
41
1
10
68.9661646787442
20
1.64693480730867
30
-1E-16
41
1
10
68.9534235654286
20
1.66256657746135
30
1E-16
0
SPLINE
5
CB
100
AcDbEntity
8
1
62
256
6
ByLayer
370
18
48
1
60
0
100
AcDbSpline
70
4
71
3
72
22
73
18
40
0
40
0
40
0
40
0
40
0.125000000000046
40
0.125000000000046
40
0.18750000000007
40
0.18750000000007
40
0.250000000000093
40
0.250000000000093
40
0.37500000000014
40
0.37500000000014
40
0.437500000000137
40
0.437500000000137
40
0.500000000000133
40
0.500000000000133
40
0.750000000000067
40
0.750000000000067
40
1
40
1
40
1
40
1
41
1
10
68.953423565422
20
1.66256657747138
30
1E-16
41
1
10
68.9325796955015
20
1.6679367199086
30
1E-16
41
1
10
68.9108090392911
20
1.67493989504871
30
1E-16
41
1
10
68.8769000242931
20
1.68753184295596
30
0
41
1
10
68.8653870380566
20
1.69207837661162
30
0
41
1
10
68.8419524772241
20
1.70182276755432
30
0
41
1
10
68.830107318016
20
1.70699003139004
30
0
41
1
10
68.7945488646943
20
1.72311962907952
30
0
41
1
10
68.7706668793184
20
1.73476538138885
30
-1E-16
41
1
10
68.7345677264825
20
1.753251195188
30
-1E-16
41
1
10
68.722488487218
20
1.7595839770874
30
1E-16
41
1
10
68.6982341626767
20
1.77254999337137
30
1E-16
41
1
10
68.6860342661168
20
1.77919704485689
30
1E-16
41
1
10
68.6250650188852
20
1.81293918427872
30
0
41
1
10
68.5772612211162
20
1.84100099840293
30
-1E-16
41
1
10
68.4825044079311
20
1.89774065524782
30
0
41
1
10
68.435566803494
20
1.92643886120703
30
-1E-16
41
1
10
68.3887543036105
20
1.95500778726358
30
1E-16
0
SPLINE
5
CC
100
AcDbEntity
8
1
62
256
6
ByLayer
370
18
48
1
60
0
100
AcDbSpline
70
4
71
3
72
8
73
4
40
0
40
0
40
0
40
0
40
1
40
1
40
1
40
1
41
1
10
68.3887543036103
20
1.95500778726392
30
1E-16
41
1
10
68.3613720875212
20
1.97169504302261
30
0
41
1
10
68.3341614902989
20
1.98821711804177
30
0
41
1
10
68.3071246985925
20
2.00450037024973
30
0
0
SPLINE
5
CD
100
AcDbEntity
8
1
62
256
6
ByLayer
370
18
48
1
60
0
100
AcDbSpline
70
4
71
3
72
16
73
12
40
0
40
0
40
0
40
0
40
0.249999999999991
40
0.249999999999991
40
0.499999999999981
40
0.499999999999981
40
0.624999999999977
40
0.624999999999977
40
0.749999999999972
40
0.749999999999972
40
1
40
1
40
1
40
1
41
1
10
68.3071246985925
20
2.00450037024976
30
0
41
1
10
68.2469929154007
20
2.04071388404157
30
1E-16
41
1
10
68.1884119657686
20
2.07529453174857
30
0
41
1
10
68.0731508918382
20
2.1407926912442
30
1E-16
41
1
10
68.0164806284735
20
2.17171123667683
30
0
41
1
10
67.932319690521
20
2.2150302550003
30
-1E-16
41
1
10
67.9044090628146
20
2.228959890461
30
1E-16
41
1
10
67.8487937613451
20
2.25574179268739
30
0
41
1
10
67.8210542932389
20
2.26860812621084
30
0
41
1
10
67.738586896636
20
2.30526161477184
30
0
41
1
10
67.6844466051377
20
2.3271881949463
30
0
41
1
10
67.6308398906073
20
2.34649001251404
30
1E-16
0
SPLINE
5
CE
100
AcDbEntity
8
1
62
256
6
ByLayer
370
18
48
1
60
0
100
AcDbSpline
70
4
71
3
72
16
73
12
40
0
40
0
40
0
40
0
40
0.249999999999992
40
0.249999999999992
40
0.499999999999984
40
0.499999999999984
40
0.749999999999975
40
0.749999999999975
40
0.874999999999988
40
0.874999999999988
40
1
40
1
40
1
40
1
41
1
10
67.6308398906074
20
1.91677492528581
30
0
41
1
10
67.6892145881402
20
1.88081582086508
30
0
41
1
10
67.7472434828499
20
1.84245328773812
30
-1E-16
41
1
10
67.8631012050384
20
1.76139899959037
30
1E-16
41
1
10
67.9209285856203
20
1.71870616480203
30
0
41
1
10
68.0368717551389
20
1.62935198456435
30
0
41
1
10
68.0949853469463
20
1.5826897282941
30
1E-16
41
1
10
68.1827754908904
20
1.50992541604552
30
0
41
1
10
68.2121038972655
20
1.48523934455406
30
1E-16
41
1
10
68.2706471669999
20
1.43531829792309
30
0
41
1
10
68.2999061901199
20
1.4100468250567
30
0
41
1
10
68.3291862401861
20
1.38449207102832
30
1E-16
0
SPLINE
5
CF
100
AcDbEntity
8
1
62
256
6
ByLayer
370
18
48
1
60
0
100
AcDbSpline
70
4
71
3
72
12
73
8
40
0
40
0
40
0
40
0
40
0.500000000000026
40
0.500000000000026
40
0.750000000000013
40
0.750000000000013
40
1
40
1
40
1
40
1
41
1
10
68.3291862401861
20
1.38449207102829
30
1E-16
41
1
10
68.4006039783944
20
1.32215116496889
30
0
41
1
10
68.4707588416394
20
1.25808118398186
30
-1E-16
41
1
10
68.5735451417069
20
1.15886777898916
30
-1E-16
41
1
10
68.6073947357782
20
1.12527359234386
30
0
41
1
10
68.6741010915163
20
1.05687675526241
30
0
41
1
10
68.7070115365225
20
1.02201487294357
30
0
41
1
10
68.7391253266638
20
0.986632251537657
30
-1E-16
0
SPLINE
5
D0
100
AcDbEntity
8
1
62
256
6
ByLayer
370
18
48
1
60
0
100
AcDbSpline
70
4
71
3
72
32
73
28
40
0
40
0
40
0
40
0
40
0.0625000000000019
40
0.0625000000000019
40
0.0937499999999964
40
0.0937499999999964
40
0.124999999999991
40
0.124999999999991
40
0.249999999999994
40
0.249999999999994
40
0.31249999999999
40
0.31249999999999
40
0.343749999999993
40
0.343749999999993
40
0.374999999999997
40
0.374999999999997
40
0.500000000000001
40
0.500000000000001
40
0.625000000000005
40
0.625000000000005
40
0.750000000000009
40
0.750000000000009
40
0.812500000000006
40
0.812500000000006
40
0.875000000000004
40
0.875000000000004
40
1
40
1
40
1
40
1
41
1
10
68.7391253266635
20
0.986632251538481
30
-1E-16
41
1
10
68.771851833594
20
0.954807486458463
30
0
41
1
10
68.8045275258661
20
0.922945374663669
30
1E-16
41
1
10
68.8535362953814
20
0.875172963176425
30
-1E-16
41
1
10
68.869895547058
20
0.85922877856197
30
0
41
1
10
68.9025154082477
20
0.827465322287708
30
1E-16
41
1
10
68.9187215479434
20
0.811699116988279
30
1E-16
41
1
10
68.9992623314597
20
0.733477635732356
30
1E-16
41
1
10
69.0621415258242
20
0.67285248459973
30
0
41
1
10
69.154542864503
20
0.585485954523989
30
0
41
1
10
69.1850229760148
20
0.556962577214165
30
0
41
1
10
69.230296846379
20
0.515173355215609
30
-1E-16
41
1
10
69.2453132327103
20
0.50140896524249
30
-1E-16
41
1
10
69.275199405197
20
0.47422733876931
30
0
41
1
10
69.2900859258102
20
0.460795707240862
30
0
41
1
10
69.3634459564977
20
0.395187492730884
30
0
41
1
10
69.4192850141255
20
0.347166557417864
30
1E-16
41
1
10
69.5255781858804
20
0.260157210055297
30
1E-16
41
1
10
69.5760444523422
20
0.22121362183691
30
-1E-16
41
1
10
69.6712853589752
20
0.152680747155358
30
1E-16
41
1
10
69.7146848030207
20
0.124139405430355
30
-1E-16
41
1
10
69.7735336618197
20
0.0888122959821374
30
0
41
1
10
69.7921088900351
20
0.0782953895270566
30
0
41
1
10
69.8271387664602
20
0.0595809535846001
30
0
41
1
10
69.8436026183035
20
0.0513742367852785
30
0
41
1
10
69.8896356706868
20
0.0299593479296902
30
0
41
1
10
69.9151869766617
20
0.0202766784913138
30
0
41
1
10
69.9358213817542
20
0.013703154704757
30
0
0
SPLINE
5
D1
100
AcDbEntity
8
1
62
256
6
ByLayer
370
18
48
1
60
0
100
AcDbSpline
70
4
71
3
72
38
73
34
40
0
40
0
40
0
40
0
40
0.125000000000009
40
0.125000000000009
40
0.250000000000019
40
0.250000000000019
40
0.312500000000015
40
0.312500000000015
40
0.375000000000012
40
0.375000000000012
40
0.437500000000008
40
0.437500000000008
40
0.500000000000005
40
0.500000000000005
40
0.531250000000003
40
0.531250000000003
40
0.562500000000001
40
0.562500000000001
40
0.625
40
0.625
40
0.687499999999999
40
0.687499999999999
40
0.718749999999995
40
0.718749999999995
40
0.74999999999999
40
0.74999999999999
40
0.781249999999986
40
0.781249999999986
40
0.812499999999982
40
0.812499999999982
40
0.874999999999988
40
0.874999999999988
40
1
40
1
40
1
40
1
41
1
10
69.9358213817671
20
0.013703154703677
30
0
41
1
10
69.9398244619989
20
0.012427889291132
30
0
41
1
10
69.9435843737612
20
0.0100152355102807
30
0
41
1
10
69.9506248413587
20
0.0027284297740948
30
0
41
1
10
69.9539063183671
20
-0.0021347747556888
30
0
41
1
10
69.9584390153452
20
-0.0117798064389092
30
0
41
1
10
69.9598919884961
20
-0.0154143064272318
30
0
41
1
10
69.9626139953224
20
-0.0235410716572346
30
0
41
1
10
69.9638794899353
20
-0.0280139781388868
30
0
41
1
10
69.9662018734426
20
-0.0379370958912091
30
0
41
1
10
69.9672664201353
20
-0.0434350945323558
30
0
41
1
10
69.9691111076306
20
-0.0554292148769093
30
0
41
1
10
69.9698893416085
20
-0.0618868810006745
30
0
41
1
10
69.9708095253309
20
-0.072421601439089
30
0
41
1
10
69.9710748026805
20
-0.0760754904285363
30
0
41
1
10
69.9715123574221
20
-0.083712508625382
30
0
41
1
10
69.9716850530145
20
-0.0877264112656349
30
0
41
1
10
69.9720328174832
20
-0.0999946862744139
30
0
41
1
10
69.9720458874224
20
-0.108558679171153
30
0
41
1
10
69.9715705599498
20
-0.126414105124837
30
0
41
1
10
69.9710940878854
20
-0.135296434238256
30
0
41
1
10
69.9700274504141
20
-0.148553038183877
30
0
41
1
10
69.9696115951023
20
-0.152958503574666
30
0
41
1
10
69.9686916306052
20
-0.161466586154091
30
0
41
1
10
69.9681847377141
20
-0.165607225268076
30
0
41
1
10
69.9670825165263
20
-0.173679236251957
30
0
41
1
10
69.9664832230267
20
-0.177631542002672
30
0
41
1
10
69.965227992622
20
-0.18516875943854
30
0
41
1
10
69.964570410375
20
-0.188770627400999
30
0
41
1
10
69.9625152832847
20
-0.1991381270403
30
0
41
1
10
69.9610265641616
20
-0.205503457150627
30
0
41
1
10
69.9563212807479
20
-0.222909617282909
30
0
41
1
10
69.952953076609
20
-0.232063388115705
30
0
41
1
10
69.9493666123876
20
-0.239542003457586
30
0
0
SPLINE
5
D2
100
AcDbEntity
8
1
62
256
6
ByLayer
370
18
48
1
60
0
100
AcDbSpline
70
4
71
3
72
35
73
31
40
0
40
0
40
0
40
0
40
0.125000000000014
40
0.125000000000014
40
0.250000000000028
40
0.250000000000028
40
0.281250000000027
40
0.281250000000027
40
0.312500000000027
40
0.375000000000017
40
0.375000000000017
40
0.499999999999997
40
0.499999999999997
40
0.531249999999997
40
0.531249999999997
40
0.562499999999998
40
0.562499999999998
40
0.624999999999999
40
0.624999999999999
40
0.750000000000013
40
0.750000000000013
40
0.781250000000016
40
0.781250000000016
40
0.81250000000002
40
0.875000000000013
40
0.937500000000007
40
0.937500000000007
40
0.968750000000004
40
0.968750000000004
40
1
40
1
40
1
40
1
41
1
10
69.9493666123847
20
-0.239542003463526
30
0
41
1
10
69.9326272856054
20
-0.27444740843012
30
0
41
1
10
69.9118955731076
20
-0.306663011493583
30
1E-16
41
1
10
69.8625628967043
20
-0.364986132781496
30
0
41
1
10
69.8339644972887
20
-0.391110455607219
30
0
41
1
10
69.7931583348057
20
-0.419071434596219
30
0
41
1
10
69.7847310154809
20
-0.424432585683064
30
0
41
1
10
69.7674800574692
20
-0.434581530609819
30
0
41
1
10
69.740977767246
20
-0.44896871649081
30
-1E-16
41
1
10
69.7126349246383
20
-0.460773379026961
30
0
41
1
10
69.6535676027477
20
-0.480654276670776
30
0
41
1
10
69.611027441223
20
-0.488974559686483
30
0
41
1
10
69.5539772681712
20
-0.4916931695237
30
0
41
1
10
69.5423722589325
20
-0.491851214854847
30
0
41
1
10
69.5187688042633
20
-0.49134982767572
30
0
41
1
10
69.5067837122742
20
-0.49068830606538
30
0
41
1
10
69.4705878041852
20
-0.487451101001511
30
0
41
1
10
69.4460306361246
20
-0.483622919924727
30
0
41
1
10
69.3711958587868
20
-0.466907474187167
30
0
41
1
10
69.3197697327446
20
-0.448826384423825
30
-1E-16
41
1
10
69.2537219885196
20
-0.416455358728513
30
1E-16
41
1
10
69.2404057420241
20
-0.409477679379108
30
1E-16
41
1
10
69.2139043491921
20
-0.394685805023812
30
0
41
1
10
69.1742388916474
20
-0.371192764572214
30
0
41
1
10
69.1085865490488
20
-0.32558730106669
30
1E-16
41
1
10
69.0565704174425
20
-0.282276644097664
30
0
41
1
10
69.0177383076069
20
-0.247220008550926
30
-1E-16
41
1
10
69.0048244198537
20
-0.235104541242748
30
1E-16
41
1
10
68.9790552426011
20
-0.21000307068789
30
0
41
1
10
68.9661646787512
20
-0.196978895431442
30
0
41
1
10
68.9534235654356
20
-0.183642440689539
30
0
0
SPLINE
5
D3
100
AcDbEntity
8
1
62
256
6
ByLayer
370
18
48
1
60
0
100
AcDbSpline
70
4
71
3
72
22
73
18
40
0
40
0
40
0
40
0
40
0.124999999999963
40
0.124999999999963
40
0.187499999999969
40
0.187499999999969
40
0.249999999999976
40
0.249999999999976
40
0.374999999999989
40
0.374999999999989
40
0.437500000000021
40
0.437500000000021
40
0.500000000000055
40
0.500000000000055
40
0.750000000000027
40
0.750000000000027
40
1
40
1
40
1
40
1
41
1
10
68.9534235654237
20
-0.183642440670667
30
0
41
1
10
68.9325796955032
20
-0.19674676550278
30
0
41
1
10
68.9108090392926
20
-0.20715038722139
30
0
41
1
10
68.8769000242946
20
-0.219217356628661
30
1E-16
41
1
10
68.8653870380583
20
-0.222647223412451
30
1E-16
41
1
10
68.8419524772257
20
-0.228380516654795
30
1E-16
41
1
10
68.8301073180174
20
-0.230661923547103
30
1E-16
41
1
10
68.7945488646957
20
-0.235863483619397
30
1E-16
41
1
10
68.7706668793197
20
-0.237188307866774
30
1E-16
41
1
10
68.7345677264836
20
-0.236527508649516
30
1E-16
41
1
10
68.7224884872191
20
-0.235863025745061
30
1E-16
41
1
10
68.6982341626777
20
-0.233712760191821
30
1E-16
41
1
10
68.6860342661179
20
-0.2322229425302
30
1E-16
41
1
10
68.625065018886
20
-0.222900767343049
30
1E-16
41
1
10
68.5772612211168
20
-0.209748505804811
30
0
41
1
10
68.4825044079313
20
-0.175738157432221
30
0
41
1
10
68.4355668034941
20
-0.154818892237074
30
-1E-16
41
1
10
68.3887543036104
20
-0.13089371312455
30
-1E-16
0
SPLINE
5
D4
100
AcDbEntity
8
1
62
256
6
ByLayer
370
18
48
1
60
0
100
AcDbSpline
70
4
71
3
72
8
73
4
40
0
40
0
40
0
40
0
40
1
40
1
40
1
40
1
41
1
10
68.3887543036103
20
-0.130893713125033
30
-1E-16
41
1
10
68.3613720875211
20
-0.116942224505436
30
-2E-16
41
1
10
68.3341614902989
20
-0.102102234769404
30
-2E-16
41
1
10
68.3071246985925
20
-0.0865087367411661
30
2E-16
0
SPLINE
5
D5
100
AcDbEntity
8
1
62
256
6
ByLayer
370
18
48
1
60
0
100
AcDbSpline
70
4
71
3
72
12
73
8
40
0
40
0
40
0
40
0
40
0.5
40
0.5
40
0.75
40
0.75
40
1
40
1
40
1
40
1
41
1
10
68.3291862401861
20
-0.961302848933883
30
0
41
1
10
68.4006039783927
20
-1.00476136518557
30
1E-16
41
1
10
68.4707588416361
20
-1.04441650302277
30
-2E-16
41
1
10
68.5735451417013
20
-1.09913643171757
30
-1E-16
41
1
10
68.607394735772
20
-1.11658587028538
30
0
41
1
10
68.6741010915088
20
-1.15012803323802
30
0
41
1
10
68.7070115365141
20
-1.16624441178198
30
1E-16
41
1
10
68.7391253266549
20
-1.18174922184312
30
1E-16
0
SPLINE
5
D6
100
AcDbEntity
8
1
62
256
6
ByLayer
370
18
48
1
60
0
100
AcDbSpline
70
4
71
3
72
32
73
28
40
0
40
0
40
0
40
0
40
0.062499999999988
40
0.062499999999988
40
0.0937499999999819
40
0.0937499999999819
40
0.124999999999976
40
0.124999999999976
40
0.249999999999978
40
0.249999999999978
40
0.312499999999985
40
0.312499999999985
40
0.343749999999989
40
0.343749999999989
40
0.374999999999993
40
0.374999999999993
40
0.499999999999996
40
0.499999999999996
40
0.624999999999998
40
0.624999999999998
40
0.750000000000001
40
0.750000000000001
40
0.812500000000002
40
0.812500000000002
40
0.875000000000004
40
0.875000000000004
40
1
40
1
40
1
40
1
41
1
10
68.7391253266545
20
-1.18174922184352
30
1E-16
41
1
10
68.7718518335852
20
-1.19356344905896
30
-1E-16
41
1
10
68.8045275258576
20
-1.20402847130123
30
-1E-16
41
1
10
68.8535362953731
20
-1.21753017796973
30
0
41
1
10
68.8698955470497
20
-1.22167006885567
30
0
41
1
10
68.9025154082397
20
-1.22915961835378
30
0
41
1
10
68.9187215479355
20
-1.23249790100627
30
0
41
1
10
68.9992623314525
20
-1.24713883512786
30
0
41
1
10
69.0621415258174
20
-1.25231035708947
30
0
41
1
10
69.1545428644969
20
-1.24961145359441
30
0
41
1
10
69.185022976009
20
-1.24696049895601
30
0
41
1
10
69.2302968463735
20
-1.24021276376433
30
0
41
1
10
69.2453132327048
20
-1.23750206154099
30
0
41
1
10
69.2751994051918
20
-1.23112924931985
30
0
41
1
10
69.2900859258049
20
-1.22745995427462
30
0
41
1
10
69.3634459564933
20
-1.20687087950867
30
-1E-16
41
1
10
69.4192850141215
20
-1.18313326548338
30
1E-16
41
1
10
69.5255781858772
20
-1.12125184633965
30
0
41
1
10
69.5760444523394
20
-1.08306653881837
30
0
41
1
10
69.6712853589731
20
-0.991687927228384
30
0
41
1
10
69.7146848030192
20
-0.939768756366078
30
0
41
1
10
69.7735336618185
20
-0.853623781716522
30
0
41
1
10
69.792108890034
20
-0.823511288959878
30
0
41
1
10
69.8271387664595
20
-0.760625220643647
30
0
41
1
10
69.843602618303
20
-0.72783345965064
30
0
41
1
10
69.8896356706866
20
-0.625776542895437
30
0
41
1
10
69.9151869766615
20
-0.554361946238032
30
0
41
1
10
69.9358213817542
20
-0.480426387268579
30
0
0
SPLINE
5
D7
100
AcDbEntity
8
1
62
256
6
ByLayer
370
18
48
1
60
0
100
AcDbSpline
70
4
71
3
72
16
73
12
40
0
40
0
40
0
40
0
40
0.250000000000009
40
0.250000000000009
40
0.500000000000018
40
0.500000000000018
40
0.625000000000022
40
0.625000000000022
40
0.750000000000027
40
0.750000000000027
40
1
40
1
40
1
40
1
41
1
10
68.3071246985925
20
-0.0865087367411377
30
2E-16
41
1
10
68.2469929154007
20
-0.0518307119070016
30
1E-16
41
1
10
68.1884119657686
20
-0.0139208185961763
30
0
41
1
10
68.0731508918382
20
0.0665324163013565
30
-2E-16
41
1
10
68.0164806284735
20
0.109091689596767
30
2E-16
41
1
10
67.932319690521
20
0.175568081301066
30
0
41
1
10
67.9044090628145
20
0.198170327593488
30
0
41
1
10
67.848793761345
20
0.244152114445512
30
-1E-16
41
1
10
67.8210542932389
20
0.267562845891376
30
-2E-16
41
1
10
67.7385868966359
20
0.338338903839343
30
1E-16
41
1
10
67.6844466051377
20
0.386369930209497
30
0
41
1
10
67.6308398906074
20
0.434902837511174
30
-1E-16
0
SPLINE
5
D8
100
AcDbEntity
8
1
62
256
6
ByLayer
370
18
48
1
60
0
100
AcDbSpline
70
4
71
3
72
8
73
4
40
0
40
0
40
0
40
0
40
1
40
1
40
1
40
1
41
1
10
68.3887543036103
20
-2.0859015003883
30
0
41
1
10
68.3613720875212
20
-2.08863726752739
30
0
41
1
10
68.3341614902989
20
-2.09031935281118
30
0
41
1
10
68.3071246985925
20
-2.09100910699092
30
0
0
SPLINE
5
D9
100
AcDbEntity
8
1
62
256
6
ByLayer
370
18
48
1
60
0
100
AcDbSpline
70
4
71
3
72
21
73
17
40
0
40
0
40
0
40
0
40
0.0150438162971755
40
0.0918223179846055
40
0.168600819672035
40
0.245379321359465
40
0.322157823046895
40
0.398936324734325
40
0.475714826421755
40
0.552493328109185
40
0.629271829796615
40
0.706050331484045
40
0.782828833171475
40
0.859607334858905
40
0.936385836546335
40
1
40
1
40
1
40
1
41
1
10
61.7203367688405
20
2.61020834575783
30
0
41
1
10
61.7458495127938
20
2.61477461741356
30
0
41
1
10
61.9015705907385
20
2.64101713827051
30
0
41
1
10
62.1875000047531
20
2.67079091145305
30
0
41
1
10
62.5781249810082
20
2.66881830576719
30
0
41
1
10
62.9687500000189
20
2.62356814671585
30
0
41
1
10
63.3593750189147
20
2.53582223604931
30
1E-16
41
1
10
63.7499999990061
20
2.4063492762802
30
-1E-16
41
1
10
64.1406249850623
20
2.23739320792032
30
1E-16
41
1
10
64.5312500000057
20
2.03138794526504
30
-1E-16
41
1
10
64.9218750149132
20
1.79195746929264
30
0
41
1
10
65.3124999962798
20
1.52288085821061
30
0
41
1
10
65.7031249999688
20
1.22893726965094
30
-2E-16
41
1
10
66.0937500000149
20
0.915133182202709
30
1E-16
41
1
10
66.4620496549466
20
0.605933686347811
30
0
41
1
10
66.7001409766086
20
0.401489016072986
30
-1E-16
41
1
10
66.8080239649174
20
0.30851279010642
30
-1E-16
0
SPLINE
5
DA
100
AcDbEntity
8
1
62
256
6
ByLayer
370
18
48
1
60
0
100
AcDbSpline
70
4
71
3
72
16
73
12
40
0
40
0
40
0
40
0
40
0.249999999999992
40
0.249999999999992
40
0.499999999999983
40
0.499999999999983
40
0.749999999999975
40
0.749999999999975
40
0.874999999999987
40
0.874999999999987
40
1
40
1
40
1
40
1
41
1
10
67.6308398906074
20
-0.426943222289793
30
1E-16
41
1
10
67.6892145881403
20
-0.478103175748288
30
-2E-16
41
1
10
67.7472434828499
20
-0.527985428846563
30
-1E-16
41
1
10
67.8631012050384
20
-0.624711252804445
30
1E-16
41
1
10
67.9209285856202
20
-0.671556501503375
30
-2E-16
41
1
10
68.0368717551389
20
-0.76163888493258
30
0
41
1
10
68.0949853469463
20
-0.804879137768637
30
1E-16
41
1
10
68.1827754908905
20
-0.866490761838094
30
-2E-16
41
1
10
68.2121038972655
20
-0.886455129417129
30
-1E-16
41
1
10
68.2706471669998
20
-0.924939054672166
30
-1E-16
41
1
10
68.2999061901201
20
-0.943490056967448
30
0
41
1
10
68.3291862401861
20
-0.961302848933855
30
0
0
SPLINE
5
DB
100
AcDbEntity
8
1
62
256
6
ByLayer
370
18
48
1
60
0
100
AcDbSpline
70
4
71
3
72
22
73
18
40
0
40
0
40
0
40
0
40
0.023284742976918
40
0.0936552428063206
40
0.164025742635723
40
0.234396242465126
40
0.304766742294528
40
0.375137242123931
40
0.445507741953333
40
0.515878241782736
40
0.586248741612138
40
0.656619241441541
40
0.726989741270943
40
0.797360241100346
40
0.867730740929748
40
0.938101240759151
40
1
40
1
40
1
40
1
41
1
10
60.1051219349026
20
1.76469340402943
30
0
41
1
10
60.1482062897438
20
1.75032788212675
30
0
41
1
10
60.3214989786213
20
1.690802087149
30
0
41
1
10
60.6250000000098
20
1.57447957426547
30
1E-16
41
1
10
61.0156249999774
20
1.40320079135751
30
0
41
1
10
61.4062500000108
20
1.21222251328237
30
0
41
1
10
61.7968749999792
20
1.00395843489733
30
1E-16
41
1
10
62.1875000047534
20
0.780911652922384
30
-1E-16
41
1
10
62.5781249810089
20
0.546044959955196
30
1E-16
41
1
10
62.9687500000171
20
0.302495877559466
30
0
41
1
10
63.3593750189151
20
0.0536943491008515
30
-1E-16
41
1
10
63.7499999990075
20
-0.196655648469232
30
0
41
1
10
64.1406249850619
20
-0.44461149213231
30
-1E-16
41
1
10
64.5312500000045
20
-0.685915896673492
30
1E-16
41
1
10
64.9218750149136
20
-0.916627484704577
30
-1E-16
41
1
10
65.296824519021
20
-1.12381350680269
30
0
41
1
10
65.5415657091484
20
-1.24803540977513
30
0
41
1
10
65.6560985650947
20
-1.30328954327626
30
0
0
SPLINE
5
DC
100
AcDbEntity
8
1
62
256
6
ByLayer
370
18
48
1
60
0
100
AcDbSpline
70
4
71
3
72
16
73
12
40
0
40
0
40
0
40
0
40
0.25
40
0.25
40
0.5
40
0.5
40
0.625
40
0.625
40
0.75
40
0.75
40
1
40
1
40
1
40
1
41
1
10
68.3071246985925
20
-2.0910091069909
30
0
41
1
10
68.2469929154007
20
-2.09254459594857
30
0
41
1
10
68.1884119657686
20
-2.08921535034477
30
0
41
1
10
68.0731508918382
20
-2.0742602749429
30
0
41
1
10
68.0164806284735
20
-2.06261954708003
30
-1E-16
41
1
10
67.932319690521
20
-2.03946217369923
30
-1E-16
41
1
10
67.9044090628146
20
-2.03078956286751
30
1E-16
41
1
10
67.8487937613451
20
-2.01158967824188
30
1E-16
41
1
10
67.8210542932389
20
-2.00104528031949
30
0
41
1
10
67.7385868966359
20
-1.96692271093255
30
-1E-16
41
1
10
67.6844466051378
20
-1.94081826473683
30
1E-16
41
1
10
67.6308398906074
20
-1.91158717500289
30
0
0
SPLINE
5
DD
100
AcDbEntity
8
1
62
256
6
ByLayer
370
18
48
1
60
0
100
AcDbSpline
70
4
71
3
72
8
73
4
40
0
40
0
40
0
40
0
40
1
40
1
40
1
40
1
41
1
10
57.5
20
2.53503431374307
30
1E-16
41
0.839654378756208
10
57.5
20
2.19776800019273
30
0
41
0.839654378756208
10
57.5
20
1.7746335991393
30
1E-16
41
1
10
57.5
20
1.46917435580235
30
1E-16
0
SPLINE
5
DE
100
AcDbEntity
8
1
62
256
6
ByLayer
370
18
48
1
60
0
100
AcDbSpline
70
4
71
3
72
14
73
10
40
0
40
0
40
0
40
0
40
0.322333379221566
40
0.322333379221566
40
0.644666758443132
40
0.644666758443132
40
0.967000137664699
40
0.967000137664699
40
1
40
1
40
1
40
1
41
1
10
57.5
20
1.46917435580235
30
1E-16
41
1
10
57.5
20
1.43583782084079
30
0
41
1
10
57.5
20
1.40390629927714
30
0
41
1
10
57.5
20
1.34391373198028
30
0
41
1
10
57.5
20
1.31585583292545
30
0
41
1
10
57.4999999999999
20
1.2645930848071
30
-1E-16
41
1
10
57.5
20
1.241391246804
30
0
41
1
10
57.5
20
1.21893253260433
30
0
41
1
10
57.5
20
1.21687646212095
30
0
41
1
10
57.5
20
1.21485035580122
30
0
0
SPLINE
5
DF
100
AcDbEntity
8
1
62
256
6
ByLayer
370
18
48
1
60
0
100
AcDbSpline
70
4
71
3
72
8
73
4
40
0
40
0
40
0
40
0
40
1
40
1
40
1
40
1
41
1
10
57.5
20
-1.70057609367382
30
0
41
1
10
57.5
20
-1.73811710074972
30
1E-16
41
1
10
57.5
20
-1.77565810782559
30
2E-16
41
1
10
57.5
20
-1.81319911490147
30
-2E-16
0
SPLINE
5
E0
100
AcDbEntity
8
1
62
256
6
ByLayer
370
18
48
1
60
0
100
AcDbSpline
70
4
71
3
72
8
73
4
40
0
40
0
40
0
40
0
40
1
40
1
40
1
40
1
41
1
10
57.5
20
2.61460827559154
30
1E-16
41
1
10
57.5
20
2.58808362164203
30
-1E-16
41
1
10
57.5
20
2.56155896769255
30
0
41
1
10
57.5
20
2.53503431374307
30
1E-16
0
SPLINE
5
E1
100
AcDbEntity
8
1
62
256
6
ByLayer
370
18
48
1
60
0
100
AcDbSpline
70
4
71
3
72
8
73
4
40
0
40
0
40
0
40
0
40
1
40
1
40
1
40
1
41
0.887031388976038
10
57.5
20
-0.0599480144852257
30
-1E-16
41
0.862430869414044
10
57.5
20
-0.160015978134254
30
0
41
0.900087073088698
10
57.5
20
-0.351429852262724
30
0
41
1
10
57.5
20
-0.588120014485213
30
0
0
SPLINE
5
E2
100
AcDbEntity
8
1
62
256
6
ByLayer
370
18
48
1
60
0
100
AcDbSpline
70
4
71
3
72
8
73
4
40
0
40
0
40
0
40
0
40
1
40
1
40
1
40
1
41
0.99160096674306
10
57.5
20
-1.67375929190214
30
-1E-16
41
0.994308075473926
10
57.5
20
-1.68284681145966
30
-1E-16
41
0.997107753226239
10
57.5
20
-1.69178615805362
30
0
41
1
10
57.5
20
-1.70057609367382
30
0
0
SPLINE
5
E3
100
AcDbEntity
8
1
62
256
6
ByLayer
370
18
48
1
60
0
100
AcDbSpline
70
4
71
3
72
22
73
18
40
0
40
0
40
0
40
0
40
0.125
40
0.125
40
0.25
40
0.25
40
0.375
40
0.375
40
0.5
40
0.5
40
0.625
40
0.625
40
0.75
40
0.75
40
0.875
40
0.875
40
1
40
1
40
1
40
1
41
1
10
57.5
20
-0.588120014485213
30
0
41
1
10
57.5
20
-0.632559270828125
30
1E-16
41
1
10
57.5
20
-0.678517898115473
30
-2E-16
41
1
10
57.5
20
-0.772595071257427
30
0
41
1
10
57.5
20
-0.820711808027568
30
-1E-16
41
1
10
57.5
20
-0.918018691822141
30
-1E-16
41
1
10
57.5
20
-0.967206023315555
30
0
41
1
10
57.5
20
-1.06543136103338
30
-2E-16
41
1
10
57.5
20
-1.11446592410661
30
-1E-16
41
1
10
57.5
20
-1.21112235989423
30
2E-16
41
1
10
57.5
20
-1.25874073277757
30
-2E-16
41
1
10
57.5
20
-1.35136728271146
30
1E-16
41
1
10
57.5000000000001
20
-1.39637251164976
30
2E-16
41
1
10
57.5000000000001
20
-1.48274016220085
30
-1E-16
41
1
10
57.5
20
-1.52410065696634
30
0
41
1
10
57.5
20
-1.60238586628566
30
2E-16
41
1
10
57.5
20
-1.63930988335216
30
-2E-16
41
1
10
57.5
20
-1.67375929190211
30
-1E-16
0
SPLINE
5
E4
100
AcDbEntity
8
1
62
256
6
ByLayer
370
18
48
1
60
0
100
AcDbSpline
70
4
71
3
72
16
73
12
40
0
40
0
40
0
40
0
40
0.25
40
0.25
40
0.375
40
0.375
40
0.5
40
0.5
40
0.75
40
0.75
40
1
40
1
40
1
40
1
41
1
10
57.5000000000001
20
1.19306428045172
30
-1E-16
41
1
10
57.4201903278571
20
1.26159937497144
30
2E-16
41
1
10
57.3405438216309
20
1.3290987721542
30
0
41
1
10
57.2194609718068
20
1.42688744023977
30
2E-16
41
1
10
57.1788433673069
20
1.45892292710741
30
1E-16
41
1
10
57.0968352883984
20
1.52163745708071
30
0
41
1
10
57.0554360622212
20
1.55230814594512
30
-1E-16
41
1
10
56.930049565394
20
1.64232568860109
30
1E-16
41
1
10
56.845043075591
20
1.69985978813244
30
0
41
1
10
56.6731858845629
20
1.81121725823834
30
2E-16
41
1
10
56.5862682044045
20
1.86497011739942
30
1E-16
41
1
10
56.4985614059216
20
1.91707234112238
30
-1E-16
0
SPLINE
5
E5
100
AcDbEntity
8
1
62
256
6
ByLayer
370
18
48
1
60
0
100
AcDbSpline
70
4
71
3
72
34
73
30
40
0
40
0
40
0
40
0
40
0.124999999999968
40
0.124999999999968
40
0.249999999999937
40
0.249999999999937
40
0.28124999999994
40
0.28124999999994
40
0.312499999999943
40
0.312499999999943
40
0.374999999999934
40
0.374999999999934
40
0.499999999999917
40
0.499999999999917
40
0.562499999999915
40
0.562499999999915
40
0.593749999999918
40
0.593749999999918
40
0.624999999999922
40
0.624999999999922
40
0.749999999999948
40
0.749999999999948
40
0.812499999999961
40
0.812499999999961
40
0.874999999999974
40
0.874999999999974
40
0.937499999999987
40
0.937499999999987
40
1
40
1
40
1
40
1
41
1
10
56.4985614059216
20
1.91707234112235
30
-1E-16
41
1
10
56.4265190717999
20
1.95986908977648
30
-2E-16
41
1
10
56.3548037498812
20
2.00218436807688
30
2E-16
41
1
10
56.2139067222391
20
2.08743172405465
30
0
41
1
10
56.1447233165801
20
2.1303635584249
30
-1E-16
41
1
10
56.0609475408325
20
2.18514090351934
30
2E-16
41
1
10
56.0443268183257
20
2.19615045043577
30
2E-16
41
1
10
56.0113825595044
20
2.21829235806331
30
1E-16
41
1
10
55.9950411228576
20
2.22943771726756
30
1E-16
41
1
10
55.9466787405122
20
2.26296026665057
30
0
41
1
10
55.9153128789397
20
2.28542922076414
30
0
41
1
10
55.8241610866551
20
2.35321651046996
30
-2E-16
41
1
10
55.7673322345683
20
2.39893320933658
30
-1E-16
41
1
10
55.6891535833388
20
2.46810439305227
30
0
41
1
10
55.6642644774526
20
2.49125450052679
30
-1E-16
41
1
10
55.6288041218225
20
2.52605401824405
30
1E-16
41
1
10
55.6172961487759
20
2.53766600673905
30
0
41
1
10
55.5949234885639
20
2.56090042561215
30
0
41
1
10
55.5840423867528
20
2.5725423710484
30
0
41
1
10
55.5317783351184
20
2.63019071161034
30
1E-16
41
1
10
55.4964207054477
20
2.67488898366676
30
0
41
1
10
55.4527753525927
20
2.73907044263467
30
0
41
1
10
55.4397951635802
20
2.75998645506041
30
0
41
1
10
55.4170702973847
20
2.80074378816209
30
1E-16
41
1
10
55.4073023793242
20
2.82065643996234
30
1E-16
41
1
10
55.3914883318728
20
2.85868126975561
30
0
41
1
10
55.3853972910817
20
2.87685245122756
30
-1E-16
41
1
10
55.3770925331156
20
2.91146595670702
30
1E-16
41
1
10
55.3748744124396
20
2.92790859131315
30
0
41
1
10
55.3748744120694
20
2.94345369898937
30
0
0
SPLINE
5
E6
100
AcDbEntity
8
1
62
256
6
ByLayer
370
18
48
1
60
0
100
AcDbSpline
70
4
71
3
72
46
73
42
40
0
40
0
40
0
40
0
40
0.0624999999999979
40
0.0624999999999979
40
0.124999999999996
40
0.124999999999996
40
0.156249999999997
40
0.156249999999997
40
0.187499999999999
40
0.187499999999999
40
0.250000000000003
40
0.250000000000003
40
0.265625000000004
40
0.265625000000004
40
0.281250000000005
40
0.312500000000007
40
0.312500000000007
40
0.343750000000009
40
0.343750000000009
40
0.375000000000011
40
0.406250000000013
40
0.406250000000013
40
0.421875000000003
40
0.421875000000003
40
0.437499999999992
40
0.437499999999992
40
0.499999999999998
40
0.499999999999998
40
0.53125
40
0.53125
40
0.562500000000003
40
0.562500000000003
40
0.625000000000009
40
0.625000000000009
40
0.687500000000014
40
0.687500000000014
40
0.75000000000002
40
0.75000000000002
40
0.87500000000001
40
0.87500000000001
40
1
40
1
40
1
40
1
41
1
10
55.3748744120694
20
2.94345369898932
30
0
41
1
10
55.374874411768
20
2.9561116332867
30
0
41
1
10
55.376718322884
20
2.96796019021534
30
-1E-16
41
1
10
55.3845520915611
20
2.99006106486286
30
0
41
1
10
55.3905308439918
20
3.00031407159452
30
0
41
1
10
55.4033133301926
20
3.01448129741942
30
0
41
1
10
55.4082144462932
20
3.01900128104521
30
0
41
1
10
55.4195076304509
20
3.02762670879602
30
0
41
1
10
55.4259428789477
20
3.0317531336741
30
0
41
1
10
55.4475538535274
20
3.04328697217997
30
0
41
1
10
55.4649512413336
20
3.0498737131141
30
0
41
1
10
55.4916931356506
20
3.0567163257723
30
1E-16
41
1
10
55.4973171910592
20
3.05801878402366
30
1E-16
41
1
10
55.5089564994712
20
3.06044814940267
30
0
41
1
10
55.5270308350644
20
3.06383844697459
30
0
41
1
10
55.5470032236143
20
3.06649455179294
30
0
41
1
10
55.575440813695
20
3.06941863460838
30
0
41
1
10
55.5906063345873
20
3.07057427537413
30
0
41
1
10
55.6227239662459
20
3.07227819669464
30
0
41
1
10
55.6558293294012
20
3.07333815169829
30
0
41
1
10
55.6907538956769
20
3.07331515852727
30
0
41
1
10
55.7175811246498
20
3.07294535576691
30
0
41
1
10
55.7266488963105
20
3.07276225514863
30
0
41
1
10
55.7447307841579
20
3.07229280965211
30
0
41
1
10
55.7537745338747
20
3.07200630226859
30
0
41
1
10
55.799006236792
20
3.0703420708719
30
0
41
1
10
55.8352328350989
20
3.06828456691352
30
0
41
1
10
55.8896167672353
20
3.06440468755042
30
0
41
1
10
55.9077169504288
20
3.06297754078588
30
0
41
1
10
55.9433875632619
20
3.05992687070773
30
0
41
1
10
55.9610334218152
20
3.05829796977224
30
1E-16
41
1
10
56.0134946203136
20
3.0531300394484
30
0
41
1
10
56.047838341216
20
3.04931205973779
30
0
41
1
10
56.1155890499945
20
3.04100024120416
30
0
41
1
10
56.1490516867486
20
3.03649545875229
30
0
41
1
10
56.2149722998616
20
3.02686123812012
30
0
41
1
10
56.2472963771494
20
3.02175290280516
30
0
41
1
10
56.3428083614323
20
3.00556256222174
30
0
41
1
10
56.4045515768285
20
2.99361243339328
30
0
41
1
10
56.5257301677515
20
2.96740511112864
30
0
41
1
10
56.5851492544705
20
2.9531450090889
30
0
41
1
10
56.6439051337493
20
2.93775765862449
30
0
0
SPLINE
5
E7
100
AcDbEntity
8
1
62
256
6
ByLayer
370
18
48
1
60
0
100
AcDbSpline
70
4
71
3
72
14
73
10
40
0
40
0
40
0
40
0
40
0.25
40
0.25
40
0.5
40
0.5
40
0.75
40
0.75
40
1
40
1
40
1
40
1
41
1
10
56.6439051337443
20
2.9377576586291
30
0
41
1
10
56.7190299214739
20
2.91808351790405
30
0
41
1
10
56.7933149771451
20
2.89684672117912
30
1E-16
41
1
10
56.9399921665546
20
2.85088824029745
30
0
41
1
10
57.012396541535
20
2.82617605714574
30
0
41
1
10
57.1546890673575
20
2.77263239680352
30
-1E-16
41
1
10
57.2245643672056
20
2.74377667035338
30
0
41
1
10
57.3629230604507
20
2.68204361193236
30
-1E-16
41
1
10
57.4314046486164
20
2.64915972088375
30
0
41
1
10
57.4999999999999
20
2.61460827559148
30
1E-16
0
SPLINE
5
E8
100
AcDbEntity
8
1
62
256
6
ByLayer
370
18
48
1
60
0
100
AcDbSpline
70
4
71
3
72
34
73
30
40
0
40
0
40
0
40
0
40
0.125000000000027
40
0.125000000000027
40
0.250000000000054
40
0.250000000000054
40
0.281250000000049
40
0.281250000000049
40
0.312500000000045
40
0.312500000000045
40
0.375000000000035
40
0.375000000000035
40
0.500000000000031
40
0.500000000000031
40
0.562500000000035
40
0.562500000000035
40
0.593750000000031
40
0.593750000000031
40
0.625000000000028
40
0.625000000000028
40
0.750000000000023
40
0.750000000000023
40
0.812500000000017
40
0.812500000000017
40
0.875000000000011
40
0.875000000000011
40
0.937500000000006
40
0.937500000000006
40
1
40
1
40
1
40
1
41
1
10
56.4985614059216
20
-3.04621130973746
30
0
41
1
10
56.4265190717998
20
-3.04231274844909
30
0
41
1
10
56.3548037498812
20
-3.03707062555986
30
0
41
1
10
56.2139067222391
20
-3.02310346678936
30
0
41
1
10
56.1447233165801
20
-3.01438103950696
30
0
41
1
10
56.0609475408326
20
-3.00048562183036
30
0
41
1
10
56.0443268183256
20
-2.99755575663787
30
0
41
1
10
56.0113825595044
20
-2.99136790088954
30
0
41
1
10
55.9950411228575
20
-2.98810576600155
30
0
41
1
10
55.9466787405121
20
-2.97781949077159
30
0
41
1
10
55.9153128789396
20
-2.97029643806948
30
0
41
1
10
55.8241610866552
20
-2.94545632559965
30
0
41
1
10
55.7673322345683
20
-2.92588066346852
30
0
41
1
10
55.6891535833388
20
-2.89066695936043
30
-1E-16
41
1
10
55.6642644774525
20
-2.87795250671164
30
1E-16
41
1
10
55.6288041218225
20
-2.85722258855029
30
0
41
1
10
55.6172961487759
20
-2.85003599865126
30
0
41
1
10
55.5949234885638
20
-2.8350741039032
30
0
41
1
10
55.5840423867528
20
-2.82728396010179
30
0
41
1
10
55.5317783351183
20
-2.78716022276234
30
1E-16
41
1
10
55.4964207054477
20
-2.75109152504427
30
0
41
1
10
55.4527753525927
20
-2.69038486966406
30
1E-16
41
1
10
55.4397951635802
20
-2.66904736922169
30
0
41
1
10
55.4170702973846
20
-2.62400688363908
30
-1E-16
41
1
10
55.4073023793242
20
-2.60020117599166
30
1E-16
41
1
10
55.3914883318729
20
-2.55082684790216
30
0
41
1
10
55.3853972910817
20
-2.52520773487461
30
-1E-16
41
1
10
55.3770925331156
20
-2.47203881787644
30
0
41
1
10
55.3748744124395
20
-2.44448975387996
30
0
41
1
10
55.3748744120694
20
-2.41591661787737
30
-1E-16
0
SPLINE
5
E9
100
AcDbEntity
8
1
62
256
6
ByLayer
370
18
48
1
60
0
100
AcDbSpline
70
4
71
3
72
46
73
42
40
0
40
0
40
0
40
0
40
0.0625000000000368
40
0.0625000000000368
40
0.125000000000074
40
0.125000000000074
40
0.15625000000009
40
0.15625000000009
40
0.187500000000106
40
0.187500000000106
40
0.250000000000137
40
0.250000000000137
40
0.265625000000135
40
0.265625000000135
40
0.281250000000133
40
0.312500000000129
40
0.312500000000129
40
0.343750000000124
40
0.343750000000124
40
0.37500000000012
40
0.406250000000116
40
0.406250000000116
40
0.421875000000102
40
0.421875000000102
40
0.437500000000089
40
0.437500000000089
40
0.500000000000058
40
0.500000000000058
40
0.531250000000055
40
0.531250000000055
40
0.562500000000051
40
0.562500000000051
40
0.625000000000044
40
0.625000000000044
40
0.687500000000037
40
0.687500000000037
40
0.750000000000029
40
0.750000000000029
40
0.875000000000015
40
0.875000000000015
40
1
40
1
40
1
40
1
41
1
10
55.3748744120694
20
-2.41591661787731
30
-1E-16
41
1
10
55.374874411768
20
-2.39265033463732
30
-2E-16
41
1
10
55.3767183228841
20
-2.36904810625777
30
2E-16
41
1
10
55.3845520915611
20
-2.32125959011657
30
1E-16
41
1
10
55.3905308439918
20
-2.29707211922795
30
1E-16
41
1
10
55.4033133301925
20
-2.26044989984811
30
0
41
1
10
55.4082144462932
20
-2.24818607133645
30
-1E-16
41
1
10
55.4195076304509
20
-2.22357055998557
30
-1E-16
41
1
10
55.4259428789477
20
-2.21114931775287
30
-1E-16
41
1
10
55.4475538535274
20
-2.17445259424807
30
2E-16
41
1
10
55.4649512413335
20
-2.1507062081478
30
2E-16
41
1
10
55.4916931356505
20
-2.12253162613555
30
1E-16
41
1
10
55.4973171910592
20
-2.1169549593491
30
1E-16
41
1
10
55.5089564994713
20
-2.10612868108424
30
0
41
1
10
55.5270308350644
20
-2.09034423276802
30
0
41
1
10
55.5470032236143
20
-2.07599342323044
30
0
41
1
10
55.5754408136951
20
-2.05827566543505
30
-1E-16
41
1
10
55.5906063345873
20
-2.05010554615674
30
-1E-16
41
1
10
55.622723966246
20
-2.03543194617825
30
-1E-16
41
1
10
55.6558293294011
20
-2.02277745764943
30
-1E-16
41
1
10
55.6907538956769
20
-2.01389662563866
30
-2E-16
41
1
10
55.7175811246498
20
-2.0085638924914
30
-2E-16
41
1
10
55.7266488963105
20
-2.00700634667783
30
-2E-16
41
1
10
55.7447307841579
20
-2.00435233901871
30
-2E-16
41
1
10
55.7537745338747
20
-2.00324889174271
30
-2E-16
41
1
10
55.799006236792
20
-1.99875043240903
30
-2E-16
41
1
10
55.8352328350989
20
-1.99837397356853
30
-2E-16
41
1
10
55.8896167672353
20
-2.00128327055989
30
-2E-16
41
1
10
55.9077169504288
20
-2.00284201927855
30
-2E-16
41
1
10
55.9433875632619
20
-2.00689342127518
30
-2E-16
41
1
10
55.9610334218152
20
-2.00938983439713
30
-2E-16
41
1
10
56.0134946203136
20
-2.01804559934519
30
-2E-16
41
1
10
56.047838341216
20
-2.02535938813927
30
-1E-16
41
1
10
56.1155890499945
20
-2.04217976738838
30
-1E-16
41
1
10
56.1490516867487
20
-2.05171423643077
30
-1E-16
41
1
10
56.2149722998616
20
-2.07231469944725
30
0
41
1
10
56.2472963771494
20
-2.08333459785669
30
0
41
1
10
56.3428083614323
20
-2.11788806894342
30
1E-16
41
1
10
56.4045515768285
20
-2.14288987207735
30
1E-16
41
1
10
56.5257301677516
20
-2.19450068139167
30
-2E-16
41
1
10
56.5851492544706
20
-2.22113176046133
30
-1E-16
41
1
10
56.6439051337493
20
-2.24785227227298
30
-1E-16
0
SPLINE
5
EA
100
AcDbEntity
8
1
62
256
6
ByLayer
370
18
48
1
60
0
100
AcDbSpline
70
4
71
3
72
14
73
10
40
0
40
0
40
0
40
0
40
0.25
40
0.25
40
0.5
40
0.5
40
0.75
40
0.75
40
1
40
1
40
1
40
1
41
1
10
56.6439051337443
20
-2.24785227227341
30
-1E-16
41
1
10
56.7190299214739
20
-2.28201690060536
30
0
41
1
10
56.7933149771451
20
-2.31569574935375
30
1E-16
41
1
10
56.9399921665546
20
-2.38199403591477
30
0
41
1
10
57.0123965415349
20
-2.41460798744538
30
1E-16
41
1
10
57.1546890673574
20
-2.47891326372223
30
0
41
1
10
57.2245643672056
20
-2.51059683731376
30
1E-16
41
1
10
57.3629230604506
20
-2.57180400399182
30
0
41
1
10
57.4314046486165
20
-2.60132352435062
30
1E-16
41
1
10
57.5000000000001
20
-2.62913021516422
30
-1E-16
0
SPLINE
5
EB
100
AcDbEntity
8
1
62
256
6
ByLayer
370
18
48
1
60
0
100
AcDbSpline
70
4
71
3
72
16
73
12
40
0
40
0
40
0
40
0
40
0.25
40
0.25
40
0.375
40
0.375
40
0.5
40
0.5
40
0.75
40
0.75
40
1
40
1
40
1
40
1
41
1
10
57.5000000000001
20
-1.81319911490149
30
-2E-16
41
1
10
57.4201903278571
20
-1.75742384628964
30
1E-16
41
1
10
57.3405438216309
20
-1.70003965288615
30
0
41
1
10
57.2194609718068
20
-1.61362103453936
30
-2E-16
41
1
10
57.1788433673069
20
-1.58474831545718
30
2E-16
41
1
10
57.0968352883984
20
-1.52719649155586
30
0
41
1
10
57.0554360622212
20
-1.49852788842486
30
0
41
1
10
56.930049565394
20
-1.41292894027731
30
2E-16
41
1
10
56.8450430755911
20
-1.35622551789558
30
1E-16
41
1
10
56.6731858845629
20
-1.24271847814415
30
-2E-16
41
1
10
56.5862682044045
20
-1.18598743402302
30
1E-16
41
1
10
56.4985614059216
20
-1.12913896861508
30
0
0
SPLINE
5
EC
100
AcDbEntity
8
1
62
256
6
ByLayer
370
18
48
1
60
0
100
AcDbSpline
70
4
71
3
72
34
73
30
40
0
40
0
40
0
40
0
40
0.124999999999993
40
0.124999999999993
40
0.249999999999986
40
0.249999999999986
40
0.281249999999984
40
0.281249999999984
40
0.312499999999982
40
0.312499999999982
40
0.374999999999979
40
0.374999999999979
40
0.499999999999985
40
0.499999999999985
40
0.562499999999988
40
0.562499999999988
40
0.593749999999994
40
0.593749999999994
40
0.625000000000001
40
0.625000000000001
40
0.750000000000001
40
0.750000000000001
40
0.812500000000001
40
0.812500000000001
40
0.875
40
0.875
40
0.9375
40
0.9375
40
1
40
1
40
1
40
1
41
1
10
56.4985614059216
20
-1.12913896861508
30
0
41
1
10
56.4265190717998
20
-1.08244365867264
30
-1E-16
41
1
10
56.3548037498811
20
-1.03488625748295
30
2E-16
41
1
10
56.213906722239
20
-0.935671742734712
30
0
41
1
10
56.1447233165801
20
-0.884017481082054
30
-1E-16
41
1
10
56.0609475408326
20
-0.815344718310996
30
1E-16
41
1
10
56.0443268183257
20
-0.801405306202099
30
1E-16
41
1
10
56.0113825595044
20
-0.773075542826263
30
0
41
1
10
55.9950411228575
20
-0.758668048733966
30
0
41
1
10
55.9466787405121
20
-0.714859224121
30
-1E-16
41
1
10
55.9153128789397
20
-0.684867217305339
30
-2E-16
41
1
10
55.8241610866552
20
-0.592239815129631
30
1E-16
41
1
10
55.7673322345683
20
-0.526947454131971
30
-1E-16
41
1
10
55.6891535833389
20
-0.42256256630813
30
1E-16
41
1
10
55.6642644774525
20
-0.386698006184815
30
0
41
1
10
55.6288041218224
20
-0.331168570306204
30
-1E-16
41
1
10
55.6172961487759
20
-0.312369991912163
30
-2E-16
41
1
10
55.5949234885638
20
-0.274173678291021
30
2E-16
41
1
10
55.5840423867528
20
-0.254741589053396
30
2E-16
41
1
10
55.5317783351184
20
-0.156969511151999
30
-1E-16
41
1
10
55.4964207054477
20
-0.076202541377512
30
2E-16
41
1
10
55.4527753525927
20
0.0486855729706406
30
-1E-16
41
1
10
55.4397951635802
20
0.0909390858387269
30
-2E-16
41
1
10
55.4170702973847
20
0.176736904523011
30
0
41
1
10
55.4073023793242
20
0.220455263970678
30
-1E-16
41
1
10
55.3914883318728
20
0.307854421853449
30
2E-16
41
1
10
55.3853972910817
20
0.351644716352922
30
1E-16
41
1
10
55.3770925331156
20
0.439427138830581
30
-1E-16
41
1
10
55.3748744124396
20
0.48341883743322
30
2E-16
41
1
10
55.3748744120694
20
0.527537081112001
30
1E-16
0
SPLINE
5
ED
100
AcDbEntity
8
1
62
256
6
ByLayer
370
18
48
1
60
0
100
AcDbSpline
70
4
71
3
72
46
73
42
40
0
40
0
40
0
40
0
40
0.0625000000000068
40
0.0625000000000068
40
0.125000000000013
40
0.125000000000013
40
0.156250000000014
40
0.156250000000014
40
0.187500000000014
40
0.187500000000014
40
0.250000000000024
40
0.250000000000024
40
0.265625000000016
40
0.265625000000016
40
0.281250000000008
40
0.312499999999992
40
0.312499999999992
40
0.343749999999976
40
0.343749999999976
40
0.37499999999996
40
0.406249999999944
40
0.406249999999944
40
0.421874999999936
40
0.421874999999936
40
0.437499999999928
40
0.437499999999928
40
0.49999999999992
40
0.49999999999992
40
0.531249999999928
40
0.531249999999928
40
0.562499999999935
40
0.562499999999935
40
0.62499999999995
40
0.62499999999995
40
0.687499999999966
40
0.687499999999966
40
0.749999999999981
40
0.749999999999981
40
0.874999999999991
40
0.874999999999991
40
1
40
1
40
1
40
1
41
1
10
55.3748744120694
20
0.527537081111973
30
1E-16
41
1
10
55.374874411768
20
0.563461298649372
30
0
41
1
10
55.3767183228841
20
0.598912083957572
30
-1E-16
41
1
10
55.3845520915611
20
0.668801474746289
30
2E-16
41
1
10
55.3905308439918
20
0.703241952366568
30
1E-16
41
1
10
55.4033133301925
20
0.75403139757131
30
0
41
1
10
55.4082144462933
20
0.770815209708758
30
0
41
1
10
55.419507630451
20
0.804056148810474
30
-1E-16
41
1
10
55.4259428789477
20
0.820603815921231
30
-1E-16
41
1
10
55.4475538535274
20
0.868834377931904
30
2E-16
41
1
10
55.4649512413336
20
0.8991675049663
30
1E-16
41
1
10
55.4916931356506
20
0.934184699636802
30
0
41
1
10
55.4973171910592
20
0.941063824674558
30
0
41
1
10
55.5089564994713
20
0.954319468318431
30
0
41
1
10
55.5270308350645
20
0.973494214206596
30
-1E-16
41
1
10
55.5470032236143
20
0.990501128562471
30
-1E-16
41
1
10
55.5754408136951
20
1.01114296917333
30
-1E-16
41
1
10
55.5906063345873
20
1.02046872921738
30
-2E-16
41
1
10
55.622723966246
20
1.03684625051639
30
-2E-16
41
1
10
55.6558295044483
20
1.05056013093119
30
2E-16
41
1
10
55.6907538956768
20
1.05941853288863
30
2E-16
41
1
10
55.7175811246497
20
1.06438146327548
30
2E-16
41
1
10
55.7266488963105
20
1.06575590847081
30
2E-16
41
1
10
55.744730784158
20
1.0679404706334
30
2E-16
41
1
10
55.7537745338747
20
1.06875741052588
30
2E-16
41
1
10
55.799006236792
20
1.07159163846288
30
2E-16
41
1
10
55.8352328350989
20
1.06991059334499
30
2E-16
41
1
10
55.8896167672354
20
1.06312141699053
30
2E-16
41
1
10
55.9077169504288
20
1.06013552150731
30
2E-16
41
1
10
55.9433875632619
20
1.05303344943252
30
2E-16
41
1
10
55.9610334218153
20
1.04890813537512
30
2E-16
41
1
10
56.0134946203136
20
1.03508444010325
30
-2E-16
41
1
10
56.047838341216
20
1.02395267159852
30
-2E-16
41
1
10
56.1155890499944
20
0.998820473815783
30
-1E-16
41
1
10
56.1490516867487
20
0.984781222321516
30
-1E-16
41
1
10
56.2149722998616
20
0.954546538672901
30
0
41
1
10
56.2472963771494
20
0.93841830494847
30
0
41
1
10
56.3428083614323
20
0.887674493278325
30
1E-16
41
1
10
56.4045515768286
20
0.850722561315933
30
-2E-16
41
1
10
56.5257301677516
20
0.772904429736968
30
0
41
1
10
56.5851492544705
20
0.732013248627538
30
1E-16
41
1
10
56.6439051337493
20
0.689905386351512
30
2E-16
0
SPLINE
5
EE
100
AcDbEntity
8
1
62
256
6
ByLayer
370
18
48
1
60
0
100
AcDbSpline
70
4
71
3
72
14
73
10
40
0
40
0
40
0
40
0
40
0.25
40
0.25
40
0.5
40
0.5
40
0.75
40
0.75
40
1
40
1
40
1
40
1
41
1
10
56.6439051337443
20
0.68990538635569
30
2E-16
41
1
10
56.7190299214739
20
0.636066617298695
30
-2E-16
41
1
10
56.7933149771451
20
0.581150971825366
30
0
41
1
10
56.9399921665546
20
0.468894204382678
30
-2E-16
41
1
10
57.012396541535
20
0.411568069700365
30
-1E-16
41
1
10
57.1546890673574
20
0.293719133081282
30
2E-16
41
1
10
57.2245643672056
20
0.2331798330396
30
-1E-16
41
1
10
57.3629230604507
20
0.110239607940571
30
2E-16
41
1
10
57.4314046486164
20
0.047836196533126
30
-1E-16
41
1
10
57.5
20
-0.0145219395727167
30
0
0
SPLINE
5
EF
100
AcDbEntity
8
1
62
256
6
ByLayer
370
18
48
1
60
0
100
AcDbSpline
70
4
71
3
72
24
73
20
40
0
40
0
40
0
40
0
40
0.0360989553657421
40
0.0976422332691515
40
0.159185511172561
40
0.22072878907597
40
0.28227206697938
40
0.343815344882789
40
0.405358622786198
40
0.466901900689608
40
0.528445178593017
40
0.589988456496427
40
0.651531734399836
40
0.713075012303245
40
0.774618290206655
40
0.836161568110064
40
0.897704846013473
40
0.959248123916883
40
1
40
1
40
1
40
1
41
1
10
61.1771241730929
20
0.856297420934794
30
0
41
1
10
61.2534994487294
20
0.792452441203523
30
1E-16
41
1
10
61.4600830577065
20
0.617951705376015
30
2E-16
41
1
10
61.7968749999795
20
0.327527310774826
30
1E-16
41
1
10
62.1875000047531
20
-0.01268620957336
30
0
41
1
10
62.5781249810078
20
-0.350801216834498
30
-1E-16
41
1
10
62.96875000002
20
-0.681101722757319
30
-2E-16
41
1
10
63.3593750189145
20
-0.998109831810382
30
1E-16
41
1
10
63.7499999990051
20
-1.29607501559727
30
-1E-16
41
1
10
64.1406249850627
20
-1.56969911181977
30
1E-16
41
1
10
64.5312500000067
20
-1.81354049966237
30
0
41
1
10
64.9218750149129
20
-2.02333198919442
30
1E-16
41
1
10
65.312499996279
20
-2.19468949301597
30
0
41
1
10
65.7031249999693
20
-2.32451820555255
30
0
41
1
10
66.0937500000148
20
-2.40974791738515
30
0
41
1
10
66.4843749999715
20
-2.44878712142147
30
0
41
1
10
66.8750000000163
20
-2.44024367755176
30
0
41
1
10
67.2216362188885
20
-2.39054440694184
30
0
41
1
10
67.4380641055365
20
-2.33791232731289
30
0
41
1
10
67.5242836576086
20
-2.31361055103542
30
0
0
SPLINE
5
F0
100
AcDbEntity
8
1
62
256
6
ByLayer
370
18
48
1
60
0
100
AcDbSpline
70
4
71
3
72
22
73
18
40
0
40
0
40
0
40
0
40
0.0666230847212622
40
0.13833581099409
40
0.210048537266917
40
0.281761263539745
40
0.353473989812572
40
0.4251867160854
40
0.496899442358227
40
0.568612168631055
40
0.640324894903882
40
0.71203762117671
40
0.783750347449537
40
0.855463073722365
40
0.927175799995192
40
0.99888852626802
40
1
40
1
40
1
40
1
41
1
10
58.3089736708596
20
2.77371591830513
30
0
41
1
10
58.4299407740751
20
2.79684259622644
30
0
41
1
10
58.6811162188069
20
2.83309774250526
30
0
41
1
10
59.0625000082953
20
2.85046419756628
30
0
41
1
10
59.4531250114626
20
2.82748971767876
30
0
41
1
10
59.8437499971386
20
2.76390393339355
30
0
41
1
10
60.2343749999836
20
2.66044507433159
30
0
41
1
10
60.6250000000097
20
2.51829360269014
30
1E-16
41
1
10
61.0156249999774
20
2.33950345787579
30
1E-16
41
1
10
61.4062500000108
20
2.12635193439931
30
-1E-16
41
1
10
61.7968749999794
20
1.88211377959249
30
0
41
1
10
62.1875000047531
20
1.61019410169084
30
-2E-16
41
1
10
62.5781249810082
20
1.3148745443913
30
0
41
1
10
62.9687500000189
20
1.00059101916003
30
-1E-16
41
1
10
63.3593750189147
20
0.672398730316672
30
2E-16
41
1
10
63.6218097678735
20
0.446102137171522
30
1E-16
41
1
10
63.7540361911603
20
0.331588393206289
30
1E-16
41
1
10
63.7560542867407
20
0.329840524365551
30
1E-16
0
SPLINE
5
F1
100
AcDbEntity
8
1
62
256
6
ByLayer
370
18
48
1
60
0
100
AcDbSpline
70
4
71
3
72
24
73
20
40
0
40
0
40
0
40
0
40
0.037116163381361
40
0.0990250594919533
40
0.160933955602546
40
0.222842851713138
40
0.28475174782373
40
0.346660643934322
40
0.408569540044915
40
0.470478436155507
40
0.532387332266099
40
0.594296228376691
40
0.656205124487284
40
0.718114020597875
40
0.780022916708468
40
0.84193181281906
40
0.903840708929652
40
0.965749605040245
40
1
40
1
40
1
40
1
41
0.993457512464358
10
61.1721004959754
20
0.860857125169123
30
0
41
0.993520646065422
10
61.2501596327855
20
0.796682746327984
30
1E-16
41
0.993691872700963
10
61.458409873104
20
0.62360441501502
30
2E-16
41
0.993981143275925
10
61.7968749999796
20
0.336258598045015
30
1E-16
41
0.994328203370255
10
62.1875000047532
20
0.0010956327213681
30
0
41
0.994685872478567
10
62.5781249810078
20
-0.332257901621303
30
-1E-16
41
0.995051507264859
10
62.9687500000199
20
-0.658210264501135
30
2E-16
41
0.99542249928503
10
63.3593750189145
20
-0.971394706072573
30
1E-16
41
0.995796202639588
10
63.7499999990052
20
-1.26617010723469
30
-1E-16
41
0.996169947525543
10
64.1406249850626
20
-1.53732646521486
30
0
41
0.996541028434421
10
64.5312500000066
20
-1.77950128386107
30
0
41
0.996906833327887
10
64.921875014913
20
-1.98847460741414
30
0
41
0.99726471467044
10
65.312499996279
20
-2.15989758624359
30
0
41
0.997612059672185
10
65.7031249999693
20
-2.29067662632694
30
0
41
0.997946226208846
10
66.0937500000148
20
-2.37772734579137
30
0
41
0.998264592420035
10
66.4843749999715
20
-2.41940999048445
30
0
41
0.99856451872335
10
66.8750000000163
20
-2.4142676557923
30
0
41
0.998801852957126
10
67.2074667737633
20
-2.37005962747845
30
0
41
0.998936705342239
10
67.4097278584294
20
-2.32452195039789
30
0
41
0.998983454337661
10
67.4817669060741
20
-2.3059888118965
30
0
0
SPLINE
5
F2
100
AcDbEntity
8
1
62
256
6
ByLayer
370
18
48
1
60
0
100
AcDbSpline
70
4
71
3
72
16
73
12
40
0
40
0
40
0
40
0
40
0.129484310413528
40
0.194226465620292
40
0.258968620827055
40
0.388452931240583
40
0.517937241654111
40
0.647421552067638
40
0.776905862481166
40
0.906390172894694
40
1
40
1
40
1
40
1
41
1
10
57.5
20
2.53503431374307
30
1E-16
41
1
10
57.630208300501
20
2.47252038612706
30
0
41
1
10
57.8255208244914
20
2.3705047685134
30
0
41
1
10
58.0859374885834
20
2.21920628928368
30
-1E-16
41
1
10
58.3463541465268
20
2.05821137294137
30
1E-16
41
1
10
58.671874989102
20
1.83978532339796
30
1E-16
41
1
10
59.0625000082953
20
1.55393375583202
30
-1E-16
41
1
10
59.4531250114626
20
1.2480787324763
30
2E-16
41
1
10
59.8437499971386
20
0.92653013918175
30
0
41
1
10
60.1982999210813
20
0.624648560705964
30
0
41
1
10
60.4226415093476
20
0.43054450062445
30
-1E-16
41
1
10
60.5167747640701
20
0.348872655911322
30
-1E-16
0
SPLINE
5
F3
100
AcDbEntity
8
1
62
256
6
ByLayer
370
18
48
1
60
0
100
AcDbSpline
70
4
71
3
72
20
73
16
40
0
40
0
40
0
40
0
40
0.0012531439375209
40
0.0853570830652478
40
0.169461022192975
40
0.253564961320702
40
0.337668900448429
40
0.421772839576156
40
0.505876778703883
40
0.58998071783161
40
0.674084656959337
40
0.758188596087064
40
0.84229253521479
40
0.926396474342518
40
1
40
1
40
1
40
1
41
0.995790641099309
10
63.7442285774519
20
1.29147916140303
30
0
41
0.99579249725085
10
63.7461686704924
20
1.28999777510425
30
0
41
0.995918928009016
10
63.8783005607257
20
1.18905469751791
30
0
41
0.996169947525543
10
64.1406249850626
20
0.981665852728556
30
-1E-16
41
0.996541028434421
10
64.5312500000066
20
0.657661091494828
30
-2E-16
41
0.996906833327887
10
64.921875014913
20
0.32416559166717
30
1E-16
41
0.99726471467044
10
65.312499996279
20
-0.0128639973164818
30
0
41
0.997612059672185
10
65.7031249999693
20
-0.347329528116256
30
-1E-16
41
0.997946226208846
10
66.0937500000148
20
-0.672897038223192
30
-2E-16
41
0.998264592420035
10
66.4843749999715
20
-0.983462819058401
30
1E-16
41
0.99856451872335
10
66.8750000000163
20
-1.27280085903689
30
-1E-16
41
0.998843381295593
10
67.2656249999633
20
-1.53528072511086
30
0
41
0.9990985486328
10
67.6562500022804
20
-1.7653674297247
30
-1E-16
41
0.999317857236017
10
68.0306219918376
20
-1.95027784684788
30
-1E-16
41
0.999443913741119
10
68.2747979680304
20
-2.04660414124376
30
-1E-16
41
0.999500724050411
10
68.3887543036104
20
-2.08590150038828
30
0
0
SPLINE
5
F4
100
AcDbEntity
8
1
62
256
6
ByLayer
370
18
48
1
60
0
100
AcDbSpline
70
4
71
3
72
21
73
17
40
0
40
0
40
0
40
0
40
0.0773759461877883
40
0.116063919281682
40
0.154751892375577
40
0.232127838563365
40
0.309503784751153
40
0.386879730938942
40
0.46425567712673
40
0.541631623314518
40
0.619007569502307
40
0.696383515690095
40
0.773759461877883
40
0.851135408065671
40
0.92851135425346
40
1
40
1
40
1
40
1
41
1
10
57.5
20
1.46917435580235
30
1E-16
41
1
10
57.6302083005299
20
1.40699077560683
30
0
41
1
10
57.8255208244883
20
1.30978877507317
30
0
41
1
10
58.0859374885783
20
1.17289746995277
30
-1E-16
41
1
10
58.3463541465292
20
1.03200964631321
30
0
41
1
10
58.6718749891062
20
0.847990384061944
30
0
41
1
10
59.0625000082945
20
0.617144558197651
30
1E-16
41
1
10
59.4531250114637
20
0.379423529186681
30
0
41
1
10
59.8437499971391
20
0.137696611130224
30
1E-16
41
1
10
60.2343749999827
20
-0.105040678598357
30
-2E-16
41
1
10
60.6250000000098
20
-0.345738603380767
30
-1E-16
41
1
10
61.0156249999774
20
-0.581299212555564
30
0
41
1
10
61.4062500000108
20
-0.808497618437144
30
-1E-16
41
1
10
61.7968749999792
20
-1.02424969475607
30
0
41
1
10
62.1775928485191
20
-1.22015018393574
30
0
41
1
10
62.428102344541
20
-1.33815283268436
30
0
41
1
10
62.5484035200936
20
-1.39188635715345
30
0
0
SPLINE
5
F5
100
AcDbEntity
8
1
62
256
6
ByLayer
370
18
48
1
60
0
100
AcDbSpline
70
4
71
3
72
24
73
20
40
0
40
0
40
0
40
0
40
0.0075708487064306
40
0.0699032936359554
40
0.13223573856548
40
0.194568183495005
40
0.25690062842453
40
0.319233073354055
40
0.381565518283579
40
0.443897963213104
40
0.506230408142629
40
0.568562853072154
40
0.630895298001679
40
0.693227742931204
40
0.755560187860728
40
0.817892632790253
40
0.880225077719778
40
0.942557522649303
40
1
40
1
40
1
40
1
41
0.991743249013726
10
58.2338124927872
20
0.544913012006085
30
0
41
0.991748477883804
10
58.2496278075787
20
0.531631100688274
30
0
41
0.991797676507264
10
58.3956485028878
20
0.408868433157937
30
-1E-16
41
0.991902067575276
10
58.6718749891002
20
0.174583650943036
30
0
41
0.992069564506491
10
59.0625000082956
20
-0.157187593126772
30
-1E-16
41
0.992268730774674
10
59.4531250114621
20
-0.484907759553567
30
-2E-16
41
0.992496930748311
10
59.8437499971383
20
-0.803809819307039
30
1E-16
41
0.992751520162077
10
60.234374999984
20
-1.10909640467333
30
-1E-16
41
0.993029867853915
10
60.6250000000097
20
-1.39604011027357
30
2E-16
41
0.993329341603966
10
61.0156249999774
20
-1.66019563850633
30
-1E-16
41
0.993647309028712
10
61.4062500000108
20
-1.89710247214365
30
0
41
0.993981143275925
10
61.7968749999796
20
-2.10298084654041
30
0
41
0.994328203370255
10
62.1875000047532
20
-2.27395611034113
30
0
41
0.994685872478567
10
62.5781249810078
20
-2.40721378089451
30
1E-16
41
0.995051507264859
10
62.9687500000199
20
-2.49982867697395
30
0
41
0.99542249928503
10
63.3593750189145
20
-2.55020223292497
30
0
41
0.995796202639588
10
63.7499999990052
20
-2.55665685915724
30
0
41
0.99616017412221
10
64.1304139004939
20
-2.51997688326646
30
0
41
0.996397924584584
10
64.3806467933423
20
-2.46866616029807
30
0
41
0.996511228803053
10
64.5006537435516
20
-2.43799734888073
30
0
0
SPLINE
5
F6
100
AcDbEntity
8
1
62
256
6
ByLayer
370
18
48
1
60
0
100
AcDbSpline
70
4
71
3
72
19
73
15
40
0
40
0
40
0
40
0
40
0.0810052218184809
40
0.167164434837336
40
0.25332364785619
40
0.339482860875045
40
0.425642073893899
40
0.511801286912754
40
0.597960499931608
40
0.684119712950463
40
0.770278925969318
40
0.856438138988172
40
0.942597352007027
40
1
40
1
40
1
40
1
41
1
10
63.7733669465612
20
1.26892525319227
30
0
41
1
10
63.8957862921939
20
1.1732447984119
30
0
41
1
10
64.1484139678815
20
0.969651019019182
30
-1E-16
41
1
10
64.5312500000067
20
0.646783962448978
30
-2E-16
41
1
10
64.9218750149129
20
0.308097653022088
30
2E-16
41
1
10
65.312499996279
20
-0.0337434311047389
30
1E-16
41
1
10
65.7031249999693
20
-0.372516459907985
30
0
41
1
10
66.0937500000148
20
-0.701767208579753
30
-1E-16
41
1
10
66.4843749999715
20
-1.01529573904699
30
2E-16
41
1
10
66.8750000000163
20
-1.30679088255931
30
0
41
1
10
67.2656249999633
20
-1.57056786895282
30
-1E-16
41
1
10
67.6562500022804
20
-1.80105491359484
30
0
41
1
10
68.0034165589692
20
-1.97208306822969
30
0
41
1
10
68.2203747969621
20
-2.0593895441875
30
-1E-16
41
1
10
68.3071246985925
20
-2.09100910699092
30
0
0
SPLINE
5
F7
100
AcDbEntity
8
1
62
256
6
ByLayer
370
18
48
1
60
0
100
AcDbSpline
70
4
71
3
72
13
73
9
40
0
40
0
40
0
40
0
40
0.227916443007271
40
0.341874664510907
40
0.455832886014542
40
0.683749329021814
40
0.911665772029085
40
1
40
1
40
1
40
1
41
1
10
57.5
20
-0.588120014485213
30
0
41
1
10
57.6302083005299
20
-0.665493161560477
30
-2E-16
41
1
10
57.8255208244883
20
-0.778929228082603
30
0
41
1
10
58.0859374885783
20
-0.923700677382442
30
-1E-16
41
1
10
58.3463541465292
20
-1.06377397603074
30
0
41
1
10
58.6718749891062
20
-1.22954067649607
30
0
41
1
10
58.982756887369
20
-1.37401622916113
30
0
41
1
10
59.1634304407619
20
-1.45164159723308
30
0
41
1
10
59.2138956577147
20
-1.47280957862566
30
0
0
SPLINE
5
F8
100
AcDbEntity
8
1
62
256
6
ByLayer
370
18
48
1
60
0
100
AcDbSpline
70
4
71
3
72
16
73
12
40
0
40
0
40
0
40
0
40
0.25
40
0.25
40
0.5
40
0.5
40
0.75
40
0.75
40
0.875
40
0.875
40
1
40
1
40
1
40
1
41
1
10
67.6308398906074
20
-2.3437181475756
30
1E-16
41
1
10
67.6892145881403
20
-2.3589189966134
30
0
41
1
10
67.7472434828499
20
-2.37043871658472
30
0
41
1
10
67.8631012050384
20
-2.38611025239481
30
0
41
1
10
67.9209285856203
20
-2.3902626663054
30
0
41
1
10
68.036871755139
20
-2.39099086949693
30
1E-16
41
1
10
68.0949853469464
20
-2.38756886606277
30
0
41
1
10
68.1827754908905
20
-2.37641617788361
30
0
41
1
10
68.2121038972655
20
-2.37169447397122
30
0
41
1
10
68.2706471669998
20
-2.36025735259526
30
0
41
1
10
68.2999061901199
20
-2.35353688202414
30
0
41
1
10
68.3291862401861
20
-2.34579491996217
30
0
0
SPLINE
5
F9
100
AcDbEntity
8
1
62
256
6
ByLayer
370
18
48
1
60
0
100
AcDbSpline
70
4
71
3
72
10
73
6
40
0
40
0
40
0
40
0
40
0.736138691721832
40
0.736138691721832
40
1
40
1
40
1
40
1
41
1
10
68.3291862401861
20
-2.34579491996217
30
0
41
1
10
68.4006039783944
20
-2.32691253015545
30
0
41
1
10
68.4707588416394
20
-2.30249768700645
30
0
41
1
10
68.5638448331999
20
-2.26220321822655
30
0
41
1
10
68.5881946313143
20
-2.25089599243634
30
0
41
1
10
68.6123015221695
20
-2.23892511311237
30
0
0
SPLINE
5
FA
100
AcDbEntity
8
1
62
256
6
ByLayer
370
18
48
1
60
0
100
AcDbSpline
70
4
71
3
72
25
73
21
40
0
40
0
40
0
40
0
40
0.006494494328631
40
0.0684282736393084
40
0.130362052949986
40
0.192295832260663
40
0.254229611571341
40
0.316163390882018
40
0.378097170192696
40
0.440030949503373
40
0.501964728814051
40
0.563898508124728
40
0.625832287435405
40
0.687766066746083
40
0.74969984605676
40
0.811633625367438
40
0.873567404678115
40
0.935501183988793
40
0.99743496329947
40
1
40
1
40
1
40
1
41
1
10
58.2402883008755
20
0.539412474798439
30
0
41
1
10
58.2539421949989
20
0.527778443443992
30
0
41
1
10
58.397804420255
20
0.405085643026553
30
-1E-16
41
1
10
58.6718749891
20
0.169320861745376
30
0
41
1
10
59.0625000082957
20
-0.167099380175131
30
-1E-16
41
1
10
59.4531250114621
20
-0.499346865035079
30
-2E-16
41
1
10
59.8437499971383
20
-0.822551681900109
30
2E-16
41
1
10
60.234374999984
20
-1.1318117696344
30
0
41
1
10
60.6250000000097
20
-1.42229658494821
30
-2E-16
41
1
10
61.0156249999775
20
-1.68946567043906
30
0
41
1
10
61.4062500000108
20
-1.92876772563804
30
1E-16
41
1
10
61.7968749999795
20
-2.13635022605362
30
-1E-16
41
1
10
62.1875000047531
20
-2.30827306384802
30
1E-16
41
1
10
62.5781249810078
20
-2.44168233510152
30
-1E-16
41
1
10
62.96875000002
20
-2.53362396234525
30
1E-16
41
1
10
63.3593750189145
20
-2.5825009247697
30
0
41
1
10
63.7499999990051
20
-2.5866502976177
30
0
41
1
10
64.1406249850627
20
-2.54591901606753
30
0
41
1
10
64.4064343435243
20
-2.48767432460005
30
0
41
1
10
64.5420353636644
20
-2.45013428989003
30
0
41
1
10
64.547428045496
20
-2.4486290116474
30
0
0
SPLINE
5
FB
100
AcDbEntity
8
1
62
256
6
ByLayer
370
18
48
1
60
0
100
AcDbSpline
70
4
71
3
72
18
73
14
40
0
40
0
40
0
40
0
40
0.103438073965551
40
0.155158058163733
40
0.206878042361915
40
0.310318010758279
40
0.413757979154642
40
0.517197947551006
40
0.62063791594737
40
0.724077884343734
40
0.827517852740097
40
0.930957821136461
40
1
40
1
40
1
40
1
41
0.991600967145012
10
57.5000071540752
20
-1.67376395990368
30
-1E-16
41
0.99160828303738
10
57.6302130699755
20
-1.75872265717584
30
1E-16
41
0.991636679617223
10
57.8255232093074
20
-1.88027239481977
30
0
41
0.991694912147045
10
58.0859374885855
20
-2.02857773093735
30
1E-16
41
0.99177904957408
10
58.3463541465258
20
-2.16726375358176
30
0
41
0.991902067575276
10
58.6718749891002
20
-2.321195289135
30
1E-16
41
0.992069564506491
10
59.0625000082956
20
-2.47217048972345
30
0
41
0.992268730774674
10
59.4531250114621
20
-2.58689009450813
30
0
41
0.992496930748311
10
59.8437499971383
20
-2.66336257157505
30
0
41
0.992751520162077
10
60.234374999984
20
-2.70009915099328
30
0
41
0.993029867853915
10
60.6250000000097
20
-2.69603462339746
30
0
41
0.993296146069768
10
60.9723373014463
20
-2.65597810993556
30
0
41
0.99347116975523
10
61.1894783464101
20
-2.61195737279202
30
0
41
0.993542472260183
10
61.2763940907309
20
-2.59135519848699
30
0
0
SPLINE
5
FC
100
AcDbEntity
8
1
62
256
6
ByLayer
370
18
48
1
60
0
100
AcDbSpline
70
4
71
3
72
12
73
8
40
0
40
0
40
0
40
0
40
0.499999999999974
40
0.499999999999974
40
0.749999999999987
40
0.749999999999987
40
1
40
1
40
1
40
1
41
1
10
68.3291862401861
20
2.34579491996217
30
0
41
1
10
68.4006039783943
20
2.32691253015545
30
0
41
1
10
68.4707588416392
20
2.30249768700651
30
0
41
1
10
68.5735451417066
20
2.25800421070969
30
0
41
1
10
68.6073947357779
20
2.24185946263251
30
0
41
1
10
68.674101091516
20
2.20700478850435
30
0
41
1
10
68.7070115365221
20
2.18825928472975
30
0
41
1
10
68.7391253266634
20
2.1683814733853
30
0
0
SPLINE
5
FD
100
AcDbEntity
8
1
62
256
6
ByLayer
370
18
48
1
60
0
100
AcDbSpline
70
4
71
3
72
18
73
14
40
0
40
0
40
0
40
0
40
0.101633879958254
40
0.152450819937381
40
0.203267759916508
40
0.304901639874761
40
0.406535519833015
40
0.508169399791269
40
0.609803279749523
40
0.711437159707777
40
0.813071039666031
40
0.914704919624285
40
1
40
1
40
1
40
1
41
1
10
57.5
20
-1.70057609367382
30
0
41
1
10
57.630208300487
20
-1.7864701332382
30
2E-16
41
1
10
57.8255208244929
20
-1.90935539686711
30
0
41
1
10
58.0859374885859
20
-2.05924963263445
30
-1E-16
41
1
10
58.3463541465256
20
-2.1993870621331
30
0
41
1
10
58.6718749891
20
-2.35481224648947
30
0
41
1
10
59.0625000082957
20
-2.50701516048784
30
1E-16
41
1
10
59.4531250114621
20
-2.62234744977948
30
0
41
1
10
59.8437499971383
20
-2.69876851240105
30
0
41
1
10
60.234374999984
20
-2.73475642110719
30
0
41
1
10
60.6250000000097
20
-2.72922806999512
30
0
41
1
10
60.9946925327431
20
-2.68453529889098
30
0
41
1
10
61.2341767321908
20
-2.63210682591716
30
0
41
1
10
61.3434525982906
20
-2.60341805851607
30
0
0
SPLINE
5
FE
100
AcDbEntity
8
1
62
256
6
ByLayer
370
18
48
1
60
0
100
AcDbSpline
70
4
71
3
72
8
73
4
40
0
40
0
40
0
40
0
40
1
40
1
40
1
40
1
41
0.991600967145012
10
57.5000071540752
20
-2.81963317809858
30
0
41
0.991607231775346
10
57.6115031622266
20
-2.80408985485022
30
0
41
0.991622013220226
10
57.7230004388847
20
-2.7839683499943
30
0
41
0.991642281875331
10
57.834499354179
20
-2.75930414502762
30
0
0
SPLINE
5
FF
100
AcDbEntity
8
1
62
256
6
ByLayer
370
18
48
1
60
0
100
AcDbSpline
70
4
71
3
72
9
73
5
40
0
40
0
40
0
40
0
40
0.447717421050897
40
1
40
1
40
1
40
1
41
1
10
67.8180145085137
20
2.28567126508318
30
0
41
1
10
67.8943013367717
20
2.30064598808227
30
0
41
1
10
68.064691910754
20
2.32818825256197
30
0
41
1
10
68.2350824914274
20
2.34222356507704
30
0
41
1
10
68.3291862401861
20
2.34579491996217
30
0
0
SPLINE
5
100
100
AcDbEntity
8
1
62
256
6
ByLayer
370
18
48
1
60
0
100
AcDbSpline
70
4
71
3
72
16
73
12
40
0
40
0
40
0
40
0
40
0.250000000000008
40
0.250000000000008
40
0.500000000000017
40
0.500000000000017
40
0.750000000000025
40
0.750000000000025
40
0.875000000000012
40
0.875000000000012
40
1
40
1
40
1
40
1
41
1
10
67.6308398906073
20
2.34371814757557
30
-1E-16
41
1
10
67.6892145881403
20
2.35891899661337
30
0
41
1
10
67.7472434828499
20
2.37043871658472
30
0
41
1
10
67.8631012050384
20
2.38611025239481
30
0
41
1
10
67.9209285856203
20
2.3902626663054
30
0
41
1
10
68.036871755139
20
2.39099086949693
30
-1E-16
41
1
10
68.0949853469463
20
2.38756886606274
30
0
41
1
10
68.1827754908905
20
2.37641617788358
30
0
41
1
10
68.2121038972655
20
2.37169447397122
30
0
41
1
10
68.2706471669998
20
2.36025735259528
30
0
41
1
10
68.2999061901201
20
2.35353688202417
30
0
41
1
10
68.3291862401861
20
2.34579491996217
30
0
0
SPLINE
5
101
100
AcDbEntity
8
1
62
256
6
ByLayer
370
18
48
1
60
0
100
AcDbSpline
70
4
71
3
72
14
73
10
40
0
40
0
40
0
40
0
40
0.0931839322380728
40
0.245826877127149
40
0.398469822016225
40
0.551112766905301
40
0.703755711794377
40
0.856398656683454
40
1
40
1
40
1
40
1
41
1
10
65.8552851722923
20
1.89253252528593
30
0
41
1
10
65.9347734482902
20
1.87720839987159
30
0
41
1
10
66.144470057491
20
1.83130235165098
30
0
41
1
10
66.4843749999715
20
1.7338447374697
30
0
41
1
10
66.8750000000164
20
1.59004610208032
30
0
41
1
10
67.2656249999632
20
1.41660595399446
30
0
41
1
10
67.6562500022806
20
1.21605312536224
30
0
41
1
10
68.0391622739076
20
0.996288393786841
30
1E-16
41
1
10
68.2918662307058
20
0.838897560739753
30
0
41
1
10
68.4143618480893
20
0.760426328953855
30
0
0
SPLINE
5
102
100
AcDbEntity
8
1
62
256
6
ByLayer
370
18
48
1
60
0
100
AcDbSpline
70
4
71
3
72
14
73
10
40
0
40
0
40
0
40
0
40
0.167653943221595
40
0.251480914832392
40
0.33530788644319
40
0.502961829664785
40
0.67061577288638
40
0.838269716107975
40
1
40
1
40
1
40
1
41
1
10
57.5
20
-2.85494476487975
30
0
41
1
10
57.630208300487
20
-2.83629525401366
30
0
41
1
10
57.8255208244929
20
-2.79881099732214
30
0
41
1
10
58.0859374885859
20
-2.73000295778357
30
0
41
1
10
58.3463541465256
20
-2.64873197233948
30
0
41
1
10
58.6718749891
20
-2.52413310823485
30
-1E-16
41
1
10
59.0625000082957
20
-2.33991578031271
30
-1E-16
41
1
10
59.4485244049988
20
-2.12555531483758
30
1E-16
41
1
10
59.7043404560613
20
-1.96428488449973
30
0
41
1
10
59.829948180935
20
-1.88097301320408
30
0
0
SPLINE
5
103
100
AcDbEntity
8
1
62
256
6
ByLayer
370
18
48
1
60
0
100
AcDbSpline
70
4
71
3
72
12
73
8
40
0
40
0
40
0
40
0
40
0.202620271642623
40
0.408387743372498
40
0.614155215102372
40
0.819922686832248
40
1
40
1
40
1
40
1
41
0.998266245315504
10
66.4903898704777
20
1.42734060524534
30
0
41
0.998367625268741
10
66.6185928624017
20
1.33476360596702
30
0
41
0.998565940451647
10
66.8769920813242
20
1.13986333421335
30
0
41
0.998843381295593
10
67.2656249999633
20
0.827045616777701
30
-2E-16
41
0.9990985486328
10
67.6562500022804
20
0.498659895575494
30
2E-16
41
0.999317857236017
10
68.0306219918376
20
0.176844049988051
30
0
41
0.999443913741119
10
68.2747979680304
20
-0.033437791146203
30
1E-16
41
0.999500724050411
10
68.3887543036104
20
-0.130893713124524
30
-1E-16
0
SPLINE
5
104
100
AcDbEntity
8
1
62
256
6
ByLayer
370
18
48
1
60
0
100
AcDbSpline
70
4
71
3
72
17
73
13
40
0
40
0
40
0
40
0
40
0.0234685069343279
40
0.135421183820091
40
0.247373860705855
40
0.359326537591619
40
0.471279214477383
40
0.583231891363147
40
0.695184568248911
40
0.807137245134674
40
0.919089922020438
40
1
40
1
40
1
40
1
41
1
10
64.8399887533686
20
2.43822333119667
30
0
41
1
10
64.8672841722315
20
2.44349037341789
30
0
41
1
10
65.0247879247843
20
2.4720245800213
30
0
41
1
10
65.3124999962798
20
2.50435742130119
30
0
41
1
10
65.7031249999688
20
2.50314718758017
30
0
41
1
10
66.0937500000149
20
2.45621102657373
30
0
41
1
10
66.4843749999715
20
2.36444733392429
30
0
41
1
10
66.8750000000163
20
2.22896076063441
30
0
41
1
10
67.2656249999632
20
2.05224770194002
30
1E-16
41
1
10
67.6562500022804
20
1.83718425852101
30
-1E-16
41
1
10
68.0107704058283
20
1.61087538223185
30
0
41
1
10
68.2350824914274
20
1.452981015576
30
-1E-16
41
1
10
68.3291862401861
20
1.38449207102832
30
1E-16
0
SPLINE
5
105
100
AcDbEntity
8
1
62
256
6
ByLayer
370
18
48
1
60
0
100
AcDbSpline
70
4
71
3
72
21
73
17
40
0
40
0
40
0
40
0
40
0.0575906953322108
40
0.13041554051641
40
0.203240385700609
40
0.276065230884808
40
0.348890076069008
40
0.421714921253207
40
0.494539766437406
40
0.567364611621605
40
0.640189456805805
40
0.713014301990004
40
0.785839147174203
40
0.858663992358403
40
0.931488837542602
40
1
40
1
40
1
40
1
41
1
10
63.0504644211573
20
1.84816516809306
30
0
41
1
10
63.1534346201724
20
1.82143052174348
30
0
41
1
10
63.386613156612
20
1.75415631510529
30
0
41
1
10
63.7499999990075
20
1.62609292737483
30
0
41
1
10
64.1406249850619
20
1.46236931300646
30
-1E-16
41
1
10
64.5312500000045
20
1.27456197897206
30
-1E-16
41
1
10
64.9218750149136
20
1.06539526108966
30
-1E-16
41
1
10
65.312499996281
20
0.837792356844375
30
0
41
1
10
65.7031249999681
20
0.59533623617682
30
-1E-16
41
1
10
66.093750000015
20
0.341905241972313
30
1E-16
41
1
10
66.4843749999715
20
0.0818504024028073
30
0
41
1
10
66.8750000000164
20
-0.180156427063366
30
0
41
1
10
67.2656249999632
20
-0.439230999350656
30
-1E-16
41
1
10
67.6562500022806
20
-0.690234041609017
30
1E-16
41
1
10
68.0391622739077
20
-0.923306197737901
30
-1E-16
41
1
10
68.2918662307058
20
-1.06556267286413
30
1E-16
41
1
10
68.4143618480894
20
-1.13109016698218
30
0
0
SPLINE
5
106
100
AcDbEntity
8
1
62
256
6
ByLayer
370
18
48
1
60
0
100
AcDbSpline
70
4
71
3
72
13
73
9
40
0
40
0
40
0
40
0
40
0.0594789688523151
40
0.261037651164827
40
0.462596333477339
40
0.664155015789851
40
0.865713698102363
40
1
40
1
40
1
40
1
41
1
10
66.3691034972119
20
1.51286984686482
30
0
41
1
10
66.4075273314692
20
1.48537580991155
30
0
41
1
10
66.5761594990563
20
1.36299182027318
30
0
41
1
10
66.8750000000163
20
1.13345279499242
30
0
41
1
10
67.2656249999633
20
0.81366960808549
30
-1E-16
41
1
10
67.6562500022804
20
0.480264018035257
30
2E-16
41
1
10
68.0034165589692
20
0.177796622147781
30
0
41
1
10
68.2203747969621
20
-0.0112539617774132
30
0
41
1
10
68.3071246985925
20
-0.0865087367411661
30
2E-16
0
SPLINE
5
107
100
AcDbEntity
8
1
62
256
6
ByLayer
370
18
48
1
60
0
100
AcDbSpline
70
4
71
3
72
50
73
46
40
0
40
0
40
0
40
0
40
0.0321161039429434
40
0.0321161039429434
40
0.0761108264909952
40
0.0761108264909952
40
0.0981081877650211
40
0.0981081877650211
40
0.120105549039047
40
0.120105549039047
40
0.208094994135151
40
0.208094994135151
40
0.296084439231254
40
0.296084439231254
40
0.307083119868267
40
0.31808180050528
40
0.31808180050528
40
0.340079161779303
40
0.340079161779303
40
0.384073884327349
40
0.384073884327349
40
0.472063329423441
40
0.472063329423441
40
0.516058051971486
40
0.516058051971486
40
0.560052774519532
40
0.560052774519532
40
0.648042219615624
40
0.648042219615624
40
0.69203694216367
40
0.69203694216367
40
0.714034303437694
40
0.725032984074707
40
0.725032984074707
40
0.736031664711719
40
0.736031664711719
40
0.824021109807814
40
0.824021109807814
40
0.912010554903908
40
0.912010554903908
40
0.93400791617793
40
0.93400791617793
40
0.956005277451953
40
0.956005277451953
40
1
40
1
40
1
40
1
41
1
10
64.6892761081373
20
-2.49049405047782
30
0
41
1
10
64.6127507713531
20
-2.51836035348259
30
0
41
1
10
64.5362795124255
20
-2.54363361058236
30
0
41
1
10
64.3549166699281
20
-2.59732124671612
30
0
41
1
10
64.2499761555904
20
-2.62342773862483
30
0
41
1
10
64.0919639107551
20
-2.65498832031267
30
0
41
1
10
64.0391928065682
20
-2.66424131099376
30
0
41
1
10
63.9333785808758
20
-2.68016898869274
30
0
41
1
10
63.8802420962488
20
-2.68684970431013
30
0
41
1
10
63.6156236187793
20
-2.71351693456322
30
0
41
1
10
63.4062618730998
20
-2.71358866675399
30
0
41
1
10
62.9875260170676
20
-2.67309054760216
30
0
41
1
10
62.7782098201305
20
-2.63250866507542
30
0
41
1
10
62.5403041846355
20
-2.56417623499493
30
0
41
1
10
62.4873681968498
20
-2.54836016126302
30
0
41
1
10
62.4342813712185
20
-2.53127626930495
30
-1E-16
41
1
10
62.3548368311757
20
-2.50480791314271
30
1E-16
41
1
10
62.3020169922078
20
-2.486007551082
30
1E-16
41
1
10
62.1438797993636
20
-2.42624579306227
30
-1E-16
41
1
10
62.0388827509427
20
-2.3819272401681
30
0
41
1
10
61.7243616948182
20
-2.23625313765359
30
-1E-16
41
1
10
61.5153051631953
20
-2.12221646672171
30
1E-16
41
1
10
61.1995987724732
20
-1.92785543757478
30
1E-16
41
1
10
61.0940089263929
20
-1.8591758289281
30
-1E-16
41
1
10
60.8815837240051
20
-1.71429279864219
30
0
41
1
10
60.7758933725164
20
-1.63886758325441
30
-2E-16
41
1
10
60.4598910666892
20
-1.40477670956884
30
2E-16
41
1
10
60.2505032528062
20
-1.23823870325921
30
-2E-16
41
1
10
59.9354018725096
20
-0.975870448302629
30
1E-16
41
1
10
59.8302023419204
20
-0.886311902427536
30
-1E-16
41
1
10
59.6717905591494
20
-0.749170497585595
30
0
41
1
10
59.5924317008647
20
-0.679898304428662
30
-2E-16
41
1
10
59.5127729365636
20
-0.609638088384287
30
1E-16
41
1
10
59.4595923281717
20
-0.562585573606384
30
0
41
1
10
59.4329629848201
20
-0.53895154784945
30
-1E-16
41
1
10
59.1938027675284
20
-0.32610356097058
30
-1E-16
41
1
10
58.9832035781099
20
-0.134564641732396
30
-1E-16
41
1
10
58.5623087860725
20
0.249117948600002
30
-1E-16
41
1
10
58.3521042763241
20
0.441362718754647
30
-1E-16
41
1
10
58.0871852071803
20
0.679439369948597
30
2E-16
41
1
10
58.0340817832788
20
0.726930553781727
30
1E-16
41
1
10
57.9275880910918
20
0.821611920519985
30
-1E-16
41
1
10
57.8741443009578
20
0.868856237899621
30
2E-16
41
1
10
57.7138705219436
20
1.00959012753359
30
-1E-16
41
1
10
57.6070512138169
20
1.10210963266758
30
1E-16
41
1
10
57.5
20
1.19306428045175
30
-1E-16
0
SPLINE
5
108
100
AcDbEntity
8
1
62
256
6
ByLayer
370
18
48
1
60
0
100
AcDbSpline
70
4
71
3
72
58
73
54
40
0
40
0
40
0
40
0
40
0.0775539444973917
40
0.0775539444973917
40
0.116330916746088
40
0.116330916746088
40
0.126025159808262
40
0.126025159808262
40
0.135719402870437
40
0.135719402870437
40
0.155107888994786
40
0.155107888994786
40
0.232661833492183
40
0.232661833492183
40
0.31021577798958
40
0.31021577798958
40
0.32960426411393
40
0.32960426411393
40
0.339298507176104
40
0.339298507176104
40
0.348992750238279
40
0.387769722486972
40
0.387769722486972
40
0.465323666984361
40
0.465323666984361
40
0.504100639233055
40
0.504100639233055
40
0.523489125357402
40
0.533183368419575
40
0.533183368419575
40
0.542877611481747
40
0.542877611481747
40
0.620431555979113
40
0.620431555979113
40
0.69798550047648
40
0.69798550047648
40
0.717373986600821
40
0.727068229662994
40
0.727068229662994
40
0.736762472725166
40
0.736762472725166
40
0.775539444973852
40
0.775539444973852
40
0.853093389471223
40
0.853093389471223
40
0.89187036171991
40
0.89187036171991
40
0.911258847844254
40
0.920953090906425
40
0.920953090906425
40
0.930647333968595
40
0.930647333968595
40
1
40
1
40
1
40
1
41
1
10
57.5000000000002
20
2.61460827559148
30
1E-16
41
1
10
57.712657589859
20
2.50844957936331
30
-1E-16
41
1
10
57.9238956322804
20
2.38790938356672
30
0
41
1
10
58.2411894426592
20
2.18746407011457
30
2E-16
41
1
10
58.3470262869096
20
2.11737019746045
30
-1E-16
41
1
10
58.4796842664932
20
2.02581375503087
30
1E-16
41
1
10
58.5062340540206
20
2.00730545801798
30
2E-16
41
1
10
58.5593771444054
20
1.96989858995317
30
-2E-16
41
1
10
58.5859854935391
20
1.95098903422996
30
-1E-16
41
1
10
58.6656641339035
20
1.89384118589726
30
0
41
1
10
58.7186468880946
20
1.85514322881429
30
1E-16
41
1
10
58.9830221534262
20
1.65881650605891
30
1E-16
41
1
10
59.1928037588581
20
1.49269888780182
30
1E-16
41
1
10
59.6123914966973
20
1.14597199777785
30
0
41
1
10
59.8221840323881
20
0.965348901790037
30
0
41
1
10
60.0866958092182
20
0.732596714037186
30
1E-16
41
1
10
60.1397125704583
20
0.685697379979956
30
2E-16
41
1
10
60.2194548011067
20
0.614863846684443
30
-1E-16
41
1
10
60.2460813027418
20
0.591163266770394
30
-1E-16
41
1
10
60.2992136801141
20
0.543786516849593
30
1E-16
41
1
10
60.4318640629762
20
0.425298129946981
30
-1E-16
41
1
10
60.5637094709878
20
0.306683281487182
30
2E-16
41
1
10
60.8792998410553
20
0.0225434550367538
30
-1E-16
41
1
10
61.0885760600157
20
-0.166171603079192
30
-1E-16
41
1
10
61.4035628557938
20
-0.445082403587264
30
2E-16
41
1
10
61.5087374418553
20
-0.537357787606055
30
-1E-16
41
1
10
61.6671366455624
20
-0.674304520241037
30
-2E-16
41
1
10
61.7464959848356
20
-0.742410756212536
30
0
41
1
10
61.826166296369
20
-0.809883404878349
30
1E-16
41
1
10
61.879357097938
20
-0.854714838752642
30
-2E-16
41
1
10
61.9059813070934
20
-0.877046815445482
30
-2E-16
41
1
10
62.1450348664605
20
-1.07652704877725
30
-1E-16
41
1
10
62.3551730525733
20
-1.24453874928204
30
-2E-16
41
1
10
62.7747380385676
20
-1.5585432810079
30
1E-16
41
1
10
62.9841322354707
20
-1.70456880152051
30
0
41
1
10
63.24789996714
20
-1.87075862291675
30
-1E-16
41
1
10
63.3271842498311
20
-1.9193851259507
30
1E-16
41
1
10
63.4067746094615
20
-1.96607894719852
30
-1E-16
41
1
10
63.4599117566045
20
-1.99676809998118
30
0
41
1
10
63.4865423890901
20
-2.01190552257
30
1E-16
41
1
10
63.6194153078476
20
-2.08619119007528
30
0
41
1
10
63.7250854006292
20
-2.14129938300968
30
-1E-16
41
1
10
64.0410439439686
20
-2.29340897239032
30
0
41
1
10
64.2502981263164
20
-2.37722241176741
30
0
41
1
10
64.5652583320568
20
-2.47495996542662
30
0
41
1
10
64.6704219831981
20
-2.50286696950931
30
0
41
1
10
64.8288504874642
20
-2.53741678257711
30
-1E-16
41
1
10
64.9082358421544
20
-2.55286291612299
30
0
41
1
10
64.9879582584126
20
-2.56549853651777
30
0
41
1
10
65.041190792984
20
-2.57328931149206
30
0
41
1
10
65.0678176082198
20
-2.5768630099773
30
0
41
1
10
65.2844397944412
20
-2.6033025806683
30
0
41
1
10
65.4725572656956
20
-2.60977334052743
30
0
41
1
10
65.660346567958
20
-2.59984446632006
30
0
0
SPLINE
5
109
100
AcDbEntity
8
1
62
256
6
ByLayer
370
18
48
1
60
0
100
AcDbSpline
70
4
71
3
72
70
73
66
40
0
40
0
40
0
40
0
40
0.062500000000015
40
0.062500000000015
40
0.0937500000000225
40
0.0937500000000225
40
0.109375000000026
40
0.109375000000026
40
0.117187500000027
40
0.117187500000027
40
0.125000000000028
40
0.125000000000028
40
0.187500000000018
40
0.187500000000018
40
0.218750000000014
40
0.218750000000014
40
0.226562500000012
40
0.226562500000012
40
0.234375000000011
40
0.234375000000011
40
0.250000000000011
40
0.250000000000011
40
0.31250000000001
40
0.31250000000001
40
0.34375000000001
40
0.34375000000001
40
0.35937500000001
40
0.35937500000001
40
0.37500000000001
40
0.37500000000001
40
0.437500000000009
40
0.437500000000009
40
0.500000000000009
40
0.500000000000009
40
0.507812500000009
40
0.507812500000009
40
0.515625000000009
40
0.515625000000009
40
0.531250000000006
40
0.562500000000004
40
0.562500000000004
40
0.624999999999996
40
0.624999999999996
40
0.656249999999993
40
0.656249999999993
40
0.687499999999989
40
0.687499999999989
40
0.749999999999984
40
0.749999999999984
40
0.781249999999983
40
0.781249999999983
40
0.796874999999981
40
0.80468749999998
40
0.80468749999998
40
0.812499999999979
40
0.812499999999979
40
0.874999999999985
40
0.874999999999985
40
0.937499999999992
40
0.937499999999992
40
0.953124999999994
40
0.953124999999994
40
0.968749999999996
40
0.968749999999996
40
1
40
1
40
1
40
1
41
1
10
67.6308398906074
20
-2.34649001251401
30
-1E-16
41
1
10
67.4172496808618
20
-2.42339603629989
30
0
41
1
10
67.2061348276629
20
-2.47866376994617
30
0
41
1
10
66.8892754181641
20
-2.52916531246376
30
0
41
1
10
66.7836336228887
20
-2.54058531459907
30
0
41
1
10
66.6246642541719
20
-2.54947170956075
30
0
41
1
10
66.5715899342201
20
-2.55105898700799
30
0
41
1
10
66.4917888515607
20
-2.55135440208403
30
0
41
1
10
66.4651330330441
20
-2.55110446629629
30
0
41
1
10
66.4119020788016
20
-2.54990920920801
30
0
41
1
10
66.3853220106346
20
-2.54896464323207
30
0
41
1
10
66.1463769520542
20
-2.53736810233471
30
0
41
1
10
65.9359396145074
20
-2.50512016509222
30
0
41
1
10
65.6194672422825
20
-2.42534970366972
30
0
41
1
10
65.5138405169023
20
-2.39351451461945
30
1E-16
41
1
10
65.381274382611
20
-2.34720869018966
30
-1E-16
41
1
10
65.3547342984785
20
-2.33762173520205
30
-1E-16
41
1
10
65.3015904486849
20
-2.31779663143519
30
1E-16
41
1
10
65.2750009391323
20
-2.30756316603959
30
1E-16
41
1
10
65.1954231579949
20
-2.27601125168107
30
0
41
1
10
65.1425298162184
20
-2.25380618554118
30
0
41
1
10
64.8786553530468
20
-2.13712434539516
30
-1E-16
41
1
10
64.6694188887605
20
-2.02575359309543
30
1E-16
41
1
10
64.3549166699281
20
-1.83450029500324
30
1E-16
41
1
10
64.2499761555904
20
-1.76670445850121
30
1E-16
41
1
10
64.0919639107551
20
-1.65921858919535
30
-1E-16
41
1
10
64.0391928065681
20
-1.62242415546044
30
-2E-16
41
1
10
63.9333785808757
20
-1.54693946400226
30
1E-16
41
1
10
63.8802420962488
20
-1.50817768301727
30
0
41
1
10
63.6156236187794
20
-1.31118370149733
30
0
41
1
10
63.4062618730999
20
-1.14276629503357
30
0
41
1
10
62.9875260170676
20
-0.78950691447514
30
1E-16
41
1
10
62.7782098201305
20
-0.604604883325607
30
1E-16
41
1
10
62.5403041846355
20
-0.38972963027868
30
0
41
1
10
62.51383640174
20
-0.36575908961737
30
0
41
1
10
62.4608247840341
20
-0.317634517774934
30
-1E-16
41
1
10
62.4342813712185
20
-0.293480741995438
30
-2E-16
41
1
10
62.3548368311757
20
-0.221042011586604
30
1E-16
41
1
10
62.1963783235742
20
-0.0759700478911896
30
2E-16
41
1
10
62.0388827509427
20
0.069336620935502
30
-2E-16
41
1
10
61.7243616948182
20
0.359392133658957
30
0
41
1
10
61.5153051631953
20
0.552018932557047
30
0
41
1
10
61.1995987724732
20
0.836519329636502
30
-2E-16
41
1
10
61.0940089263929
20
0.93061121844525
30
0
41
1
10
60.8815837240052
20
1.11671943100538
30
0
41
1
10
60.7758933725163
20
1.20773303742442
30
-2E-16
41
1
10
60.4598910666892
20
1.47383733107924
30
1E-16
41
1
10
60.2505032528061
20
1.64211214766317
30
1E-16
41
1
10
59.9354018725097
20
1.87842359908726
30
0
41
1
10
59.8302023419204
20
1.9545091399205
30
-1E-16
41
1
10
59.6717905591494
20
2.06426684161158
30
0
41
1
10
59.5924317008646
20
2.11805268831935
30
-1E-16
41
1
10
59.5127729365636
20
2.17012858176511
30
0
41
1
10
59.4595923281718
20
2.20445750045448
30
-1E-16
41
1
10
59.4329629848201
20
2.2214282959479
30
-1E-16
41
1
10
59.1938027675284
20
2.37183885160619
30
0
41
1
10
58.9832035781099
20
2.49003265894427
30
-1E-16
41
1
10
58.5623087860726
20
2.69455133607985
30
-1E-16
41
1
10
58.3521042763241
20
2.78090223060138
30
-1E-16
41
1
10
58.0871852071803
20
2.86772796623185
30
1E-16
41
1
10
58.0340817832788
20
2.88403251712023
30
0
41
1
10
57.9275880910918
20
2.91448922621507
30
1E-16
41
1
10
57.8741443009579
20
2.92865533738737
30
0
41
1
10
57.7138705219437
20
2.96774233450753
30
0
41
1
10
57.6070512138169
20
2.98927351994323
30
0
41
1
10
57.5000000000001
20
3.00626339535322
30
0
0
SPLINE
5
10A
100
AcDbEntity
8
1
62
256
6
ByLayer
370
18
48
1
60
0
100
AcDbSpline
70
4
71
3
72
12
73
8
40
0
40
0
40
0
40
0
40
0.590450123197061
40
0.590450123197061
40
0.885675184795591
40
0.885675184795591
40
1
40
1
40
1
40
1
41
1
10
57.5000000000001
20
3.00626339535327
30
0
41
1
10
57.4201903278572
20
3.01902322126111
30
0
41
1
10
57.340543821631
20
3.02913842504037
30
0
41
1
10
57.2194609718069
20
3.04050847477916
30
0
41
1
10
57.1788433673068
20
3.04367124256461
30
0
41
1
10
57.121960664951
20
3.04725221503403
30
0
41
1
10
57.1060227399656
20
3.04816496771465
30
0
41
1
10
57.0900254898287
20
3.04899375990439
30
0
0
SPLINE
5
10B
100
AcDbEntity
8
1
62
256
6
ByLayer
370
18
48
1
60
0
100
AcDbSpline
70
4
71
3
72
67
73
63
40
0
40
0
40
0
40
0
40
0.0322364884701681
40
0.0322364884701681
40
0.040579277362668
40
0.040579277362668
40
0.0489220662551679
40
0.0489220662551679
40
0.0656076440401678
40
0.0656076440401678
40
0.13234995518017
40
0.13234995518017
40
0.199092266320171
40
0.199092266320171
40
0.215777844105172
40
0.215777844105172
40
0.224120632997674
40
0.224120632997674
40
0.232463421890175
40
0.265834577460178
40
0.265834577460178
40
0.332576888600182
40
0.332576888600182
40
0.365948044170184
40
0.365948044170184
40
0.382633621955184
40
0.390976410847682
40
0.390976410847682
40
0.399319199740181
40
0.399319199740181
40
0.466061510880161
40
0.466061510880161
40
0.532803822020141
40
0.532803822020141
40
0.549489399805136
40
0.557832188697635
40
0.557832188697635
40
0.566174977590134
40
0.566174977590134
40
0.599546133160129
40
0.599546133160129
40
0.666288444300116
40
0.666288444300116
40
0.699659599870109
40
0.699659599870109
40
0.716345177655105
40
0.724687966547602
40
0.724687966547602
40
0.733030755440099
40
0.733030755440099
40
0.799773066580076
40
0.799773066580076
40
0.866515377720054
40
0.866515377720054
40
0.883200955505048
40
0.883200955505048
40
0.891543744397544
40
0.891543744397544
40
0.899886533290041
40
0.933257688860027
40
0.933257688860027
40
1
40
1
40
1
40
1
41
1
10
58.1462135424295
20
2.83636681014718
30
-1E-16
41
1
10
58.2483869860664
20
2.86070356804018
30
0
41
1
10
58.3506347360003
20
2.88096430692491
30
0
41
1
10
58.4796842664932
20
2.9012017427622
30
0
41
1
10
58.5062340540206
20
2.90508197937169
30
0
41
1
10
58.5593771444054
20
2.9122770969193
30
-1E-16
41
1
10
58.5859854935392
20
2.91559337309622
30
1E-16
41
1
10
58.6656641339036
20
2.92466352912089
30
0
41
1
10
58.7186468880946
20
2.92954813268318
30
0
41
1
10
58.9830221534261
20
2.94821007871624
30
0
41
1
10
59.1928037588581
20
2.94474771946014
30
0
41
1
10
59.6123914966973
20
2.90162437104993
30
0
41
1
10
59.8221840323881
20
2.8619620742617
30
0
41
1
10
60.0866958092182
20
2.78945441892151
30
0
41
1
10
60.1397125704582
20
2.77380374885334
30
1E-16
41
1
10
60.2194548011067
20
2.7485898844626
30
0
41
1
10
60.2460813027419
20
2.73989178349558
30
0
41
1
10
60.2992136801141
20
2.72198332572293
30
0
41
1
10
60.4318640629763
20
2.67589381440447
30
-1E-16
41
1
10
60.5637094709878
20
2.62330162766332
30
1E-16
41
1
10
60.8792998410553
20
2.48514754997692
30
0
41
1
10
61.0885760600157
20
2.37716424761973
30
0
41
1
10
61.4035628557938
20
2.19299505000342
30
0
41
1
10
61.5087374418553
20
2.12789886154007
30
-1E-16
41
1
10
61.6671366455624
20
2.02484566160322
30
-1E-16
41
1
10
61.7464959848356
20
1.9719663998408
30
0
41
1
10
61.826166296369
20
1.9170807491185
30
-1E-16
41
1
10
61.8793570979379
20
1.88004655517531
30
0
41
1
10
61.9059813070934
20
1.86131400444484
30
1E-16
41
1
10
62.1450348664605
20
1.69142008574528
30
0
41
1
10
62.3551730525734
20
1.53004029564579
30
0
41
1
10
62.7747380385676
20
1.19080479978291
30
-1E-16
41
1
10
62.9841322354707
20
1.01291780053199
30
-2E-16
41
1
10
63.24789996714
20
0.782559659948049
30
-1E-16
41
1
10
63.3271842498311
20
0.712852398065706
30
1E-16
41
1
10
63.4067746094614
20
0.642309402532533
30
-2E-16
41
1
10
63.4599117566044
20
0.595102398303652
30
-1E-16
41
1
10
63.4865423890901
20
0.57138864216202
30
0
41
1
10
63.6194153078475
20
0.452836078063655
30
-2E-16
41
1
10
63.7250854006291
20
0.35781034146234
30
0
41
1
10
64.0410439439687
20
0.0730974876371135
30
-2E-16
41
1
10
64.2502981263163
20
-0.116209712576023
30
-2E-16
41
1
10
64.5652583320567
20
-0.395879112653489
30
0
41
1
10
64.670421983198
20
-0.488389161988039
30
-2E-16
41
1
10
64.8288504874643
20
-0.625605968037121
30
1E-16
41
1
10
64.9082358421544
20
-0.693826812531455
30
-2E-16
41
1
10
64.9879582584126
20
-0.761373144466518
30
0
41
1
10
65.041190792984
20
-0.806243236077194
30
1E-16
41
1
10
65.0678176082198
20
-0.828571033701593
30
2E-16
41
1
10
65.3069147892446
20
-1.02795067337595
30
2E-16
41
1
10
65.5170217082132
20
-1.19524592306169
30
1E-16
41
1
10
65.9368910197582
20
-1.50610792800424
30
0
41
1
10
66.1466165729195
20
-1.64971093817962
30
1E-16
41
1
10
66.4113971153708
20
-1.81137641948268
30
0
41
1
10
66.4644858732188
20
-1.84281395066918
30
1E-16
41
1
10
66.5443760386181
20
-1.88855856044179
30
0
41
1
10
66.5710275356524
20
-1.90355861139747
30
0
41
1
10
66.6242287387345
20
-1.9329701012129
30
1E-16
41
1
10
66.7570882739083
20
-2.00509031172248
30
0
41
1
10
66.8893498143456
20
-2.07012938429284
30
0
41
1
10
67.2065272371917
20
-2.21217362039934
30
1E-16
41
1
10
67.4176271927735
20
-2.28819727689549
30
0
41
1
10
67.6308398906074
20
-2.3437181475756
30
1E-16
0
SPLINE
5
10C
100
AcDbEntity
8
1
62
256
6
ByLayer
370
18
48
1
60
0
100
AcDbSpline
70
4
71
3
72
53
73
49
40
0
40
0
40
0
40
0
40
0.0887862928485886
40
0.0887862928485886
40
0.133179439272883
40
0.133179439272883
40
0.155376012485032
40
0.155376012485032
40
0.166474299091108
40
0.166474299091108
40
0.177572585697184
40
0.177572585697184
40
0.266358878545791
40
0.266358878545791
40
0.310752024970096
40
0.310752024970096
40
0.321850311576173
40
0.321850311576173
40
0.332948598182249
40
0.332948598182249
40
0.355145171394405
40
0.355145171394405
40
0.443931464243028
40
0.443931464243028
40
0.488324610667338
40
0.488324610667338
40
0.510521183879493
40
0.510521183879493
40
0.532717757091648
40
0.532717757091648
40
0.621504049940268
40
0.621504049940268
40
0.710290342788888
40
0.710290342788888
40
0.721388629394963
40
0.721388629394963
40
0.732486916001038
40
0.732486916001038
40
0.754683489213191
40
0.799076635637493
40
0.799076635637493
40
0.887862928486098
40
0.887862928486098
40
0.9322560749104
40
0.9322560749104
40
0.976649221334702
40
0.976649221334702
40
1
40
1
40
1
40
1
41
1
10
67.6308398906074
20
-1.91158717500292
30
0
41
1
10
67.4172496808619
20
-1.79511903025559
30
0
41
1
10
67.2061348276628
20
-1.66171753455151
30
-1E-16
41
1
10
66.8892754181641
20
-1.44004995959909
30
-2E-16
41
1
10
66.7836336228886
20
-1.36254830828733
30
1E-16
41
1
10
66.6246642541719
20
-1.24125574807778
30
-2E-16
41
1
10
66.5715899342201
20
-1.19998434577874
30
1E-16
41
1
10
66.4917888515606
20
-1.13686196613457
30
0
41
1
10
66.4651330330441
20
-1.11559955457437
30
-1E-16
41
1
10
66.4119020788016
20
-1.07280068766337
30
-2E-16
41
1
10
66.3853220106346
20
-1.05126054477819
30
-2E-16
41
1
10
66.1463769520543
20
-0.856183140943557
30
-2E-16
41
1
10
65.9359396145073
20
-0.67415634997667
30
-2E-16
41
1
10
65.6194672422825
20
-0.392297993997602
30
0
41
1
10
65.5138405169023
20
-0.296871734211493
30
-2E-16
41
1
10
65.381274382611
20
-0.176114046501823
30
0
41
1
10
65.3547342984785
20
-0.15188892027777
30
-1E-16
41
1
10
65.3015904486849
20
-0.103301316413564
30
-2E-16
41
1
10
65.2750009391322
20
-0.0789518787436805
30
2E-16
41
1
10
65.1954231579949
20
-0.0059887135311101
30
0
41
1
10
65.1425298162184
20
0.0426274199559487
30
-1E-16
41
1
10
64.8786553530468
20
0.285372050723282
30
2E-16
41
1
10
64.6694188887606
20
0.47846765333702
30
2E-16
41
1
10
64.3549166699281
20
0.762820951712854
30
0
41
1
10
64.2499761555904
20
0.856723280123617
30
2E-16
41
1
10
64.0919639107551
20
0.995769731117321
30
-1E-16
41
1
10
64.0391928065682
20
1.04181715553329
30
-2E-16
41
1
10
63.9333785808759
20
1.13322952469045
30
0
41
1
10
63.8802420962487
20
1.17867202129284
30
-1E-16
41
1
10
63.6156236187793
20
1.40233323306589
30
-2E-16
41
1
10
63.4062618730999
20
1.57082237172043
30
-1E-16
41
1
10
62.9875260170676
20
1.88358363312702
30
0
41
1
10
62.7782098201305
20
2.02790378174976
30
-1E-16
41
1
10
62.5403041846355
20
2.17444660471622
30
0
41
1
10
62.5138364017402
20
2.1905087796917
30
0
41
1
10
62.4608247840342
20
2.22218369750902
30
-1E-16
41
1
10
62.4342813712186
20
2.23779552730951
30
1E-16
41
1
10
62.3548368311757
20
2.28376590155611
30
0
41
1
10
62.1963783235742
20
2.37243502161817
30
0
41
1
10
62.0388827509427
20
2.45126386110363
30
0
41
1
10
61.7243616948182
20
2.59564527131258
30
-1E-16
41
1
10
61.5153051631953
20
2.67423539927876
30
0
41
1
10
61.1995987724732
20
2.76437476721128
30
0
41
1
10
61.0940089263929
20
2.78978704737338
30
0
41
1
10
60.8815837240052
20
2.8310122296476
30
0
41
1
10
60.7758933725164
20
2.84660062067886
30
0
41
1
10
60.6151535717561
20
2.86288477637208
30
0
41
1
10
60.5598364361102
20
2.86714170324103
30
0
41
1
10
60.5045722055102
20
2.87005159072044
30
0
0
SPLINE
5
10D
100
AcDbEntity
8
1
62
256
6
ByLayer
370
18
48
1
60
0
100
AcDbSpline
70
4
71
3
72
46
73
42
40
0
40
0
40
0
40
0
40
0.0132690143197258
40
0.0132690143197258
40
0.0392356192060497
40
0.0522189216492118
40
0.0522189216492118
40
0.0652022240923738
40
0.0652022240923738
40
0.169068643637655
40
0.169068643637655
40
0.272935063182936
40
0.272935063182936
40
0.298901668069258
40
0.311884970512419
40
0.311884970512419
40
0.32486827295558
40
0.32486827295558
40
0.37680148272822
40
0.37680148272822
40
0.480667902273501
40
0.480667902273501
40
0.532601112046142
40
0.532601112046142
40
0.558567716932462
40
0.571551019375624
40
0.571551019375624
40
0.584534321818786
40
0.584534321818786
40
0.688400741364085
40
0.688400741364085
40
0.792267160909385
40
0.792267160909385
40
0.818233765795708
40
0.818233765795708
40
0.83121706823887
40
0.83121706823887
40
0.844200370682032
40
0.896133580454689
40
0.896133580454689
40
1
40
1
40
1
40
1
41
1
10
61.5334735436531
20
2.66963802926964
30
0
41
1
10
61.5604029968898
20
2.67600665580579
30
0
41
1
10
61.5873560855393
20
2.6820791047395
30
0
41
1
10
61.6671366455624
20
2.69915018184426
30
0
41
1
10
61.7464959848356
20
2.71437715605333
30
0
41
1
10
61.826166296369
20
2.72696415399682
30
1E-16
41
1
10
61.8793570979379
20
2.73476139392795
30
0
41
1
10
61.9059813070934
20
2.73836081989032
30
0
41
1
10
62.1450348664606
20
2.76794713452256
30
0
41
1
10
62.3551730525734
20
2.77457904492783
30
0
41
1
10
62.7747380385676
20
2.74934808079081
30
0
41
1
10
62.9841322354707
20
2.7174866020525
30
0
41
1
10
63.2478999671401
20
2.6533182828648
30
0
41
1
10
63.3271842498311
20
2.6322375240164
30
1E-16
41
1
10
63.4067746094615
20
2.60838834973106
30
0
41
1
10
63.4599117566044
20
2.59187049828483
30
0
41
1
10
63.4865423890901
20
2.58329416473205
30
1E-16
41
1
10
63.6194153078476
20
2.53902726813891
30
0
41
1
10
63.7250854006292
20
2.49910972447202
30
-1E-16
41
1
10
64.0410439439687
20
2.36650646002744
30
0
41
1
10
64.2502981263164
20
2.26101269919138
30
0
41
1
10
64.5652583320567
20
2.07908085277313
30
0
41
1
10
64.670421983198
20
2.01447780752127
30
-1E-16
41
1
10
64.8288504874641
20
1.91181081453999
30
0
41
1
10
64.9082358421545
20
1.85903610359154
30
1E-16
41
1
10
64.9879582584125
20
1.80412539205128
30
0
41
1
10
65.041190792984
20
1.7670460754149
30
1E-16
41
1
10
65.0678176082198
20
1.74829197627571
30
-1E-16
41
1
10
65.3069147892447
20
1.57809506681932
30
-1E-16
41
1
10
65.5170217082132
20
1.41582390968063
30
-2E-16
41
1
10
65.9368910197582
20
1.07409142428477
30
1E-16
41
1
10
66.1466165729196
20
0.894594234070496
30
1E-16
41
1
10
66.4113971153708
20
0.662092567973019
30
-2E-16
41
1
10
66.4644858732188
20
0.615185611967405
30
-1E-16
41
1
10
66.5443760386181
20
0.544263910388736
30
1E-16
41
1
10
66.5710275356523
20
0.520548768221431
30
1E-16
41
1
10
66.6242287387345
20
0.473116879762784
30
-2E-16
41
1
10
66.7570882739083
20
0.354434621739642
30
1E-16
41
1
10
66.8893498143456
20
0.235372123873816
30
-1E-16
41
1
10
67.2065272371917
20
-0.0501053220292818
30
1E-16
41
1
10
67.4176271927735
20
-0.240082267818906
30
1E-16
41
1
10
67.6308398906074
20
-0.426943222289765
30
1E-16
0
SPLINE
5
10E
100
AcDbEntity
8
1
62
256
6
ByLayer
370
18
48
1
60
0
100
AcDbSpline
70
4
71
3
72
36
73
32
40
0
40
0
40
0
40
0
40
0.16023716967184
40
0.16023716967184
40
0.24035575450776
40
0.24035575450776
40
0.280415046925723
40
0.280415046925723
40
0.300444693134707
40
0.300444693134707
40
0.320474339343691
40
0.320474339343691
40
0.480711509015577
40
0.480711509015577
40
0.560830093851522
40
0.560830093851522
40
0.580859740060513
40
0.580859740060513
40
0.600889386269504
40
0.600889386269504
40
0.640948678687491
40
0.640948678687491
40
0.801185848359433
40
0.801185848359433
40
0.881304433195401
40
0.881304433195401
40
0.921363725613385
40
0.921363725613385
40
0.961423018031369
40
0.961423018031369
40
1
40
1
40
1
40
1
41
1
10
67.6308398906073
20
0.434902837511174
30
-1E-16
41
1
10
67.4172496808618
20
0.628277006044385
30
-1E-16
41
1
10
67.2061348276628
20
0.816946235394653
30
-1E-16
41
1
10
66.8892754181641
20
1.0891153528647
30
1E-16
41
1
10
66.7836336228886
20
1.17803700631177
30
-1E-16
41
1
10
66.6246642541719
20
1.30821596148303
30
0
41
1
10
66.5715899342201
20
1.35107464122927
30
-1E-16
41
1
10
66.4917888515605
20
1.41449243594948
30
-2E-16
41
1
10
66.4651330330441
20
1.43550491172198
30
2E-16
41
1
10
66.4119020788016
20
1.47710852154469
30
1E-16
41
1
10
66.3853220106346
20
1.49770409845391
30
0
41
1
10
66.1463769520542
20
1.68118496139118
30
1E-16
41
1
10
65.9359396145073
20
1.83096381511561
30
-1E-16
41
1
10
65.6194672422824
20
2.03305170967212
30
-1E-16
41
1
10
65.5138405169023
20
2.09664278040799
30
0
41
1
10
65.381274382611
20
2.17109464368784
30
0
41
1
10
65.3547342984784
20
2.18573281492431
30
0
41
1
10
65.3015904486849
20
2.21449531502168
30
-1E-16
41
1
10
65.2750009391322
20
2.22861128729593
30
1E-16
41
1
10
65.1954231579948
20
2.27002253814999
30
0
41
1
10
65.1425298162184
20
2.29643360549713
30
-1E-16
41
1
10
64.8786553530468
20
2.42249639611845
30
1E-16
41
1
10
64.6694188887606
20
2.50422124643251
30
0
41
1
10
64.3549166699281
20
2.59732124671612
30
0
41
1
10
64.2499761555904
20
2.62342773862483
30
0
41
1
10
64.0919639107551
20
2.65498832031267
30
0
41
1
10
64.0391928065682
20
2.66424131099376
30
0
41
1
10
63.9333785808758
20
2.68016898869277
30
0
41
1
10
63.8802420962487
20
2.68684970431013
30
0
41
1
10
63.7763530360779
20
2.69731924337952
30
0
41
1
10
63.7255228946795
20
2.70122298335537
30
0
41
1
10
63.674795335386
20
2.70390750451969
30
0
0
SPLINE
5
10F
100
AcDbEntity
8
1
62
256
6
ByLayer
370
18
48
1
60
0
100
AcDbSpline
70
4
71
3
72
26
73
22
40
0
40
0
40
0
40
0
40
0.0294402590184173
40
0.0294402590184173
40
0.083360244628512
40
0.110320237433555
40
0.110320237433555
40
0.137280230238599
40
0.137280230238599
40
0.352960172678955
40
0.352960172678955
40
0.56864011511931
40
0.56864011511931
40
0.6225601007294
40
0.6225601007294
40
0.649520093534444
40
0.649520093534444
40
0.676480086339489
40
0.784320057559659
40
0.784320057559659
40
1
40
1
40
1
40
1
41
1
10
64.689635324018
20
2.50595040309221
30
0
41
1
10
64.718407051335
20
2.5129608311737
30
0
41
1
10
64.7472070502963
20
2.51961212358958
30
0
41
1
10
64.8288504874642
20
2.53741678257714
30
1E-16
41
1
10
64.9082358421544
20
2.55286291612299
30
0
41
1
10
64.9879582584126
20
2.56549853651777
30
0
41
1
10
65.041190792984
20
2.57328931149206
30
0
41
1
10
65.0678176082198
20
2.5768630099773
30
0
41
1
10
65.3069147892447
20
2.60604574019527
30
0
41
1
10
65.5170217082133
20
2.61106983274232
30
0
41
1
10
65.9368910197582
20
2.58019935228901
30
0
41
1
10
66.1466165729195
20
2.54430517225012
30
0
41
1
10
66.4113971153708
20
2.4734689874557
30
0
41
1
10
66.4644858732188
20
2.45799956263659
30
0
41
1
10
66.5443760386181
20
2.43282247083056
30
0
41
1
10
66.5710275356523
20
2.42410737961893
30
0
41
1
10
66.6242287387345
20
2.40608698097569
30
0
41
1
10
66.7570882739083
20
2.35952493346218
30
0
41
1
10
66.8893498143456
20
2.30550150816666
30
-1E-16
41
1
10
67.2065272371917
20
2.16206829837006
30
0
41
1
10
67.4176271927735
20
2.04811500907661
30
1E-16
41
1
10
67.6308398906073
20
1.91677492528584
30
0
0
SPLINE
5
110
100
AcDbEntity
8
1
62
256
6
ByLayer
370
18
48
1
60
0
100
AcDbSpline
70
4
71
3
72
12
73
8
40
0
40
0
40
0
40
0
40
0.659630320956568
40
0.659630320956568
40
0.989445481434851
40
0.989445481434851
40
1
40
1
40
1
40
1
41
1
10
67.6308398906074
20
2.34649001251404
30
1E-16
41
1
10
67.4172496808618
20
2.42339603629992
30
0
41
1
10
67.2061348276629
20
2.47866376994617
30
0
41
1
10
66.8892754181641
20
2.52916531246376
30
0
41
1
10
66.7836336228887
20
2.5405853145991
30
0
41
1
10
66.6742625579374
20
2.54669916211813
30
0
41
1
10
66.6708707258658
20
2.54688311446404
30
0
41
1
10
66.6674785365516
20
2.54706143088612
30
0
0
SPLINE
5
111
100
AcDbEntity
8
1
62
256
6
ByLayer
370
18
48
1
60
0
100
AcDbSpline
70
4
71
3
72
14
73
10
40
0
40
0
40
0
40
0
40
0.0096557161606806
40
0.0096557161606806
40
0.257241787120501
40
0.257241787120501
40
0.504827858080322
40
0.504827858080322
40
1
40
1
40
1
40
1
41
1
10
58.1463675452135
20
-2.84832631062366
30
0
41
1
10
58.1443015337834
20
-2.84900675176564
30
0
41
1
10
58.1422353596584
20
-2.84968558822965
30
0
41
1
10
58.0871852071803
20
-2.86772796623183
30
-1E-16
41
1
10
58.0340817832788
20
-2.88403251712023
30
0
41
1
10
57.9275880910918
20
-2.91448922621507
30
-1E-16
41
1
10
57.8741443009578
20
-2.92865533738737
30
0
41
1
10
57.7138705219437
20
-2.96774233450753
30
0
41
1
10
57.6070512138169
20
-2.98927351994323
30
0
41
1
10
57.5
20
-3.00626339535322
30
0
0
SPLINE
5
112
100
AcDbEntity
8
1
62
256
6
ByLayer
370
18
48
1
60
0
100
AcDbSpline
70
4
71
3
72
16
73
12
40
0
40
0
40
0
40
0
40
0.249999999999982
40
0.249999999999982
40
0.374999999999985
40
0.374999999999985
40
0.499999999999988
40
0.499999999999988
40
0.749999999999994
40
0.749999999999994
40
1
40
1
40
1
40
1
41
1
10
57.5000000000001
20
-3.00626339535324
30
0
41
1
10
57.4201903278571
20
-3.01902322126108
30
0
41
1
10
57.3405438216311
20
-3.02913842504037
30
0
41
1
10
57.2194609718069
20
-3.04050847477916
30
0
41
1
10
57.178843367307
20
-3.04367124256461
30
0
41
1
10
57.0968352883984
20
-3.04883394863654
30
0
41
1
10
57.0554360622212
20
-3.05083603437001
30
0
41
1
10
56.9300495653939
20
-3.05525462887843
30
0
41
1
10
56.845043075591
20
-3.05608530602799
30
0
41
1
10
56.6731858845628
20
-3.0539357363825
30
0
41
1
10
56.5862682044045
20
-3.05095755142244
30
0
41
1
10
56.4985614059216
20
-3.04621130973749
30
0
0
SPLINE
5
113
100
AcDbEntity
8
1
62
256
6
ByLayer
370
18
48
1
60
0
100
AcDbSpline
70
4
71
3
72
18
73
14
40
0
40
0
40
0
40
0
40
0.368731640749527
40
0.368731640749527
40
0.553097461124297
40
0.553097461124297
40
0.599188916217983
40
0.599188916217983
40
0.645280371311668
40
0.645280371311668
40
0.73746328149904
40
0.73746328149904
40
1
40
1
40
1
40
1
41
1
10
57.5000000000002
20
-2.62913021516422
30
-1E-16
41
1
10
57.712657589859
20
-2.71439476050403
30
-1E-16
41
1
10
57.9238956322804
20
-2.78280129945259
30
1E-16
41
1
10
58.2411894426592
20
-2.85927210046552
30
0
41
1
10
58.3470262869096
20
-2.88039843305725
30
0
41
1
10
58.4796842664932
20
-2.9012017427622
30
0
41
1
10
58.5062340540206
20
-2.90508197937169
30
0
41
1
10
58.5593771444054
20
-2.9122770969193
30
1E-16
41
1
10
58.5859854935391
20
-2.91559337309622
30
-1E-16
41
1
10
58.6656641339036
20
-2.92466352912089
30
0
41
1
10
58.7186468880946
20
-2.92954813268318
30
0
41
1
10
58.922109972005
20
-2.94391035785918
30
0
41
1
10
59.0718267668184
20
-2.94521653721736
30
0
41
1
10
59.2212970715829
20
-2.93730467237225
30
0
0
SPLINE
5
114
100
AcDbEntity
8
1
62
256
6
ByLayer
370
18
48
1
60
0
100
AcDbSpline
70
4
71
3
72
31
73
27
40
0
40
0
40
0
40
0
40
0.0570855684850211
40
0.0570855684850211
40
0.135661771111275
40
0.135661771111275
40
0.214237973737528
40
0.214237973737528
40
0.371390378990034
40
0.371390378990034
40
0.449966581616288
40
0.449966581616288
40
0.489254682929411
40
0.508898733585973
40
0.508898733585973
40
0.528542784242535
40
0.528542784242535
40
0.68569518949502
40
0.68569518949502
40
0.842847594747504
40
0.842847594747504
40
0.882135696060628
40
0.882135696060628
40
0.921423797373752
40
0.921423797373752
40
1
40
1
40
1
40
1
41
1
10
61.5337325777035
20
-2.66155989607611
30
1E-16
41
1
10
61.4575546201785
20
-2.68823012896772
30
1E-16
41
1
10
61.3812877431157
20
-2.71249957730279
30
0
41
1
10
61.1995987724731
20
-2.76437476721128
30
0
41
1
10
61.0940089263929
20
-2.78978704737338
30
0
41
1
10
60.8815837240052
20
-2.8310122296476
30
0
41
1
10
60.7758933725164
20
-2.84660062067886
30
0
41
1
10
60.4598910666893
20
-2.87861404064807
30
0
41
1
10
60.2505032528062
20
-2.88035085092238
30
0
41
1
10
59.9354018725097
20
-2.85429404738988
30
0
41
1
10
59.8302023419204
20
-2.84082104234804
30
0
41
1
10
59.6717905591494
20
-2.81343733919715
30
0
41
1
10
59.5924317008646
20
-2.79795099274801
30
0
41
1
10
59.5127729365636
20
-2.77976667014943
30
0
41
1
10
59.4595923281718
20
-2.76704307406089
30
0
41
1
10
59.4329629848201
20
-2.76037984379735
30
0
41
1
10
59.1938027675284
20
-2.69794241257677
30
1E-16
41
1
10
58.9832035781099
20
-2.62459730067667
30
-1E-16
41
1
10
58.5623087860726
20
-2.44543338747985
30
0
41
1
10
58.3521042763241
20
-2.33953951184674
30
-1E-16
41
1
10
58.0871852071803
20
-2.18828859628326
30
-2E-16
41
1
10
58.0340817832788
20
-2.1571019633385
30
2E-16
41
1
10
57.9275880910918
20
-2.09287730569508
30
0
41
1
10
57.8741443009578
20
-2.05979909948775
30
-1E-16
41
1
10
57.7138705219437
20
-1.95815220697395
30
1E-16
41
1
10
57.607051213817
20
-1.88716388727565
30
0
41
1
10
57.5000000000001
20
-1.81319911490147
30
-2E-16
0
SPLINE
5
115
100
AcDbEntity
8
1
62
256
6
ByLayer
370
18
48
1
60
0
100
AcDbSpline
70
4
71
3
72
38
73
34
40
0
40
0
40
0
40
0
40
0.125620253268075
40
0.125620253268075
40
0.188430379902113
40
0.188430379902113
40
0.20413291156062
40
0.20413291156062
40
0.219835443219128
40
0.219835443219128
40
0.251240506536142
40
0.251240506536142
40
0.376860759804209
40
0.376860759804209
40
0.502481013072275
40
0.502481013072275
40
0.533886076389292
40
0.533886076389292
40
0.5495886080478
40
0.5495886080478
40
0.565291139706308
40
0.628101266340351
40
0.628101266340351
40
0.753721519608441
40
0.753721519608441
40
0.816531646242483
40
0.816531646242483
40
0.847936709559507
40
0.863639241218016
40
0.863639241218016
40
0.879341772876526
40
0.879341772876526
40
1
40
1
40
1
40
1
41
1
10
57.5000000000002
20
-0.0145219395727167
30
0
41
1
10
57.712657589859
20
-0.20594518114072
30
0
41
1
10
57.9238956322804
20
-0.394891915885864
30
0
41
1
10
58.2411894426592
20
-0.671808030350945
30
-2E-16
41
1
10
58.3470262869096
20
-0.763028235596778
30
0
41
1
10
58.4796842664932
20
-0.87538798773133
30
-2E-16
41
1
10
58.5062340540206
20
-0.897776521353734
30
-1E-16
41
1
10
58.5593771444054
20
-0.942378506966151
30
0
41
1
10
58.5859854935391
20
-0.964604338866252
30
0
41
1
10
58.6656641339036
20
-1.03082234322366
30
2E-16
41
1
10
58.7186468880946
20
-1.0744049038689
30
-1E-16
41
1
10
58.9830221534262
20
-1.28939357265733
30
-1E-16
41
1
10
59.1928037588581
20
-1.45204883165837
30
-2E-16
41
1
10
59.6123914966973
20
-1.75565237327209
30
1E-16
41
1
10
59.8221840323881
20
-1.89661317247169
30
0
41
1
10
60.0866958092182
20
-2.05685770488432
30
-1E-16
41
1
10
60.1397125704583
20
-2.08810636887338
30
0
41
1
10
60.2194548011067
20
-2.13372603777819
30
-1E-16
41
1
10
60.2460813027419
20
-2.14872851672516
30
-1E-16
41
1
10
60.2992136801142
20
-2.17819680887334
30
0
41
1
10
60.4318640629763
20
-2.25059568445749
30
-1E-16
41
1
10
60.5637094709878
20
-2.31661834617617
30
1E-16
41
1
10
60.8792998410553
20
-2.4626040949401
30
0
41
1
10
61.0885760600157
20
-2.54333585069895
30
0
41
1
10
61.4035628557938
20
-2.63807745359068
30
0
41
1
10
61.5087374418553
20
-2.66525664914613
30
0
41
1
10
61.6671366455624
20
-2.69915018184426
30
0
41
1
10
61.7464959848356
20
-2.71437715605333
30
0
41
1
10
61.826166296369
20
-2.72696415399682
30
-1E-16
41
1
10
61.879357097938
20
-2.73476139392795
30
0
41
1
10
61.9059813070934
20
-2.73836081989032
30
0
41
1
10
62.1366413861584
20
-2.76690832066953
30
0
41
1
10
62.3385683757554
20
-2.77402443542962
30
0
41
1
10
62.5400944011112
20
-2.76336838631545
30
0
0
SPLINE
5
116
100
AcDbEntity
8
1
62
256
6
ByLayer
370
18
48
1
60
0
100
AcDbSpline
70
4
71
1
72
4
73
2
40
0
40
0
40
1
40
1
41
1
10
63.7711709956843
20
1.27064124389415
30
1E-16
41
1
10
63.7711771599221
20
1.2706564559443
30
1E-16
0
SPLINE
5
117
100
AcDbEntity
8
1
62
256
6
ByLayer
370
18
48
1
60
0
100
AcDbSpline
70
4
71
1
72
4
73
2
40
0
40
0
40
1
40
1
41
1
10
61.1755115246669
20
0.857645395220004
30
2E-16
41
1
10
61.1755110946901
20
0.857656663278306
30
2E-16
0
SPLINE
5
118
100
AcDbEntity
8
1
62
256
6
ByLayer
370
18
48
1
60
0
100
AcDbSpline
70
4
71
2
72
6
73
3
40
0
40
0
40
0
40
1
40
1
40
1
41
1
10
58.2698385143252
20
0.514217454553659
30
1E-16
41
1
10
58.2698232466461
20
0.514570443651849
30
1E-16
41
1
10
58.2698079789852
20
0.514925012301148
30
1E-16
0
INSERT
5
13E
100
AcDbEntity
8
1
62
256
6
ByLayer
370
18
48
1
60
0
100
AcDbBlockReference
2
LABLE3D_1
10
78.601373
20
-20.8724
30
0
41
1
42
1
43
1
50
0
210
0
220
0
230
1
0
LINE
5
7D
100
AcDbEntity
8
80
62
256
6
ByLayer
370
18
48
1
60
0
100
AcDbLine
10
0
20
0
30
0
11
-3
21
0
31
0
39
0
210
0
220
0
230
1
0
LINE
5
7E
100
AcDbEntity
8
81
62
256
6
ByLayer
370
18
48
1
60
0
100
AcDbLine
10
70
20
0
30
0
11
73
21
0
31
0
39
0
210
0
220
0
230
1
0
LINE
5
7F
100
AcDbEntity
8
4
62
256
6
ByLayer
370
18
48
0.05
60
0
100
AcDbLine
10
0
20
0
30
0
11
73
21
0
31
0
39
0
210
0
220
0
230
1
0
LINE
5
81
100
AcDbEntity
8
SK4
62
256
6
ByLayer
370
18
48
0.05
60
0
100
AcDbLine
10
-43
20
0
30
0
11
73
21
0
31
0
39
0
210
0
220
0
230
1
0
LINE
5
83
100
AcDbEntity
8
1
62
256
6
ByLayer
370
18
48
1
60
0
100
AcDbLine
10
0
20
-5
30
0
11
0
21
5
31
0
39
0
210
0
220
0
230
1
0
LINE
5
84
100
AcDbEntity
8
1
62
256
6
ByLayer
370
18
48
1
60
0
100
AcDbLine
10
19.862623
20
-5
30
0
11
19.862623
21
5
31
0
39
0
210
0
220
0
230
1
0
LINE
5
85
100
AcDbEntity
8
SK1
62
256
6
ByLayer
370
18
48
1
60
0
100
AcDbLine
10
-40
20
-4.4
30
0
11
-40
21
4.4
31
0
39
0
210
0
220
0
230
1
0
LINE
5
87
100
AcDbEntity
8
SK1
62
256
6
ByLayer
370
18
48
1
60
0
100
AcDbLine
10
0
20
-5
30
0
11
0
21
5
31
0
39
0
210
0
220
0
230
1
0
LINE
5
88
100
AcDbEntity
8
SK1
62
256
6
ByLayer
370
18
48
1
60
0
100
AcDbLine
10
-39.4
20
-5
30
0
11
-39.4
21
5
31
0
39
0
210
0
220
0
230
1
0
LINE
5
89
100
AcDbEntity
8
1
62
256
6
ByLayer
370
18
48
1
60
0
100
AcDbLine
10
19.862623
20
5
30
0
11
0
21
5
31
0
39
0
210
0
220
0
230
1
0
LINE
5
8A
100
AcDbEntity
8
1
62
256
6
ByLayer
370
18
48
1
60
0
100
AcDbLine
10
0
20
-5
30
0
11
19.862623
21
-5
31
0
39
0
210
0
220
0
230
1
0
LINE
5
8B
100
AcDbEntity
8
1
62
256
6
ByLayer
370
18
48
1
60
0
100
AcDbLine
10
66.668448
20
2.547011
30
0
11
65.660644
21
2.599827
31
0
39
0
210
0
220
0
230
1
0
LINE
5
8C
100
AcDbEntity
8
1
62
256
6
ByLayer
370
18
48
1
60
0
100
AcDbLine
10
63.675599
20
2.703859
30
0
11
62.54033
21
2.763356
31
0
39
0
210
0
220
0
230
1
0
LINE
5
8D
100
AcDbEntity
8
1
62
256
6
ByLayer
370
18
48
1
60
0
100
AcDbLine
10
60.505654
20
2.869989
30
0
11
59.22169
21
2.937279
31
0
39
0
210
0
220
0
230
1
0
LINE
5
8E
100
AcDbEntity
8
1
62
256
6
ByLayer
370
18
48
1
60
0
100
AcDbLine
10
57.088363
20
3.049082
30
0
11
19.862623
21
5
31
0
39
0
210
0
220
0
230
1
0
LINE
5
8F
100
AcDbEntity
8
1
62
256
6
ByLayer
370
18
48
1
60
0
100
AcDbLine
10
19.862623
20
-5
30
0
11
57.088363
21
-3.049082
31
0
39
0
210
0
220
0
230
1
0
LINE
5
90
100
AcDbEntity
8
1
62
256
6
ByLayer
370
18
48
1
60
0
100
AcDbLine
10
59.22169
20
-2.937279
30
0
11
60.505654
21
-2.869989
31
0
39
0
210
0
220
0
230
1
0
LINE
5
91
100
AcDbEntity
8
1
62
256
6
ByLayer
370
18
48
1
60
0
100
AcDbLine
10
62.54033
20
-2.763356
30
0
11
63.675599
21
-2.703859
31
0
39
0
210
0
220
0
230
1
0
LINE
5
92
100
AcDbEntity
8
1
62
256
6
ByLayer
370
18
48
1
60
0
100
AcDbLine
10
65.660644
20
-2.599827
30
0
11
66.668448
21
-2.547011
31
0
39
0
210
0
220
0
230
1
0
LINE
5
93
100
AcDbEntity
8
SK1
62
256
6
ByLayer
370
18
48
1
60
0
100
AcDbLine
10
-40
20
-4.4
30
0
11
-39.4
21
-5
31
0
39
0
210
0
220
0
230
1
0
LINE
5
94
100
AcDbEntity
8
SK1
62
256
6
ByLayer
370
18
48
1
60
0
100
AcDbLine
10
-39.4
20
5
30
0
11
-40
21
4.4
31
0
39
0
210
0
220
0
230
1
0
LINE
5
95
100
AcDbEntity
8
SK1
62
256
6
ByLayer
370
18
48
1
60
0
100
AcDbLine
10
0
20
5
30
0
11
-39.4
21
5
31
0
39
0
210
0
220
0
230
1
0
LINE
5
96
100
AcDbEntity
8
SK1
62
256
6
ByLayer
370
18
48
1
60
0
100
AcDbLine
10
-39.4
20
-5
30
0
11
0
21
-5
31
0
39
0
210
0
220
0
230
1
0
LINE
5
97
100
AcDbEntity
8
SK2
62
256
6
ByLayer
370
13
48
1
60
0
100
AcDbLine
10
-46.5
20
-5
30
0
11
-46.5
21
24.625256
31
0
39
0
210
0
220
0
230
1
0
LINE
5
99
100
AcDbEntity
8
SK2
62
256
6
ByLayer
370
13
48
1
60
0
100
AcDbLine
10
-41.5875
20
-5
30
0
11
-48.5
21
-5
31
0
39
0
210
0
220
0
230
1
0
LINE
5
9A
100
AcDbEntity
8
SK2
62
256
6
ByLayer
370
13
48
1
60
0
100
AcDbLine
10
-41.5875
20
5
30
0
11
-48.5
21
5
31
0
39
0
210
0
220
0
230
1
0
LINE
5
9B
100
AcDbEntity
8
1
62
256
6
ByLayer
370
18
48
1
60
1
100
AcDbLine
10
-46.5
20
-5
30
0
11
-46.960784
21
-1.500002
31
0
39
0
210
0
220
0
230
1
0
LINE
5
9C
100
AcDbEntity
8
1
62
256
6
ByLayer
370
18
48
1
60
1
100
AcDbLine
10
-46.960784
20
-1.500002
30
0
11
-46.039216
21
-1.499998
31
0
39
0
210
0
220
0
230
1
0
LINE
5
9D
100
AcDbEntity
8
1
62
256
6
ByLayer
370
18
48
1
60
1
100
AcDbLine
10
-46.039216
20
-1.499998
30
0
11
-46.5
21
-5
31
0
39
0
210
0
220
0
230
1
0
LINE
5
9E
100
AcDbEntity
8
1
62
256
6
ByLayer
370
18
48
1
60
1
100
AcDbLine
10
-46.5
20
5
30
0
11
-46.039216
21
1.500002
31
0
39
0
210
0
220
0
230
1
0
LINE
5
9F
100
AcDbEntity
8
1
62
256
6
ByLayer
370
18
48
1
60
1
100
AcDbLine
10
-46.039216
20
1.500002
30
0
11
-46.960784
21
1.499998
31
0
39
0
210
0
220
0
230
1
0
LINE
5
A0
100
AcDbEntity
8
1
62
256
6
ByLayer
370
18
48
1
60
1
100
AcDbLine
10
-46.960784
20
1.499998
30
0
11
-46.5
21
5
31
0
39
0
210
0
220
0
230
1
0
LINE
5
A1
100
AcDbEntity
8
SK2
62
256
6
ByLayer
370
13
48
1
60
0
100
AcDbLine
10
86.5
20
-10
30
0
11
86.5
21
20.633313
31
0
39
0
210
0
220
0
230
1
0
LINE
5
A2
100
AcDbEntity
8
SK2
62
256
6
ByLayer
370
13
48
1
60
0
100
AcDbLine
10
71.5875
20
-2.5
30
0
11
88.5
21
-2.5
31
0
39
0
210
0
220
0
230
1
0
LINE
5
A3
100
AcDbEntity
8
SK2
62
256
6
ByLayer
370
13
48
1
60
0
100
AcDbLine
10
71.5875
20
2.5
30
0
11
88.5
21
2.5
31
0
39
0
210
0
220
0
230
1
0
LINE
5
A4
100
AcDbEntity
8
1
62
256
6
ByLayer
370
18
48
1
60
1
100
AcDbLine
10
86.5
20
-2.5
30
0
11
86.960784
21
-5.999998
31
0
39
0
210
0
220
0
230
1
0
LINE
5
A5
100
AcDbEntity
8
1
62
256
6
ByLayer
370
18
48
1
60
1
100
AcDbLine
10
86.960784
20
-5.999998
30
0
11
86.039216
21
-6.000002
31
0
39
0
210
0
220
0
230
1
0
LINE
5
A6
100
AcDbEntity
8
1
62
256
6
ByLayer
370
18
48
1
60
1
100
AcDbLine
10
86.039216
20
-6.000002
30
0
11
86.5
21
-2.5
31
0
39
0
210
0
220
0
230
1
0
LINE
5
A7
100
AcDbEntity
8
1
62
256
6
ByLayer
370
18
48
1
60
1
100
AcDbLine
10
86.5
20
2.5
30
0
11
86.039216
21
5.999998
31
0
39
0
210
0
220
0
230
1
0
LINE
5
A8
100
AcDbEntity
8
1
62
256
6
ByLayer
370
18
48
1
60
1
100
AcDbLine
10
86.039216
20
5.999998
30
0
11
86.960784
21
6.000002
31
0
39
0
210
0
220
0
230
1
0
LINE
5
A9
100
AcDbEntity
8
1
62
256
6
ByLayer
370
18
48
1
60
1
100
AcDbLine
10
86.960784
20
6.000002
30
0
11
86.5
21
2.5
31
0
39
0
210
0
220
0
230
1
0
LINE
5
AA
100
AcDbEntity
8
SK2
62
256
6
ByLayer
370
13
48
1
60
0
100
AcDbLine
10
-25.9125
20
0
30
0
11
25.264423
21
0
31
0
39
0
210
0
220
0
230
1
0
LINE
5
AB
100
AcDbEntity
8
SK2
62
256
6
ByLayer
370
13
48
1
60
0
100
AcDbLine
10
45.920378
20
4.657962
30
0
11
21.617952
21
7.088205
31
0
39
0
210
0
220
0
230
1
0
LINE
5
AC
100
AcDbEntity
8
1
62
256
6
ByLayer
370
18
48
1
60
1
100
AcDbLine
10
23.264423
20
0
30
0
11
23.769393
21
-3.493897
31
0
39
0
210
0
220
0
230
1
0
LINE
5
AD
100
AcDbEntity
8
1
62
256
6
ByLayer
370
18
48
1
60
1
100
AcDbLine
10
23.769393
20
-3.493897
30
0
11
22.847899
21
-3.505544
31
0
39
0
210
0
220
0
230
1
0
LINE
5
AE
100
AcDbEntity
8
1
62
256
6
ByLayer
370
18
48
1
60
1
100
AcDbLine
10
22.847899
20
-3.505544
30
0
11
23.264423
21
0
31
0
39
0
210
0
220
0
230
1
0
LINE
5
AF
100
AcDbEntity
8
1
62
256
6
ByLayer
370
18
48
1
60
1
100
AcDbLine
10
23.608026
20
6.889197
30
0
11
23.542383
21
10.418787
31
0
39
0
210
0
220
0
230
1
0
LINE
5
B0
100
AcDbEntity
8
1
62
256
6
ByLayer
370
18
48
1
60
1
100
AcDbLine
10
23.542383
20
10.418787
30
0
11
24.458146
21
10.315512
31
0
39
0
210
0
220
0
230
1
0
LINE
5
B1
100
AcDbEntity
8
1
62
256
6
ByLayer
370
18
48
1
60
1
100
AcDbLine
10
24.458146
20
10.315512
30
0
11
23.608026
21
6.889197
31
0
39
0
210
0
220
0
230
1
0
LINE
5
11D
100
AcDbEntity
8
1
62
256
6
ByLayer
370
18
48
1
60
1
100
AcDbLine
10
-46.5
20
-5
30
0
11
-46.960784
21
-1.500002
31
0
39
0
210
0
220
0
230
1
0
LINE
5
11E
100
AcDbEntity
8
1
62
256
6
ByLayer
370
18
48
1
60
1
100
AcDbLine
10
-46.960784
20
-1.500002
30
0
11
-46.039216
21
-1.499998
31
0
39
0
210
0
220
0
230
1
0
LINE
5
11F
100
AcDbEntity
8
1
62
256
6
ByLayer
370
18
48
1
60
1
100
AcDbLine
10
-46.039216
20
-1.499998
30
0
11
-46.5
21
-5
31
0
39
0
210
0
220
0
230
1
0
LINE
5
121
100
AcDbEntity
8
1
62
256
6
ByLayer
370
18
48
1
60
1
100
AcDbLine
10
-46.5
20
5
30
0
11
-46.039216
21
1.500002
31
0
39
0
210
0
220
0
230
1
0
LINE
5
122
100
AcDbEntity
8
1
62
256
6
ByLayer
370
18
48
1
60
1
100
AcDbLine
10
-46.039216
20
1.500002
30
0
11
-46.960784
21
1.499998
31
0
39
0
210
0
220
0
230
1
0
LINE
5
123
100
AcDbEntity
8
1
62
256
6
ByLayer
370
18
48
1
60
1
100
AcDbLine
10
-46.960784
20
1.499998
30
0
11
-46.5
21
5
31
0
39
0
210
0
220
0
230
1
0
LINE
5
127
100
AcDbEntity
8
1
62
256
6
ByLayer
370
18
48
1
60
1
100
AcDbLine
10
86.5
20
-2.5
30
0
11
86.960784
21
-5.999998
31
0
39
0
210
0
220
0
230
1
0
LINE
5
128
100
AcDbEntity
8
1
62
256
6
ByLayer
370
18
48
1
60
1
100
AcDbLine
10
86.960784
20
-5.999998
30
0
11
86.039216
21
-6.000002
31
0
39
0
210
0
220
0
230
1
0
LINE
5
129
100
AcDbEntity
8
1
62
256
6
ByLayer
370
18
48
1
60
1
100
AcDbLine
10
86.039216
20
-6.000002
30
0
11
86.5
21
-2.5
31
0
39
0
210
0
220
0
230
1
0
LINE
5
12B
100
AcDbEntity
8
1
62
256
6
ByLayer
370
18
48
1
60
1
100
AcDbLine
10
86.5
20
2.5
30
0
11
86.039216
21
5.999998
31
0
39
0
210
0
220
0
230
1
0
LINE
5
12C
100
AcDbEntity
8
1
62
256
6
ByLayer
370
18
48
1
60
1
100
AcDbLine
10
86.039216
20
5.999998
30
0
11
86.960784
21
6.000002
31
0
39
0
210
0
220
0
230
1
0
LINE
5
12D
100
AcDbEntity
8
1
62
256
6
ByLayer
370
18
48
1
60
1
100
AcDbLine
10
86.960784
20
6.000002
30
0
11
86.5
21
2.5
31
0
39
0
210
0
220
0
230
1
0
LINE
5
130
100
AcDbEntity
8
1
62
256
6
ByLayer
370
18
48
1
60
1
100
AcDbLine
10
23.264423
20
0
30
0
11
23.769393
21
-3.493897
31
0
39
0
210
0
220
0
230
1
0
LINE
5
131
100
AcDbEntity
8
1
62
256
6
ByLayer
370
18
48
1
60
1
100
AcDbLine
10
23.769393
20
-3.493897
30
0
11
22.847899
21
-3.505544
31
0
39
0
210
0
220
0
230
1
0
LINE
5
132
100
AcDbEntity
8
1
62
256
6
ByLayer
370
18
48
1
60
1
100
AcDbLine
10
22.847899
20
-3.505544
30
0
11
23.264423
21
0
31
0
39
0
210
0
220
0
230
1
0
LINE
5
134
100
AcDbEntity
8
1
62
256
6
ByLayer
370
18
48
1
60
1
100
AcDbLine
10
23.608026
20
6.889197
30
0
11
23.542383
21
10.418787
31
0
39
0
210
0
220
0
230
1
0
LINE
5
135
100
AcDbEntity
8
1
62
256
6
ByLayer
370
18
48
1
60
1
100
AcDbLine
10
23.542383
20
10.418787
30
0
11
24.458146
21
10.315512
31
0
39
0
210
0
220
0
230
1
0
LINE
5
136
100
AcDbEntity
8
1
62
256
6
ByLayer
370
18
48
1
60
1
100
AcDbLine
10
24.458146
20
10.315512
30
0
11
23.608026
21
6.889197
31
0
39
0
210
0
220
0
230
1
0
LINE
5
139
100
AcDbEntity
8
1
62
256
6
ByLayer
370
13
48
1
60
0
100
AcDbLine
10
80.101373
20
-20.8724
30
0
11
80.101373
21
-20.8724
31
0
39
0
210
0
220
0
230
1
0
MTEXT
5
119
100
AcDbEntity
8
SK2
62
256
6
ByLayer
370
18
48
1
60
0
100
AcDbMText
10
-47.841114
20
9.658437
30
0
210
0
220
0
230
1
1
%%c
40
3
41
0
44
1.084337
50
90
71
7
72
5
7
iso_b_vert
0
MTEXT
5
11C
100
AcDbEntity
8
SK2
62
256
6
ByLayer
370
18
48
1
60
0
100
AcDbMText
10
-47.841114
20
15.635
30
0
210
0
220
0
230
1
1
\W0.6563;10 h6
40
3
41
0
44
1.084337
50
90
71
7
72
5
7
iso_b_vert
0
MTEXT
5
125
100
AcDbEntity
8
SK2
62
256
6
ByLayer
370
18
48
1
60
0
100
AcDbMText
10
85.158886
20
7.158437
30
0
210
0
220
0
230
1
1
%%c
40
3
41
0
44
1.084337
50
90
71
7
72
5
7
iso_b_vert
0
MTEXT
5
126
100
AcDbEntity
8
SK2
62
256
6
ByLayer
370
18
48
1
60
0
100
AcDbMText
10
85.158886
20
13.135
30
0
210
0
220
0
230
1
1
\W0.6903;5 h6
40
3
41
0
44
1.084337
50
90
71
7
72
5
7
iso_b_vert
0
MTEXT
5
12F
100
AcDbEntity
8
SK2
62
256
6
ByLayer
370
18
48
1
60
0
100
AcDbMText
10
23.21537
20
10.583964
30
0
210
0
220
0
230
1
1
\W0.8531;3.0%%d
40
3
41
0
44
1.084337
50
75.963756532074
71
7
72
5
7
iso_b_vert
0
MTEXT
5
141
100
AcDbEntity
8
SK6
62
256
6
ByLayer
370
18
48
1
60
0
100
AcDbMText
10
-11.392282
20
-57.114886
30
0
210
0
220
0
230
1
1
\W0.7738;2T346-0500-TA1000   T2CH
40
3
41
0
44
1.084337
50
0
71
7
72
5
7
iso_b_vert
0
HATCH
5
120
100
AcDbEntity
8
SK2
62
256
6
ByLayer
370
13
48
1
60
0
100
AcDbHatch
10
0
20
0
30
0
210
0
220
0
230
1
2
ANSI31
70
0
71
0
91
1
92
5
93
3
72
1
10
-46.5
20
-5
11
-46.9607837415528
21
-1.50000169255318
72
1
10
-46.9607837415528
20
-1.50000169255318
11
-46.0392162584472
21
-1.49999830744682
72
1
10
-46.0392162584472
20
-1.49999830744682
11
-46.5
21
-5
97
0
75
0
76
1
52
0
41
0.0062
77
0
78
1
53
45
43
0
44
0
45
-0.0139193969876572
46
0.0139193969876572
79
0
47
0
98
1
10
0
20
0
0
HATCH
5
124
100
AcDbEntity
8
SK2
62
256
6
ByLayer
370
13
48
1
60
0
100
AcDbHatch
10
0
20
0
30
0
210
0
220
0
230
1
2
ANSI31
70
0
71
0
91
1
92
5
93
3
72
1
10
-46.5
20
5
11
-46.0392162584472
21
1.50000169255318
72
1
10
-46.0392162584472
20
1.50000169255318
11
-46.9607837415528
21
1.49999830744682
72
1
10
-46.9607837415528
20
1.49999830744682
11
-46.5
21
5
97
0
75
0
76
1
52
0
41
0.0062
77
0
78
1
53
45
43
0
44
0
45
-0.0139193969876572
46
0.0139193969876572
79
0
47
0
98
1
10
0
20
0
0
HATCH
5
12A
100
AcDbEntity
8
SK2
62
256
6
ByLayer
370
13
48
1
60
0
100
AcDbHatch
10
0
20
0
30
0
210
0
220
0
230
1
2
ANSI31
70
0
71
0
91
1
92
5
93
3
72
1
10
86.5
20
-2.5
11
86.9607837415528
21
-5.99999830744682
72
1
10
86.9607837415528
20
-5.99999830744682
11
86.0392162584472
21
-6.00000169255318
72
1
10
86.0392162584472
20
-6.00000169255318
11
86.5
21
-2.5
97
0
75
0
76
1
52
0
41
0.0062
77
0
78
1
53
45
43
0
44
0
45
-0.0139193969876572
46
0.0139193969876572
79
0
47
0
98
1
10
0
20
0
0
HATCH
5
12E
100
AcDbEntity
8
SK2
62
256
6
ByLayer
370
13
48
1
60
0
100
AcDbHatch
10
0
20
0
30
0
210
0
220
0
230
1
2
ANSI31
70
0
71
0
91
1
92
5
93
3
72
1
10
86.5
20
2.5
11
86.0392162584472
21
5.99999830744682
72
1
10
86.0392162584472
20
5.99999830744682
11
86.9607837415528
21
6.00000169255318
72
1
10
86.9607837415528
20
6.00000169255318
11
86.5
21
2.5
97
0
75
0
76
1
52
0
41
0.0062
77
0
78
1
53
45
43
0
44
0
45
-0.0139193969876572
46
0.0139193969876572
79
0
47
0
98
1
10
0
20
0
0
HATCH
5
133
100
AcDbEntity
8
SK2
62
256
6
ByLayer
370
13
48
1
60
0
100
AcDbHatch
10
0
20
0
30
0
210
0
220
0
230
1
2
ANSI31
70
0
71
0
91
1
92
5
93
3
72
1
10
23.2644233326614
20
0
11
23.7693927175473
21
-3.4938969259178
72
1
10
23.7693927175473
20
-3.4938969259178
11
22.8478988409735
21
-3.50554430184224
72
1
10
22.8478988409735
20
-3.50554430184224
11
23.2644233326614
21
0
97
0
75
0
76
1
52
0
41
0.0062
77
0
78
1
53
45
43
0
44
0
45
-0.0139193969876572
46
0.0139193969876572
79
0
47
0
98
1
10
0
20
0
0
HATCH
5
137
100
AcDbEntity
8
SK2
62
256
6
ByLayer
370
13
48
1
60
0
100
AcDbHatch
10
0
20
0
30
0
210
0
220
0
230
1
2
ANSI31
70
0
71
0
91
1
92
5
93
3
72
1
10
23.6080263303631
20
6.88919736696397
11
23.5423832863643
21
10.41878669143
72
1
10
23.5423832863643
20
10.41878669143
11
24.4581457656093
21
10.3155117790067
72
1
10
24.4581457656093
20
10.3155117790067
11
23.6080263303631
21
6.88919736696397
97
0
75
0
76
1
52
0
41
0.0062
77
0
78
1
53
45
43
0
44
0
45
-0.0139193969876572
46
0.0139193969876572
79
0
47
0
98
1
10
0
20
0
0
DIMENSION
5
144
100
AcDbEntity
8
SK2
62
256
6
ByLayer
370
18
48
1
60
0
100
AcDbDimension
2
_U0
10
70
20
-39.85
30
0
11
15
21
-39.85
31
0
70
32
71
1
72
1
41
1
210
0
220
0
230
1
3
Standard
100
AcDbAlignedDimension
13
-40
23
5
33
0
14
70
24
2.5
34
0
50
0
100
AcDbRotatedDimension
1001
ACAD
1000
DSTYLE
1002
{
1070
   371
1070
    13
1070
   372
1070
    13
1070
     3
1000

1070
   170
1070
     0
1070
   144
1040
1.0
1070
   277
1070
     2
1070
   284
1070
     8
1070
   278
1070
    46
1070
   146
1040
1.166667
1070
   345
1005
16
1070
   347
1005
16
1070
   346
1005
16
1070
   344
1005
0
1070
   343
1005
0
1070
   172
1070
     1
1070
    76
1070
     0
1070
    75
1070
     0
1070
   282
1070
     0
1070
   281
1070
     0
1070
    71
1070
     0
1070
    74
1070
     0
1070
   279
1070
     0
1070
   173
1070
     1
1070
   340
1005
11A
1070
   271
1070
     2
1070
   272
1070
     2
1070
    77
1070
     1
1070
    73
1070
     1
1070
   171
1070
     3
1070
   274
1070
     4
1070
   177
1070
     2
1070
   176
1070
     2
1070
   178
1070
     2
1070
    78
1070
     8
1070
    48
1040
-0.1
1070
    41
1040
3.5
1070
   147
1040
1.5
1070
    42
1040
1.5875
1070
    44
1040
2.0
1070
   140
1040
3.0
1002
}
1001
ACAD_DSTYLE_DIM_LINETYPE
1070
   380
1005
16
1001
ACAD_DSTYLE_DIM_EXT1_LINETYPE
1070
   381
1005
16
1001
ACAD_DSTYLE_DIM_EXT2_LINETYPE
1070
   382
1005
16
0
DIMENSION
5
15D
100
AcDbEntity
8
SK2
62
256
6
ByLayer
370
18
48
1
60
0
100
AcDbDimension
2
_U1
10
0
20
-27.85
30
0
11
35
21
-27.85
31
0
70
32
71
1
72
1
41
1
210
0
220
0
230
1
3
Standard
100
AcDbAlignedDimension
13
70
23
-2.5
33
0
14
0
24
-5
34
0
50
0
100
AcDbRotatedDimension
1001
ACAD
1000
DSTYLE
1002
{
1070
   371
1070
    13
1070
   372
1070
    13
1070
     3
1000

1070
   170
1070
     0
1070
   144
1040
1.0
1070
   277
1070
     2
1070
   284
1070
     8
1070
   278
1070
    46
1070
   146
1040
1.166667
1070
   345
1005
16
1070
   347
1005
16
1070
   346
1005
16
1070
   344
1005
0
1070
   343
1005
0
1070
   172
1070
     1
1070
    76
1070
     0
1070
    75
1070
     0
1070
   282
1070
     0
1070
   281
1070
     0
1070
    71
1070
     0
1070
    74
1070
     0
1070
   279
1070
     0
1070
   173
1070
     1
1070
   340
1005
11A
1070
   271
1070
     2
1070
   272
1070
     2
1070
    77
1070
     1
1070
    73
1070
     1
1070
   171
1070
     3
1070
   274
1070
     4
1070
   177
1070
     2
1070
   176
1070
     2
1070
   178
1070
     2
1070
    78
1070
     8
1070
    48
1040
-0.1
1070
    41
1040
3.5
1070
   147
1040
1.5
1070
    42
1040
1.5875
1070
    44
1040
2.0
1070
   140
1040
3.0
1002
}
1001
ACAD_DSTYLE_DIM_LINETYPE
1070
   380
1005
16
1001
ACAD_DSTYLE_DIM_EXT1_LINETYPE
1070
   381
1005
16
1001
ACAD_DSTYLE_DIM_EXT2_LINETYPE
1070
   382
1005
16
0
DIMENSION
5
175
100
AcDbEntity
8
SK2
62
256
6
ByLayer
370
18
48
1
60
0
100
AcDbDimension
2
_U2
10
57.5
20
-13.85
30
0
11
63.75
21
-13.85
31
0
70
32
71
1
72
1
41
1
210
0
220
0
230
1
3
Standard
100
AcDbAlignedDimension
13
70
23
-2.5
33
0
14
57.5
24
-5
34
0
50
0
100
AcDbRotatedDimension
1001
ACAD
1000
DSTYLE
1002
{
1070
   371
1070
    13
1070
   372
1070
    13
1070
     3
1000

1070
   170
1070
     0
1070
   144
1040
1.0
1070
   277
1070
     2
1070
   284
1070
     8
1070
   278
1070
    46
1070
   146
1040
1.166667
1070
   345
1005
16
1070
   347
1005
16
1070
   346
1005
16
1070
   344
1005
0
1070
   343
1005
0
1070
   172
1070
     1
1070
    76
1070
     0
1070
    75
1070
     0
1070
   282
1070
     0
1070
   281
1070
     0
1070
    71
1070
     0
1070
    74
1070
     0
1070
   279
1070
     0
1070
   173
1070
     1
1070
   340
1005
11A
1070
   271
1070
     2
1070
   272
1070
     2
1070
    77
1070
     1
1070
    73
1070
     1
1070
   171
1070
     3
1070
   274
1070
     4
1070
   177
1070
     2
1070
   176
1070
     2
1070
   178
1070
     2
1070
    78
1070
     8
1070
    48
1040
-0.1
1070
    41
1040
3.5
1070
   147
1040
1.5
1070
    42
1040
1.5875
1070
    44
1040
2.0
1070
   140
1040
3.0
1002
}
1001
ACAD_DSTYLE_DIM_LINETYPE
1070
   380
1005
16
1001
ACAD_DSTYLE_DIM_EXT1_LINETYPE
1070
   381
1005
16
1001
ACAD_DSTYLE_DIM_EXT2_LINETYPE
1070
   382
1005
16
0
ENDSEC
0
SECTION
2
OBJECTS
0
DICTIONARY
5
1fe
330
0
100
AcDbDictionary
280
0
281
1
3
ACAD_GROUP
350
1ff
3
ACAD_MLINESTYLE
350
200
0
DICTIONARY
5
1ff
330
0
100
AcDbDictionary
280
0
281
1
0
DICTIONARY
5
200
330
0
100
AcDbDictionary
280
0
281
1
3
Standard
350
18
0
MLINESTYLE
5
18
330
200
100
AcDbMlineStyle
2
Standard
70
0
3

62
256
51
90
52
90
71
2
49
-0.5
62
256
6
ByLayer
49
0.5
62
256
6
ByLayer
0
RASTERVARIABLES
5
1ec
330

100
AcDbRasterVariables
90
0
70
1
71
1
72
1
0
ENDSEC
0
EOF
