0
SECTION
2
HEADER
9
$ACADVER
1
AC1015
9
$DWGCODEPAGE
3
ANSI_1252
9
$HANDSEED
5
20b
9
$ANGBASE
50
0
9
$ANGDIR
70
0
9
$ATTMODE
70
1
9
$AUNITS
70
0
9
$AUPREC
70
0
9
$CECOLOR
62
256
9
$CELTSCALE
40
1
9
$CELTYPE
6
ByLayer
9
$CELWEIGHT
370
18
9
$CLAYER
8
0
9
$CMLJUST
70
0
9
$CMLSCALE
40
1
9
$CMLSTYLE
2
Standard
9
$DIMSTYLE
2
Standard
9
$TEXTSIZE
40
0.2
9
$TEXTSTYLE
7
Standard
9
$LUNITS
70
2
9
$LUPREC
70
4
9
$EXTNAMES
290
1
9
$INSUNITS
70
4
9
$LTSCALE
40
1
9
$LWDISPLAY
290
1
9
$PDMODE
70
0
9
$PDSIZE
40
0
9
$PLINEGEN
70
0
0
ENDSEC
0
SECTION
2
CLASSES
0
CLASS
1
RASTERVARIABLES
2
AcDbRasterVariables
3
ISM
90
0
280
0
281
0
0
ENDSEC
0
SECTION
2
TABLES
0
TABLE
2
VPORT
5
201
100
AcDbSymbolTable
0
VPORT
5
1
100
AcDbSymbolTableRecord
100
AcDbViewportTableRecord
2
*Active
70
0
10
0
20
0
11
1
21
1
12
-1
22
1
13
0
23
0
14
0.5
24
0.5
15
10
25
10
16
0
26
0
36
1
17
0
27
0
37
0
0
ENDTAB
0
TABLE
2
LTYPE
5
202
100
AcDbSymbolTable
0
LTYPE
5
14
100
AcDbSymbolTableRecord
100
AcDbLinetypeTableRecord
70
0
2
ByBlock
3

72
65
73
0
40
0
0
LTYPE
5
15
100
AcDbSymbolTableRecord
100
AcDbLinetypeTableRecord
70
0
2
ByLayer
3

72
65
73
0
40
0
0
LTYPE
5
16
100
AcDbSymbolTableRecord
100
AcDbLinetypeTableRecord
70
0
2
Continuous
3
Solid line
72
65
73
0
40
0
0
LTYPE
5
6E
100
AcDbSymbolTableRecord
100
AcDbLinetypeTableRecord
70
0
2
CENTER
3
____ _ ____ _ ____ _ ____
72
65
73
4
40
47.5
49
22
74
0
49
-8.5
74
0
49
8.5
74
0
49
-8.5
74
0
0
LTYPE
5
6F
100
AcDbSymbolTableRecord
100
AcDbLinetypeTableRecord
70
0
2
DASHED
3
__ __ __ __ __ __ __ __ __
72
65
73
2
40
25.72
49
12.86
74
0
49
-12.86
74
0
0
ENDTAB
0
TABLE
2
LAYER
5
203
100
AcDbSymbolTable
0
LAYER
5
10
100
AcDbSymbolTableRecord
100
AcDbLayerTableRecord
2
0
70
0
62
7
6
Continuous
290
1
370
-3
390
0
0
LAYER
5
71
100
AcDbSymbolTableRecord
100
AcDbLayerTableRecord
2
81
70
0
62
-3
6
Continuous
290
1
370
-3
390
0
0
LAYER
5
73
100
AcDbSymbolTableRecord
100
AcDbLayerTableRecord
2
1
70
0
62
4
6
Continuous
290
1
370
-3
390
0
0
LAYER
5
75
100
AcDbSymbolTableRecord
100
AcDbLayerTableRecord
2
80
70
0
62
-6
6
Continuous
290
1
370
-3
390
0
0
LAYER
5
82
100
AcDbSymbolTableRecord
100
AcDbLayerTableRecord
2
4
70
0
62
-2
6
CENTER
290
1
370
-3
390
0
0
LAYER
5
147
100
AcDbSymbolTableRecord
100
AcDbLayerTableRecord
2
Defpoints
70
0
62
7
6
Continuous
290
0
370
-3
390
0
0
LAYER
5
1ed
100
AcDbSymbolTableRecord
100
AcDbLayerTableRecord
2
SK4
70
0
62
2
6
CENTER
290
1
370
-3
390
0
0
LAYER
5
1ee
100
AcDbSymbolTableRecord
100
AcDbLayerTableRecord
2
SK1
70
0
62
4
6
Continuous
290
1
370
-3
390
0
0
LAYER
5
1ef
100
AcDbSymbolTableRecord
100
AcDbLayerTableRecord
2
SK2
70
0
62
7
6
Continuous
290
1
370
-3
390
0
0
LAYER
5
1f0
100
AcDbSymbolTableRecord
100
AcDbLayerTableRecord
2
SK6
70
0
62
5
6
Continuous
290
1
370
-3
390
0
0
ENDTAB
0
TABLE
2
STYLE
5
204
100
AcDbSymbolTable
0
STYLE
5
11
100
AcDbSymbolTableRecord
100
AcDbTextStyleTableRecord
2
Standard
3
txt
70
0
71
0
40
0
41
1
42
0
50
0
0
STYLE
5
11A
100
AcDbSymbolTableRecord
100
AcDbTextStyleTableRecord
2
iso_b_vert
3
simplex.shx
70
0
71
0
40
0
41
1
42
0
50
0
0
STYLE
5
11B
100
AcDbSymbolTableRecord
100
AcDbTextStyleTableRecord
2
DWGDirectTextStyle
3
simplex
70
0
71
0
40
0
41
1
42
0
50
0
0
ENDTAB
0
TABLE
2
DIMSTYLE
5
205
100
AcDbSymbolTable
100
AcDbDimStyleTable
0
DIMSTYLE
105
27
100
AcDbSymbolTableRecord
100
AcDbDimStyleTableRecord
2
Standard
70
0
3
<>
41
0.18
42
0.0625
44
0.18
140
0.18
147
0.09
73
0
74
0
77
1
271
2
275
0
278
52
280
0
340
11
0
ENDTAB
0
TABLE
2
VIEW
5
206
100
AcDbSymbolTable
0
ENDTAB
0
TABLE
2
UCS
5
207
100
AcDbSymbolTable
0
ENDTAB
0
TABLE
2
APPID
5
208
100
AcDbSymbolTable
0
APPID
5
12
100
AcDbSymbolTableRecord
100
AcDbRegAppTableRecord
2
ACAD
70
0
0
APPID
5
143
100
AcDbSymbolTableRecord
100
AcDbRegAppTableRecord
2
ACAD_DSTYLE_DIMBREAK
70
0
0
APPID
5
1AC
100
AcDbSymbolTableRecord
100
AcDbRegAppTableRecord
2
ACAD_DSTYLE_DIM_LINETYPE
70
0
0
APPID
5
1AD
100
AcDbSymbolTableRecord
100
AcDbRegAppTableRecord
2
ACAD_DSTYLE_DIM_EXT1_LINETYPE
70
0
0
APPID
5
1AE
100
AcDbSymbolTableRecord
100
AcDbRegAppTableRecord
2
ACAD_DSTYLE_DIM_EXT2_LINETYPE
70
0
0
APPID
5
1E9
100
AcDbSymbolTableRecord
100
AcDbRegAppTableRecord
2
ACAD_MLEADERVER
70
0
0
ENDTAB
0
TABLE
2
BLOCK_RECORD
5
209
100
AcDbSymbolTable
0
BLOCK_RECORD
5
1F
100
AcDbSymbolTableRecord
100
AcDbBlockTableRecord
2
*Model_Space
340
0
70
0
0
BLOCK_RECORD
5
1B
100
AcDbSymbolTableRecord
100
AcDbBlockTableRecord
2
*Paper_Space
340
0
70
0
0
BLOCK_RECORD
5
23
100
AcDbSymbolTableRecord
100
AcDbBlockTableRecord
2
*Paper_Space0
340
0
70
0
0
BLOCK_RECORD
5
138
100
AcDbSymbolTableRecord
100
AcDbBlockTableRecord
2
LABLE3D_1
340
0
70
0
0
BLOCK_RECORD
5
148
100
AcDbSymbolTableRecord
100
AcDbBlockTableRecord
2
*D2
340
0
70
0
0
BLOCK_RECORD
5
154
100
AcDbSymbolTableRecord
100
AcDbBlockTableRecord
2
_U0
340
0
70
0
0
BLOCK_RECORD
5
160
100
AcDbSymbolTableRecord
100
AcDbBlockTableRecord
2
*D4
340
0
70
0
0
BLOCK_RECORD
5
16C
100
AcDbSymbolTableRecord
100
AcDbBlockTableRecord
2
_U1
340
0
70
0
0
BLOCK_RECORD
5
178
100
AcDbSymbolTableRecord
100
AcDbBlockTableRecord
2
*D6
340
0
70
0
0
BLOCK_RECORD
5
185
100
AcDbSymbolTableRecord
100
AcDbBlockTableRecord
2
_U2
340
0
70
0
0
ENDTAB
0
ENDSEC
0
SECTION
2
BLOCKS
0
BLOCK
5
20
100
AcDbEntity
8
0
100
AcDbBlockBegin
2
*Model_Space
70
0
10
0
20
0
30
0
3
*Model_Space
0
ENDBLK
5
21
100
AcDbEntity
8
0
100
AcDbBlockEnd
0
BLOCK
5
1C
100
AcDbEntity
8
0
100
AcDbBlockBegin
2
*Paper_Space
70
0
10
0
20
0
30
0
3
*Paper_Space
0
ENDBLK
5
1D
100
AcDbEntity
8
0
100
AcDbBlockEnd
0
BLOCK
5
24
100
AcDbEntity
8
0
100
AcDbBlockBegin
2
*Paper_Space0
70
0
10
0
20
0
30
0
3
*Paper_Space0
0
ENDBLK
5
25
100
AcDbEntity
8
0
100
AcDbBlockEnd
0
BLOCK
5
13F
100
AcDbEntity
8
0
100
AcDbBlockBegin
2
LABLE3D_1
70
0
10
62.601373
20
-20.8724
30
0
3
LABLE3D_1
0
MTEXT
5
13D
100
AcDbEntity
8
1
62
256
6
ByLayer
370
18
48
1
60
0
100
AcDbMText
10
64.260373
20
-22.987286
30
0
210
0
220
0
230
1
1
\W0.7607;R2.50
40
3
41
0
44
1.084337
50
0
71
7
72
5
7
iso_b_vert
0
ENDBLK
5
140
100
AcDbEntity
8
0
100
AcDbBlockEnd
0
BLOCK
5
149
100
AcDbEntity
8
0
100
AcDbBlockBegin
2
*D2
70
1
10
0
20
0
30
0
3
*D2
0
LINE
5
14B
100
AcDbEntity
8
0
62
256
6
ByLayer
370
-2
48
1
60
0
100
AcDbLine
10
-36
20
2.4125
30
0
11
-36
21
-41.207732
31
0
39
0
210
0
220
0
230
1
0
LINE
5
14C
100
AcDbEntity
8
0
62
256
6
ByLayer
370
-2
48
1
60
0
100
AcDbLine
10
54
20
0.9125
30
0
11
54
21
-41.207732
31
0
39
0
210
0
220
0
230
1
0
LINE
5
14D
100
AcDbEntity
8
0
62
256
6
ByLayer
370
-2
48
1
60
0
100
AcDbLine
10
-32.5
20
-39.207732
30
0
11
50.5
21
-39.207732
31
0
39
0
210
0
220
0
230
1
0
SOLID
5
14E
100
AcDbEntity
8
0
62
256
6
ByLayer
370
-1
48
1
60
0
100
AcDbTrace
10
-32.5
20
-38.624398
30
0
11
-32.5
21
-39.791065
31
0
12
-36
22
-39.207732
32
0
13
-36
23
-39.207732
33
0
39
0
210
0
220
0
230
1
0
SOLID
5
14F
100
AcDbEntity
8
0
62
256
6
ByLayer
370
-1
48
1
60
0
100
AcDbTrace
10
50.5
20
-39.791065
30
0
11
50.5
21
-38.624398
31
0
12
54
22
-39.207732
32
0
13
54
23
-39.207732
33
0
39
0
210
0
220
0
230
1
0
MTEXT
5
150
100
AcDbEntity
8
0
62
256
6
ByLayer
370
18
48
1
60
0
100
AcDbMText
10
9
20
-33.207732
30
0
210
0
220
0
230
1
1
\A1;90
40
3
41
0
44
1
50
0
71
5
72
5
7
iso_b_vert
0
POINT
5
151
100
AcDbEntity
8
Defpoints
62
0
6
ByLayer
370
-1
48
1
60
0
100
AcDbPoint
10
-36
20
4
30
0
39
0
210
0
220
0
230
1
50
360
0
POINT
5
152
100
AcDbEntity
8
Defpoints
62
0
6
ByLayer
370
-1
48
1
60
0
100
AcDbPoint
10
54
20
2.5
30
0
39
0
210
0
220
0
230
1
50
360
0
POINT
5
153
100
AcDbEntity
8
Defpoints
62
0
6
ByLayer
370
-1
48
1
60
0
100
AcDbPoint
10
54
20
-39.207732
30
0
39
0
210
0
220
0
230
1
50
360
0
ENDBLK
5
14A
100
AcDbEntity
8
0
100
AcDbBlockEnd
0
BLOCK
5
15B
100
AcDbEntity
8
0
100
AcDbBlockBegin
2
_U0
70
0
10
0
20
0
30
0
3
_U0
0
MTEXT
5
155
100
AcDbEntity
8
SK2
62
256
6
ByLayer
370
18
48
1
60
0
100
AcDbMText
10
7.367172
20
-38.322617
30
0
210
0
220
0
230
1
1
\W0.6740;90
40
3
41
0
44
1.084337
50
0
71
7
72
5
7
iso_b_vert
0
LINE
5
156
100
AcDbEntity
8
SK2
62
256
6
ByLayer
370
13
48
1
60
0
100
AcDbLine
10
-36
20
2.4125
30
0
11
-36
21
-41.207732
31
0
39
0
210
0
220
0
230
1
0
LINE
5
157
100
AcDbEntity
8
SK2
62
256
6
ByLayer
370
13
48
1
60
0
100
AcDbLine
10
54
20
0.9125
30
0
11
54
21
-41.207732
31
0
39
0
210
0
220
0
230
1
0
LINE
5
158
100
AcDbEntity
8
SK2
62
256
6
ByLayer
370
13
48
1
60
0
100
AcDbLine
10
-36
20
-39.207732
30
0
11
54
21
-39.207732
31
0
39
0
210
0
220
0
230
1
0
SOLID
5
159
100
AcDbEntity
8
SK2
62
256
6
ByLayer
370
18
48
1
60
0
100
AcDbTrace
10
-36
20
-39.207732
30
0
11
-32.500002
21
-38.746948
31
0
12
-32.499998
22
-39.668516
32
0
13
-32.499998
23
-39.668516
33
0
39
0
210
0
220
0
230
1
0
SOLID
5
15A
100
AcDbEntity
8
SK2
62
256
6
ByLayer
370
18
48
1
60
0
100
AcDbTrace
10
54
20
-39.207732
30
0
11
50.500002
21
-39.668516
31
0
12
50.499998
22
-38.746948
32
0
13
50.499998
23
-38.746948
33
0
39
0
210
0
220
0
230
1
0
ENDBLK
5
15C
100
AcDbEntity
8
0
100
AcDbBlockEnd
0
BLOCK
5
161
100
AcDbEntity
8
0
100
AcDbBlockBegin
2
*D4
70
1
10
0
20
0
30
0
3
*D4
0
LINE
5
163
100
AcDbEntity
8
0
62
256
6
ByLayer
370
-2
48
1
60
0
100
AcDbLine
10
54
20
-4.0875
30
0
11
54
21
-29.207732
31
0
39
0
210
0
220
0
230
1
0
LINE
5
164
100
AcDbEntity
8
0
62
256
6
ByLayer
370
-2
48
1
60
0
100
AcDbLine
10
0
20
-5.5875
30
0
11
0
21
-29.207732
31
0
39
0
210
0
220
0
230
1
0
LINE
5
165
100
AcDbEntity
8
0
62
256
6
ByLayer
370
-2
48
1
60
0
100
AcDbLine
10
50.5
20
-27.207732
30
0
11
3.5
21
-27.207732
31
0
39
0
210
0
220
0
230
1
0
SOLID
5
166
100
AcDbEntity
8
0
62
256
6
ByLayer
370
-1
48
1
60
0
100
AcDbTrace
10
50.5
20
-27.791065
30
0
11
50.5
21
-26.624398
31
0
12
54
22
-27.207732
32
0
13
54
23
-27.207732
33
0
39
0
210
0
220
0
230
1
0
SOLID
5
167
100
AcDbEntity
8
0
62
256
6
ByLayer
370
-1
48
1
60
0
100
AcDbTrace
10
3.5
20
-26.624398
30
0
11
3.5
21
-27.791065
31
0
12
0
22
-27.207732
32
0
13
0
23
-27.207732
33
0
39
0
210
0
220
0
230
1
0
MTEXT
5
168
100
AcDbEntity
8
0
62
256
6
ByLayer
370
18
48
1
60
0
100
AcDbMText
10
27
20
-21.207732
30
0
210
0
220
0
230
1
1
\A1;54
40
3
41
0
44
1
50
0
71
5
72
5
7
iso_b_vert
0
POINT
5
169
100
AcDbEntity
8
Defpoints
62
0
6
ByLayer
370
-1
48
1
60
0
100
AcDbPoint
10
54
20
-2.5
30
0
39
0
210
0
220
0
230
1
50
360
0
POINT
5
16A
100
AcDbEntity
8
Defpoints
62
0
6
ByLayer
370
-1
48
1
60
0
100
AcDbPoint
10
0
20
-4
30
0
39
0
210
0
220
0
230
1
50
360
0
POINT
5
16B
100
AcDbEntity
8
Defpoints
62
0
6
ByLayer
370
-1
48
1
60
0
100
AcDbPoint
10
0
20
-27.207732
30
0
39
0
210
0
220
0
230
1
50
360
0
ENDBLK
5
162
100
AcDbEntity
8
0
100
AcDbBlockEnd
0
BLOCK
5
173
100
AcDbEntity
8
0
100
AcDbBlockBegin
2
_U1
70
0
10
0
20
0
30
0
3
_U1
0
MTEXT
5
16D
100
AcDbEntity
8
SK2
62
256
6
ByLayer
370
18
48
1
60
0
100
AcDbMText
10
25.209229
20
-26.322617
30
0
210
0
220
0
230
1
1
\W0.7167;54
40
3
41
0
44
1.084337
50
0
71
7
72
5
7
iso_b_vert
0
LINE
5
16E
100
AcDbEntity
8
SK2
62
256
6
ByLayer
370
13
48
1
60
0
100
AcDbLine
10
54
20
-4.0875
30
0
11
54
21
-29.207732
31
0
39
0
210
0
220
0
230
1
0
LINE
5
16F
100
AcDbEntity
8
SK2
62
256
6
ByLayer
370
13
48
1
60
0
100
AcDbLine
10
0
20
-5.5875
30
0
11
0
21
-29.207732
31
0
39
0
210
0
220
0
230
1
0
LINE
5
170
100
AcDbEntity
8
SK2
62
256
6
ByLayer
370
13
48
1
60
0
100
AcDbLine
10
54
20
-27.207732
30
0
11
0
21
-27.207732
31
0
39
0
210
0
220
0
230
1
0
SOLID
5
171
100
AcDbEntity
8
SK2
62
256
6
ByLayer
370
18
48
1
60
0
100
AcDbTrace
10
54
20
-27.207732
30
0
11
50.500002
21
-27.668516
31
0
12
50.499998
22
-26.746948
32
0
13
50.499998
23
-26.746948
33
0
39
0
210
0
220
0
230
1
0
SOLID
5
172
100
AcDbEntity
8
SK2
62
256
6
ByLayer
370
18
48
1
60
0
100
AcDbTrace
10
0
20
-27.207732
30
0
11
3.499998
21
-26.746948
31
0
12
3.500002
22
-27.668516
32
0
13
3.500002
23
-27.668516
33
0
39
0
210
0
220
0
230
1
0
ENDBLK
5
174
100
AcDbEntity
8
0
100
AcDbBlockEnd
0
BLOCK
5
179
100
AcDbEntity
8
0
100
AcDbBlockBegin
2
*D6
70
1
10
0
20
0
30
0
3
*D6
0
LINE
5
17B
100
AcDbEntity
8
0
62
256
6
ByLayer
370
-2
48
1
60
0
100
AcDbLine
10
54
20
-4.0875
30
0
11
54
21
-15.207732
31
0
39
0
210
0
220
0
230
1
0
LINE
5
17C
100
AcDbEntity
8
0
62
256
6
ByLayer
370
-2
48
1
60
0
100
AcDbLine
10
41.5
20
-5.5875
30
0
11
41.5
21
-15.207732
31
0
39
0
210
0
220
0
230
1
0
LINE
5
17D
100
AcDbEntity
8
0
62
256
6
ByLayer
370
-2
48
1
60
0
100
AcDbLine
10
57.5
20
-13.207732
30
0
11
61
21
-13.207732
31
0
39
0
210
0
220
0
230
1
0
LINE
5
17E
100
AcDbEntity
8
0
62
256
6
ByLayer
370
-2
48
1
60
0
100
AcDbLine
10
38
20
-13.207732
30
0
11
34.5
21
-13.207732
31
0
39
0
210
0
220
0
230
1
0
SOLID
5
17F
100
AcDbEntity
8
0
62
256
6
ByLayer
370
-1
48
1
60
0
100
AcDbTrace
10
57.5
20
-12.624398
30
0
11
57.5
21
-13.791065
31
0
12
54
22
-13.207732
32
0
13
54
23
-13.207732
33
0
39
0
210
0
220
0
230
1
0
SOLID
5
180
100
AcDbEntity
8
0
62
256
6
ByLayer
370
-1
48
1
60
0
100
AcDbTrace
10
38
20
-13.791065
30
0
11
38
21
-12.624398
31
0
12
41.5
22
-13.207732
32
0
13
41.5
23
-13.207732
33
0
39
0
210
0
220
0
230
1
0
MTEXT
5
181
100
AcDbEntity
8
0
62
256
6
ByLayer
370
18
48
1
60
0
100
AcDbMText
10
47.75
20
-7.207732
30
0
210
0
220
0
230
1
1
\A1;12.5
40
3
41
0
44
1
50
0
71
5
72
5
7
iso_b_vert
0
POINT
5
182
100
AcDbEntity
8
Defpoints
62
0
6
ByLayer
370
-1
48
1
60
0
100
AcDbPoint
10
54
20
-2.5
30
0
39
0
210
0
220
0
230
1
50
360
0
POINT
5
183
100
AcDbEntity
8
Defpoints
62
0
6
ByLayer
370
-1
48
1
60
0
100
AcDbPoint
10
41.5
20
-4
30
0
39
0
210
0
220
0
230
1
50
360
0
POINT
5
184
100
AcDbEntity
8
Defpoints
62
0
6
ByLayer
370
-1
48
1
60
0
100
AcDbPoint
10
41.5
20
-13.207732
30
0
39
0
210
0
220
0
230
1
50
360
0
ENDBLK
5
17A
100
AcDbEntity
8
0
100
AcDbBlockEnd
0
BLOCK
5
18C
100
AcDbEntity
8
0
100
AcDbBlockBegin
2
_U2
70
0
10
0
20
0
30
0
3
_U2
0
MTEXT
5
186
100
AcDbEntity
8
SK2
62
256
6
ByLayer
370
18
48
1
60
0
100
AcDbMText
10
43.642572
20
-12.322617
30
0
210
0
220
0
230
1
1
\W0.6864;12.50
40
3
41
0
44
1.084337
50
0
71
7
72
5
7
iso_b_vert
0
LINE
5
187
100
AcDbEntity
8
SK2
62
256
6
ByLayer
370
13
48
1
60
0
100
AcDbLine
10
54
20
-4.0875
30
0
11
54
21
-15.207732
31
0
39
0
210
0
220
0
230
1
0
LINE
5
188
100
AcDbEntity
8
SK2
62
256
6
ByLayer
370
13
48
1
60
0
100
AcDbLine
10
41.5
20
-5.5875
30
0
11
41.5
21
-15.207732
31
0
39
0
210
0
220
0
230
1
0
LINE
5
189
100
AcDbEntity
8
SK2
62
256
6
ByLayer
370
13
48
1
60
0
100
AcDbLine
10
54
20
-13.207732
30
0
11
41.5
21
-13.207732
31
0
39
0
210
0
220
0
230
1
0
SOLID
5
18A
100
AcDbEntity
8
SK2
62
256
6
ByLayer
370
18
48
1
60
0
100
AcDbTrace
10
54
20
-13.207732
30
0
11
50.500002
21
-13.668516
31
0
12
50.499998
22
-12.746948
32
0
13
50.499998
23
-12.746948
33
0
39
0
210
0
220
0
230
1
0
SOLID
5
18B
100
AcDbEntity
8
SK2
62
256
6
ByLayer
370
18
48
1
60
0
100
AcDbTrace
10
41.5
20
-13.207732
30
0
11
44.999998
21
-12.746948
31
0
12
45.000002
22
-13.668516
32
0
13
45.000002
23
-13.668516
33
0
39
0
210
0
220
0
230
1
0
ENDBLK
5
18D
100
AcDbEntity
8
0
100
AcDbBlockEnd
0
ENDSEC
0
SECTION
2
ENTITIES
0
ARC
5
B2
100
AcDbEntity
8
1
62
256
6
ByLayer
370
18
48
1
60
0
100
AcDbCircle
39
0
10
51.5
20
0
30
0
40
2.5
210
0
220
0
230
1
100
AcDbArc
50
296.441911
51
347.234118
0
ARC
5
B3
100
AcDbEntity
8
1
62
256
6
ByLayer
370
18
48
1
60
0
100
AcDbCircle
39
0
10
51.5
20
0
30
0
40
2.5
210
0
220
0
230
1
100
AcDbArc
50
347.234118
51
349.134356
0
ARC
5
B4
100
AcDbEntity
8
1
62
256
6
ByLayer
370
18
48
1
60
0
100
AcDbCircle
39
0
10
51.5
20
0
30
0
40
2.5
210
0
220
0
230
1
100
AcDbArc
50
349.134356
51
10.858719
0
ARC
5
B5
100
AcDbEntity
8
1
62
256
6
ByLayer
370
18
48
1
60
0
100
AcDbCircle
39
0
10
51.5
20
0
30
0
40
2.5
210
0
220
0
230
1
100
AcDbArc
50
10.858719
51
12.717107
0
ARC
5
B6
100
AcDbEntity
8
1
62
256
6
ByLayer
370
18
48
1
60
0
100
AcDbCircle
39
0
10
51.5
20
0
30
0
40
2.5
210
0
220
0
230
1
100
AcDbArc
50
12.717107
51
63.568177
0
ARC
5
B7
100
AcDbEntity
8
SK2
62
256
6
ByLayer
370
13
48
1
60
0
100
AcDbCircle
39
0
10
101.5
20
0
30
0
40
93.6584261802458
210
0
220
0
230
1
100
AcDbArc
50
177.137595
51
184.578374
0
ARC
5
B8
100
AcDbEntity
8
SK2
62
256
6
ByLayer
370
13
48
1
60
0
100
AcDbCircle
39
0
10
101.5
20
0
30
0
40
93.6584261802458
210
0
220
0
230
1
100
AcDbArc
50
169.563838
51
177.137595
0
POINT
5
70
100
AcDbEntity
8
81
62
256
6
ByLayer
370
18
48
1
60
0
100
AcDbPoint
10
54
20
0
30
0
39
0
210
0
220
0
230
1
50
360
0
POINT
5
72
100
AcDbEntity
8
1
62
256
6
ByLayer
370
18
48
1
60
0
100
AcDbPoint
10
-36
20
0
30
0
39
0
210
0
220
0
230
1
50
360
0
POINT
5
74
100
AcDbEntity
8
80
62
256
6
ByLayer
370
18
48
1
60
0
100
AcDbPoint
10
0
20
0
30
0
39
0
210
0
220
0
230
1
50
360
0
POINT
5
76
100
AcDbEntity
8
1
62
256
6
ByLayer
370
18
48
1
60
1
100
AcDbPoint
10
-36
20
4
30
0
39
0
210
0
220
0
230
1
50
360
0
POINT
5
77
100
AcDbEntity
8
1
62
256
6
ByLayer
370
18
48
1
60
1
100
AcDbPoint
10
54
20
2.5
30
0
39
0
210
0
220
0
230
1
50
360
0
POINT
5
78
100
AcDbEntity
8
1
62
256
6
ByLayer
370
18
48
1
60
1
100
AcDbPoint
10
54
20
-2.5
30
0
39
0
210
0
220
0
230
1
50
360
0
POINT
5
79
100
AcDbEntity
8
1
62
256
6
ByLayer
370
18
48
1
60
1
100
AcDbPoint
10
0
20
-4
30
0
39
0
210
0
220
0
230
1
50
360
0
POINT
5
7A
100
AcDbEntity
8
1
62
256
6
ByLayer
370
18
48
1
60
1
100
AcDbPoint
10
54
20
-2.5
30
0
39
0
210
0
220
0
230
1
50
360
0
POINT
5
7B
100
AcDbEntity
8
1
62
256
6
ByLayer
370
18
48
1
60
1
100
AcDbPoint
10
41.5
20
-4
30
0
39
0
210
0
220
0
230
1
50
360
0
POINT
5
7C
100
AcDbEntity
8
1
62
256
6
ByLayer
370
18
48
1
60
1
100
AcDbPoint
10
53.7
20
-2.3724
30
0
39
0
210
0
220
0
230
1
50
360
0
SPLINE
5
B9
100
AcDbEntity
8
1
62
256
6
ByLayer
370
18
48
1
60
0
100
AcDbSpline
70
4
71
3
72
8
73
4
40
0
40
0
40
0
40
0
40
1
40
1
40
1
40
1
41
1
10
41.5
20
-2.85494476487975
30
0
41
1
10
41.5
20
-2.90538430837091
30
0
41
1
10
41.5
20
-2.95582385186208
30
0
41
1
10
41.4999999999999
20
-3.00626339535322
30
0
0
SPLINE
5
BA
100
AcDbEntity
8
1
62
256
6
ByLayer
370
18
48
1
60
0
100
AcDbSpline
70
4
71
3
72
30
73
26
40
0
40
0
40
0
40
0
40
0.250000000000059
40
0.250000000000059
40
0.375000000000089
40
0.375000000000089
40
0.500000000000118
40
0.500000000000118
40
0.625000000000148
40
0.625000000000148
40
0.687500000000163
40
0.687500000000163
40
0.750000000000178
40
0.750000000000178
40
0.812500000000193
40
0.812500000000193
40
0.843750000000161
40
0.843750000000161
40
0.87500000000013
40
0.87500000000013
40
0.906250000000098
40
0.906250000000098
40
0.937500000000066
40
0.937500000000066
40
1
40
1
40
1
40
1
41
1
10
52.5486821592586
20
2.04525165580287
30
0
41
1
10
52.5679897767275
20
2.0477648530572
30
0
41
1
10
52.5873821901303
20
2.0508803039923
30
0
41
1
10
52.616569732063
20
2.05715060715917
30
0
41
1
10
52.6263152348994
20
2.05951088375903
30
0
41
1
10
52.6458299834021
20
2.06501220729041
30
0
41
1
10
52.655599430608
20
2.06814569664053
30
0
41
1
10
52.6751465948646
20
2.07565426426348
30
0
41
1
10
52.685016878847
20
2.08006396758063
30
0
41
1
10
52.6992236402634
20
2.08811722829677
30
0
41
1
10
52.7038696838306
20
2.09104715989898
30
0
41
1
10
52.7128981195794
20
2.09761848123597
30
0
41
1
10
52.7172616077503
20
2.10125139404113
30
0
41
1
10
52.7253031311603
20
2.10932911982636
30
0
41
1
10
52.7290547013061
20
2.11386764777092
30
0
41
1
10
52.7337101645655
20
2.12127601538532
30
0
41
1
10
52.7351054472009
20
2.12384683650379
30
0
41
1
10
52.7375359214008
20
2.12922166809707
30
0
41
1
10
52.7385611889263
20
2.13201823833228
30
0
41
1
10
52.7401474361288
20
2.13762275810495
30
0
41
1
10
52.7407219836267
20
2.14045814120683
30
0
41
1
10
52.7414452277019
20
2.14619323748116
30
0
41
1
10
52.7415895153375
20
2.1490980611573
30
0
41
1
10
52.7414269722778
20
2.1575997034206
30
0
41
1
10
52.7405300801398
20
2.1631528575177
30
0
41
1
10
52.7391253266578
20
2.16838147339277
30
0
0
SPLINE
5
BB
100
AcDbEntity
8
1
62
256
6
ByLayer
370
18
48
1
60
0
100
AcDbSpline
70
4
71
3
72
16
73
12
40
0
40
0
40
0
40
0
40
0.2056134023101
40
0.2056134023101
40
0.30842010346515
40
0.30842010346515
40
0.4112268046202
40
0.4112268046202
40
0.822453609240399
40
0.822453609240399
40
1
40
1
40
1
40
1
41
1
10
52.9534235654398
20
1.66256657746109
30
1E-16
41
1
10
52.9269180310907
20
1.67705069540247
30
1E-16
41
1
10
52.9010865583008
20
1.69076502092801
30
0
41
1
10
52.8632642543972
20
1.71023788150393
30
0
41
1
10
52.8508107754929
20
1.71654597113905
30
0
41
1
10
52.8261964293148
20
1.72880806332657
30
-1E-16
41
1
10
52.8140374609386
20
1.73476080115782
30
0
41
1
10
52.7542604731768
20
1.76351844672502
30
0
41
1
10
52.709388547329
20
1.78345813076703
30
0
41
1
10
52.6482680642777
20
1.80863106465506
30
0
41
1
10
52.6302458576578
20
1.81578212644098
30
0
41
1
10
52.6125905807799
20
1.82254072122845
30
0
0
SPLINE
5
BC
100
AcDbEntity
8
1
62
256
6
ByLayer
370
18
48
1
60
0
100
AcDbSpline
70
4
71
3
72
8
73
4
40
0
40
0
40
0
40
0
40
1
40
1
40
1
40
1
41
0.991600966743067
10
41.5
20
-2.81963417542043
30
0
41
0.994308075473931
10
41.5
20
-2.83136333257276
30
0
41
0.997107753226242
10
41.5
20
-2.84313473700533
30
0
41
1
10
41.5
20
-2.85494476487975
30
0
0
SPLINE
5
BD
100
AcDbEntity
8
1
62
256
6
ByLayer
370
18
48
1
60
0
100
AcDbSpline
70
4
71
3
72
10
73
6
40
0
40
0
40
0
40
0
40
0.322322470057117
40
0.322322470057117
40
1
40
1
40
1
40
1
41
1
10
41.5
20
-2.62578217541989
30
0
41
1
10
41.5
20
-2.64608852934455
30
0
41
1
10
41.5
20
-2.6666285342051
30
0
41
1
10
41.5
20
-2.73088062168964
30
0
41
1
10
41.5
20
-2.7751707193446
30
0
41
1
10
41.5
20
-2.81963417542045
30
0
0
SPLINE
5
BE
100
AcDbEntity
8
1
62
256
6
ByLayer
370
18
48
1
60
0
100
AcDbSpline
70
4
71
3
72
32
73
28
40
0
40
0
40
0
40
0
40
0.125000000000027
40
0.125000000000027
40
0.187500000000033
40
0.187500000000033
40
0.250000000000039
40
0.250000000000039
40
0.375000000000019
40
0.375000000000019
40
0.499999999999999
40
0.499999999999999
40
0.624999999999979
40
0.624999999999979
40
0.68749999999997
40
0.68749999999997
40
0.74999999999996
40
0.74999999999996
40
0.81249999999995
40
0.81249999999995
40
0.87499999999994
40
0.87499999999994
40
0.906249999999983
40
0.906249999999983
40
0.937500000000025
40
0.937500000000025
40
1
40
1
40
1
40
1
41
1
10
52.4143618480891
20
0.760426328953997
30
0
41
1
10
52.4135670707111
20
0.772817299527844
30
0
41
1
10
52.4139938156638
20
0.785277126775867
30
-1E-16
41
1
10
52.4161535198098
20
0.80420195426251
30
-1E-16
41
1
10
52.4171279615707
20
0.81054917301941
30
1E-16
41
1
10
52.4195486658635
20
0.82334168796794
30
1E-16
41
1
10
52.4210040606602
20
0.829817674387783
30
1E-16
41
1
10
52.4259354034209
20
0.849055269921337
30
0
41
1
10
52.4299739840826
20
0.861706387481178
30
0
41
1
10
52.4392205647456
20
0.886775878112928
30
-1E-16
41
1
10
52.4444782948128
20
0.899289347480931
30
-1E-16
41
1
10
52.4556796173092
20
0.923256921286367
30
1E-16
41
1
10
52.4616399770727
20
0.934805412968416
30
0
41
1
10
52.471267507735
20
0.951397103282119
30
0
41
1
10
52.4746102427451
20
0.956827192276791
30
0
41
1
10
52.4815448986208
20
0.967248498613941
30
0
41
1
10
52.4851287868873
20
0.972236201434725
30
-1E-16
41
1
10
52.4926936153314
20
0.981633095598198
30
-1E-16
41
1
10
52.4966957344839
20
0.986067241338731
30
-1E-16
41
1
10
52.5052227031593
20
0.993845570509194
30
-1E-16
41
1
10
52.5097932543261
20
0.99724922276036
30
1E-16
41
1
10
52.5173693418745
20
1.00095108824138
30
1E-16
41
1
10
52.5199800086739
20
1.00192896111187
30
1E-16
41
1
10
52.5254364657947
20
1.00325575398361
30
1E-16
41
1
10
52.5283100557233
20
1.00359604281715
30
1E-16
41
1
10
52.5369390371785
20
1.00349279797643
30
1E-16
41
1
10
52.5429166946047
20
1.00189737372122
30
1E-16
41
1
10
52.5486821592622
20
0.999186715155673
30
1E-16
0
SPLINE
5
BF
100
AcDbEntity
8
1
62
256
6
ByLayer
370
18
48
1
60
0
100
AcDbSpline
70
4
71
3
72
30
73
26
40
0
40
0
40
0
40
0
40
0.250000000000051
40
0.250000000000051
40
0.375000000000141
40
0.375000000000141
40
0.500000000000231
40
0.500000000000231
40
0.625000000000321
40
0.625000000000321
40
0.687500000000306
40
0.687500000000306
40
0.750000000000291
40
0.750000000000291
40
0.812500000000276
40
0.812500000000276
40
0.843750000000231
40
0.843750000000231
40
0.875000000000185
40
0.875000000000185
40
0.906250000000139
40
0.906250000000139
40
0.937500000000093
40
0.937500000000093
40
1
40
1
40
1
40
1
41
1
10
52.5486821592589
20
0.999186715157265
30
1E-16
41
1
10
52.5679897767264
20
0.990109153891495
30
-1E-16
41
1
10
52.5873821901279
20
0.981619425210994
30
-1E-16
41
1
10
52.6165697320586
20
0.970260669264206
30
-1E-16
41
1
10
52.6263152348945
20
0.966706560253698
30
0
41
1
10
52.6458299833959
20
0.96023515795423
30
0
41
1
10
52.6555994306011
20
0.957312327422557
30
0
41
1
10
52.6751465948563
20
0.952436484116447
30
0
41
1
10
52.685016878838
20
0.950460845308697
30
0
41
1
10
52.6992236402539
20
0.948896147829657
30
0
41
1
10
52.703869683821
20
0.948606259518868
30
0
41
1
10
52.7128981195696
20
0.948689783594432
30
0
41
1
10
52.7172616077405
20
0.949066887321493
30
0
41
1
10
52.725303131151
20
0.95077089210281
30
0
41
1
10
52.7290547012973
20
0.952127672809183
30
0
41
1
10
52.733710164558
20
0.955103057790296
30
0
41
1
10
52.7351054471938
20
0.95624967895526
30
0
41
1
10
52.7375359213948
20
0.958899234867317
30
0
41
1
10
52.7385611889209
20
0.960401904383076
30
0
41
1
10
52.740147436125
20
0.963657070211667
30
0
41
1
10
52.740721983624
20
0.965422489230008
30
0
41
1
10
52.7414452277007
20
0.969223188032345
30
-1E-16
41
1
10
52.7415895153371
20
0.97126452460725
30
-1E-16
41
1
10
52.7414269722797
20
0.977548040107621
30
-1E-16
41
1
10
52.740530080143
20
0.982070538272268
30
-1E-16
41
1
10
52.7391253266622
20
0.986632251532626
30
-1E-16
0
SPLINE
5
C0
100
AcDbEntity
8
1
62
256
6
ByLayer
370
18
48
1
60
0
100
AcDbSpline
70
4
71
3
72
18
73
14
40
0
40
0
40
0
40
0
40
0.125
40
0.125
40
0.1875
40
0.1875
40
0.25
40
0.25
40
0.5
40
0.5
40
0.75
40
0.75
40
1
40
1
40
1
40
1
41
1
10
52.9534235654396
20
-0.18364244069835
30
0
41
1
10
52.9269180310753
20
-0.148855670271217
30
-1E-16
41
1
10
52.9010865582708
20
-0.113578317906104
30
-2E-16
41
1
10
52.8632642543466
20
-0.059991414929641
30
1E-16
41
1
10
52.8508107754354
20
-0.0420174426052142
30
1E-16
41
1
10
52.8261964292442
20
-0.0058576031992459
30
0
41
1
10
52.8140374608618
20
0.01232656273271
30
0
41
1
10
52.75426047307
20
0.103245087115027
30
0
41
1
10
52.7093885472008
20
0.176377436023898
30
0
41
1
10
52.6240097250985
20
0.323173553026493
30
-1E-16
41
1
10
52.5835137224058
20
0.396841694205364
30
0
41
1
10
52.5058664031184
20
0.544608336271921
30
1E-16
41
1
10
52.4687196528752
20
0.618708894874999
30
1E-16
41
1
10
52.4328414030746
20
0.692992942037421
30
-1E-16
0
SPLINE
5
C1
100
AcDbEntity
8
1
62
256
6
ByLayer
370
18
48
1
60
0
100
AcDbSpline
70
4
71
3
72
10
73
6
40
0
40
0
40
0
40
0
40
0.5
40
0.5
40
1
40
1
40
1
40
1
41
1
10
52.4328414030746
20
0.692992942037392
30
-1E-16
41
1
10
52.4276273827912
20
0.703788299413645
30
-1E-16
41
1
10
52.4234145444636
20
0.714777554547879
30
1E-16
41
1
10
52.4171546713919
20
0.737218033905094
30
0
41
1
10
52.415100911943
20
0.748667274410991
30
0
41
1
10
52.4143618480891
20
0.760426328953969
30
0
0
SPLINE
5
C2
100
AcDbEntity
8
1
62
256
6
ByLayer
370
18
48
1
60
0
100
AcDbSpline
70
4
71
3
72
22
73
18
40
0
40
0
40
0
40
0
40
0.168272261595538
40
0.168272261595538
40
0.252408392393315
40
0.252408392393315
40
0.336544523191092
40
0.336544523191092
40
0.504816784786645
40
0.504816784786645
40
0.673089046382197
40
0.673089046382197
40
0.84136130797775
40
0.84136130797775
40
0.925497438775526
40
0.925497438775526
40
1
40
1
40
1
40
1
41
1
10
52.4143618480891
20
-1.13109016698206
30
0
41
1
10
52.4135670707111
20
-1.12027003919971
30
0
41
1
10
52.4139938156638
20
-1.1098952205889
30
-1E-16
41
1
10
52.4161535198098
20
-1.09520669072569
30
-1E-16
41
1
10
52.4171279615706
20
-1.09045593207873
30
-1E-16
41
1
10
52.4195486658633
20
-1.08127936508927
30
1E-16
41
1
10
52.42100406066
20
-1.07683478714853
30
1E-16
41
1
10
52.4259354034206
20
-1.0642747648358
30
1E-16
41
1
10
52.4299739840823
20
-1.05686642698262
30
0
41
1
10
52.4392205647451
20
-1.0439903586896
30
0
41
1
10
52.4444782948122
20
-1.03849794478205
30
0
41
1
10
52.4556796173084
20
-1.02985185976431
30
0
41
1
10
52.4616399770718
20
-1.02663211832498
30
0
41
1
10
52.471267507734
20
-1.023504177219
30
0
41
1
10
52.4746102427441
20
-1.02274617850725
30
0
41
1
10
52.4811478902878
20
-1.02192261666872
30
0
41
1
10
52.4843096060851
20
-1.02178465520464
30
0
41
1
10
52.4876196292764
20
-1.0219238018571
30
0
0
SPLINE
5
C3
100
AcDbEntity
8
1
62
256
6
ByLayer
370
18
48
1
60
0
100
AcDbSpline
70
4
71
3
72
18
73
14
40
0
40
0
40
0
40
0
40
0.124999999999993
40
0.124999999999993
40
0.187499999999989
40
0.187499999999989
40
0.249999999999985
40
0.249999999999985
40
0.49999999999999
40
0.49999999999999
40
0.749999999999995
40
0.749999999999995
40
1
40
1
40
1
40
1
41
1
10
52.9534235654297
20
-1.84620901815205
30
0
41
1
10
52.9269180310812
20
-1.82590636568634
30
-1E-16
41
1
10
52.9010865582919
20
-1.8043433388674
30
0
41
1
10
52.8632642543891
20
-1.77022929649863
30
0
41
1
10
52.8508107754849
20
-1.75856341382001
30
0
41
1
10
52.8261964293074
20
-1.73466566662327
30
0
41
1
10
52.8140374609315
20
-1.72243423853322
30
0
41
1
10
52.754260473171
20
-1.66027335977157
30
-1E-16
41
1
10
52.709388547324
20
-1.607080694948
30
0
41
1
10
52.6240097252622
20
-1.49544849258206
30
0
41
1
10
52.5835137225879
20
-1.4370023319197
30
0
41
1
10
52.5058664033349
20
-1.31613880923433
30
0
41
1
10
52.4687196531078
20
-1.25371914797344
30
1E-16
41
1
10
52.4328414033224
20
-1.18983642844918
30
-1E-16
0
SPLINE
5
C4
100
AcDbEntity
8
1
62
256
6
ByLayer
370
18
48
1
60
0
100
AcDbSpline
70
4
71
3
72
10
73
6
40
0
40
0
40
0
40
0
40
0.5
40
0.5
40
1
40
1
40
1
40
1
41
1
10
52.4328414030746
20
-1.18983642800782
30
-1E-16
41
1
10
52.4276273828271
20
-1.18055264757976
30
1E-16
41
1
10
52.4234145443621
20
-1.17100932374501
30
1E-16
41
1
10
52.4171546713638
20
-1.15142587831556
30
0
41
1
10
52.4151009119379
20
-1.141386463549
30
0
41
1
10
52.4143618480891
20
-1.13109016698206
30
0
0
SPLINE
5
C5
100
AcDbEntity
8
1
62
256
6
ByLayer
370
18
48
1
60
0
100
AcDbSpline
70
4
71
3
72
38
73
34
40
0
40
0
40
0
40
0
40
0.124999999999985
40
0.124999999999985
40
0.24999999999997
40
0.24999999999997
40
0.31249999999997
40
0.31249999999997
40
0.374999999999971
40
0.374999999999971
40
0.437499999999972
40
0.437499999999972
40
0.499999999999973
40
0.499999999999973
40
0.531249999999973
40
0.531249999999973
40
0.562499999999973
40
0.562499999999973
40
0.624999999999972
40
0.624999999999972
40
0.68749999999997
40
0.68749999999997
40
0.718749999999973
40
0.718749999999973
40
0.749999999999976
40
0.749999999999976
40
0.781249999999979
40
0.781249999999979
40
0.812499999999982
40
0.812499999999982
40
0.874999999999988
40
0.874999999999988
40
1
40
1
40
1
40
1
41
1
10
53.9358213817721
20
-0.480426387256756
30
0
41
1
10
53.9398244620039
20
-0.466082868593901
30
0
41
1
10
53.9435843737631
20
-0.452515225500406
30
0
41
1
10
53.9506248413603
20
-0.427067409197747
30
0
41
1
10
53.9539063183686
20
-0.415179515569008
30
0
41
1
10
53.9584390153465
20
-0.398970991899233
30
0
41
1
10
53.9598919884974
20
-0.393816060350957
30
0
41
1
10
53.9626139953235
20
-0.384320305784996
30
0
41
1
10
53.9638794899363
20
-0.37999072592433
30
0
41
1
10
53.9662018734434
20
-0.372332539746992
30
0
41
1
10
53.9672664201361
20
-0.368980955078456
30
0
41
1
10
53.9691111076311
20
-0.363680344031337
30
0
41
1
10
53.969889341609
20
-0.361731745106113
30
0
41
1
10
53.9708095253313
20
-0.360102995505997
30
0
41
1
10
53.9710748026807
20
-0.359777214765302
30
0
41
1
10
53.9715123574222
20
-0.359628293736108
30
0
41
1
10
53.9716850530147
20
-0.359810754553479
30
0
41
1
10
53.9720328174833
20
-0.361206753766282
30
0
41
1
10
53.9720458874224
20
-0.363252140768253
30
0
41
1
10
53.9715705599498
20
-0.369931546270749
30
0
41
1
10
53.9710940878853
20
-0.374408716856522
30
0
41
1
10
53.9700274504139
20
-0.382801035366271
30
0
41
1
10
53.969611595102
20
-0.385884653341776
30
0
41
1
10
53.9686916306049
20
-0.392394381877949
30
0
41
1
10
53.9681847377137
20
-0.395843220416083
30
0
41
1
10
53.9670825165259
20
-0.403098325687608
30
0
41
1
10
53.9664832230264
20
-0.406928492451215
30
0
41
1
10
53.9652279926217
20
-0.414745287309159
30
0
41
1
10
53.9645704103747
20
-0.418744045851668
30
0
41
1
10
53.9625152832843
20
-0.430976947168489
30
0
41
1
10
53.9610265641613
20
-0.439497524015707
30
0
41
1
10
53.9563212807477
20
-0.465487272427879
30
0
41
1
10
53.9529530766081
20
-0.482933938001139
30
0
41
1
10
53.9493666123867
20
-0.500450814732488
30
0
0
SPLINE
5
C6
100
AcDbEntity
8
1
62
256
6
ByLayer
370
18
48
1
60
0
100
AcDbSpline
70
4
71
3
72
35
73
31
40
0
40
0
40
0
40
0
40
0.124999999999994
40
0.124999999999994
40
0.249999999999989
40
0.249999999999989
40
0.281249999999989
40
0.281249999999989
40
0.31249999999999
40
0.374999999999991
40
0.374999999999991
40
0.500000000000002
40
0.500000000000002
40
0.53125
40
0.53125
40
0.562499999999997
40
0.562499999999997
40
0.624999999999992
40
0.624999999999992
40
0.749999999999969
40
0.749999999999969
40
0.781249999999966
40
0.781249999999966
40
0.812499999999964
40
0.874999999999971
40
0.937499999999979
40
0.937499999999979
40
0.96874999999999
40
0.96874999999999
40
1
40
1
40
1
40
1
41
1
10
53.9493666123848
20
-0.500450814742123
30
0
41
1
10
53.9326272856054
20
-0.582208419352639
30
0
41
1
10
53.9118955731074
20
-0.662502884320986
30
0
41
1
10
53.8625628967037
20
-0.820089018308096
30
0
41
1
10
53.8339644972879
20
-0.897383849538443
30
0
41
1
10
53.7931583348045
20
-0.991959015147188
30
0
41
1
10
53.7847310154797
20
-1.01079576102296
30
0
41
1
10
53.7674800574678
20
-1.04800618188457
30
0
41
1
10
53.7409777672443
20
-1.10320422491657
30
0
41
1
10
53.7126349246363
20
-1.15654008437923
30
0
41
1
10
53.6535676027452
20
-1.26065807874133
30
0
41
1
10
53.6110274412202
20
-1.32668574919475
30
0
41
1
10
53.5539772681679
20
-1.40446337233104
30
0
41
1
10
53.5423722589291
20
-1.41977985700598
30
0
41
1
10
53.5187688042597
20
-1.44991585393032
30
0
41
1
10
53.5067837122705
20
-1.46471550045331
30
0
41
1
10
53.4705878041813
20
-1.50793080435773
30
0
41
1
10
53.4460306361204
20
-1.53530229487515
30
0
41
1
10
53.3711958587821
20
-1.61302644546046
30
0
41
1
10
53.3197697327394
20
-1.65902427462709
30
0
41
1
10
53.2537219885138
20
-1.70859541896778
30
0
41
1
10
53.2404057420182
20
-1.71811953791919
30
0
41
1
10
53.2139043491861
20
-1.7361412886589
30
0
41
1
10
53.1742388916413
20
-1.76171959659411
30
0
41
1
10
53.1085868761675
20
-1.79718766513403
30
0
41
1
10
53.0565704174357
20
-1.81800329264274
30
0
41
1
10
53.0177383076
20
-1.83075512821856
30
0
41
1
10
53.0048244198468
20
-1.8345281311025
30
0
41
1
10
52.9790552425943
20
-1.84110488483844
30
0
41
1
10
52.9661646787443
20
-1.84391370273269
30
0
41
1
10
52.9534235654288
20
-1.84620901814324
30
0
0
SPLINE
5
C7
100
AcDbEntity
8
1
62
256
6
ByLayer
370
18
48
1
60
0
100
AcDbSpline
70
4
71
3
72
22
73
18
40
0
40
0
40
0
40
0
40
0.124999999999974
40
0.124999999999974
40
0.187499999999961
40
0.187499999999961
40
0.249999999999947
40
0.249999999999947
40
0.374999999999973
40
0.374999999999973
40
0.437499999999986
40
0.437499999999986
40
0.499999999999999
40
0.499999999999999
40
0.75
40
0.75
40
1
40
1
40
1
40
1
41
1
10
52.9534235654223
20
-1.84620901814296
30
0
41
1
10
52.9325796955018
20
-1.86468348541212
30
0
41
1
10
52.9108090392912
20
-1.88209028227067
30
0
41
1
10
52.8769000242933
20
-1.90674919958505
30
0
41
1
10
52.8653870380568
20
-1.91472560002438
30
0
41
1
10
52.8419524772244
20
-1.93020328420934
30
0
41
1
10
52.8301073180161
20
-1.93765195493728
30
0
41
1
10
52.7945488646945
20
-1.95898311269894
30
0
41
1
10
52.7706668793185
20
-1.97195368925557
30
0
41
1
10
52.7345677264826
20
-1.98977870383743
30
0
41
1
10
52.7224884872181
20
-1.99544700283238
30
0
41
1
10
52.6982341626767
20
-2.00626275356308
30
0
41
1
10
52.6860342661168
20
-2.01141998738694
30
0
41
1
10
52.6250650188853
20
-2.03583995162154
30
0
41
1
10
52.5772612211163
20
-2.05074950420757
30
0
41
1
10
52.4825044079312
20
-2.0734788126799
30
0
41
1
10
52.4355668034939
20
-2.08125775344405
30
0
41
1
10
52.3887543036104
20
-2.08590150038819
30
0
0
SPLINE
5
C8
100
AcDbEntity
8
1
62
256
6
ByLayer
370
18
48
1
60
0
100
AcDbSpline
70
4
71
3
72
32
73
28
40
0
40
0
40
0
40
0
40
0.0625000000000107
40
0.0625000000000107
40
0.0937500000000163
40
0.0937500000000163
40
0.125000000000022
40
0.125000000000022
40
0.250000000000018
40
0.250000000000018
40
0.312500000000016
40
0.312500000000016
40
0.343750000000015
40
0.343750000000015
40
0.375000000000014
40
0.375000000000014
40
0.50000000000001
40
0.50000000000001
40
0.625000000000006
40
0.625000000000006
40
0.750000000000002
40
0.750000000000002
40
0.8125
40
0.8125
40
0.874999999999998
40
0.874999999999998
40
1
40
1
40
1
40
1
41
1
10
52.7391253266544
20
2.16838147339081
30
0
41
1
10
52.7718518335851
20
2.14837093552606
30
0
41
1
10
52.8045275258573
20
2.1269738459734
30
0
41
1
10
52.853536295373
20
2.09270314115437
30
0
41
1
10
52.8698955470495
20
2.0808988474258
30
0
41
1
10
52.9025154082395
20
2.05662494064936
30
0
41
1
10
52.9187215479353
20
2.04419701800234
30
0
41
1
10
52.9992623314523
20
1.98061647086735
30
0
41
1
10
53.0621415258173
20
1.92516284169585
30
0
41
1
10
53.1545428644968
20
1.83509740812428
30
0
41
1
10
53.1850229760088
20
1.80392307617583
30
0
41
1
10
53.2302968463733
20
1.7553861189852
30
0
41
1
10
53.2453132327047
20
1.7389110267886
30
0
41
1
10
53.2751994051917
20
1.70535658809405
30
0
41
1
10
53.2900859258048
20
1.68825566152023
30
0
41
1
10
53.3634459564931
20
1.60205837224365
30
0
41
1
10
53.4192850141214
20
1.53029982290479
30
0
41
1
10
53.5255781858771
20
1.38140905639761
30
0
41
1
10
53.5760444523394
20
1.30428016065753
30
0
41
1
10
53.6712853589731
20
1.14436867438525
30
0
41
1
10
53.714684803019
20
1.06390816179757
30
0
41
1
10
53.7735336618185
20
0.942436077699426
30
0
41
1
10
53.792108890034
20
0.901806678487588
30
0
41
1
10
53.8271387664594
20
0.820206174228701
30
0
41
1
10
53.843602618303
20
0.779207696436316
30
0
41
1
10
53.8896356706865
20
0.655735890825298
30
0
41
1
10
53.9151869766615
20
0.574638624729459
30
0
41
1
10
53.9358213817542
20
0.494129541973422
30
0
0
SPLINE
5
C9
100
AcDbEntity
8
1
62
256
6
ByLayer
370
18
48
1
60
0
100
AcDbSpline
70
4
71
3
72
38
73
34
40
0
40
0
40
0
40
0
40
0.125000000000001
40
0.125000000000001
40
0.250000000000002
40
0.250000000000002
40
0.312500000000002
40
0.312500000000002
40
0.375000000000003
40
0.375000000000003
40
0.437500000000003
40
0.437500000000003
40
0.500000000000004
40
0.500000000000004
40
0.531250000000001
40
0.531250000000001
40
0.562499999999997
40
0.562499999999997
40
0.624999999999989
40
0.624999999999989
40
0.687499999999981
40
0.687499999999981
40
0.718749999999976
40
0.718749999999976
40
0.749999999999972
40
0.749999999999972
40
0.781249999999968
40
0.781249999999968
40
0.812499999999964
40
0.812499999999964
40
0.87499999999997
40
0.87499999999997
40
1
40
1
40
1
40
1
41
1
10
53.9358213817687
20
0.494129541962565
30
0
41
1
10
53.9398244620006
20
0.478510757886966
30
0
41
1
10
53.9435843737618
20
0.462530461014893
30
0
41
1
10
53.9506248413592
20
0.429795838975053
30
0
41
1
10
53.9539063183677
20
0.413044740816076
30
0
41
1
10
53.9584390153456
20
0.387191185462342
30
0
41
1
10
53.9598919884966
20
0.378401753925516
30
0
41
1
10
53.9626139953228
20
0.360779234128984
30
0
41
1
10
53.9638794899356
20
0.351976747786409
30
0
41
1
10
53.9662018734429
20
0.334395443856181
30
0
41
1
10
53.9672664201356
20
0.325545860546214
30
0
41
1
10
53.9691111076308
20
0.308251129153973
30
0
41
1
10
53.9698893416087
20
0.299844864104756
30
0
41
1
10
53.9708095253311
20
0.287681394065857
30
0
41
1
10
53.9710748026806
20
0.283701724335572
30
0
41
1
10
53.9715123574222
20
0.275915785109277
30
0
41
1
10
53.9716850530145
20
0.272084343286252
30
0
41
1
10
53.9720328174832
20
0.261212067489964
30
0
41
1
10
53.9720458874223
20
0.254693461594968
30
0
41
1
10
53.9715705599499
20
0.243517441143609
30
0
41
1
10
53.9710940878854
20
0.239112282615878
30
0
41
1
10
53.970027450414
20
0.234247997180006
30
0
41
1
10
53.9696115951022
20
0.232926149764722
30
0
41
1
10
53.9686916306051
20
0.230927795721556
30
0
41
1
10
53.9681847377139
20
0.230235995145762
30
0
41
1
10
53.9670825165262
20
0.22941908943352
30
0
41
1
10
53.9664832230267
20
0.229296950446553
30
0
41
1
10
53.9652279926219
20
0.229576527868773
30
0
41
1
10
53.9645704103749
20
0.229973418448907
30
0
41
1
10
53.9625152832845
20
0.231838820126683
30
0
41
1
10
53.9610265641614
20
0.233994066863858
30
0
41
1
10
53.9563212807478
20
0.24257765514426
30
0
41
1
10
53.9529530766083
20
0.250870549882507
30
0
41
1
10
53.9493666123869
20
0.260908811272571
30
0
0
SPLINE
5
CA
100
AcDbEntity
8
1
62
256
6
ByLayer
370
18
48
1
60
0
100
AcDbSpline
70
4
71
3
72
35
73
31
40
0
40
0
40
0
40
0
40
0.125000000000024
40
0.125000000000024
40
0.250000000000047
40
0.250000000000047
40
0.281250000000053
40
0.281250000000053
40
0.312500000000059
40
0.375000000000071
40
0.375000000000071
40
0.500000000000094
40
0.500000000000094
40
0.531250000000097
40
0.531250000000097
40
0.5625000000001
40
0.5625000000001
40
0.625000000000095
40
0.625000000000095
40
0.750000000000085
40
0.750000000000085
40
0.781250000000076
40
0.781250000000076
40
0.812500000000067
40
0.875000000000049
40
0.937500000000031
40
0.937500000000031
40
0.968750000000016
40
0.968750000000016
40
1
40
1
40
1
40
1
41
1
10
53.9493666123848
20
0.260908811278597
30
0
41
1
10
53.9326272856055
20
0.307761010921979
30
0
41
1
10
53.9118955731077
20
0.35583987282638
30
1E-16
41
1
10
53.8625628967045
20
0.455102885524468
30
0
41
1
10
53.8339644972889
20
0.506273393928495
30
0
41
1
10
53.793158334806
20
0.572887580547558
30
0
41
1
10
53.7847310154813
20
0.586363175336288
30
0
41
1
10
53.7674800574697
20
0.613424651270947
30
0
41
1
10
53.7409777672465
20
0.654235508421635
30
0
41
1
10
53.7126349246388
20
0.695766705347836
30
0
41
1
10
53.6535676027482
20
0.780003802065579
30
-1E-16
41
1
10
53.6110274412238
20
0.83771118950304
30
0
41
1
10
53.553977268172
20
0.912770202801767
30
1E-16
41
1
10
53.5423722589334
20
0.927928642145503
30
0
41
1
10
53.5187688042642
20
0.958566026248832
30
0
41
1
10
53.5067837122752
20
0.97402719438216
30
-1E-16
41
1
10
53.4705878041864
20
1.02047970335036
30
1E-16
41
1
10
53.4460306361258
20
1.05167937494448
30
0
41
1
10
53.3711958587881
20
1.14611897126719
30
0
41
1
10
53.3197697327459
20
1.21019789019704
30
1E-16
41
1
10
53.253721988521
20
1.2921400602331
30
1E-16
41
1
10
53.2404057420255
20
1.30864185853397
30
0
41
1
10
53.2139043491936
20
1.34145548362906
30
0
41
1
10
53.1742388916489
20
1.39052683201604
30
1E-16
41
1
10
53.1085868761757
20
1.47160099845686
30
1E-16
41
1
10
53.0565704174442
20
1.53572664854013
30
0
41
1
10
53.0177383076088
20
1.58353511966323
30
1E-16
41
1
10
53.0048244198556
20
1.59942358985549
30
0
41
1
10
52.9790552426032
20
1.63110181414666
30
0
41
1
10
52.9661646787534
20
1.64693480729755
30
-1E-16
41
1
10
52.9534235654378
20
1.66256657745023
30
1E-16
0
SPLINE
5
CB
100
AcDbEntity
8
1
62
256
6
ByLayer
370
18
48
1
60
0
100
AcDbSpline
70
4
71
3
72
22
73
18
40
0
40
0
40
0
40
0
40
0.124999999999957
40
0.124999999999957
40
0.18749999999996
40
0.18749999999996
40
0.249999999999964
40
0.249999999999964
40
0.37499999999997
40
0.37499999999997
40
0.437499999999973
40
0.437499999999973
40
0.499999999999977
40
0.499999999999977
40
0.749999999999988
40
0.749999999999988
40
1
40
1
40
1
40
1
41
1
10
52.9534235654245
20
1.66256657747073
30
1E-16
41
1
10
52.9325796955039
20
1.66793671990786
30
1E-16
41
1
10
52.9108090392933
20
1.67493989504789
30
1E-16
41
1
10
52.8769000242953
20
1.68753184295505
30
0
41
1
10
52.8653870380589
20
1.69207837661068
30
0
41
1
10
52.8419524772263
20
1.70182276755335
30
0
41
1
10
52.8301073180181
20
1.70699003138907
30
0
41
1
10
52.7945488646963
20
1.72311962907855
30
0
41
1
10
52.7706668793203
20
1.73476538138792
30
-1E-16
41
1
10
52.7345677264841
20
1.75325119518712
30
-1E-16
41
1
10
52.7224884872196
20
1.75958397708652
30
1E-16
41
1
10
52.6982341626781
20
1.77254999337055
30
1E-16
41
1
10
52.6860342661182
20
1.77919704485612
30
1E-16
41
1
10
52.6250650188864
20
1.81293918427807
30
0
41
1
10
52.5772612211171
20
1.84100099840239
30
-1E-16
41
1
10
52.4825044079315
20
1.89774065524756
30
0
41
1
10
52.4355668034941
20
1.92643886120689
30
-1E-16
41
1
10
52.3887543036104
20
1.95500778726358
30
1E-16
0
SPLINE
5
CC
100
AcDbEntity
8
1
62
256
6
ByLayer
370
18
48
1
60
0
100
AcDbSpline
70
4
71
3
72
8
73
4
40
0
40
0
40
0
40
0
40
1
40
1
40
1
40
1
41
1
10
52.3887543036103
20
1.95500778726392
30
1E-16
41
1
10
52.3613720875184
20
1.97169504302428
30
0
41
1
10
52.3341614902935
20
1.98821711804507
30
0
41
1
10
52.3071246985845
20
2.00450037025462
30
0
0
SPLINE
5
CD
100
AcDbEntity
8
1
62
256
6
ByLayer
370
18
48
1
60
0
100
AcDbSpline
70
4
71
3
72
16
73
12
40
0
40
0
40
0
40
0
40
0.25
40
0.25
40
0.500000000000001
40
0.500000000000001
40
0.625000000000001
40
0.625000000000001
40
0.750000000000001
40
0.750000000000001
40
1
40
1
40
1
40
1
41
1
10
52.3071246985926
20
2.00450037024973
30
0
41
1
10
52.2469929154015
20
2.04071388404111
30
1E-16
41
1
10
52.1884119657617
20
2.07529453175252
30
0
41
1
10
52.0731508918329
20
2.14079269124716
30
1E-16
41
1
10
52.0164806284688
20
2.1717112366793
30
0
41
1
10
51.9323196905173
20
2.21503025500212
30
-1E-16
41
1
10
51.9044090628113
20
2.22895989046259
30
1E-16
41
1
10
51.8487937613425
20
2.25574179268861
30
0
41
1
10
51.8210542932367
20
2.26860812621189
30
0
41
1
10
51.7385868966347
20
2.30526161477238
30
0
41
1
10
51.6844466051372
20
2.32718819494653
30
0
41
1
10
51.6308398906074
20
2.34649001251404
30
1E-16
0
SPLINE
5
CE
100
AcDbEntity
8
1
62
256
6
ByLayer
370
18
48
1
60
0
100
AcDbSpline
70
4
71
3
72
16
73
12
40
0
40
0
40
0
40
0
40
0.25
40
0.25
40
0.5
40
0.5
40
0.75
40
0.75
40
0.875
40
0.875
40
1
40
1
40
1
40
1
41
1
10
51.6308398906074
20
1.91677492528581
30
0
41
1
10
51.6892145881403
20
1.88081582086508
30
0
41
1
10
51.7472434828499
20
1.84245328773815
30
-1E-16
41
1
10
51.8631012050385
20
1.7613989995904
30
1E-16
41
1
10
51.9209285856204
20
1.71870616480206
30
0
41
1
10
52.0368717551389
20
1.62935198456438
30
0
41
1
10
52.0949853469463
20
1.58268972829413
30
1E-16
41
1
10
52.1827754908905
20
1.50992541604555
30
0
41
1
10
52.2121038972654
20
1.48523934455409
30
1E-16
41
1
10
52.2706471669998
20
1.43531829792312
30
0
41
1
10
52.2999061901199
20
1.41004682505675
30
0
41
1
10
52.329186240186
20
1.38449207102838
30
1E-16
0
SPLINE
5
CF
100
AcDbEntity
8
1
62
256
6
ByLayer
370
18
48
1
60
0
100
AcDbSpline
70
4
71
3
72
12
73
8
40
0
40
0
40
0
40
0
40
0.500000000000026
40
0.500000000000026
40
0.750000000000013
40
0.750000000000013
40
1
40
1
40
1
40
1
41
1
10
52.3291862401861
20
1.38449207102835
30
1E-16
41
1
10
52.4006039783947
20
1.32215116496854
30
0
41
1
10
52.4707588416402
20
1.25808118398112
30
-1E-16
41
1
10
52.5735451417083
20
1.15886777898777
30
-1E-16
41
1
10
52.6073947357798
20
1.12527359234224
30
0
41
1
10
52.6741010915184
20
1.05687675526033
30
0
41
1
10
52.7070115365245
20
1.02201487294121
30
0
41
1
10
52.7391253266661
20
0.98663225153507
30
-1E-16
0
SPLINE
5
D0
100
AcDbEntity
8
1
62
256
6
ByLayer
370
18
48
1
60
0
100
AcDbSpline
70
4
71
3
72
32
73
28
40
0
40
0
40
0
40
0
40
0.0625000000000213
40
0.0625000000000213
40
0.0937500000000253
40
0.0937500000000253
40
0.125000000000029
40
0.125000000000029
40
0.250000000000059
40
0.250000000000059
40
0.312500000000073
40
0.312500000000073
40
0.343750000000074
40
0.343750000000074
40
0.375000000000075
40
0.375000000000075
40
0.500000000000057
40
0.500000000000057
40
0.625000000000039
40
0.625000000000039
40
0.75000000000002
40
0.75000000000002
40
0.812500000000015
40
0.812500000000015
40
0.87500000000001
40
0.87500000000001
40
1
40
1
40
1
40
1
41
1
10
52.7391253266658
20
0.986632251536321
30
-1E-16
41
1
10
52.7718518335961
20
0.95480748645636
30
0
41
1
10
52.8045275258683
20
0.922945374661595
30
1E-16
41
1
10
52.8535362953835
20
0.875172963174407
30
-1E-16
41
1
10
52.86989554706
20
0.859228778559981
30
0
41
1
10
52.9025154082496
20
0.827465322285775
30
1E-16
41
1
10
52.9187215479454
20
0.811699116986375
30
1E-16
41
1
10
52.9992623314616
20
0.733477635730594
30
1E-16
41
1
10
53.0621415258259
20
0.67285248459811
30
0
41
1
10
53.1545428645045
20
0.585485954522568
30
0
41
1
10
53.1850229760163
20
0.556962577212801
30
0
41
1
10
53.2302968463805
20
0.51517335521433
30
-1E-16
41
1
10
53.2453132327116
20
0.501408965241239
30
-1E-16
41
1
10
53.2751994051984
20
0.474227338768145
30
0
41
1
10
53.2900859258113
20
0.460795707239726
30
0
41
1
10
53.3634459564988
20
0.395187492729946
30
0
41
1
10
53.4192850141266
20
0.34716655741704
30
1E-16
41
1
10
53.5255781858812
20
0.260157210054729
30
1E-16
41
1
10
53.576044452343
20
0.221213621836427
30
-1E-16
41
1
10
53.6712853589758
20
0.152680747155046
30
1E-16
41
1
10
53.7146848030211
20
0.124139405430128
30
-1E-16
41
1
10
53.7735336618199
20
0.0888122959819952
30
0
41
1
10
53.7921088900354
20
0.0782953895269713
30
0
41
1
10
53.8271387664605
20
0.0595809535845433
30
0
41
1
10
53.8436026183037
20
0.0513742367852501
30
0
41
1
10
53.8896356706869
20
0.0299593479296902
30
0
41
1
10
53.9151869766616
20
0.0202766784913422
30
0
41
1
10
53.9358213817541
20
0.0137031547048139
30
0
0
SPLINE
5
D1
100
AcDbEntity
8
1
62
256
6
ByLayer
370
18
48
1
60
0
100
AcDbSpline
70
4
71
3
72
38
73
34
40
0
40
0
40
0
40
0
40
0.124999999999998
40
0.124999999999998
40
0.249999999999997
40
0.249999999999997
40
0.312499999999996
40
0.312499999999996
40
0.374999999999995
40
0.374999999999995
40
0.437499999999994
40
0.437499999999994
40
0.499999999999993
40
0.499999999999993
40
0.531249999999989
40
0.531249999999989
40
0.562499999999985
40
0.562499999999985
40
0.624999999999979
40
0.624999999999979
40
0.687499999999973
40
0.687499999999973
40
0.718749999999974
40
0.718749999999974
40
0.749999999999975
40
0.749999999999975
40
0.781249999999976
40
0.781249999999976
40
0.812499999999977
40
0.812499999999977
40
0.874999999999979
40
0.874999999999979
40
1
40
1
40
1
40
1
41
1
10
53.935821381771
20
0.0137031547033928
30
0
41
1
10
53.9398244620028
20
0.0124278892908762
30
0
41
1
10
53.9435843737626
20
0.0100152355091438
30
0
41
1
10
53.95062484136
20
0.0027284297723895
30
0
41
1
10
53.9539063183683
20
-0.0021347747576499
30
0
41
1
10
53.9584390153462
20
-0.0117798064412682
30
0
41
1
10
53.9598919884971
20
-0.015414306429733
30
0
41
1
10
53.9626139953232
20
-0.0235410716599063
30
0
41
1
10
53.9638794899361
20
-0.0280139781416153
30
0
41
1
10
53.9662018734432
20
-0.0379370958941365
30
0
41
1
10
53.9672664201359
20
-0.0434350945354254
30
0
41
1
10
53.969111107631
20
-0.0554292148800357
30
0
41
1
10
53.9698893416088
20
-0.0618868810038293
30
0
41
1
10
53.9708095253312
20
-0.0724216014422723
30
0
41
1
10
53.9710748026807
20
-0.0760754904317196
30
0
41
1
10
53.9715123574222
20
-0.0837125086285937
30
0
41
1
10
53.9716850530146
20
-0.0877264112688749
30
0
41
1
10
53.9720328174833
20
-0.0999946862775687
30
0
41
1
10
53.9720458874224
20
-0.108558679174308
30
0
41
1
10
53.9715705599498
20
-0.12641410512768
30
0
41
1
10
53.9710940878853
20
-0.135296434240956
30
0
41
1
10
53.970027450414
20
-0.148553038186293
30
0
41
1
10
53.9696115951022
20
-0.152958503576968
30
0
41
1
10
53.968691630605
20
-0.161466586156138
30
0
41
1
10
53.9681847377138
20
-0.165607225270037
30
0
41
1
10
53.9670825165261
20
-0.17367923625369
30
0
41
1
10
53.9664832230266
20
-0.177631542004264
30
0
41
1
10
53.9652279926217
20
-0.185168759439932
30
0
41
1
10
53.9645704103748
20
-0.188770627402278
30
0
41
1
10
53.9625152832845
20
-0.199138127041294
30
0
41
1
10
53.9610265641614
20
-0.205503457151451
30
0
41
1
10
53.9563212807477
20
-0.22290961728325
30
0
41
1
10
53.9529530766084
20
-0.232063388117183
30
0
41
1
10
53.9493666123871
20
-0.239542003458695
30
0
0
SPLINE
5
D2
100
AcDbEntity
8
1
62
256
6
ByLayer
370
18
48
1
60
0
100
AcDbSpline
70
4
71
3
72
35
73
31
40
0
40
0
40
0
40
0
40
0.124999999999969
40
0.124999999999969
40
0.249999999999937
40
0.249999999999937
40
0.281249999999935
40
0.281249999999935
40
0.312499999999933
40
0.374999999999938
40
0.374999999999938
40
0.499999999999939
40
0.499999999999939
40
0.531249999999944
40
0.531249999999944
40
0.56249999999995
40
0.56249999999995
40
0.624999999999973
40
0.624999999999973
40
0.750000000000008
40
0.750000000000008
40
0.78125000000001
40
0.78125000000001
40
0.812500000000012
40
0.875000000000004
40
0.937499999999995
40
0.937499999999995
40
0.968749999999998
40
0.968749999999998
40
1
40
1
40
1
40
1
41
1
10
53.9493666123847
20
-0.239542003463526
30
0
41
1
10
53.9326272856055
20
-0.274447408430035
30
0
41
1
10
53.9118955731077
20
-0.306663011493413
30
1E-16
41
1
10
53.8625628967045
20
-0.364986132781354
30
0
41
1
10
53.8339644972888
20
-0.391110455607077
30
0
41
1
10
53.7931583348059
20
-0.419071434596162
30
0
41
1
10
53.7847310154813
20
-0.424432585683036
30
0
41
1
10
53.7674800574696
20
-0.434581530609819
30
0
41
1
10
53.7409777672464
20
-0.448968716490839
30
-1E-16
41
1
10
53.7126349246387
20
-0.460773379026932
30
0
41
1
10
53.6535676027482
20
-0.480654276670748
30
0
41
1
10
53.6110274412236
20
-0.488974559686426
30
0
41
1
10
53.5539772681719
20
-0.491693169523671
30
0
41
1
10
53.5423722589334
20
-0.491851214854847
30
0
41
1
10
53.5187688042641
20
-0.491349827675748
30
0
41
1
10
53.506783712275
20
-0.49068830606538
30
0
41
1
10
53.4705878041863
20
-0.487451101001568
30
0
41
1
10
53.4460306361256
20
-0.483622919924841
30
0
41
1
10
53.3711958587879
20
-0.466907474187508
30
0
41
1
10
53.3197697327457
20
-0.448826384424393
30
-1E-16
41
1
10
53.2537219885208
20
-0.416455358729365
30
1E-16
41
1
10
53.2404057420254
20
-0.40947767937999
30
1E-16
41
1
10
53.2139043491934
20
-0.394685805024807
30
0
41
1
10
53.1742388916488
20
-0.371192764573351
30
0
41
1
10
53.1085865490502
20
-0.325587301068111
30
1E-16
41
1
10
53.0565704174439
20
-0.28227664409917
30
0
41
1
10
53.0177383076085
20
-0.247220008552461
30
-1E-16
41
1
10
53.0048244198554
20
-0.235104541244311
30
1E-16
41
1
10
52.979055242603
20
-0.210003070689453
30
0
41
1
10
52.9661646787532
20
-0.196978895433006
30
0
41
1
10
52.9534235654376
20
-0.183642440691102
30
0
0
SPLINE
5
D3
100
AcDbEntity
8
1
62
256
6
ByLayer
370
18
48
1
60
0
100
AcDbSpline
70
4
71
3
72
22
73
18
40
0
40
0
40
0
40
0
40
0.125000000000002
40
0.125000000000002
40
0.187500000000029
40
0.187500000000029
40
0.250000000000055
40
0.250000000000055
40
0.375000000000107
40
0.375000000000107
40
0.437500000000107
40
0.437500000000107
40
0.500000000000106
40
0.500000000000106
40
0.750000000000053
40
0.750000000000053
40
1
40
1
40
1
40
1
41
1
10
52.9534235654245
20
-0.183642440670326
30
0
41
1
10
52.932579695504
20
-0.196746765502525
30
0
41
1
10
52.9108090392933
20
-0.207150387221134
30
0
41
1
10
52.8769000242953
20
-0.219217356628548
30
1E-16
41
1
10
52.8653870380588
20
-0.222647223412309
30
1E-16
41
1
10
52.8419524772263
20
-0.22838051665471
30
1E-16
41
1
10
52.8301073180181
20
-0.230661923547018
30
1E-16
41
1
10
52.7945488646963
20
-0.235863483619369
30
1E-16
41
1
10
52.7706668793202
20
-0.237188307866774
30
1E-16
41
1
10
52.7345677264841
20
-0.236527508649573
30
1E-16
41
1
10
52.7224884872196
20
-0.235863025745147
30
1E-16
41
1
10
52.6982341626781
20
-0.233712760191935
30
1E-16
41
1
10
52.6860342661182
20
-0.232222942530285
30
1E-16
41
1
10
52.6250650188864
20
-0.222900767343162
30
1E-16
41
1
10
52.5772612211171
20
-0.209748505804924
30
0
41
1
10
52.4825044079315
20
-0.175738157432278
30
0
41
1
10
52.4355668034941
20
-0.154818892237131
30
-1E-16
41
1
10
52.3887543036104
20
-0.130893713124578
30
-1E-16
0
SPLINE
5
D4
100
AcDbEntity
8
1
62
256
6
ByLayer
370
18
48
1
60
0
100
AcDbSpline
70
4
71
3
72
8
73
4
40
0
40
0
40
0
40
0
40
1
40
1
40
1
40
1
41
1
10
52.3887543036103
20
-0.130893713125033
30
-1E-16
41
1
10
52.3613720875211
20
-0.116942224505408
30
-2E-16
41
1
10
52.3341614902989
20
-0.102102234769433
30
-2E-16
41
1
10
52.3071246985926
20
-0.0865087367412229
30
2E-16
0
SPLINE
5
D5
100
AcDbEntity
8
1
62
256
6
ByLayer
370
18
48
1
60
0
100
AcDbSpline
70
4
71
3
72
12
73
8
40
0
40
0
40
0
40
0
40
0.500000000000001
40
0.500000000000001
40
0.75
40
0.75
40
1
40
1
40
1
40
1
41
1
10
52.3291862401861
20
-0.961302848933855
30
0
41
1
10
52.4006039783926
20
-1.00476136518552
30
1E-16
41
1
10
52.470758841636
20
-1.04441650302275
30
-2E-16
41
1
10
52.5735451417012
20
-1.09913643171748
30
-1E-16
41
1
10
52.6073947357718
20
-1.11658587028523
30
0
41
1
10
52.6741010915085
20
-1.15012803323788
30
0
41
1
10
52.707011536514
20
-1.16624441178186
30
1E-16
41
1
10
52.7391253266547
20
-1.18174922184301
30
1E-16
0
SPLINE
5
D6
100
AcDbEntity
8
1
62
256
6
ByLayer
370
18
48
1
60
0
100
AcDbSpline
70
4
71
3
72
32
73
28
40
0
40
0
40
0
40
0
40
0.062499999999992
40
0.062499999999992
40
0.0937499999999881
40
0.0937499999999881
40
0.124999999999984
40
0.124999999999984
40
0.249999999999994
40
0.249999999999994
40
0.312499999999999
40
0.312499999999999
40
0.343750000000002
40
0.343750000000002
40
0.375000000000004
40
0.375000000000004
40
0.500000000000002
40
0.500000000000002
40
0.625
40
0.625
40
0.749999999999998
40
0.749999999999998
40
0.812499999999997
40
0.812499999999997
40
0.874999999999996
40
0.874999999999996
40
1
40
1
40
1
40
1
41
1
10
52.7391253266544
20
-1.1817492218434
30
1E-16
41
1
10
52.771851833585
20
-1.19356344905887
30
-1E-16
41
1
10
52.8045275258573
20
-1.20402847130114
30
-1E-16
41
1
10
52.8535362953729
20
-1.21753017796968
30
0
41
1
10
52.8698955470495
20
-1.22167006885564
30
0
41
1
10
52.9025154082395
20
-1.22915961835375
30
0
41
1
10
52.9187215479354
20
-1.23249790100627
30
0
41
1
10
52.9992623314523
20
-1.24713883512786
30
0
41
1
10
53.0621415258173
20
-1.2523103570895
30
0
41
1
10
53.1545428644968
20
-1.24961145359441
30
0
41
1
10
53.1850229760087
20
-1.24696049895604
30
0
41
1
10
53.2302968463734
20
-1.24021276376436
30
0
41
1
10
53.2453132327047
20
-1.23750206154099
30
0
41
1
10
53.2751994051917
20
-1.23112924931985
30
0
41
1
10
53.2900859258049
20
-1.22745995427462
30
0
41
1
10
53.3634459564931
20
-1.2068708795087
30
-1E-16
41
1
10
53.4192850141215
20
-1.18313326548341
30
1E-16
41
1
10
53.5255781858771
20
-1.12125184633968
30
0
41
1
10
53.5760444523393
20
-1.0830665388184
30
0
41
1
10
53.671285358973
20
-0.991687927228412
30
0
41
1
10
53.714684803019
20
-0.939768756366135
30
0
41
1
10
53.7735336618185
20
-0.85362378171655
30
0
41
1
10
53.792108890034
20
-0.823511288959907
30
0
41
1
10
53.8271387664595
20
-0.760625220643647
30
0
41
1
10
53.8436026183029
20
-0.727833459650668
30
0
41
1
10
53.8896356706865
20
-0.625776542895466
30
0
41
1
10
53.9151869766615
20
-0.55436194623806
30
0
41
1
10
53.9358213817542
20
-0.480426387268608
30
0
0
SPLINE
5
D7
100
AcDbEntity
8
1
62
256
6
ByLayer
370
18
48
1
60
0
100
AcDbSpline
70
4
71
3
72
16
73
12
40
0
40
0
40
0
40
0
40
0.250000000000009
40
0.250000000000009
40
0.500000000000018
40
0.500000000000018
40
0.625000000000023
40
0.625000000000023
40
0.750000000000027
40
0.750000000000027
40
1
40
1
40
1
40
1
41
1
10
52.3071246985925
20
-0.0865087367411661
30
2E-16
41
1
10
52.2469929154008
20
-0.05183071190703
30
1E-16
41
1
10
52.1884119657686
20
-0.0139208185962332
30
0
41
1
10
52.0731508918382
20
0.0665324163012713
30
-2E-16
41
1
10
52.0164806284735
20
0.109091689596738
30
2E-16
41
1
10
51.932319690521
20
0.175568081301066
30
0
41
1
10
51.9044090628146
20
0.198170327593431
30
0
41
1
10
51.8487937613451
20
0.244152114445484
30
-1E-16
41
1
10
51.8210542932389
20
0.267562845891376
30
-2E-16
41
1
10
51.7385868966359
20
0.338338903839372
30
1E-16
41
1
10
51.6844466051379
20
0.386369930209554
30
0
41
1
10
51.6308398906074
20
0.434902837511231
30
-1E-16
0
SPLINE
5
D8
100
AcDbEntity
8
1
62
256
6
ByLayer
370
18
48
1
60
0
100
AcDbSpline
70
4
71
3
72
8
73
4
40
0
40
0
40
0
40
0
40
1
40
1
40
1
40
1
41
1
10
52.3887543036103
20
-2.08590150038833
30
0
41
1
10
52.3613720875184
20
-2.0886372675277
30
0
41
1
10
52.3341614902935
20
-2.09031935281152
30
0
41
1
10
52.3071246985845
20
-2.09100910699112
30
0
0
SPLINE
5
D9
100
AcDbEntity
8
1
62
256
6
ByLayer
370
18
48
1
60
0
100
AcDbSpline
70
4
71
3
72
21
73
17
40
0
40
0
40
0
40
0
40
0.0150438163025318
40
0.0918223179897598
40
0.168600819676988
40
0.245379321364216
40
0.322157823051444
40
0.398936324738671
40
0.475714826425899
40
0.552493328113127
40
0.629271829800355
40
0.706050331487583
40
0.782828833174811
40
0.859607334862039
40
0.936385836549267
40
1
40
1
40
1
40
1
41
1
10
45.720336768813
20
2.61020834573762
30
0
41
1
10
45.7458495127754
20
2.61477461739591
30
0
41
1
10
45.9015705907292
20
2.6410171382594
30
0
41
1
10
46.1875000047531
20
2.67079091144925
30
0
41
1
10
46.5781249810088
20
2.66881830576793
30
0
41
1
10
46.9687500000189
20
2.62356814671773
30
0
41
1
10
47.3593750189141
20
2.53582223605011
30
1E-16
41
1
10
47.7499999990063
20
2.40634927627997
30
-1E-16
41
1
10
48.1406249850625
20
2.23739320792029
30
1E-16
41
1
10
48.5312500000057
20
2.03138794526518
30
-1E-16
41
1
10
48.9218750149132
20
1.79195746929273
30
0
41
1
10
49.3124999962798
20
1.52288085821061
30
0
41
1
10
49.7031249999689
20
1.22893726965094
30
-2E-16
41
1
10
50.0937500000149
20
0.91513318220268
30
1E-16
41
1
10
50.462049654942
20
0.605933686351705
30
0
41
1
10
50.7001409765993
20
0.401489016081058
30
-1E-16
41
1
10
50.8080239649033
20
0.308512790118556
30
-1E-16
0
SPLINE
5
DA
100
AcDbEntity
8
1
62
256
6
ByLayer
370
18
48
1
60
0
100
AcDbSpline
70
4
71
3
72
16
73
12
40
0
40
0
40
0
40
0
40
0.250000000000008
40
0.250000000000008
40
0.500000000000017
40
0.500000000000017
40
0.750000000000025
40
0.750000000000025
40
0.875000000000013
40
0.875000000000013
40
1
40
1
40
1
40
1
41
1
10
51.6308398906074
20
-0.426943222289793
30
1E-16
41
1
10
51.6892145881403
20
-0.478103175748288
30
-2E-16
41
1
10
51.7472434828499
20
-0.527985428846563
30
-1E-16
41
1
10
51.8631012050384
20
-0.624711252804417
30
1E-16
41
1
10
51.9209285856203
20
-0.671556501503318
30
-2E-16
41
1
10
52.0368717551389
20
-0.761638884932552
30
0
41
1
10
52.0949853469464
20
-0.804879137768637
30
1E-16
41
1
10
52.1827754908904
20
-0.866490761838094
30
-2E-16
41
1
10
52.2121038972654
20
-0.886455129417129
30
-1E-16
41
1
10
52.2706471669998
20
-0.924939054672166
30
-1E-16
41
1
10
52.2999061901199
20
-0.943490056967448
30
0
41
1
10
52.329186240186
20
-0.961302848933855
30
0
0
SPLINE
5
DB
100
AcDbEntity
8
1
62
256
6
ByLayer
370
18
48
1
60
0
100
AcDbSpline
70
4
71
3
72
22
73
18
40
0
40
0
40
0
40
0
40
0.0232847429852052
40
0.0936552428147538
40
0.164025742644302
40
0.234396242473851
40
0.3047667423034
40
0.375137242132948
40
0.445507741962497
40
0.515878241792045
40
0.586248741621594
40
0.656619241451142
40
0.726989741280691
40
0.79736024111024
40
0.867730740939788
40
0.938101240769337
40
1
40
1
40
1
40
1
41
1
10
44.1051219348569
20
1.76469340408519
30
0
41
1
10
44.1482062897134
20
1.75032788217837
30
0
41
1
10
44.3214989786061
20
1.69080208719848
30
0
41
1
10
44.6250000000097
20
1.57447957431168
30
1E-16
41
1
10
45.0156249999774
20
1.40320079140349
30
0
41
1
10
45.4062500000107
20
1.21222251332463
30
0
41
1
10
45.7968749999792
20
1.003958434933
30
1E-16
41
1
10
46.1875000047534
20
0.780911652949101
30
-1E-16
41
1
10
46.5781249810095
20
0.546044959971624
30
1E-16
41
1
10
46.9687500000169
20
0.302495877567083
30
0
41
1
10
47.3593750189145
20
0.0536943491024715
30
-1E-16
41
1
10
47.7499999990078
20
-0.196655648469772
30
0
41
1
10
48.140624985062
20
-0.444611492132452
30
-1E-16
41
1
10
48.5312500000045
20
-0.685915896673407
30
1E-16
41
1
10
48.9218750149136
20
-0.916627484704577
30
-1E-16
41
1
10
49.2968245190018
20
-1.12381350679215
30
0
41
1
10
49.5415657091101
20
-1.2480354097558
30
0
41
1
10
49.6560985650374
20
-1.30328954324872
30
0
0
SPLINE
5
DC
100
AcDbEntity
8
1
62
256
6
ByLayer
370
18
48
1
60
0
100
AcDbSpline
70
4
71
3
72
16
73
12
40
0
40
0
40
0
40
0
40
0.25
40
0.25
40
0.5
40
0.5
40
0.625
40
0.625
40
0.75
40
0.75
40
1
40
1
40
1
40
1
41
1
10
52.3071246985925
20
-2.09100910699092
30
0
41
1
10
52.2469929154014
20
-2.09254459594857
30
0
41
1
10
52.1884119657618
20
-2.08921535034421
30
0
41
1
10
52.0731508918328
20
-2.07426027494194
30
0
41
1
10
52.0164806284688
20
-2.06261954707898
30
-1E-16
41
1
10
51.9323196905173
20
-2.03946217369818
30
-1E-16
41
1
10
51.9044090628112
20
-2.03078956286649
30
1E-16
41
1
10
51.8487937613424
20
-2.01158967824094
30
1E-16
41
1
10
51.8210542932366
20
-2.00104528031855
30
0
41
1
10
51.7385868966346
20
-1.96692271093187
30
-1E-16
41
1
10
51.6844466051372
20
-1.94081826473644
30
1E-16
41
1
10
51.6308398906074
20
-1.91158717500284
30
0
0
SPLINE
5
DD
100
AcDbEntity
8
1
62
256
6
ByLayer
370
18
48
1
60
0
100
AcDbSpline
70
4
71
3
72
8
73
4
40
0
40
0
40
0
40
0
40
1
40
1
40
1
40
1
41
1
10
41.5
20
2.53503431374307
30
1E-16
41
0.839654378756207
10
41.5
20
2.19776800019273
30
0
41
0.839654378756207
10
41.5
20
1.7746335991393
30
1E-16
41
1
10
41.5
20
1.46917435580235
30
1E-16
0
SPLINE
5
DE
100
AcDbEntity
8
1
62
256
6
ByLayer
370
18
48
1
60
0
100
AcDbSpline
70
4
71
3
72
14
73
10
40
0
40
0
40
0
40
0
40
0.322333379221566
40
0.322333379221566
40
0.644666758443132
40
0.644666758443132
40
0.967000137664699
40
0.967000137664699
40
1
40
1
40
1
40
1
41
1
10
41.5
20
1.46917435580235
30
1E-16
41
1
10
41.5
20
1.43583782084079
30
0
41
1
10
41.5
20
1.40390629927714
30
0
41
1
10
41.5
20
1.34391373198028
30
0
41
1
10
41.5
20
1.31585583292545
30
0
41
1
10
41.5
20
1.2645930848071
30
-1E-16
41
1
10
41.5
20
1.241391246804
30
0
41
1
10
41.5
20
1.21893253260433
30
0
41
1
10
41.5
20
1.21687646212095
30
0
41
1
10
41.5
20
1.21485035580122
30
0
0
SPLINE
5
DF
100
AcDbEntity
8
1
62
256
6
ByLayer
370
18
48
1
60
0
100
AcDbSpline
70
4
71
3
72
8
73
4
40
0
40
0
40
0
40
0
40
1
40
1
40
1
40
1
41
1
10
41.5
20
-1.70057609367384
30
0
41
1
10
41.5
20
-1.73811710074972
30
1E-16
41
1
10
41.5
20
-1.77565810782559
30
2E-16
41
1
10
41.5
20
-1.81319911490147
30
-2E-16
0
SPLINE
5
E0
100
AcDbEntity
8
1
62
256
6
ByLayer
370
18
48
1
60
0
100
AcDbSpline
70
4
71
3
72
8
73
4
40
0
40
0
40
0
40
0
40
1
40
1
40
1
40
1
41
1
10
41.5
20
2.61460827559151
30
1E-16
41
1
10
41.5
20
2.58808362164203
30
-1E-16
41
1
10
41.5
20
2.56155896769255
30
0
41
1
10
41.5
20
2.53503431374307
30
1E-16
0
SPLINE
5
E1
100
AcDbEntity
8
1
62
256
6
ByLayer
370
18
48
1
60
0
100
AcDbSpline
70
4
71
3
72
8
73
4
40
0
40
0
40
0
40
0
40
1
40
1
40
1
40
1
41
0.887033159085052
10
41.4999999999999
20
-0.0599410144852029
30
-1E-16
41
0.862429063213201
10
41.5
20
-0.160006395825835
30
0
41
0.900084676851517
10
41.5
20
-0.351423545522282
30
0
41
1
10
41.5
20
-0.588120014485213
30
0
0
SPLINE
5
E2
100
AcDbEntity
8
1
62
256
6
ByLayer
370
18
48
1
60
0
100
AcDbSpline
70
4
71
3
72
16
73
12
40
0
40
0
40
0
40
0
40
0.25
40
0.25
40
0.375
40
0.375
40
0.5
40
0.5
40
0.75
40
0.75
40
1
40
1
40
1
40
1
41
1
10
41.5
20
1.19306428045175
30
-1E-16
41
1
10
41.4202722174155
20
1.26158213914502
30
2E-16
41
1
10
41.3406512108039
20
1.32901995616106
30
0
41
1
10
41.218776264888
20
1.42574257719582
30
2E-16
41
1
10
41.1777421694133
20
1.45724720837501
30
1E-16
41
1
10
41.0946331605056
20
1.51859282717996
30
0
41
1
10
41.0525497098831
20
1.54842522491373
30
-1E-16
41
1
10
40.9247720961409
20
1.63555650390154
30
2E-16
41
1
10
40.837702509941
20
1.69066258442055
30
0
41
1
10
40.6610305882967
20
1.79656778560252
30
-2E-16
41
1
10
40.5714318638195
20
1.84736590770353
30
1E-16
41
1
10
40.4808435390021
20
1.89639811695267
30
0
0
SPLINE
5
E3
100
AcDbEntity
8
1
62
256
6
ByLayer
370
18
48
1
60
0
100
AcDbSpline
70
4
71
3
72
32
73
28
40
0
40
0
40
0
40
0
40
0.124999999999987
40
0.124999999999987
40
0.249999999999975
40
0.249999999999975
40
0.312499999999976
40
0.312499999999976
40
0.374999999999977
40
0.374999999999977
40
0.49999999999998
40
0.49999999999998
40
0.562499999999981
40
0.562499999999981
40
0.593749999999981
40
0.593749999999981
40
0.624999999999982
40
0.624999999999982
40
0.749999999999983
40
0.749999999999983
40
0.812499999999987
40
0.812499999999987
40
0.874999999999991
40
0.874999999999991
40
0.937499999999996
40
0.937499999999996
40
1
40
1
40
1
40
1
41
1
10
40.4808435390021
20
1.89639811695264
30
0
41
1
10
40.4041018227218
20
1.93793565391863
30
-1E-16
41
1
10
40.327471525246
20
1.9788870436814
30
-2E-16
41
1
10
40.1762947851065
20
2.06147715820654
30
1E-16
41
1
10
40.1017215440414
20
2.10308940775528
30
0
41
1
10
39.9927662128017
20
2.16710583776734
30
-2E-16
41
1
10
39.9568645990158
20
2.18874815266742
30
2E-16
41
1
10
39.8866127439875
20
2.23243924762934
30
1E-16
41
1
10
39.8522680396798
20
2.25447843193098
30
0
41
1
10
39.7519752080953
20
2.32127700191444
30
-1E-16
41
1
10
39.6887712045398
20
2.36673485467495
30
-2E-16
41
1
10
39.6008856304595
20
2.43635222001382
30
1E-16
41
1
10
39.5727394037732
20
2.45979021828092
30
0
41
1
10
39.5324323186613
20
2.49526665188162
30
-1E-16
41
1
10
39.5192979572999
20
2.50716121153045
30
-1E-16
41
1
10
39.4937735749914
20
2.5309759932544
30
1E-16
41
1
10
39.4814408728013
20
2.54284178027976
30
0
41
1
10
39.4219306143733
20
2.60191951093219
30
-1E-16
41
1
10
39.3811536107127
20
2.64837325239102
30
0
41
1
10
39.3303815537333
20
2.71592517298228
30
1E-16
41
1
10
39.3151854096323
20
2.7381122898833
30
0
41
1
10
39.288538947724
20
2.78153063775608
30
-1E-16
41
1
10
39.2772705865167
20
2.8024564071259
30
1E-16
41
1
10
39.2589013400411
20
2.84267959451625
30
0
41
1
10
39.2517980968685
20
2.86197729065842
30
0
41
1
10
39.2420862497765
20
2.89887230727487
30
1E-16
41
1
10
39.2394708750619
20
2.91647005595334
30
1E-16
41
1
10
39.2394708747895
20
2.93317122201614
30
0
0
SPLINE
5
E4
100
AcDbEntity
8
1
62
256
6
ByLayer
370
18
48
1
60
0
100
AcDbSpline
70
4
71
3
72
50
73
46
40
0
40
0
40
0
40
0
40
0.0624999999999415
40
0.0624999999999415
40
0.124999999999883
40
0.124999999999883
40
0.14062499999987
40
0.14062499999987
40
0.156249999999857
40
0.156249999999857
40
0.187499999999839
40
0.218749999999821
40
0.218749999999821
40
0.249999999999803
40
0.249999999999803
40
0.312499999999767
40
0.312499999999767
40
0.328124999999758
40
0.328124999999758
40
0.343749999999749
40
0.374999999999751
40
0.374999999999751
40
0.390624999999752
40
0.390624999999752
40
0.406249999999753
40
0.406249999999753
40
0.437499999999756
40
0.437499999999756
40
0.499999999999783
40
0.499999999999783
40
0.531249999999786
40
0.531249999999786
40
0.562499999999788
40
0.562499999999788
40
0.624999999999815
40
0.624999999999815
40
0.687499999999842
40
0.687499999999842
40
0.718749999999866
40
0.718749999999866
40
0.74999999999989
40
0.74999999999989
40
0.874999999999945
40
0.874999999999945
40
1
40
1
40
1
40
1
41
1
10
39.23947087479
20
2.93317122201492
30
0
41
1
10
39.2394708745612
20
2.94719531155519
30
0
41
1
10
39.2417833958221
20
2.96028487655522
30
-1E-16
41
1
10
39.2516150754808
20
2.98462235990854
30
0
41
1
10
39.2591182429671
20
2.99587127083933
30
0
41
1
10
39.2725409445469
20
3.00876062223503
30
-1E-16
41
1
10
39.2754301726667
20
3.01127970316807
30
1E-16
41
1
10
39.2816504159832
20
3.016198786286
30
0
41
1
10
39.2849902126626
20
3.01860371511404
30
0
41
1
10
39.2956144188287
20
3.02556506753632
30
0
41
1
10
39.3114300403664
20
3.03421226135538
30
0
41
1
10
39.3308756129453
20
3.04161781654429
30
0
41
1
10
39.3523827613612
20
3.04840479288825
30
0
41
1
10
39.3642635458094
20
3.05150450752558
30
0
41
1
10
39.4023447077518
20
3.05964101682235
30
0
41
1
10
39.4311210443933
20
3.06360692557541
30
0
41
1
10
39.4717629565926
20
3.06697169067041
30
0
41
1
10
39.4801649463813
20
3.06756634740739
30
0
41
1
10
39.4972396031145
20
3.06858652731305
30
0
41
1
10
39.5232236375522
20
3.06986403144748
30
0
41
1
10
39.5502687086719
20
3.07045488044639
30
0
41
1
10
39.5779598172463
20
3.07065916559699
30
0
41
1
10
39.5872979848602
20
3.07066257969558
30
0
41
1
10
39.6061810272859
20
3.07054919759804
30
0
41
1
10
39.6157490846636
20
3.07043173609341
30
0
41
1
10
39.6444130092324
20
3.06991801727889
30
0
41
1
10
39.6635590866974
20
3.06936198658522
30
0
41
1
10
39.7210911136719
20
3.06717241913063
30
0
41
1
10
39.7595700930395
20
3.06502533780349
30
0
41
1
10
39.8174278259667
20
3.06102533045939
30
0
41
1
10
39.8366791320889
20
3.05956287614362
30
0
41
1
10
39.8747352682767
20
3.05643958475005
30
1E-16
41
1
10
39.8936028671707
20
3.05477435825682
30
-1E-16
41
1
10
39.9497940161692
20
3.04949571378853
30
0
41
1
10
39.9867083025836
20
3.04560079723672
30
0
41
1
10
40.0596952710896
20
3.0371270965492
30
0
41
1
10
40.0957670203805
20
3.03254754760292
30
0
41
1
10
40.1493658537231
20
3.02517648701013
30
0
41
1
10
40.1671631487383
20
3.02263298063974
30
0
41
1
10
40.2024589651721
20
3.01739962268491
30
0
41
1
10
40.2199717905731
20
3.0147079744269
30
0
41
1
10
40.3069312589169
20
3.00087462013519
30
0
41
1
10
40.374595039195
20
2.98861076223781
30
0
41
1
10
40.5074154911788
20
2.96163638952424
30
-1E-16
41
1
10
40.5725512628535
20
2.94691831213603
30
0
41
1
10
40.6368808340677
20
2.93097254864429
30
0
0
SPLINE
5
E5
100
AcDbEntity
8
1
62
256
6
ByLayer
370
18
48
1
60
0
100
AcDbSpline
70
4
71
3
72
16
73
12
40
0
40
0
40
0
40
0
40
0.250000000000007
40
0.250000000000007
40
0.500000000000014
40
0.500000000000014
40
0.625000000000017
40
0.625000000000017
40
0.750000000000021
40
0.750000000000021
40
1
40
1
40
1
40
1
41
1
10
40.6368808340882
20
2.93097254863633
30
0
41
1
10
40.7137314164696
20
2.91192312567668
30
-1E-16
41
1
10
40.7896121587314
20
2.89142441002701
30
1E-16
41
1
10
40.9388592303824
20
2.84695226228465
30
0
41
1
10
41.0122441102572
20
2.82298889865945
30
0
41
1
10
41.1198983808143
20
2.78382585030226
30
-1E-16
41
1
10
41.1553863170487
20
2.77023565108041
30
-1E-16
41
1
10
41.2256510734651
20
2.74194988895604
30
0
41
1
10
41.2604183490078
20
2.72724883445565
30
0
41
1
10
41.3639627357069
20
2.68154761272544
30
-1E-16
41
1
10
41.4319415058528
20
2.64890864876736
30
0
41
1
10
41.5
20
2.61460827559148
30
1E-16
0
SPLINE
5
E6
100
AcDbEntity
8
1
62
256
6
ByLayer
370
18
48
1
60
0
100
AcDbSpline
70
4
71
3
72
32
73
28
40
0
40
0
40
0
40
0
40
0.124999999999967
40
0.124999999999967
40
0.249999999999935
40
0.249999999999935
40
0.312499999999926
40
0.312499999999926
40
0.374999999999917
40
0.374999999999917
40
0.499999999999899
40
0.499999999999899
40
0.562499999999897
40
0.562499999999897
40
0.593749999999901
40
0.593749999999901
40
0.624999999999905
40
0.624999999999905
40
0.749999999999932
40
0.749999999999932
40
0.812499999999949
40
0.812499999999949
40
0.874999999999966
40
0.874999999999966
40
0.937499999999983
40
0.937499999999983
40
1
40
1
40
1
40
1
41
1
10
40.4808435390021
20
-3.05100871441377
30
0
41
1
10
40.4041018227219
20
-3.04810177814983
30
0
41
1
10
40.327471525246
20
-3.04400229666805
30
0
41
1
10
40.1762947851065
20
-3.03266220439605
30
0
41
1
10
40.1017215440414
20
-3.02543297920195
30
0
41
1
10
39.9927662128016
20
-3.01126373322174
30
-1E-16
41
1
10
39.9568645990158
20
-3.00597014846571
30
0
41
1
10
39.8866127439875
20
-2.99411770773023
30
0
41
1
10
39.8522680396798
20
-2.98756430096105
30
0
41
1
10
39.7519752080953
20
-2.96570537122804
30
0
41
1
10
39.6887712045398
20
-2.94822109808729
30
0
41
1
10
39.6008856304595
20
-2.91606060026933
30
-1E-16
41
1
10
39.5727394037732
20
-2.90434818353555
30
-1E-16
41
1
10
39.5324323186613
20
-2.88503908863831
30
1E-16
41
1
10
39.5192979572999
20
-2.8783026439786
30
1E-16
41
1
10
39.4937735749913
20
-2.8642435952446
30
0
41
1
10
39.4814408728013
20
-2.85695375418885
30
0
41
1
10
39.4219306143733
20
-2.81915318716335
30
-1E-16
41
1
10
39.3811536107127
20
-2.78461305617259
30
1E-16
41
1
10
39.3303815537334
20
-2.72528571893423
30
-1E-16
41
1
10
39.3151854096324
20
-2.70422817165701
30
-1E-16
41
1
10
39.2885389477241
20
-2.65943671484982
30
0
41
1
10
39.2772705865168
20
-2.63602027367168
30
0
41
1
10
39.2589013400411
20
-2.58708126833719
30
1E-16
41
1
10
39.2517980968686
20
-2.56155930976968
30
0
41
1
10
39.2420862497765
20
-2.50829477954008
30
1E-16
41
1
10
39.2394708750619
20
-2.48055360932901
30
0
41
1
10
39.2394708747895
20
-2.45160488704499
30
0
0
SPLINE
5
E7
100
AcDbEntity
8
1
62
256
6
ByLayer
370
18
48
1
60
0
100
AcDbSpline
70
4
71
3
72
50
73
46
40
0
40
0
40
0
40
0
40
0.0625000000000242
40
0.0625000000000242
40
0.125000000000048
40
0.125000000000048
40
0.14062500000005
40
0.14062500000005
40
0.156250000000051
40
0.156250000000051
40
0.187500000000062
40
0.218750000000072
40
0.218750000000072
40
0.250000000000082
40
0.250000000000082
40
0.312500000000117
40
0.312500000000117
40
0.328125000000126
40
0.328125000000126
40
0.343750000000134
40
0.375000000000132
40
0.375000000000132
40
0.39062500000013
40
0.39062500000013
40
0.406250000000129
40
0.406250000000129
40
0.437500000000126
40
0.437500000000126
40
0.500000000000098
40
0.500000000000098
40
0.531250000000073
40
0.531250000000073
40
0.562500000000048
40
0.562500000000048
40
0.62500000000002
40
0.62500000000002
40
0.687499999999992
40
0.687499999999992
40
0.718749999999989
40
0.718749999999989
40
0.749999999999986
40
0.749999999999986
40
0.874999999999993
40
0.874999999999993
40
1
40
1
40
1
40
1
41
1
10
39.23947087479
20
-2.45160488704417
30
0
41
1
10
39.2394708745612
20
-2.42729643625336
30
-1E-16
41
1
10
39.2417833958221
20
-2.40259868116542
30
-1E-16
41
1
10
39.2516150754808
20
-2.35253282218704
30
2E-16
41
1
10
39.2591182429671
20
-2.32716311336878
30
1E-16
41
1
10
39.2725409445469
20
-2.29513345268072
30
0
41
1
10
39.2754301726667
20
-2.28871186012731
30
0
41
1
10
39.2816504159832
20
-2.275841009212
30
0
41
1
10
39.2849902126627
20
-2.26937743764808
30
0
41
1
10
39.2956144188287
20
-2.25015408458515
30
-1E-16
41
1
10
39.3114300403664
20
-2.22486760262356
30
-1E-16
41
1
10
39.3308756129453
20
-2.20044840420942
30
-2E-16
41
1
10
39.3523827613612
20
-2.17658290004041
30
2E-16
41
1
10
39.3642635458095
20
-2.16485475107743
30
2E-16
41
1
10
39.4023447077518
20
-2.13168586378845
30
1E-16
41
1
10
39.4311210443933
20
-2.11200029649504
30
1E-16
41
1
10
39.4717629565927
20
-2.09100728735927
30
0
41
1
10
39.4801649463813
20
-2.08697407891063
30
0
41
1
10
39.4972396031145
20
-2.07938039588109
30
0
41
1
10
39.5232236375522
20
-2.06870383508945
30
0
41
1
10
39.5502687086719
20
-2.06008223846783
30
-1E-16
41
1
10
39.5779598172463
20
-2.05272921306852
30
-1E-16
41
1
10
39.5872979848602
20
-2.05048978052409
30
-1E-16
41
1
10
39.6061810272858
20
-2.04641872317285
30
-1E-16
41
1
10
39.6157490846637
20
-2.0445841214644
30
-1E-16
41
1
10
39.6444130092325
20
-2.03972195781594
30
-1E-16
41
1
10
39.6635590866974
20
-2.03731029366765
30
-1E-16
41
1
10
39.721091113672
20
-2.03218112561248
30
-1E-16
41
1
10
39.7595700930396
20
-2.03155076566503
30
-1E-16
41
1
10
39.8174278259668
20
-2.03373400155064
30
-1E-16
41
1
10
39.8366791320889
20
-2.03498955054431
30
-1E-16
41
1
10
39.8747352682767
20
-2.03836360788807
30
-1E-16
41
1
10
39.8936028671707
20
-2.04048448622839
30
-1E-16
41
1
10
39.9497940161692
20
-2.04794535568971
30
-1E-16
41
1
10
39.9867083025836
20
-2.05437707406156
30
-1E-16
41
1
10
40.0596952710897
20
-2.06939599930823
30
0
41
1
10
40.0957670203805
20
-2.07798558940849
30
0
41
1
10
40.149365853723
20
-2.09209777899699
30
0
41
1
10
40.1671631487384
20
-2.09701296108642
30
0
41
1
10
40.2024589651721
20
-2.10716119875056
30
1E-16
41
1
10
40.2199717905732
20
-2.11239765356504
30
1E-16
41
1
10
40.3069312589169
20
-2.13927407221163
30
1E-16
41
1
10
40.3745950391951
20
-2.16294750267798
30
2E-16
41
1
10
40.5074154911787
20
-2.21243968453968
30
-1E-16
41
1
10
40.5725512628535
20
-2.23828687146502
30
-1E-16
41
1
10
40.6368808340677
20
-2.26446140028014
30
0
0
SPLINE
5
E8
100
AcDbEntity
8
1
62
256
6
ByLayer
370
18
48
1
60
0
100
AcDbSpline
70
4
71
3
72
16
73
12
40
0
40
0
40
0
40
0
40
0.249999999999993
40
0.249999999999993
40
0.499999999999986
40
0.499999999999986
40
0.624999999999982
40
0.624999999999982
40
0.749999999999979
40
0.749999999999979
40
1
40
1
40
1
40
1
41
1
10
40.6368808340677
20
-2.26446140028014
30
0
41
1
10
40.7137314164525
20
-2.29573050009105
30
0
41
1
10
40.789612158698
20
-2.32681800963889
30
-1E-16
41
1
10
40.9388592303563
20
-2.38879190434705
30
0
41
1
10
41.0122441102347
20
-2.41966492563333
30
-1E-16
41
1
10
41.1198983807969
20
-2.46590507140118
30
0
41
1
10
41.155386317033
20
-2.4812986580794
30
0
41
1
10
41.2256510734528
20
-2.51191195781414
30
-1E-16
41
1
10
41.260418348997
20
-2.5271382501229
30
-1E-16
41
1
10
41.3639627357008
20
-2.57223067150261
30
0
41
1
10
41.4319415058499
20
-2.60152212782057
30
1E-16
41
1
10
41.5
20
-2.62913021516422
30
-1E-16
0
SPLINE
5
E9
100
AcDbEntity
8
1
62
256
6
ByLayer
370
18
48
1
60
0
100
AcDbSpline
70
4
71
3
72
16
73
12
40
0
40
0
40
0
40
0
40
0.249999999999982
40
0.249999999999982
40
0.374999999999985
40
0.374999999999985
40
0.499999999999988
40
0.499999999999988
40
0.749999999999994
40
0.749999999999994
40
1
40
1
40
1
40
1
41
1
10
41.5
20
-1.81319911490149
30
-2E-16
41
1
10
41.4202722174155
20
-1.75743482041216
30
1E-16
41
1
10
41.3406512108039
20
-1.70008838116246
30
0
41
1
10
41.218776264888
20
-1.61475017357151
30
-2E-16
41
1
10
41.1777421694133
20
-1.58642572881806
30
2E-16
41
1
10
41.0946331605056
20
-1.53034147447622
30
0
41
1
10
41.0525497098832
20
-1.50259245783732
30
0
41
1
10
40.924772096141
20
-1.42026565450084
30
2E-16
41
1
10
40.837702509941
20
-1.36644094034267
30
1E-16
41
1
10
40.6610305882967
20
-1.25985034063908
30
-2E-16
41
1
10
40.5714318638195
20
-1.20707424529755
30
2E-16
41
1
10
40.4808435390021
20
-1.15461059746113
30
0
0
SPLINE
5
EA
100
AcDbEntity
8
1
62
256
6
ByLayer
370
18
48
1
60
0
100
AcDbSpline
70
4
71
3
72
50
73
46
40
0
40
0
40
0
40
0
40
0.062500000000046
40
0.062500000000046
40
0.125000000000092
40
0.125000000000092
40
0.140625000000107
40
0.140625000000107
40
0.156250000000121
40
0.156250000000121
40
0.187500000000151
40
0.21875000000018
40
0.21875000000018
40
0.25000000000021
40
0.25000000000021
40
0.312500000000268
40
0.312500000000268
40
0.328125000000288
40
0.328125000000288
40
0.343750000000307
40
0.375000000000346
40
0.375000000000346
40
0.390625000000355
40
0.390625000000355
40
0.406250000000364
40
0.406250000000364
40
0.437500000000359
40
0.437500000000359
40
0.500000000000328
40
0.500000000000328
40
0.531250000000324
40
0.531250000000324
40
0.56250000000032
40
0.56250000000032
40
0.625000000000289
40
0.625000000000289
40
0.687500000000258
40
0.687500000000258
40
0.718750000000232
40
0.718750000000232
40
0.750000000000206
40
0.750000000000206
40
0.875000000000103
40
0.875000000000103
40
1
40
1
40
1
40
1
41
1
10
39.23947087479
20
0.481566334970751
30
2E-16
41
1
10
39.2394708745612
20
0.519898875302346
30
1E-16
41
1
10
39.2417833958221
20
0.557686195390801
30
0
41
1
10
39.2516150754811
20
0.632089537723459
30
-1E-16
41
1
10
39.2591182429677
20
0.668708157472963
30
2E-16
41
1
10
39.2725409445478
20
0.71362716955727
30
1E-16
41
1
10
39.2754301726678
20
0.722567843043834
30
1E-16
41
1
10
39.2816504159845
20
0.740357777077264
30
0
41
1
10
39.284990212664
20
0.749226277469376
30
0
41
1
10
39.2956144188303
20
0.775410982954782
30
0
41
1
10
39.3114300403684
20
0.809344658735739
30
-1E-16
41
1
10
39.330875612948
20
0.841169412339013
30
-2E-16
41
1
10
39.3523827613645
20
0.871821892852182
30
2E-16
41
1
10
39.3642635458131
20
0.886649756452556
30
1E-16
41
1
10
39.4023447077566
20
0.927955153038226
30
0
41
1
10
39.4311210443988
20
0.951606629084552
30
0
41
1
10
39.4717629565993
20
0.975964403314919
30
-1E-16
41
1
10
39.4801649463882
20
0.980592268500459
30
-1E-16
41
1
10
39.4972396031218
20
0.989206131435424
30
-1E-16
41
1
10
39.52322363756
20
1.00116019636107
30
-1E-16
41
1
10
39.5502687086803
20
1.01037264198121
30
-1E-16
41
1
10
39.5779598172553
20
1.01792995253075
30
-2E-16
41
1
10
39.5872979848693
20
1.02017279917359
30
-2E-16
41
1
10
39.6061810272953
20
1.02413047442701
30
-2E-16
41
1
10
39.6157490846733
20
1.02584761463064
30
-2E-16
41
1
10
39.6444130092425
20
1.03019605946409
30
-2E-16
41
1
10
39.6635590867078
20
1.03205169291843
30
-2E-16
41
1
10
39.7210911136831
20
1.03499129351809
30
-2E-16
41
1
10
39.7595700930512
20
1.03347457213778
30
-2E-16
41
1
10
39.8174278259791
20
1.02729132890713
30
-2E-16
41
1
10
39.8366791321014
20
1.0245733255974
30
-2E-16
41
1
10
39.8747352682896
20
1.01807597685954
30
-2E-16
41
1
10
39.8936028671838
20
1.0142898720257
30
-2E-16
41
1
10
39.9497940161829
20
1.00155035809527
30
-1E-16
41
1
10
39.9867083025975
20
0.991223723171089
30
-1E-16
41
1
10
40.0596952711044
20
0.967731097235827
30
0
41
1
10
40.0957670203957
20
0.954561958188748
30
0
41
1
10
40.1493658537387
20
0.93307870800669
30
0
41
1
10
40.1671631487541
20
0.925620019546642
30
1E-16
41
1
10
40.2024589651882
20
0.910238423927154
30
1E-16
41
1
10
40.2199717905894
20
0.902310320854411
30
1E-16
41
1
10
40.3069312589339
20
0.861600547914918
30
2E-16
41
1
10
40.3745950392127
20
0.825663259550197
30
-2E-16
41
1
10
40.5074154911977
20
0.749196704973144
30
0
41
1
10
40.5725512628527
20
0.708631440671581
30
1E-16
41
1
10
40.6368808340677
20
0.666511148364151
30
2E-16
0
SPLINE
5
EB
100
AcDbEntity
8
1
62
256
6
ByLayer
370
18
48
1
60
0
100
AcDbSpline
70
4
71
3
72
16
73
12
40
0
40
0
40
0
40
0
40
0.249999999999985
40
0.249999999999985
40
0.49999999999997
40
0.49999999999997
40
0.624999999999978
40
0.624999999999978
40
0.749999999999985
40
0.749999999999985
40
1
40
1
40
1
40
1
41
1
10
40.6368808340882
20
0.666511148350907
30
2E-16
41
1
10
40.7137314164712
20
0.61619262558068
30
-1E-16
41
1
10
40.7896121587149
20
0.564606400385827
30
0
41
1
10
40.9388592303695
20
0.458160357936208
30
-2E-16
41
1
10
41.0122441102461
20
0.403323973025067
30
-1E-16
41
1
10
41.1198983808058
20
0.317920778900515
30
1E-16
41
1
10
41.155386317041
20
0.288936993000618
30
2E-16
41
1
10
41.225651073459
20
0.230037931141737
30
-1E-16
41
1
10
41.2604183490025
20
0.200110584332663
30
0
41
1
10
41.3639627357039
20
0.109316941222914
30
2E-16
41
1
10
41.4319415058514
20
0.0473865209469295
30
-1E-16
41
1
10
41.5
20
-0.0145219395727167
30
0
0
SPLINE
5
EC
100
AcDbEntity
8
1
62
256
6
ByLayer
370
18
48
1
60
0
100
AcDbSpline
70
4
71
3
72
8
73
4
40
0
40
0
40
0
40
0
40
1
40
1
40
1
40
1
41
0.991600966743067
10
41.5
20
-1.67375929190213
30
-1E-16
41
0.994308075473931
10
41.5
20
-1.68284681145971
30
-1E-16
41
0.997107753226242
10
41.5
20
-1.69178615805361
30
0
41
1
10
41.5
20
-1.70057609367384
30
0
0
SPLINE
5
ED
100
AcDbEntity
8
1
62
256
6
ByLayer
370
18
48
1
60
0
100
AcDbSpline
70
4
71
3
72
22
73
18
40
0
40
0
40
0
40
0
40
0.125
40
0.125
40
0.25
40
0.25
40
0.375
40
0.375
40
0.5
40
0.5
40
0.625
40
0.625
40
0.75
40
0.75
40
0.875
40
0.875
40
1
40
1
40
1
40
1
41
1
10
41.5
20
-0.588120014485213
30
0
41
1
10
41.5
20
-0.632559270828125
30
1E-16
41
1
10
41.5
20
-0.678517898115473
30
-2E-16
41
1
10
41.5
20
-0.772595071257456
30
0
41
1
10
41.5
20
-0.820711808027568
30
-1E-16
41
1
10
41.5
20
-0.918018691822141
30
-1E-16
41
1
10
41.5
20
-0.967206023315583
30
0
41
1
10
41.5
20
-1.0654313610334
30
-2E-16
41
1
10
41.5
20
-1.11446592410664
30
-1E-16
41
1
10
41.5
20
-1.21112235989426
30
2E-16
41
1
10
41.5
20
-1.2587407327776
30
-2E-16
41
1
10
41.5
20
-1.35136728271149
30
1E-16
41
1
10
41.5
20
-1.39637251164979
30
2E-16
41
1
10
41.5
20
-1.48274016220088
30
-1E-16
41
1
10
41.5
20
-1.5241006569664
30
0
41
1
10
41.4999999999999
20
-1.60238586628569
30
2E-16
41
1
10
41.5
20
-1.63930988335218
30
-2E-16
41
1
10
41.5
20
-1.67375929190214
30
-1E-16
0
SPLINE
5
EE
100
AcDbEntity
8
1
62
256
6
ByLayer
370
18
48
1
60
0
100
AcDbSpline
70
4
71
3
72
32
73
28
40
0
40
0
40
0
40
0
40
0.124999999999979
40
0.124999999999979
40
0.249999999999958
40
0.249999999999958
40
0.312499999999955
40
0.312499999999955
40
0.374999999999952
40
0.374999999999952
40
0.499999999999946
40
0.499999999999946
40
0.562499999999943
40
0.562499999999943
40
0.593749999999947
40
0.593749999999947
40
0.624999999999951
40
0.624999999999951
40
0.749999999999967
40
0.749999999999967
40
0.812499999999975
40
0.812499999999975
40
0.874999999999983
40
0.874999999999983
40
0.937499999999992
40
0.937499999999992
40
1
40
1
40
1
40
1
41
1
10
40.4808435390021
20
-1.15461059746113
30
0
41
1
10
40.4041018227219
20
-1.1101661242312
30
-1E-16
41
1
10
40.327471525246
20
-1.06511525298663
30
-2E-16
41
1
10
40.1762947851066
20
-0.971185046189476
30
1E-16
41
1
10
40.1017215440414
20
-0.922343571446675
30
-1E-16
41
1
10
39.9927662128017
20
-0.844157895454373
30
2E-16
41
1
10
39.9568645990158
20
-0.817221995798292
30
1E-16
41
1
10
39.8866127439875
20
-0.761678460100853
30
0
41
1
10
39.8522680396798
20
-0.733085869030077
30
-1E-16
41
1
10
39.7519752080953
20
-0.644428369313573
30
2E-16
41
1
10
39.6887712045397
20
-0.581486243412371
30
0
41
1
10
39.6008856304595
20
-0.479708380255545
30
-2E-16
41
1
10
39.5727394037732
20
-0.444557965254631
30
2E-16
41
1
10
39.5324323186612
20
-0.389772436756687
30
0
41
1
10
39.5192979572999
20
-0.371141432448155
30
0
41
1
10
39.4937735749914
20
-0.333267601990201
30
-1E-16
41
1
10
39.4814408728014
20
-0.314111973909093
30
-2E-16
41
1
10
39.4219306143733
20
-0.21723367623116
30
1E-16
41
1
10
39.3811536107127
20
-0.136239803781535
30
-1E-16
41
1
10
39.3303815537334
20
-0.0093605459518926
30
0
41
1
10
39.3151854096323
20
0.0338841182262968
30
-1E-16
41
1
10
39.2885389477241
20
0.122093922906288
30
2E-16
41
1
10
39.2772705865168
20
0.166436133454226
30
1E-16
41
1
10
39.2589013400411
20
0.255598326179069
30
-2E-16
41
1
10
39.2517980968685
20
0.300417980888767
30
2E-16
41
1
10
39.2420862497765
20
0.390577527734763
30
0
41
1
10
39.2394708750619
20
0.435916446624333
30
-1E-16
41
1
10
39.2394708747895
20
0.481566334971148
30
2E-16
0
SPLINE
5
EF
100
AcDbEntity
8
1
62
256
6
ByLayer
370
18
48
1
60
0
100
AcDbSpline
70
4
71
3
72
24
73
20
40
0
40
0
40
0
40
0
40
0.036098955369775
40
0.0976422332735271
40
0.159185511177279
40
0.220728789081031
40
0.282272066984784
40
0.343815344888536
40
0.405358622792288
40
0.46690190069604
40
0.528445178599792
40
0.589988456503544
40
0.651531734407297
40
0.713075012311049
40
0.774618290214801
40
0.836161568118553
40
0.897704846022305
40
0.959248123926058
40
1
40
1
40
1
40
1
41
1
10
45.1771241730685
20
0.856297421030462
30
0
41
1
10
45.2534994487131
20
0.792452441290465
30
1E-16
41
1
10
45.4600830576984
20
0.617951705450082
30
2E-16
41
1
10
45.7968749999794
20
0.327527310829595
30
1E-16
41
1
10
46.1875000047529
20
-0.0126862095345075
30
0
41
1
10
46.5781249810084
20
-0.350801216811817
30
-1E-16
41
1
10
46.9687500000201
20
-0.681101722747343
30
-2E-16
41
1
10
47.3593750189139
20
-0.998109831808193
30
1E-16
41
1
10
47.7499999990052
20
-1.29607501559767
30
-1E-16
41
1
10
48.1406249850628
20
-1.56969911181974
30
1E-16
41
1
10
48.5312500000066
20
-1.81354049966217
30
0
41
1
10
48.9218750149129
20
-2.0233319891943
30
1E-16
41
1
10
49.312499996279
20
-2.19468949301594
30
0
41
1
10
49.7031249999694
20
-2.32451820555249
30
0
41
1
10
50.0937500000148
20
-2.40974791738509
30
0
41
1
10
50.4843749999716
20
-2.44878712142145
30
0
41
1
10
50.8750000000163
20
-2.44024367755173
30
0
41
1
10
51.2216362188686
20
-2.39054440694466
30
0
41
1
10
51.4380641054967
20
-2.33791232732256
30
0
41
1
10
51.5242836575488
20
-2.31361055105222
30
0
0
SPLINE
5
F0
100
AcDbEntity
8
1
62
256
6
ByLayer
370
18
48
1
60
0
100
AcDbSpline
70
4
71
3
72
22
73
18
40
0
40
0
40
0
40
0
40
0.0666230846885224
40
0.138335810961703
40
0.210048537234885
40
0.281761263508066
40
0.353473989781247
40
0.425186716054428
40
0.496899442327609
40
0.56861216860079
40
0.640324894873971
40
0.712037621147153
40
0.783750347420334
40
0.855463073693515
40
0.927175799966696
40
0.998888526239877
40
1
40
1
40
1
40
1
41
1
10
42.3089736710395
20
2.77371591831926
30
0
41
1
10
42.4299407741951
20
2.79684259622394
30
0
41
1
10
42.681116218867
20
2.83309774249139
30
0
41
1
10
43.0625000082953
20
2.85046419756026
30
0
41
1
10
43.4531250114626
20
2.82748971768649
30
0
41
1
10
43.8437499971386
20
2.76390393341515
30
0
41
1
10
44.2343749999836
20
2.6604450743653
30
0
41
1
10
44.6250000000097
20
2.51829360273228
30
1E-16
41
1
10
45.0156249999774
20
2.33950345792204
30
1E-16
41
1
10
45.4062500000108
20
2.12635193444493
30
-1E-16
41
1
10
45.7968749999793
20
1.88211377963304
30
0
41
1
10
46.1875000047531
20
1.61019410172261
30
-2E-16
41
1
10
46.5781249810088
20
1.31487454441162
30
0
41
1
10
46.9687500000189
20
1.0005910191698
30
-1E-16
41
1
10
47.3593750189141
20
0.672398730319003
30
2E-16
41
1
10
47.6218097679244
20
0.446102137127809
30
1E-16
41
1
10
47.7540361912625
20
0.331588393117784
30
1E-16
41
1
10
47.756054286894
20
0.329840524232822
30
1E-16
0
SPLINE
5
F1
100
AcDbEntity
8
1
62
256
6
ByLayer
370
18
48
1
60
0
100
AcDbSpline
70
4
71
3
72
24
73
20
40
0
40
0
40
0
40
0
40
0.0371161633747839
40
0.0990250594855495
40
0.160933955596315
40
0.222842851707081
40
0.284751747817846
40
0.346660643928612
40
0.408569540039377
40
0.470478436150143
40
0.532387332260908
40
0.594296228371674
40
0.656205124482439
40
0.718114020593205
40
0.780022916703971
40
0.841931812814736
40
0.903840708925502
40
0.965749605036267
40
1
40
1
40
1
40
1
41
0.993457512464371
10
45.1721004960176
20
0.860857125208907
30
0
41
0.993520646065424
10
45.2501596328137
20
0.796682746377014
30
1E-16
41
0.993691872700956
10
45.4584098731181
20
0.623604415069283
30
2E-16
41
0.993981143275909
10
45.7968749999794
20
0.336258598099063
30
1E-16
41
0.994328203370243
10
46.1875000047529
20
0.0010956327596704
30
0
41
0.994685872478558
10
46.5781249810084
20
-0.332257901598904
30
-1E-16
41
0.995051507264854
10
46.96875000002
20
-0.658210264491284
30
2E-16
41
0.995422499285027
10
47.3593750189138
20
-0.971394706070435
30
1E-16
41
0.995796202639586
10
47.7499999990054
20
-1.26617010723515
30
-1E-16
41
0.996169947525541
10
48.1406249850627
20
-1.53732646521486
30
0
41
0.996541028434419
10
48.5312500000065
20
-1.7795012838609
30
0
41
0.996906833327885
10
48.9218750149129
20
-1.98847460741403
30
0
41
0.997264714670439
10
49.3124999962791
20
-2.15989758624356
30
0
41
0.997612059672184
10
49.7031249999693
20
-2.29067662632694
30
0
41
0.997946226208845
10
50.0937500000148
20
-2.37772734579131
30
0
41
0.998264592420034
10
50.4843749999716
20
-2.41940999048442
30
0
41
0.998564518723349
10
50.8750000000163
20
-2.41426765579224
30
0
41
0.998801852957131
10
51.2074667737717
20
-2.37005962747733
30
0
41
0.998936705342249
10
51.4097278584458
20
-2.32452195039417
30
0
41
0.998983454337676
10
51.4817669060986
20
-2.30598881189018
30
0
0
SPLINE
5
F2
100
AcDbEntity
8
1
62
256
6
ByLayer
370
18
48
1
60
0
100
AcDbSpline
70
4
71
3
72
16
73
12
40
0
40
0
40
0
40
0
40
0.129484310412328
40
0.194226465618492
40
0.258968620824656
40
0.388452931236984
40
0.517937241649311
40
0.647421552061639
40
0.776905862473967
40
0.906390172886295
40
1
40
1
40
1
40
1
41
1
10
41.5
20
2.53503431374307
30
1E-16
41
1
10
41.6302083005014
20
2.47252038613451
30
0
41
1
10
41.825520824491
20
2.37050476853363
30
0
41
1
10
42.085937488583
20
2.21920628932074
30
-1E-16
41
1
10
42.3463541465266
20
2.05821137299483
30
1E-16
41
1
10
42.671874989102
20
1.83978532347032
30
1E-16
41
1
10
43.0625000082953
20
1.55393375592277
30
-1E-16
41
1
10
43.4531250114626
20
1.2480787325793
30
2E-16
41
1
10
43.8437499971386
20
0.926530139290207
30
0
41
1
10
44.1982999210907
20
0.624648560805156
30
0
41
1
10
44.4226415093663
20
0.430544500711591
30
-1E-16
41
1
10
44.5167747640981
20
0.348872655988231
30
-1E-16
0
SPLINE
5
F3
100
AcDbEntity
8
1
62
256
6
ByLayer
370
18
48
1
60
0
100
AcDbSpline
70
4
71
3
72
20
73
16
40
0
40
0
40
0
40
0
40
0.0012531439060811
40
0.085357083036455
40
0.169461022166829
40
0.253564961297203
40
0.337668900427576
40
0.42177283955795
40
0.505876778688324
40
0.589980717818698
40
0.674084656949072
40
0.758188596079445
40
0.842292535209819
40
0.926396474340193
40
1
40
1
40
1
40
1
41
0.995790641099447
10
47.7442285775982
20
1.29147916129148
30
0
41
0.995792497250942
10
47.7461686705899
20
1.28999777502989
30
0
41
0.995918928009061
10
47.8783005607746
20
1.18905469747907
30
0
41
0.996169947525541
10
48.1406249850627
20
0.981665852728529
30
-1E-16
41
0.996541028434419
10
48.5312500000065
20
0.657661091495057
30
-2E-16
41
0.996906833327885
10
48.9218750149129
20
0.324165591667285
30
1E-16
41
0.997264714670439
10
49.3124999962791
20
-0.0128639973164533
30
0
41
0.997612059672184
10
49.7031249999693
20
-0.347329528116228
30
-1E-16
41
0.997946226208845
10
50.0937500000148
20
-0.672897038223164
30
-2E-16
41
0.998264592420034
10
50.4843749999716
20
-0.983462819058402
30
1E-16
41
0.998564518723349
10
50.8750000000163
20
-1.27280085903684
30
-1E-16
41
0.998843381295592
10
51.2656249999633
20
-1.53528072511084
30
0
41
0.9990985486328
10
51.6562500022805
20
-1.7653674297247
30
-1E-16
41
0.999317857236017
10
52.0306219918375
20
-1.95027784684791
30
-1E-16
41
0.999443913741119
10
52.2747979680304
20
-2.04660414124379
30
-1E-16
41
0.999500724050411
10
52.3887543036104
20
-2.0859015003883
30
0
0
SPLINE
5
F4
100
AcDbEntity
8
1
62
256
6
ByLayer
370
18
48
1
60
0
100
AcDbSpline
70
4
71
3
72
21
73
17
40
0
40
0
40
0
40
0
40
0.0773759461880597
40
0.11606391928209
40
0.154751892376119
40
0.232127838564179
40
0.309503784752239
40
0.386879730940298
40
0.464255677128358
40
0.541631623316418
40
0.619007569504478
40
0.696383515692537
40
0.773759461880597
40
0.851135408068657
40
0.928511354256716
40
1
40
1
40
1
40
1
41
1
10
41.5
20
1.46917435580235
30
1E-16
41
1
10
41.6302083005303
20
1.40699077561462
30
0
41
1
10
41.825520824488
20
1.30978877509307
30
0
41
1
10
42.0859374885779
20
1.17289746998728
30
-1E-16
41
1
10
42.346354146529
20
1.0320096463611
30
0
41
1
10
42.6718749891061
20
0.847990384124159
30
0
41
1
10
43.0625000082944
20
0.617144558272315
30
1E-16
41
1
10
43.4531250114635
20
0.37942352926828
30
0
41
1
10
43.8437499971392
20
0.137696611213386
30
1E-16
41
1
10
44.2343749999828
20
-0.105040678518748
30
-2E-16
41
1
10
44.6250000000097
20
-0.345738603308831
30
-1E-16
41
1
10
45.0156249999774
20
-0.581299212494514
30
0
41
1
10
45.4062500000107
20
-0.808497618388657
30
-1E-16
41
1
10
45.7968749999792
20
-1.02424969472071
30
0
41
1
10
46.1775928485132
20
-1.22015018390945
30
0
41
1
10
46.4281023445295
20
-1.3381528326625
30
0
41
1
10
46.5484035200762
20
-1.39188635713211
30
0
0
SPLINE
5
F5
100
AcDbEntity
8
1
62
256
6
ByLayer
370
18
48
1
60
0
100
AcDbSpline
70
4
71
3
72
24
73
20
40
0
40
0
40
0
40
0
40
0.0075708486924156
40
0.0699032936219075
40
0.132235738551399
40
0.194568183480891
40
0.256900628410383
40
0.319233073339875
40
0.381565518269367
40
0.443897963198859
40
0.506230408128351
40
0.568562853057843
40
0.630895297987335
40
0.693227742916827
40
0.755560187846319
40
0.817892632775811
40
0.880225077705303
40
0.942557522634794
40
1
40
1
40
1
40
1
41
0.991743249013754
10
42.2338124928747
20
0.544913011997501
30
0
41
0.991748477883823
10
42.249627807637
20
0.531631100705344
30
0
41
0.991797676507272
10
42.3956485029168
20
0.408868433209344
30
-1E-16
41
0.991902067575268
10
42.6718749891002
20
0.174583651034873
30
0
41
0.992069564506477
10
43.0625000082957
20
-0.157187593021518
30
-1E-16
41
0.992268730774656
10
43.4531250114622
20
-0.484907759443671
30
-2E-16
41
0.99249693074829
10
43.8437499971383
20
-0.803809819200212
30
1E-16
41
0.992751520162055
10
44.2343749999839
20
-1.10909640457607
30
-1E-16
41
0.993029867853892
10
44.6250000000096
20
-1.3960401101904
30
2E-16
41
0.993329341603944
10
45.0156249999775
20
-1.66019563844007
30
-1E-16
41
0.993647309028692
10
45.4062500000108
20
-1.89710247209483
30
0
41
0.993981143275909
10
45.7968749999794
20
-2.10298084650799
30
0
41
0.994328203370243
10
46.1875000047529
20
-2.27395611032255
30
0
41
0.994685872478558
10
46.5781249810084
20
-2.40721378088621
30
1E-16
41
0.995051507264854
10
46.96875000002
20
-2.49982867697159
30
0
41
0.995422499285027
10
47.3593750189138
20
-2.55020223292483
30
0
41
0.995796202639586
10
47.7499999990054
20
-2.55665685915724
30
0
41
0.996160174122237
10
48.1304139005244
20
-2.51997688326354
30
0
41
0.99639792458464
10
48.380646793403
20
-2.46866616028572
30
0
41
0.996511228803137
10
48.5006537436427
20
-2.43799734885748
30
0
0
SPLINE
5
F6
100
AcDbEntity
8
1
62
256
6
ByLayer
370
18
48
1
60
0
100
AcDbSpline
70
4
71
3
72
19
73
15
40
0
40
0
40
0
40
0
40
0.0810052217957544
40
0.1671644348169
40
0.253323647838045
40
0.339482860859191
40
0.425642073880336
40
0.511801286901481
40
0.597960499922627
40
0.684119712943772
40
0.770278925964918
40
0.856438138986063
40
0.942597352007209
40
1
40
1
40
1
40
1
41
1
10
47.773366946674
20
1.26892525310404
30
0
41
1
10
47.8957862922692
20
1.17324479835099
30
0
41
1
10
48.1484139679193
20
0.969651018987463
30
-1E-16
41
1
10
48.5312500000066
20
0.646783962449263
30
-2E-16
41
1
10
48.9218750149129
20
0.30809765302223
30
2E-16
41
1
10
49.312499996279
20
-0.0337434311046536
30
1E-16
41
1
10
49.7031249999694
20
-0.372516459907928
30
0
41
1
10
50.0937500000148
20
-0.701767208579696
30
-1E-16
41
1
10
50.4843749999716
20
-1.01529573904699
30
2E-16
41
1
10
50.8750000000163
20
-1.30679088255925
30
0
41
1
10
51.2656249999633
20
-1.57056786895276
30
-1E-16
41
1
10
51.6562500022804
20
-1.80105491359484
30
0
41
1
10
52.0034165589665
20
-1.97208306822841
30
0
41
1
10
52.2203747969569
20
-2.05938954418542
30
-1E-16
41
1
10
52.3071246985847
20
-2.09100910698808
30
0
0
SPLINE
5
F7
100
AcDbEntity
8
1
62
256
6
ByLayer
370
18
48
1
60
0
100
AcDbSpline
70
4
71
3
72
13
73
9
40
0
40
0
40
0
40
0
40
0.227916443003938
40
0.341874664505907
40
0.455832886007876
40
0.683749329011814
40
0.911665772015752
40
1
40
1
40
1
40
1
41
1
10
41.5
20
-0.588120014485213
30
0
41
1
10
41.6302083005303
20
-0.665493161550131
30
-2E-16
41
1
10
41.825520824488
20
-0.778929228058331
30
0
41
1
10
42.0859374885779
20
-0.923700677344726
30
-1E-16
41
1
10
42.346354146529
20
-1.06377397598263
30
0
41
1
10
42.6718749891061
20
-1.22954067644014
30
0
41
1
10
42.9827568873773
20
-1.3740162291073
30
0
41
1
10
43.1634304407785
20
-1.45164159718328
30
0
41
1
10
43.2138956577397
20
-1.47280957857959
30
0
0
SPLINE
5
F8
100
AcDbEntity
8
1
62
256
6
ByLayer
370
18
48
1
60
0
100
AcDbSpline
70
4
71
3
72
16
73
12
40
0
40
0
40
0
40
0
40
0.25
40
0.25
40
0.5
40
0.5
40
0.75
40
0.75
40
0.875
40
0.875
40
1
40
1
40
1
40
1
41
1
10
51.6308398906074
20
-2.3437181475756
30
1E-16
41
1
10
51.6892145881402
20
-2.35891899661337
30
0
41
1
10
51.7472434828499
20
-2.37043871658472
30
0
41
1
10
51.8631012050384
20
-2.38611025239481
30
0
41
1
10
51.9209285856203
20
-2.39026266630538
30
0
41
1
10
52.0368717551389
20
-2.39099086949693
30
1E-16
41
1
10
52.0949853469462
20
-2.38756886606277
30
0
41
1
10
52.1827754908904
20
-2.37641617788361
30
0
41
1
10
52.2121038972654
20
-2.37169447397122
30
0
41
1
10
52.2706471669998
20
-2.36025735259528
30
0
41
1
10
52.29990619012
20
-2.35353688202417
30
0
41
1
10
52.3291862401861
20
-2.3457949199622
30
0
0
SPLINE
5
F9
100
AcDbEntity
8
1
62
256
6
ByLayer
370
18
48
1
60
0
100
AcDbSpline
70
4
71
3
72
10
73
6
40
0
40
0
40
0
40
0
40
0.736138691720792
40
0.736138691720792
40
1
40
1
40
1
40
1
41
1
10
52.3291862401861
20
-2.3457949199622
30
0
41
1
10
52.4006039783943
20
-2.32691253015548
30
0
41
1
10
52.4707588416393
20
-2.30249768700648
30
0
41
1
10
52.5638448331999
20
-2.26220321822655
30
0
41
1
10
52.5881946313145
20
-2.25089599243628
30
0
41
1
10
52.6123015221698
20
-2.23892511311226
30
0
0
SPLINE
5
FA
100
AcDbEntity
8
1
62
256
6
ByLayer
370
18
48
1
60
0
100
AcDbSpline
70
4
71
3
72
25
73
21
40
0
40
0
40
0
40
0
40
0.0064944943204191
40
0.0684282736320923
40
0.130362052943766
40
0.192295832255439
40
0.254229611567112
40
0.316163390878785
40
0.378097170190459
40
0.440030949502132
40
0.501964728813805
40
0.563898508125478
40
0.625832287437152
40
0.687766066748825
40
0.749699846060498
40
0.811633625372171
40
0.873567404683845
40
0.935501183995518
40
0.997434963307191
40
1
40
1
40
1
40
1
41
1
10
42.2402883009276
20
0.539412474820239
30
0
41
1
10
42.2539421950335
20
0.527778443481623
30
0
41
1
10
42.3978044202722
20
0.405085643088881
30
-1E-16
41
1
10
42.6718749890999
20
0.169320861838457
30
0
41
1
10
43.0625000082957
20
-0.167099380068521
30
-1E-16
41
1
10
43.4531250114621
20
-0.499346864923808
30
-2E-16
41
1
10
43.8437499971383
20
-0.822551681791936
30
2E-16
41
1
10
44.234374999984
20
-1.13181176953597
30
0
41
1
10
44.6250000000097
20
-1.42229658486414
30
-2E-16
41
1
10
45.0156249999774
20
-1.68946567037213
30
0
41
1
10
45.4062500000107
20
-1.92876772558878
30
1E-16
41
1
10
45.7968749999794
20
-2.13635022602099
30
-1E-16
41
1
10
46.1875000047529
20
-2.30827306382935
30
1E-16
41
1
10
46.5781249810084
20
-2.44168233509319
30
-1E-16
41
1
10
46.9687500000201
20
-2.53362396234292
30
1E-16
41
1
10
47.3593750189139
20
-2.58250092476953
30
0
41
1
10
47.7499999990052
20
-2.58665029761767
30
0
41
1
10
48.1406249850628
20
-2.54591901606747
30
0
41
1
10
48.4064343435079
20
-2.48767432460363
30
0
41
1
10
48.5420353636317
20
-2.4501342898991
30
0
41
1
10
48.547428045447
20
-2.4486290116611
30
0
0
SPLINE
5
FB
100
AcDbEntity
8
1
62
256
6
ByLayer
370
18
48
1
60
0
100
AcDbSpline
70
4
71
3
72
18
73
14
40
0
40
0
40
0
40
0
40
0.10343807396473
40
0.1551580581625
40
0.20687804236027
40
0.310318010755811
40
0.413757979151351
40
0.517197947546892
40
0.620637915942432
40
0.724077884337972
40
0.827517852733513
40
0.930957821129053
40
1
40
1
40
1
40
1
41
0.991600967145019
10
41.5000071540751
20
-1.67376395990372
30
-1E-16
41
0.991608283037388
10
41.6302130699759
20
-1.75872265716416
30
1E-16
41
0.991636679617228
10
41.825523209307
20
-1.88027239479339
30
0
41
0.991694912147047
10
42.0859374885851
20
-2.02857773089828
30
1E-16
41
0.991779049574077
10
42.3463541465255
20
-2.16726375353411
30
0
41
0.991902067575268
10
42.6718749891002
20
-2.32119528908339
30
1E-16
41
0.992069564506477
10
43.0625000082957
20
-2.47217048967558
30
0
41
0.992268730774656
10
43.4531250114622
20
-2.58689009447008
30
0
41
0.99249693074829
10
43.8437499971383
20
-2.66336257155008
30
0
41
0.992751520162055
10
44.2343749999839
20
-2.70009915098255
30
0
41
0.993029867853892
10
44.6250000000096
20
-2.6960346233997
30
0
41
0.993296146069754
10
44.9723373014563
20
-2.6559781099459
30
0
41
0.993471169755225
10
45.1894783464301
20
-2.61195737280353
30
0
41
0.993542472260188
10
45.2763940907609
20
-2.59135519849673
30
0
0
SPLINE
5
FC
100
AcDbEntity
8
1
62
256
6
ByLayer
370
18
48
1
60
0
100
AcDbSpline
70
4
71
3
72
12
73
8
40
0
40
0
40
0
40
0
40
0.5
40
0.5
40
0.75
40
0.75
40
1
40
1
40
1
40
1
41
1
10
52.3291862401861
20
2.3457949199622
30
0
41
1
10
52.4006039783926
20
2.32691253015591
30
0
41
1
10
52.470758841636
20
2.30249768700762
30
0
41
1
10
52.5735451417012
20
2.25800421071219
30
0
41
1
10
52.6073947357719
20
2.24185946263552
30
0
41
1
10
52.6741010915087
20
2.20700478850847
30
0
41
1
10
52.7070115365139
20
2.1882592847345
30
0
41
1
10
52.7391253266546
20
2.16838147339067
30
0
0
SPLINE
5
FD
100
AcDbEntity
8
1
62
256
6
ByLayer
370
18
48
1
60
0
100
AcDbSpline
70
4
71
3
72
18
73
14
40
0
40
0
40
0
40
0
40
0.101633879958449
40
0.152450819937674
40
0.203267759916898
40
0.304901639875347
40
0.406535519833796
40
0.508169399792245
40
0.609803279750694
40
0.711437159709143
40
0.813071039667592
40
0.914704919626041
40
1
40
1
40
1
40
1
41
1
10
41.5
20
-1.70057609367384
30
0
41
1
10
41.6302083004872
20
-1.7864701332264
30
2E-16
41
1
10
41.8255208244925
20
-1.90935539684043
30
0
41
1
10
42.0859374885854
20
-2.05924963259494
30
-1E-16
41
1
10
42.3463541465253
20
-2.19938706208495
30
0
41
1
10
42.6718749890999
20
-2.35481224643738
30
0
41
1
10
43.0625000082957
20
-2.50701516043958
30
1E-16
41
1
10
43.4531250114621
20
-2.62234744974123
30
0
41
1
10
43.8437499971383
20
-2.69876851237606
30
0
41
1
10
44.234374999984
20
-2.73475642109668
30
0
41
1
10
44.6250000000097
20
-2.72922806999776
30
0
41
1
10
44.9946925327405
20
-2.68453529890391
30
0
41
1
10
45.2341767321858
20
-2.63210682593507
30
0
41
1
10
45.3434525982832
20
-2.60341805853639
30
0
0
SPLINE
5
FE
100
AcDbEntity
8
1
62
256
6
ByLayer
370
18
48
1
60
0
100
AcDbSpline
70
4
71
3
72
8
73
4
40
0
40
0
40
0
40
0
40
1
40
1
40
1
40
1
41
0.991600967145019
10
41.5000071540751
20
-2.81963317809862
30
0
41
0.991607231775353
10
41.6115031622273
20
-2.80408985485154
30
0
41
0.991622013220232
10
41.7230004388856
20
-2.78396834999801
30
0
41
0.991642281875336
10
41.83449935418
20
-2.75930414503451
30
0
0
SPLINE
5
FF
100
AcDbEntity
8
1
62
256
6
ByLayer
370
18
48
1
60
0
100
AcDbSpline
70
4
71
3
72
9
73
5
40
0
40
0
40
0
40
0
40
0.44771742115481
40
1
40
1
40
1
40
1
41
1
10
51.8180145084176
20
2.28567126506439
30
0
41
1
10
51.8943013367075
20
2.30064598807198
30
0
41
1
10
52.0646919107219
20
2.32818825255939
30
0
41
1
10
52.2350824914274
20
2.34222356507706
30
0
41
1
10
52.3291862401861
20
2.3457949199622
30
0
0
SPLINE
5
100
100
AcDbEntity
8
1
62
256
6
ByLayer
370
18
48
1
60
0
100
AcDbSpline
70
4
71
3
72
16
73
12
40
0
40
0
40
0
40
0
40
0.25
40
0.25
40
0.5
40
0.5
40
0.75
40
0.75
40
0.875
40
0.875
40
1
40
1
40
1
40
1
41
1
10
51.6308398906074
20
2.3437181475756
30
-1E-16
41
1
10
51.6892145881403
20
2.3589189966134
30
0
41
1
10
51.7472434828499
20
2.37043871658472
30
0
41
1
10
51.8631012050384
20
2.38611025239481
30
0
41
1
10
51.9209285856203
20
2.39026266630538
30
0
41
1
10
52.036871755139
20
2.39099086949693
30
-1E-16
41
1
10
52.0949853469463
20
2.38756886606274
30
0
41
1
10
52.1827754908904
20
2.37641617788361
30
0
41
1
10
52.2121038972654
20
2.37169447397122
30
0
41
1
10
52.2706471669997
20
2.36025735259528
30
0
41
1
10
52.29990619012
20
2.35353688202417
30
0
41
1
10
52.3291862401861
20
2.3457949199622
30
0
0
SPLINE
5
101
100
AcDbEntity
8
1
62
256
6
ByLayer
370
18
48
1
60
0
100
AcDbSpline
70
4
71
3
72
14
73
10
40
0
40
0
40
0
40
0
40
0.0931839322937567
40
0.245826877173473
40
0.39846982205319
40
0.551112766932907
40
0.703755711812623
40
0.85639865669234
40
1
40
1
40
1
40
1
41
1
10
49.8552851721351
20
1.89253252531603
30
0
41
1
10
49.9347734481854
20
1.87720839989441
30
0
41
1
10
50.1444700574385
20
1.83130235166587
30
0
41
1
10
50.4843749999715
20
1.73384473746958
30
0
41
1
10
50.8750000000163
20
1.59004610208024
30
0
41
1
10
51.2656249999632
20
1.41660595399441
30
0
41
1
10
51.6562500022805
20
1.21605312536218
30
0
41
1
10
52.0391622739075
20
0.99628839378687
30
1E-16
41
1
10
52.2918662307056
20
0.838897560739809
30
0
41
1
10
52.4143618480891
20
0.76042632895394
30
0
0
SPLINE
5
102
100
AcDbEntity
8
1
62
256
6
ByLayer
370
18
48
1
60
0
100
AcDbSpline
70
4
71
3
72
9
73
5
40
0
40
0
40
0
40
0
40
0.994107458408513
40
1
40
1
40
1
40
1
41
1
10
41.5
20
-2.85494476487975
30
0
41
1
10
41.6302083004872
20
-2.83629525401525
30
0
41
1
10
41.7611884558371
20
-2.81115762503322
30
0
41
1
10
41.892168599523
20
-2.77966902632539
30
0
41
1
10
41.892940405467
20
-2.7794832579479
30
0
0
SPLINE
5
103
100
AcDbEntity
8
1
62
256
6
ByLayer
370
18
48
1
60
0
100
AcDbSpline
70
4
71
3
72
12
73
8
40
0
40
0
40
0
40
0
40
0.202620271658546
40
0.408387743384311
40
0.614155215110077
40
0.819922686835842
40
1
40
1
40
1
40
1
41
0.998266245315473
10
50.4903898704397
20
1.42734060527263
30
0
41
0.99836762526872
10
50.6185928623764
20
1.33476360598612
30
0
41
0.998565940451638
10
50.8769920813115
20
1.13986333422344
30
0
41
0.998843381295592
10
51.2656249999633
20
0.827045616777759
30
-2E-16
41
0.9990985486328
10
51.6562500022805
20
0.498659895575495
30
2E-16
41
0.999317857236017
10
52.0306219918375
20
0.176844049988022
30
0
41
0.999443913741119
10
52.2747979680304
20
-0.0334377911461461
30
1E-16
41
0.999500724050411
10
52.3887543036104
20
-0.130893713124524
30
-1E-16
0
SPLINE
5
104
100
AcDbEntity
8
1
62
256
6
ByLayer
370
18
48
1
60
0
100
AcDbSpline
70
4
71
3
72
17
73
13
40
0
40
0
40
0
40
0
40
0.0234685069696624
40
0.135421183851376
40
0.24737386073309
40
0.359326537614804
40
0.471279214496518
40
0.583231891378232
40
0.695184568259946
40
0.80713724514166
40
0.919089922023374
40
1
40
1
40
1
40
1
41
1
10
48.8399887532424
20
2.43822333117234
30
0
41
1
10
48.8672841721473
20
2.44349037340265
30
0
41
1
10
49.0247879247422
20
2.47202458001658
30
0
41
1
10
49.3124999962798
20
2.50435742130119
30
0
41
1
10
49.7031249999689
20
2.50314718758017
30
0
41
1
10
50.0937500000149
20
2.45621102657373
30
0
41
1
10
50.4843749999715
20
2.36444733392426
30
0
41
1
10
50.8750000000163
20
2.22896076063441
30
0
41
1
10
51.2656249999632
20
2.05224770194002
30
1E-16
41
1
10
51.6562500022805
20
1.83718425852101
30
-1E-16
41
1
10
52.0107704058283
20
1.61087538223188
30
0
41
1
10
52.2350824914274
20
1.45298101557606
30
-1E-16
41
1
10
52.3291862401861
20
1.38449207102835
30
1E-16
0
SPLINE
5
105
100
AcDbEntity
8
1
62
256
6
ByLayer
370
18
48
1
60
0
100
AcDbSpline
70
4
71
3
72
21
73
17
40
0
40
0
40
0
40
0
40
0.0575906953428064
40
0.13041554052619
40
0.203240385709574
40
0.276065230892957
40
0.348890076076341
40
0.421714921259725
40
0.494539766443109
40
0.567364611626492
40
0.640189456809876
40
0.71301430199326
40
0.785839147176643
40
0.858663992360027
40
0.931488837543411
40
1
40
1
40
1
40
1
41
1
10
47.0504644210968
20
1.84816516811108
30
0
41
1
10
47.1534346201319
20
1.82143052175698
30
0
41
1
10
47.3866131565914
20
1.75415631511299
30
0
41
1
10
47.7499999990078
20
1.62609292737437
30
0
41
1
10
48.140624985062
20
1.46236931300621
30
-1E-16
41
1
10
48.5312500000045
20
1.27456197897203
30
-1E-16
41
1
10
48.9218750149136
20
1.06539526108958
30
-1E-16
41
1
10
49.3124999962808
20
0.837792356844261
30
0
41
1
10
49.7031249999681
20
0.595336236176706
30
-1E-16
41
1
10
50.093750000015
20
0.341905241972199
30
1E-16
41
1
10
50.4843749999715
20
0.081850402402722
30
0
41
1
10
50.8750000000163
20
-0.180156427063395
30
0
41
1
10
51.2656249999632
20
-0.439230999350656
30
-1E-16
41
1
10
51.6562500022805
20
-0.690234041609074
30
1E-16
41
1
10
52.0391622739075
20
-0.923306197737872
30
-1E-16
41
1
10
52.2918662307056
20
-1.06556267286408
30
1E-16
41
1
10
52.4143618480891
20
-1.13109016698209
30
0
0
SPLINE
5
106
100
AcDbEntity
8
1
62
256
6
ByLayer
370
18
48
1
60
0
100
AcDbSpline
70
4
71
3
72
13
73
9
40
0
40
0
40
0
40
0
40
0.0594789688462502
40
0.26103765116005
40
0.46259633347385
40
0.66415501578765
40
0.86571369810145
40
1
40
1
40
1
40
1
41
1
10
50.3691034972244
20
1.51286984685584
30
0
41
1
10
50.4075273314776
20
1.48537580990546
30
0
41
1
10
50.5761594990606
20
1.36299182026997
30
0
41
1
10
50.8750000000163
20
1.13345279499248
30
0
41
1
10
51.2656249999633
20
0.813669608085547
30
-1E-16
41
1
10
51.6562500022804
20
0.480264018035228
30
2E-16
41
1
10
52.0034165589692
20
0.17779662214781
30
0
41
1
10
52.2203747969622
20
-0.0112539617774416
30
0
41
1
10
52.3071246985926
20
-0.0865087367412229
30
2E-16
0
SPLINE
5
107
100
AcDbEntity
8
1
62
256
6
ByLayer
370
18
48
1
60
0
100
AcDbSpline
70
4
71
3
72
50
73
46
40
0
40
0
40
0
40
0
40
0.0321161039402493
40
0.0321161039402493
40
0.0761108264884307
40
0.0761108264884307
40
0.0981081877625214
40
0.0981081877625214
40
0.120105549036612
40
0.120105549036612
40
0.208094994132966
40
0.208094994132966
40
0.296084439229319
40
0.296084439229319
40
0.307083119866364
40
0.318081800503409
40
0.318081800503409
40
0.340079161777496
40
0.340079161777496
40
0.384073884325673
40
0.384073884325673
40
0.472063329422023
40
0.472063329422023
40
0.516058051970197
40
0.516058051970197
40
0.560052774518371
40
0.560052774518371
40
0.648042219614718
40
0.648042219614718
40
0.69203694216289
40
0.69203694216289
40
0.714034303436974
40
0.725032984074015
40
0.725032984074015
40
0.736031664711056
40
0.736031664711056
40
0.824021109807371
40
0.824021109807371
40
0.912010554903687
40
0.912010554903687
40
0.934007916177766
40
0.934007916177766
40
0.956005277451844
40
0.956005277451844
40
1
40
1
40
1
40
1
41
1
10
48.6892761081191
20
-2.49049405048441
30
0
41
1
10
48.6127507713417
20
-2.51836035348634
30
0
41
1
10
48.5362795124207
20
-2.54363361058373
30
0
41
1
10
48.3549166699301
20
-2.59732124671561
30
0
41
1
10
48.2499761555923
20
-2.6234277386244
30
0
41
1
10
48.0919639107572
20
-2.6549883203123
30
0
41
1
10
48.0391928065702
20
-2.66424131099342
30
0
41
1
10
47.9333785808778
20
-2.68016898869246
30
0
41
1
10
47.8802420962508
20
-2.68684970430988
30
0
41
1
10
47.6156236187817
20
-2.71351693456313
30
0
41
1
10
47.4062618731032
20
-2.71358866675411
30
0
41
1
10
46.9875260170758
20
-2.67309054760122
30
0
41
1
10
46.7782098201425
20
-2.63250866507317
30
0
41
1
10
46.5403041846521
20
-2.56417623498993
30
0
41
1
10
46.4873681968674
20
-2.54836016125736
30
0
41
1
10
46.4342813712371
20
-2.53127626929859
30
-1E-16
41
1
10
46.3548368311958
20
-2.50480791313521
30
1E-16
41
1
10
46.3020169922291
20
-2.48600755107367
30
1E-16
41
1
10
46.1438797993882
20
-2.42624579305138
30
-1E-16
41
1
10
46.0388827509696
20
-2.38192724015528
30
0
41
1
10
45.724361694852
20
-2.23625313763438
30
-1E-16
41
1
10
45.5153051632339
20
-2.12221646669738
30
1E-16
41
1
10
45.1995987725179
20
-1.92785543754241
30
1E-16
41
1
10
45.0940089264396
20
-1.85917582889303
30
-1E-16
41
1
10
44.8815837240553
20
-1.71429279860158
30
0
41
1
10
44.7758933725687
20
-1.63886758321146
30
-2E-16
41
1
10
44.4598910667464
20
-1.40477670951864
30
2E-16
41
1
10
44.2505032528657
20
-1.2382387032047
30
-2E-16
41
1
10
43.9354018725708
20
-0.975870448243313
30
1E-16
41
1
10
43.8302023419817
20
-0.886311902366913
30
-1E-16
41
1
10
43.6717905592104
20
-0.749170497523579
30
0
41
1
10
43.5924317009253
20
-0.679898304366105
30
-2E-16
41
1
10
43.5127729366237
20
-0.609638088321447
30
1E-16
41
1
10
43.4595923282316
20
-0.562585573543373
30
0
41
1
10
43.4329629848799
20
-0.538951547786553
30
-1E-16
41
1
10
43.1938027675877
20
-0.326103560909104
30
-1E-16
41
1
10
42.9832035781667
20
-0.134564641673847
30
-1E-16
41
1
10
42.56230878612
20
0.249117948648859
30
-1E-16
41
1
10
42.3521042763649
20
0.441362718797052
30
-1E-16
41
1
10
42.0871852072098
20
0.679439369980088
30
2E-16
41
1
10
42.0340817833059
20
0.726930553810945
30
1E-16
41
1
10
41.9275880911139
20
0.821611920544285
30
-1E-16
41
1
10
41.8741443009772
20
0.868856237921307
30
2E-16
41
1
10
41.7138705219555
20
1.00959012754643
30
-1E-16
41
1
10
41.6070512138232
20
1.10210963267411
30
1E-16
41
1
10
41.5000000000001
20
1.19306428045175
30
-1E-16
0
SPLINE
5
108
100
AcDbEntity
8
1
62
256
6
ByLayer
370
18
48
1
60
0
100
AcDbSpline
70
4
71
3
72
58
73
54
40
0
40
0
40
0
40
0
40
0.07755394449712
40
0.07755394449712
40
0.11633091674568
40
0.11633091674568
40
0.126025159807821
40
0.126025159807821
40
0.135719402869962
40
0.135719402869962
40
0.155107888994243
40
0.155107888994243
40
0.232661833491371
40
0.232661833491371
40
0.3102157779885
40
0.3102157779885
40
0.329604264112783
40
0.329604264112783
40
0.339298507174925
40
0.339298507174925
40
0.348992750237067
40
0.387769722485631
40
0.387769722485631
40
0.465323666982762
40
0.465323666982762
40
0.504100639231326
40
0.504100639231326
40
0.523489125355609
40
0.533183368417748
40
0.533183368417748
40
0.542877611479888
40
0.542877611479888
40
0.620431555976996
40
0.620431555976996
40
0.697985500474105
40
0.697985500474105
40
0.717373986598384
40
0.727068229660523
40
0.727068229660523
40
0.736762472722662
40
0.736762472722662
40
0.77553944497122
40
0.77553944497122
40
0.853093389468331
40
0.853093389468331
40
0.891870361716887
40
0.891870361716887
40
0.911258847841163
40
0.920953090903303
40
0.920953090903303
40
0.930647333965442
40
0.930647333965442
40
1
40
1
40
1
40
1
41
1
10
41.5000000000009
20
2.61460827559145
30
1E-16
41
1
10
41.7126575898721
20
2.50844957936999
30
-1E-16
41
1
10
41.9238956323039
20
2.38790938358062
30
0
41
1
10
42.2411894426954
20
2.18746407013953
30
2E-16
41
1
10
42.3470262869494
20
2.11737019748904
30
-1E-16
41
1
10
42.4796842665369
20
2.02581375506378
30
1E-16
41
1
10
42.506234054065
20
2.00730545805175
30
2E-16
41
1
10
42.5593771444512
20
1.96989858998864
30
-2E-16
41
1
10
42.5859854935856
20
1.95098903426626
30
-1E-16
41
1
10
42.6656641339521
20
1.893841185936
30
0
41
1
10
42.7186468881443
20
1.85514322885462
30
1E-16
41
1
10
42.9830221534813
20
1.65881650610677
30
1E-16
41
1
10
43.1928037589159
20
1.49269888785435
30
1E-16
41
1
10
43.6123914967574
20
1.14597199783665
30
0
41
1
10
43.8221840324476
20
0.965348901850405
30
0
41
1
10
44.0866958092755
20
0.732596714097667
30
1E-16
41
1
10
44.1397125705152
20
0.685697380040352
30
2E-16
41
1
10
44.2194548011627
20
0.614863846744584
30
-1E-16
41
1
10
44.2460813027977
20
0.591163266830335
30
-1E-16
41
1
10
44.2992136801697
20
0.543786516909051
30
1E-16
41
1
10
44.4318640630306
20
0.425298130005103
30
-1E-16
41
1
10
44.5637094710406
20
0.306683281543542
30
2E-16
41
1
10
44.8792998411036
20
0.0225434550882539
30
-1E-16
41
1
10
45.0885760600597
20
-0.166171603031785
30
-1E-16
41
1
10
45.4035628558307
20
-0.445082403546564
30
2E-16
41
1
10
45.5087374418898
20
-0.537357787567686
30
-1E-16
41
1
10
45.667136645593
20
-0.674304520206192
30
-2E-16
41
1
10
45.7464959848642
20
-0.742410756179538
30
0
41
1
10
45.8261662963955
20
-0.809883404847085
30
1E-16
41
1
10
45.8793570979632
20
-0.8547148387226
30
-2E-16
41
1
10
45.9059813071183
20
-0.877046815416293
30
-2E-16
41
1
10
46.1450348664814
20
-1.0765270487552
30
-1E-16
41
1
10
46.3551730525902
20
-1.24453874926553
30
-2E-16
41
1
10
46.7747380385769
20
-1.55854328100028
30
1E-16
41
1
10
46.9841322354762
20
-1.70456880151625
30
0
41
1
10
47.2478999671423
20
-1.87075862291474
30
-1E-16
41
1
10
47.3271842498325
20
-1.91938512594925
30
1E-16
41
1
10
47.4067746094622
20
-1.96607894719739
30
-1E-16
41
1
10
47.4599117566047
20
-1.99676809998022
30
0
41
1
10
47.4865423890903
20
-2.01190552256915
30
1E-16
41
1
10
47.6194153078475
20
-2.08619119007503
30
0
41
1
10
47.7250854006291
20
-2.14129938300965
30
-1E-16
41
1
10
48.0410439439689
20
-2.29340897239064
30
0
41
1
10
48.250298126317
20
-2.37722241176763
30
0
41
1
10
48.5652583320577
20
-2.47495996542685
30
0
41
1
10
48.6704219831991
20
-2.50286696950951
30
0
41
1
10
48.8288504874653
20
-2.53741678257731
30
-1E-16
41
1
10
48.9082358421555
20
-2.55286291612316
30
0
41
1
10
48.9879582584136
20
-2.56549853651794
30
0
41
1
10
49.0411907929851
20
-2.5732893114922
30
0
41
1
10
49.0678176082208
20
-2.57686300997744
30
0
41
1
10
49.2844397944514
20
-2.60330258066952
30
0
41
1
10
49.4725572657148
20
-2.60977334052802
30
0
41
1
10
49.6603465679862
20
-2.59984446631853
30
0
0
SPLINE
5
109
100
AcDbEntity
8
1
62
256
6
ByLayer
370
18
48
1
60
0
100
AcDbSpline
70
4
71
3
72
70
73
66
40
0
40
0
40
0
40
0
40
0.0625000000000125
40
0.0625000000000125
40
0.0937500000000176
40
0.0937500000000176
40
0.10937500000002
40
0.10937500000002
40
0.117187500000021
40
0.117187500000021
40
0.125000000000023
40
0.125000000000023
40
0.187500000000037
40
0.187500000000037
40
0.218750000000044
40
0.218750000000044
40
0.226562500000045
40
0.226562500000045
40
0.234375000000047
40
0.234375000000047
40
0.250000000000048
40
0.250000000000048
40
0.312500000000053
40
0.312500000000053
40
0.343750000000056
40
0.343750000000056
40
0.359375000000057
40
0.359375000000057
40
0.375000000000057
40
0.375000000000057
40
0.437500000000063
40
0.437500000000063
40
0.500000000000068
40
0.500000000000068
40
0.507812500000069
40
0.507812500000069
40
0.51562500000007
40
0.51562500000007
40
0.531250000000069
40
0.56250000000007
40
0.56250000000007
40
0.625000000000074
40
0.625000000000074
40
0.656250000000075
40
0.656250000000075
40
0.687500000000077
40
0.687500000000077
40
0.750000000000079
40
0.750000000000079
40
0.781250000000078
40
0.781250000000078
40
0.796875000000077
40
0.804687500000075
40
0.804687500000075
40
0.812500000000073
40
0.812500000000073
40
0.87500000000005
40
0.87500000000005
40
0.937500000000027
40
0.937500000000027
40
0.953125000000021
40
0.953125000000021
40
0.968750000000015
40
0.968750000000015
40
1
40
1
40
1
40
1
41
1
10
51.6308398906074
20
-2.34649001251404
30
-1E-16
41
1
10
51.417249680862
20
-2.42339603629989
30
0
41
1
10
51.2061348276632
20
-2.47866376994611
30
0
41
1
10
50.8892754181646
20
-2.5291653124637
30
0
41
1
10
50.7836336228893
20
-2.54058531459904
30
0
41
1
10
50.6246642541726
20
-2.54947170956075
30
0
41
1
10
50.5715899342208
20
-2.55105898700799
30
0
41
1
10
50.4917888515613
20
-2.55135440208403
30
0
41
1
10
50.4651330330448
20
-2.55110446629629
30
0
41
1
10
50.4119020788023
20
-2.54990920920804
30
0
41
1
10
50.3853220106353
20
-2.5489646432321
30
0
41
1
10
50.1463769520551
20
-2.5373681023348
30
0
41
1
10
49.9359396145083
20
-2.50512016509236
30
0
41
1
10
49.6194672422837
20
-2.42534970367001
30
0
41
1
10
49.5138405169036
20
-2.39351451461979
30
1E-16
41
1
10
49.3812743826124
20
-2.34720869019006
30
-1E-16
41
1
10
49.3547342984798
20
-2.33762173520247
30
-1E-16
41
1
10
49.3015904486863
20
-2.31779663143567
30
1E-16
41
1
10
49.2750009391336
20
-2.30756316604004
30
1E-16
41
1
10
49.1954231579963
20
-2.27601125168161
30
0
41
1
10
49.1425298162199
20
-2.25380618554178
30
0
41
1
10
48.8786553530484
20
-2.1371243453959
30
-1E-16
41
1
10
48.6694188887623
20
-2.02575359309631
30
1E-16
41
1
10
48.35491666993
20
-1.83450029500437
30
1E-16
41
1
10
48.2499761555923
20
-1.76670445850246
30
1E-16
41
1
10
48.0919639107572
20
-1.6592185891968
30
-1E-16
41
1
10
48.0391928065701
20
-1.62242415546194
30
-2E-16
41
1
10
47.9333785808778
20
-1.54693946400391
30
1E-16
41
1
10
47.8802420962509
20
-1.50817768301891
30
0
41
1
10
47.6156236187818
20
-1.31118370149906
30
0
41
1
10
47.4062618731032
20
-1.14276629503493
30
0
41
1
10
46.9875260170758
20
-0.78950691447227
30
1E-16
41
1
10
46.7782098201425
20
-0.60460488331924
30
1E-16
41
1
10
46.5403041846521
20
-0.389729630267425
30
0
41
1
10
46.5138364017572
20
-0.365759089605547
30
0
41
1
10
46.4608247840522
20
-0.317634517761974
30
-1E-16
41
1
10
46.4342813712372
20
-0.293480741981909
30
-2E-16
41
1
10
46.3548368311959
20
-0.221042011571313
30
1E-16
41
1
10
46.1963783235976
20
-0.0759700478722891
30
2E-16
41
1
10
46.0388827509696
20
0.0693366209578983
30
-2E-16
41
1
10
45.7243616948521
20
0.359392133688317
30
0
41
1
10
45.5153051632339
20
0.552018932591011
30
0
41
1
10
45.199598772518
20
0.83651932967598
30
-2E-16
41
1
10
45.0940089264396
20
0.930611218486405
30
0
41
1
10
44.8815837240553
20
1.11671943104938
30
0
41
1
10
44.7758933725686
20
1.20773303746913
30
-2E-16
41
1
10
44.4598910667464
20
1.47383733112591
30
1E-16
41
1
10
44.2505032528657
20
1.64211214770995
30
1E-16
41
1
10
43.9354018725708
20
1.87842359913236
30
0
41
1
10
43.8302023419817
20
1.9545091399647
30
-1E-16
41
1
10
43.6717905592104
20
2.06426684165399
30
0
41
1
10
43.5924317009253
20
2.11805268836076
30
-1E-16
41
1
10
43.5127729366238
20
2.17012858180536
30
0
41
1
10
43.4595923282316
20
2.20445750049393
30
-1E-16
41
1
10
43.4329629848799
20
2.22142829598681
30
-1E-16
41
1
10
43.1938027675877
20
2.37183885164003
30
0
41
1
10
42.9832035781668
20
2.49003265897301
30
-1E-16
41
1
10
42.56230878612
20
2.6945513360983
30
-1E-16
41
1
10
42.3521042763649
20
2.78090223061474
30
-1E-16
41
1
10
42.0871852072098
20
2.86772796623984
30
1E-16
41
1
10
42.0340817833059
20
2.88403251712722
30
0
41
1
10
41.9275880911139
20
2.91448922622016
30
1E-16
41
1
10
41.8741443009773
20
2.92865533739158
30
0
41
1
10
41.7138705219556
20
2.96774233450927
30
0
41
1
10
41.6070512138232
20
2.98927351994376
30
0
41
1
10
41.5000000000001
20
3.00626339535322
30
0
0
SPLINE
5
10A
100
AcDbEntity
8
1
62
256
6
ByLayer
370
18
48
1
60
0
100
AcDbSpline
70
4
71
3
72
12
73
8
40
0
40
0
40
0
40
0
40
0.582538459085041
40
0.582538459085041
40
0.873807688627533
40
0.873807688627533
40
1
40
1
40
1
40
1
41
1
10
41.5
20
3.00626339535322
30
0
41
1
10
41.4202722174155
20
3.01901695955715
30
0
41
1
10
41.3406512108039
20
3.02910833732355
30
0
41
1
10
41.218776264888
20
3.04049275076736
30
0
41
1
10
41.1777421694133
20
3.04367293719306
30
0
41
1
10
41.1181841876501
20
3.0474433617579
30
0
41
1
10
41.1000814243323
20
3.0484803727575
30
0
41
1
10
41.0818809899948
20
3.04941997193546
30
0
0
SPLINE
5
10B
100
AcDbEntity
8
1
62
256
6
ByLayer
370
18
48
1
60
0
100
AcDbSpline
70
4
71
3
72
67
73
63
40
0
40
0
40
0
40
0
40
0.032236488490789
40
0.032236488490789
40
0.0405792773831101
40
0.0405792773831101
40
0.0489220662754313
40
0.0489220662754313
40
0.0656076440600736
40
0.0656076440600736
40
0.132349955198643
40
0.132349955198643
40
0.199092266337212
40
0.199092266337212
40
0.215777844121854
40
0.215777844121854
40
0.224120633014175
40
0.224120633014175
40
0.232463421906495
40
0.265834577475776
40
0.265834577475776
40
0.332576888614336
40
0.332576888614336
40
0.365948044183614
40
0.365948044183614
40
0.382633621968253
40
0.390976410860571
40
0.390976410860571
40
0.399319199752888
40
0.399319199752888
40
0.466061510891443
40
0.466061510891443
40
0.532803822029998
40
0.532803822029998
40
0.549489399814639
40
0.557832188706959
40
0.557832188706959
40
0.566174977599279
40
0.566174977599279
40
0.59954613316856
40
0.59954613316856
40
0.666288444307122
40
0.666288444307122
40
0.699659599876403
40
0.699659599876403
40
0.716345177661044
40
0.724687966553365
40
0.724687966553365
40
0.733030755445687
40
0.733030755445687
40
0.799773066584271
40
0.799773066584271
40
0.866515377722854
40
0.866515377722854
40
0.8832009555075
40
0.8832009555075
40
0.891543744399823
40
0.891543744399823
40
0.899886533292146
40
0.933257688861431
40
0.933257688861431
40
1
40
1
40
1
40
1
41
1
10
42.1462135422593
20
2.83636681008625
30
-1E-16
41
1
10
42.2483869859676
20
2.86070356800011
30
0
41
1
10
42.3506347359724
20
2.88096430690098
30
0
41
1
10
42.4796842665369
20
2.90120174274946
30
0
41
1
10
42.506234054065
20
2.9050819793591
30
0
41
1
10
42.5593771444512
20
2.91227709690708
30
-1E-16
41
1
10
42.5859854935857
20
2.91559337308419
30
1E-16
41
1
10
42.6656641339521
20
2.92466352910955
30
0
41
1
10
42.7186468881443
20
2.92954813267238
30
0
41
1
10
42.9830221534813
20
2.94821007870871
30
0
41
1
10
43.1928037589159
20
2.94474771945653
30
0
41
1
10
43.6123914967573
20
2.9016243710546
30
0
41
1
10
43.8221840324476
20
2.86196207427071
30
0
41
1
10
44.0866958092756
20
2.78945441893535
30
0
41
1
10
44.1397125705152
20
2.77380374886812
30
1E-16
41
1
10
44.2194548011627
20
2.74858988447875
30
0
41
1
10
44.2460813027977
20
2.73989178351209
30
0
41
1
10
44.2992136801696
20
2.72198332574021
30
0
41
1
10
44.4318640630307
20
2.67589381442357
30
-1E-16
41
1
10
44.5637094710406
20
2.62330162768393
30
1E-16
41
1
10
44.8792998411036
20
2.48514755000034
30
0
41
1
10
45.0885760600597
20
2.37716424764406
30
0
41
1
10
45.4035628558308
20
2.19299505002775
30
0
41
1
10
45.5087374418898
20
2.12789886156418
30
-1E-16
41
1
10
45.667136645593
20
2.02484566162667
30
-1E-16
41
1
10
45.7464959848643
20
1.97196639986385
30
0
41
1
10
45.8261662963956
20
1.91708074914104
30
-1E-16
41
1
10
45.8793570979632
20
1.88004655519748
30
0
41
1
10
45.9059813071183
20
1.86131400446661
30
1E-16
41
1
10
46.1450348664814
20
1.69142008576367
30
0
41
1
10
46.3551730525902
20
1.53004029566065
30
0
41
1
10
46.7747380385769
20
1.19080479979104
30
-1E-16
41
1
10
46.9841322354762
20
1.01291780053691
30
-2E-16
41
1
10
47.2478999671423
20
0.782559659950579
30
-1E-16
41
1
10
47.3271842498325
20
0.712852398067611
30
1E-16
41
1
10
47.4067746094622
20
0.642309402534096
30
-2E-16
41
1
10
47.4599117566047
20
0.595102398305016
30
-1E-16
41
1
10
47.4865423890903
20
0.571388642163271
30
0
41
1
10
47.6194153078475
20
0.452836078064081
30
-2E-16
41
1
10
47.7250854006291
20
0.357810341462425
30
0
41
1
10
48.0410439439689
20
0.0730974876365167
30
-2E-16
41
1
10
48.250298126317
20
-0.116209712576591
30
-2E-16
41
1
10
48.5652583320577
20
-0.395879112654171
30
0
41
1
10
48.670421983199
20
-0.488389161988749
30
-2E-16
41
1
10
48.8288504874653
20
-0.625605968037888
30
1E-16
41
1
10
48.9082358421555
20
-0.693826812532251
30
-2E-16
41
1
10
48.9879582584136
20
-0.761373144467314
30
0
41
1
10
49.041190792985
20
-0.806243236078018
30
1E-16
41
1
10
49.0678176082208
20
-0.828571033702389
30
2E-16
41
1
10
49.3069147892455
20
-1.02795067337661
30
2E-16
41
1
10
49.517021708214
20
-1.1952459230622
30
1E-16
41
1
10
49.9368910197588
20
-1.50610792800469
30
0
41
1
10
50.1466165729201
20
-1.64971093818011
30
1E-16
41
1
10
50.4113971153714
20
-1.81137641948311
30
0
41
1
10
50.4644858732194
20
-1.84281395066964
30
1E-16
41
1
10
50.5443760386187
20
-1.88855856044225
30
0
41
1
10
50.571027535653
20
-1.9035586113979
30
0
41
1
10
50.6242287387352
20
-1.9329701012133
30
1E-16
41
1
10
50.7570882739088
20
-2.0050903117228
30
0
41
1
10
50.8893498143459
20
-2.07012938429307
30
0
41
1
10
51.2065272371918
20
-2.21217362039945
30
1E-16
41
1
10
51.4176271927735
20
-2.28819727689555
30
0
41
1
10
51.6308398906074
20
-2.3437181475756
30
1E-16
0
SPLINE
5
10C
100
AcDbEntity
8
1
62
256
6
ByLayer
370
18
48
1
60
0
100
AcDbSpline
70
4
71
3
72
53
73
49
40
0
40
0
40
0
40
0
40
0.0887862928464718
40
0.0887862928464718
40
0.133179439269708
40
0.133179439269708
40
0.155376012481326
40
0.155376012481326
40
0.166474299087135
40
0.166474299087135
40
0.177572585692944
40
0.177572585692944
40
0.266358878539418
40
0.266358878539418
40
0.310752024962654
40
0.310752024962654
40
0.321850311568463
40
0.321850311568463
40
0.332948598174272
40
0.332948598174272
40
0.355145171385887
40
0.355145171385887
40
0.443931464232343
40
0.443931464232343
40
0.488324610655571
40
0.488324610655571
40
0.510521183867185
40
0.510521183867185
40
0.532717757078799
40
0.532717757078799
40
0.621504049925261
40
0.621504049925261
40
0.710290342771723
40
0.710290342771723
40
0.721388629377531
40
0.721388629377531
40
0.732486915983339
40
0.732486915983339
40
0.754683489194958
40
0.799076635618198
40
0.799076635618198
40
0.887862928464679
40
0.887862928464679
40
0.93225607488792
40
0.93225607488792
40
0.97664922131116
40
0.97664922131116
40
1
40
1
40
1
40
1
41
1
10
51.6308398906074
20
-1.91158717500284
30
0
41
1
10
51.417249680862
20
-1.79511903025559
30
0
41
1
10
51.2061348276631
20
-1.6617175345516
30
-1E-16
41
1
10
50.8892754181645
20
-1.44004995959924
30
-2E-16
41
1
10
50.7836336228893
20
-1.36254830828759
30
1E-16
41
1
10
50.6246642541726
20
-1.24125574807815
30
-2E-16
41
1
10
50.5715899342208
20
-1.19998434577914
30
1E-16
41
1
10
50.4917888515612
20
-1.13686196613506
30
0
41
1
10
50.4651330330448
20
-1.11559955457483
30
-1E-16
41
1
10
50.4119020788023
20
-1.07280068766389
30
-2E-16
41
1
10
50.3853220106353
20
-1.05126054477873
30
-2E-16
41
1
10
50.1463769520551
20
-0.856183140944239
30
-2E-16
41
1
10
49.9359396145083
20
-0.674156349977437
30
-2E-16
41
1
10
49.6194672422837
20
-0.39229799399854
30
0
41
1
10
49.5138405169036
20
-0.296871734212459
30
-2E-16
41
1
10
49.3812743826123
20
-0.176114046502903
30
0
41
1
10
49.3547342984798
20
-0.151888920278822
30
-1E-16
41
1
10
49.3015904486863
20
-0.103301316414644
30
-2E-16
41
1
10
49.2750009391336
20
-0.0789518787448173
30
2E-16
41
1
10
49.1954231579963
20
-0.0059887135322754
30
0
41
1
10
49.1425298162199
20
0.0426274199546981
30
-1E-16
41
1
10
48.8786553530484
20
0.285372050721833
30
2E-16
41
1
10
48.6694188887623
20
0.478467653335599
30
2E-16
41
1
10
48.35491666993
20
0.762820951711262
30
0
41
1
10
48.2499761555923
20
0.85672328012194
30
2E-16
41
1
10
48.0919639107571
20
0.99576973111553
30
-1E-16
41
1
10
48.0391928065701
20
1.04181715553148
30
-2E-16
41
1
10
47.9333785808778
20
1.13322952468857
30
0
41
1
10
47.8802420962509
20
1.17867202129096
30
-1E-16
41
1
10
47.6156236187817
20
1.40233323306404
30
-2E-16
41
1
10
47.4062618731032
20
1.57082237171917
30
-1E-16
41
1
10
46.9875260170758
20
1.88358363312895
30
0
41
1
10
46.7782098201424
20
2.02790378175394
30
-1E-16
41
1
10
46.540304184652
20
2.17444660472251
30
0
41
1
10
46.5138364017572
20
2.19050877969823
30
0
41
1
10
46.4608247840522
20
2.22218369751602
30
-1E-16
41
1
10
46.4342813712371
20
2.23779552731671
30
1E-16
41
1
10
46.3548368311958
20
2.28376590156393
30
0
41
1
10
46.1963783235976
20
2.37243502162716
30
0
41
1
10
46.0388827509696
20
2.45126386111318
30
0
41
1
10
45.724361694852
20
2.5956452713227
30
-1E-16
41
1
10
45.5153051632338
20
2.67423539928836
30
0
41
1
10
45.1995987725179
20
2.76437476721841
30
0
41
1
10
45.0940089264396
20
2.78978704737943
30
0
41
1
10
44.8815837240553
20
2.83101222965098
30
0
41
1
10
44.7758933725687
20
2.84660062068059
30
0
41
1
10
44.6151535717537
20
2.86288477637692
30
0
41
1
10
44.5598364360516
20
2.86714170324785
30
0
41
1
10
44.5045722053953
20
2.87005159072649
30
0
0
SPLINE
5
10D
100
AcDbEntity
8
1
62
256
6
ByLayer
370
18
48
1
60
0
100
AcDbSpline
70
4
71
3
72
46
73
42
40
0
40
0
40
0
40
0
40
0.0132690143705102
40
0.0132690143705102
40
0.0392356192554918
40
0.0522189216979844
40
0.0522189216979844
40
0.065202224140477
40
0.065202224140477
40
0.169068643680407
40
0.169068643680407
40
0.272935063220336
40
0.272935063220336
40
0.298901668105321
40
0.311884970547813
40
0.311884970547813
40
0.324868272990305
40
0.324868272990305
40
0.376801482760277
40
0.376801482760277
40
0.480667902300221
40
0.480667902300221
40
0.532601112070194
40
0.532601112070194
40
0.558567716955182
40
0.571551019397678
40
0.571551019397678
40
0.584534321840173
40
0.584534321840173
40
0.68840074138013
40
0.68840074138013
40
0.792267160920087
40
0.792267160920087
40
0.818233765805073
40
0.818233765805073
40
0.831217068247566
40
0.831217068247566
40
0.844200370690059
40
0.89613358046004
40
0.89613358046004
40
1
40
1
40
1
40
1
41
1
10
45.5334735433735
20
2.66963802918164
30
0
41
1
10
45.5604029967138
20
2.67600665574528
30
0
41
1
10
45.5873560854671
20
2.68207910470423
30
0
41
1
10
45.667136645593
20
2.69915018183289
30
0
41
1
10
45.7464959848643
20
2.71437715604335
30
0
41
1
10
45.8261662963956
20
2.72696415398812
30
1E-16
41
1
10
45.8793570979632
20
2.73476139392008
30
0
41
1
10
45.9059813071183
20
2.73836081988287
30
0
41
1
10
46.1450348664814
20
2.76794713451886
30
0
41
1
10
46.3551730525902
20
2.77457904492616
30
0
41
1
10
46.7747380385769
20
2.74934808079132
30
0
41
1
10
46.9841322354762
20
2.71748660205316
30
0
41
1
10
47.2478999671423
20
2.65331828286531
30
0
41
1
10
47.3271842498325
20
2.63223752401686
30
1E-16
41
1
10
47.4067746094621
20
2.60838834973148
30
0
41
1
10
47.4599117566047
20
2.59187049828523
30
0
41
1
10
47.4865423890903
20
2.58329416473242
30
1E-16
41
1
10
47.6194153078475
20
2.53902726813911
30
0
41
1
10
47.7250854006291
20
2.49910972447205
30
-1E-16
41
1
10
48.0410439439689
20
2.36650646002718
30
0
41
1
10
48.250298126317
20
2.26101269919104
30
0
41
1
10
48.5652583320577
20
2.07908085277268
30
0
41
1
10
48.6704219831991
20
2.01447780752076
30
-1E-16
41
1
10
48.8288504874652
20
1.91181081453939
30
0
41
1
10
48.9082358421554
20
1.85903610359094
30
1E-16
41
1
10
48.9879582584136
20
1.80412539205059
30
0
41
1
10
49.041190792985
20
1.76704607541421
30
1E-16
41
1
10
49.0678176082208
20
1.74829197627503
30
-1E-16
41
1
10
49.3069147892455
20
1.57809506681872
30
-1E-16
41
1
10
49.517021708214
20
1.41582390968011
30
-2E-16
41
1
10
49.9368910197588
20
1.07409142428423
30
1E-16
41
1
10
50.1466165729201
20
0.894594234069871
30
1E-16
41
1
10
50.4113971153714
20
0.662092567972365
30
-2E-16
41
1
10
50.4644858732194
20
0.615185611966751
30
-1E-16
41
1
10
50.5443760386187
20
0.544263910388054
30
1E-16
41
1
10
50.571027535653
20
0.520548768220777
30
1E-16
41
1
10
50.6242287387351
20
0.473116879762159
30
-2E-16
41
1
10
50.7570882739088
20
0.354434621739159
30
1E-16
41
1
10
50.889349814346
20
0.23537212387339
30
-1E-16
41
1
10
51.2065272371919
20
-0.0501053220295375
30
1E-16
41
1
10
51.4176271927735
20
-0.240082267819048
30
1E-16
41
1
10
51.6308398906074
20
-0.426943222289822
30
1E-16
0
SPLINE
5
10E
100
AcDbEntity
8
1
62
256
6
ByLayer
370
18
48
1
60
0
100
AcDbSpline
70
4
71
3
72
36
73
32
40
0
40
0
40
0
40
0
40
0.160237169672905
40
0.160237169672905
40
0.240355754509357
40
0.240355754509357
40
0.280415046927586
40
0.280415046927586
40
0.300444693136701
40
0.300444693136701
40
0.320474339345815
40
0.320474339345815
40
0.480711509018742
40
0.480711509018742
40
0.560830093855206
40
0.560830093855206
40
0.580859740064322
40
0.580859740064322
40
0.600889386273438
40
0.600889386273438
40
0.640948678691675
40
0.640948678691675
40
0.80118584836463
40
0.80118584836463
40
0.881304433201108
40
0.881304433201108
40
0.921363725619347
40
0.921363725619347
40
0.961423018037586
40
0.961423018037586
40
1
40
1
40
1
40
1
41
1
10
51.6308398906074
20
0.434902837511203
30
-1E-16
41
1
10
51.417249680862
20
0.628277006044328
30
-1E-16
41
1
10
51.2061348276632
20
0.816946235394539
30
-1E-16
41
1
10
50.8892754181646
20
1.08911535286444
30
1E-16
41
1
10
50.7836336228893
20
1.17803700631146
30
-1E-16
41
1
10
50.6246642541726
20
1.3082159614826
30
0
41
1
10
50.5715899342208
20
1.35107464122882
30
-1E-16
41
1
10
50.4917888515613
20
1.41449243594897
30
-2E-16
41
1
10
50.4651330330449
20
1.43550491172147
30
2E-16
41
1
10
50.4119020788024
20
1.47710852154415
30
1E-16
41
1
10
50.3853220106353
20
1.49770409845337
30
0
41
1
10
50.1463769520551
20
1.68118496139053
30
1E-16
41
1
10
49.9359396145083
20
1.83096381511493
30
-1E-16
41
1
10
49.6194672422836
20
2.03305170967144
30
-1E-16
41
1
10
49.5138405169037
20
2.09664278040731
30
0
41
1
10
49.3812743826124
20
2.17109464368716
30
0
41
1
10
49.3547342984798
20
2.18573281492362
30
0
41
1
10
49.3015904486863
20
2.214495315021
30
-1E-16
41
1
10
49.2750009391336
20
2.22861128729525
30
1E-16
41
1
10
49.1954231579963
20
2.27002253814931
30
0
41
1
10
49.1425298162199
20
2.29643360549645
30
-1E-16
41
1
10
48.8786553530484
20
2.42249639611779
30
1E-16
41
1
10
48.6694188887624
20
2.50422124643191
30
0
41
1
10
48.35491666993
20
2.59732124671561
30
0
41
1
10
48.2499761555923
20
2.62342773862437
30
0
41
1
10
48.0919639107572
20
2.6549883203123
30
0
41
1
10
48.0391928065701
20
2.66424131099342
30
0
41
1
10
47.9333785808778
20
2.68016898869246
30
0
41
1
10
47.8802420962508
20
2.68684970430988
30
0
41
1
10
47.7763530360887
20
2.69731924337853
30
0
41
1
10
47.7255228946988
20
2.70122298335397
30
0
41
1
10
47.6747953354139
20
2.7039075045183
30
0
0
SPLINE
5
10F
100
AcDbEntity
8
1
62
256
6
ByLayer
370
18
48
1
60
0
100
AcDbSpline
70
4
71
3
72
26
73
22
40
0
40
0
40
0
40
0
40
0.0294402590946874
40
0.0294402590946874
40
0.0833602447005329
40
0.11032023750346
40
0.11032023750346
40
0.137280230306386
40
0.137280230306386
40
0.352960172729776
40
0.352960172729776
40
0.568640115153166
40
0.568640115153166
40
0.622560100759015
40
0.622560100759015
40
0.64952009356194
40
0.64952009356194
40
0.676480086364865
40
0.784320057576579
40
0.784320057576579
40
1
40
1
40
1
40
1
41
1
10
48.6896353237886
20
2.50595040303625
30
0
41
1
10
48.7184070511823
20
2.51296083113837
30
0
41
1
10
48.7472070502204
20
2.51961212357298
30
0
41
1
10
48.8288504874653
20
2.53741678257731
30
1E-16
41
1
10
48.9082358421555
20
2.55286291612316
30
0
41
1
10
48.9879582584136
20
2.56549853651791
30
0
41
1
10
49.0411907929851
20
2.5732893114922
30
0
41
1
10
49.0678176082208
20
2.57686300997744
30
0
41
1
10
49.3069147892455
20
2.60604574019533
30
0
41
1
10
49.517021708214
20
2.61106983274232
30
0
41
1
10
49.9368910197588
20
2.58019935228893
30
0
41
1
10
50.1466165729201
20
2.54430517224998
30
0
41
1
10
50.4113971153714
20
2.4734689874555
30
0
41
1
10
50.4644858732194
20
2.45799956263639
30
0
41
1
10
50.5443760386187
20
2.4328224708303
30
0
41
1
10
50.571027535653
20
2.42410737961868
30
0
41
1
10
50.6242287387352
20
2.40608698097546
30
0
41
1
10
50.7570882739088
20
2.35952493346195
30
0
41
1
10
50.889349814346
20
2.30550150816646
30
-1E-16
41
1
10
51.2065272371919
20
2.16206829836992
30
0
41
1
10
51.4176271927735
20
2.04811500907653
30
1E-16
41
1
10
51.6308398906074
20
1.91677492528581
30
0
0
SPLINE
5
110
100
AcDbEntity
8
1
62
256
6
ByLayer
370
18
48
1
60
0
100
AcDbSpline
70
4
71
3
72
12
73
8
40
0
40
0
40
0
40
0
40
0.659630320956022
40
0.659630320956022
40
0.989445481434034
40
0.989445481434034
40
1
40
1
40
1
40
1
41
1
10
51.6308398906074
20
2.34649001251404
30
1E-16
41
1
10
51.417249680862
20
2.42339603629989
30
0
41
1
10
51.2061348276632
20
2.47866376994611
30
0
41
1
10
50.8892754181646
20
2.5291653124637
30
0
41
1
10
50.7836336228893
20
2.54058531459904
30
0
41
1
10
50.6742625579378
20
2.54669916211816
30
0
41
1
10
50.6708707258659
20
2.54688311446407
30
0
41
1
10
50.6674785365515
20
2.54706143088617
30
0
0
SPLINE
5
111
100
AcDbEntity
8
1
62
256
6
ByLayer
370
18
48
1
60
0
100
AcDbSpline
70
4
71
3
72
14
73
10
40
0
40
0
40
0
40
0
40
0.0096557159889846
40
0.0096557159889846
40
0.257241786991739
40
0.257241786991739
40
0.504827857994491
40
0.504827857994491
40
1
40
1
40
1
40
1
41
1
10
42.1463675451341
20
-2.84832631066948
30
0
41
1
10
42.1443015337411
20
-2.84900675179915
30
0
41
1
10
42.1422353596531
20
-2.84968558825094
30
0
41
1
10
42.0871852072098
20
-2.86772796623984
30
-1E-16
41
1
10
42.0340817833059
20
-2.88403251712722
30
0
41
1
10
41.9275880911138
20
-2.91448922622016
30
-1E-16
41
1
10
41.8741443009773
20
-2.92865533739158
30
0
41
1
10
41.7138705219556
20
-2.96774233450927
30
0
41
1
10
41.6070512138232
20
-2.98927351994376
30
0
41
1
10
41.5000000000001
20
-3.00626339535322
30
0
0
SPLINE
5
112
100
AcDbEntity
8
1
62
256
6
ByLayer
370
18
48
1
60
0
100
AcDbSpline
70
4
71
3
72
16
73
12
40
0
40
0
40
0
40
0
40
0.250000000000013
40
0.250000000000013
40
0.375000000000019
40
0.375000000000019
40
0.500000000000026
40
0.500000000000026
40
0.750000000000013
40
0.750000000000013
40
1
40
1
40
1
40
1
41
1
10
41.5
20
-3.00626339535322
30
0
41
1
10
41.4202722174155
20
-3.01901695955718
30
0
41
1
10
41.3406512108039
20
-3.02910833732355
30
0
41
1
10
41.218776264888
20
-3.04049275076736
30
0
41
1
10
41.1777421694133
20
-3.04367293719306
30
0
41
1
10
41.0946331605056
20
-3.04893430165618
30
0
41
1
10
41.0525497098831
20
-3.05101768275105
30
0
41
1
10
40.9247720961409
20
-3.05582215840238
30
0
41
1
10
40.8377025099409
20
-3.05710352476319
30
0
41
1
10
40.6610305882967
20
-3.05641812624157
30
0
41
1
10
40.5714318638195
20
-3.05444015300111
30
0
41
1
10
40.4808435390021
20
-3.0510087144138
30
0
0
SPLINE
5
113
100
AcDbEntity
8
1
62
256
6
ByLayer
370
18
48
1
60
0
100
AcDbSpline
70
4
71
3
72
18
73
14
40
0
40
0
40
0
40
0
40
0.368731640761214
40
0.368731640761214
40
0.553097461141828
40
0.553097461141828
40
0.599188916236971
40
0.599188916236971
40
0.645280371332115
40
0.645280371332115
40
0.737463281522415
40
0.737463281522415
40
1
40
1
40
1
40
1
41
1
10
41.5000000000009
20
-2.62913021516417
30
-1E-16
41
1
10
41.712657589872
20
-2.71439476049628
30
-1E-16
41
1
10
41.9238956323039
20
-2.78280129944128
30
1E-16
41
1
10
42.2411894426954
20
-2.85927210045222
30
0
41
1
10
42.3470262869494
20
-2.88039843304392
30
0
41
1
10
42.4796842665369
20
-2.90120174274946
30
0
41
1
10
42.506234054065
20
-2.9050819793591
30
0
41
1
10
42.5593771444511
20
-2.91227709690708
30
1E-16
41
1
10
42.5859854935856
20
-2.91559337308419
30
-1E-16
41
1
10
42.6656641339521
20
-2.92466352910955
30
0
41
1
10
42.7186468881443
20
-2.92954813267238
30
0
41
1
10
42.9221099720407
20
-2.94391035784963
30
0
41
1
10
43.0718267668384
20
-2.94521653721128
30
0
41
1
10
43.2212970715862
20
-2.93730467237216
30
0
0
SPLINE
5
114
100
AcDbEntity
8
1
62
256
6
ByLayer
370
18
48
1
60
0
100
AcDbSpline
70
4
71
3
72
31
73
27
40
0
40
0
40
0
40
0
40
0.057085568469266
40
0.057085568469266
40
0.135661771096832
40
0.135661771096832
40
0.214237973724398
40
0.214237973724398
40
0.371390378979529
40
0.371390378979529
40
0.449966581607092
40
0.449966581607092
40
0.489254682920876
40
0.508898733577768
40
0.508898733577768
40
0.528542784234661
40
0.528542784234661
40
0.685695189489775
40
0.685695189489775
40
0.842847594744891
40
0.842847594744891
40
0.882135696058668
40
0.882135696058668
40
0.921423797372446
40
0.921423797372446
40
1
40
1
40
1
40
1
41
1
10
45.5337325776746
20
-2.66155989610888
30
1E-16
41
1
10
45.4575546201735
20
-2.68823012899097
30
1E-16
41
1
10
45.3812877431346
20
-2.71249957731774
30
0
41
1
10
45.1995987725179
20
-2.76437476721841
30
0
41
1
10
45.0940089264395
20
-2.78978704737943
30
0
41
1
10
44.8815837240553
20
-2.83101222965098
30
0
41
1
10
44.7758933725686
20
-2.84660062068059
30
0
41
1
10
44.4598910667465
20
-2.87861404064452
30
0
41
1
10
44.2505032528657
20
-2.88035085091465
30
0
41
1
10
43.9354018725708
20
-2.85429404737565
30
0
41
1
10
43.8302023419817
20
-2.84082104233161
30
0
41
1
10
43.6717905592104
20
-2.81343733917757
30
0
41
1
10
43.5924317009254
20
-2.79795099272687
30
0
41
1
10
43.5127729366237
20
-2.7797666701268
30
0
41
1
10
43.4595923282315
20
-2.76704307403733
30
0
41
1
10
43.4329629848799
20
-2.76037984377336
30
0
41
1
10
43.1938027675877
20
-2.69794241254911
30
1E-16
41
1
10
42.9832035781667
20
-2.62459730064686
30
-1E-16
41
1
10
42.56230878612
20
-2.44543338744944
30
0
41
1
10
42.3521042763649
20
-2.33953951181769
30
-1E-16
41
1
10
42.0871852072098
20
-2.18828859625972
30
-2E-16
41
1
10
42.0340817833059
20
-2.15710196331631
30
2E-16
41
1
10
41.9275880911139
20
-2.09287730567587
30
0
41
1
10
41.8741443009772
20
-2.05979909947027
30
-1E-16
41
1
10
41.7138705219555
20
-1.95815220696284
30
1E-16
41
1
10
41.6070512138232
20
-1.88716388726965
30
0
41
1
10
41.5000000000001
20
-1.81319911490147
30
-2E-16
0
SPLINE
5
115
100
AcDbEntity
8
1
62
256
6
ByLayer
370
18
48
1
60
0
100
AcDbSpline
70
4
71
3
72
38
73
34
40
0
40
0
40
0
40
0
40
0.125620253269208
40
0.125620253269208
40
0.188430379903809
40
0.188430379903809
40
0.204132911562461
40
0.204132911562461
40
0.219835443221112
40
0.219835443221112
40
0.251240506538411
40
0.251240506538411
40
0.37686075980761
40
0.37686075980761
40
0.502481013076808
40
0.502481013076808
40
0.533886076394107
40
0.533886076394107
40
0.549588608052757
40
0.549588608052757
40
0.565291139711406
40
0.628101266345999
40
0.628101266345999
40
0.753721519615184
40
0.753721519615184
40
0.816531646249779
40
0.816531646249779
40
0.847936709567074
40
0.863639241225724
40
0.863639241225724
40
0.879341772884374
40
0.879341772884374
40
1
40
1
40
1
40
1
41
1
10
41.5000000000009
20
-0.0145219395727167
30
0
41
1
10
41.712657589872
20
-0.205945181126282
30
0
41
1
10
41.9238956323039
20
-0.394891915860654
30
0
41
1
10
42.2411894426954
20
-0.67180803031269
30
-2E-16
41
1
10
42.3470262869494
20
-0.763028235554913
30
0
41
1
10
42.4796842665369
20
-0.875387987685684
30
-2E-16
41
1
10
42.506234054065
20
-0.89777652130735
30
-1E-16
41
1
10
42.5593771444512
20
-0.942378506918431
30
0
41
1
10
42.5859854935856
20
-0.964604338817935
30
0
41
1
10
42.665664133952
20
-1.03082234317353
30
2E-16
41
1
10
42.7186468881443
20
-1.07440490381774
30
-1E-16
41
1
10
42.9830221534813
20
-1.28939357260191
30
-1E-16
41
1
10
43.1928037589159
20
-1.45204883160213
30
-2E-16
41
1
10
43.6123914967572
20
-1.75565237321794
30
1E-16
41
1
10
43.8221840324476
20
-1.8966131724203
30
0
41
1
10
44.0866958092756
20
-2.05685770483768
30
-1E-16
41
1
10
44.1397125705152
20
-2.08810636882774
30
0
41
1
10
44.2194548011627
20
-2.13372603773411
30
-1E-16
41
1
10
44.2460813027977
20
-2.14872851668173
30
-1E-16
41
1
10
44.2992136801696
20
-2.17819680883113
30
0
41
1
10
44.4318640630306
20
-2.25059568441844
30
-1E-16
41
1
10
44.5637094710406
20
-2.31661834614036
30
1E-16
41
1
10
44.8792998411036
20
-2.46260409491205
30
0
41
1
10
45.0885760600597
20
-2.54333585067587
30
0
41
1
10
45.4035628558307
20
-2.63807745357431
30
0
41
1
10
45.5087374418898
20
-2.66525664913186
30
0
41
1
10
45.6671366455929
20
-2.69915018183289
30
0
41
1
10
45.7464959848643
20
-2.71437715604335
30
0
41
1
10
45.8261662963956
20
-2.72696415398812
30
-1E-16
41
1
10
45.8793570979632
20
-2.73476139392008
30
0
41
1
10
45.9059813071183
20
-2.73836081988287
30
0
41
1
10
46.1366413861642
20
-2.76690832066385
30
0
41
1
10
46.3385683757425
20
-2.77402443542667
30
0
41
1
10
46.5400944010798
20
-2.76336838631701
30
0
0
SPLINE
5
116
100
AcDbEntity
8
1
62
256
6
ByLayer
370
18
48
1
60
0
100
AcDbSpline
70
4
71
1
72
4
73
2
40
0
40
0
40
1
40
1
41
1
10
47.7711709956851
20
1.27064124389349
30
1E-16
41
1
10
47.7711771599217
20
1.27065645594467
30
1E-16
0
SPLINE
5
117
100
AcDbEntity
8
1
62
256
6
ByLayer
370
18
48
1
60
0
100
AcDbSpline
70
4
71
1
72
4
73
2
40
0
40
0
40
1
40
1
41
1
10
45.1755115247491
20
0.857645395226683
30
2E-16
41
1
10
45.175511094777
20
0.857656663280892
30
2E-16
0
SPLINE
5
118
100
AcDbEntity
8
1
62
256
6
ByLayer
370
18
48
1
60
0
100
AcDbSpline
70
4
71
2
72
6
73
3
40
0
40
0
40
0
40
1
40
1
40
1
41
1
10
42.2698385144036
20
0.51421745455508
30
1E-16
41
1
10
42.2698232467251
20
0.514570443652616
30
1E-16
41
1
10
42.2698079790651
20
0.514925012301148
30
1E-16
0
INSERT
5
13E
100
AcDbEntity
8
1
62
256
6
ByLayer
370
18
48
1
60
0
100
AcDbBlockReference
2
LABLE3D_1
10
62.601373
20
-20.8724
30
0
41
1
42
1
43
1
50
0
210
0
220
0
230
1
0
LINE
5
7D
100
AcDbEntity
8
80
62
256
6
ByLayer
370
18
48
1
60
0
100
AcDbLine
10
0
20
0
30
0
11
-3
21
0
31
0
39
0
210
0
220
0
230
1
0
LINE
5
7E
100
AcDbEntity
8
81
62
256
6
ByLayer
370
18
48
1
60
0
100
AcDbLine
10
54
20
0
30
0
11
57
21
0
31
0
39
0
210
0
220
0
230
1
0
LINE
5
7F
100
AcDbEntity
8
SK4
62
256
6
ByLayer
370
18
48
0.05
60
0
100
AcDbLine
10
-39
20
0
30
0
11
57
21
0
31
0
39
0
210
0
220
0
230
1
0
LINE
5
81
100
AcDbEntity
8
4
62
256
6
ByLayer
370
18
48
0.05
60
0
100
AcDbLine
10
0
20
0
30
0
11
57
21
0
31
0
39
0
210
0
220
0
230
1
0
LINE
5
83
100
AcDbEntity
8
1
62
256
6
ByLayer
370
18
48
1
60
0
100
AcDbLine
10
0
20
-4
30
0
11
0
21
4
31
0
39
0
210
0
220
0
230
1
0
LINE
5
84
100
AcDbEntity
8
1
62
256
6
ByLayer
370
18
48
1
60
0
100
AcDbLine
10
22.94376
20
-4
30
0
11
22.94376
21
4
31
0
39
0
210
0
220
0
230
1
0
LINE
5
85
100
AcDbEntity
8
SK1
62
256
6
ByLayer
370
18
48
1
60
0
100
AcDbLine
10
-36
20
-3.4
30
0
11
-36
21
3.4
31
0
39
0
210
0
220
0
230
1
0
LINE
5
87
100
AcDbEntity
8
SK1
62
256
6
ByLayer
370
18
48
1
60
0
100
AcDbLine
10
0
20
-4
30
0
11
0
21
4
31
0
39
0
210
0
220
0
230
1
0
LINE
5
88
100
AcDbEntity
8
SK1
62
256
6
ByLayer
370
18
48
1
60
0
100
AcDbLine
10
-35.4
20
-4
30
0
11
-35.4
21
4
31
0
39
0
210
0
220
0
230
1
0
LINE
5
89
100
AcDbEntity
8
1
62
256
6
ByLayer
370
18
48
1
60
0
100
AcDbLine
10
22.94376
20
4
30
0
11
0
21
4
31
0
39
0
210
0
220
0
230
1
0
LINE
5
8A
100
AcDbEntity
8
1
62
256
6
ByLayer
370
18
48
1
60
0
100
AcDbLine
10
0
20
-4
30
0
11
22.94376
21
-4
31
0
39
0
210
0
220
0
230
1
0
LINE
5
8B
100
AcDbEntity
8
1
62
256
6
ByLayer
370
18
48
1
60
0
100
AcDbLine
10
50.668448
20
2.547011
30
0
11
49.660644
21
2.599827
31
0
39
0
210
0
220
0
230
1
0
LINE
5
8C
100
AcDbEntity
8
1
62
256
6
ByLayer
370
18
48
1
60
0
100
AcDbLine
10
47.675599
20
2.703859
30
0
11
46.54033
21
2.763356
31
0
39
0
210
0
220
0
230
1
0
LINE
5
8D
100
AcDbEntity
8
1
62
256
6
ByLayer
370
18
48
1
60
0
100
AcDbLine
10
44.505654
20
2.869989
30
0
11
43.22169
21
2.937279
31
0
39
0
210
0
220
0
230
1
0
LINE
5
8E
100
AcDbEntity
8
1
62
256
6
ByLayer
370
18
48
1
60
0
100
AcDbLine
10
41.079637
20
3.049539
30
0
11
22.94376
21
4
31
0
39
0
210
0
220
0
230
1
0
LINE
5
8F
100
AcDbEntity
8
1
62
256
6
ByLayer
370
18
48
1
60
0
100
AcDbLine
10
22.94376
20
-4
30
0
11
41.079637
21
-3.049539
31
0
39
0
210
0
220
0
230
1
0
LINE
5
90
100
AcDbEntity
8
1
62
256
6
ByLayer
370
18
48
1
60
0
100
AcDbLine
10
43.22169
20
-2.937279
30
0
11
44.505654
21
-2.869989
31
0
39
0
210
0
220
0
230
1
0
LINE
5
91
100
AcDbEntity
8
1
62
256
6
ByLayer
370
18
48
1
60
0
100
AcDbLine
10
46.54033
20
-2.763356
30
0
11
47.675599
21
-2.703859
31
0
39
0
210
0
220
0
230
1
0
LINE
5
92
100
AcDbEntity
8
1
62
256
6
ByLayer
370
18
48
1
60
0
100
AcDbLine
10
49.660644
20
-2.599827
30
0
11
50.668448
21
-2.547011
31
0
39
0
210
0
220
0
230
1
0
LINE
5
93
100
AcDbEntity
8
SK1
62
256
6
ByLayer
370
18
48
1
60
0
100
AcDbLine
10
-36
20
-3.4
30
0
11
-35.4
21
-4
31
0
39
0
210
0
220
0
230
1
0
LINE
5
94
100
AcDbEntity
8
SK1
62
256
6
ByLayer
370
18
48
1
60
0
100
AcDbLine
10
-35.4
20
4
30
0
11
-36
21
3.4
31
0
39
0
210
0
220
0
230
1
0
LINE
5
95
100
AcDbEntity
8
SK1
62
256
6
ByLayer
370
18
48
1
60
0
100
AcDbLine
10
0
20
4
30
0
11
-35.4
21
4
31
0
39
0
210
0
220
0
230
1
0
LINE
5
96
100
AcDbEntity
8
SK1
62
256
6
ByLayer
370
18
48
1
60
0
100
AcDbLine
10
-35.4
20
-4
30
0
11
0
21
-4
31
0
39
0
210
0
220
0
230
1
0
LINE
5
97
100
AcDbEntity
8
SK2
62
256
6
ByLayer
370
13
48
1
60
0
100
AcDbLine
10
-42.5
20
-4
30
0
11
-42.5
21
22.133313
31
0
39
0
210
0
220
0
230
1
0
LINE
5
99
100
AcDbEntity
8
SK2
62
256
6
ByLayer
370
13
48
1
60
0
100
AcDbLine
10
-37.5875
20
-4
30
0
11
-44.5
21
-4
31
0
39
0
210
0
220
0
230
1
0
LINE
5
9A
100
AcDbEntity
8
SK2
62
256
6
ByLayer
370
13
48
1
60
0
100
AcDbLine
10
-37.5875
20
4
30
0
11
-44.5
21
4
31
0
39
0
210
0
220
0
230
1
0
LINE
5
9B
100
AcDbEntity
8
1
62
256
6
ByLayer
370
18
48
1
60
1
100
AcDbLine
10
-42.5
20
-4
30
0
11
-42.960784
21
-0.500002
31
0
39
0
210
0
220
0
230
1
0
LINE
5
9C
100
AcDbEntity
8
1
62
256
6
ByLayer
370
18
48
1
60
1
100
AcDbLine
10
-42.960784
20
-0.500002
30
0
11
-42.039216
21
-0.499998
31
0
39
0
210
0
220
0
230
1
0
LINE
5
9D
100
AcDbEntity
8
1
62
256
6
ByLayer
370
18
48
1
60
1
100
AcDbLine
10
-42.039216
20
-0.499998
30
0
11
-42.5
21
-4
31
0
39
0
210
0
220
0
230
1
0
LINE
5
9E
100
AcDbEntity
8
1
62
256
6
ByLayer
370
18
48
1
60
1
100
AcDbLine
10
-42.5
20
4
30
0
11
-42.039216
21
0.500002
31
0
39
0
210
0
220
0
230
1
0
LINE
5
9F
100
AcDbEntity
8
1
62
256
6
ByLayer
370
18
48
1
60
1
100
AcDbLine
10
-42.039216
20
0.500002
30
0
11
-42.960784
21
0.499998
31
0
39
0
210
0
220
0
230
1
0
LINE
5
A0
100
AcDbEntity
8
1
62
256
6
ByLayer
370
18
48
1
60
1
100
AcDbLine
10
-42.960784
20
0.499998
30
0
11
-42.5
21
4
31
0
39
0
210
0
220
0
230
1
0
LINE
5
A1
100
AcDbEntity
8
SK2
62
256
6
ByLayer
370
13
48
1
60
0
100
AcDbLine
10
70.5
20
-10
30
0
11
70.5
21
20.633313
31
0
39
0
210
0
220
0
230
1
0
LINE
5
A2
100
AcDbEntity
8
SK2
62
256
6
ByLayer
370
13
48
1
60
0
100
AcDbLine
10
55.5875
20
-2.5
30
0
11
72.5
21
-2.5
31
0
39
0
210
0
220
0
230
1
0
LINE
5
A3
100
AcDbEntity
8
SK2
62
256
6
ByLayer
370
13
48
1
60
0
100
AcDbLine
10
55.5875
20
2.5
30
0
11
72.5
21
2.5
31
0
39
0
210
0
220
0
230
1
0
LINE
5
A4
100
AcDbEntity
8
1
62
256
6
ByLayer
370
18
48
1
60
1
100
AcDbLine
10
70.5
20
-2.5
30
0
11
70.960784
21
-5.999998
31
0
39
0
210
0
220
0
230
1
0
LINE
5
A5
100
AcDbEntity
8
1
62
256
6
ByLayer
370
18
48
1
60
1
100
AcDbLine
10
70.960784
20
-5.999998
30
0
11
70.039216
21
-6.000002
31
0
39
0
210
0
220
0
230
1
0
LINE
5
A6
100
AcDbEntity
8
1
62
256
6
ByLayer
370
18
48
1
60
1
100
AcDbLine
10
70.039216
20
-6.000002
30
0
11
70.5
21
-2.5
31
0
39
0
210
0
220
0
230
1
0
LINE
5
A7
100
AcDbEntity
8
1
62
256
6
ByLayer
370
18
48
1
60
1
100
AcDbLine
10
70.5
20
2.5
30
0
11
70.039216
21
5.999998
31
0
39
0
210
0
220
0
230
1
0
LINE
5
A8
100
AcDbEntity
8
1
62
256
6
ByLayer
370
18
48
1
60
1
100
AcDbLine
10
70.039216
20
5.999998
30
0
11
70.960784
21
6.000002
31
0
39
0
210
0
220
0
230
1
0
LINE
5
A9
100
AcDbEntity
8
1
62
256
6
ByLayer
370
18
48
1
60
1
100
AcDbLine
10
70.960784
20
6.000002
30
0
11
70.5
21
2.5
31
0
39
0
210
0
220
0
230
1
0
LINE
5
AA
100
AcDbEntity
8
SK2
62
256
6
ByLayer
370
13
48
1
60
0
100
AcDbLine
10
-21.9125
20
0
30
0
11
9.841574
21
0
31
0
39
0
210
0
220
0
230
1
0
LINE
5
AB
100
AcDbEntity
8
SK2
62
256
6
ByLayer
370
13
48
1
60
0
100
AcDbLine
10
29.914481
20
3.579276
30
0
11
5.960923
21
4.776954
31
0
39
0
210
0
220
0
230
1
0
LINE
5
AC
100
AcDbEntity
8
1
62
256
6
ByLayer
370
18
48
1
60
1
100
AcDbLine
10
7.841574
20
0
30
0
11
8.335032
21
-3.495541
31
0
39
0
210
0
220
0
230
1
0
LINE
5
AD
100
AcDbEntity
8
1
62
256
6
ByLayer
370
18
48
1
60
1
100
AcDbLine
10
8.335032
20
-3.495541
30
0
11
7.413505
21
-3.504153
31
0
39
0
210
0
220
0
230
1
0
LINE
5
AE
100
AcDbEntity
8
1
62
256
6
ByLayer
370
18
48
1
60
1
100
AcDbLine
10
7.413505
20
-3.504153
30
0
11
7.841574
21
0
31
0
39
0
210
0
220
0
230
1
0
LINE
5
AF
100
AcDbEntity
8
1
62
256
6
ByLayer
370
18
48
1
60
1
100
AcDbLine
10
7.958428
20
4.677079
30
0
11
7.705881
21
8.198233
31
0
39
0
210
0
220
0
230
1
0
LINE
5
B0
100
AcDbEntity
8
1
62
256
6
ByLayer
370
18
48
1
60
1
100
AcDbLine
10
7.705881
20
8.198233
30
0
11
8.625829
21
8.14362
31
0
39
0
210
0
220
0
230
1
0
LINE
5
B1
100
AcDbEntity
8
1
62
256
6
ByLayer
370
18
48
1
60
1
100
AcDbLine
10
8.625829
20
8.14362
30
0
11
7.958428
21
4.677079
31
0
39
0
210
0
220
0
230
1
0
LINE
5
11D
100
AcDbEntity
8
1
62
256
6
ByLayer
370
18
48
1
60
1
100
AcDbLine
10
-42.5
20
-4
30
0
11
-42.960784
21
-0.500002
31
0
39
0
210
0
220
0
230
1
0
LINE
5
11E
100
AcDbEntity
8
1
62
256
6
ByLayer
370
18
48
1
60
1
100
AcDbLine
10
-42.960784
20
-0.500002
30
0
11
-42.039216
21
-0.499998
31
0
39
0
210
0
220
0
230
1
0
LINE
5
11F
100
AcDbEntity
8
1
62
256
6
ByLayer
370
18
48
1
60
1
100
AcDbLine
10
-42.039216
20
-0.499998
30
0
11
-42.5
21
-4
31
0
39
0
210
0
220
0
230
1
0
LINE
5
121
100
AcDbEntity
8
1
62
256
6
ByLayer
370
18
48
1
60
1
100
AcDbLine
10
-42.5
20
4
30
0
11
-42.039216
21
0.500002
31
0
39
0
210
0
220
0
230
1
0
LINE
5
122
100
AcDbEntity
8
1
62
256
6
ByLayer
370
18
48
1
60
1
100
AcDbLine
10
-42.039216
20
0.500002
30
0
11
-42.960784
21
0.499998
31
0
39
0
210
0
220
0
230
1
0
LINE
5
123
100
AcDbEntity
8
1
62
256
6
ByLayer
370
18
48
1
60
1
100
AcDbLine
10
-42.960784
20
0.499998
30
0
11
-42.5
21
4
31
0
39
0
210
0
220
0
230
1
0
LINE
5
127
100
AcDbEntity
8
1
62
256
6
ByLayer
370
18
48
1
60
1
100
AcDbLine
10
70.5
20
-2.5
30
0
11
70.960784
21
-5.999998
31
0
39
0
210
0
220
0
230
1
0
LINE
5
128
100
AcDbEntity
8
1
62
256
6
ByLayer
370
18
48
1
60
1
100
AcDbLine
10
70.960784
20
-5.999998
30
0
11
70.039216
21
-6.000002
31
0
39
0
210
0
220
0
230
1
0
LINE
5
129
100
AcDbEntity
8
1
62
256
6
ByLayer
370
18
48
1
60
1
100
AcDbLine
10
70.039216
20
-6.000002
30
0
11
70.5
21
-2.5
31
0
39
0
210
0
220
0
230
1
0
LINE
5
12B
100
AcDbEntity
8
1
62
256
6
ByLayer
370
18
48
1
60
1
100
AcDbLine
10
70.5
20
2.5
30
0
11
70.039216
21
5.999998
31
0
39
0
210
0
220
0
230
1
0
LINE
5
12C
100
AcDbEntity
8
1
62
256
6
ByLayer
370
18
48
1
60
1
100
AcDbLine
10
70.039216
20
5.999998
30
0
11
70.960784
21
6.000002
31
0
39
0
210
0
220
0
230
1
0
LINE
5
12D
100
AcDbEntity
8
1
62
256
6
ByLayer
370
18
48
1
60
1
100
AcDbLine
10
70.960784
20
6.000002
30
0
11
70.5
21
2.5
31
0
39
0
210
0
220
0
230
1
0
LINE
5
130
100
AcDbEntity
8
1
62
256
6
ByLayer
370
18
48
1
60
1
100
AcDbLine
10
7.841574
20
0
30
0
11
8.335032
21
-3.495541
31
0
39
0
210
0
220
0
230
1
0
LINE
5
131
100
AcDbEntity
8
1
62
256
6
ByLayer
370
18
48
1
60
1
100
AcDbLine
10
8.335032
20
-3.495541
30
0
11
7.413505
21
-3.504153
31
0
39
0
210
0
220
0
230
1
0
LINE
5
132
100
AcDbEntity
8
1
62
256
6
ByLayer
370
18
48
1
60
1
100
AcDbLine
10
7.413505
20
-3.504153
30
0
11
7.841574
21
0
31
0
39
0
210
0
220
0
230
1
0
LINE
5
134
100
AcDbEntity
8
1
62
256
6
ByLayer
370
18
48
1
60
1
100
AcDbLine
10
7.958428
20
4.677079
30
0
11
7.705881
21
8.198233
31
0
39
0
210
0
220
0
230
1
0
LINE
5
135
100
AcDbEntity
8
1
62
256
6
ByLayer
370
18
48
1
60
1
100
AcDbLine
10
7.705881
20
8.198233
30
0
11
8.625829
21
8.14362
31
0
39
0
210
0
220
0
230
1
0
LINE
5
136
100
AcDbEntity
8
1
62
256
6
ByLayer
370
18
48
1
60
1
100
AcDbLine
10
8.625829
20
8.14362
30
0
11
7.958428
21
4.677079
31
0
39
0
210
0
220
0
230
1
0
LINE
5
139
100
AcDbEntity
8
1
62
256
6
ByLayer
370
13
48
1
60
0
100
AcDbLine
10
64.101373
20
-20.8724
30
0
11
64.101373
21
-20.8724
31
0
39
0
210
0
220
0
230
1
0
MTEXT
5
119
100
AcDbEntity
8
SK2
62
256
6
ByLayer
370
18
48
1
60
0
100
AcDbMText
10
-43.841114
20
8.658437
30
0
210
0
220
0
230
1
1
%%c
40
3
41
0
44
1.084337
50
90
71
7
72
5
7
iso_b_vert
0
MTEXT
5
11C
100
AcDbEntity
8
SK2
62
256
6
ByLayer
370
18
48
1
60
0
100
AcDbMText
10
-43.841114
20
14.635
30
0
210
0
220
0
230
1
1
\W0.6903;8 h6
40
3
41
0
44
1.084337
50
90
71
7
72
5
7
iso_b_vert
0
MTEXT
5
125
100
AcDbEntity
8
SK2
62
256
6
ByLayer
370
18
48
1
60
0
100
AcDbMText
10
69.158886
20
7.158437
30
0
210
0
220
0
230
1
1
%%c
40
3
41
0
44
1.084337
50
90
71
7
72
5
7
iso_b_vert
0
MTEXT
5
126
100
AcDbEntity
8
SK2
62
256
6
ByLayer
370
18
48
1
60
0
100
AcDbMText
10
69.158886
20
13.135
30
0
210
0
220
0
230
1
1
\W0.6903;5 h6
40
3
41
0
44
1.084337
50
90
71
7
72
5
7
iso_b_vert
0
MTEXT
5
12F
100
AcDbEntity
8
SK2
62
256
6
ByLayer
370
18
48
1
60
0
100
AcDbMText
10
7.65686
20
10.632791
30
0
210
0
220
0
230
1
1
\W0.8531;3.0%%d
40
3
41
0
44
1.084337
50
79.5625246488833
71
7
72
5
7
iso_b_vert
0
MTEXT
5
141
100
AcDbEntity
8
SK6
62
256
6
ByLayer
370
18
48
1
60
0
100
AcDbMText
10
-17.767225
20
-57.114886
30
0
210
0
220
0
230
1
1
\W0.7848;2T346-0500-TA0800   T2CH
40
3
41
0
44
1.084337
50
0
71
7
72
5
7
iso_b_vert
0
HATCH
5
120
100
AcDbEntity
8
SK2
62
256
6
ByLayer
370
13
48
1
60
0
100
AcDbHatch
10
0
20
0
30
0
210
0
220
0
230
1
2
ANSI31
70
0
71
0
91
1
92
5
93
3
72
1
10
-42.5
20
-4
11
-42.9607837415528
21
-0.500001692553184
72
1
10
-42.9607837415528
20
-0.500001692553184
11
-42.0392162584472
21
-0.499998307446816
72
1
10
-42.0392162584472
20
-0.499998307446816
11
-42.5
21
-4
97
0
75
0
76
1
52
0
41
0.0062
77
0
78
1
53
45
43
0
44
0
45
-0.0139193969876572
46
0.0139193969876572
79
0
47
0
98
1
10
0
20
0
0
HATCH
5
124
100
AcDbEntity
8
SK2
62
256
6
ByLayer
370
13
48
1
60
0
100
AcDbHatch
10
0
20
0
30
0
210
0
220
0
230
1
2
ANSI31
70
0
71
0
91
1
92
5
93
3
72
1
10
-42.5
20
4
11
-42.0392162584472
21
0.500001692553184
72
1
10
-42.0392162584472
20
0.500001692553184
11
-42.9607837415528
21
0.499998307446816
72
1
10
-42.9607837415528
20
0.499998307446816
11
-42.5
21
4
97
0
75
0
76
1
52
0
41
0.0062
77
0
78
1
53
45
43
0
44
0
45
-0.0139193969876572
46
0.0139193969876572
79
0
47
0
98
1
10
0
20
0
0
HATCH
5
12A
100
AcDbEntity
8
SK2
62
256
6
ByLayer
370
13
48
1
60
0
100
AcDbHatch
10
0
20
0
30
0
210
0
220
0
230
1
2
ANSI31
70
0
71
0
91
1
92
5
93
3
72
1
10
70.5
20
-2.5
11
70.9607837415528
21
-5.99999830744682
72
1
10
70.9607837415528
20
-5.99999830744682
11
70.0392162584472
21
-6.00000169255318
72
1
10
70.0392162584472
20
-6.00000169255318
11
70.5
21
-2.5
97
0
75
0
76
1
52
0
41
0.0062
77
0
78
1
53
45
43
0
44
0
45
-0.0139193969876572
46
0.0139193969876572
79
0
47
0
98
1
10
0
20
0
0
HATCH
5
12E
100
AcDbEntity
8
SK2
62
256
6
ByLayer
370
13
48
1
60
0
100
AcDbHatch
10
0
20
0
30
0
210
0
220
0
230
1
2
ANSI31
70
0
71
0
91
1
92
5
93
3
72
1
10
70.5
20
2.5
11
70.0392162584472
21
5.99999830744682
72
1
10
70.0392162584472
20
5.99999830744682
11
70.9607837415528
21
6.00000169255318
72
1
10
70.9607837415528
20
6.00000169255318
11
70.5
21
2.5
97
0
75
0
76
1
52
0
41
0.0062
77
0
78
1
53
45
43
0
44
0
45
-0.0139193969876572
46
0.0139193969876572
79
0
47
0
98
1
10
0
20
0
0
HATCH
5
133
100
AcDbEntity
8
SK2
62
256
6
ByLayer
370
13
48
1
60
0
100
AcDbHatch
10
0
20
0
30
0
210
0
220
0
230
1
2
ANSI31
70
0
71
0
91
1
92
5
93
3
72
1
10
7.84157381976846
20
0
11
8.33503176762059
21
-3.49554131177297
72
1
10
8.33503176762059
20
-3.49554131177297
11
7.41350452439951
21
-3.5041532761449
72
1
10
7.41350452439951
20
-3.5041532761449
11
7.84157381976846
21
0
97
0
75
0
76
1
52
0
41
0.0062
77
0
78
1
53
45
43
0
44
0
45
-0.0139193969876572
46
0.0139193969876572
79
0
47
0
98
1
10
0
20
0
0
HATCH
5
137
100
AcDbEntity
8
SK2
62
256
6
ByLayer
370
13
48
1
60
0
100
AcDbHatch
10
0
20
0
30
0
210
0
220
0
230
1
2
ANSI31
70
0
71
0
91
1
92
5
93
3
72
1
10
7.95842779687581
20
4.67707861015694
11
7.70588145032272
21
8.19823327183434
72
1
10
7.70588145032272
20
8.19823327183434
11
8.62582928008825
21
8.14361993611288
72
1
10
8.62582928008825
20
8.14361993611288
11
7.95842779687581
21
4.67707861015694
97
0
75
0
76
1
52
0
41
0.0062
77
0
78
1
53
45
43
0
44
0
45
-0.0139193969876572
46
0.0139193969876572
79
0
47
0
98
1
10
0
20
0
0
DIMENSION
5
144
100
AcDbEntity
8
SK2
62
256
6
ByLayer
370
18
48
1
60
0
100
AcDbDimension
2
_U0
10
54
20
-39.207732
30
0
11
9
21
-39.207732
31
0
70
32
71
1
72
1
41
1
210
0
220
0
230
1
3
Standard
100
AcDbAlignedDimension
13
-36
23
4
33
0
14
54
24
2.5
34
0
50
0
100
AcDbRotatedDimension
1001
ACAD
1000
DSTYLE
1002
{
1070
   371
1070
    13
1070
   372
1070
    13
1070
     3
1000

1070
   170
1070
     0
1070
   144
1040
1.0
1070
   277
1070
     2
1070
   284
1070
     8
1070
   278
1070
    46
1070
   146
1040
1.166667
1070
   345
1005
16
1070
   347
1005
16
1070
   346
1005
16
1070
   344
1005
0
1070
   343
1005
0
1070
   172
1070
     1
1070
    76
1070
     0
1070
    75
1070
     0
1070
   282
1070
     0
1070
   281
1070
     0
1070
    71
1070
     0
1070
    74
1070
     0
1070
   279
1070
     0
1070
   173
1070
     1
1070
   340
1005
11A
1070
   271
1070
     2
1070
   272
1070
     2
1070
    77
1070
     1
1070
    73
1070
     1
1070
   171
1070
     3
1070
   274
1070
     4
1070
   177
1070
     2
1070
   176
1070
     2
1070
   178
1070
     2
1070
    78
1070
     8
1070
    48
1040
-0.1
1070
    41
1040
3.5
1070
   147
1040
1.5
1070
    42
1040
1.5875
1070
    44
1040
2.0
1070
   140
1040
3.0
1002
}
1001
ACAD_DSTYLE_DIM_LINETYPE
1070
   380
1005
16
1001
ACAD_DSTYLE_DIM_EXT1_LINETYPE
1070
   381
1005
16
1001
ACAD_DSTYLE_DIM_EXT2_LINETYPE
1070
   382
1005
16
0
DIMENSION
5
15D
100
AcDbEntity
8
SK2
62
256
6
ByLayer
370
18
48
1
60
0
100
AcDbDimension
2
_U1
10
0
20
-27.207732
30
0
11
27
21
-27.207732
31
0
70
32
71
1
72
1
41
1
210
0
220
0
230
1
3
Standard
100
AcDbAlignedDimension
13
54
23
-2.5
33
0
14
0
24
-4
34
0
50
0
100
AcDbRotatedDimension
1001
ACAD
1000
DSTYLE
1002
{
1070
   371
1070
    13
1070
   372
1070
    13
1070
     3
1000

1070
   170
1070
     0
1070
   144
1040
1.0
1070
   277
1070
     2
1070
   284
1070
     8
1070
   278
1070
    46
1070
   146
1040
1.166667
1070
   345
1005
16
1070
   347
1005
16
1070
   346
1005
16
1070
   344
1005
0
1070
   343
1005
0
1070
   172
1070
     1
1070
    76
1070
     0
1070
    75
1070
     0
1070
   282
1070
     0
1070
   281
1070
     0
1070
    71
1070
     0
1070
    74
1070
     0
1070
   279
1070
     0
1070
   173
1070
     1
1070
   340
1005
11A
1070
   271
1070
     2
1070
   272
1070
     2
1070
    77
1070
     1
1070
    73
1070
     1
1070
   171
1070
     3
1070
   274
1070
     4
1070
   177
1070
     2
1070
   176
1070
     2
1070
   178
1070
     2
1070
    78
1070
     8
1070
    48
1040
-0.1
1070
    41
1040
3.5
1070
   147
1040
1.5
1070
    42
1040
1.5875
1070
    44
1040
2.0
1070
   140
1040
3.0
1002
}
1001
ACAD_DSTYLE_DIM_LINETYPE
1070
   380
1005
16
1001
ACAD_DSTYLE_DIM_EXT1_LINETYPE
1070
   381
1005
16
1001
ACAD_DSTYLE_DIM_EXT2_LINETYPE
1070
   382
1005
16
0
DIMENSION
5
175
100
AcDbEntity
8
SK2
62
256
6
ByLayer
370
18
48
1
60
0
100
AcDbDimension
2
_U2
10
41.5
20
-13.207732
30
0
11
47.75
21
-13.207732
31
0
70
32
71
1
72
1
41
1
210
0
220
0
230
1
3
Standard
100
AcDbAlignedDimension
13
54
23
-2.5
33
0
14
41.5
24
-4
34
0
50
0
100
AcDbRotatedDimension
1001
ACAD
1000
DSTYLE
1002
{
1070
   371
1070
    13
1070
   372
1070
    13
1070
     3
1000

1070
   170
1070
     0
1070
   144
1040
1.0
1070
   277
1070
     2
1070
   284
1070
     8
1070
   278
1070
    46
1070
   146
1040
1.166667
1070
   345
1005
16
1070
   347
1005
16
1070
   346
1005
16
1070
   344
1005
0
1070
   343
1005
0
1070
   172
1070
     1
1070
    76
1070
     0
1070
    75
1070
     0
1070
   282
1070
     0
1070
   281
1070
     0
1070
    71
1070
     0
1070
    74
1070
     0
1070
   279
1070
     0
1070
   173
1070
     1
1070
   340
1005
11A
1070
   271
1070
     2
1070
   272
1070
     2
1070
    77
1070
     1
1070
    73
1070
     1
1070
   171
1070
     3
1070
   274
1070
     4
1070
   177
1070
     2
1070
   176
1070
     2
1070
   178
1070
     2
1070
    78
1070
     8
1070
    48
1040
-0.1
1070
    41
1040
3.5
1070
   147
1040
1.5
1070
    42
1040
1.5875
1070
    44
1040
2.0
1070
   140
1040
3.0
1002
}
1001
ACAD_DSTYLE_DIM_LINETYPE
1070
   380
1005
16
1001
ACAD_DSTYLE_DIM_EXT1_LINETYPE
1070
   381
1005
16
1001
ACAD_DSTYLE_DIM_EXT2_LINETYPE
1070
   382
1005
16
0
ENDSEC
0
SECTION
2
OBJECTS
0
DICTIONARY
5
1fe
330
0
100
AcDbDictionary
280
0
281
1
3
ACAD_GROUP
350
1ff
3
ACAD_MLINESTYLE
350
200
0
DICTIONARY
5
1ff
330
0
100
AcDbDictionary
280
0
281
1
0
DICTIONARY
5
200
330
0
100
AcDbDictionary
280
0
281
1
3
Standard
350
18
0
MLINESTYLE
5
18
330
200
100
AcDbMlineStyle
2
Standard
70
0
3

62
256
51
90
52
90
71
2
49
-0.5
62
256
6
ByLayer
49
0.5
62
256
6
ByLayer
0
RASTERVARIABLES
5
1ec
330

100
AcDbRasterVariables
90
0
70
1
71
1
72
1
0
ENDSEC
0
EOF
