0
SECTION
2
HEADER
9
$ACADVER
1
AC1015
9
$DWGCODEPAGE
3
ANSI_1252
9
$HANDSEED
5
2b2
9
$ANGBASE
50
0
9
$ANGDIR
70
0
9
$ATTMODE
70
1
9
$AUNITS
70
0
9
$AUPREC
70
0
9
$CECOLOR
62
256
9
$CELTSCALE
40
1
9
$CELTYPE
6
ByLayer
9
$CELWEIGHT
370
18
9
$CLAYER
8
0
9
$CMLJUST
70
0
9
$CMLSCALE
40
1
9
$CMLSTYLE
2
Standard
9
$DIMSTYLE
2
Standard
9
$TEXTSIZE
40
0.2
9
$TEXTSTYLE
7
Standard
9
$LUNITS
70
2
9
$LUPREC
70
4
9
$EXTNAMES
290
1
9
$INSUNITS
70
4
9
$LTSCALE
40
1
9
$LWDISPLAY
290
1
9
$PDMODE
70
0
9
$PDSIZE
40
0
9
$PLINEGEN
70
0
0
ENDSEC
0
SECTION
2
CLASSES
0
CLASS
1
RASTERVARIABLES
2
AcDbRasterVariables
3
ISM
90
0
280
0
281
0
0
ENDSEC
0
SECTION
2
TABLES
0
TABLE
2
VPORT
5
2a8
100
AcDbSymbolTable
0
VPORT
5
1
100
AcDbSymbolTableRecord
100
AcDbViewportTableRecord
2
*Active
70
0
10
0
20
0
11
1
21
1
12
-1
22
1
13
0
23
0
14
0.5
24
0.5
15
10
25
10
16
0
26
0
36
1
17
0
27
0
37
0
0
ENDTAB
0
TABLE
2
LTYPE
5
2a9
100
AcDbSymbolTable
0
LTYPE
5
14
100
AcDbSymbolTableRecord
100
AcDbLinetypeTableRecord
70
0
2
ByBlock
3

72
65
73
0
40
0
0
LTYPE
5
15
100
AcDbSymbolTableRecord
100
AcDbLinetypeTableRecord
70
0
2
ByLayer
3

72
65
73
0
40
0
0
LTYPE
5
16
100
AcDbSymbolTableRecord
100
AcDbLinetypeTableRecord
70
0
2
Continuous
3
Solid line
72
65
73
0
40
0
0
LTYPE
5
6E
100
AcDbSymbolTableRecord
100
AcDbLinetypeTableRecord
70
0
2
CENTER
3
____ _ ____ _ ____ _ ____
72
65
73
4
40
47.5
49
22
74
0
49
-8.5
74
0
49
8.5
74
0
49
-8.5
74
0
0
LTYPE
5
6F
100
AcDbSymbolTableRecord
100
AcDbLinetypeTableRecord
70
0
2
DASHED
3
__ __ __ __ __ __ __ __ __
72
65
73
2
40
25.72
49
12.86
74
0
49
-12.86
74
0
0
ENDTAB
0
TABLE
2
LAYER
5
2aa
100
AcDbSymbolTable
0
LAYER
5
10
100
AcDbSymbolTableRecord
100
AcDbLayerTableRecord
2
0
70
0
62
7
6
Continuous
290
1
370
-3
390
0
0
LAYER
5
71
100
AcDbSymbolTableRecord
100
AcDbLayerTableRecord
2
2
70
0
62
7
6
Continuous
290
1
370
-3
390
0
0
LAYER
5
8F
100
AcDbSymbolTableRecord
100
AcDbLayerTableRecord
2
81
70
0
62
-3
6
Continuous
290
1
370
-3
390
0
0
LAYER
5
91
100
AcDbSymbolTableRecord
100
AcDbLayerTableRecord
2
80
70
0
62
-6
6
Continuous
290
1
370
-3
390
0
0
LAYER
5
99
100
AcDbSymbolTableRecord
100
AcDbLayerTableRecord
2
1
70
0
62
4
6
Continuous
290
1
370
-3
390
0
0
LAYER
5
A7
100
AcDbSymbolTableRecord
100
AcDbLayerTableRecord
2
4
70
0
62
-2
6
CENTER
290
1
370
-3
390
0
0
LAYER
5
21F
100
AcDbSymbolTableRecord
100
AcDbLayerTableRecord
2
Defpoints
70
0
62
7
6
Continuous
290
0
370
-3
390
0
0
LAYER
5
294
100
AcDbSymbolTableRecord
100
AcDbLayerTableRecord
2
SK4
70
0
62
2
6
CENTER
290
1
370
-3
390
0
0
LAYER
5
295
100
AcDbSymbolTableRecord
100
AcDbLayerTableRecord
2
SK1
70
0
62
4
6
Continuous
290
1
370
-3
390
0
0
LAYER
5
296
100
AcDbSymbolTableRecord
100
AcDbLayerTableRecord
2
SK2
70
0
62
7
6
Continuous
290
1
370
-3
390
0
0
LAYER
5
297
100
AcDbSymbolTableRecord
100
AcDbLayerTableRecord
2
SK6
70
0
62
5
6
Continuous
290
1
370
-3
390
0
0
ENDTAB
0
TABLE
2
STYLE
5
2ab
100
AcDbSymbolTable
0
STYLE
5
11
100
AcDbSymbolTableRecord
100
AcDbTextStyleTableRecord
2
Standard
3
txt
70
0
71
0
40
0
41
1
42
0
50
0
0
STYLE
5
1EF
100
AcDbSymbolTableRecord
100
AcDbTextStyleTableRecord
2
iso_b_vert
3
simplex.shx
70
0
71
0
40
0
41
1
42
0
50
0
0
STYLE
5
1F0
100
AcDbSymbolTableRecord
100
AcDbTextStyleTableRecord
2
DWGDirectTextStyle
3
simplex
70
0
71
0
40
0
41
1
42
0
50
0
0
ENDTAB
0
TABLE
2
DIMSTYLE
5
2ac
100
AcDbSymbolTable
100
AcDbDimStyleTable
0
DIMSTYLE
105
27
100
AcDbSymbolTableRecord
100
AcDbDimStyleTableRecord
2
Standard
70
0
3
<>
41
0.18
42
0.0625
44
0.18
140
0.18
147
0.09
73
0
74
0
77
1
271
2
275
0
278
52
280
0
340
11
0
ENDTAB
0
TABLE
2
VIEW
5
2ad
100
AcDbSymbolTable
0
ENDTAB
0
TABLE
2
UCS
5
2ae
100
AcDbSymbolTable
0
ENDTAB
0
TABLE
2
APPID
5
2af
100
AcDbSymbolTable
0
APPID
5
12
100
AcDbSymbolTableRecord
100
AcDbRegAppTableRecord
2
ACAD
70
0
0
APPID
5
21B
100
AcDbSymbolTableRecord
100
AcDbRegAppTableRecord
2
ACAD_DSTYLE_DIMBREAK
70
0
0
APPID
5
253
100
AcDbSymbolTableRecord
100
AcDbRegAppTableRecord
2
ACAD_DSTYLE_DIM_LINETYPE
70
0
0
APPID
5
254
100
AcDbSymbolTableRecord
100
AcDbRegAppTableRecord
2
ACAD_DSTYLE_DIM_EXT1_LINETYPE
70
0
0
APPID
5
255
100
AcDbSymbolTableRecord
100
AcDbRegAppTableRecord
2
ACAD_DSTYLE_DIM_EXT2_LINETYPE
70
0
0
APPID
5
290
100
AcDbSymbolTableRecord
100
AcDbRegAppTableRecord
2
ACAD_MLEADERVER
70
0
0
ENDTAB
0
TABLE
2
BLOCK_RECORD
5
2b0
100
AcDbSymbolTable
0
BLOCK_RECORD
5
1F
100
AcDbSymbolTableRecord
100
AcDbBlockTableRecord
2
*Model_Space
340
0
70
0
0
BLOCK_RECORD
5
1B
100
AcDbSymbolTableRecord
100
AcDbBlockTableRecord
2
*Paper_Space
340
0
70
0
0
BLOCK_RECORD
5
23
100
AcDbSymbolTableRecord
100
AcDbBlockTableRecord
2
*Paper_Space0
340
0
70
0
0
BLOCK_RECORD
5
220
100
AcDbSymbolTableRecord
100
AcDbBlockTableRecord
2
*D1
340
0
70
0
0
BLOCK_RECORD
5
22C
100
AcDbSymbolTableRecord
100
AcDbBlockTableRecord
2
_U0
340
0
70
0
0
ENDTAB
0
ENDSEC
0
SECTION
2
BLOCKS
0
BLOCK
5
20
100
AcDbEntity
8
0
100
AcDbBlockBegin
2
*Model_Space
70
0
10
0
20
0
30
0
3
*Model_Space
0
ENDBLK
5
21
100
AcDbEntity
8
0
100
AcDbBlockEnd
0
BLOCK
5
1C
100
AcDbEntity
8
0
100
AcDbBlockBegin
2
*Paper_Space
70
0
10
0
20
0
30
0
3
*Paper_Space
0
ENDBLK
5
1D
100
AcDbEntity
8
0
100
AcDbBlockEnd
0
BLOCK
5
24
100
AcDbEntity
8
0
100
AcDbBlockBegin
2
*Paper_Space0
70
0
10
0
20
0
30
0
3
*Paper_Space0
0
ENDBLK
5
25
100
AcDbEntity
8
0
100
AcDbBlockEnd
0
BLOCK
5
221
100
AcDbEntity
8
0
100
AcDbBlockBegin
2
*D1
70
1
10
0
20
0
30
0
3
*D1
0
LINE
5
223
100
AcDbEntity
8
0
62
256
6
ByLayer
370
-2
48
1
60
0
100
AcDbLine
10
33
20
-31.5875
30
0
11
33
21
-55.1
31
0
39
0
210
0
220
0
230
1
0
LINE
5
224
100
AcDbEntity
8
0
62
256
6
ByLayer
370
-2
48
1
60
0
100
AcDbLine
10
180
20
28.4125
30
0
11
180
21
-55.1
31
0
39
0
210
0
220
0
230
1
0
LINE
5
225
100
AcDbEntity
8
0
62
256
6
ByLayer
370
-2
48
1
60
0
100
AcDbLine
10
36.5
20
-53.1
30
0
11
176.5
21
-53.1
31
0
39
0
210
0
220
0
230
1
0
SOLID
5
226
100
AcDbEntity
8
0
62
256
6
ByLayer
370
-1
48
1
60
0
100
AcDbTrace
10
36.5
20
-52.516667
30
0
11
36.5
21
-53.683333
31
0
12
33
22
-53.1
32
0
13
33
23
-53.1
33
0
39
0
210
0
220
0
230
1
0
SOLID
5
227
100
AcDbEntity
8
0
62
256
6
ByLayer
370
-1
48
1
60
0
100
AcDbTrace
10
176.5
20
-53.683333
30
0
11
176.5
21
-52.516667
31
0
12
180
22
-53.1
32
0
13
180
23
-53.1
33
0
39
0
210
0
220
0
230
1
0
MTEXT
5
228
100
AcDbEntity
8
0
62
256
6
ByLayer
370
18
48
1
60
0
100
AcDbMText
10
106.5
20
-46.1
30
0
210
0
220
0
230
1
1
\A1;147
40
3.5
41
0
44
1
50
0
71
5
72
5
7
iso_b_vert
0
POINT
5
229
100
AcDbEntity
8
Defpoints
62
0
6
ByLayer
370
-1
48
1
60
0
100
AcDbPoint
10
33
20
-30
30
0
39
0
210
0
220
0
230
1
50
360
0
POINT
5
22A
100
AcDbEntity
8
Defpoints
62
0
6
ByLayer
370
-1
48
1
60
0
100
AcDbPoint
10
180
20
30
30
0
39
0
210
0
220
0
230
1
50
360
0
POINT
5
22B
100
AcDbEntity
8
Defpoints
62
0
6
ByLayer
370
-1
48
1
60
0
100
AcDbPoint
10
180
20
-53.1
30
0
39
0
210
0
220
0
230
1
50
360
0
ENDBLK
5
222
100
AcDbEntity
8
0
100
AcDbBlockEnd
0
BLOCK
5
233
100
AcDbEntity
8
0
100
AcDbBlockBegin
2
_U0
70
0
10
0
20
0
30
0
3
_U0
0
MTEXT
5
22D
100
AcDbEntity
8
SK2
62
256
6
ByLayer
370
18
48
1
60
0
100
AcDbMText
10
103.540467
20
-52.067366
30
0
210
0
220
0
230
1
1
\W0.6620;147
40
3.5
41
0
44
1.084337
50
0
71
7
72
5
7
iso_b_vert
0
LINE
5
22E
100
AcDbEntity
8
SK2
62
256
6
ByLayer
370
13
48
1
60
0
100
AcDbLine
10
33
20
-31.5875
30
0
11
33
21
-55.1
31
0
39
0
210
0
220
0
230
1
0
LINE
5
22F
100
AcDbEntity
8
SK2
62
256
6
ByLayer
370
13
48
1
60
0
100
AcDbLine
10
180
20
28.4125
30
0
11
180
21
-55.1
31
0
39
0
210
0
220
0
230
1
0
LINE
5
230
100
AcDbEntity
8
SK2
62
256
6
ByLayer
370
13
48
1
60
0
100
AcDbLine
10
33
20
-53.1
30
0
11
180
21
-53.1
31
0
39
0
210
0
220
0
230
1
0
SOLID
5
231
100
AcDbEntity
8
SK2
62
256
6
ByLayer
370
18
48
1
60
0
100
AcDbTrace
10
33
20
-53.1
30
0
11
36.499998
21
-52.639216
31
0
12
36.500002
22
-53.560784
32
0
13
36.500002
23
-53.560784
33
0
39
0
210
0
220
0
230
1
0
SOLID
5
232
100
AcDbEntity
8
SK2
62
256
6
ByLayer
370
18
48
1
60
0
100
AcDbTrace
10
180
20
-53.1
30
0
11
176.500002
21
-53.560784
31
0
12
176.499998
22
-52.639216
32
0
13
176.499998
23
-52.639216
33
0
39
0
210
0
220
0
230
1
0
ENDBLK
5
234
100
AcDbEntity
8
0
100
AcDbBlockEnd
0
ENDSEC
0
SECTION
2
ENTITIES
0
ARC
5
15D
100
AcDbEntity
8
1
62
256
6
ByLayer
370
18
48
1
60
0
100
AcDbCircle
39
0
10
175.8
20
-29.8
30
0
40
0.2
210
0
220
0
230
1
100
AcDbArc
50
270
51
0
0
ARC
5
15E
100
AcDbEntity
8
1
62
256
6
ByLayer
370
18
48
1
60
0
100
AcDbCircle
39
0
10
175.8
20
29.8
30
0
40
0.2
210
0
220
0
230
1
100
AcDbArc
50
0
51
90
0
ARC
5
15F
100
AcDbEntity
8
1
62
256
6
ByLayer
370
18
48
1
60
0
100
AcDbCircle
39
0
10
33
20
33
30
0
40
3
210
0
220
0
230
1
100
AcDbArc
50
180
51
270
0
ARC
5
160
100
AcDbEntity
8
1
62
256
6
ByLayer
370
18
48
1
60
0
100
AcDbCircle
39
0
10
33
20
-33
30
0
40
3
210
0
220
0
230
1
100
AcDbArc
50
90
51
180
0
ARC
5
161
100
AcDbEntity
8
1
62
256
6
ByLayer
370
18
48
1
60
0
100
AcDbCircle
39
0
10
29.5
20
-39.5
30
0
40
0.5
210
0
220
0
230
1
100
AcDbArc
50
270
51
0
0
ARC
5
162
100
AcDbEntity
8
1
62
256
6
ByLayer
370
18
48
1
60
0
100
AcDbCircle
39
0
10
29.5
20
39.5
30
0
40
0.5
210
0
220
0
230
1
100
AcDbArc
50
0
51
90
0
ARC
5
163
100
AcDbEntity
8
SK1
62
256
6
ByLayer
370
18
48
1
60
0
100
AcDbCircle
39
0
10
-0.6
20
29.6
30
0
40
0.999999999999994
210
0
220
0
230
1
100
AcDbArc
50
293.578178
51
306.869898
0
ARC
5
164
100
AcDbEntity
8
SK1
62
256
6
ByLayer
370
18
48
1
60
0
100
AcDbCircle
39
0
10
-0.6
20
-29.6
30
0
40
0.999999999999994
210
0
220
0
230
1
100
AcDbArc
50
53.130102
51
66.421822
0
ARC
5
165
100
AcDbEntity
8
1
62
256
6
ByLayer
370
18
48
1
60
0
100
AcDbCircle
39
0
10
178.5
20
10.5
30
0
40
0.5
210
0
220
0
230
1
100
AcDbArc
50
180
51
270
0
ARC
5
166
100
AcDbEntity
8
1
62
256
6
ByLayer
370
18
48
1
60
0
100
AcDbCircle
39
0
10
176.2
20
-29.8
30
0
40
0.2
210
0
220
0
230
1
100
AcDbArc
50
180
51
270
0
ARC
5
167
100
AcDbEntity
8
1
62
256
6
ByLayer
370
18
48
1
60
0
100
AcDbCircle
39
0
10
176.2
20
29.8
30
0
40
0.2
210
0
220
0
230
1
100
AcDbArc
50
90
51
180
0
ARC
5
168
100
AcDbEntity
8
1
62
256
6
ByLayer
370
18
48
1
60
0
100
AcDbCircle
39
0
10
184.8
20
-3.300505
30
0
40
0.2
210
0
220
0
230
1
100
AcDbArc
50
0
51
90
0
ARC
5
169
100
AcDbEntity
8
1
62
256
6
ByLayer
370
18
48
1
60
0
100
AcDbCircle
39
0
10
184.8
20
3.099495
30
0
40
0.2
210
0
220
0
230
1
100
AcDbArc
50
270
51
0
0
ARC
5
16A
100
AcDbEntity
8
1
62
256
6
ByLayer
370
18
48
1
60
0
100
AcDbCircle
39
0
10
190.4
20
-4.500505
30
0
40
0.6
210
0
220
0
230
1
100
AcDbArc
50
270
51
0
0
ARC
5
16B
100
AcDbEntity
8
1
62
256
6
ByLayer
370
18
48
1
60
0
100
AcDbCircle
39
0
10
190.4
20
4.299495
30
0
40
0.6
210
0
220
0
230
1
100
AcDbArc
50
0
51
90
0
ARC
5
16C
100
AcDbEntity
8
1
62
256
6
ByLayer
370
18
48
1
60
0
100
AcDbCircle
39
0
10
184.8
20
-23.099495
30
0
40
0.2
210
0
220
0
230
1
100
AcDbArc
50
0
51
90
0
ARC
5
16D
100
AcDbEntity
8
1
62
256
6
ByLayer
370
18
48
1
60
0
100
AcDbCircle
39
0
10
184.8
20
-16.699495
30
0
40
0.2
210
0
220
0
230
1
100
AcDbArc
50
270
51
0
0
ARC
5
16E
100
AcDbEntity
8
1
62
256
6
ByLayer
370
18
48
1
60
0
100
AcDbCircle
39
0
10
190.4
20
-24.299495
30
0
40
0.6
210
0
220
0
230
1
100
AcDbArc
50
270
51
0
0
ARC
5
16F
100
AcDbEntity
8
1
62
256
6
ByLayer
370
18
48
1
60
0
100
AcDbCircle
39
0
10
190.4
20
-15.499495
30
0
40
0.6
210
0
220
0
230
1
100
AcDbArc
50
0
51
90
0
ELLIPSE
5
170
100
AcDbEntity
8
1
62
256
6
ByLayer
370
18
48
1
60
0
100
AcDbEllipse
10
-6.763884
20
0
30
0
11
18.7348357595656
21
39.4834983055025
31
0
210
0
220
0
230
1
40
0.341999
41
-1.08794676716926
42
-0.161099005228943
0
ELLIPSE
5
171
100
AcDbEntity
8
1
62
256
6
ByLayer
370
18
48
1
60
0
100
AcDbEllipse
10
30.763884
20
0
30
0
11
18.7348357595635
21
-39.4834983054997
31
0
210
0
220
0
230
1
40
0.341999
41
-2.98049364836085
42
-2.05364588642048
0
ELLIPSE
5
172
100
AcDbEntity
8
1
62
256
6
ByLayer
370
18
48
1
60
0
100
AcDbEllipse
10
30.763884
20
0
30
0
11
18.7348357595633
21
39.4834983054994
31
0
210
0
220
0
230
1
40
0.341999
41
2.05364588642048
42
2.98049364836085
0
ELLIPSE
5
173
100
AcDbEntity
8
1
62
256
6
ByLayer
370
18
48
1
60
0
100
AcDbEllipse
10
-6.763884
20
0
30
0
11
18.7348357595638
21
-39.4834983055003
31
0
210
0
220
0
230
1
40
0.341999
41
0.161099005228945
42
1.08794676716931
0
ELLIPSE
5
174
100
AcDbEntity
8
1
62
256
6
ByLayer
370
13
48
1
60
0
100
AcDbEllipse
10
178.5
20
-28.9875
30
0
11
0.5
21
0
31
0
210
0
220
0
230
1
40
0.92622
41
1.5707963267949
42
2.61329521326978
0
POINT
5
70
100
AcDbEntity
8
2
62
256
6
ByLayer
370
18
48
1
60
0
100
AcDbPoint
10
181
20
-0.100505
30
0
39
0
210
0
220
0
230
1
50
360
0
POINT
5
72
100
AcDbEntity
8
2
62
256
6
ByLayer
370
18
48
1
60
0
100
AcDbPoint
10
181
20
-19.899495
30
0
39
0
210
0
220
0
230
1
50
360
0
POINT
5
73
100
AcDbEntity
8
2
62
256
6
ByLayer
370
18
48
1
60
0
100
AcDbPoint
10
181
20
-0.100505
30
0
39
0
210
0
220
0
230
1
50
360
0
POINT
5
74
100
AcDbEntity
8
2
62
256
6
ByLayer
370
18
48
1
60
0
100
AcDbPoint
10
185
20
-19.899495
30
0
39
0
210
0
220
0
230
1
50
360
0
POINT
5
75
100
AcDbEntity
8
2
62
256
6
ByLayer
370
18
48
1
60
0
100
AcDbPoint
10
143.5
20
-20
30
0
39
0
210
0
220
0
230
1
50
360
0
POINT
5
76
100
AcDbEntity
8
2
62
256
6
ByLayer
370
18
48
1
60
0
100
AcDbPoint
10
177.37476
20
-10
30
0
39
0
210
0
220
0
230
1
50
360
0
POINT
5
77
100
AcDbEntity
8
2
62
256
6
ByLayer
370
18
48
1
60
0
100
AcDbPoint
10
180
20
-10
30
0
39
0
210
0
220
0
230
1
50
360
0
POINT
5
78
100
AcDbEntity
8
2
62
256
6
ByLayer
370
50
48
1
60
0
100
AcDbPoint
10
159
20
0
30
0
39
0
210
0
220
0
230
1
50
360
0
POINT
5
79
100
AcDbEntity
8
2
62
256
6
ByLayer
370
18
48
1
60
0
100
AcDbPoint
10
158.5
20
0
30
0
39
0
210
0
220
0
230
1
50
360
0
POINT
5
7A
100
AcDbEntity
8
2
62
256
6
ByLayer
370
50
48
1
60
0
100
AcDbPoint
10
185
20
0
30
0
39
0
210
0
220
0
230
1
50
360
0
POINT
5
7B
100
AcDbEntity
8
2
62
256
6
ByLayer
370
18
48
1
60
0
100
AcDbPoint
10
180
20
-10
30
0
39
0
210
0
220
0
230
1
50
360
0
POINT
5
7C
100
AcDbEntity
8
2
62
256
6
ByLayer
370
18
48
1
60
0
100
AcDbPoint
10
176
20
0
30
0
39
0
210
0
220
0
230
1
50
360
0
POINT
5
7D
100
AcDbEntity
8
2
62
256
6
ByLayer
370
18
48
1
60
0
100
AcDbPoint
10
165
20
0
30
0
39
0
210
0
220
0
230
1
50
360
0
POINT
5
7E
100
AcDbEntity
8
2
62
256
6
ByLayer
370
18
48
1
60
0
100
AcDbPoint
10
176
20
0
30
0
39
0
210
0
220
0
230
1
50
360
0
POINT
5
7F
100
AcDbEntity
8
2
62
256
6
ByLayer
370
18
48
1
60
0
100
AcDbPoint
10
149
20
0
30
0
39
0
210
0
220
0
230
1
50
360
0
POINT
5
80
100
AcDbEntity
8
2
62
256
6
ByLayer
370
18
48
1
60
0
100
AcDbPoint
10
177.37476
20
-10
30
0
39
0
210
0
220
0
230
1
50
360
0
POINT
5
81
100
AcDbEntity
8
2
62
256
6
ByLayer
370
18
48
1
60
0
100
AcDbPoint
10
103.5
20
-20
30
0
39
0
210
0
220
0
230
1
50
360
0
POINT
5
82
100
AcDbEntity
8
2
62
256
6
ByLayer
370
18
48
1
60
0
100
AcDbPoint
10
165
20
0
30
0
39
0
210
0
220
0
230
1
50
360
0
POINT
5
83
100
AcDbEntity
8
2
62
256
6
ByLayer
370
18
48
1
60
0
100
AcDbPoint
10
185
20
-19.899495
30
0
39
0
210
0
220
0
230
1
50
360
0
POINT
5
84
100
AcDbEntity
8
2
62
256
6
ByLayer
370
18
48
1
60
0
100
AcDbPoint
10
158.5
20
0
30
0
39
0
210
0
220
0
230
1
50
360
0
POINT
5
85
100
AcDbEntity
8
2
62
256
6
ByLayer
370
18
48
1
60
0
100
AcDbPoint
10
88
20
0
30
0
39
0
210
0
220
0
230
1
50
360
0
POINT
5
86
100
AcDbEntity
8
2
62
256
6
ByLayer
370
18
48
1
60
0
100
AcDbPoint
10
77.2
20
0
30
0
39
0
210
0
220
0
230
1
50
360
0
POINT
5
87
100
AcDbEntity
8
2
62
256
6
ByLayer
370
18
48
1
60
0
100
AcDbPoint
10
88.5
20
0
30
0
39
0
210
0
220
0
230
1
50
360
0
POINT
5
88
100
AcDbEntity
8
2
62
256
6
ByLayer
370
18
48
1
60
0
100
AcDbPoint
10
82.85
20
0
30
0
39
0
210
0
220
0
230
1
50
360
0
POINT
5
89
100
AcDbEntity
8
2
62
256
6
ByLayer
370
18
48
1
60
0
100
AcDbPoint
10
82.6
20
0
30
0
39
0
210
0
220
0
230
1
50
360
0
POINT
5
8A
100
AcDbEntity
8
2
62
256
6
ByLayer
370
18
48
1
60
0
100
AcDbPoint
10
77.2
20
0
30
0
39
0
210
0
220
0
230
1
50
360
0
POINT
5
8B
100
AcDbEntity
8
2
62
256
6
ByLayer
370
18
48
1
60
0
100
AcDbPoint
10
124.5
20
0
30
0
39
0
210
0
220
0
230
1
50
360
0
POINT
5
8C
100
AcDbEntity
8
2
62
256
6
ByLayer
370
18
48
1
60
0
100
AcDbPoint
10
165
20
0
30
0
39
0
210
0
220
0
230
1
50
360
0
POINT
5
8D
100
AcDbEntity
8
2
62
256
6
ByLayer
370
18
48
1
60
0
100
AcDbPoint
10
84
20
0
30
0
39
0
210
0
220
0
230
1
50
360
0
POINT
5
8E
100
AcDbEntity
8
81
62
256
6
ByLayer
370
18
48
1
60
0
100
AcDbPoint
10
180
20
-10
30
0
39
0
210
0
220
0
230
1
50
360
0
POINT
5
90
100
AcDbEntity
8
80
62
256
6
ByLayer
370
18
48
1
60
0
100
AcDbPoint
10
0
20
0
30
0
39
0
210
0
220
0
230
1
50
360
0
POINT
5
92
100
AcDbEntity
8
2
62
256
6
ByLayer
370
18
48
1
60
0
100
AcDbPoint
10
88.5
20
0
30
0
39
0
210
0
220
0
230
1
50
360
0
POINT
5
93
100
AcDbEntity
8
2
62
256
6
ByLayer
370
18
48
1
60
0
100
AcDbPoint
10
103.5
20
-20
30
0
39
0
210
0
220
0
230
1
50
360
0
POINT
5
94
100
AcDbEntity
8
2
62
256
6
ByLayer
370
18
48
1
60
0
100
AcDbPoint
10
143.5
20
-20
30
0
39
0
210
0
220
0
230
1
50
360
0
POINT
5
95
100
AcDbEntity
8
2
62
256
6
ByLayer
370
18
48
1
60
0
100
AcDbPoint
10
152.75
20
0
30
0
39
0
210
0
220
0
230
1
50
360
0
POINT
5
96
100
AcDbEntity
8
2
62
256
6
ByLayer
370
18
48
1
60
0
100
AcDbPoint
10
158.5
20
0
30
0
39
0
210
0
220
0
230
1
50
360
0
POINT
5
97
100
AcDbEntity
8
2
62
256
6
ByLayer
370
18
48
1
60
0
100
AcDbPoint
10
94.25
20
0
30
0
39
0
210
0
220
0
230
1
50
360
0
POINT
5
98
100
AcDbEntity
8
1
62
256
6
ByLayer
370
13
48
1
60
1
100
AcDbPoint
10
172.05
20
-19.899495
30
0
39
0
210
0
220
0
230
1
50
360
0
POINT
5
9A
100
AcDbEntity
8
1
62
256
6
ByLayer
370
13
48
1
60
1
100
AcDbPoint
10
191.9
20
-19.899495
30
0
39
0
210
0
220
0
230
1
50
360
0
POINT
5
9B
100
AcDbEntity
8
1
62
256
6
ByLayer
370
13
48
1
60
1
100
AcDbPoint
10
176.244351
20
-10
30
0
39
0
210
0
220
0
230
1
50
360
0
POINT
5
9C
100
AcDbEntity
8
1
62
256
6
ByLayer
370
13
48
1
60
1
100
AcDbPoint
10
181.82476
20
-10
30
0
39
0
210
0
220
0
230
1
50
360
0
POINT
5
9D
100
AcDbEntity
8
1
62
256
6
ByLayer
370
13
48
1
60
1
100
AcDbPoint
10
172.05
20
-0.100505
30
0
39
0
210
0
220
0
230
1
50
360
0
POINT
5
9E
100
AcDbEntity
8
1
62
256
6
ByLayer
370
13
48
1
60
1
100
AcDbPoint
10
191.9
20
-0.100505
30
0
39
0
210
0
220
0
230
1
50
360
0
POINT
5
9F
100
AcDbEntity
8
1
62
256
6
ByLayer
370
13
48
1
60
1
100
AcDbPoint
10
179.52
20
0
30
0
39
0
210
0
220
0
230
1
50
360
0
POINT
5
A0
100
AcDbEntity
8
1
62
256
6
ByLayer
370
13
48
1
60
1
100
AcDbPoint
10
174.7
20
0
30
0
39
0
210
0
220
0
230
1
50
360
0
POINT
5
A1
100
AcDbEntity
8
1
62
256
6
ByLayer
370
18
48
1
60
1
100
AcDbPoint
10
33
20
-30
30
0
39
0
210
0
220
0
230
1
50
360
0
POINT
5
A2
100
AcDbEntity
8
1
62
256
6
ByLayer
370
18
48
1
60
1
100
AcDbPoint
10
180
20
30
30
0
39
0
210
0
220
0
230
1
50
360
0
SPLINE
5
175
100
AcDbEntity
8
1
62
256
6
ByLayer
370
18
48
1
60
0
100
AcDbSpline
70
4
71
3
72
26
73
22
40
0
40
0
40
0
40
0
40
0.0625000000000028
40
0.0625000000000028
40
0.0937500000000048
40
0.0937500000000048
40
0.125000000000007
40
0.125000000000007
40
0.250000000000005
40
0.250000000000005
40
0.375000000000004
40
0.375000000000004
40
0.437500000000004
40
0.437500000000004
40
0.500000000000004
40
0.500000000000004
40
0.625000000000006
40
0.625000000000006
40
0.750000000000008
40
0.750000000000008
40
1
40
1
40
1
40
1
41
1
10
13.4613248654051
20
38.1154578595255
30
0
41
1
10
13.4771575420862
20
38.1154578595254
30
0
41
1
10
13.4926967829159
20
38.1149630443688
30
0
41
1
10
13.5156051329863
20
38.1135446782955
30
0
41
1
10
13.5231743077461
20
38.1129588629861
30
0
41
1
10
13.5381834149643
20
38.1115687100729
30
0
41
1
10
13.5456561777206
20
38.1107596566994
30
0
41
1
10
13.5820585103617
20
38.1062685963606
30
0
41
1
10
13.6085397975366
20
38.101260466828
30
0
41
1
10
13.6577471021952
20
38.0892687952498
30
0
41
1
10
13.6795828635238
20
38.0825033540054
30
0
41
1
10
13.7096051321544
20
38.0715750854947
30
0
41
1
10
13.7191444204644
20
38.0677988367432
30
0
41
1
10
13.7374189069211
20
38.0600136207933
30
0
41
1
10
13.7461680175129
20
38.0559959802046
30
0
41
1
10
13.7710680782536
20
38.0437782351317
30
0
41
1
10
13.7859982057652
20
38.0353721093621
30
0
41
1
10
13.8133554924884
20
38.0181487945758
30
0
41
1
10
13.8257737503389
20
38.0093303853475
30
0
41
1
10
13.8599678398711
20
37.9823481941392
30
0
41
1
10
13.8787504379151
20
37.9636126331776
30
0
41
1
10
13.8943375672974
20
37.9445010117191
30
0
0
SPLINE
5
176
100
AcDbEntity
8
1
62
256
6
ByLayer
370
18
48
1
60
0
100
AcDbSpline
70
4
71
3
72
32
73
28
40
0
40
0
40
0
40
0
40
0.24999999999999
40
0.24999999999999
40
0.374999999999988
40
0.374999999999988
40
0.437499999999984
40
0.437499999999984
40
0.49999999999998
40
0.49999999999998
40
0.624999999999985
40
0.624999999999985
40
0.687499999999985
40
0.687499999999985
40
0.749999999999984
40
0.749999999999984
40
0.812499999999984
40
0.812499999999984
40
0.843749999999983
40
0.843749999999983
40
0.874999999999983
40
0.874999999999983
40
0.937499999999992
40
0.937499999999992
40
0.968749999999996
40
0.968749999999996
40
1
40
1
40
1
40
1
41
1
10
13.8943375672973
20
12.6576002058704
30
0
41
1
10
13.8787561873887
20
12.6003292036663
30
0
41
1
10
13.8601238798742
20
12.5441499637056
30
0
41
1
10
13.8260027135195
20
12.462121615994
30
0
41
1
10
13.8135898550186
20
12.4351561290447
30
0
41
1
10
13.7930183318666
20
12.3954218364664
30
0
41
1
10
13.785833939305
20
12.382296752951
30
0
41
1
10
13.7707119348145
20
12.3563230389551
30
0
41
1
10
13.762764024215
20
12.3434618357381
30
0
41
1
10
13.7378358829826
20
12.3057192432197
30
0
41
1
10
13.7197379933357
20
12.2815531796602
30
0
41
1
10
13.6895137280945
20
12.2473838346621
30
0
41
1
10
13.6789130531145
20
12.2363474443952
30
0
41
1
10
13.6568189855006
20
12.2154741288523
30
0
41
1
10
13.6452904427558
20
12.2055929865224
30
0
41
1
10
13.6210819432585
20
12.1871605631486
30
0
41
1
10
13.6084039311045
20
12.1786070311294
30
0
41
1
10
13.5883100345541
20
12.1670216512237
30
0
41
1
10
13.5814016237711
20
12.1633555796795
30
0
41
1
10
13.567396336243
20
12.156602254
30
0
41
1
10
13.5602871584325
20
12.1535051719202
30
0
41
1
10
13.5386188527679
20
12.1451084576004
30
0
41
1
10
13.5237210688636
20
12.1406978104911
30
0
41
1
10
13.5005803004527
20
12.1361671045751
30
0
41
1
10
13.4927562946969
20
12.1350139079814
30
0
41
1
10
13.4770952538461
20
12.1334785049663
30
0
41
1
10
13.4692285817717
20
12.1330899674707
30
0
41
1
10
13.4613248654052
20
12.1330899674707
30
0
0
SPLINE
5
177
100
AcDbEntity
8
1
62
256
6
ByLayer
370
18
48
1
60
0
100
AcDbSpline
70
4
71
3
72
26
73
22
40
0
40
0
40
0
40
0
40
0.062499999999984
40
0.062499999999984
40
0.09374999999998
40
0.09374999999998
40
0.124999999999976
40
0.124999999999976
40
0.249999999999966
40
0.249999999999966
40
0.374999999999956
40
0.374999999999956
40
0.437499999999956
40
0.437499999999956
40
0.499999999999957
40
0.499999999999957
40
0.624999999999967
40
0.624999999999967
40
0.749999999999977
40
0.749999999999977
40
1
40
1
40
1
40
1
41
1
10
10.5386751345948
20
12.1330899674707
30
0
41
1
10
10.5228424579138
20
12.1330899674707
30
0
41
1
10
10.5073032170841
20
12.1346446934811
30
0
41
1
10
10.4843948670137
20
12.1390985861071
30
0
41
1
10
10.4768256922539
20
12.1409378530103
30
0
41
1
10
10.4618165850356
20
12.1453009719696
30
0
41
1
10
10.4543438222793
20
12.1478396076276
30
0
41
1
10
10.4179414896383
20
12.1619255694047
30
0
41
1
10
10.3914602024633
20
12.177616249759
30
0
41
1
10
10.3422528978047
20
12.215072219626
30
0
41
1
10
10.3204171364761
20
12.2361555816479
30
0
41
1
10
10.2903948678455
20
12.2700982796011
30
0
41
1
10
10.2808555795355
20
12.2818098068951
30
0
41
1
10
10.2625810930789
20
12.3059141713455
30
0
41
1
10
10.253831982487
20
12.3183336732122
30
0
41
1
10
10.2289319217463
20
12.3560364080031
30
0
41
1
10
10.2140017942348
20
12.3818915830841
30
0
41
1
10
10.1866445075115
20
12.4346746200446
30
0
41
1
10
10.1742262496611
20
12.4616063758703
30
0
41
1
10
10.1400321601288
20
12.5437053894649
30
0
41
1
10
10.1212495620848
20
12.6003080708704
30
0
41
1
10
10.1056624327025
20
12.6576002058703
30
0
0
SPLINE
5
178
100
AcDbEntity
8
1
62
256
6
ByLayer
370
18
48
1
60
0
100
AcDbSpline
70
4
71
3
72
32
73
28
40
0
40
0
40
0
40
0
40
0.249999999999999
40
0.249999999999999
40
0.374999999999996
40
0.374999999999996
40
0.437499999999994
40
0.437499999999994
40
0.499999999999992
40
0.499999999999992
40
0.624999999999992
40
0.624999999999992
40
0.687499999999991
40
0.687499999999991
40
0.749999999999991
40
0.749999999999991
40
0.81249999999999
40
0.81249999999999
40
0.843749999999992
40
0.843749999999992
40
0.874999999999995
40
0.874999999999995
40
0.937500000000001
40
0.937500000000001
40
0.96875
40
0.96875
40
1
40
1
40
1
40
1
41
1
10
10.1056624327026
20
37.9445010117191
30
0
41
1
10
10.1212438126112
20
37.9636055836586
30
0
41
1
10
10.1398761201257
20
37.9822012953861
30
0
41
1
10
10.1739972864804
20
38.0091614379608
30
0
41
1
10
10.1864101449813
20
38.0179913785433
30
0
41
1
10
10.2069816681333
20
38.0309572795536
30
0
41
1
10
10.214166060695
20
38.0352325300315
30
0
41
1
10
10.2292880651854
20
38.0436784163768
30
0
41
1
10
10.237235975785
20
38.0478530906643
30
0
41
1
10
10.2621641170173
20
38.0600837295902
30
0
41
1
10
10.2802620066642
20
38.0678870466105
30
0
41
1
10
10.3104862719054
20
38.0788882765902
30
0
41
1
10
10.3210869468855
20
38.0824358644267
30
0
41
1
10
10.3431810144993
20
38.0891364033824
30
0
41
1
10
10.3547095572442
20
38.0923035991792
30
0
41
1
10
10.3789180567415
20
38.0982048271663
30
0
41
1
10
10.3915960688954
20
38.1009395753102
30
0
41
1
10
10.4116899654458
20
38.1046401449179
30
0
41
1
10
10.4185983762288
20
38.1058104966308
30
0
41
1
10
10.432603663757
20
38.1079654954302
30
0
41
1
10
10.4397128415675
20
38.1089532874669
30
0
41
1
10
10.461381147232
20
38.1116304436586
30
0
41
1
10
10.4762789311363
20
38.1130353910944
30
0
41
1
10
10.4994196995473
20
38.1144782270721
30
0
41
1
10
10.507243705303
20
38.1148453768633
30
0
41
1
10
10.5229047461539
20
38.1153341847952
30
0
41
1
10
10.5307714182282
20
38.1154578595255
30
0
41
1
10
10.5386751345948
20
38.1154578595255
30
0
0
SPLINE
5
179
100
AcDbEntity
8
1
62
256
6
ByLayer
370
18
48
1
60
0
100
AcDbSpline
70
4
71
3
72
26
73
22
40
0
40
0
40
0
40
0
40
0.0625000000000037
40
0.0625000000000037
40
0.0937500000000022
40
0.0937500000000022
40
0.125000000000001
40
0.125000000000001
40
0.249999999999996
40
0.249999999999996
40
0.374999999999992
40
0.374999999999992
40
0.437499999999986
40
0.437499999999986
40
0.499999999999981
40
0.499999999999981
40
0.624999999999986
40
0.624999999999986
40
0.749999999999992
40
0.749999999999992
40
1
40
1
40
1
40
1
41
1
10
10.5386751345948
20
-38.1154578595255
30
0
41
1
10
10.5228424579138
20
-38.1154578595255
30
0
41
1
10
10.5073032170841
20
-38.1149630443689
30
0
41
1
10
10.4843948670136
20
-38.1135446782956
30
0
41
1
10
10.4768256922539
20
-38.1129588629862
30
0
41
1
10
10.4618165850356
20
-38.1115687100729
30
0
41
1
10
10.4543438222793
20
-38.1107596566995
30
0
41
1
10
10.4179414896383
20
-38.1062685963607
30
0
41
1
10
10.3914602024633
20
-38.1012604668281
30
0
41
1
10
10.3422528978047
20
-38.0892687952498
30
0
41
1
10
10.3204171364761
20
-38.0825033540055
30
0
41
1
10
10.2903948678455
20
-38.0715750854947
30
0
41
1
10
10.2808555795355
20
-38.0677988367433
30
0
41
1
10
10.2625810930789
20
-38.0600136207933
30
0
41
1
10
10.253831982487
20
-38.0559959802046
30
0
41
1
10
10.2289319217463
20
-38.0437782351317
30
0
41
1
10
10.2140017942348
20
-38.0353721093621
30
0
41
1
10
10.1866445075115
20
-38.0181487945759
30
0
41
1
10
10.1742262496611
20
-38.0093303853475
30
0
41
1
10
10.1400321601288
20
-37.9823481941392
30
0
41
1
10
10.1212495620848
20
-37.9636126331777
30
0
41
1
10
10.1056624327025
20
-37.9445010117191
30
0
0
SPLINE
5
17A
100
AcDbEntity
8
1
62
256
6
ByLayer
370
18
48
1
60
0
100
AcDbSpline
70
4
71
3
72
32
73
28
40
0
40
0
40
0
40
0
40
0.249999999999995
40
0.249999999999995
40
0.374999999999994
40
0.374999999999994
40
0.437499999999995
40
0.437499999999995
40
0.499999999999996
40
0.499999999999996
40
0.624999999999996
40
0.624999999999996
40
0.687499999999993
40
0.687499999999993
40
0.74999999999999
40
0.74999999999999
40
0.812499999999987
40
0.812499999999987
40
0.843749999999988
40
0.843749999999988
40
0.874999999999989
40
0.874999999999989
40
0.937499999999995
40
0.937499999999995
40
0.968749999999997
40
0.968749999999997
40
1
40
1
40
1
40
1
41
1
10
10.1056624327026
20
-12.6576002058704
30
0
41
1
10
10.1212438126112
20
-12.6003292036663
30
0
41
1
10
10.1398761201257
20
-12.5441499637055
30
0
41
1
10
10.1739972864804
20
-12.4621216159938
30
0
41
1
10
10.1864101449813
20
-12.4351561290446
30
0
41
1
10
10.2069816681333
20
-12.3954218364663
30
0
41
1
10
10.214166060695
20
-12.3822967529509
30
0
41
1
10
10.2292880651854
20
-12.356323038955
30
0
41
1
10
10.237235975785
20
-12.343461835738
30
0
41
1
10
10.2621641170173
20
-12.3057192432196
30
0
41
1
10
10.2802620066642
20
-12.2815531796601
30
0
41
1
10
10.3104862719054
20
-12.247383834662
30
0
41
1
10
10.3210869468855
20
-12.2363474443951
30
0
41
1
10
10.3431810144993
20
-12.2154741288522
30
0
41
1
10
10.3547095572441
20
-12.2055929865222
30
0
41
1
10
10.3789180567415
20
-12.1871605631485
30
0
41
1
10
10.3915960688954
20
-12.1786070311293
30
0
41
1
10
10.4116899654458
20
-12.1670216512236
30
0
41
1
10
10.4185983762288
20
-12.1633555796793
30
0
41
1
10
10.432603663757
20
-12.1566022539999
30
0
41
1
10
10.4397128415675
20
-12.1535051719201
30
0
41
1
10
10.461381147232
20
-12.1451084576002
30
0
41
1
10
10.4762789311363
20
-12.140697810491
30
0
41
1
10
10.4994196995473
20
-12.1361671045749
30
0
41
1
10
10.507243705303
20
-12.1350139079813
30
0
41
1
10
10.5229047461539
20
-12.1334785049662
30
0
41
1
10
10.5307714182282
20
-12.1330899674705
30
0
41
1
10
10.5386751345948
20
-12.1330899674705
30
0
0
SPLINE
5
17B
100
AcDbEntity
8
1
62
256
6
ByLayer
370
18
48
1
60
0
100
AcDbSpline
70
4
71
3
72
26
73
22
40
0
40
0
40
0
40
0
40
0.062499999999996
40
0.062499999999996
40
0.0937499999999933
40
0.0937499999999933
40
0.124999999999991
40
0.124999999999991
40
0.249999999999987
40
0.249999999999987
40
0.374999999999983
40
0.374999999999983
40
0.437499999999984
40
0.437499999999984
40
0.499999999999986
40
0.499999999999986
40
0.624999999999988
40
0.624999999999988
40
0.74999999999999
40
0.74999999999999
40
1
40
1
40
1
40
1
41
1
10
13.4613248654051
20
-12.1330899674708
30
0
41
1
10
13.4771575420862
20
-12.1330899674708
30
0
41
1
10
13.4926967829159
20
-12.1346446934812
30
0
41
1
10
13.5156051329863
20
-12.1390985861072
30
0
41
1
10
13.5231743077461
20
-12.1409378530103
30
0
41
1
10
13.5381834149643
20
-12.1453009719697
30
0
41
1
10
13.5456561777206
20
-12.1478396076277
30
0
41
1
10
13.5820585103616
20
-12.1619255694048
30
0
41
1
10
13.6085397975366
20
-12.177616249759
30
0
41
1
10
13.6577471021952
20
-12.215072219626
30
0
41
1
10
13.6795828635238
20
-12.236155581648
30
0
41
1
10
13.7096051321544
20
-12.2700982796012
30
0
41
1
10
13.7191444204644
20
-12.2818098068951
30
0
41
1
10
13.737418906921
20
-12.3059141713456
30
0
41
1
10
13.7461680175129
20
-12.3183336732122
30
0
41
1
10
13.7710680782536
20
-12.3560364080032
30
0
41
1
10
13.7859982057652
20
-12.3818915830842
30
0
41
1
10
13.8133554924884
20
-12.4346746200446
30
0
41
1
10
13.8257737503388
20
-12.4616063758703
30
0
41
1
10
13.8599678398711
20
-12.5437053894649
30
0
41
1
10
13.8787504379151
20
-12.6003080708704
30
0
41
1
10
13.8943375672974
20
-12.6576002058703
30
0
0
SPLINE
5
17C
100
AcDbEntity
8
1
62
256
6
ByLayer
370
18
48
1
60
0
100
AcDbSpline
70
4
71
3
72
32
73
28
40
0
40
0
40
0
40
0
40
0.249999999999993
40
0.249999999999993
40
0.374999999999991
40
0.374999999999991
40
0.437499999999993
40
0.437499999999993
40
0.499999999999994
40
0.499999999999994
40
0.624999999999996
40
0.624999999999996
40
0.687499999999999
40
0.687499999999999
40
0.750000000000002
40
0.750000000000002
40
0.812500000000005
40
0.812500000000005
40
0.843750000000002
40
0.843750000000002
40
0.874999999999998
40
0.874999999999998
40
0.937499999999999
40
0.937499999999999
40
0.968749999999999
40
0.968749999999999
40
1
40
1
40
1
40
1
41
1
10
13.8943375672973
20
-37.9445010117191
30
0
41
1
10
13.8787561873887
20
-37.9636055836586
30
0
41
1
10
13.8601238798742
20
-37.9822012953861
30
0
41
1
10
13.8260027135195
20
-38.0091614379608
30
0
41
1
10
13.8135898550186
20
-38.0179913785433
30
0
41
1
10
13.7930183318666
20
-38.0309572795536
30
0
41
1
10
13.7858339393049
20
-38.0352325300315
30
0
41
1
10
13.7707119348145
20
-38.0436784163768
30
0
41
1
10
13.7627640242149
20
-38.0478530906643
30
0
41
1
10
13.7378358829826
20
-38.0600837295902
30
0
41
1
10
13.7197379933357
20
-38.0678870466105
30
0
41
1
10
13.6895137280945
20
-38.0788882765902
30
0
41
1
10
13.6789130531144
20
-38.0824358644267
30
0
41
1
10
13.6568189855006
20
-38.0891364033824
30
0
41
1
10
13.6452904427558
20
-38.0923035991792
30
0
41
1
10
13.6210819432584
20
-38.0982048271663
30
0
41
1
10
13.6084039311045
20
-38.1009395753102
30
0
41
1
10
13.5883100345541
20
-38.1046401449178
30
0
41
1
10
13.5814016237711
20
-38.1058104966308
30
0
41
1
10
13.567396336243
20
-38.1079654954302
30
0
41
1
10
13.5602871584325
20
-38.1089532874669
30
0
41
1
10
13.5386188527679
20
-38.1116304436586
30
0
41
1
10
13.5237210688636
20
-38.1130353910944
30
0
41
1
10
13.5005803004527
20
-38.114478227072
30
0
41
1
10
13.4927562946969
20
-38.1148453768633
30
0
41
1
10
13.4770952538461
20
-38.1153341847952
30
0
41
1
10
13.4692285817717
20
-38.1154578595255
30
0
41
1
10
13.4613248654052
20
-38.1154578595255
30
0
0
SPLINE
5
17D
100
AcDbEntity
8
SK1
62
256
6
ByLayer
370
18
48
1
60
0
100
AcDbSpline
70
4
71
3
72
53
73
49
40
0
40
0
40
0
40
0
40
0.0274824090804023
40
0.0552770547239785
40
0.0830717003675547
40
0.0969690231893429
40
0.110866346011131
40
0.138660991654707
40
0.166455637298283
40
0.19425028294186
40
0.222044928585436
40
0.249839574229012
40
0.277634219872588
40
0.305428865516164
40
0.333223511159741
40
0.361018156803317
40
0.388812802446893
40
0.416607448090469
40
0.430504770912257
40
0.444402093734045
40
0.458299416555833
40
0.472196739377622
40
0.48609406219941
40
0.493042723610304
40
0.499991385021198
40
0.506940046432092
40
0.513888707842986
40
0.527786030664774
40
0.541683353486562
40
0.55558067630835
40
0.569477999130138
40
0.583375321951926
40
0.611169967595502
40
0.638964613239079
40
0.666759258882655
40
0.694553904526231
40
0.722348550169807
40
0.750143195813384
40
0.77793784145696
40
0.805732487100536
40
0.833527132744112
40
0.861321778387688
40
0.889116424031264
40
0.903013746853052
40
0.916911069674841
40
0.944705715318417
40
0.972500360961993
40
1
40
1
40
1
40
1
41
1
10
-48
20
-25.541448050577
30
0
41
1
10
-48
20
-25.5425617604172
30
0
41
1
10
-48
20
-25.4640635658109
30
0
41
1
10
-48
20
-25.1322425192968
30
0
41
1
10
-48
20
-24.694378987226
30
0
41
1
10
-48
20
-24.2527507958703
30
0
41
1
10
-48
20
-23.753496542719
30
0
41
1
10
-48
20
-23.0303097721662
30
0
41
1
10
-48
20
-22.004895488713
30
0
41
1
10
-48
20
-20.832848719972
30
0
41
1
10
-48
20
-19.5200996220053
30
0
41
1
10
-48
20
-18.0723511216477
30
0
41
1
10
-48
20
-16.4949784354156
30
0
41
1
10
-48
20
-14.7914034442658
30
0
41
1
10
-48
20
-12.966399868565
30
0
41
1
10
-48
20
-11.0239134221955
30
0
41
1
10
-48
20
-8.96950823728534
30
0
41
1
10
-48
20
-7.1768657739095
30
0
41
1
10
-48
20
-5.68399982568388
30
0
41
1
10
-48
20
-4.5535978156087
30
0
41
1
10
-48
20
-3.41075035191335
30
0
41
1
10
-48
20
-2.26472549180249
30
0
41
1
10
-48
20
-1.32161475247156
30
0
41
1
10
-48
20
-0.561042317499243
30
0
41
1
10
-48
20
5.827932625E-07
30
0
41
1
10
-48
20
0.561043122290016
30
0
41
1
10
-48
20
1.32161426869376
30
0
41
1
10
-48
20
2.26472380030225
30
0
41
1
10
-48
20
3.41075020779314
30
0
41
1
10
-48
20
4.55359888251641
30
0
41
1
10
-48
20
5.68399961261883
30
0
41
1
10
-48
20
7.17686534047004
30
0
41
1
10
-48
20
8.96950825544064
30
0
41
1
10
-48
20
11.0239135020289
30
0
41
1
10
-48
20
12.9663999896201
30
0
41
1
10
-48
20
14.7914038739653
30
0
41
1
10
-48
20
16.4949787826049
30
0
41
1
10
-48
20
18.0723510721556
30
0
41
1
10
-48
20
19.5200990771864
30
0
41
1
10
-48
20
20.8328486998638
30
0
41
1
10
-48
20
22.0048965474211
30
0
41
1
10
-48
20
23.0303087127374
30
0
41
1
10
-48
20
23.7534935831729
30
0
41
1
10
-48
20
24.2527492082177
30
0
41
1
10
-48
20
24.6943791914988
30
0
41
1
10
-48
20
25.1322422668055
30
0
41
1
10
-48
20
25.4641324610647
30
0
41
1
10
-48
20
25.5426108690995
30
0
41
1
10
-48
20
25.541445895971
30
0
0
SPLINE
5
17E
100
AcDbEntity
8
SK1
62
256
6
ByLayer
370
18
48
1
60
0
100
AcDbSpline
70
4
71
3
72
34
73
30
40
0
40
0
40
0
40
0
40
0.249999999999994
40
0.249999999999994
40
0.374999999999992
40
0.374999999999992
40
0.499999999999991
40
0.499999999999991
40
0.624999999999989
40
0.624999999999989
40
0.687499999999989
40
0.687499999999989
40
0.749999999999989
40
0.749999999999989
40
0.812499999999989
40
0.812499999999989
40
0.843749999999991
40
0.843749999999991
40
0.874999999999993
40
0.874999999999993
40
0.906249999999995
40
0.906249999999995
40
0.921874999999995
40
0.921874999999995
40
0.937499999999996
40
0.937499999999996
40
0.968749999999998
40
0.968749999999998
40
1
40
1
40
1
40
1
41
1
10
-0.199999999999989
20
-6.55227712232499
30
0
41
1
10
-0.200337167165429
20
-6.48813612986376
30
0
41
1
10
-0.202001510499883
20
-6.42391230321647
30
0
41
1
10
-0.207302963817341
20
-6.32744107363933
30
0
41
1
10
-0.209543235203569
20
-6.29526142118729
30
0
41
1
10
-0.215252325213157
20
-6.23085553749689
30
0
41
1
10
-0.2187144475933
20
-6.1986292664013
30
0
41
1
10
-0.227377685184024
20
-6.13412972903618
30
0
41
1
10
-0.23254764290661
20
-6.10194739347912
30
0
41
1
10
-0.242355179803212
20
-6.05395477419654
30
0
41
1
10
-0.245978726317816
20
-6.03797456128353
30
0
41
1
10
-0.254174420408077
20
-6.00627164279564
30
0
41
1
10
-0.25873036764412
20
-5.99057839566009
30
0
41
1
10
-0.2692452672363
20
-5.95968016956064
30
0
41
1
10
-0.275173744753232
20
-5.94446441589301
30
0
41
1
10
-0.285980482524792
20
-5.92231143869839
30
0
41
1
10
-0.289905978981665
20
-5.91504038952883
30
0
41
1
10
-0.298797923188005
20
-5.9008642672645
30
0
41
1
10
-0.303674067400863
20
-5.89408804025422
30
0
41
1
10
-0.314848838487876
20
-5.88165454576179
30
0
41
1
10
-0.321040616956623
20
-5.87610899057307
30
0
41
1
10
-0.331681166148456
20
-5.86978149468351
30
0
41
1
10
-0.33549372201702
20
-5.86801034282462
30
0
41
1
10
-0.343284951652947
20
-5.86552288649179
30
0
41
1
10
-0.347371812910438
20
-5.86477563679694
30
0
41
1
10
-0.35953495757218
20
-5.86423711805918
30
0
41
1
10
-0.367571007865052
20
-5.86616228333773
30
0
41
1
10
-0.382101750029392
20
-5.87272803663092
30
0
41
1
10
-0.388790995722076
20
-5.87734923192875
30
0
41
1
10
-0.394913799811292
20
-5.8825856729909
30
0
0
SPLINE
5
17F
100
AcDbEntity
8
SK1
62
256
6
ByLayer
370
18
48
1
60
0
100
AcDbSpline
70
4
71
3
72
38
73
34
40
0
40
0
40
0
40
0
40
0.0156249999999991
40
0.0156249999999991
40
0.0312499999999981
40
0.0312499999999981
40
0.0468749999999972
40
0.0468749999999972
40
0.0624999999999963
40
0.0624999999999963
40
0.0781249999999953
40
0.0781249999999953
40
0.0937499999999944
40
0.0937499999999944
40
0.124999999999994
40
0.124999999999994
40
0.156249999999994
40
0.156249999999994
40
0.187499999999994
40
0.187499999999994
40
0.249999999999994
40
0.249999999999994
40
0.312499999999995
40
0.312499999999995
40
0.374999999999995
40
0.374999999999995
40
0.499999999999995
40
0.499999999999995
40
0.624999999999996
40
0.624999999999996
40
0.749999999999996
40
0.749999999999996
40
1
40
1
40
1
40
1
41
1
10
-0.394913799811292
20
5.88258733498483
30
0
41
1
10
-0.391855475614136
20
5.87997174517943
30
0
41
1
10
-0.388679953698329
20
5.87753166439151
30
0
41
1
10
-0.382023894922725
20
5.87310852950293
30
0
41
1
10
-0.378520660678447
20
5.87111352959076
30
0
41
1
10
-0.371204411524786
20
5.86780375001044
30
0
41
1
10
-0.367430305230187
20
5.86650268448449
30
0
41
1
10
-0.359586250878635
20
5.86480236632462
30
0
41
1
10
-0.355491062365701
20
5.86442041571942
30
0
41
1
10
-0.347419400494346
20
5.86477259204992
30
0
41
1
10
-0.343334353292647
20
5.86551178963006
30
0
41
1
10
-0.335509573653184
20
5.86800393240807
30
0
41
1
10
-0.331763154935686
20
5.86973798480327
30
0
41
1
10
-0.320994194999429
20
5.87613112177442
30
0
41
1
10
-0.314813212304614
20
5.88168816956662
30
0
41
1
10
-0.303617390374853
20
5.89416050242841
30
0
41
1
10
-0.298778631313439
20
5.90089959919405
30
0
41
1
10
-0.289962744453845
20
5.91494866899558
30
0
41
1
10
-0.285986366953068
20
5.92229535303829
30
0
41
1
10
-0.275047927332935
20
5.94473551098559
30
0
41
1
10
-0.269098119985046
20
5.96006824141105
30
0
41
1
10
-0.258566536361087
20
5.99110891560568
30
0
41
1
10
-0.254019815815212
20
6.00682672168014
30
0
41
1
10
-0.245851820113103
20
6.03851342290761
30
0
41
1
10
-0.242238444719021
20
6.05448453988956
30
0
41
1
10
-0.232418188950874
20
6.10267140648355
30
0
41
1
10
-0.227272492676207
20
6.13483454456517
30
0
41
1
10
-0.218659309075264
20
6.19912309063815
30
0
41
1
10
-0.215212061754812
20
6.23126348879507
30
0
41
1
10
-0.209524252435443
20
6.29552574618916
30
0
41
1
10
-0.207290131858201
20
6.32764778181934
30
0
41
1
10
-0.202001043985888
20
6.42397958323193
30
0
41
1
10
-0.20033707875217
20
6.48815453706865
30
0
41
1
10
-0.199999999999989
20
6.55227865789465
30
0
0
SPLINE
5
180
100
AcDbEntity
8
SK1
62
256
6
ByLayer
370
13
48
1
60
0
100
AcDbSpline
70
4
71
3
72
25
73
21
40
0
40
0
40
0
40
0
40
0.0145587296593305
40
0.0464029855790507
40
0.110091497418491
40
0.173780009257931
40
0.237468521097371
40
0.301157032936812
40
0.364845544776252
40
0.428534056615692
40
0.492222568455133
40
0.555911080294573
40
0.619599592134013
40
0.683288103973453
40
0.746976615812894
40
0.778820871732614
40
0.810665127652334
40
0.874353639491774
40
0.938042151331214
40
1
40
1
40
1
40
1
41
1
10
-0.394913799811292
20
-5.88258567299192
30
0
41
1
10
-0.394913799811292
20
-6.07052405947675
30
0
41
1
10
-0.394913799811292
20
-6.66606717738506
30
0
41
1
10
-0.394913799811292
20
-8.05259623229938
30
0
41
1
10
-0.394913799811292
20
-9.97566753154939
30
0
41
1
10
-0.394913799811292
20
-12.1534974735354
30
0
41
1
10
-0.394913799811292
20
-14.2008618261791
30
0
41
1
10
-0.394913799811292
20
-16.1168447823444
30
0
41
1
10
-0.394913799811292
20
-17.9007381804523
30
0
41
1
10
-0.394913799811292
20
-19.549694005804
30
0
41
1
10
-0.394913799811292
20
-21.0615461829413
30
0
41
1
10
-0.394913799811292
20
-22.432052288855
30
0
41
1
10
-0.394913799811292
20
-23.6558233145232
30
0
41
1
10
-0.394913799811292
20
-24.7273078069339
30
0
41
1
10
-0.394913799811292
20
-25.4857549542384
30
0
41
1
10
-0.394913799811292
20
-26.007386571291
30
0
41
1
10
-0.394913799811292
20
-26.4695479101472
30
0
41
1
10
-0.394913799811292
20
-26.9317121751432
30
0
41
1
10
-0.394913799811292
20
-27.2808223536254
30
0
41
1
10
-0.394913799811292
20
-27.3652313294826
30
0
41
1
10
-0.394913799811263
20
-27.3654106728677
30
0
0
SPLINE
5
181
100
AcDbEntity
8
SK1
62
256
6
ByLayer
370
18
48
1
60
0
100
AcDbSpline
70
4
71
3
72
49
73
45
40
0
40
0
40
0
40
0
40
0.0312500000000038
40
0.0312500000000038
40
0.0468750000000048
40
0.0468750000000048
40
0.0625000000000058
40
0.0781250000000069
40
0.0781250000000069
40
0.0859375000000073
40
0.0859375000000073
40
0.0937500000000077
40
0.109375000000009
40
0.117187500000009
40
0.117187500000009
40
0.125000000000009
40
0.125000000000009
40
0.15625000000001
40
0.15625000000001
40
0.171875000000011
40
0.171875000000011
40
0.187500000000011
40
0.187500000000011
40
0.218750000000012
40
0.218750000000012
40
0.234375000000012
40
0.234375000000012
40
0.250000000000012
40
0.250000000000012
40
0.31250000000001
40
0.31250000000001
40
0.375000000000009
40
0.375000000000009
40
0.437500000000007
40
0.437500000000007
40
0.500000000000006
40
0.500000000000006
40
0.625000000000004
40
0.625000000000004
40
0.750000000000003
40
0.750000000000003
40
0.875000000000001
40
0.875000000000001
40
1
40
1
40
1
40
1
41
1
10
-0.394913799811292
20
-5.88258567299192
30
0
41
1
10
-0.411179767739839
20
-5.89649691057778
30
0
41
1
10
-0.428385528731496
20
-5.90924654958064
30
0
41
1
10
-0.456220231625167
20
-5.92587726264904
30
0
41
1
10
-0.465900558107364
20
-5.93102514312227
30
0
41
1
10
-0.48569918891323
20
-5.94009851027181
30
0
41
1
10
-0.505959902330716
20
-5.94797987906676
30
0
41
1
10
-0.527276324395132
20
-5.95314074745056
30
0
41
1
10
-0.543724271296668
20
-5.9558251558885
30
0
41
1
10
-0.549307626346604
20
-5.95652193855128
30
0
41
1
10
-0.560402254070226
20
-5.95747179112044
30
0
41
1
10
-0.577005048576751
20
-5.95824738974093
30
0
41
1
10
-0.598988113232053
20
-5.95672779936984
30
0
41
1
10
-0.615363151583239
20
-5.953726487664
30
0
41
1
10
-0.626255188472385
20
-5.95131675596099
30
0
41
1
10
-0.631686913413489
20
-5.94990548753631
30
0
41
1
10
-0.658283686674309
20
-5.94201343342041
30
0
41
1
10
-0.678213101083685
20
-5.93297784531563
30
0
41
1
10
-0.706655485452188
20
-5.91648780259629
30
0
41
1
10
-0.715834603579083
20
-5.91052268984237
30
0
41
1
10
-0.73345067661333
20
-5.89799413410989
30
0
41
1
10
-0.741931675642974
20
-5.89140462063131
30
0
41
1
10
-0.766568398283425
20
-5.87083261121126
30
0
41
1
10
-0.781926636665645
20
-5.85605532307281
30
0
41
1
10
-0.803808427400895
20
-5.8327319572052
30
0
41
1
10
-0.810909537595478
20
-5.82475689909125
30
0
41
1
10
-0.824642187820501
20
-5.80862406976092
30
0
41
1
10
-0.831293292074719
20
-5.8004459091575
30
0
41
1
10
-0.863632300216523
20
-5.75907701915665
30
0
41
1
10
-0.886653206455122
20
-5.72449384855278
30
0
41
1
10
-0.929268994496823
20
-5.65349793311387
30
0
41
1
10
-0.948821917963414
20
-5.61706391416038
30
0
41
1
10
-0.985490326811572
20
-5.54286169997809
30
0
41
1
10
-1.00262576586445
20
-5.50500475294339
30
0
41
1
10
-1.03481085007658
20
-5.42880990558518
30
0
41
1
10
-1.049879588408
20
-5.39043436268409
30
0
41
1
10
-1.0927183179077
20
-5.27463055419162
30
0
41
1
10
-1.11815612697546
20
-5.1965332099478
30
0
41
1
10
-1.16484869971202
20
-5.03900155537229
30
0
41
1
10
-1.18607375956299
20
-4.95956033007351
30
0
41
1
10
-1.22537042104099
20
-4.79955772182797
30
0
41
1
10
-1.24343193354568
20
-4.71899405044132
30
0
41
1
10
-1.27704610356756
20
-4.55687629477117
30
0
41
1
10
-1.29259442759718
20
-4.47532122975804
30
0
41
1
10
-1.30710678118655
20
-4.39331221032487
30
0
0
SPLINE
5
182
100
AcDbEntity
8
SK1
62
256
6
ByLayer
370
18
48
1
60
0
100
AcDbSpline
70
4
71
3
72
36
73
32
40
0
40
0
40
0
40
0
40
0.0625000000000002
40
0.0625000000000002
40
0.125
40
0.125
40
0.250000000000001
40
0.250000000000001
40
0.312500000000001
40
0.312500000000001
40
0.343750000000001
40
0.343750000000001
40
0.375000000000001
40
0.375000000000001
40
0.437500000000001
40
0.437500000000001
40
0.500000000000001
40
0.5625
40
0.5625
40
0.625
40
0.625
40
0.6875
40
0.71875
40
0.71875
40
0.75
40
0.75
40
0.875
40
0.875
40
0.9375
40
0.9375
40
1
40
1
40
1
40
1
41
1
10
-1.30710678118655
20
-4.39331221032489
30
0
41
1
10
-1.33832612741193
20
-4.21689231016725
30
0
41
1
10
-1.36851092390373
20
-4.03973122982887
30
0
41
1
10
-1.42649811963088
20
-3.68381684447201
30
0
41
1
10
-1.45429466041941
20
-3.50506155058417
30
0
41
1
10
-1.53342175503582
20
-2.96616199669305
30
0
41
1
10
-1.58051371000479
20
-2.60339474516391
30
0
41
1
10
-1.63969017396079
20
-2.05289759168917
30
0
41
1
10
-1.65749856469554
20
-1.86833789193395
30
0
41
1
10
-1.68090524760893
20
-1.58974420341144
30
0
41
1
10
-1.68815609252624
20
-1.4965870997257
30
0
41
1
10
-1.70147805604537
20
-1.30965819488989
30
0
41
1
10
-1.70755165689621
20
-1.21581541728392
30
0
41
1
10
-1.72381183076919
20
-0.934723518861318
30
0
41
1
10
-1.73206493494845
20
-0.747501097942745
30
0
41
1
10
-1.7429848038179
20
-0.373418392454084
30
0
41
1
10
-1.74839182943302
20
0.0003055804815801
30
0
41
1
10
-1.74297993884852
20
0.373323280942145
30
0
41
1
10
-1.73211744010527
20
0.745986303504424
30
0
41
1
10
-1.72392517749429
20
0.932138827990201
30
0
41
1
10
-1.70248074969007
20
1.30410713450158
30
0
41
1
10
-1.68260948363638
20
1.5828311275875
30
0
41
1
10
-1.657579310628
20
1.86120029185435
30
0
41
1
10
-1.63980474419279
20
2.04670347397033
30
0
41
1
10
-1.63039580544412
20
2.13918287403047
30
0
41
1
10
-1.58095222331164
20
2.60000741581413
30
0
41
1
10
-1.53372925180184
20
2.96395482764058
30
0
41
1
10
-1.45444775249806
20
3.50406852662027
30
0
41
1
10
-1.42660609580415
20
3.68313524459486
30
0
41
1
10
-1.36854874276651
20
4.03950797751688
30
0
41
1
10
-1.33833886963825
20
4.21681617087032
30
0
41
1
10
-1.30710678118655
20
4.39330887788606
30
0
0
SPLINE
5
183
100
AcDbEntity
8
SK1
62
256
6
ByLayer
370
18
48
1
60
0
100
AcDbSpline
70
4
71
3
72
50
73
46
40
0
40
0
40
0
40
0
40
0.124999999999998
40
0.124999999999998
40
0.249999999999996
40
0.249999999999996
40
0.312499999999996
40
0.312499999999996
40
0.374999999999996
40
0.374999999999996
40
0.499999999999996
40
0.499999999999996
40
0.562499999999996
40
0.562499999999996
40
0.624999999999997
40
0.624999999999997
40
0.687499999999997
40
0.687499999999997
40
0.718749999999997
40
0.718749999999997
40
0.749999999999997
40
0.749999999999997
40
0.781249999999998
40
0.781249999999998
40
0.812499999999998
40
0.812499999999998
40
0.843749999999998
40
0.843749999999998
40
0.859374999999998
40
0.859374999999998
40
0.874999999999998
40
0.890624999999998
40
0.890624999999998
40
0.898437499999998
40
0.898437499999998
40
0.906249999999998
40
0.921874999999998
40
0.921874999999998
40
0.937499999999999
40
0.937499999999999
40
0.968749999999999
40
0.968749999999999
40
0.984375
40
0.984375
40
1
40
1
40
1
40
1
41
1
10
-1.30710678118655
20
4.39330887788606
30
0
41
1
10
-1.29259057630259
20
4.47534003310412
30
0
41
1
10
-1.27702923965074
20
4.55696714625805
30
0
41
1
10
-1.24335659670561
20
4.71934352683385
30
0
41
1
10
-1.22524991683204
20
4.80009364705947
30
0
41
1
10
-1.19566654622429
20
4.92047732721875
30
0
41
1
10
-1.18539939501377
20
4.96048124175471
30
0
41
1
10
-1.16392950861757
20
5.04022016000795
30
0
41
1
10
-1.15271909218828
20
5.07998178339514
30
0
41
1
10
-1.11752093416874
20
5.19855796010592
30
0
41
1
10
-1.09200642706727
20
5.27670114460133
30
0
41
1
10
-1.04924072742563
20
5.39208696039736
30
0
41
1
10
-1.03422852656959
20
5.43024134229668
30
0
41
1
10
-1.00227006366248
20
5.50579467647674
30
0
41
1
10
-0.985329895267625
20
5.54319570602496
30
0
41
1
10
-0.94884230569906
20
5.61701592648745
30
0
41
1
10
-0.929311633153446
20
5.65344083322157
30
0
41
1
10
-0.897134039200751
20
5.70702849131604
30
0
41
1
10
-0.885889244318065
20
5.72475996992924
30
0
41
1
10
-0.862388317867442
20
5.75943238422735
30
0
41
1
10
-0.850124764431314
20
5.77639487115229
30
0
41
1
10
-0.824286187770241
20
5.80937247929978
30
0
41
1
10
-0.81071499356699
20
5.82539030326046
30
0
41
1
10
-0.781810520162338
20
5.85616212382189
30
0
41
1
10
-0.766480020681513
20
5.87092930527115
30
0
41
1
10
-0.73328068845305
20
5.89860840862801
30
0
41
1
10
-0.715743791280289
20
5.91124847506274
30
0
41
1
10
-0.687416284609299
20
5.92762938506613
30
0
41
1
10
-0.677572371948401
20
5.93267724259607
30
0
41
1
10
-0.657498098822913
20
5.94150365482599
30
0
41
1
10
-0.636988070186476
20
5.94910381427817
30
0
41
1
10
-0.615487385337161
20
5.9539180373385
30
0
41
1
10
-0.598932162610794
20
5.95632074310808
30
0
41
1
10
-0.593335497469866
20
5.95691733339831
30
0
41
1
10
-0.582241374941049
20
5.95766809286985
30
0
41
1
10
-0.565657821584438
20
5.95814654054257
30
0
41
1
10
-0.549243704490038
20
5.95672090529089
30
0
41
1
10
-0.527503554619614
20
5.95318620141708
30
0
41
1
10
-0.516622342716431
20
5.95056688400257
30
0
41
1
10
-0.485210602129996
20
5.94070326229377
30
0
41
1
10
-0.465634608434954
20
5.93149511928672
30
0
41
1
10
-0.437740327393669
20
5.91484188421759
30
0
41
1
10
-0.428752255076887
20
5.90884528223492
30
0
41
1
10
-0.411413024584277
20
5.89619973179913
30
0
41
1
10
-0.403039329106434
20
5.88953658242153
30
0
41
1
10
-0.394913799811292
20
5.88258733498481
30
0
0
SPLINE
5
184
100
AcDbEntity
8
SK1
62
256
6
ByLayer
370
13
48
1
60
0
100
AcDbSpline
70
4
71
3
72
25
73
21
40
0
40
0
40
0
40
0
40
0.0621299687318391
40
0.125806797362921
40
0.189483625994003
40
0.221322040309544
40
0.253160454625085
40
0.316837283256167
40
0.380514111887248
40
0.44419094051833
40
0.507867769149412
40
0.571544597780494
40
0.635221426411576
40
0.698898255042658
40
0.76257508367374
40
0.826251912304821
40
0.889928740935903
40
0.953605569566985
40
0.985443983882526
40
1
40
1
40
1
40
1
41
1
10
-0.39491379981132
20
27.3654111755999
30
0
41
1
10
-0.39491379981132
20
27.365477787793
30
0
41
1
10
-0.39491379981132
20
27.2811607969963
30
0
41
1
10
-0.394913799811292
20
26.931711914563
30
0
41
1
10
-0.394913799811292
20
26.4695479228793
30
0
41
1
10
-0.394913799811292
20
26.0073845707252
30
0
41
1
10
-0.394913799811292
20
25.4857521565205
30
0
41
1
10
-0.394913799811292
20
24.7273073402748
30
0
41
1
10
-0.394913799811292
20
23.6558244102428
30
0
41
1
10
-0.394913799811292
20
22.4320519750209
30
0
41
1
10
-0.394913799811292
20
21.061545739767
30
0
41
1
10
-0.394913799811292
20
19.5496941631405
30
0
41
1
10
-0.394913799811292
20
17.9007385657829
30
0
41
1
10
-0.394913799811292
20
16.116845123771
30
0
41
1
10
-0.394913799811292
20
14.2008618153781
30
0
41
1
10
-0.394913799811292
20
12.153497457354
30
0
41
1
10
-0.394913799811292
20
9.97566741413243
30
0
41
1
10
-0.394913799811292
20
8.05259596592001
30
0
41
1
10
-0.394913799811292
20
6.66606769858655
30
0
41
1
10
-0.394913799811292
20
6.07052516538181
30
0
41
1
10
-0.394913799811292
20
5.88258733498483
30
0
0
SPLINE
5
185
100
AcDbEntity
8
SK1
62
256
6
ByLayer
370
13
48
1
60
0
100
AcDbSpline
70
4
71
3
72
53
73
49
40
0
40
0
40
0
40
0
40
0.0270897427252946
40
0.0549067622170655
40
0.0827237817088363
40
0.0966322914547218
40
0.110540801200607
40
0.138357820692378
40
0.166174840184149
40
0.19399185967592
40
0.221808879167691
40
0.249625898659462
40
0.277442918151233
40
0.305259937643003
40
0.333076957134774
40
0.360893976626545
40
0.388710996118316
40
0.416528015610087
40
0.430436525355972
40
0.444345035101858
40
0.458253544847743
40
0.472162054593628
40
0.486070564339514
40
0.493024819212457
40
0.499979074085399
40
0.506933328958342
40
0.513887583831285
40
0.52779609357717
40
0.541704603323056
40
0.555613113068941
40
0.569521622814827
40
0.583430132560712
40
0.611247152052483
40
0.639064171544254
40
0.666881191036025
40
0.694698210527795
40
0.722515230019566
40
0.750332249511337
40
0.778149269003108
40
0.805966288494879
40
0.83378330798665
40
0.861600327478421
40
0.889417346970192
40
0.903325856716077
40
0.917234366461962
40
0.945051385953733
40
0.972868405445504
40
1
40
1
40
1
40
1
41
1
10
-1.99503997793928
20
27.3252179122471
30
0
41
1
10
-1.99503997793928
20
27.3251262746369
30
0
41
1
10
-1.99503997793928
20
27.2408691442125
30
0
41
1
10
-1.99503997793928
20
26.8920579638066
30
0
41
1
10
-1.99503997793928
20
26.4304294784275
30
0
41
1
10
-1.99503997793928
20
25.9687186091476
30
0
41
1
10
-1.99503997793928
20
25.4475793002845
30
0
41
1
10
-1.99503997793928
20
24.6899114886171
30
0
41
1
10
-1.99503997793928
20
23.619443795401
30
0
41
1
10
-1.99503997793928
20
22.396811187269
30
0
41
1
10
-1.99503997793928
20
21.0275777036138
30
0
41
1
10
-1.99503997793928
20
19.5171387431293
30
0
41
1
10
-1.99503997793928
20
17.8697605888624
30
0
41
1
10
-1.99503997793928
20
16.0876370834377
30
0
41
1
10
-1.99503997793928
20
14.1736586399812
30
0
41
1
10
-1.99503997793928
20
12.1286054195275
30
0
41
1
10
-1.99503997793928
20
9.95349522257501
30
0
41
1
10
-1.99503997793928
20
8.03329795823163
30
0
41
1
10
-1.99503997793928
20
6.43152354524264
30
0
41
1
10
-1.99503997793928
20
5.19920324116254
30
0
41
1
10
-1.99503997793928
20
3.93622738701504
30
0
41
1
10
-1.99503997793928
20
2.64495367748941
30
0
41
1
10
-1.99503997793928
20
1.54951551889729
30
0
41
1
10
-1.99503997793928
20
0.6647912077417
30
0
41
1
10
-1.99503997793928
20
-1.48582728E-08
30
0
41
1
10
-1.99503997793928
20
-0.664791253601607
30
0
41
1
10
-1.99503997793928
20
-1.549515656636
30
0
41
1
10
-1.99503997793928
20
-2.64495403942521
30
0
41
1
10
-1.99503997793928
20
-3.93622781621522
30
0
41
1
10
-1.99503997793928
20
-5.19920320851571
30
0
41
1
10
-1.99503997793928
20
-6.43152352997811
30
0
41
1
10
-1.99503997793928
20
-8.03329822829241
30
0
41
1
10
-1.99503997793928
20
-9.95349533700443
30
0
41
1
10
-1.99503997793928
20
-12.1286054335931
30
0
41
1
10
-1.99503997793928
20
-14.1736586478766
30
0
41
1
10
-1.99503997793928
20
-16.0876367400659
30
0
41
1
10
-1.99503997793928
20
-17.8697602043723
30
0
41
1
10
-1.99503997793928
20
-19.5171385903506
30
0
41
1
10
-1.99503997793928
20
-21.027578149028
30
0
41
1
10
-1.99503997793928
20
-22.3968114946305
30
0
41
1
10
-1.99503997793928
20
-23.6194427004969
30
0
41
1
10
-1.99503997793928
20
-24.6899119683388
30
0
41
1
10
-1.99503997793928
20
-25.4475821015686
30
0
41
1
10
-1.99503997793928
20
-25.9687206006143
30
0
41
1
10
-1.99503997793928
20
-26.4304294614745
30
0
41
1
10
-1.99503997793928
20
-26.8920582242086
30
0
41
1
10
-1.99503997793926
20
-27.2410455592857
30
0
41
1
10
-1.99503997793928
20
-27.3252544403004
30
0
41
1
10
-1.99503997793928
20
-27.3252180397805
30
0
0
SPLINE
5
186
100
AcDbEntity
8
SK1
62
256
6
ByLayer
370
18
48
1
60
0
100
AcDbSpline
70
4
71
3
72
53
73
49
40
0
40
0
40
0
40
0
40
0.018359052463939
40
0.0466908709499533
40
0.0750226894359676
40
0.0891885986789748
40
0.103354507921982
40
0.131686326407996
40
0.160018144894011
40
0.188349963380025
40
0.216681781866039
40
0.245013600352054
40
0.273345418838068
40
0.301677237324082
40
0.330009055810096
40
0.358340874296111
40
0.386672692782125
40
0.415004511268139
40
0.429170420511147
40
0.443336329754154
40
0.457502238997161
40
0.471668148240168
40
0.485834057483175
40
0.492917012104679
40
0.499999966726182
40
0.507082921347686
40
0.51416587596919
40
0.528331785212197
40
0.542497694455204
40
0.556663603698211
40
0.570829512941218
40
0.584995422184225
40
0.61332724067024
40
0.641659059156254
40
0.669990877642268
40
0.698322696128283
40
0.726654514614297
40
0.754986333100311
40
0.783318151586326
40
0.81164997007234
40
0.839981788558354
40
0.868313607044369
40
0.896645425530383
40
0.91081133477339
40
0.924977244016397
40
0.953309062502412
40
0.981640880988426
40
1
40
1
40
1
40
1
41
1
10
-2.19999999999999
20
27.5061904598044
30
0
41
1
10
-2.19999999999999
20
27.4879594081988
30
0
41
1
10
-2.19999999999999
20
27.396725424497
30
0
41
1
10
-2.19999999999999
20
27.0843206529938
30
0
41
1
10
-2.19999999999999
20
26.6200957584237
30
0
41
1
10
-2.19999999999999
20
26.156191020121
30
0
41
1
10
-2.19999999999999
20
25.6326608836802
30
0
41
1
10
-2.19999999999999
20
24.8712257553422
30
0
41
1
10
-2.19999999999999
20
23.7958356733944
30
0
41
1
10
-2.19999999999999
20
22.5676765989873
30
0
41
1
10
-2.19999999999999
20
21.1922721628705
30
0
41
1
10
-2.19999999999999
20
19.6749841148914
30
0
41
1
10
-2.19999999999999
20
18.0199577075533
30
0
41
1
10
-2.19999999999999
20
16.229252641869
30
0
41
1
10
-2.19999999999999
20
14.3055535850363
30
0
41
1
10
-2.19999999999999
20
12.2492947844102
30
0
41
1
10
-2.19999999999999
20
10.0609973779136
30
0
41
1
10
-2.19999999999999
20
8.12686459619209
30
0
41
1
10
-2.19999999999999
20
6.51319173456665
30
0
41
1
10
-2.19999999999999
20
5.26973655346097
30
0
41
1
10
-2.19999999999999
20
3.99363661217191
30
0
41
1
10
-2.19999999999999
20
2.68649440179473
30
0
41
1
10
-2.19999999999999
20
1.57441409623576
30
0
41
1
10
-2.19999999999999
20
0.676125852580327
30
0
41
1
10
-2.19999999999999
20
-8.01526596E-08
30
0
41
1
10
-2.19999999999999
20
-0.676125991375216
30
0
41
1
10
-2.19999999999999
20
-1.57441419616916
30
0
41
1
10
-2.19999999999999
20
-2.68649461847352
30
0
41
1
10
-2.19999999999999
20
-3.99363707251752
30
0
41
1
10
-2.19999999999999
20
-5.26973663380883
30
0
41
1
10
-2.19999999999999
20
-6.51319169435675
30
0
41
1
10
-2.19999999999999
20
-8.1268648484035
30
0
41
1
10
-2.19999999999999
20
-10.0609975068282
30
0
41
1
10
-2.19999999999999
20
-12.2492948087344
30
0
41
1
10
-2.19999999999999
20
-14.3055536070197
30
0
41
1
10
-2.19999999999999
20
-16.2292523079286
30
0
41
1
10
-2.19999999999999
20
-18.0199573189881
30
0
41
1
10
-2.19999999999999
20
-19.6749839400143
30
0
41
1
10
-2.19999999999999
20
-21.1922725974247
30
0
41
1
10
-2.19999999999999
20
-22.5676769377316
30
0
41
1
10
-2.19999999999999
20
-23.7958345745359
30
0
41
1
10
-2.19999999999999
20
-24.87122617173
30
0
41
1
10
-2.19999999999999
20
-25.6326636676739
30
0
41
1
10
-2.19999999999999
20
-26.1561930557051
30
0
41
1
10
-2.19999999999999
20
-26.6200957619357
30
0
41
1
10
-2.19999999999999
20
-27.0843209142601
30
0
41
1
10
-2.19999999999999
20
-27.3967256815522
30
0
41
1
10
-2.19999999999996
20
-27.4879595199654
30
0
41
1
10
-2.19999999999996
20
-27.5061905401003
30
0
0
SPLINE
5
187
100
AcDbEntity
8
SK1
62
256
6
ByLayer
370
18
48
1
60
0
100
AcDbSpline
70
4
71
3
72
53
73
49
40
0
40
0
40
0
40
0
40
0.0184049962056485
40
0.0467338357147511
40
0.0750626752238537
40
0.089227094978405
40
0.103391514732956
40
0.131720354242059
40
0.160049193751161
40
0.188378033260264
40
0.216706872769367
40
0.245035712278469
40
0.273364551787572
40
0.301693391296674
40
0.330022230805777
40
0.358351070314879
40
0.386679909823982
40
0.415008749333085
40
0.429173169087636
40
0.443337588842187
40
0.457502008596738
40
0.47166642835129
40
0.485830848105841
40
0.492913057983117
40
0.499995267860392
40
0.507077477737668
40
0.514159687614943
40
0.528324107369495
40
0.542488527124046
40
0.556652946878597
40
0.570817366633148
40
0.5849817863877
40
0.613310625896802
40
0.641639465405905
40
0.669968304915008
40
0.69829714442411
40
0.726625983933213
40
0.754954823442315
40
0.783283662951418
40
0.81161250246052
40
0.839941341969623
40
0.868270181478726
40
0.896599020987828
40
0.910763440742379
40
0.924927860496931
40
0.953256700006033
40
0.981585539515136
40
1
40
1
40
1
40
1
41
1
10
-46.5
20
26.3940910616903
30
0
41
1
10
-46.5
20
26.3765864069389
30
0
41
1
10
-46.5
20
26.2887289392223
30
0
41
1
10
-46.5
20
25.9864884679325
30
0
41
1
10
-46.5
20
25.5370892350002
30
0
41
1
10
-46.5
20
25.0857116283691
30
0
41
1
10
-46.5
20
24.5758332694777
30
0
41
1
10
-46.5
20
23.8359097589668
30
0
41
1
10
-46.5
20
22.7886268297893
30
0
41
1
10
-46.5
20
21.5920242293512
30
0
41
1
10
-46.5
20
20.2518563243232
30
0
41
1
10
-46.5
20
18.773677001608
30
0
41
1
10
-46.5
20
17.1623226058105
30
0
41
1
10
-46.5
20
15.4206187950808
30
0
41
1
10
-46.5
20
13.5524250589533
30
0
41
1
10
-46.5
20
11.5601508338966
30
0
41
1
10
-46.5
20
9.44715323273309
30
0
41
1
10
-46.5
20
7.59259314167716
30
0
41
1
10
-46.5
20
6.04686117862462
30
0
41
1
10
-46.5
20
4.86698685362285
30
0
41
1
10
-46.5
20
3.66582628473356
30
0
41
1
10
-46.5
20
2.4492942236117
30
0
41
1
10
-46.5
20
1.43224163583807
30
0
41
1
10
-46.5
20
0.611404309556576
30
0
41
1
10
-46.5
20
2.92682472E-07
30
0
41
1
10
-46.5
20
-0.611403917686943
30
0
41
1
10
-46.5
20
-1.43224195164228
30
0
41
1
10
-46.5
20
-2.44929526971745
30
0
41
1
10
-46.5
20
-3.66582656723671
30
0
41
1
10
-46.5
20
-4.866986288764
30
0
41
1
10
-46.5
20
-6.04686128085439
30
0
41
1
10
-46.5
20
-7.59259349580967
30
0
41
1
10
-46.5
20
-9.44715327893678
30
0
41
1
10
-46.5
20
-11.5601507996435
30
0
41
1
10
-46.5
20
-13.552425000493
30
0
41
1
10
-46.5
20
-15.4206184072864
30
0
41
1
10
-46.5
20
-17.1623222405147
30
0
41
1
10
-46.5
20
-18.7736769529143
30
0
41
1
10
-46.5
20
-20.2518568208893
30
0
41
1
10
-46.5
20
-21.5920243888973
30
0
41
1
10
-46.5
20
-22.7886257535111
30
0
41
1
10
-46.5
20
-23.8359105369953
30
0
41
1
10
-46.5
20
-24.5758361522005
30
0
41
1
10
-46.5
20
-25.0857134120403
30
0
41
1
10
-46.5
20
-25.5370891216558
30
0
41
1
10
-46.5
20
-25.9864887242637
30
0
41
1
10
-46.5
20
-26.2887670185593
30
0
41
1
10
-46.5
20
-26.3766218413691
30
0
41
1
10
-46.5
20
-26.3941179380009
30
0
0
SPLINE
5
188
100
AcDbEntity
8
1
62
256
6
ByLayer
370
18
48
1
60
0
100
AcDbSpline
70
4
71
3
72
82
73
78
40
0
40
0
40
0
40
0
40
0.0084631898077216
40
0.0170318658324509
40
0.0257060820496171
40
0.0344858999088611
40
0.0433713885460607
40
0.0523626249986195
40
0.0614596944243406
40
0.0706626903241726
40
0.079971714769122
40
0.0893868786316187
40
0.0989083018216135
40
0.108536113527692
40
0.118270452463483
40
0.128111467119655
40
0.138059316021773
40
0.148114167994318
40
0.158276202431165
40
0.168545609572833
40
0.178922590790789
40
0.189407358879187
40
0.200000138354308
40
0.21070116576211
40
0.221510689994209
40
0.232428972612685
40
0.243456288184094
40
0.254592924623107
40
0.265839183546187
40
0.277195380635775
40
0.288661846015429
40
0.300238924636422
40
0.311926976676318
40
0.323726377950059
40
0.335637222945678
40
0.347652007335729
40
0.359767423335245
40
0.371983625059262
40
0.384300779700221
40
0.39671906781089
40
0.409238683594916
40
0.421859835205875
40
0.4345827450549
40
0.447407650127502
40
0.46033480230906
40
0.473364468722367
40
0.486496932072269
40
0.49973249100445
40
0.515332434254055
40
0.531047112024256
40
0.54687709110972
40
0.562822964879722
40
0.578885353945171
40
0.595064906854574
40
0.611362300820414
40
0.627778242477119
40
0.644313468672419
40
0.660968747295023
40
0.677744878136771
40
0.69464269379581
40
0.711663060619715
40
0.728806879691842
40
0.746074736180003
40
0.76345781348962
40
0.780952464425576
40
0.798559437263353
40
0.816279511585645
40
0.834113499115644
40
0.852062244589572
40
0.870126626670359
40
0.888307558904806
40
0.906605990726671
40
0.92502290850851
40
0.943559336663341
40
0.962216338804209
40
0.980994796124946
40
1
40
1
40
1
40
1
41
1
10
178.068166739865
20
-28.7540632158608
30
0
41
1
10
178.068955399123
20
-28.7610201147557
30
0
41
1
10
178.070542547582
20
-28.7750206241712
30
0
41
1
10
178.072803576513
20
-28.7959302554079
30
0
41
1
10
178.074995215249
20
-28.8169309053988
30
0
41
1
10
178.077106667214
20
-28.8379999979081
30
0
41
1
10
178.079139835903
20
-28.8591352424548
30
0
41
1
10
178.081093204993
20
-28.8803287104948
30
0
41
1
10
178.08296623585
20
-28.9015739087588
30
0
41
1
10
178.084758166844
20
-28.9228638491066
30
0
41
1
10
178.086468339896
20
-28.9441915744134
30
0
41
1
10
178.088096110545
20
-28.965550014495
30
0
41
1
10
178.089640871625
20
-28.9869320246276
30
0
41
1
10
178.091102046038
20
-29.0083303741898
30
0
41
1
10
178.092479087996
20
-29.0297377488011
30
0
41
1
10
178.093771482002
20
-29.0511467486843
30
0
41
1
10
178.094978742515
20
-29.0725498879567
30
0
41
1
10
178.096100413464
20
-29.0939395935658
30
0
41
1
10
178.097136067866
20
-29.1153082042207
30
0
41
1
10
178.098085307466
20
-29.1366479692165
30
0
41
1
10
178.098947762416
20
-29.1579510471872
30
0
41
1
10
178.099723091006
20
-29.1792095047625
30
0
41
1
10
178.100410979426
20
-29.2004153151461
30
0
41
1
10
178.101011141572
20
-29.2215603565995
30
0
41
1
10
178.101523318904
20
-29.242636410836
30
0
41
1
10
178.101947280331
20
-29.2636351613231
30
0
41
1
10
178.102282822154
20
-29.2845481914856
30
0
41
1
10
178.102529768041
20
-29.3053669828199
30
0
41
1
10
178.102687969082
20
-29.3260829128793
30
0
41
1
10
178.102757303755
20
-29.3466872532619
30
0
41
1
10
178.10273767846
20
-29.3671711670925
30
0
41
1
10
178.102629026139
20
-29.3875257079137
30
0
41
1
10
178.102431312372
20
-29.407741812715
30
0
41
1
10
178.102144515829
20
-29.4278101480238
30
0
41
1
10
178.10176879682
20
-29.4477168145368
30
0
41
1
10
178.101304192085
20
-29.4674463351354
30
0
41
1
10
178.100751098197
20
-29.486983471222
30
0
41
1
10
178.100109954731
20
-29.5063172671499
30
0
41
1
10
178.099381169263
20
-29.5254385875513
30
0
41
1
10
178.098565182428
20
-29.5443382119735
30
0
41
1
10
178.097662462903
20
-29.5630068369692
30
0
41
1
10
178.096673509409
20
-29.5814350728262
30
0
41
1
10
178.095598850925
20
-29.5996134416195
30
0
41
1
10
178.094439047279
20
-29.6175323748646
30
0
41
1
10
178.093194690435
20
-29.6351822108614
30
0
41
1
10
178.091866402863
20
-29.6525531931957
30
0
41
1
10
178.090454847685
20
-29.6696354641274
30
0
41
1
10
178.088875614838
20
-29.6873747604394
30
0
41
1
10
178.087114518131
20
-29.7056741383205
30
0
41
1
10
178.085157545369
20
-29.7244279912497
30
0
41
1
10
178.083095388407
20
-29.742698807861
30
0
41
1
10
178.080929857854
20
-29.7604731800479
30
0
41
1
10
178.078662794025
20
-29.7777375401127
30
0
41
1
10
178.076296082041
20
-29.7944781462187
30
0
41
1
10
178.073831652105
20
-29.8106810776938
30
0
41
1
10
178.071271484012
20
-29.8263322274087
30
0
41
1
10
178.068617610758
20
-29.8414172946867
30
0
41
1
10
178.06587212273
20
-29.8559217777591
30
0
41
1
10
178.063037171976
20
-29.8698309660847
30
0
41
1
10
178.060114976565
20
-29.8831299324353
30
0
41
1
10
178.057107826391
20
-29.8958035244544
30
0
41
1
10
178.054018105647
20
-29.907836274846
30
0
41
1
10
178.05084889215
20
-29.9192103441977
30
0
41
1
10
178.047603640201
20
-29.9299073594419
30
0
41
1
10
178.044285999353
20
-29.9399096550283
30
0
41
1
10
178.040899152098
20
-29.9492017409402
30
0
41
1
10
178.037446097304
20
-29.9577688217602
30
0
41
1
10
178.033929931488
20
-29.9655958962833
30
0
41
1
10
178.03035385472
20
-29.9726677381211
30
0
41
1
10
178.026721177998
20
-29.978968933051
30
0
41
1
10
178.023035330905
20
-29.9844837007714
30
0
41
1
10
178.019299869204
20
-29.9891965284017
30
0
41
1
10
178.015518485251
20
-29.9930897440708
30
0
41
1
10
178.011695010143
20
-29.9961526205075
30
0
41
1
10
178.007833464761
20
-29.9983470184897
30
0
41
1
10
178.003930756042
20
-29.999739379608
30
0
41
1
10
178.001315483588
20
-29.9999127796677
30
0
41
1
10
178
20
-30
30
0
0
SPLINE
5
189
100
AcDbEntity
8
1
62
256
6
ByLayer
370
13
48
1
60
0
100
AcDbSpline
70
4
71
1
72
4
73
2
40
0
40
0
40
1
40
1
41
1
10
177.636333479731
20
-29.0040268797168
30
0
41
1
10
178.068166739865
20
-28.7540632158608
30
0
0
SPLINE
5
18A
100
AcDbEntity
8
1
62
256
6
ByLayer
370
13
48
1
60
0
100
AcDbSpline
70
4
71
3
72
30
73
26
40
0
40
0
40
0
40
0
40
0.124999999999999
40
0.124999999999999
40
0.249999999999998
40
0.249999999999998
40
0.312499999999997
40
0.312499999999997
40
0.343749999999997
40
0.343749999999997
40
0.374999999999997
40
0.499999999999997
40
0.499999999999997
40
0.624999999999998
40
0.624999999999998
40
0.687499999999998
40
0.687499999999998
40
0.749999999999999
40
0.749999999999999
40
0.874999999999999
40
0.874999999999999
40
0.9375
40
0.96875
40
0.96875
40
1
40
1
40
1
40
1
41
1
10
178.5
20
-28.5243902439024
30
0
41
1
10
178.5
20
-28.6463456924521
30
0
41
1
10
178.494867295457
20
-28.7607822397311
30
0
41
1
10
178.477322865052
20
-28.9747784554306
30
0
41
1
10
178.464881574937
20
-29.074337447342
30
0
41
1
10
178.442095788348
20
-29.2125395608472
30
0
41
1
10
178.433807020245
20
-29.2567499092746
30
0
41
1
10
178.420463067924
20
-29.32027426979
30
0
41
1
10
178.415861533638
20
-29.3409900334813
30
0
41
1
10
178.406382851588
20
-29.3814505483905
30
0
41
1
10
178.38199430259
20
-29.4801781976742
30
0
41
1
10
178.354415448542
20
-29.5668448333317
30
0
41
1
10
178.307237698167
20
-29.69021422284
30
0
41
1
10
178.282119345361
20
-29.7442500623256
30
0
41
1
10
178.242766214032
20
-29.8138435156958
30
0
41
1
10
178.229367974665
20
-29.8351303445858
30
0
41
1
10
178.202101521617
20
-29.873873002596
30
0
41
1
10
178.188228866469
20
-29.8913335735416
30
0
41
1
10
178.146063645186
20
-29.9379123489139
30
0
41
1
10
178.11727434799
20
-29.9611833545936
30
0
41
1
10
178.073568059289
20
-29.9844669543471
30
0
41
1
10
178.051583615958
20
-29.9932016118071
30
0
41
1
10
178.029491014814
20
-29.9975721011388
30
0
41
1
10
178.014748318527
20
-29.9995146855327
30
0
41
1
10
178.007362850041
20
-30
30
0
41
1
10
178
20
-30
30
0
0
SPLINE
5
18B
100
AcDbEntity
8
1
62
256
6
ByLayer
370
18
48
1
60
0
100
AcDbSpline
70
4
71
3
72
36
73
32
40
0
40
0
40
0
40
0
40
0.0624999999999999
40
0.0624999999999999
40
0.125
40
0.125
40
0.1875
40
0.1875
40
0.25
40
0.25
40
0.3125
40
0.3125
40
0.375
40
0.375
40
0.4375
40
0.4375
40
0.5
40
0.5
40
0.5625
40
0.5625
40
0.625
40
0.625
40
0.6875
40
0.6875
40
0.75
40
0.75
40
0.812499999999999
40
0.812499999999999
40
0.874999999999999
40
0.874999999999999
40
1
40
1
40
1
40
1
41
1
10
179.650480947162
20
-29.6294893682057
30
0
41
1
10
179.643862084188
20
-29.6358650377144
30
0
41
1
10
179.637368158041
20
-29.6420854939392
30
0
41
1
10
179.624658212001
20
-29.6541795144029
30
0
41
1
10
179.618465781099
20
-29.6600302465737
30
0
41
1
10
179.606614451507
20
-29.6711317760501
30
0
41
1
10
179.600930365741
20
-29.6764066912076
30
0
41
1
10
179.590113554064
20
-29.6863246581521
30
0
41
1
10
179.584944456052
20
-29.691000029734
30
0
41
1
10
179.575462300344
20
-29.6994157565418
30
0
41
1
10
179.571165979257
20
-29.7031426233273
30
0
41
1
10
179.563582231134
20
-29.709502599633
30
0
41
1
10
179.560295493777
20
-29.7121314384149
30
0
41
1
10
179.555115656292
20
-29.7159495810421
30
0
41
1
10
179.55318093426
20
-29.7171751733805
30
0
41
1
10
179.550745513604
20
-29.7181286395742
30
0
41
1
10
179.550291079597
20
-29.7178363837949
30
0
41
1
10
179.550812662286
20
-29.7158184071475
30
0
41
1
10
179.551796471514
20
-29.7140793421216
30
0
41
1
10
179.555138387984
20
-29.7092388666697
30
0
41
1
10
179.557446708715
20
-29.7062051495601
30
0
41
1
10
179.563158317433
20
-29.6990846204168
30
0
41
1
10
179.566592406128
20
-29.6949623448436
30
0
41
1
10
179.57432482138
20
-29.6859171291032
30
0
41
1
10
179.578590882068
20
-29.681029982191
30
0
41
1
10
179.587802061849
20
-29.6706380732869
30
0
41
1
10
179.592748132286
20
-29.6651324406481
30
0
41
1
10
179.60325464834
20
-29.6535639456442
30
0
41
1
10
179.608756349683
20
-29.6475660845106
30
0
41
1
10
179.625757992912
20
-29.6291819152151
30
0
41
1
10
179.63781344554
20
-29.616338150569
30
0
41
1
10
179.650480947162
20
-29.6030003410692
30
0
0
SPLINE
5
18C
100
AcDbEntity
8
1
62
256
6
ByLayer
370
18
48
1
60
0
100
AcDbSpline
70
4
71
3
72
8
73
4
40
0
40
0
40
0
40
0
40
1
40
1
40
1
40
1
41
1
10
179.650480947162
20
-29.6030003410692
30
0
41
1
10
179.876008003165
20
-29.3655393957385
30
0
41
1
10
180.100791090601
20
-29.1271433496652
30
0
41
1
10
180.324759526419
20
-28.8877233606912
30
0
0
SPLINE
5
18D
100
AcDbEntity
8
1
62
256
6
ByLayer
370
18
48
1
60
0
100
AcDbSpline
70
4
71
3
72
8
73
4
40
0
40
0
40
0
40
0
40
1
40
1
40
1
40
1
41
1
10
180.324759526419
20
-28.8429985339383
30
0
41
1
10
180.10033706691
20
-29.0525298860216
30
0
41
1
10
179.875567648883
20
-29.2615638584136
30
0
41
1
10
179.650480947162
20
-29.4701429912256
30
0
0
SPLINE
5
18E
100
AcDbEntity
8
1
62
256
6
ByLayer
370
18
48
1
60
0
100
AcDbSpline
70
4
71
3
72
38
73
34
40
0
40
0
40
0
40
0
40
0.0624999999999966
40
0.0624999999999966
40
0.124999999999993
40
0.124999999999993
40
0.18749999999999
40
0.18749999999999
40
0.249999999999987
40
0.249999999999987
40
0.312499999999983
40
0.312499999999983
40
0.37499999999998
40
0.37499999999998
40
0.437499999999976
40
0.437499999999976
40
0.499999999999973
40
0.499999999999973
40
0.531249999999971
40
0.531249999999971
40
0.56249999999997
40
0.56249999999997
40
0.624999999999976
40
0.624999999999976
40
0.687499999999982
40
0.687499999999982
40
0.749999999999988
40
0.749999999999988
40
0.812499999999993
40
0.812499999999993
40
0.874999999999999
40
0.874999999999999
40
1
40
1
40
1
40
1
41
1
10
179.650480947162
20
-29.4701429912256
30
0
41
1
10
179.643726881463
20
-29.4764017224413
30
0
41
1
10
179.637098160743
20
-29.4824675984262
30
0
41
1
10
179.624121587645
20
-29.4941653645858
30
0
41
1
10
179.617742143976
20
-29.4998242703924
30
0
41
1
10
179.605562970484
20
-29.5104136408788
30
0
41
1
10
179.599742695575
20
-29.5153637999639
30
0
41
1
10
179.588714807944
20
-29.5244776354345
30
0
41
1
10
179.583471678807
20
-29.5286687146869
30
0
41
1
10
179.573894168183
20
-29.5359672809033
30
0
41
1
10
179.569604727196
20
-29.5390430763004
30
0
41
1
10
179.562140118258
20
-29.5439116287619
30
0
41
1
10
179.558968752714
20
-29.5456925212589
30
0
41
1
10
179.55412676766
20
-29.5476893893327
30
0
41
1
10
179.552408786091
20
-29.5479394606952
30
0
41
1
10
179.550449968655
20
-29.5468649480095
30
0
41
1
10
179.550243871428
20
-29.5455532016625
30
0
41
1
10
179.550991933076
20
-29.5425459103021
30
0
41
1
10
179.551417710024
20
-29.5413688368418
30
0
41
1
10
179.552612851189
20
-29.5386745168133
30
0
41
1
10
179.553385026571
20
-29.5371539574101
30
0
41
1
10
179.556141299637
20
-29.5322031740114
30
0
41
1
10
179.558572250333
20
-29.5283601137443
30
0
41
1
10
179.56445428438
20
-29.5197418754224
30
0
41
1
10
179.567937837454
20
-29.5149253101636
30
0
41
1
10
179.575648799551
20
-29.5046892334913
30
0
41
1
10
179.579874304902
20
-29.4992680700742
30
0
41
1
10
179.588959245089
20
-29.4879075907862
30
0
41
1
10
179.593819464948
20
-29.481967630191
30
0
41
1
10
179.604115964568
20
-29.4696181549185
30
0
41
1
10
179.609513235996
20
-29.4632561734391
30
0
41
1
10
179.6261921918
20
-29.4438785061731
30
0
41
1
10
179.638027080278
20
-29.4304881908606
30
0
41
1
10
179.650480947162
20
-29.4166940319327
30
0
0
SPLINE
5
18F
100
AcDbEntity
8
1
62
256
6
ByLayer
370
18
48
1
60
0
100
AcDbSpline
70
4
71
3
72
8
73
4
40
0
40
0
40
0
40
0
40
1
40
1
40
1
40
1
41
1
10
179.650480947162
20
-29.4166940319327
30
0
41
1
10
179.876228917632
20
-29.1666509399749
30
0
41
1
10
180.101019214676
20
-28.9154654531765
30
0
41
1
10
180.324759526419
20
-28.6630274540333
30
0
0
SPLINE
5
190
100
AcDbEntity
8
1
62
256
6
ByLayer
370
18
48
1
60
0
100
AcDbSpline
70
4
71
3
72
8
73
4
40
0
40
0
40
0
40
0
40
1
40
1
40
1
40
1
41
1
10
180.324759526419
20
-28.5875252185438
30
0
41
1
10
180.100236859786
20
-28.7895703804292
30
0
41
1
10
179.875470342809
20
-28.9912532251729
30
0
41
1
10
179.650480947162
20
-29.1926049128575
30
0
0
SPLINE
5
191
100
AcDbEntity
8
1
62
256
6
ByLayer
370
18
48
1
60
0
100
AcDbSpline
70
4
71
3
72
39
73
35
40
0
40
0
40
0
40
0
40
0.0625000000000043
40
0.0625000000000043
40
0.125000000000009
40
0.125000000000009
40
0.187500000000013
40
0.187500000000013
40
0.250000000000017
40
0.250000000000017
40
0.312500000000022
40
0.312500000000022
40
0.343750000000022
40
0.343750000000022
40
0.375000000000023
40
0.406250000000023
40
0.406250000000023
40
0.437500000000024
40
0.437500000000024
40
0.500000000000022
40
0.500000000000022
40
0.562500000000019
40
0.562500000000019
40
0.625000000000017
40
0.625000000000017
40
0.687500000000014
40
0.687500000000014
40
0.750000000000012
40
0.750000000000012
40
0.81250000000001
40
0.81250000000001
40
0.875000000000007
40
0.875000000000007
40
1
40
1
40
1
40
1
41
1
10
179.650480947162
20
-29.1926049128575
30
0
41
1
10
179.643561481925
20
-29.1987974091713
30
0
41
1
10
179.636760597053
20
-29.2047594560293
30
0
41
1
10
179.623428732478
20
-29.2161568732047
30
0
41
1
10
179.616868043973
20
-29.221614922343
30
0
41
1
10
179.604372494835
20
-29.2316571174374
30
0
41
1
10
179.598405523108
20
-29.2362705084991
30
0
41
1
10
179.587120780066
20
-29.2445513660951
30
0
41
1
10
179.581757911793
20
-29.248245222261
30
0
41
1
10
179.572161291116
20
-29.2542618829971
30
0
41
1
10
179.567898801765
20
-29.2566113207269
30
0
41
1
10
179.562409953693
20
-29.2590197111092
30
0
41
1
10
179.56074024976
20
-29.2596301418322
30
0
41
1
10
179.557792033825
20
-29.2604382600566
30
0
41
1
10
179.555212841065
20
-29.260843929945
30
0
41
1
10
179.553367705005
20
-29.2604482498082
30
0
41
1
10
179.551893890274
20
-29.259646847812
30
0
41
1
10
179.551341802858
20
-29.2590371274925
30
0
41
1
10
179.550274927363
20
-29.2566430276474
30
0
41
1
10
179.550326458122
20
-29.2543028706035
30
0
41
1
10
179.551787967949
20
-29.2482959791915
30
0
41
1
10
179.553220516284
20
-29.2445964956714
30
0
41
1
10
179.557185296634
20
-29.2362910592424
30
0
41
1
10
179.559719213955
20
-29.2316610587576
30
0
41
1
10
179.565737405588
20
-29.2215788782869
30
0
41
1
10
179.569244994022
20
-29.2160956853224
30
0
41
1
10
179.576918114054
20
-29.2046829541805
30
0
41
1
10
179.581098727558
20
-29.1987255135256
30
0
41
1
10
179.590054837743
20
-29.1863774236134
30
0
41
1
10
179.594830979835
20
-29.1799863029414
30
0
41
1
10
179.604926584524
20
-29.1668094826114
30
0
41
1
10
179.61022432905
20
-29.1600533921706
30
0
41
1
10
179.626598565669
20
-29.1395788033848
30
0
41
1
10
179.638226288089
20
-29.1255569553039
30
0
41
1
10
179.650480947162
20
-29.1112111569994
30
0
0
SPLINE
5
192
100
AcDbEntity
8
1
62
256
6
ByLayer
370
18
48
1
60
0
100
AcDbSpline
70
4
71
3
72
8
73
4
40
0
40
0
40
0
40
0
40
1
40
1
40
1
40
1
41
1
10
179.650480947162
20
-29.1112111569994
30
0
41
1
10
179.876507770666
20
-28.8466150387261
30
0
41
1
10
180.101307459449
20
-28.5806365366889
30
0
41
1
10
180.324759526419
20
-28.3131399205598
30
0
0
SPLINE
5
193
100
AcDbEntity
8
1
62
256
6
ByLayer
370
18
48
1
60
0
100
AcDbSpline
70
4
71
3
72
8
73
4
40
0
40
0
40
0
40
0
40
1
40
1
40
1
40
1
41
1
10
180.324759526419
20
-28.2053177327395
30
0
41
1
10
180.100154848045
20
-28.4009956122068
30
0
41
1
10
179.875390693943
20
-28.5964289589472
30
0
41
1
10
179.650480947162
20
-28.7916390605853
30
0
0
SPLINE
5
194
100
AcDbEntity
8
1
62
256
6
ByLayer
370
18
48
1
60
0
100
AcDbSpline
70
4
71
3
72
32
73
28
40
0
40
0
40
0
40
0
40
0.124999999999989
40
0.124999999999989
40
0.18749999999999
40
0.18749999999999
40
0.24999999999999
40
0.24999999999999
40
0.31249999999999
40
0.31249999999999
40
0.374999999999991
40
0.374999999999991
40
0.437499999999991
40
0.437499999999991
40
0.499999999999991
40
0.499999999999991
40
0.562499999999992
40
0.562499999999992
40
0.624999999999992
40
0.624999999999992
40
0.749999999999997
40
0.749999999999997
40
0.812500000000001
40
0.812500000000001
40
0.875000000000005
40
0.875000000000005
40
1
40
1
40
1
40
1
41
1
10
179.650480947162
20
-28.7916390605853
30
0
41
1
10
179.636218452344
20
-28.8040181731086
30
0
41
1
10
179.622240264368
20
-28.8154173152047
30
0
41
1
10
179.602992291188
20
-28.8296153042808
30
0
41
1
10
179.596826112669
20
-28.8338945401531
30
0
41
1
10
179.585150324815
20
-28.8413094412335
30
0
41
1
10
179.579802545074
20
-28.8443419283293
30
0
41
1
10
179.570193548697
20
-28.8489058516384
30
0
41
1
10
179.565917359671
20
-28.8504253367856
30
0
41
1
10
179.5589614839
20
-28.8516753986743
30
0
41
1
10
179.556219248358
20
-28.8514436933257
30
0
41
1
10
179.552246458667
20
-28.849215664621
30
0
41
1
10
179.551085390741
20
-28.847251677175
30
0
41
1
10
179.550241537347
20
-28.8418614194536
30
0
41
1
10
179.550569080283
20
-28.838382972767
30
0
41
1
10
179.552511726574
20
-28.8303344171844
30
0
41
1
10
179.554109567751
20
-28.8257708187554
30
0
41
1
10
179.558360917358
20
-28.8157342041928
30
0
41
1
10
179.56103952816
20
-28.8102189029185
30
0
41
1
10
179.570274220005
20
-28.7928579231843
30
0
41
1
10
179.578003306719
20
-28.7801749967735
30
0
41
1
10
179.591401058081
20
-28.7598818429372
30
0
41
1
10
179.59613953536
20
-28.7529552766058
30
0
41
1
10
179.605993559771
20
-28.7389641660187
30
0
41
1
10
179.611125160039
20
-28.7318756087926
30
0
41
1
10
179.627074672477
20
-28.7103590621002
30
0
41
1
10
179.638441494712
20
-28.6956828090524
30
0
41
1
10
179.650480947162
20
-28.6807059996443
30
0
0
SPLINE
5
195
100
AcDbEntity
8
1
62
256
6
ByLayer
370
18
48
1
60
0
100
AcDbSpline
70
4
71
3
72
8
73
4
40
0
40
0
40
0
40
0
40
1
40
1
40
1
40
1
41
1
10
179.650480947162
20
-28.6807059996443
30
0
41
1
10
179.876866272617
20
-28.3990877212198
30
0
41
1
10
180.101678442285
20
-28.1158055554848
30
0
41
1
10
180.324759526419
20
-27.8306924641193
30
0
0
SPLINE
5
196
100
AcDbEntity
8
1
62
256
6
ByLayer
370
18
48
1
60
0
100
AcDbSpline
70
4
71
3
72
8
73
4
40
0
40
0
40
0
40
0
40
1
40
1
40
1
40
1
41
1
10
180.324759526419
20
-27.6881625317612
30
0
41
1
10
180.100089025132
20
-27.8786205059024
30
0
41
1
10
179.875326782245
20
-28.0689340213255
30
0
41
1
10
179.650480947162
20
-28.2591159102949
30
0
0
SPLINE
5
197
100
AcDbEntity
8
1
62
256
6
ByLayer
370
18
48
1
60
0
100
AcDbSpline
70
4
71
3
72
41
73
37
40
0
40
0
40
0
40
0
40
0.062500000000013
40
0.062500000000013
40
0.125000000000026
40
0.125000000000026
40
0.156250000000032
40
0.156250000000032
40
0.187500000000037
40
0.187500000000037
40
0.250000000000043
40
0.250000000000043
40
0.281250000000045
40
0.281250000000045
40
0.312500000000046
40
0.343750000000048
40
0.343750000000048
40
0.37500000000005
40
0.37500000000005
40
0.437500000000054
40
0.437500000000054
40
0.468750000000053
40
0.468750000000053
40
0.500000000000052
40
0.500000000000052
40
0.562500000000046
40
0.562500000000046
40
0.625000000000039
40
0.625000000000039
40
0.687500000000033
40
0.687500000000033
40
0.750000000000026
40
0.750000000000026
40
0.875000000000013
40
0.875000000000013
40
1
40
1
40
1
40
1
41
1
10
179.650480947162
20
-28.2591159102949
30
0
41
1
10
179.64312067197
20
-28.2653414694156
30
0
41
1
10
179.635804695088
20
-28.2712773588523
30
0
41
1
10
179.621558337367
20
-28.2822363602348
30
0
41
1
10
179.614658110685
20
-28.2872398905796
30
0
41
1
10
179.604698216193
20
-28.2939087063814
30
0
41
1
10
179.601443651369
20
-28.2959915195195
30
0
41
1
10
179.595080260981
20
-28.2998442241152
30
0
41
1
10
179.591968194618
20
-28.3016142220467
30
0
41
1
10
179.583076629913
20
-28.3062945367747
30
0
41
1
10
179.577668862641
20
-28.3086246746206
30
0
41
1
10
179.570442806861
20
-28.3107695863595
30
0
41
1
10
179.568202442333
20
-28.311249831674
30
0
41
1
10
179.564140466581
20
-28.3117249114427
30
0
41
1
10
179.560469603166
20
-28.3117232866625
30
0
41
1
10
179.557572696077
20
-28.3107769709441
30
0
41
1
10
179.555065784551
20
-28.3093539638441
30
0
41
1
10
179.554012412702
20
-28.3084010300545
30
0
41
1
10
179.551498718449
20
-28.3049318251667
30
0
41
1
10
179.550641696581
20
-28.3017928744913
30
0
41
1
10
179.550431296051
20
-28.2959971988531
30
0
41
1
10
179.550543891767
20
-28.2938771195671
30
0
41
1
10
179.551097439142
20
-28.2893835606951
30
0
41
1
10
179.55153724686
20
-28.2870008336845
30
0
41
1
10
179.553295887259
20
-28.2794861044503
30
0
41
1
10
179.555051097323
20
-28.2739898973757
30
0
41
1
10
179.559557801758
20
-28.2621650826892
30
0
41
1
10
179.562301249488
20
-28.2558684256211
30
0
41
1
10
179.568507240897
20
-28.2428591198074
30
0
41
1
10
179.571983861287
20
-28.2361109336969
30
0
41
1
10
179.579584891849
20
-28.2221925717866
30
0
41
1
10
179.583728003621
20
-28.2149922619385
30
0
41
1
10
179.59691541842
20
-28.1930284474522
30
0
41
1
10
179.606613261902
20
-28.1780492255824
30
0
41
1
10
179.627467863824
20
-28.1475539976571
30
0
41
1
10
179.638630045339
20
-28.1320359563952
30
0
41
1
10
179.650480947162
20
-28.1162678662819
30
0
0
SPLINE
5
198
100
AcDbEntity
8
1
62
256
6
ByLayer
370
18
48
1
60
0
100
AcDbSpline
70
4
71
3
72
8
73
4
40
0
40
0
40
0
40
0
40
1
40
1
40
1
40
1
41
1
10
179.650480947162
20
-28.1162678662819
30
0
41
1
10
179.877337890168
20
-27.8144257977413
30
0
41
1
10
180.102167049584
20
-27.5105841760994
30
0
41
1
10
180.324759526419
20
-27.204537010626
30
0
0
SPLINE
5
199
100
AcDbEntity
8
1
62
256
6
ByLayer
370
18
48
1
60
0
100
AcDbSpline
70
4
71
3
72
8
73
4
40
0
40
0
40
0
40
0
40
1
40
1
40
1
40
1
41
1
10
180.324759526419
20
-27.0237655573025
30
0
41
1
10
180.100039125586
20
-27.2102687278776
30
0
41
1
10
179.87527835498
20
-27.3967070563409
30
0
41
1
10
179.650480947162
20
-27.5830864488535
30
0
0
SPLINE
5
19A
100
AcDbEntity
8
1
62
256
6
ByLayer
370
18
48
1
60
0
100
AcDbSpline
70
4
71
3
72
39
73
35
40
0
40
0
40
0
40
0
40
0.0624999999999887
40
0.0624999999999887
40
0.124999999999977
40
0.124999999999977
40
0.187499999999966
40
0.187499999999966
40
0.218749999999967
40
0.218749999999967
40
0.249999999999967
40
0.249999999999967
40
0.312499999999967
40
0.312499999999967
40
0.343749999999969
40
0.343749999999969
40
0.374999999999971
40
0.406249999999972
40
0.406249999999972
40
0.437499999999974
40
0.437499999999974
40
0.499999999999977
40
0.499999999999977
40
0.56249999999998
40
0.56249999999998
40
0.624999999999983
40
0.624999999999983
40
0.687499999999986
40
0.687499999999986
40
0.749999999999988
40
0.749999999999988
40
0.874999999999994
40
0.874999999999994
40
1
40
1
40
1
40
1
41
1
10
179.650480947162
20
-27.5830864488535
30
0
41
1
10
179.642848465984
20
-27.5894145343019
30
0
41
1
10
179.635230044314
20
-27.59539066175
30
0
41
1
10
179.620434193986
20
-27.6061779599126
30
0
41
1
10
179.613255140464
20
-27.6109974845248
30
0
41
1
10
179.599425158374
20
-27.6192459915887
30
0
41
1
10
179.592745263725
20
-27.6226722784096
30
0
41
1
10
179.583692680945
20
-27.6262998168289
30
0
41
1
10
179.580816760607
20
-27.6272697003244
30
0
41
1
10
179.575367399923
20
-27.6286973789871
30
0
41
1
10
179.572783455345
20
-27.6291527982103
30
0
41
1
10
179.565725370173
20
-27.6296830301391
30
0
41
1
10
179.561864611698
20
-27.6289563432164
30
0
41
1
10
179.557292459269
20
-27.6263023228391
30
0
41
1
10
179.555968736541
20
-27.6251453113987
30
0
41
1
10
179.553784251941
20
-27.6223872509872
30
0
41
1
10
179.5520409109
20
-27.6191807863444
30
0
41
1
10
179.551098579189
20
-27.6151589316096
30
0
41
1
10
179.550528264205
20
-27.6107578663771
30
0
41
1
10
179.550430700683
20
-27.6083568813501
30
0
41
1
10
179.550654051541
20
-27.6007652352952
30
0
41
1
10
179.551475794025
20
-27.5951597496354
30
0
41
1
10
179.554198267888
20
-27.5830737854475
30
0
41
1
10
179.556114381686
20
-27.5765557654383
30
0
41
1
10
179.560823333971
20
-27.5629298211241
30
0
41
1
10
179.563597798464
20
-27.5558628914157
30
0
41
1
10
179.569844713144
20
-27.5413066108042
30
0
41
1
10
179.573318283136
20
-27.5338165910066
30
0
41
1
10
179.580882685558
20
-27.5184630726735
30
0
41
1
10
179.584984596991
20
-27.5105829559677
30
0
41
1
10
179.597909096523
20
-27.4868430027664
30
0
41
1
10
179.60740422431
20
-27.4707518266123
30
0
41
1
10
179.627855969026
20
-27.4381338925007
30
0
41
1
10
179.638816630046
20
-27.4216059035292
30
0
41
1
10
179.650480947162
20
-27.4048713342158
30
0
0
SPLINE
5
19B
100
AcDbEntity
8
1
62
256
6
ByLayer
370
18
48
1
60
0
100
AcDbSpline
70
4
71
3
72
8
73
4
40
0
40
0
40
0
40
0
40
1
40
1
40
1
40
1
41
1
10
179.650480947162
20
-27.4048713342158
30
0
41
1
10
179.87797677687
20
-27.0784874839773
30
0
41
1
10
180.10282976625
20
-26.7496954266907
30
0
41
1
10
180.324759526419
20
-26.4182396666025
30
0
0
SPLINE
5
19C
100
AcDbEntity
8
1
62
256
6
ByLayer
370
18
48
1
60
0
100
AcDbSpline
70
4
71
3
72
8
73
4
40
0
40
0
40
0
40
0
40
1
40
1
40
1
40
1
41
1
10
180.324759526419
20
-26.1940141333148
30
0
41
1
10
180.100007511727
20
-26.3780816494066
30
0
41
1
10
179.875247737629
20
-26.562136533403
30
0
41
1
10
179.650480947162
20
-26.746179991572
30
0
0
SPLINE
5
19D
100
AcDbEntity
8
1
62
256
6
ByLayer
370
18
48
1
60
0
100
AcDbSpline
70
4
71
3
72
39
73
35
40
0
40
0
40
0
40
0
40
0.0625000000000037
40
0.0625000000000037
40
0.125000000000007
40
0.125000000000007
40
0.156250000000006
40
0.156250000000006
40
0.187500000000005
40
0.187500000000005
40
0.218750000000003
40
0.218750000000003
40
0.250000000000002
40
0.281250000000001
40
0.281250000000001
40
0.312499999999999
40
0.312499999999999
40
0.374999999999996
40
0.374999999999996
40
0.406249999999995
40
0.406249999999995
40
0.437499999999994
40
0.437499999999994
40
0.499999999999999
40
0.499999999999999
40
0.562500000000004
40
0.562500000000004
40
0.625000000000009
40
0.625000000000009
40
0.750000000000006
40
0.750000000000006
40
0.875000000000003
40
0.875000000000003
40
1
40
1
40
1
40
1
41
1
10
179.650480947162
20
-26.746179991572
30
0
41
1
10
179.642517355018
20
-26.7527007370719
30
0
41
1
10
179.63453440989
20
-26.7587815916506
30
0
41
1
10
179.619042460543
20
-26.7694623151671
30
0
41
1
10
179.611511726718
20
-26.7740895951821
30
0
41
1
10
179.600621370502
20
-26.7796806806255
30
0
41
1
10
179.597061556648
20
-26.7813124621372
30
0
41
1
10
179.590290341915
20
-26.7839856794465
30
0
41
1
10
179.587053841966
20
-26.7850409190089
30
0
41
1
10
179.58089623758
20
-26.7865551188072
30
0
41
1
10
179.577954952722
20
-26.787014546724
30
0
41
1
10
179.572512587958
20
-26.7872842763289
30
0
41
1
10
179.567547431314
20
-26.7869134556378
30
0
41
1
10
179.56348717482
20
-26.7853258627772
30
0
41
1
10
179.559865561372
20
-26.7831473720263
30
0
41
1
10
179.558264729514
20
-26.7817488018322
30
0
41
1
10
179.554196953589
20
-26.7767917693806
30
0
41
1
10
179.552440567205
20
-26.7725079257529
30
0
41
1
10
179.550959029724
20
-26.7648963564556
30
0
41
1
10
179.550660070545
20
-26.7621461067255
30
0
41
1
10
179.550422720308
20
-26.7563820754731
30
0
41
1
10
179.550481076441
20
-26.7533611718062
30
0
41
1
10
179.551119474505
20
-26.7439343578543
30
0
41
1
10
179.552159177103
20
-26.7371671874764
30
0
41
1
10
179.555239798449
20
-26.7228437690711
30
0
41
1
10
179.557290439547
20
-26.7152746972403
30
0
41
1
10
179.562146245542
20
-26.6997853492488
30
0
41
1
10
179.564959968858
20
-26.6918233983906
30
0
41
1
10
179.574383518436
20
-26.667383516766
30
0
41
1
10
179.582020418222
20
-26.650262691224
30
0
41
1
10
179.598905986321
20
-26.6158494363718
30
0
41
1
10
179.608200334979
20
-26.598435293484
30
0
41
1
10
179.628249215424
20
-26.5632547901681
30
0
41
1
10
179.639006636006
20
-26.5454877152687
30
0
41
1
10
179.650480947162
20
-26.5275506630092
30
0
0
SPLINE
5
19E
100
AcDbEntity
8
1
62
256
6
ByLayer
370
18
48
1
60
0
100
AcDbSpline
70
4
71
3
72
8
73
4
40
0
40
0
40
0
40
0
40
1
40
1
40
1
40
1
41
1
10
179.650480947162
20
-26.5275506630092
30
0
41
1
10
179.878876276632
20
-26.1705149416585
30
0
41
1
10
180.103764009202
20
-25.8105598495161
30
0
41
1
10
180.324759526419
20
-25.4473652688735
30
0
0
SPLINE
5
19F
100
AcDbEntity
8
1
62
256
6
ByLayer
370
18
48
1
60
0
100
AcDbSpline
70
4
71
3
72
8
73
4
40
0
40
0
40
0
40
0
40
1
40
1
40
1
40
1
41
1
10
180.324759526419
20
-25.1718025873658
30
0
41
1
10
180.10000187134
20
-25.3554472734957
30
0
41
1
10
179.875242279349
20
-25.5390887989485
30
0
41
1
10
179.650480947162
20
-25.7227274845173
30
0
0
SPLINE
5
1A0
100
AcDbEntity
8
1
62
256
6
ByLayer
370
18
48
1
60
0
100
AcDbSpline
70
4
71
3
72
38
73
34
40
0
40
0
40
0
40
0
40
0.0624999999999903
40
0.0624999999999903
40
0.0937499999999872
40
0.0937499999999872
40
0.124999999999984
40
0.124999999999984
40
0.187499999999981
40
0.187499999999981
40
0.249999999999979
40
0.249999999999979
40
0.281249999999975
40
0.281249999999975
40
0.312499999999971
40
0.312499999999971
40
0.374999999999971
40
0.374999999999971
40
0.437499999999971
40
0.437499999999971
40
0.499999999999971
40
0.499999999999971
40
0.562499999999971
40
0.562499999999971
40
0.624999999999971
40
0.624999999999971
40
0.687499999999971
40
0.687499999999971
40
0.749999999999971
40
0.749999999999971
40
0.874999999999986
40
0.874999999999986
40
1
40
1
40
1
40
1
41
1
10
179.650480947162
20
-25.7227274845173
30
0
41
1
10
179.642084189611
20
-25.7295879596027
30
0
41
1
10
179.633635577278
20
-25.7358730778346
30
0
41
1
10
179.621331349082
20
-25.7438542779431
30
0
41
1
10
179.617278610407
20
-25.7462841546202
30
0
41
1
10
179.609284196945
20
-25.7506167225567
30
0
41
1
10
179.605312533919
20
-25.7525309641125
30
0
41
1
10
179.59384949108
20
-25.7572404234738
30
0
41
1
10
179.586793021271
20
-25.7590261770071
30
0
41
1
10
179.574217814694
20
-25.7594741859467
30
0
41
1
10
179.568995280752
20
-25.7581391109119
30
0
41
1
10
179.562595860953
20
-25.7540283498169
30
0
41
1
10
179.560701051961
20
-25.7522911875497
30
0
41
1
10
179.557471003325
20
-25.7482678595016
30
0
41
1
10
179.556116901746
20
-25.7459736675126
30
0
41
1
10
179.552741344183
20
-25.7383459141707
30
0
41
1
10
179.551412871276
20
-25.7322137165055
30
0
41
1
10
179.550260898918
20
-25.7189622551589
30
0
41
1
10
179.550404629694
20
-25.7117851145455
30
0
41
1
10
179.551786707426
20
-25.6965886813014
30
0
41
1
10
179.55302900844
20
-25.6885664010888
30
0
41
1
10
179.556428844899
20
-25.6718153503687
30
0
41
1
10
179.558575785074
20
-25.6631531994731
30
0
41
1
10
179.563557184201
20
-25.6455384394753
30
0
41
1
10
179.566399025426
20
-25.6365545230316
30
0
41
1
10
179.5726862554
20
-25.6182825742094
30
0
41
1
10
179.576143791446
20
-25.6089656304771
30
0
41
1
10
179.58354639268
20
-25.5902008455657
30
0
41
1
10
179.587481021919
20
-25.5807754721037
30
0
41
1
10
179.599905559109
20
-25.5523851374537
30
0
41
1
10
179.609009839549
20
-25.5333070438349
30
0
41
1
10
179.628661740995
20
-25.4948880043344
30
0
41
1
10
179.639211392285
20
-25.4755466757466
30
0
41
1
10
179.650480947162
20
-25.4560769820827
30
0
0
SPLINE
5
1A1
100
AcDbEntity
8
1
62
256
6
ByLayer
370
18
48
1
60
0
100
AcDbSpline
70
4
71
3
72
8
73
4
40
0
40
0
40
0
40
0
40
1
40
1
40
1
40
1
41
1
10
179.650480947162
20
-25.4560769820827
30
0
41
1
10
179.880211532645
20
-25.0591860512804
30
0
41
1
10
180.105152654041
20
-24.6587123242203
30
0
41
1
10
180.324759526419
20
-24.2542482702526
30
0
0
SPLINE
5
1A2
100
AcDbEntity
8
1
62
256
6
ByLayer
370
18
48
1
60
0
100
AcDbSpline
70
4
71
3
72
8
73
4
40
0
40
0
40
0
40
0
40
1
40
1
40
1
40
1
41
1
10
180.324759526419
20
-23.9147796874403
30
0
41
1
10
180.10004293855
20
-24.1009918745286
30
0
41
1
10
179.87528177088
20
-24.2871322907611
30
0
41
1
10
179.650480947162
20
-24.4732088630914
30
0
0
SPLINE
5
1A3
100
AcDbEntity
8
1
62
256
6
ByLayer
370
18
48
1
60
0
100
AcDbSpline
70
4
71
3
72
34
73
30
40
0
40
0
40
0
40
0
40
0.0625000000000108
40
0.0625000000000108
40
0.0937500000000161
40
0.0937500000000161
40
0.125000000000022
40
0.125000000000022
40
0.187500000000023
40
0.187500000000023
40
0.250000000000024
40
0.250000000000024
40
0.281250000000022
40
0.281250000000022
40
0.31250000000002
40
0.31250000000002
40
0.375000000000018
40
0.375000000000018
40
0.437500000000016
40
0.437500000000016
40
0.500000000000015
40
0.500000000000015
40
0.625000000000011
40
0.625000000000011
40
0.750000000000007
40
0.750000000000007
40
0.875000000000004
40
0.875000000000004
40
1
40
1
40
1
40
1
41
1
10
179.650480947162
20
-24.4732088630923
30
0
41
1
10
179.641610746045
20
-24.4805510809384
30
0
41
1
10
179.632717594853
20
-24.4870974260139
30
0
41
1
10
179.619328414583
20
-24.4952053949897
30
0
41
1
10
179.614948765932
20
-24.4975617119472
30
0
41
1
10
179.606376490095
20
-24.5014961459085
30
0
41
1
10
179.602156895126
20
-24.5030818509566
30
0
41
1
10
179.590005767027
20
-24.5064329261962
30
0
41
1
10
179.582819857639
20
-24.50675740049
30
0
41
1
10
179.570335823892
20
-24.5034485559455
30
0
41
1
10
179.565449926247
20
-24.4999293623084
30
0
41
1
10
179.559738856258
20
-24.4925438009568
30
0
41
1
10
179.558096977763
20
-24.4897010183205
30
0
41
1
10
179.555363676397
20
-24.4835186121857
30
0
41
1
10
179.554261456695
20
-24.4801742613041
30
0
41
1
10
179.551618606382
20
-24.4695040698853
30
0
41
1
10
179.55074024509
20
-24.4614886218092
30
0
41
1
10
179.550322100162
20
-24.4446421416497
30
0
41
1
10
179.550767880495
20
-24.4357693456112
30
0
41
1
10
179.552650600946
20
-24.4173396015764
30
0
41
1
10
179.554097560382
20
-24.407748304117
30
0
41
1
10
179.559624326733
20
-24.3783622980696
30
0
41
1
10
179.564840271178
20
-24.3580458003157
30
0
41
1
10
179.577466630171
20
-24.3164151731891
30
0
41
1
10
179.584781622077
20
-24.2954445124742
30
0
41
1
10
179.600983403359
20
-24.2532582502718
30
0
41
1
10
179.609876729726
20
-24.2320416953016
30
0
41
1
10
179.629096511696
20
-24.1893876202436
30
0
41
1
10
179.639424130324
20
-24.1679499081217
30
0
41
1
10
179.650480947162
20
-24.1464023848396
30
0
0
SPLINE
5
1A4
100
AcDbEntity
8
1
62
256
6
ByLayer
370
18
48
1
60
0
100
AcDbSpline
70
4
71
3
72
8
73
4
40
0
40
0
40
0
40
0
40
1
40
1
40
1
40
1
41
1
10
179.650480947162
20
-24.1464023848396
30
0
41
1
10
179.882352997816
20
-23.6945301612787
30
0
41
1
10
180.107382666912
20
-23.2381665161971
30
0
41
1
10
180.324759526419
20
-22.7767794748912
30
0
0
SPLINE
5
1A5
100
AcDbEntity
8
1
62
256
6
ByLayer
370
18
48
1
60
0
100
AcDbSpline
70
4
71
3
72
8
73
4
40
0
40
0
40
0
40
0
40
1
40
1
40
1
40
1
41
1
10
180.324759526419
20
-22.3514611989837
30
0
41
1
10
180.100191536751
20
-22.5453578173506
30
0
41
1
10
179.875423713527
20
-22.7389451074582
30
0
41
1
10
179.650480947162
20
-22.9322615979162
30
0
0
SPLINE
5
1A6
100
AcDbEntity
8
1
62
256
6
ByLayer
370
18
48
1
60
0
100
AcDbSpline
70
4
71
3
72
39
73
35
40
0
40
0
40
0
40
0
40
0.0312499999999953
40
0.0312499999999953
40
0.0624999999999908
40
0.0624999999999908
40
0.0937499999999862
40
0.0937499999999862
40
0.124999999999982
40
0.124999999999982
40
0.156249999999977
40
0.156249999999977
40
0.187499999999973
40
0.187499999999973
40
0.218749999999968
40
0.218749999999968
40
0.249999999999964
40
0.249999999999964
40
0.281249999999959
40
0.281249999999959
40
0.312499999999954
40
0.312499999999954
40
0.374999999999956
40
0.374999999999956
40
0.499999999999965
40
0.499999999999965
40
0.562499999999976
40
0.562499999999976
40
0.624999999999987
40
0.624999999999987
40
0.749999999999991
40
0.749999999999991
40
0.874999999999996
40
1
40
1
40
1
40
1
41
1
10
179.650480947162
20
-22.932261597918
30
0
41
1
10
179.645659559597
20
-22.9364051129035
30
0
41
1
10
179.640801078904
20
-22.9402752725336
30
0
41
1
10
179.630992180374
20
-22.947336656015
30
0
41
1
10
179.626006027204
20
-22.950544709167
30
0
41
1
10
179.616213206618
20
-22.9559198413893
30
0
41
1
10
179.611384546088
20
-22.9581090210066
30
0
41
1
10
179.601890289183
20
-22.9612844521533
30
0
41
1
10
179.597355810905
20
-22.9622204837452
30
0
41
1
10
179.588820720175
20
-22.9627189554139
30
0
41
1
10
179.584759371
20
-22.9622658825154
30
0
41
1
10
179.577453125654
20
-22.9600256025938
30
0
41
1
10
179.574191909539
20
-22.9582620751234
30
0
41
1
10
179.568356163976
20
-22.9536047091898
30
0
41
1
10
179.565807208947
20
-22.9507159173005
30
0
41
1
10
179.561457307646
20
-22.944216322145
30
0
41
1
10
179.559626662752
20
-22.9405816268441
30
0
41
1
10
179.556523269337
20
-22.9326866584442
30
0
41
1
10
179.555247510152
20
-22.9284035299872
30
0
41
1
10
179.55319751331
20
-22.9194434140329
30
0
41
1
10
179.552418485904
20
-22.9147636089492
30
0
41
1
10
179.550682498191
20
-22.9002343493949
30
0
41
1
10
179.550325735068
20
-22.8898556133685
30
0
41
1
10
179.550966789172
20
-22.8579922826173
30
0
41
1
10
179.553590221519
20
-22.8355866876121
30
0
41
1
10
179.559524476594
20
-22.8009026027304
30
0
41
1
10
179.561860927053
20
-22.789113806189
30
0
41
1
10
179.567088729835
20
-22.7654205868506
30
0
41
1
10
179.569973709317
20
-22.7535355328583
30
0
41
1
10
179.579321527427
20
-22.7177809868877
30
0
41
1
10
179.58646953122
20
-22.6938130910537
30
0
41
1
10
179.602267862415
20
-22.6456594779337
30
0
41
1
10
179.619577003328
20
-22.5972869331207
30
0
41
1
10
179.639694160572
20
-22.5485106461847
30
0
41
1
10
179.650480947162
20
-22.5240203286135
30
0
0
SPLINE
5
1A7
100
AcDbEntity
8
1
62
256
6
ByLayer
370
18
48
1
60
0
100
AcDbSpline
70
4
71
3
72
8
73
4
40
0
40
0
40
0
40
0
40
1
40
1
40
1
40
1
41
1
10
179.650480947162
20
-22.5240203286135
30
0
41
1
10
179.886241901321
20
-21.9887487173422
30
0
41
1
10
180.111437539985
20
-21.4476285217346
30
0
41
1
10
180.324759526419
20
-20.8999354929284
30
0
0
SPLINE
5
1A8
100
AcDbEntity
8
1
62
256
6
ByLayer
370
18
48
1
60
0
100
AcDbSpline
70
4
71
3
72
8
73
4
40
0
40
0
40
0
40
0
40
1
40
1
40
1
40
1
41
1
10
180.324759526419
20
-20.3438916153448
30
0
41
1
10
180.100672937923
20
-20.5561625919072
30
0
41
1
10
179.875878259423
20
-20.7674293885324
30
0
41
1
10
179.650480947162
20
-20.9778415583032
30
0
0
SPLINE
5
1A9
100
AcDbEntity
8
1
62
256
6
ByLayer
370
18
48
1
60
0
100
AcDbSpline
70
4
71
3
72
39
73
35
40
0
40
0
40
0
40
0
40
0.031249999999994
40
0.031249999999994
40
0.062499999999988
40
0.062499999999988
40
0.0781249999999872
40
0.0781249999999872
40
0.0937499999999866
40
0.0937499999999866
40
0.124999999999987
40
0.124999999999987
40
0.156249999999988
40
0.156249999999988
40
0.187499999999988
40
0.187499999999988
40
0.218749999999988
40
0.218749999999988
40
0.249999999999989
40
0.249999999999989
40
0.281249999999989
40
0.281249999999989
40
0.31249999999999
40
0.31249999999999
40
0.374999999999991
40
0.374999999999991
40
0.499999999999993
40
0.499999999999993
40
0.624999999999994
40
0.624999999999994
40
0.749999999999996
40
0.749999999999996
40
0.874999999999998
40
1
40
1
40
1
40
1
41
1
10
179.650480947162
20
-20.9778415583049
30
0
41
1
10
179.645070573186
20
-20.9828922331163
30
0
41
1
10
179.639513106979
20
-20.9875792288373
30
0
41
1
10
179.628225225349
20
-20.9957597995137
30
0
41
1
10
179.622572736454
20
-20.9992033141719
30
0
41
1
10
179.614077225303
20
-21.0030918810384
30
0
41
1
10
179.611222335286
20
-21.0041768835953
30
0
41
1
10
179.605677702528
20
-21.00579678088
30
0
41
1
10
179.602973531995
20
-21.0063414516261
30
0
41
1
10
179.595073068045
20
-21.0071490225219
30
0
41
1
10
179.590031566255
20
-21.0065324890334
30
0
41
1
10
179.581193349521
20
-21.0032210025211
30
0
41
1
10
179.577280359417
20
-21.0005431411248
30
0
41
1
10
179.570434037439
20
-20.9936129589071
30
0
41
1
10
179.567567506173
20
-20.9894554602355
30
0
41
1
10
179.562642849808
20
-20.9801311836335
30
0
41
1
10
179.560603852079
20
-20.9749764931912
30
0
41
1
10
179.557229405652
20
-20.9641977522338
30
0
41
1
10
179.555875895449
20
-20.9585336597285
30
0
41
1
10
179.553672457203
20
-20.9467890170157
30
0
41
1
10
179.552823959493
20
-20.9407073042583
30
0
41
1
10
179.551532822405
20
-20.9282066799278
30
0
41
1
10
179.551090778585
20
-20.921769186527
30
0
41
1
10
179.550280304693
20
-20.9022578233617
30
0
41
1
10
179.550409275107
20
-20.8889336262739
30
0
41
1
10
179.552194406003
20
-20.8482913762712
30
0
41
1
10
179.555225580055
20
-20.8203143302208
30
0
41
1
10
179.56364088965
20
-20.7632072654731
30
0
41
1
10
179.568989094997
20
-20.7344845311726
30
0
41
1
10
179.581324248186
20
-20.6768917217863
30
0
41
1
10
179.588324868774
20
-20.6479991733813
30
0
41
1
10
179.603732419277
20
-20.5900484071946
30
0
41
1
10
179.620551977068
20
-20.5319314186676
30
0
41
1
10
179.640038964386
20
-20.473501799807
30
0
41
1
10
179.650480947162
20
-20.4442074830622
30
0
0
SPLINE
5
1AA
100
AcDbEntity
8
1
62
256
6
ByLayer
370
18
48
1
60
0
100
AcDbSpline
70
4
71
3
72
8
73
4
40
0
40
0
40
0
40
0
40
1
40
1
40
1
40
1
41
1
10
179.650480947162
20
-20.4442074830622
30
0
41
1
10
179.895186418447
20
-19.7577018893114
30
0
41
1
10
180.120774732857
20
-19.0629544043437
30
0
41
1
10
180.324759526419
20
-18.358893093586
30
0
0
SPLINE
5
1AB
100
AcDbEntity
8
1
62
256
6
ByLayer
370
18
48
1
60
0
100
AcDbSpline
70
4
71
3
72
8
73
4
40
0
40
0
40
0
40
0
40
1
40
1
40
1
40
1
41
1
10
180.324759526419
20
-17.545435292281
30
0
41
1
10
180.102856207575
20
-17.8081293930665
30
0
41
1
10
179.87789393872
20
-18.067289478253
30
0
41
1
10
179.650480947162
20
-18.3236182349672
30
0
0
SPLINE
5
1AC
100
AcDbEntity
8
1
62
256
6
ByLayer
370
18
48
1
60
0
100
AcDbSpline
70
4
71
3
72
38
73
34
40
0
40
0
40
0
40
0
40
0.0312500000000094
40
0.0312500000000094
40
0.0468750000000084
40
0.0468750000000084
40
0.0625000000000073
40
0.0625000000000073
40
0.0781250000000063
40
0.0781250000000063
40
0.0937500000000052
40
0.0937500000000052
40
0.109375000000004
40
0.109375000000004
40
0.125000000000003
40
0.125000000000003
40
0.156250000000001
40
0.156250000000001
40
0.187499999999999
40
0.187499999999999
40
0.250000000000001
40
0.250000000000001
40
0.312500000000003
40
0.312500000000003
40
0.375000000000005
40
0.375000000000005
40
0.500000000000002
40
0.500000000000002
40
0.625
40
0.625
40
0.749999999999997
40
0.749999999999997
40
1
40
1
40
1
40
1
41
1
10
179.650480947163
20
-18.3236182349705
30
0
41
1
10
179.643984522043
20
-18.330940686352
30
0
41
1
10
179.637087099727
20
-18.3376812441221
30
0
41
1
10
179.626354747428
20
-18.3456807010566
30
0
41
1
10
179.622672786077
20
-18.3480197519197
30
0
41
1
10
179.615227174174
20
-18.3516964069812
30
0
41
1
10
179.611531397854
20
-18.3530045516319
30
0
41
1
10
179.604203715131
20
-18.3543660752698
30
0
41
1
10
179.600638398742
20
-18.3543893446795
30
0
41
1
10
179.593959541195
20
-18.3531406766523
30
0
41
1
10
179.590782123263
20
-18.3518479866929
30
0
41
1
10
179.58507026222
20
-18.3482820732699
30
0
41
1
10
179.582488099225
20
-18.346011336494
30
0
41
1
10
179.577753050436
20
-18.3407033141976
30
0
41
1
10
179.575612489275
20
-18.3376705393072
30
0
41
1
10
179.569849274635
20
-18.3279202867125
30
0
41
1
10
179.566789889395
20
-18.3204354378219
30
0
41
1
10
179.561775920044
20
-18.3047772034488
30
0
41
1
10
179.559797491318
20
-18.2965426252911
30
0
41
1
10
179.554893629213
20
-18.2710419424098
30
0
41
1
10
179.552983754743
20
-18.2528841812447
30
0
41
1
10
179.550722421526
20
-18.2163879167963
30
0
41
1
10
179.550369579247
20
-18.1978998584486
30
0
41
1
10
179.550648562
20
-18.1606122640511
30
0
41
1
10
179.551290415845
20
-18.1418097737327
30
0
41
1
10
179.5543116466
20
-18.0850476350127
30
0
41
1
10
179.557768451239
20
-18.0467387011074
30
0
41
1
10
179.566574464434
20
-17.9694791711
30
0
41
1
10
179.571943356467
20
-17.9305227713767
30
0
41
1
10
179.584191791777
20
-17.8520814043073
30
0
41
1
10
179.591049423945
20
-17.8127710898959
30
0
41
1
10
179.613451439318
20
-17.6948596061425
30
0
41
1
10
179.630794068013
20
-17.6161561624276
30
0
41
1
10
179.650480947162
20
-17.5373639096824
30
0
0
SPLINE
5
1AD
100
AcDbEntity
8
1
62
256
6
ByLayer
370
18
48
1
60
0
100
AcDbSpline
70
4
71
3
72
8
73
4
40
0
40
0
40
0
40
0
40
1
40
1
40
1
40
1
41
1
10
179.650480947162
20
-17.5373639096824
30
0
41
1
10
179.936650314553
20
-16.3920361533963
30
0
41
1
10
180.164101740032
20
-15.2315551818875
30
0
41
1
10
180.324759526419
20
-14.0538369170454
30
0
0
SPLINE
5
1AE
100
AcDbEntity
8
1
62
256
6
ByLayer
370
18
48
1
60
0
100
AcDbSpline
70
4
71
3
72
10
73
6
40
0
40
0
40
0
40
0
40
0.5
40
0.5
40
1
40
1
40
1
40
1
41
1
10
180.324759526419
20
-11.5398356243444
30
0
41
1
10
180.253343637493
20
-11.9139477751378
30
0
41
1
10
180.158489259995
20
-12.2782211556194
30
0
41
1
10
179.930986544702
20
-12.9909031523772
30
0
41
1
10
179.79833441894
20
-13.3393101785788
30
0
41
1
10
179.650480947162
20
-13.6813361383809
30
0
0
SPLINE
5
1AF
100
AcDbEntity
8
1
62
256
6
ByLayer
370
18
48
1
60
0
100
AcDbSpline
70
4
71
3
72
57
73
53
40
0
40
0
40
0
40
0
40
0.125000000000001
40
0.125000000000001
40
0.250000000000003
40
0.375000000000005
40
0.375000000000005
40
0.500000000000006
40
0.500000000000006
40
0.625000000000008
40
0.625000000000008
40
0.687500000000008
40
0.687500000000008
40
0.750000000000009
40
0.750000000000009
40
0.81250000000001
40
0.81250000000001
40
0.875000000000011
40
0.875000000000011
40
0.906250000000011
40
0.906250000000011
40
0.921875000000012
40
0.921875000000012
40
0.937500000000012
40
0.937500000000012
40
0.945312500000011
40
0.945312500000011
40
0.95312500000001
40
0.95312500000001
40
0.960937500000009
40
0.960937500000009
40
0.964843750000009
40
0.964843750000009
40
0.968750000000008
40
0.968750000000008
40
0.972656250000008
40
0.972656250000008
40
0.976562500000008
40
0.976562500000008
40
0.978515625000007
40
0.978515625000007
40
0.980468750000007
40
0.980468750000007
40
0.982421875000006
40
0.982421875000006
40
0.984375000000006
40
0.984375000000006
40
0.988281250000004
40
0.988281250000004
40
0.992187500000002
40
0.992187500000002
40
1
40
1
40
1
40
1
41
1
10
179.650480947162
20
-10.2055224190006
30
0
41
1
10
179.649474914009
20
-10.3574271769198
30
0
41
1
10
179.647352403027
20
-10.5093180664372
30
0
41
1
10
179.641079448038
20
-10.8130710423123
30
0
41
1
10
179.632780577668
20
-11.1167952044888
30
0
41
1
10
179.621220285853
20
-11.4204575654214
30
0
41
1
10
179.608599227804
20
-11.7240859621449
30
0
41
1
10
179.601754923346
20
-11.8758831988401
30
0
41
1
10
179.587790157286
20
-12.1794394073716
30
0
41
1
10
179.580656945612
20
-12.3311984523903
30
0
41
1
10
179.570656270951
20
-12.5588032531969
30
0
41
1
10
179.567443146173
20
-12.6346658696464
30
0
41
1
10
179.561508805656
20
-12.7863783833762
30
0
41
1
10
179.558783648494
20
-12.8622523268606
30
0
41
1
10
179.554227791731
20
-13.0136019223509
30
0
41
1
10
179.552384521753
20
-13.0891179173145
30
0
41
1
10
179.550304819929
20
-13.2396945593892
30
0
41
1
10
179.550017507499
20
-13.3147647400512
30
0
41
1
10
179.552116127572
20
-13.4267806190287
30
0
41
1
10
179.553241725102
20
-13.4640201769341
30
0
41
1
10
179.556066196098
20
-13.5196378252078
30
0
41
1
10
179.557199844787
20
-13.5381362328724
30
0
41
1
10
179.560032561575
20
-13.5750175061783
30
0
41
1
10
179.561724621638
20
-13.5934016846362
30
0
41
1
10
179.564962866512
20
-13.6208395754209
30
0
41
1
10
179.566160648091
20
-13.6299621625665
30
0
41
1
10
179.568892543204
20
-13.6481419259788
30
0
41
1
10
179.570429233634
20
-13.6572270190123
30
0
41
1
10
179.574003223349
20
-13.6751703894972
30
0
41
1
10
179.576022559128
20
-13.6839805680882
30
0
41
1
10
179.579665375541
20
-13.6967730446328
30
0
41
1
10
179.580983473112
20
-13.7009657012891
30
0
41
1
10
179.583925806698
20
-13.7091409632553
30
0
41
1
10
179.585555704597
20
-13.7131368749339
30
0
41
1
10
179.589214864265
20
-13.7205931909006
30
0
41
1
10
179.59124291104
20
-13.7240819785356
30
0
41
1
10
179.596024190781
20
-13.73018722526
30
0
41
1
10
179.598791925149
20
-13.7327925503758
30
0
41
1
10
179.603585192062
20
-13.7350281309347
30
0
41
1
10
179.605238544653
20
-13.7354690473373
30
0
41
1
10
179.608667422954
20
-13.7356829062866
30
0
41
1
10
179.61045752744
20
-13.7354403300264
30
0
41
1
10
179.613936585578
20
-13.7343332398526
30
0
41
1
10
179.615671884936
20
-13.7334622820269
30
0
41
1
10
179.61899339339
20
-13.7312884449785
30
0
41
1
10
179.620581409002
20
-13.7299941203648
30
0
41
1
10
179.625186557665
20
-13.7256584506803
30
0
41
1
10
179.628021131566
20
-13.7221900981293
30
0
41
1
10
179.633249794903
20
-13.7148524882746
30
0
41
1
10
179.635679061346
20
-13.7109333194385
30
0
41
1
10
179.642616772462
20
-13.6987033345008
30
0
41
1
10
179.646685962344
20
-13.6901149875285
30
0
41
1
10
179.650480947162
20
-13.6813361383809
30
0
0
SPLINE
5
1B0
100
AcDbEntity
8
1
62
256
6
ByLayer
370
18
48
1
60
0
100
AcDbSpline
70
4
71
3
72
8
73
4
40
0
40
0
40
0
40
0
40
1
40
1
40
1
40
1
41
1
10
179.650480947162
20
-10.2055224190006
30
0
41
1
10
179.651388368233
20
-10.0685074730002
30
0
41
1
10
179.651388368233
20
-9.93149252699982
30
0
41
1
10
179.650480947162
20
-9.79447758099946
30
0
0
SPLINE
5
1B1
100
AcDbEntity
8
1
62
256
6
ByLayer
370
18
48
1
60
0
100
AcDbSpline
70
4
71
3
72
59
73
55
40
0
40
0
40
0
40
0
40
0.125
40
0.125
40
0.250000000000001
40
0.375000000000001
40
0.375000000000001
40
0.500000000000002
40
0.500000000000002
40
0.625000000000002
40
0.625000000000002
40
0.687500000000002
40
0.687500000000002
40
0.750000000000002
40
0.750000000000002
40
0.812500000000002
40
0.812500000000002
40
0.843750000000002
40
0.843750000000002
40
0.875000000000001
40
0.875000000000001
40
0.906250000000001
40
0.906250000000001
40
0.921875
40
0.921875
40
0.9375
40
0.9375
40
0.945312499999999
40
0.945312499999999
40
0.953124999999999
40
0.953124999999999
40
0.960937499999998
40
0.960937499999998
40
0.964843749999998
40
0.964843749999998
40
0.968749999999998
40
0.968749999999998
40
0.972656249999998
40
0.972656249999998
40
0.976562499999998
40
0.976562499999998
40
0.978515624999998
40
0.978515624999998
40
0.980468749999998
40
0.980468749999998
40
0.982421874999998
40
0.982421874999998
40
0.984374999999998
40
0.984374999999998
40
0.988281249999998
40
0.988281249999998
40
0.992187499999999
40
0.992187499999999
40
1
40
1
40
1
40
1
41
1
10
179.650480947162
20
-9.79447758099946
30
0
41
1
10
179.649474529164
20
-9.64251471388201
30
0
41
1
10
179.647350571744
20
-9.49053796568177
30
0
41
1
10
179.641070593963
20
-9.18655560661981
30
0
41
1
10
179.632760419544
20
-8.88254437671807
30
0
41
1
10
179.621178756172
20
-8.57847113587925
30
0
41
1
10
179.608531759673
20
-8.27436377042315
30
0
41
1
10
179.601672191192
20
-8.12229304533909
30
0
41
1
10
179.587676377915
20
-7.8181130799118
30
0
41
1
10
179.580530180473
20
-7.6660542623529
30
0
41
1
10
179.570536139854
20
-7.43839190151593
30
0
41
1
10
179.567328862802
20
-7.36256092266677
30
0
41
1
10
179.561413484972
20
-7.21103091425232
30
0
41
1
10
179.558701689912
20
-7.1353316018704
30
0
41
1
10
179.554167978853
20
-6.98409466407674
30
0
41
1
10
179.552334555853
20
-6.90855615929871
30
0
41
1
10
179.550799054594
20
-6.79541145367483
30
0
41
1
10
179.550492739192
20
-6.75772396309
30
0
41
1
10
179.550469812771
20
-6.68241745721335
30
0
41
1
10
179.550750183483
20
-6.64476113344739
30
0
41
1
10
179.552208755407
20
-6.56976737828577
30
0
41
1
10
179.553373181025
20
-6.53242702314441
30
0
41
1
10
179.556275212278
20
-6.47680109279528
30
0
41
1
10
179.557437968645
20
-6.45832406569212
30
0
41
1
10
179.560336644401
20
-6.42155428916445
30
0
41
1
10
179.562065629678
20
-6.40325947003933
30
0
41
1
10
179.565365531574
20
-6.37603795457693
30
0
41
1
10
179.566584913132
20
-6.36700140207378
30
0
41
1
10
179.569361551694
20
-6.34903242569209
30
0
41
1
10
179.570921073671
20
-6.34008083847718
30
0
41
1
10
179.574516938715
20
-6.32254623548266
30
0
41
1
10
179.576547962152
20
-6.31394003657061
30
0
41
1
10
179.58021552862
20
-6.30145618741173
30
0
41
1
10
179.581543102687
20
-6.29736686038095
30
0
41
1
10
179.584510409302
20
-6.28940126076259
30
0
41
1
10
179.586161611328
20
-6.28549603561791
30
0
41
1
10
179.589888240219
20
-6.27822223260506
30
0
41
1
10
179.591955510826
20
-6.27483725148841
30
0
41
1
10
179.59684579735
20
-6.26899837969745
30
0
41
1
10
179.599637337106
20
-6.26661628239299
30
0
41
1
10
179.604411839463
20
-6.26472938390171
30
0
41
1
10
179.606061767276
20
-6.26439804135339
30
0
41
1
10
179.609492008733
20
-6.26439900739575
30
0
41
1
10
179.611227428267
20
-6.26473772151382
30
0
41
1
10
179.61463552521
20
-6.26599300532953
30
0
41
1
10
179.616332222931
20
-6.26692035388572
30
0
41
1
10
179.619554834059
20
-6.26915176461213
30
0
41
1
10
179.621102908113
20
-6.27046166889053
30
0
41
1
10
179.62560527577
20
-6.27482664274476
30
0
41
1
10
179.628363216431
20
-6.27825235515652
30
0
41
1
10
179.633516183583
20
-6.28556367863081
30
0
41
1
10
179.635914818984
20
-6.2894637385163
30
0
41
1
10
179.642693644436
20
-6.30147160711704
30
0
41
1
10
179.646722359183
20
-6.30996920842151
30
0
41
1
10
179.650480947162
20
-6.31866386161752
30
0
0
SPLINE
5
1B2
100
AcDbEntity
8
1
62
256
6
ByLayer
370
18
48
1
60
0
100
AcDbSpline
70
4
71
3
72
10
73
6
40
0
40
0
40
0
40
0
40
0.5
40
0.5
40
1
40
1
40
1
40
1
41
1
10
179.650480947161
20
-6.31866386161778
30
0
41
1
10
179.798334418938
20
-6.6606898214169
30
0
41
1
10
179.9309865447
20
-7.00909684761533
30
0
41
1
10
180.158489259991
20
-7.72177884436658
30
0
41
1
10
180.253343637489
20
-8.08605222484474
30
0
41
1
10
180.324759526415
20
-8.46016437563446
30
0
0
SPLINE
5
1B3
100
AcDbEntity
8
1
62
256
6
ByLayer
370
18
48
1
60
0
100
AcDbSpline
70
4
71
3
72
8
73
4
40
0
40
0
40
0
40
0
40
1
40
1
40
1
40
1
41
1
10
180.324759526419
20
-5.9461630829546
30
0
41
1
10
180.164101740032
20
-4.7684448181125
30
0
41
1
10
179.936650314553
20
-3.60796384660378
30
0
41
1
10
179.650480947162
20
-2.4626360903176
30
0
0
SPLINE
5
1B4
100
AcDbEntity
8
1
62
256
6
ByLayer
370
18
48
1
60
0
100
AcDbSpline
70
4
71
3
72
42
73
38
40
0
40
0
40
0
40
0
40
0.249999999999995
40
0.249999999999995
40
0.374999999999992
40
0.374999999999992
40
0.49999999999999
40
0.49999999999999
40
0.624999999999987
40
0.624999999999987
40
0.687499999999986
40
0.687499999999986
40
0.749999999999984
40
0.749999999999984
40
0.781249999999986
40
0.781249999999986
40
0.812499999999988
40
0.812499999999988
40
0.843749999999991
40
0.843749999999991
40
0.859374999999992
40
0.859374999999992
40
0.874999999999993
40
0.874999999999993
40
0.890624999999994
40
0.890624999999994
40
0.906249999999995
40
0.906249999999995
40
0.921874999999996
40
0.921874999999996
40
0.937499999999997
40
0.937499999999997
40
0.953124999999998
40
0.953124999999998
40
0.968749999999999
40
0.968749999999999
40
1
40
1
40
1
40
1
41
1
10
179.650480947161
20
-2.46263609031763
30
0
41
1
10
179.63076897837
20
-2.38374342198765
30
0
41
1
10
179.61346059995
20
-2.30515161245052
30
0
41
1
10
179.591140780514
20
-2.18772813901859
30
0
41
1
10
179.584320719394
20
-2.14866538433572
30
0
41
1
10
179.572124668301
20
-2.07071528977744
30
0
41
1
10
179.566742521326
20
-2.03182742474851
30
0
41
1
10
179.557864378317
20
-1.95426583454307
30
0
41
1
10
179.55434285781
20
-1.91555991202588
30
0
41
1
10
179.551271377319
20
-1.85782193812685
30
0
41
1
10
179.550630005146
20
-1.83876913559422
30
0
41
1
10
179.550377159459
20
-1.80117361476147
30
0
41
1
10
179.550757044975
20
-1.78262685807866
30
0
41
1
10
179.552486535079
20
-1.75537015998435
30
0
41
1
10
179.553258656099
20
-1.74637959712325
30
0
41
1
10
179.555324288495
20
-1.72864928315113
30
0
41
1
10
179.556619146011
20
-1.71988676742365
30
0
41
1
10
179.559941779673
20
-1.7028126972491
30
0
41
1
10
179.56194845637
20
-1.69458252456084
30
0
41
1
10
179.565733288872
20
-1.68292090445706
30
0
41
1
10
179.567125496084
20
-1.67914890918567
30
0
41
1
10
179.570248978874
20
-1.67190312646389
30
0
41
1
10
179.571992418155
20
-1.66840940142942
30
0
41
1
10
179.575857623531
20
-1.66196500766458
30
0
41
1
10
179.577978928924
20
-1.65900519934689
30
0
41
1
10
179.582717557109
20
-1.6537735854227
30
0
41
1
10
179.58536880188
20
-1.65148330072833
30
0
41
1
10
179.591140283969
20
-1.64798249460648
30
0
41
1
10
179.594278886941
20
-1.64675345901989
30
0
41
1
10
179.601038610781
20
-1.64558719135201
30
0
41
1
10
179.604547324229
20
-1.64566420153426
30
0
41
1
10
179.611812347963
20
-1.64708423701654
30
0
41
1
10
179.615579957294
20
-1.6484501073293
30
0
41
1
10
179.622949675614
20
-1.6521471409545
30
0
41
1
10
179.626634528598
20
-1.6545067626318
30
0
41
1
10
179.637401170667
20
-1.6625976744088
30
0
41
1
10
179.644079218297
20
-1.66916605062059
30
0
41
1
10
179.650480947162
20
-1.6763817650328
30
0
0
SPLINE
5
1B5
100
AcDbEntity
8
1
62
256
6
ByLayer
370
18
48
1
60
0
100
AcDbSpline
70
4
71
3
72
8
73
4
40
0
40
0
40
0
40
0
40
1
40
1
40
1
40
1
41
1
10
179.650480947162
20
-1.6763817650328
30
0
41
1
10
179.877893938717
20
-1.93271052174381
30
0
41
1
10
180.102856207569
20
-2.19187060692698
30
0
41
1
10
180.324759526411
20
-2.45456470770913
30
0
0
SPLINE
5
1B6
100
AcDbEntity
8
1
62
256
6
ByLayer
370
18
48
1
60
0
100
AcDbSpline
70
4
71
3
72
8
73
4
40
0
40
0
40
0
40
0
40
1
40
1
40
1
40
1
41
1
10
180.324759526419
20
-1.64110690641399
30
0
41
1
10
180.120774732857
20
-0.937045595656372
30
0
41
1
10
179.895186418447
20
-0.242298110688637
30
0
41
1
10
179.650480947162
20
0.444207483062229
30
0
0
SPLINE
5
1B7
100
AcDbEntity
8
1
62
256
6
ByLayer
370
18
48
1
60
0
100
AcDbSpline
70
4
71
3
72
40
73
36
40
0
40
0
40
0
40
0
40
0.124999999999995
40
0.124999999999995
40
0.24999999999999
40
0.24999999999999
40
0.374999999999985
40
0.374999999999985
40
0.499999999999979
40
0.499999999999979
40
0.56249999999998
40
0.56249999999998
40
0.62499999999998
40
0.62499999999998
40
0.68749999999998
40
0.68749999999998
40
0.74999999999998
40
0.74999999999998
40
0.781249999999985
40
0.781249999999985
40
0.812499999999989
40
0.812499999999989
40
0.843749999999994
40
0.843749999999994
40
0.874999999999998
40
0.874999999999998
40
0.906250000000003
40
0.906250000000003
40
0.921875000000005
40
0.921875000000005
40
0.937500000000007
40
0.937500000000007
40
0.968750000000004
40
0.968750000000004
40
1
40
1
40
1
40
1
41
1
10
179.650480947162
20
0.444207483062229
30
0
41
1
10
179.640025010736
20
0.473540945882718
30
0
41
1
10
179.630210989746
20
0.502967307644553
30
0
41
1
10
179.611958545041
20
0.561600232284519
30
0
41
1
10
179.603523410692
20
0.590786552845003
30
0
41
1
10
179.588102337404
20
0.648885492816532
30
0
41
1
10
179.581113785878
20
0.677798545211886
30
0
41
1
10
179.5688291768
20
0.735309330632276
30
0
41
1
10
179.56352332279
20
0.76390865542416
30
0
41
1
10
179.557268698592
20
0.806499146669609
30
0
41
1
10
179.555468305322
20
0.820682296395375
30
0
41
1
10
179.552619223369
20
0.848611340732447
30
0
41
1
10
179.551563972929
20
0.86238012842739
30
0
41
1
10
179.550399909879
20
0.889421473284187
30
0
41
1
10
179.550285829804
20
0.902696683689243
30
0
41
1
10
179.55138586223
20
0.928558505209764
30
0
41
1
10
179.552608640832
20
0.941233130269012
30
0
41
1
10
179.555948456209
20
0.958860823058274
30
0
41
1
10
179.557314290988
20
0.964518541280142
30
0
41
1
10
179.56070997398
20
0.975262942648982
30
0
41
1
10
179.562757184409
20
0.980388168151336
30
0
41
1
10
179.567691285185
20
0.989647309683932
30
0
41
1
10
179.570555797839
20
0.993760395916951
30
0
41
1
10
179.57735811212
20
1.0005969404051
30
0
41
1
10
179.581328265331
20
1.00329955266867
30
0
41
1
10
179.590209516905
20
1.00657015800479
30
0
41
1
10
179.595238130169
20
1.00715473388277
30
0
41
1
10
179.603144568995
20
1.00631212420967
30
0
41
1
10
179.605853809947
20
1.00575588771423
30
0
41
1
10
179.611415566325
20
1.00410914666765
30
0
41
1
10
179.614249175209
20
1.00302066552027
30
0
41
1
10
179.622685087213
20
0.999136285347817
30
0
41
1
10
179.628307688267
20
0.99570468914564
30
0
41
1
10
179.639550729521
20
0.987547260725137
30
0
41
1
10
179.645089621271
20
0.98287445140997
30
0
41
1
10
179.650480947162
20
0.977841558304874
30
0
0
SPLINE
5
1B8
100
AcDbEntity
8
1
62
256
6
ByLayer
370
18
48
1
60
0
100
AcDbSpline
70
4
71
3
72
8
73
4
40
0
40
0
40
0
40
0
40
1
40
1
40
1
40
1
41
1
10
179.650480947162
20
0.97784155830314
30
0
41
1
10
179.875878259423
20
0.767429388532378
30
0
41
1
10
180.100672937923
20
0.556162591907139
30
0
41
1
10
180.324759526419
20
0.343891615344774
30
0
0
SPLINE
5
1B9
100
AcDbEntity
8
1
62
256
6
ByLayer
370
18
48
1
60
0
100
AcDbSpline
70
4
71
3
72
8
73
4
40
0
40
0
40
0
40
0
40
1
40
1
40
1
40
1
41
1
10
180.324759526419
20
0.899935492928392
30
0
41
1
10
180.111437539985
20
1.4476285217346
30
0
41
1
10
179.886241901321
20
1.98874871734222
30
0
41
1
10
179.650480947162
20
2.52402032861346
30
0
0
SPLINE
5
1BA
100
AcDbEntity
8
1
62
256
6
ByLayer
370
18
48
1
60
0
100
AcDbSpline
70
4
71
3
72
40
73
36
40
0
40
0
40
0
40
0
40
0.125000000000006
40
0.125000000000006
40
0.250000000000011
40
0.250000000000011
40
0.375000000000017
40
0.375000000000017
40
0.500000000000023
40
0.500000000000023
40
0.562500000000024
40
0.562500000000024
40
0.625000000000024
40
0.625000000000024
40
0.687500000000025
40
0.687500000000025
40
0.718750000000023
40
0.718750000000023
40
0.75000000000002
40
0.75000000000002
40
0.781250000000018
40
0.781250000000018
40
0.812500000000015
40
0.812500000000015
40
0.843750000000013
40
0.843750000000013
40
0.87500000000001
40
0.87500000000001
40
0.906250000000008
40
0.906250000000008
40
0.937500000000005
40
0.937500000000005
40
0.968750000000003
40
0.968750000000003
40
1
40
1
40
1
40
1
41
1
10
179.650480947162
20
2.52402032861346
30
0
41
1
10
179.639690471916
20
2.54851902090937
30
0
41
1
10
179.629613916005
20
2.5729486554888
30
0
41
1
10
179.610849297583
20
2.62166893814194
30
0
41
1
10
179.602160592807
20
2.64595966229564
30
0
41
1
10
179.586289625029
20
2.6943887125299
30
0
41
1
10
179.579096154492
20
2.71855252249162
30
0
41
1
10
179.566584682111
20
2.76659241475653
30
0
41
1
10
179.561339273704
20
2.79015656612427
30
0
41
1
10
179.555481361028
20
2.82460605543008
30
0
41
1
10
179.553867302615
20
2.83593824799172
30
0
41
1
10
179.551487852271
20
2.85822714870946
30
0
41
1
10
179.550718615151
20
2.86923965219526
30
0
41
1
10
179.550336211257
20
2.89048928224679
30
0
41
1
10
179.550714779598
20
2.90067875148344
30
0
41
1
10
179.552465551096
20
2.915065565048
30
0
41
1
10
179.553248182532
20
2.91971019776577
30
0
41
1
10
179.555309097648
20
2.92862485016838
30
0
41
1
10
179.556593904736
20
2.93290109950462
30
0
41
1
10
179.559717301251
20
2.94077561669531
30
0
41
1
10
179.561559358519
20
2.94440024947429
30
0
41
1
10
179.565937706079
20
2.95087774233281
30
0
41
1
10
179.568504767017
20
2.95375190251823
30
0
41
1
10
179.574349248947
20
2.95835750704182
30
0
41
1
10
179.577621102576
20
2.96010347271039
30
0
41
1
10
179.584977180313
20
2.96230488223375
30
0
41
1
10
179.589008029016
20
2.9627276846837
30
0
41
1
10
179.597554413791
20
2.96218830663901
30
0
41
1
10
179.602165047507
20
2.96121031139938
30
0
41
1
10
179.61156352127
20
2.95803052781361
30
0
41
1
10
179.616343834585
20
2.95585324386116
30
0
41
1
10
179.626039774226
20
2.95052099647526
30
0
41
1
10
179.630992916634
20
2.94733636270502
30
0
41
1
10
179.640809613647
20
2.9402688914594
30
0
41
1
10
179.64566607499
20
2.93639951355365
30
0
41
1
10
179.650480947162
20
2.93226159791715
30
0
0
SPLINE
5
1BB
100
AcDbEntity
8
1
62
256
6
ByLayer
370
18
48
1
60
0
100
AcDbSpline
70
4
71
3
72
8
73
4
40
0
40
0
40
0
40
0
40
1
40
1
40
1
40
1
41
1
10
179.650480947162
20
2.93226159791615
30
0
41
1
10
179.875423713527
20
2.73894510745819
30
0
41
1
10
180.100191536751
20
2.54535781735058
30
0
41
1
10
180.324759526419
20
2.35146119898371
30
0
0
SPLINE
5
1BC
100
AcDbEntity
8
1
62
256
6
ByLayer
370
18
48
1
60
0
100
AcDbSpline
70
4
71
3
72
8
73
4
40
0
40
0
40
0
40
0
40
1
40
1
40
1
40
1
41
1
10
180.324759526419
20
2.77677947489116
30
0
41
1
10
180.107382666912
20
3.23816651619706
30
0
41
1
10
179.882352997816
20
3.69453016127872
30
0
41
1
10
179.650480947162
20
4.14640238483955
30
0
0
SPLINE
5
1BD
100
AcDbEntity
8
1
62
256
6
ByLayer
370
18
48
1
60
0
100
AcDbSpline
70
4
71
3
72
40
73
36
40
0
40
0
40
0
40
0
40
0.124999999999999
40
0.124999999999999
40
0.249999999999999
40
0.249999999999999
40
0.374999999999998
40
0.374999999999998
40
0.437499999999994
40
0.437499999999994
40
0.49999999999999
40
0.49999999999999
40
0.562499999999985
40
0.562499999999985
40
0.624999999999981
40
0.624999999999981
40
0.687499999999977
40
0.687499999999977
40
0.718749999999978
40
0.718749999999978
40
0.74999999999998
40
0.74999999999998
40
0.781249999999981
40
0.781249999999981
40
0.812499999999983
40
0.812499999999983
40
0.843749999999984
40
0.843749999999984
40
0.874999999999986
40
0.874999999999986
40
0.93749999999999
40
0.93749999999999
40
0.968749999999995
40
0.968749999999995
40
1
40
1
40
1
40
1
41
1
10
179.650480947162
20
4.14640238483955
30
0
41
1
10
179.639414958228
20
4.16796778270182
30
0
41
1
10
179.629040809079
20
4.1894982781842
30
0
41
1
10
179.609683150239
20
4.23248443205554
30
0
41
1
10
179.600665700982
20
4.25403048225789
30
0
41
1
10
179.584409180772
20
4.29647166063836
30
0
41
1
10
179.577153956557
20
4.31737839548009
30
0
41
1
10
179.56784509696
20
4.34817408247096
30
0
41
1
10
179.565006721943
20
4.35834447277094
30
0
41
1
10
179.55994833633
20
4.37846448887726
30
0
41
1
10
179.557723039423
20
4.38843673902429
30
0
41
1
10
179.554054354314
20
4.40801378137996
30
0
41
1
10
179.552625671844
20
4.41753047952153
30
0
41
1
10
179.550759790623
20
4.43590263268726
30
0
41
1
10
179.550318779816
20
4.44476057189613
30
0
41
1
10
179.550749497916
20
4.46160565458786
30
0
41
1
10
179.551636822927
20
4.46961043770679
30
0
41
1
10
179.554281873644
20
4.48024000518276
30
0
41
1
10
179.555383473851
20
4.48357031541414
30
0
41
1
10
179.55811068237
20
4.48972500719628
30
0
41
1
10
179.559751087798
20
4.49256724841072
30
0
41
1
10
179.5635955558
20
4.4975235357781
30
0
41
1
10
179.565792502249
20
4.49963974055277
30
0
41
1
10
179.570810054821
20
4.50305244188471
30
0
41
1
10
179.573662929114
20
4.50435108560654
30
0
41
1
10
179.579852338377
20
4.50594893745301
30
0
41
1
10
179.583198210382
20
4.50626627341151
30
0
41
1
10
179.59039654148
20
4.50593180130374
30
0
41
1
10
179.594295692839
20
4.50526513931649
30
0
41
1
10
179.606418497699
20
4.50187462243764
30
0
41
1
10
179.61493133613
20
4.4978669254721
30
0
41
1
10
179.628201605806
20
4.48983271770783
30
0
41
1
10
179.632697891773
20
4.48681559981955
30
0
41
1
10
179.641605111238
20
4.48034788222927
30
0
41
1
10
179.646047713552
20
4.47687842666696
30
0
41
1
10
179.650480947162
20
4.47320886309191
30
0
0
SPLINE
5
1BE
100
AcDbEntity
8
1
62
256
6
ByLayer
370
18
48
1
60
0
100
AcDbSpline
70
4
71
3
72
8
73
4
40
0
40
0
40
0
40
0
40
1
40
1
40
1
40
1
41
1
10
179.650480947162
20
4.47320886309134
30
0
41
1
10
179.87528177088
20
4.28713229076112
30
0
41
1
10
180.10004293855
20
4.10099187452855
30
0
41
1
10
180.324759526419
20
3.91477968744025
30
0
0
SPLINE
5
1BF
100
AcDbEntity
8
1
62
256
6
ByLayer
370
18
48
1
60
0
100
AcDbSpline
70
4
71
3
72
8
73
4
40
0
40
0
40
0
40
0
40
1
40
1
40
1
40
1
41
1
10
180.324759526419
20
4.25424827025262
30
0
41
1
10
180.105152654041
20
4.65871232422032
30
0
41
1
10
179.880211532645
20
5.05918605128042
30
0
41
1
10
179.650480947162
20
5.45607698208264
30
0
0
SPLINE
5
1C0
100
AcDbEntity
8
1
62
256
6
ByLayer
370
18
48
1
60
0
100
AcDbSpline
70
4
71
3
72
39
73
35
40
0
40
0
40
0
40
0
40
0.124999999999999
40
0.124999999999999
40
0.249999999999999
40
0.249999999999999
40
0.374999999999998
40
0.374999999999998
40
0.437499999999998
40
0.437499999999998
40
0.499999999999997
40
0.499999999999997
40
0.562499999999997
40
0.562499999999997
40
0.593749999999997
40
0.593749999999997
40
0.624999999999997
40
0.624999999999997
40
0.687499999999996
40
0.687499999999996
40
0.718749999999997
40
0.718749999999997
40
0.749999999999997
40
0.749999999999997
40
0.781249999999997
40
0.781249999999997
40
0.812499999999997
40
0.843749999999997
40
0.843749999999997
40
0.874999999999997
40
0.874999999999997
40
0.937499999999998
40
0.937499999999998
40
1
40
1
40
1
40
1
41
1
10
179.650480947162
20
5.45607698208264
30
0
41
1
10
179.639193035731
20
5.4755783891984
30
0
41
1
10
179.628590160519
20
5.4950150973001
30
0
41
1
10
179.608789608101
20
5.53375062746213
30
0
41
1
10
179.59955440175
20
5.55313947700202
30
0
41
1
10
179.582996045851
20
5.59107385690263
30
0
41
1
10
179.575636447461
20
5.60966836473975
30
0
41
1
10
179.566297083473
20
5.63687161685519
30
0
41
1
10
179.563469944102
20
5.64582357961399
30
0
41
1
10
179.558498129876
20
5.66345193270669
30
0
41
1
10
179.556355985995
20
5.6721338879737
30
0
41
1
10
179.552992495483
20
5.68878807280072
30
0
41
1
10
179.551755667217
20
5.69680549306739
30
0
41
1
10
179.550731607718
20
5.70825524651525
30
0
41
1
10
179.550529643809
20
5.7119751829311
30
0
41
1
10
179.550447718715
20
5.71919226421593
30
0
41
1
10
179.550569803588
20
5.72270314484621
30
0
41
1
10
179.551489172924
20
5.73267679605328
30
0
41
1
10
179.552823866437
20
5.73862663805804
30
0
41
1
10
179.556235634613
20
5.74619142979077
30
0
41
1
10
179.557622786118
20
5.74849727296285
30
0
41
1
10
179.560888621489
20
5.75248002392547
30
0
41
1
10
179.562763444322
20
5.75416222656173
30
0
41
1
10
179.567039967856
20
5.75685464573058
30
0
41
1
10
179.569461523802
20
5.75786914462265
30
0
41
1
10
179.574799687778
20
5.75912806095909
30
0
41
1
10
179.580568003688
20
5.75961474161289
30
0
41
1
10
179.587174135165
20
5.75860055353351
30
0
41
1
10
179.594197904459
20
5.75683961489437
30
0
41
1
10
179.597925489672
20
5.75557648566795
30
0
41
1
10
179.609307892352
20
5.75086724815324
30
0
41
1
10
179.617324482498
20
5.74646331417793
30
0
41
1
10
179.63384879861
20
5.73572462149968
30
0
41
1
10
179.642150093394
20
5.72953411366777
30
0
41
1
10
179.650480947162
20
5.72272748451763
30
0
0
SPLINE
5
1C1
100
AcDbEntity
8
1
62
256
6
ByLayer
370
18
48
1
60
0
100
AcDbSpline
70
4
71
3
72
8
73
4
40
0
40
0
40
0
40
0
40
1
40
1
40
1
40
1
41
1
10
179.650480947162
20
5.72272748451729
30
0
41
1
10
179.875242279349
20
5.53908879894846
30
0
41
1
10
180.10000187134
20
5.35544727349568
30
0
41
1
10
180.324759526419
20
5.17180258736582
30
0
0
SPLINE
5
1C2
100
AcDbEntity
8
1
62
256
6
ByLayer
370
18
48
1
60
0
100
AcDbSpline
70
4
71
3
72
8
73
4
40
0
40
0
40
0
40
0
40
1
40
1
40
1
40
1
41
1
10
180.324759526419
20
5.44736526887351
30
0
41
1
10
180.103764009202
20
5.81055984951604
30
0
41
1
10
179.878876276632
20
6.17051494165847
30
0
41
1
10
179.650480947162
20
6.52755066300918
30
0
0
SPLINE
5
1C3
100
AcDbEntity
8
1
62
256
6
ByLayer
370
18
48
1
60
0
100
AcDbSpline
70
4
71
3
72
41
73
37
40
0
40
0
40
0
40
0
40
0.125000000000003
40
0.125000000000003
40
0.187500000000003
40
0.187500000000003
40
0.250000000000003
40
0.250000000000003
40
0.374999999999997
40
0.374999999999997
40
0.437499999999998
40
0.437499999999998
40
0.499999999999998
40
0.499999999999998
40
0.562499999999999
40
0.562499999999999
40
0.625
40
0.625
40
0.65625
40
0.65625
40
0.6875
40
0.6875
40
0.718750000000001
40
0.718750000000001
40
0.750000000000001
40
0.750000000000001
40
0.8125
40
0.8125
40
0.84375
40
0.84375
40
0.875
40
0.90625
40
0.90625
40
0.9375
40
0.9375
40
1
40
1
40
1
40
1
41
1
10
179.650480947162
20
6.52755066300918
30
0
41
1
10
179.638981804677
20
6.54552653248714
30
0
41
1
10
179.62814548197
20
6.56342061513445
30
0
41
1
10
179.612939206481
20
6.5901281849026
30
0
41
1
10
179.608042788563
20
6.59901694963722
30
0
41
1
10
179.598721928768
20
6.61656489829463
30
0
41
1
10
179.594284643271
20
6.6252457634574
30
0
41
1
10
179.581686936374
20
6.65098964791434
30
0
41
1
10
179.574223281786
20
6.66776107810853
30
0
41
1
10
179.564837577099
20
6.69216044624409
30
0
41
1
10
179.562006278076
20
6.70019816617037
30
0
41
1
10
179.557184605238
20
6.71564770882065
30
0
41
1
10
179.555179368067
20
6.72309049730632
30
0
41
1
10
179.552137250522
20
6.73730431654124
30
0
41
1
10
179.551097322754
20
6.7440774273189
30
0
41
1
10
179.550263647968
20
6.75676173901917
30
0
41
1
10
179.550482593648
20
6.76251918785934
30
0
41
1
10
179.551971457481
20
6.77006132301361
30
0
41
1
10
179.552662227263
20
6.77239349282763
30
0
41
1
10
179.554488589318
20
6.77664257220505
30
0
41
1
10
179.555629696968
20
6.77855826713736
30
0
41
1
10
179.558347744801
20
6.78182817428103
30
0
41
1
10
179.559929168047
20
6.7831969176479
30
0
41
1
10
179.563569638857
20
6.78536371952828
30
0
41
1
10
179.565645521329
20
6.78616477897847
30
0
41
1
10
179.572537810431
20
6.78760652713359
30
0
41
1
10
179.57792665398
20
6.78729666476062
30
0
41
1
10
179.587151619285
20
6.78501108169377
30
0
41
1
10
179.590446302725
20
6.78393130720747
30
0
41
1
10
179.597241521147
20
6.78123384869016
30
0
41
1
10
179.604247829043
20
6.77800720796836
30
0
41
1
10
179.61163322165
20
6.77383224883235
30
0
41
1
10
179.619193271317
20
6.76922111579222
30
0
41
1
10
179.623071327699
20
6.76668862676377
30
0
41
1
10
179.634714931172
20
6.75864895321936
30
0
41
1
10
179.642563586242
20
6.75266288203923
30
0
41
1
10
179.650480947162
20
6.74617999157215
30
0
0
SPLINE
5
1C4
100
AcDbEntity
8
1
62
256
6
ByLayer
370
18
48
1
60
0
100
AcDbSpline
70
4
71
3
72
8
73
4
40
0
40
0
40
0
40
0
40
1
40
1
40
1
40
1
41
1
10
179.650480947162
20
6.74617999157195
30
0
41
1
10
179.875247737629
20
6.56213653340299
30
0
41
1
10
180.100007511727
20
6.37808164940662
30
0
41
1
10
180.324759526419
20
6.19401413331479
30
0
0
SPLINE
5
1C5
100
AcDbEntity
8
1
62
256
6
ByLayer
370
18
48
1
60
0
100
AcDbSpline
70
4
71
3
72
8
73
4
40
0
40
0
40
0
40
0
40
1
40
1
40
1
40
1
41
1
10
180.324759526419
20
6.41823966660249
30
0
41
1
10
180.10282976625
20
6.74969542669066
30
0
41
1
10
179.87797677687
20
7.07848748397726
30
0
41
1
10
179.650480947162
20
7.40487133421575
30
0
0
SPLINE
5
1C6
100
AcDbEntity
8
1
62
256
6
ByLayer
370
18
48
1
60
0
100
AcDbSpline
70
4
71
3
72
34
73
30
40
0
40
0
40
0
40
0
40
0.124999999999986
40
0.124999999999986
40
0.249999999999973
40
0.249999999999973
40
0.312499999999971
40
0.312499999999971
40
0.374999999999969
40
0.374999999999969
40
0.499999999999965
40
0.499999999999965
40
0.562499999999966
40
0.562499999999966
40
0.624999999999967
40
0.624999999999967
40
0.687499999999968
40
0.687499999999968
40
0.718749999999968
40
0.718749999999968
40
0.749999999999968
40
0.749999999999968
40
0.812499999999976
40
0.812499999999976
40
0.874999999999984
40
0.874999999999984
40
0.937499999999992
40
0.937499999999992
40
1
40
1
40
1
40
1
41
1
10
179.650480947162
20
7.40487133421575
30
0
41
1
10
179.638779782576
20
7.42165876787868
30
0
41
1
10
179.627693116502
20
7.43837588604066
30
0
41
1
10
179.607002473869
20
7.47141079330811
30
0
41
1
10
179.597504579954
20
7.48755248325574
30
0
41
1
10
179.584701626499
20
7.51112046269358
30
0
41
1
10
179.580676613219
20
7.51886815968101
30
0
41
1
10
179.57317678391
20
7.53411759663797
30
0
41
1
10
179.569687169971
20
7.54165321443682
30
0
41
1
10
179.560306547285
20
7.56357463068613
30
0
41
1
10
179.555515793997
20
7.57715590301288
30
0
41
1
10
179.551444442405
20
7.595334081104
30
0
41
1
10
179.550629414815
20
7.60101582964788
30
0
41
1
10
179.550369704541
20
7.61104102357572
30
0
41
1
10
179.550906911697
20
7.61544083184421
30
0
41
1
10
179.553649785601
20
7.62271193063364
30
0
41
1
10
179.555833495618
20
7.62547963890901
30
0
41
1
10
179.560418657478
20
7.6281044544242
30
0
41
1
10
179.562180578905
20
7.62873026859307
30
0
41
1
10
179.56612484049
20
7.62942999882605
30
0
41
1
10
179.568286199411
20
7.62950430111471
30
0
41
1
10
179.575316333567
20
7.62893339780271
30
0
41
1
10
179.580743615076
20
7.62749284749239
30
0
41
1
10
179.592956646791
20
7.62257602639269
30
0
41
1
10
179.599500450861
20
7.61920443991403
30
0
41
1
10
179.613308831925
20
7.61096207583233
30
0
41
1
10
179.620630234374
20
7.60604175176596
30
0
41
1
10
179.635395579301
20
7.59526308731972
30
0
41
1
10
179.642891402848
20
7.58937893537475
30
0
41
1
10
179.650480947162
20
7.58308644885358
30
0
0
SPLINE
5
1C7
100
AcDbEntity
8
1
62
256
6
ByLayer
370
18
48
1
60
0
100
AcDbSpline
70
4
71
3
72
8
73
4
40
0
40
0
40
0
40
0
40
1
40
1
40
1
40
1
41
1
10
179.650480947162
20
7.58308644885344
30
0
41
1
10
179.87527835498
20
7.39670705634089
30
0
41
1
10
180.100039125586
20
7.21026872787758
30
0
41
1
10
180.324759526419
20
7.02376555730251
30
0
0
SPLINE
5
1C8
100
AcDbEntity
8
1
62
256
6
ByLayer
370
18
48
1
60
0
100
AcDbSpline
70
4
71
3
72
8
73
4
40
0
40
0
40
0
40
0
40
1
40
1
40
1
40
1
41
1
10
180.324759526419
20
7.20453701062598
30
0
41
1
10
180.102167049584
20
7.51058417609937
30
0
41
1
10
179.877337890168
20
7.81442579774128
30
0
41
1
10
179.650480947162
20
8.11626786628185
30
0
0
SPLINE
5
1C9
100
AcDbEntity
8
1
62
256
6
ByLayer
370
18
48
1
60
0
100
AcDbSpline
70
4
71
3
72
41
73
37
40
0
40
0
40
0
40
0
40
0.0625000000000031
40
0.0625000000000031
40
0.125000000000006
40
0.125000000000006
40
0.25000000000002
40
0.25000000000002
40
0.312500000000026
40
0.312500000000026
40
0.375000000000031
40
0.375000000000031
40
0.437500000000037
40
0.468750000000039
40
0.468750000000039
40
0.500000000000042
40
0.500000000000042
40
0.562500000000038
40
0.562500000000038
40
0.625000000000033
40
0.625000000000033
40
0.687500000000029
40
0.687500000000029
40
0.750000000000025
40
0.750000000000025
40
0.781250000000023
40
0.781250000000023
40
0.812500000000022
40
0.812500000000022
40
0.875000000000022
40
0.875000000000022
40
0.906250000000018
40
0.906250000000018
40
0.937500000000015
40
0.937500000000015
40
1
40
1
40
1
40
1
41
1
10
179.650480947162
20
8.11626786628185
30
0
41
1
10
179.644530707472
20
8.12418489378189
30
0
41
1
10
179.638734660478
20
8.13206618819623
30
0
41
1
10
179.627462614209
20
8.14775376764456
30
0
41
1
10
179.621983627572
20
8.15556558543969
30
0
41
1
10
179.606226071217
20
8.17863190556957
30
0
41
1
10
179.59655639816
20
8.19360385166928
30
0
41
1
10
179.583525644729
20
8.21534106995179
30
0
41
1
10
179.579429881241
20
8.22246563173391
30
0
41
1
10
179.571814377828
20
8.23643252845255
30
0
41
1
10
179.568318980523
20
8.24323455426727
30
0
41
1
10
179.562151731737
20
8.25620213685684
30
0
41
1
10
179.558116055743
20
8.26549913281983
30
0
41
1
10
179.555124307769
20
8.27403758508424
30
0
41
1
10
179.553390593519
20
8.27954050457689
30
0
41
1
10
179.552653442229
20
8.28220283654119
30
0
41
1
10
179.550910298472
20
8.28974061076633
30
0
41
1
10
179.550352356246
20
8.29421474844673
30
0
41
1
10
179.550659068286
20
8.3018677379402
30
0
41
1
10
179.551551382701
20
8.30505947818816
30
0
41
1
10
179.554942046485
20
8.30962666019212
30
0
41
1
10
179.55744201508
20
8.31105029367001
30
0
41
1
10
179.564147905172
20
8.31196087022187
30
0
41
1
10
179.568227742826
20
8.31143990485288
30
0
41
1
10
179.575359496822
20
8.30930348542248
30
0
41
1
10
179.577906330663
20
8.30836428157164
30
0
41
1
10
179.583336023074
20
8.30603663341074
30
0
41
1
10
179.586212296449
20
8.3046487760991
30
0
41
1
10
179.595094710497
20
8.29995851104965
30
0
41
1
10
179.601422754011
20
8.29610495866132
30
0
41
1
10
179.611436330013
20
8.28939550448166
30
0
41
1
10
179.614876803774
20
8.28699173655929
30
0
41
1
10
179.62181975771
20
8.28196505563736
30
0
41
1
10
179.625327553302
20
8.2793394829975
30
0
41
1
10
179.635948792471
20
8.27116112251295
30
0
41
1
10
179.643159471795
20
8.26530865126679
30
0
41
1
10
179.650480947162
20
8.25911591029495
30
0
0
SPLINE
5
1CA
100
AcDbEntity
8
1
62
256
6
ByLayer
370
18
48
1
60
0
100
AcDbSpline
70
4
71
3
72
8
73
4
40
0
40
0
40
0
40
0
40
1
40
1
40
1
40
1
41
1
10
179.650480947162
20
8.25911591029487
30
0
41
1
10
179.875326782245
20
8.0689340213255
30
0
41
1
10
180.100089025132
20
7.8786205059024
30
0
41
1
10
180.324759526419
20
7.68816253176118
30
0
0
SPLINE
5
1CB
100
AcDbEntity
8
1
62
256
6
ByLayer
370
18
48
1
60
0
100
AcDbSpline
70
4
71
3
72
8
73
4
40
0
40
0
40
0
40
0
40
1
40
1
40
1
40
1
41
1
10
180.324759526419
20
7.83069246411927
30
0
41
1
10
180.101678442285
20
8.1158055554848
30
0
41
1
10
179.876866272617
20
8.39908772121976
30
0
41
1
10
179.650480947162
20
8.68070599964432
30
0
0
SPLINE
5
1CC
100
AcDbEntity
8
1
62
256
6
ByLayer
370
18
48
1
60
0
100
AcDbSpline
70
4
71
3
72
38
73
34
40
0
40
0
40
0
40
0
40
0.0624999999999991
40
0.0624999999999991
40
0.124999999999998
40
0.124999999999998
40
0.249999999999998
40
0.249999999999998
40
0.312499999999998
40
0.312499999999998
40
0.374999999999999
40
0.374999999999999
40
0.4375
40
0.4375
40
0.500000000000001
40
0.500000000000001
40
0.562500000000001
40
0.562500000000001
40
0.625000000000002
40
0.625000000000002
40
0.687500000000003
40
0.687500000000003
40
0.750000000000004
40
0.750000000000004
40
0.781250000000005
40
0.781250000000005
40
0.812500000000006
40
0.812500000000006
40
0.875000000000004
40
0.875000000000004
40
0.937500000000002
40
0.937500000000002
40
1
40
1
40
1
40
1
41
1
10
179.650480947162
20
8.68070599964432
30
0
41
1
10
179.644435066045
20
8.68822694044889
30
0
41
1
10
179.638541009106
20
8.6956954835845
30
0
41
1
10
179.627070710279
20
8.71052195410445
30
0
41
1
10
179.621478397149
20
8.71790193383345
30
0
41
1
10
179.605382543492
20
8.73963673811039
30
0
41
1
10
179.59552307329
20
8.75362131766809
30
0
41
1
10
179.582291758194
20
8.77368827433253
30
0
41
1
10
179.578143409899
20
8.78022419053016
30
0
41
1
10
179.570463431254
20
8.79293505052703
30
0
41
1
10
179.566983467967
20
8.79902667250067
30
0
41
1
10
179.560894095359
20
8.81051116465136
30
0
41
1
10
179.558273629461
20
8.81592111539604
30
0
41
1
10
179.554041861198
20
8.82595053184954
30
0
41
1
10
179.552432376484
20
8.83058642492364
30
0
41
1
10
179.550538980103
20
8.83858893348062
30
0
41
1
10
179.550233118891
20
8.84200390822627
30
0
41
1
10
179.551141496283
20
8.84740288328919
30
0
41
1
10
179.552342069685
20
8.8493113044687
30
0
41
1
10
179.556322566542
20
8.85145744930949
30
0
41
1
10
179.559156903261
20
8.85166939924153
30
0
41
1
10
179.566155193741
20
8.85035160617915
30
0
41
1
10
179.570327284129
20
8.84885166436911
30
0
41
1
10
179.57754044284
20
8.84541147433796
30
0
41
1
10
179.580121827421
20
8.84405510439842
30
0
41
1
10
179.585487525657
20
8.84101347900648
30
0
41
1
10
179.588275661537
20
8.83932807404227
30
0
41
1
10
179.596927885113
20
8.83382273371754
30
0
41
1
10
179.603078037699
20
8.82955644162527
30
0
41
1
10
179.616050433374
20
8.81997866068383
30
0
41
1
10
179.622764082909
20
8.81474580226029
30
0
41
1
10
179.636420273296
20
8.80366381713714
30
0
41
1
10
179.643389119659
20
8.79779440239383
30
0
41
1
10
179.650480947162
20
8.79163906058528
30
0
0
SPLINE
5
1CD
100
AcDbEntity
8
1
62
256
6
ByLayer
370
18
48
1
60
0
100
AcDbSpline
70
4
71
3
72
8
73
4
40
0
40
0
40
0
40
0
40
1
40
1
40
1
40
1
41
1
10
179.650480947162
20
8.79163906058523
30
0
41
1
10
179.875390693943
20
8.5964289589472
30
0
41
1
10
180.100154848045
20
8.40099561220677
30
0
41
1
10
180.324759526419
20
8.2053177327395
30
0
0
SPLINE
5
1CE
100
AcDbEntity
8
1
62
256
6
ByLayer
370
18
48
1
60
0
100
AcDbSpline
70
4
71
3
72
8
73
4
40
0
40
0
40
0
40
0
40
1
40
1
40
1
40
1
41
1
10
180.324759526419
20
8.31313992055976
30
0
41
1
10
180.101307459449
20
8.58063653668884
30
0
41
1
10
179.876507770666
20
8.8466150387261
30
0
41
1
10
179.650480947162
20
9.11121115699939
30
0
0
SPLINE
5
1CF
100
AcDbEntity
8
1
62
256
6
ByLayer
370
18
48
1
60
0
100
AcDbSpline
70
4
71
3
72
37
73
33
40
0
40
0
40
0
40
0
40
0.125000000000003
40
0.125000000000003
40
0.250000000000007
40
0.250000000000007
40
0.312500000000008
40
0.312500000000008
40
0.375000000000009
40
0.375000000000009
40
0.43750000000001
40
0.43750000000001
40
0.46875000000001
40
0.46875000000001
40
0.500000000000011
40
0.531250000000011
40
0.531250000000011
40
0.562500000000012
40
0.562500000000012
40
0.625000000000014
40
0.625000000000014
40
0.656250000000013
40
0.656250000000013
40
0.687500000000011
40
0.687500000000011
40
0.750000000000009
40
0.750000000000009
40
0.812500000000006
40
0.812500000000006
40
0.875000000000003
40
0.875000000000003
40
1
40
1
40
1
40
1
41
1
10
179.650480947162
20
9.11121115699939
30
0
41
1
10
179.638202144537
20
9.12558521872015
30
0
41
1
10
179.626485867576
20
9.13971449450213
30
0
41
1
10
179.604552320067
20
9.16715106314291
30
0
41
1
10
179.594502099815
20
9.18024459765789
30
0
41
1
10
179.581082092083
20
9.19874906981326
30
0
41
1
10
179.57688735265
20
9.20472606788999
30
0
41
1
10
179.569160111633
20
9.21622461593921
30
0
41
1
10
179.565703840036
20
9.22163341163417
30
0
41
1
10
179.559712993625
20
9.23167318937419
30
0
41
1
10
179.557175330865
20
9.23630777325104
30
0
41
1
10
179.554189582967
20
9.24256860083733
30
0
41
1
10
179.55333114082
20
9.24454391968419
30
0
41
1
10
179.551945089713
20
9.24817067912335
30
0
41
1
10
179.550880306039
20
9.25149152125351
30
0
41
1
10
179.550493173189
20
9.25416727836324
30
0
41
1
10
179.550469840073
20
9.25649687716151
30
0
41
1
10
179.55064329357
20
9.2574911476068
30
0
41
1
10
179.551729677775
20
9.25986276225908
30
0
41
1
10
179.553197894126
20
9.26065672569175
30
0
41
1
10
179.556546564706
20
9.26063681510331
30
0
41
1
10
179.557864176504
20
9.26042451909052
30
0
41
1
10
179.56084962648
20
9.25959374823972
30
0
41
1
10
179.562509311231
20
9.25897980996461
30
0
41
1
10
179.567961306001
20
9.25657623302197
30
0
41
1
10
179.572230449554
20
9.254223815366
30
0
41
1
10
179.581924074944
20
9.24813562338935
30
0
41
1
10
179.587203153222
20
9.24449316063723
30
0
41
1
10
179.598484907468
20
9.23620998229447
30
0
41
1
10
179.604518790299
20
9.23154327162297
30
0
41
1
10
179.623400016941
20
9.21635779938231
30
0
41
1
10
179.636681697516
20
9.20495439358248
30
0
41
1
10
179.650480947162
20
9.19260491285752
30
0
0
SPLINE
5
1D0
100
AcDbEntity
8
1
62
256
6
ByLayer
370
18
48
1
60
0
100
AcDbSpline
70
4
71
3
72
8
73
4
40
0
40
0
40
0
40
0
40
1
40
1
40
1
40
1
41
1
10
179.650480947162
20
9.19260491285749
30
0
41
1
10
179.875470342809
20
8.9912532251729
30
0
41
1
10
180.100236859786
20
8.78957038042915
30
0
41
1
10
180.324759526419
20
8.58752521854373
30
0
0
SPLINE
5
1D1
100
AcDbEntity
8
1
62
256
6
ByLayer
370
18
48
1
60
0
100
AcDbSpline
70
4
71
3
72
8
73
4
40
0
40
0
40
0
40
0
40
1
40
1
40
1
40
1
41
1
10
180.324759526419
20
8.66302745403328
30
0
41
1
10
180.101019214676
20
8.91546545317649
30
0
41
1
10
179.876228917632
20
9.16665093997483
30
0
41
1
10
179.650480947162
20
9.41669403193262
30
0
0
SPLINE
5
1D2
100
AcDbEntity
8
1
62
256
6
ByLayer
370
18
48
1
60
0
100
AcDbSpline
70
4
71
3
72
37
73
33
40
0
40
0
40
0
40
0
40
0.062500000000008
40
0.062500000000008
40
0.125000000000016
40
0.125000000000016
40
0.250000000000032
40
0.250000000000032
40
0.31250000000004
40
0.31250000000004
40
0.375000000000048
40
0.406250000000048
40
0.406250000000048
40
0.437500000000048
40
0.437500000000048
40
0.500000000000049
40
0.500000000000049
40
0.531250000000047
40
0.531250000000047
40
0.562500000000045
40
0.562500000000045
40
0.625000000000038
40
0.625000000000038
40
0.687500000000031
40
0.687500000000031
40
0.750000000000024
40
0.750000000000024
40
0.812500000000017
40
0.812500000000017
40
0.87500000000001
40
0.87500000000001
40
1
40
1
40
1
40
1
41
1
10
179.650480947162
20
9.41669403193262
30
0
41
1
10
179.644233516261
20
9.42361381480353
30
0
41
1
10
179.638128791671
20
9.43044724213195
30
0
41
1
10
179.626224587922
20
9.44392824694148
30
0
41
1
10
179.620408632679
20
9.45059533984553
30
0
41
1
10
179.603696944729
20
9.47001877302483
30
0
41
1
10
179.593459438986
20
9.48227768691913
30
0
41
1
10
179.579801977808
20
9.49935979097697
30
0
41
1
10
179.575513158025
20
9.50486532286683
30
0
41
1
10
179.56782727776
20
9.51507617479493
30
0
41
1
10
179.562698992221
20
9.52217182889589
30
0
41
1
10
179.55866279162
20
9.5283005792956
30
0
41
1
10
179.556240243351
20
9.53214882412317
30
0
41
1
10
179.555161120897
20
9.53395843503583
30
0
41
1
10
179.552417952635
20
9.53890216359349
30
0
41
1
10
179.551221826353
20
9.54158841952838
30
0
41
1
10
179.550485616375
20
9.54459859536078
30
0
41
1
10
179.550419091259
20
9.54543402492575
30
0
41
1
10
179.550661814729
20
9.54671283698855
30
0
41
1
10
179.550968230582
20
9.54716054174628
30
0
41
1
10
179.552439131489
20
9.54793245934346
30
0
41
1
10
179.554154903999
20
9.5476875862862
30
0
41
1
10
179.559095757758
20
9.54563002928896
30
0
41
1
10
179.562230525272
20
9.54385679099883
30
0
41
1
10
179.569682176899
20
9.53898834073135
30
0
41
1
10
179.574051131848
20
9.53585161537501
30
0
41
1
10
179.583612877603
20
9.52855703950897
30
0
41
1
10
179.58879748384
20
9.52441100224755
30
0
41
1
10
179.599860114334
20
9.5152650369474
30
0
41
1
10
179.605784818522
20
9.51022357766902
30
0
41
1
10
179.624098620595
20
9.49429171377335
30
0
41
1
10
179.637015243456
20
9.48262113755797
30
0
41
1
10
179.650480947162
20
9.4701429912256
30
0
0
SPLINE
5
1D3
100
AcDbEntity
8
1
62
256
6
ByLayer
370
18
48
1
60
0
100
AcDbSpline
70
4
71
3
72
8
73
4
40
0
40
0
40
0
40
0
40
1
40
1
40
1
40
1
41
1
10
179.650480947162
20
9.4701429912256
30
0
41
1
10
179.875567648883
20
9.26156385841358
30
0
41
1
10
180.10033706691
20
9.05252988602155
30
0
41
1
10
180.324759526419
20
8.84299853393827
30
0
0
SPLINE
5
1D4
100
AcDbEntity
8
1
62
256
6
ByLayer
370
18
48
1
60
0
100
AcDbSpline
70
4
71
3
72
8
73
4
40
0
40
0
40
0
40
0
40
1
40
1
40
1
40
1
41
1
10
180.324759526419
20
8.88772336069118
30
0
41
1
10
180.100791090601
20
9.12714334966515
30
0
41
1
10
179.876008003165
20
9.36553939573849
30
0
41
1
10
179.650480947162
20
9.60300034106919
30
0
0
SPLINE
5
1D5
100
AcDbEntity
8
1
62
256
6
ByLayer
370
18
48
1
60
0
100
AcDbSpline
70
4
71
3
72
37
73
33
40
0
40
0
40
0
40
0
40
0.124999999999997
40
0.124999999999997
40
0.187499999999992
40
0.187499999999992
40
0.249999999999986
40
0.249999999999986
40
0.312499999999981
40
0.343749999999979
40
0.343749999999979
40
0.374999999999976
40
0.374999999999976
40
0.437499999999976
40
0.437499999999976
40
0.468749999999977
40
0.468749999999977
40
0.499999999999977
40
0.499999999999977
40
0.56249999999998
40
0.56249999999998
40
0.624999999999983
40
0.624999999999983
40
0.687499999999986
40
0.687499999999986
40
0.74999999999999
40
0.74999999999999
40
0.812499999999993
40
0.812499999999993
40
0.874999999999996
40
0.874999999999996
40
1
40
1
40
1
40
1
41
1
10
179.650480947162
20
9.60300034106919
30
0
41
1
10
179.637713524711
20
9.61644335876449
30
0
41
1
10
179.625555134204
20
9.62939908485367
30
0
41
1
10
179.60856985031
20
9.64776886997726
30
0
41
1
10
179.603108564082
20
9.65372386173075
30
0
41
1
10
179.592645038061
20
9.66524691203847
30
0
41
1
10
179.587628553198
20
9.67083184484514
30
0
41
1
10
179.578394061833
20
9.68125409073812
30
0
41
1
10
179.572016535815
20
9.68856482975923
30
0
41
1
10
179.566579562048
20
9.69500581141472
30
0
41
1
10
179.563185659207
20
9.69908622913169
30
0
41
1
10
179.561600856608
20
9.7010238889255
30
0
41
1
10
179.557303071354
20
9.70638933191808
30
0
41
1
10
179.555014755975
20
9.70940653018934
30
0
41
1
10
179.552553203198
20
9.71298948420494
30
0
41
1
10
179.551893247071
20
9.71403011611258
30
0
41
1
10
179.550941407315
20
9.71574016022862
30
0
41
1
10
179.550646743412
20
9.71641246945904
30
0
41
1
10
179.550307456757
20
9.71788033599086
30
0
41
1
10
179.550804218981
20
9.71813014535252
30
0
41
1
10
179.553323180194
20
9.7170929258188
30
0
41
1
10
179.555303382755
20
9.71582129198285
30
0
41
1
10
179.560517793468
20
9.71195665894413
30
0
41
1
10
179.563756830219
20
9.70936087410092
30
0
41
1
10
179.571431586465
20
9.70291489926487
30
0
41
1
10
179.575773222109
20
9.699143259072
30
0
41
1
10
179.585223568068
20
9.69074862945371
30
0
41
1
10
179.59034747327
20
9.68611253461037
30
0
41
1
10
179.601310018783
20
9.67605609254881
30
0
41
1
10
179.607046357809
20
9.67072942459697
30
0
41
1
10
179.624771194315
20
9.65411905680114
30
0
41
1
10
179.637325338164
20
9.642161607454
30
0
41
1
10
179.650480947162
20
9.6294893682057
30
0
0
SPLINE
5
1D6
100
AcDbEntity
8
1
62
256
6
ByLayer
370
18
48
1
60
0
100
AcDbSpline
70
4
71
3
72
8
73
4
40
0
40
0
40
0
40
0
40
1
40
1
40
1
40
1
41
1
10
179.650480947162
20
9.6294893682057
30
0
41
1
10
179.875685997486
20
9.41255891076685
30
0
41
1
10
180.100458994954
20
9.19503327622809
30
0
41
1
10
180.324759526419
20
8.97685679320998
30
0
0
SPLINE
5
1D7
100
AcDbEntity
8
1
62
256
6
ByLayer
370
18
48
1
60
0
100
AcDbSpline
70
4
71
3
72
8
73
4
40
0
40
0
40
0
40
0
40
1
40
1
40
1
40
1
41
1
10
180.324759526419
20
8.99167169445596
30
0
41
1
10
180.100607863251
20
9.21975466987087
30
0
41
1
10
179.875830405165
20
9.44701251069969
30
0
41
1
10
179.650480947162
20
9.67351614771059
30
0
0
SPLINE
5
1D8
100
AcDbEntity
8
1
62
256
6
ByLayer
370
18
48
1
60
0
100
AcDbSpline
70
4
71
3
72
32
73
28
40
0
40
0
40
0
40
0
40
0.0960893971596595
40
0.0960893971596595
40
0.192178794319319
40
0.192178794319319
40
0.384357588638636
40
0.384357588638636
40
0.480446985798294
40
0.480446985798294
40
0.528491684378126
40
0.528491684378126
40
0.576536382957958
40
0.576536382957958
40
0.672625780117623
40
0.672625780117623
40
0.720670478697456
40
0.720670478697456
40
0.768715177277288
40
0.768715177277288
40
0.864804574436953
40
0.864804574436953
40
0.912849273016786
40
0.912849273016786
40
0.960893971596618
40
0.960893971596618
40
1
40
1
40
1
40
1
41
1
10
179.650480947162
20
9.67351614771059
30
0
41
1
10
179.643995528497
20
9.6800347829365
30
0
41
1
10
179.637641930968
20
9.68642409830247
30
0
41
1
10
179.625223781212
20
9.69891773300827
30
0
41
1
10
179.619159362558
20
9.7050219490506
30
0
41
1
10
179.601760540395
20
9.72254228303581
30
0
41
1
10
179.591092877904
20
9.73329462463846
30
0
41
1
10
179.576962978984
20
9.74754554778974
30
0
41
1
10
179.572665768936
20
9.75188121991945
30
0
41
1
10
179.566937041454
20
9.75766266878873
30
0
41
1
10
179.565146159727
20
9.75947030348331
30
0
41
1
10
179.561821741835
20
9.76282620129848
30
0
41
1
10
179.560285385347
20
9.76437731324623
30
0
41
1
10
179.556170769704
20
9.76853182457759
30
0
41
1
10
179.554054662599
20
9.77066898424641
30
0
41
1
10
179.551904777519
20
9.77284038556547
30
0
41
1
10
179.551358069514
20
9.77339260144771
30
0
41
1
10
179.550642684802
20
9.77411520325683
30
0
41
1
10
179.550471174801
20
9.77428845045677
30
0
41
1
10
179.550501778366
20
9.77425753736367
30
0
41
1
10
179.551246131199
20
9.77350561707175
30
0
41
1
10
179.553449587003
20
9.77128011911998
30
0
41
1
10
179.554366440456
20
9.7703541331463
30
0
41
1
10
179.556507437831
20
9.76819200728934
30
0
41
1
10
179.557735591993
20
9.76695181711025
30
0
41
1
10
179.560231347123
20
9.76443188737744
30
0
41
1
10
179.561451218112
20
9.76320029213812
30
0
41
1
10
179.562764838352
20
9.7618741856945
30
0
0
SPLINE
5
1D9
100
AcDbEntity
8
1
62
256
6
ByLayer
370
18
48
1
60
0
100
AcDbSpline
70
4
71
3
72
36
73
32
40
0
40
0
40
0
40
0
40
0.122294168917752
40
0.122294168917752
40
0.19543632150794
40
0.19543632150794
40
0.232007397803034
40
0.232007397803034
40
0.268578474098129
40
0.268578474098129
40
0.341720626688317
40
0.341720626688317
40
0.37829170298341
40
0.37829170298341
40
0.414862779278503
40
0.414862779278503
40
0.488004931868688
40
0.488004931868688
40
0.524576008163779
40
0.524576008163779
40
0.56114708445887
40
0.56114708445887
40
0.634289237049058
40
0.634289237049058
40
0.707431389639247
40
0.707431389639247
40
0.780573542229436
40
0.780573542229436
40
0.853715694819625
40
0.853715694819625
40
1
40
1
40
1
40
1
41
1
10
179.607729614588
20
-29.7165323184188
30
0
41
1
10
179.598295176105
20
-29.7260353140275
30
0
41
1
10
179.589548040495
20
-29.7348526937599
30
0
41
1
10
179.576962978984
20
-29.7475455477897
30
0
41
1
10
179.572665768936
20
-29.7518812199195
30
0
41
1
10
179.566937041454
20
-29.7576626687888
30
0
41
1
10
179.565146159727
20
-29.7594703034833
30
0
41
1
10
179.561821741835
20
-29.7628262012985
30
0
41
1
10
179.560285385347
20
-29.7643773132462
30
0
41
1
10
179.556170769704
20
-29.7685318245776
30
0
41
1
10
179.554054662599
20
-29.7706689842464
30
0
41
1
10
179.551904777519
20
-29.7728403855655
30
0
41
1
10
179.551358069514
20
-29.7733926014477
30
0
41
1
10
179.550642684802
20
-29.7741152032569
30
0
41
1
10
179.550471174801
20
-29.7742884504568
30
0
41
1
10
179.550501778366
20
-29.7742575373637
30
0
41
1
10
179.551246131199
20
-29.7735056170718
30
0
41
1
10
179.553449587003
20
-29.77128011912
30
0
41
1
10
179.554366440456
20
-29.7703541331463
30
0
41
1
10
179.556507437831
20
-29.7681920072894
30
0
41
1
10
179.557735591993
20
-29.7669518171103
30
0
41
1
10
179.561863192775
20
-29.7627842351986
30
0
41
1
10
179.565218581561
20
-29.7593968992317
30
0
41
1
10
179.572951716671
20
-29.7515926878474
30
0
41
1
10
179.57725230246
20
-29.7472536906846
30
0
41
1
10
179.586584704884
20
-29.7378414692271
30
0
41
1
10
179.591617667416
20
-29.7327670857882
30
0
41
1
10
179.602342916789
20
-29.7219581556354
30
0
41
1
10
179.607954623723
20
-29.716304835688
30
0
41
1
10
179.625296915117
20
-29.6988417531482
30
0
41
1
10
179.637586054382
20
-29.6864770846455
30
0
41
1
10
179.650480947162
20
-29.6735161477106
30
0
0
SPLINE
5
1DA
100
AcDbEntity
8
1
62
256
6
ByLayer
370
18
48
1
60
0
100
AcDbSpline
70
4
71
3
72
8
73
4
40
0
40
0
40
0
40
0
40
1
40
1
40
1
40
1
41
1
10
179.650480947162
20
-29.6735161477106
30
0
41
1
10
179.875830405165
20
-29.4470125106997
30
0
41
1
10
180.100607863251
20
-29.2197546698709
30
0
41
1
10
180.324759526419
20
-28.991671694456
30
0
0
SPLINE
5
1DB
100
AcDbEntity
8
1
62
256
6
ByLayer
370
18
48
1
60
0
100
AcDbSpline
70
4
71
3
72
8
73
4
40
0
40
0
40
0
40
0
40
1
40
1
40
1
40
1
41
1
10
180.324759526419
20
-28.97685679321
30
0
41
1
10
180.100458994954
20
-29.1950332762281
30
0
41
1
10
179.875685997486
20
-29.4125589107669
30
0
41
1
10
179.650480947162
20
-29.6294893682057
30
0
0
SPLINE
5
1DC
100
AcDbEntity
8
1
62
256
6
ByLayer
370
18
48
1
60
0
100
AcDbSpline
70
4
71
3
72
47
73
43
40
0
40
0
40
0
40
0
40
0.021311360117809
40
0.0428134407979936
40
0.0645061106855082
40
0.0863892388418617
40
0.108462694808147
40
0.130726348668607
40
0.153180071114673
40
0.175823733509406
40
0.198657207952497
40
0.221680367345687
40
0.244893085458671
40
0.268295236995495
40
0.291886697661385
40
0.315667344230103
40
0.33963705461166
40
0.363795707920597
40
0.388143184544621
40
0.41267936621371
40
0.43740413606967
40
0.46231737873603
40
0.487418980388429
40
0.512708828825325
40
0.538186813539102
40
0.56385282578754
40
0.589706758665628
40
0.615748507177699
40
0.641977968309867
40
0.668395041102763
40
0.694999626724556
40
0.721791628544192
40
0.748770952204875
40
0.775937505697775
40
0.803291199435886
40
0.830831946328057
40
0.858559661853168
40
0.886474264134407
40
0.914575674013598
40
0.942863815125661
40
0.971338613973012
40
1
40
1
40
1
40
1
41
1
10
178
20
-27.5
30
0
41
1
10
178.000007579926
20
-27.5103417325866
30
0
41
1
10
178.000022807611
20
-27.5311177484485
30
0
41
1
10
178.000145362203
20
-27.5621888190227
30
0
41
1
10
178.000341515512
20
-27.5933617739163
30
0
41
1
10
178.000619208126
20
-27.6246143301132
30
0
41
1
10
178.000977091687
20
-27.6559453880465
30
0
41
1
10
178.001416325027
20
-27.6873480382084
30
0
41
1
10
178.001937371168
20
-27.718816889626
30
0
41
1
10
178.002540866338
20
-27.7503460804952
30
0
41
1
10
178.003227383641
20
-27.7819298181436
30
0
41
1
10
178.003997496727
20
-27.8135622324809
30
0
41
1
10
178.004851762051
20
-27.8452374157521
30
0
41
1
10
178.005790723216
20
-27.8769494117301
30
0
41
1
10
178.006814909324
20
-27.9086922186182
30
0
41
1
10
178.007924834949
20
-27.9404597882256
30
0
41
1
10
178.009120999672
20
-27.9722460261457
30
0
41
1
10
178.010403887732
20
-28.0040447916534
30
0
41
1
10
178.011773967637
20
-28.0358498976702
30
0
41
1
10
178.013231691796
20
-28.0676551107012
30
0
41
1
10
178.014777496138
20
-28.09945415077
30
0
41
1
10
178.016411799732
20
-28.1312406913445
30
0
41
1
10
178.018135004408
20
-28.1630083592544
30
0
41
1
10
178.01994749438
20
-28.1947507346003
30
0
41
1
10
178.021849635862
20
-28.2264613506542
30
0
41
1
10
178.023841776691
20
-28.2581336937507
30
0
41
1
10
178.025924245946
20
-28.2897612031693
30
0
41
1
10
178.028097353566
20
-28.3213372710053
30
0
41
1
10
178.030361389973
20
-28.3528552420381
30
0
41
1
10
178.032716625693
20
-28.3843084135614
30
0
41
1
10
178.035163310964
20
-28.4156900353107
30
0
41
1
10
178.037701675421
20
-28.4469933089697
30
0
41
1
10
178.040331927472
20
-28.4782113892197
30
0
41
1
10
178.043054254851
20
-28.5093373789122
30
0
41
1
10
178.045868820756
20
-28.5403643463536
30
0
41
1
10
178.048775776611
20
-28.5712852591558
30
0
41
1
10
178.051775212181
20
-28.6020932326115
30
0
41
1
10
178.05486734187
20
-28.6327805922161
30
0
41
1
10
178.058051800644
20
-28.6633424066278
30
0
41
1
10
178.061330296338
20
-28.6937631688568
30
0
41
1
10
178.064696610654
20
-28.7240669971798
30
0
41
1
10
178.067007514588
20
-28.7440427316683
30
0
41
1
10
178.068166739865
20
-28.7540632158608
30
0
0
SPLINE
5
1DD
100
AcDbEntity
8
1
62
256
6
ByLayer
370
18
48
1
60
0
100
AcDbSpline
70
4
71
3
72
52
73
48
40
0
40
0
40
0
40
0
40
0.0115037001653285
40
0.0228013760983472
40
0.0338930277966258
40
0.0447786552581892
40
0.0554582584815539
40
0.0659318374657531
40
0.0761993922103435
40
0.0862609227154882
40
0.0961164289819321
40
0.105765911011085
40
0.11520936880505
40
0.124446802366678
40
0.133478211699606
40
0.142303596808343
40
0.150922957698321
40
0.159336294375975
40
0.16754360684883
40
0.175544895125598
40
0.183340159216294
40
0.19092939913235
40
0.198312614886764
40
0.205489806494265
40
0.212460973971494
40
0.219226117337225
40
0.225785236612609
40
0.232138331821475
40
0.238285402990647
40
0.244226450150367
40
0.249961473334745
40
0.319250859977133
40
0.384016815933333
40
0.444259380381691
40
0.499978608979819
40
0.568598638551499
40
0.633132927555391
40
0.693581752360902
40
0.749945454496686
40
0.815296275454503
40
0.874973188290421
40
0.896821275125538
40
0.918265134536693
40
0.939304847920228
40
0.959940501459513
40
0.980172186506172
40
1
40
1
40
1
40
1
41
1
10
178
20
-30
30
0
41
1
10
177.998877124457
20
-29.999974507006
30
0
41
1
10
177.996651483385
20
-29.9999239775818
30
0
41
1
10
177.99334078887
20
-29.9995208377595
30
0
41
1
10
177.990088652029
20
-29.9988943275866
30
0
41
1
10
177.986894909806
20
-29.998034916128
30
0
41
1
10
177.983759604746
20
-29.9969621650895
30
0
41
1
10
177.980682725821
20
-29.9956877350033
30
0
41
1
10
177.977664275962
20
-29.9942250232453
30
0
41
1
10
177.97470425447
20
-29.9925866539419
30
0
41
1
10
177.971802661596
20
-29.9907851309345
30
0
41
1
10
177.968959497352
20
-29.9888326676657
30
0
41
1
10
177.966174761816
20
-29.9867412311579
30
0
41
1
10
177.963448455058
20
-29.9845225303742
30
0
41
1
10
177.960780577157
20
-29.982188019054
30
0
41
1
10
177.9581711282
20
-29.9797488948169
30
0
41
1
10
177.955620108282
20
-29.9772160992585
30
0
41
1
10
177.953127517506
20
-29.9746003178132
30
0
41
1
10
177.950693355988
20
-29.9719119796982
30
0
41
1
10
177.948317623855
20
-29.969161257857
30
0
41
1
10
177.946000321245
20
-29.9663580689221
30
0
41
1
10
177.94374144832
20
-29.9635120731905
30
0
41
1
10
177.941541005237
20
-29.9606326746124
30
0
41
1
10
177.939398992243
20
-29.9577290207903
30
0
41
1
10
177.937315409364
20
-29.9548100029955
30
0
41
1
10
177.935290257527
20
-29.9518842561725
30
0
41
1
10
177.933323534568
20
-29.9489601590298
30
0
41
1
10
177.931415249476
20
-29.9460458338649
30
0
41
1
10
177.929565371761
20
-29.943149147373
30
0
41
1
10
177.927774011273
20
-29.9402777079928
30
0
41
1
10
177.919617589734
20
-29.9269184266654
30
0
41
1
10
177.905380084974
20
-29.9003561064729
30
0
41
1
10
177.885141699302
20
-29.8547661045818
30
0
41
1
10
177.865833778151
20
-29.8048519037222
30
0
41
1
10
177.845535602448
20
-29.7467736841385
30
0
41
1
10
177.823986625326
20
-29.6795705634216
30
0
41
1
10
177.800904574335
20
-29.6021755481121
30
0
41
1
10
177.778229300571
20
-29.5222219797334
30
0
41
1
10
177.754211476298
20
-29.4349306762757
30
0
41
1
10
177.728821213604
20
-29.3407942687475
30
0
41
1
10
177.706781822636
20
-29.2585971124348
30
0
41
1
10
177.690418449534
20
-29.1982581862056
30
0
41
1
10
177.679877733222
20
-29.1596602566231
30
0
41
1
10
177.669214084522
20
-29.1209304090267
30
0
41
1
10
177.658418298702
20
-29.0820999592277
30
0
41
1
10
177.647524509591
20
-29.043290185579
30
0
41
1
10
177.64003866611
20
-29.0170263862791
30
0
41
1
10
177.636333479731
20
-29.0040268797168
30
0
0
SPLINE
5
1DE
100
AcDbEntity
8
1
62
256
6
ByLayer
370
18
48
1
60
0
100
AcDbSpline
70
4
71
3
72
39
73
35
40
0
40
0
40
0
40
0
40
0.025016466443557
40
0.0499123525218187
40
0.0746877024929438
40
0.0993425612642401
40
0.12387697440468
40
0.148290988157689
40
0.172584649454271
40
0.196758005926396
40
0.220811105920791
40
0.244743998512988
40
0.268556733521727
40
0.292249361523767
40
0.315821933868958
40
0.339274502695781
40
0.362607120947193
40
0.385819842386933
40
0.408912721616143
40
0.431885814090525
40
0.454739176137797
40
0.477472864975682
40
0.500086938730301
40
0.547876336617836
40
0.595195284766624
40
0.642044377779919
40
0.68842422833329
40
0.734335467889402
40
0.779778747447111
40
0.824754738326818
40
0.869264132994079
40
0.913307645923636
40
0.956886014506146
40
1
40
1
40
1
40
1
41
1
10
177.636333479731
20
-29.0040268797168
30
0
41
1
10
177.634294315688
20
-28.9968604625754
30
0
41
1
10
177.630225816454
20
-28.9825621707088
30
0
41
1
10
177.62427789504
20
-28.960878499479
30
0
41
1
10
177.618462284667
20
-28.9390913163089
30
0
41
1
10
177.612788897707
20
-28.917183341817
30
0
41
1
10
177.607255097409
20
-28.8951633888608
30
0
41
1
10
177.601861585089
20
-28.8730333066309
30
0
41
1
10
177.596608174166
20
-28.850796773433
30
0
41
1
10
177.591494914223
20
-28.8284569578737
30
0
41
1
10
177.586521792029
20
-28.8060171409152
30
0
41
1
10
177.58168881106
20
-28.7834805504027
30
0
41
1
10
177.576995970347
20
-28.760850405053
30
0
41
1
10
177.5724432701
20
-28.7381299027355
30
0
41
1
10
177.568030710223
20
-28.7153222235717
30
0
41
1
10
177.563758290679
20
-28.6924305290932
30
0
41
1
10
177.559626011486
20
-28.6694579624571
30
0
41
1
10
177.555633872389
20
-28.6464076483542
30
0
41
1
10
177.551781874154
20
-28.6232826931042
30
0
41
1
10
177.548070013764
20
-28.6000861843178
30
0
41
1
10
177.544498302206
20
-28.5768211921015
30
0
41
1
10
177.541066698608
20
-28.5534907645744
30
0
41
1
10
177.536548181862
20
-28.5213759707899
30
0
41
1
10
177.53116989927
20
-28.4802853963203
30
0
41
1
10
177.525242021858
20
-28.429925294255
30
0
41
1
10
177.519936544425
20
-28.3792722792293
30
0
41
1
10
177.515253361126
20
-28.3283510121804
30
0
41
1
10
177.511192579571
20
-28.2771857288182
30
0
41
1
10
177.507753871888
20
-28.2258008022965
30
0
41
1
10
177.50493841835
20
-28.1742187549089
30
0
41
1
10
177.502741881849
20
-28.1224675434422
30
0
41
1
10
177.50118018936
20
-28.0705537984755
30
0
41
1
10
177.500194830789
20
-28.0185611303559
30
0
41
1
10
177.50006471126
20
-27.9835256153963
30
0
41
1
10
177.5
20
-27.9661016949153
30
0
0
SPLINE
5
1DF
100
AcDbEntity
8
1
62
256
6
ByLayer
370
18
48
1
60
0
100
AcDbSpline
70
4
71
3
72
8
73
4
40
0
40
0
40
0
40
0
40
1
40
1
40
1
40
1
41
1
10
177.5
20
-27.9661016949153
30
0
41
1
10
177.666666666667
20
-27.8107344632768
30
0
41
1
10
177.833333333333
20
-27.6553672316384
30
0
41
1
10
178
20
-27.5
30
0
0
SPLINE
5
1E0
100
AcDbEntity
8
SK1
62
256
6
ByLayer
370
18
48
1
60
0
100
AcDbSpline
70
4
71
3
72
11
73
7
40
0
40
0
40
0
40
0
40
0.238889349686206
40
0.497421607755318
40
0.757386725613672
40
1
40
1
40
1
40
1
41
1
10
-0.394913799811292
20
-27.3654112548763
30
0
41
1
10
-0.369683308142783
20
-27.3663394559984
30
0
41
1
10
-0.321111944271166
20
-27.3763891500634
30
0
41
1
10
-0.255177176288441
20
-27.4196125572156
30
0
41
1
10
-0.211247851191388
20
-27.4855974197866
30
0
41
1
10
-0.200957398531301
20
-27.5346319643648
30
0
41
1
10
-0.199999999999989
20
-27.5602884583737
30
0
0
SPLINE
5
1E1
100
AcDbEntity
8
SK1
62
256
6
ByLayer
370
18
48
1
60
0
100
AcDbSpline
70
4
71
3
72
11
73
7
40
0
40
0
40
0
40
0
40
0.242613274632026
40
0.502578392599612
40
0.761110650559891
40
1
40
1
40
1
40
1
41
1
10
-0.199999999999989
20
27.5602884593824
30
0
41
1
10
-0.200957398526157
20
27.5346319653142
30
0
41
1
10
-0.211247851186414
20
27.4855974206286
30
0
41
1
10
-0.255177176262123
20
27.4196125578968
30
0
41
1
10
-0.321111944249651
20
27.3763891506148
30
0
41
1
10
-0.369683308137439
20
27.3663394565247
30
0
41
1
10
-0.394913799811292
20
27.3654112553951
30
0
0
SPLINE
5
1E2
100
AcDbEntity
8
SK1
62
256
6
ByLayer
370
18
48
1
60
0
100
AcDbSpline
70
4
71
2
72
6
73
3
40
0
40
0
40
0
40
1
40
1
40
1
41
1
10
-46.5
20
26.40730807462
30
0
41
1
10
-47.2500000380092
20
25.9743785821414
30
0
41
1
10
-48
20
25.5414489475478
30
0
0
SPLINE
5
1E3
100
AcDbEntity
8
SK1
62
256
6
ByLayer
370
18
48
1
60
0
100
AcDbSpline
70
4
71
2
72
6
73
3
40
0
40
0
40
0
40
1
40
1
40
1
41
1
10
-48
20
-25.5414493215235
30
0
41
1
10
-47.2500000379546
20
-25.9743789770288
30
0
41
1
10
-46.5
20
-26.4073084920199
30
0
0
SPLINE
5
1E4
100
AcDbEntity
8
SK1
62
256
6
ByLayer
370
18
48
1
60
0
100
AcDbSpline
70
4
71
2
72
6
73
3
40
0
40
0
40
0
40
1
40
1
40
1
41
1
10
-0.394913799811292
20
27.3654109362823
30
0
41
1
10
-1.19497688887552
20
27.3453143410234
30
0
41
1
10
-1.99503997793928
20
27.3252177457659
30
0
0
SPLINE
5
1E5
100
AcDbEntity
8
SK1
62
256
6
ByLayer
370
18
48
1
60
0
100
AcDbSpline
70
4
71
2
72
6
73
3
40
0
40
0
40
0
40
1
40
1
40
1
41
1
10
-1.99503997793928
20
-27.3252177453533
30
0
41
1
10
-1.19497688887554
20
-27.3453143405603
30
0
41
1
10
-0.394913799811292
20
-27.3654109357686
30
0
0
SPLINE
5
1E6
100
AcDbEntity
8
SK1
62
256
6
ByLayer
370
18
48
1
60
0
100
AcDbSpline
70
4
71
3
72
13
73
9
40
0
40
0
40
0
40
0
40
0.239476651984635
40
0.368387280177935
40
0.500029253268045
40
0.631666356502875
40
0.760563560186411
40
1
40
1
40
1
40
1
41
1
10
-1.99503997793928
20
27.325218063952
30
0
41
1
10
-2.021109902029
20
27.3248162470299
30
0
41
1
10
-2.0588398674503
20
27.3309874079684
30
0
41
1
10
-2.10627655327161
20
27.3540268959373
30
0
41
1
10
-2.13886325113759
20
27.3791895462899
30
0
41
1
10
-2.16563551769426
20
27.4104653546573
30
0
41
1
10
-2.19103253553246
20
27.4566758426755
30
0
41
1
10
-2.19909167979043
20
27.4940420737146
30
0
41
1
10
-2.19999999999999
20
27.5200952679265
30
0
0
SPLINE
5
1E7
100
AcDbEntity
8
SK1
62
256
6
ByLayer
370
18
48
1
60
0
100
AcDbSpline
70
4
71
3
72
13
73
9
40
0
40
0
40
0
40
0
40
0.239436439566014
40
0.368333643169659
40
0.499970746376703
40
0.631612719497151
40
0.760523347771547
40
1
40
1
40
1
40
1
41
1
10
-2.19999999999999
20
-27.5200952670183
30
0
41
1
10
-2.19909167978656
20
-27.4940420728663
30
0
41
1
10
-2.19103253552856
20
-27.4566758419156
30
0
41
1
10
-2.16563551768928
20
-27.4104653540177
30
0
41
1
10
-2.13886325113097
20
-27.3791895457297
30
0
41
1
10
-2.10627655326442
20
-27.3540268954422
30
0
41
1
10
-2.05883986743973
20
-27.3309874075326
30
0
41
1
10
-2.02110990202351
20
-27.3248162466093
30
0
41
1
10
-1.99503997793928
20
-27.3252180635337
30
0
0
SPLINE
5
1E8
100
AcDbEntity
8
SK1
62
256
6
ByLayer
370
18
48
1
60
0
100
AcDbSpline
70
4
71
2
72
6
73
3
40
0
40
0
40
0
40
1
40
1
40
1
41
1
10
-2.19999999999999
20
27.5062670250574
30
0
41
1
10
-24.3500000023322
20
26.9501984522264
30
0
41
1
10
-46.5
20
26.3941258787019
30
0
0
SPLINE
5
1E9
100
AcDbEntity
8
SK1
62
256
6
ByLayer
370
18
48
1
60
0
100
AcDbSpline
70
4
71
2
72
6
73
3
40
0
40
0
40
0
40
1
40
1
40
1
41
1
10
-46.5
20
-26.3941258817702
30
0
41
1
10
-24.3500000023321
20
-26.9501984525041
30
0
41
1
10
-2.19999999999999
20
-27.5062670222795
30
0
0
LINE
5
A3
100
AcDbEntity
8
SK4
62
256
6
ByLayer
370
18
48
0.05
60
0
100
AcDbLine
10
4
20
0
30
0
11
176
21
0
31
0
39
0
210
0
220
0
230
1
0
LINE
5
A5
100
AcDbEntity
8
81
62
256
6
ByLayer
370
18
48
1
60
0
100
AcDbLine
10
180
20
-10
30
0
11
185
21
-10
31
0
39
0
210
0
220
0
230
1
0
LINE
5
A6
100
AcDbEntity
8
4
62
256
6
ByLayer
370
18
48
0.05
60
0
100
AcDbLine
10
176
20
-10
30
0
11
180
21
-10
31
0
39
0
210
0
220
0
230
1
0
LINE
5
A8
100
AcDbEntity
8
80
62
256
6
ByLayer
370
18
48
1
60
0
100
AcDbLine
10
0
20
0
30
0
11
-5
21
0
31
0
39
0
210
0
220
0
230
1
0
LINE
5
A9
100
AcDbEntity
8
1
62
256
6
ByLayer
370
18
48
1
60
0
100
AcDbLine
10
132.5
20
0
30
0
11
133.5
21
0
31
0
39
0
210
0
220
0
230
1
0
LINE
5
AA
100
AcDbEntity
8
1
62
256
6
ByLayer
370
18
48
1
60
0
100
AcDbLine
10
184.8
20
2.899495
30
0
11
184.8
21
-3.100505
31
0
39
0
210
0
220
0
230
1
0
LINE
5
AB
100
AcDbEntity
8
1
62
256
6
ByLayer
370
13
48
1
60
0
100
AcDbLine
10
180.324503
20
-2.546005
30
0
11
184.8
21
-2.546005
31
0
39
0
210
0
220
0
230
1
0
LINE
5
AC
100
AcDbEntity
8
1
62
256
6
ByLayer
370
13
48
1
60
0
100
AcDbLine
10
180.324503
20
2.344995
30
0
11
184.8
21
2.344995
31
0
39
0
210
0
220
0
230
1
0
LINE
5
AD
100
AcDbEntity
8
1
62
256
6
ByLayer
370
18
48
1
60
0
100
AcDbLine
10
184.8
20
-16.899495
30
0
11
184.8
21
-22.899495
31
0
39
0
210
0
220
0
230
1
0
LINE
5
AE
100
AcDbEntity
8
1
62
256
6
ByLayer
370
13
48
1
60
0
100
AcDbLine
10
180.324503
20
-22.344995
30
0
11
184.8
21
-22.344995
31
0
39
0
210
0
220
0
230
1
0
LINE
5
AF
100
AcDbEntity
8
1
62
256
6
ByLayer
370
13
48
1
60
0
100
AcDbLine
10
180.324503
20
-17.453995
30
0
11
184.8
21
-17.453995
31
0
39
0
210
0
220
0
230
1
0
LINE
5
B0
100
AcDbEntity
8
1
62
256
6
ByLayer
370
18
48
1
60
0
100
AcDbLine
10
176
20
29.8
30
0
11
176
21
-29.8
31
0
39
0
210
0
220
0
230
1
0
LINE
5
B1
100
AcDbEntity
8
1
62
256
6
ByLayer
370
13
48
1
60
0
100
AcDbLine
10
175.8
20
30
30
0
11
175.8
21
-30
31
0
39
0
210
0
220
0
230
1
0
LINE
5
B2
100
AcDbEntity
8
1
62
256
6
ByLayer
370
13
48
1
60
0
100
AcDbLine
10
33
20
-30
30
0
11
33
21
30
31
0
39
0
210
0
220
0
230
1
0
LINE
5
B3
100
AcDbEntity
8
1
62
256
6
ByLayer
370
13
48
1
60
0
100
AcDbLine
10
10.105662
20
37.944501
30
0
11
10.105662
21
12.6576
31
0
39
0
210
0
220
0
230
1
0
LINE
5
B4
100
AcDbEntity
8
1
62
256
6
ByLayer
370
13
48
1
60
0
100
AcDbLine
10
10.538675
20
38.115458
30
0
11
10.538675
21
12.13309
31
0
39
0
210
0
220
0
230
1
0
LINE
5
B5
100
AcDbEntity
8
1
62
256
6
ByLayer
370
13
48
1
60
0
100
AcDbLine
10
13.461325
20
-12.13309
30
0
11
13.461325
21
-38.115458
31
0
39
0
210
0
220
0
230
1
0
LINE
5
B6
100
AcDbEntity
8
1
62
256
6
ByLayer
370
13
48
1
60
0
100
AcDbLine
10
13.894338
20
-12.6576
30
0
11
13.894338
21
-37.944501
31
0
39
0
210
0
220
0
230
1
0
LINE
5
B7
100
AcDbEntity
8
1
62
256
6
ByLayer
370
13
48
1
60
0
100
AcDbLine
10
10.105662
20
-12.6576
30
0
11
10.105662
21
-37.944501
31
0
39
0
210
0
220
0
230
1
0
LINE
5
B8
100
AcDbEntity
8
1
62
256
6
ByLayer
370
13
48
1
60
0
100
AcDbLine
10
10.538675
20
-12.13309
30
0
11
10.538675
21
-38.115458
31
0
39
0
210
0
220
0
230
1
0
LINE
5
B9
100
AcDbEntity
8
1
62
256
6
ByLayer
370
13
48
1
60
0
100
AcDbLine
10
13.461325
20
38.115458
30
0
11
13.461325
21
12.13309
31
0
39
0
210
0
220
0
230
1
0
LINE
5
BA
100
AcDbEntity
8
1
62
256
6
ByLayer
370
13
48
1
60
0
100
AcDbLine
10
13.894338
20
37.944501
30
0
11
13.894338
21
12.6576
31
0
39
0
210
0
220
0
230
1
0
LINE
5
BB
100
AcDbEntity
8
1
62
256
6
ByLayer
370
18
48
1
60
0
100
AcDbLine
10
30
20
39.5
30
0
11
30
21
-39.5
31
0
39
0
210
0
220
0
230
1
0
LINE
5
BC
100
AcDbEntity
8
1
62
256
6
ByLayer
370
13
48
1
60
0
100
AcDbLine
10
29.5
20
40
30
0
11
29.5
21
-40
31
0
39
0
210
0
220
0
230
1
0
LINE
5
BD
100
AcDbEntity
8
1
62
256
6
ByLayer
370
18
48
1
60
0
100
AcDbLine
10
13.461325
20
12.13309
30
0
11
10.538675
21
12.13309
31
0
39
0
210
0
220
0
230
1
0
LINE
5
BE
100
AcDbEntity
8
1
62
256
6
ByLayer
370
18
48
1
60
0
100
AcDbLine
10
10.538675
20
38.115458
30
0
11
13.461325
21
38.115458
31
0
39
0
210
0
220
0
230
1
0
LINE
5
BF
100
AcDbEntity
8
1
62
256
6
ByLayer
370
18
48
1
60
0
100
AcDbLine
10
10.538675
20
-12.13309
30
0
11
13.461325
21
-12.13309
31
0
39
0
210
0
220
0
230
1
0
LINE
5
C0
100
AcDbEntity
8
1
62
256
6
ByLayer
370
18
48
1
60
0
100
AcDbLine
10
13.461325
20
-38.115458
30
0
11
10.538675
21
-38.115458
31
0
39
0
210
0
220
0
230
1
0
LINE
5
C1
100
AcDbEntity
8
1
62
256
6
ByLayer
370
18
48
1
60
0
100
AcDbLine
10
0.3
20
-40
30
0
11
0.3
21
40
31
0
39
0
210
0
220
0
230
1
0
LINE
5
C2
100
AcDbEntity
8
1
62
256
6
ByLayer
370
18
48
1
60
0
100
AcDbLine
10
0
20
-39.7
30
0
11
0
21
39.7
31
0
39
0
210
0
220
0
230
1
0
LINE
5
C3
100
AcDbEntity
8
SK1
62
256
6
ByLayer
370
18
48
1
60
0
100
AcDbLine
10
-0.2
20
-6.552277
30
0
11
-0.2
21
-28.683485
31
0
39
0
210
0
220
0
230
1
0
LINE
5
C5
100
AcDbEntity
8
SK1
62
256
6
ByLayer
370
18
48
1
60
0
100
AcDbLine
10
-0.2
20
28.683485
30
0
11
-0.2
21
6.552279
31
0
39
0
210
0
220
0
230
1
0
LINE
5
C6
100
AcDbEntity
8
SK1
62
256
6
ByLayer
370
13
48
1
60
0
100
AcDbLine
10
-1.307107
20
4.393309
30
0
11
-1.307107
21
-4.393312
31
0
39
0
210
0
220
0
230
1
0
LINE
5
C7
100
AcDbEntity
8
1
62
256
6
ByLayer
370
18
48
1
60
0
100
AcDbLine
10
180.32476
20
-28.976857
30
0
11
180.32476
21
-28.887542
31
0
39
0
210
0
220
0
230
1
0
LINE
5
C8
100
AcDbEntity
8
1
62
256
6
ByLayer
370
18
48
1
60
0
100
AcDbLine
10
180.32476
20
8.887542
30
0
11
180.32476
21
8.976857
31
0
39
0
210
0
220
0
230
1
0
LINE
5
C9
100
AcDbEntity
8
1
62
256
6
ByLayer
370
13
48
1
60
0
100
AcDbLine
10
179.650481
20
9.602807
30
0
11
179.650481
21
9.629489
31
0
39
0
210
0
220
0
230
1
0
LINE
5
CA
100
AcDbEntity
8
1
62
256
6
ByLayer
370
13
48
1
60
0
100
AcDbLine
10
179.650481
20
-29.629489
30
0
11
179.650481
21
-29.602807
31
0
39
0
210
0
220
0
230
1
0
LINE
5
CB
100
AcDbEntity
8
1
62
256
6
ByLayer
370
18
48
1
60
0
100
AcDbLine
10
180.32476
20
-28.842999
30
0
11
180.32476
21
-28.662842
31
0
39
0
210
0
220
0
230
1
0
LINE
5
CC
100
AcDbEntity
8
1
62
256
6
ByLayer
370
18
48
1
60
0
100
AcDbLine
10
180.32476
20
8.662842
30
0
11
180.32476
21
8.842999
31
0
39
0
210
0
220
0
230
1
0
LINE
5
CD
100
AcDbEntity
8
1
62
256
6
ByLayer
370
13
48
1
60
0
100
AcDbLine
10
179.650481
20
-29.470143
30
0
11
179.650481
21
-29.416627
31
0
39
0
210
0
220
0
230
1
0
LINE
5
CE
100
AcDbEntity
8
1
62
256
6
ByLayer
370
13
48
1
60
0
100
AcDbLine
10
179.650481
20
9.416627
30
0
11
179.650481
21
9.470143
31
0
39
0
210
0
220
0
230
1
0
LINE
5
CF
100
AcDbEntity
8
1
62
256
6
ByLayer
370
18
48
1
60
0
100
AcDbLine
10
180.32476
20
8.31313
30
0
11
180.32476
21
8.587525
31
0
39
0
210
0
220
0
230
1
0
LINE
5
D0
100
AcDbEntity
8
1
62
256
6
ByLayer
370
18
48
1
60
0
100
AcDbLine
10
180.32476
20
-28.587525
30
0
11
180.32476
21
-28.31313
31
0
39
0
210
0
220
0
230
1
0
LINE
5
D1
100
AcDbEntity
8
1
62
256
6
ByLayer
370
13
48
1
60
0
100
AcDbLine
10
179.650481
20
-29.192605
30
0
11
179.650481
21
-29.111162
31
0
39
0
210
0
220
0
230
1
0
LINE
5
D2
100
AcDbEntity
8
1
62
256
6
ByLayer
370
13
48
1
60
0
100
AcDbLine
10
179.650481
20
9.111162
30
0
11
179.650481
21
9.192605
31
0
39
0
210
0
220
0
230
1
0
LINE
5
D3
100
AcDbEntity
8
1
62
256
6
ByLayer
370
18
48
1
60
0
100
AcDbLine
10
180.32476
20
-28.205318
30
0
11
180.32476
21
-27.830489
31
0
39
0
210
0
220
0
230
1
0
LINE
5
D4
100
AcDbEntity
8
1
62
256
6
ByLayer
370
18
48
1
60
0
100
AcDbLine
10
180.32476
20
7.830489
30
0
11
180.32476
21
8.205318
31
0
39
0
210
0
220
0
230
1
0
LINE
5
D5
100
AcDbEntity
8
1
62
256
6
ByLayer
370
13
48
1
60
0
100
AcDbLine
10
179.650481
20
-28.791639
30
0
11
179.650481
21
-28.680651
31
0
39
0
210
0
220
0
230
1
0
LINE
5
D6
100
AcDbEntity
8
1
62
256
6
ByLayer
370
13
48
1
60
0
100
AcDbLine
10
179.650481
20
8.680651
30
0
11
179.650481
21
8.791639
31
0
39
0
210
0
220
0
230
1
0
LINE
5
D7
100
AcDbEntity
8
1
62
256
6
ByLayer
370
18
48
1
60
0
100
AcDbLine
10
180.32476
20
7.204449
30
0
11
180.32476
21
7.688163
31
0
39
0
210
0
220
0
230
1
0
LINE
5
D8
100
AcDbEntity
8
1
62
256
6
ByLayer
370
18
48
1
60
0
100
AcDbLine
10
180.32476
20
-27.688163
30
0
11
180.32476
21
-27.204449
31
0
39
0
210
0
220
0
230
1
0
LINE
5
D9
100
AcDbEntity
8
1
62
256
6
ByLayer
370
13
48
1
60
0
100
AcDbLine
10
179.650481
20
8.116188
30
0
11
179.650481
21
8.259116
31
0
39
0
210
0
220
0
230
1
0
LINE
5
DA
100
AcDbEntity
8
1
62
256
6
ByLayer
370
13
48
1
60
0
100
AcDbLine
10
179.650481
20
-28.259116
30
0
11
179.650481
21
-28.116188
31
0
39
0
210
0
220
0
230
1
0
LINE
5
DB
100
AcDbEntity
8
1
62
256
6
ByLayer
370
18
48
1
60
0
100
AcDbLine
10
180.32476
20
6.418191
30
0
11
180.32476
21
7.023766
31
0
39
0
210
0
220
0
230
1
0
LINE
5
DC
100
AcDbEntity
8
1
62
256
6
ByLayer
370
18
48
1
60
0
100
AcDbLine
10
180.32476
20
-27.023766
30
0
11
180.32476
21
-26.418191
31
0
39
0
210
0
220
0
230
1
0
LINE
5
DD
100
AcDbEntity
8
1
62
256
6
ByLayer
370
13
48
1
60
0
100
AcDbLine
10
179.650481
20
-27.583086
30
0
11
179.650481
21
-27.404844
31
0
39
0
210
0
220
0
230
1
0
LINE
5
DE
100
AcDbEntity
8
1
62
256
6
ByLayer
370
13
48
1
60
0
100
AcDbLine
10
179.650481
20
7.404844
30
0
11
179.650481
21
7.583086
31
0
39
0
210
0
220
0
230
1
0
LINE
5
DF
100
AcDbEntity
8
1
62
256
6
ByLayer
370
18
48
1
60
0
100
AcDbLine
10
180.32476
20
-26.194014
30
0
11
180.32476
21
-25.447336
31
0
39
0
210
0
220
0
230
1
0
LINE
5
E0
100
AcDbEntity
8
1
62
256
6
ByLayer
370
18
48
1
60
0
100
AcDbLine
10
180.32476
20
5.447336
30
0
11
180.32476
21
6.194014
31
0
39
0
210
0
220
0
230
1
0
LINE
5
E1
100
AcDbEntity
8
1
62
256
6
ByLayer
370
13
48
1
60
0
100
AcDbLine
10
179.650481
20
6.527523
30
0
11
179.650481
21
6.74618
31
0
39
0
210
0
220
0
230
1
0
LINE
5
E2
100
AcDbEntity
8
1
62
256
6
ByLayer
370
13
48
1
60
0
100
AcDbLine
10
179.650481
20
-26.74618
30
0
11
179.650481
21
-26.527523
31
0
39
0
210
0
220
0
230
1
0
LINE
5
E3
100
AcDbEntity
8
1
62
256
6
ByLayer
370
18
48
1
60
0
100
AcDbLine
10
180.32476
20
-25.171803
30
0
11
180.32476
21
-24.254246
31
0
39
0
210
0
220
0
230
1
0
LINE
5
E4
100
AcDbEntity
8
1
62
256
6
ByLayer
370
18
48
1
60
0
100
AcDbLine
10
180.32476
20
4.254246
30
0
11
180.32476
21
5.171803
31
0
39
0
210
0
220
0
230
1
0
LINE
5
E5
100
AcDbEntity
8
1
62
256
6
ByLayer
370
13
48
1
60
0
100
AcDbLine
10
179.650481
20
-25.722727
30
0
11
179.650481
21
-25.456027
31
0
39
0
210
0
220
0
230
1
0
LINE
5
E6
100
AcDbEntity
8
1
62
256
6
ByLayer
370
13
48
1
60
0
100
AcDbLine
10
179.650481
20
5.456027
30
0
11
179.650481
21
5.722727
31
0
39
0
210
0
220
0
230
1
0
LINE
5
E7
100
AcDbEntity
8
1
62
256
6
ByLayer
370
18
48
1
60
0
100
AcDbLine
10
180.32476
20
2.776776
30
0
11
180.32476
21
3.91478
31
0
39
0
210
0
220
0
230
1
0
LINE
5
E8
100
AcDbEntity
8
1
62
256
6
ByLayer
370
18
48
1
60
0
100
AcDbLine
10
180.32476
20
-23.91478
30
0
11
180.32476
21
-22.776776
31
0
39
0
210
0
220
0
230
1
0
LINE
5
E9
100
AcDbEntity
8
1
62
256
6
ByLayer
370
13
48
1
60
0
100
AcDbLine
10
179.650481
20
-24.473209
30
0
11
179.650481
21
-24.146205
31
0
39
0
210
0
220
0
230
1
0
LINE
5
EA
100
AcDbEntity
8
1
62
256
6
ByLayer
370
13
48
1
60
0
100
AcDbLine
10
179.650481
20
4.146205
30
0
11
179.650481
21
4.473209
31
0
39
0
210
0
220
0
230
1
0
LINE
5
EB
100
AcDbEntity
8
1
62
256
6
ByLayer
370
18
48
1
60
0
100
AcDbLine
10
180.32476
20
-22.351461
30
0
11
180.32476
21
-20.899779
31
0
39
0
210
0
220
0
230
1
0
LINE
5
EC
100
AcDbEntity
8
1
62
256
6
ByLayer
370
18
48
1
60
0
100
AcDbLine
10
180.32476
20
0.899779
30
0
11
180.32476
21
2.351461
31
0
39
0
210
0
220
0
230
1
0
LINE
5
ED
100
AcDbEntity
8
1
62
256
6
ByLayer
370
13
48
1
60
0
100
AcDbLine
10
179.650481
20
-22.932262
30
0
11
179.650481
21
-22.523683
31
0
39
0
210
0
220
0
230
1
0
LINE
5
EE
100
AcDbEntity
8
1
62
256
6
ByLayer
370
13
48
1
60
0
100
AcDbLine
10
179.650481
20
2.523683
30
0
11
179.650481
21
2.932262
31
0
39
0
210
0
220
0
230
1
0
LINE
5
EF
100
AcDbEntity
8
1
62
256
6
ByLayer
370
18
48
1
60
0
100
AcDbLine
10
180.32476
20
-20.343892
30
0
11
180.32476
21
-18.358834
31
0
39
0
210
0
220
0
230
1
0
LINE
5
F0
100
AcDbEntity
8
1
62
256
6
ByLayer
370
18
48
1
60
0
100
AcDbLine
10
180.32476
20
-1.641166
30
0
11
180.32476
21
0.343892
31
0
39
0
210
0
220
0
230
1
0
LINE
5
F1
100
AcDbEntity
8
1
62
256
6
ByLayer
370
13
48
1
60
0
100
AcDbLine
10
179.650481
20
-20.977842
30
0
11
179.650481
21
-20.444044
31
0
39
0
210
0
220
0
230
1
0
LINE
5
F2
100
AcDbEntity
8
1
62
256
6
ByLayer
370
13
48
1
60
0
100
AcDbLine
10
179.650481
20
0.444044
30
0
11
179.650481
21
0.977842
31
0
39
0
210
0
220
0
230
1
0
LINE
5
F3
100
AcDbEntity
8
1
62
256
6
ByLayer
370
18
48
1
60
0
100
AcDbLine
10
180.32476
20
-17.545435
30
0
11
180.32476
21
-14.053785
31
0
39
0
210
0
220
0
230
1
0
LINE
5
F4
100
AcDbEntity
8
1
62
256
6
ByLayer
370
18
48
1
60
0
100
AcDbLine
10
180.32476
20
-5.946215
30
0
11
180.32476
21
-2.454565
31
0
39
0
210
0
220
0
230
1
0
LINE
5
F5
100
AcDbEntity
8
1
62
256
6
ByLayer
370
13
48
1
60
0
100
AcDbLine
10
179.650481
20
-18.323618
30
0
11
179.650481
21
-17.537296
31
0
39
0
210
0
220
0
230
1
0
LINE
5
F6
100
AcDbEntity
8
1
62
256
6
ByLayer
370
13
48
1
60
0
100
AcDbLine
10
179.650481
20
-2.462704
30
0
11
179.650481
21
-1.676382
31
0
39
0
210
0
220
0
230
1
0
LINE
5
F7
100
AcDbEntity
8
1
62
256
6
ByLayer
370
18
48
1
60
0
100
AcDbLine
10
180.32476
20
-11.539836
30
0
11
180.32476
21
-8.460164
31
0
39
0
210
0
220
0
230
1
0
LINE
5
F8
100
AcDbEntity
8
1
62
256
6
ByLayer
370
13
48
1
60
0
100
AcDbLine
10
179.650481
20
-13.681336
30
0
11
179.650481
21
-10.209491
31
0
39
0
210
0
220
0
230
1
0
LINE
5
F9
100
AcDbEntity
8
1
62
256
6
ByLayer
370
13
48
1
60
0
100
AcDbLine
10
179.650481
20
-9.790509
30
0
11
179.650481
21
-6.318664
31
0
39
0
210
0
220
0
230
1
0
LINE
5
FA
100
AcDbEntity
8
1
62
256
6
ByLayer
370
18
48
1
60
0
100
AcDbLine
10
179.32476
20
10
30
0
11
179.32476
21
-30
31
0
39
0
210
0
220
0
230
1
0
LINE
5
FB
100
AcDbEntity
8
1
62
256
6
ByLayer
370
18
48
1
60
0
100
AcDbLine
10
180.32476
20
-28.842999
30
0
11
180.32476
21
-28.887723
31
0
39
0
210
0
220
0
230
1
0
LINE
5
FC
100
AcDbEntity
8
1
62
256
6
ByLayer
370
18
48
1
60
0
100
AcDbLine
10
180.32476
20
-28.587525
30
0
11
180.32476
21
-28.663027
31
0
39
0
210
0
220
0
230
1
0
LINE
5
FD
100
AcDbEntity
8
1
62
256
6
ByLayer
370
18
48
1
60
0
100
AcDbLine
10
180.32476
20
-28.205318
30
0
11
180.32476
21
-28.31314
31
0
39
0
210
0
220
0
230
1
0
LINE
5
FE
100
AcDbEntity
8
1
62
256
6
ByLayer
370
18
48
1
60
0
100
AcDbLine
10
180.32476
20
-27.688163
30
0
11
180.32476
21
-27.830692
31
0
39
0
210
0
220
0
230
1
0
LINE
5
FF
100
AcDbEntity
8
1
62
256
6
ByLayer
370
18
48
1
60
0
100
AcDbLine
10
180.32476
20
-27.023766
30
0
11
180.32476
21
-27.204537
31
0
39
0
210
0
220
0
230
1
0
LINE
5
100
100
AcDbEntity
8
1
62
256
6
ByLayer
370
18
48
1
60
0
100
AcDbLine
10
180.32476
20
-26.194014
30
0
11
180.32476
21
-26.41824
31
0
39
0
210
0
220
0
230
1
0
LINE
5
101
100
AcDbEntity
8
1
62
256
6
ByLayer
370
18
48
1
60
0
100
AcDbLine
10
180.32476
20
-25.171803
30
0
11
180.32476
21
-25.447365
31
0
39
0
210
0
220
0
230
1
0
LINE
5
102
100
AcDbEntity
8
1
62
256
6
ByLayer
370
18
48
1
60
0
100
AcDbLine
10
180.32476
20
-23.91478
30
0
11
180.32476
21
-24.254248
31
0
39
0
210
0
220
0
230
1
0
LINE
5
103
100
AcDbEntity
8
1
62
256
6
ByLayer
370
18
48
1
60
0
100
AcDbLine
10
180.32476
20
-22.351461
30
0
11
180.32476
21
-22.776779
31
0
39
0
210
0
220
0
230
1
0
LINE
5
104
100
AcDbEntity
8
1
62
256
6
ByLayer
370
18
48
1
60
0
100
AcDbLine
10
180.32476
20
-20.343892
30
0
11
180.32476
21
-20.899935
31
0
39
0
210
0
220
0
230
1
0
LINE
5
105
100
AcDbEntity
8
1
62
256
6
ByLayer
370
18
48
1
60
0
100
AcDbLine
10
180.32476
20
-17.545435
30
0
11
180.32476
21
-18.358893
31
0
39
0
210
0
220
0
230
1
0
LINE
5
106
100
AcDbEntity
8
1
62
256
6
ByLayer
370
18
48
1
60
0
100
AcDbLine
10
180.32476
20
-11.539836
30
0
11
180.32476
21
-14.053837
31
0
39
0
210
0
220
0
230
1
0
LINE
5
107
100
AcDbEntity
8
1
62
256
6
ByLayer
370
18
48
1
60
0
100
AcDbLine
10
180.32476
20
-5.946163
30
0
11
180.32476
21
-8.460164
31
0
39
0
210
0
220
0
230
1
0
LINE
5
108
100
AcDbEntity
8
1
62
256
6
ByLayer
370
18
48
1
60
0
100
AcDbLine
10
180.32476
20
-1.641107
30
0
11
180.32476
21
-2.454565
31
0
39
0
210
0
220
0
230
1
0
LINE
5
109
100
AcDbEntity
8
1
62
256
6
ByLayer
370
18
48
1
60
0
100
AcDbLine
10
180.32476
20
0.899935
30
0
11
180.32476
21
0.343892
31
0
39
0
210
0
220
0
230
1
0
LINE
5
10A
100
AcDbEntity
8
1
62
256
6
ByLayer
370
18
48
1
60
0
100
AcDbLine
10
180.32476
20
2.776779
30
0
11
180.32476
21
2.351461
31
0
39
0
210
0
220
0
230
1
0
LINE
5
10B
100
AcDbEntity
8
1
62
256
6
ByLayer
370
18
48
1
60
0
100
AcDbLine
10
180.32476
20
4.254248
30
0
11
180.32476
21
3.91478
31
0
39
0
210
0
220
0
230
1
0
LINE
5
10C
100
AcDbEntity
8
1
62
256
6
ByLayer
370
18
48
1
60
0
100
AcDbLine
10
180.32476
20
5.447365
30
0
11
180.32476
21
5.171803
31
0
39
0
210
0
220
0
230
1
0
LINE
5
10D
100
AcDbEntity
8
1
62
256
6
ByLayer
370
18
48
1
60
0
100
AcDbLine
10
180.32476
20
6.41824
30
0
11
180.32476
21
6.194014
31
0
39
0
210
0
220
0
230
1
0
LINE
5
10E
100
AcDbEntity
8
1
62
256
6
ByLayer
370
18
48
1
60
0
100
AcDbLine
10
180.32476
20
7.204537
30
0
11
180.32476
21
7.023766
31
0
39
0
210
0
220
0
230
1
0
LINE
5
10F
100
AcDbEntity
8
1
62
256
6
ByLayer
370
18
48
1
60
0
100
AcDbLine
10
180.32476
20
7.830692
30
0
11
180.32476
21
7.688163
31
0
39
0
210
0
220
0
230
1
0
LINE
5
110
100
AcDbEntity
8
1
62
256
6
ByLayer
370
18
48
1
60
0
100
AcDbLine
10
180.32476
20
8.31314
30
0
11
180.32476
21
8.205318
31
0
39
0
210
0
220
0
230
1
0
LINE
5
111
100
AcDbEntity
8
1
62
256
6
ByLayer
370
18
48
1
60
0
100
AcDbLine
10
180.32476
20
8.663027
30
0
11
180.32476
21
8.587525
31
0
39
0
210
0
220
0
230
1
0
LINE
5
112
100
AcDbEntity
8
1
62
256
6
ByLayer
370
18
48
1
60
0
100
AcDbLine
10
180.32476
20
8.887723
30
0
11
180.32476
21
8.842999
31
0
39
0
210
0
220
0
230
1
0
LINE
5
113
100
AcDbEntity
8
1
62
256
6
ByLayer
370
18
48
1
60
0
100
AcDbLine
10
180.32476
20
8.991672
30
0
11
180.32476
21
8.976857
31
0
39
0
210
0
220
0
230
1
0
LINE
5
114
100
AcDbEntity
8
1
62
256
6
ByLayer
370
18
48
1
60
0
100
AcDbLine
10
180.32476
20
-28.976857
30
0
11
180.32476
21
-28.991672
31
0
39
0
210
0
220
0
230
1
0
LINE
5
115
100
AcDbEntity
8
1
62
256
6
ByLayer
370
13
48
1
60
0
100
AcDbLine
10
178.5
20
10
30
0
11
178.5
21
-28.52439
31
0
39
0
210
0
220
0
230
1
0
LINE
5
116
100
AcDbEntity
8
1
62
256
6
ByLayer
370
18
48
1
60
0
100
AcDbLine
10
176
20
-29.8
30
0
11
176
21
29.8
31
0
39
0
210
0
220
0
230
1
0
LINE
5
117
100
AcDbEntity
8
1
62
256
6
ByLayer
370
13
48
1
60
0
100
AcDbLine
10
176.2
20
-30
30
0
11
176.2
21
30
31
0
39
0
210
0
220
0
230
1
0
LINE
5
118
100
AcDbEntity
8
1
62
256
6
ByLayer
370
18
48
1
60
0
100
AcDbLine
10
178
20
29.5
30
0
11
178
21
-27.5
31
0
39
0
210
0
220
0
230
1
0
LINE
5
119
100
AcDbEntity
8
1
62
256
6
ByLayer
370
18
48
1
60
0
100
AcDbLine
10
177.5
20
30
30
0
11
177.5
21
-27.966102
31
0
39
0
210
0
220
0
230
1
0
LINE
5
11A
100
AcDbEntity
8
1
62
256
6
ByLayer
370
13
48
1
60
0
100
AcDbLine
10
184.8
20
2.899495
30
0
11
184.8
21
-3.100505
31
0
39
0
210
0
220
0
230
1
0
LINE
5
11B
100
AcDbEntity
8
1
62
256
6
ByLayer
370
18
48
1
60
0
100
AcDbLine
10
185
20
4.899495
30
0
11
185
21
-5.100505
31
0
39
0
210
0
220
0
230
1
0
LINE
5
11C
100
AcDbEntity
8
1
62
256
6
ByLayer
370
13
48
1
60
0
100
AcDbLine
10
190.4
20
4.899495
30
0
11
190.4
21
-5.100505
31
0
39
0
210
0
220
0
230
1
0
LINE
5
11D
100
AcDbEntity
8
1
62
256
6
ByLayer
370
18
48
1
60
0
100
AcDbLine
10
191
20
4.299495
30
0
11
191
21
-4.500505
31
0
39
0
210
0
220
0
230
1
0
LINE
5
11E
100
AcDbEntity
8
1
62
256
6
ByLayer
370
13
48
1
60
0
100
AcDbLine
10
184.8
20
-22.899495
30
0
11
184.8
21
-16.899495
31
0
39
0
210
0
220
0
230
1
0
LINE
5
11F
100
AcDbEntity
8
1
62
256
6
ByLayer
370
18
48
1
60
0
100
AcDbLine
10
185
20
-24.899495
30
0
11
185
21
-14.899495
31
0
39
0
210
0
220
0
230
1
0
LINE
5
120
100
AcDbEntity
8
1
62
256
6
ByLayer
370
13
48
1
60
0
100
AcDbLine
10
190.4
20
-24.899495
30
0
11
190.4
21
-14.899495
31
0
39
0
210
0
220
0
230
1
0
LINE
5
121
100
AcDbEntity
8
1
62
256
6
ByLayer
370
18
48
1
60
0
100
AcDbLine
10
191
20
-24.299495
30
0
11
191
21
-15.499495
31
0
39
0
210
0
220
0
230
1
0
LINE
5
122
100
AcDbEntity
8
1
62
256
6
ByLayer
370
18
48
1
60
0
100
AcDbLine
10
175.8
20
30
30
0
11
33
21
30
31
0
39
0
210
0
220
0
230
1
0
LINE
5
123
100
AcDbEntity
8
1
62
256
6
ByLayer
370
18
48
1
60
0
100
AcDbLine
10
33
20
-30
30
0
11
175.8
21
-30
31
0
39
0
210
0
220
0
230
1
0
LINE
5
124
100
AcDbEntity
8
1
62
256
6
ByLayer
370
18
48
1
60
0
100
AcDbLine
10
29.5
20
40
30
0
11
0.3
21
40
31
0
39
0
210
0
220
0
230
1
0
LINE
5
125
100
AcDbEntity
8
1
62
256
6
ByLayer
370
18
48
1
60
0
100
AcDbLine
10
0.3
20
-40
30
0
11
29.5
21
-40
31
0
39
0
210
0
220
0
230
1
0
LINE
5
126
100
AcDbEntity
8
1
62
256
6
ByLayer
370
18
48
1
60
0
100
AcDbLine
10
0
20
-39.7
30
0
11
0.3
21
-40
31
0
39
0
210
0
220
0
230
1
0
LINE
5
127
100
AcDbEntity
8
1
62
256
6
ByLayer
370
18
48
1
60
0
100
AcDbLine
10
0.3
20
40
30
0
11
0
21
39.7
31
0
39
0
210
0
220
0
230
1
0
LINE
5
128
100
AcDbEntity
8
1
62
256
6
ByLayer
370
18
48
1
60
0
100
AcDbLine
10
178
20
-30
30
0
11
179.32476
21
-30
31
0
39
0
210
0
220
0
230
1
0
LINE
5
129
100
AcDbEntity
8
1
62
256
6
ByLayer
370
18
48
1
60
0
100
AcDbLine
10
179.32476
20
10
30
0
11
178.5
21
10
31
0
39
0
210
0
220
0
230
1
0
LINE
5
12A
100
AcDbEntity
8
1
62
256
6
ByLayer
370
18
48
1
60
0
100
AcDbLine
10
179.552123
20
9.772637
30
0
11
179.32476
21
10
31
0
39
0
210
0
220
0
230
1
0
LINE
5
12B
100
AcDbEntity
8
1
62
256
6
ByLayer
370
18
48
1
60
0
100
AcDbLine
10
179.32476
20
-30
30
0
11
179.552123
21
-29.772637
31
0
39
0
210
0
220
0
230
1
0
LINE
5
12C
100
AcDbEntity
8
1
62
256
6
ByLayer
370
18
48
1
60
0
100
AcDbLine
10
177.5
20
30
30
0
11
176.2
21
30
31
0
39
0
210
0
220
0
230
1
0
LINE
5
12D
100
AcDbEntity
8
1
62
256
6
ByLayer
370
18
48
1
60
0
100
AcDbLine
10
176.2
20
-30
30
0
11
178.02
21
-30
31
0
39
0
210
0
220
0
230
1
0
LINE
5
12E
100
AcDbEntity
8
1
62
256
6
ByLayer
370
18
48
1
60
0
100
AcDbLine
10
178
20
29.5
30
0
11
177.5
21
30
31
0
39
0
210
0
220
0
230
1
0
LINE
5
12F
100
AcDbEntity
8
1
62
256
6
ByLayer
370
18
48
1
60
0
100
AcDbLine
10
180.324609
20
-3.100505
30
0
11
184.8
21
-3.100505
31
0
39
0
210
0
220
0
230
1
0
LINE
5
130
100
AcDbEntity
8
1
62
256
6
ByLayer
370
18
48
1
60
0
100
AcDbLine
10
184.8
20
2.899495
30
0
11
180.324609
21
2.899495
31
0
39
0
210
0
220
0
230
1
0
LINE
5
131
100
AcDbEntity
8
1
62
256
6
ByLayer
370
18
48
1
60
0
100
AcDbLine
10
185
20
-5.100505
30
0
11
190.4
21
-5.100505
31
0
39
0
210
0
220
0
230
1
0
LINE
5
132
100
AcDbEntity
8
1
62
256
6
ByLayer
370
18
48
1
60
0
100
AcDbLine
10
190.4
20
4.899495
30
0
11
185
21
4.899495
31
0
39
0
210
0
220
0
230
1
0
LINE
5
133
100
AcDbEntity
8
1
62
256
6
ByLayer
370
18
48
1
60
0
100
AcDbLine
10
180.324609
20
-22.899495
30
0
11
184.8
21
-22.899495
31
0
39
0
210
0
220
0
230
1
0
LINE
5
134
100
AcDbEntity
8
1
62
256
6
ByLayer
370
18
48
1
60
0
100
AcDbLine
10
184.8
20
-16.899495
30
0
11
180.324609
21
-16.899495
31
0
39
0
210
0
220
0
230
1
0
LINE
5
135
100
AcDbEntity
8
1
62
256
6
ByLayer
370
18
48
1
60
0
100
AcDbLine
10
185
20
-24.899495
30
0
11
190.4
21
-24.899495
31
0
39
0
210
0
220
0
230
1
0
LINE
5
136
100
AcDbEntity
8
1
62
256
6
ByLayer
370
18
48
1
60
0
100
AcDbLine
10
190.4
20
-14.899495
30
0
11
185
21
-14.899495
31
0
39
0
210
0
220
0
230
1
0
LINE
5
137
100
AcDbEntity
8
1
62
256
6
ByLayer
370
13
48
0.05
60
0
100
AcDbLine
10
182.3
20
0
30
0
11
-6.5
21
0
31
0
39
0
210
0
220
0
230
1
0
LINE
5
138
100
AcDbEntity
8
SK2
62
256
6
ByLayer
370
18
48
1
60
0
100
AcDbLine
10
-54.6
20
-40
30
0
11
-54.6
21
40
31
0
39
0
210
0
220
0
230
1
0
LINE
5
13A
100
AcDbEntity
8
SK2
62
256
6
ByLayer
370
18
48
1
60
0
100
AcDbLine
10
-1.2875
20
40
30
0
11
-56.6
21
40
31
0
39
0
210
0
220
0
230
1
0
LINE
5
13B
100
AcDbEntity
8
SK2
62
256
6
ByLayer
370
18
48
1
60
0
100
AcDbLine
10
-1.2875
20
-40
30
0
11
-56.6
21
-40
31
0
39
0
210
0
220
0
230
1
0
LINE
5
13C
100
AcDbEntity
8
1
62
256
6
ByLayer
370
18
48
1
60
1
100
AcDbLine
10
-54.6
20
40
30
0
11
-54.139216
21
36.500002
31
0
39
0
210
0
220
0
230
1
0
LINE
5
13D
100
AcDbEntity
8
1
62
256
6
ByLayer
370
18
48
1
60
1
100
AcDbLine
10
-54.139216
20
36.500002
30
0
11
-55.060784
21
36.499998
31
0
39
0
210
0
220
0
230
1
0
LINE
5
13E
100
AcDbEntity
8
1
62
256
6
ByLayer
370
18
48
1
60
1
100
AcDbLine
10
-55.060784
20
36.499998
30
0
11
-54.6
21
40
31
0
39
0
210
0
220
0
230
1
0
LINE
5
13F
100
AcDbEntity
8
1
62
256
6
ByLayer
370
18
48
1
60
1
100
AcDbLine
10
-54.6
20
-40
30
0
11
-55.060784
21
-36.500002
31
0
39
0
210
0
220
0
230
1
0
LINE
5
140
100
AcDbEntity
8
1
62
256
6
ByLayer
370
18
48
1
60
1
100
AcDbLine
10
-55.060784
20
-36.500002
30
0
11
-54.139216
21
-36.499998
31
0
39
0
210
0
220
0
230
1
0
LINE
5
141
100
AcDbEntity
8
1
62
256
6
ByLayer
370
18
48
1
60
1
100
AcDbLine
10
-54.139216
20
-36.499998
30
0
11
-54.6
21
-40
31
0
39
0
210
0
220
0
230
1
0
LINE
5
142
100
AcDbEntity
8
SK2
62
256
6
ByLayer
370
18
48
1
60
0
100
AcDbLine
10
211.748181
20
-30
30
0
11
211.748181
21
30
31
0
39
0
210
0
220
0
230
1
0
LINE
5
143
100
AcDbEntity
8
SK2
62
256
6
ByLayer
370
18
48
1
60
0
100
AcDbLine
10
177.3875
20
30
30
0
11
213.748181
21
30
31
0
39
0
210
0
220
0
230
1
0
LINE
5
144
100
AcDbEntity
8
SK2
62
256
6
ByLayer
370
18
48
1
60
0
100
AcDbLine
10
177.3875
20
-30
30
0
11
213.748181
21
-30
31
0
39
0
210
0
220
0
230
1
0
LINE
5
145
100
AcDbEntity
8
1
62
256
6
ByLayer
370
18
48
1
60
1
100
AcDbLine
10
211.748181
20
30
30
0
11
212.208964
21
26.500002
31
0
39
0
210
0
220
0
230
1
0
LINE
5
146
100
AcDbEntity
8
1
62
256
6
ByLayer
370
18
48
1
60
1
100
AcDbLine
10
212.208964
20
26.500002
30
0
11
211.287397
21
26.499998
31
0
39
0
210
0
220
0
230
1
0
LINE
5
147
100
AcDbEntity
8
1
62
256
6
ByLayer
370
18
48
1
60
1
100
AcDbLine
10
211.287397
20
26.499998
30
0
11
211.748181
21
30
31
0
39
0
210
0
220
0
230
1
0
LINE
5
148
100
AcDbEntity
8
1
62
256
6
ByLayer
370
18
48
1
60
1
100
AcDbLine
10
211.748181
20
-30
30
0
11
211.287397
21
-26.500002
31
0
39
0
210
0
220
0
230
1
0
LINE
5
149
100
AcDbEntity
8
1
62
256
6
ByLayer
370
18
48
1
60
1
100
AcDbLine
10
211.287397
20
-26.500002
30
0
11
212.208964
21
-26.499998
31
0
39
0
210
0
220
0
230
1
0
LINE
5
14A
100
AcDbEntity
8
1
62
256
6
ByLayer
370
18
48
1
60
1
100
AcDbLine
10
212.208964
20
-26.499998
30
0
11
211.748181
21
-30
31
0
39
0
210
0
220
0
230
1
0
LINE
5
14B
100
AcDbEntity
8
SK2
62
256
6
ByLayer
370
13
48
1
60
0
100
AcDbLine
10
200.123181
20
10
30
0
11
200.123181
21
-39.299199
31
0
39
0
210
0
220
0
230
1
0
LINE
5
14C
100
AcDbEntity
8
SK2
62
256
6
ByLayer
370
13
48
1
60
0
100
AcDbLine
10
180.91226
20
-30
30
0
11
202.123181
21
-30
31
0
39
0
210
0
220
0
230
1
0
LINE
5
14D
100
AcDbEntity
8
SK2
62
256
6
ByLayer
370
13
48
1
60
0
100
AcDbLine
10
180.91226
20
10
30
0
11
202.123181
21
10
31
0
39
0
210
0
220
0
230
1
0
LINE
5
14E
100
AcDbEntity
8
1
62
256
6
ByLayer
370
18
48
1
60
1
100
AcDbLine
10
200.123181
20
-30
30
0
11
199.662397
21
-26.500002
31
0
39
0
210
0
220
0
230
1
0
LINE
5
14F
100
AcDbEntity
8
1
62
256
6
ByLayer
370
18
48
1
60
1
100
AcDbLine
10
199.662397
20
-26.500002
30
0
11
200.583964
21
-26.499998
31
0
39
0
210
0
220
0
230
1
0
LINE
5
150
100
AcDbEntity
8
1
62
256
6
ByLayer
370
18
48
1
60
1
100
AcDbLine
10
200.583964
20
-26.499998
30
0
11
200.123181
21
-30
31
0
39
0
210
0
220
0
230
1
0
LINE
5
151
100
AcDbEntity
8
1
62
256
6
ByLayer
370
18
48
1
60
1
100
AcDbLine
10
200.123181
20
10
30
0
11
200.583964
21
6.500002
31
0
39
0
210
0
220
0
230
1
0
LINE
5
152
100
AcDbEntity
8
1
62
256
6
ByLayer
370
18
48
1
60
1
100
AcDbLine
10
200.583964
20
6.500002
30
0
11
199.662397
21
6.499998
31
0
39
0
210
0
220
0
230
1
0
LINE
5
153
100
AcDbEntity
8
1
62
256
6
ByLayer
370
18
48
1
60
1
100
AcDbLine
10
199.662397
20
6.499998
30
0
11
200.123181
21
10
31
0
39
0
210
0
220
0
230
1
0
LINE
5
154
100
AcDbEntity
8
SK2
62
256
6
ByLayer
370
18
48
1
60
0
100
AcDbLine
10
0
20
45.6
30
0
11
180
21
45.6
31
0
39
0
210
0
220
0
230
1
0
LINE
5
155
100
AcDbEntity
8
SK2
62
256
6
ByLayer
370
18
48
1
60
0
100
AcDbLine
10
180
20
31.5875
30
0
11
180
21
47.6
31
0
39
0
210
0
220
0
230
1
0
LINE
5
156
100
AcDbEntity
8
SK2
62
256
6
ByLayer
370
18
48
1
60
0
100
AcDbLine
10
0
20
41.2875
30
0
11
0
21
47.6
31
0
39
0
210
0
220
0
230
1
0
LINE
5
157
100
AcDbEntity
8
1
62
256
6
ByLayer
370
18
48
1
60
1
100
AcDbLine
10
180
20
45.6
30
0
11
176.500002
21
45.139216
31
0
39
0
210
0
220
0
230
1
0
LINE
5
158
100
AcDbEntity
8
1
62
256
6
ByLayer
370
18
48
1
60
1
100
AcDbLine
10
176.500002
20
45.139216
30
0
11
176.499998
21
46.060784
31
0
39
0
210
0
220
0
230
1
0
LINE
5
159
100
AcDbEntity
8
1
62
256
6
ByLayer
370
18
48
1
60
1
100
AcDbLine
10
176.499998
20
46.060784
30
0
11
180
21
45.6
31
0
39
0
210
0
220
0
230
1
0
LINE
5
15A
100
AcDbEntity
8
1
62
256
6
ByLayer
370
18
48
1
60
1
100
AcDbLine
10
0
20
45.6
30
0
11
3.499998
21
46.060784
31
0
39
0
210
0
220
0
230
1
0
LINE
5
15B
100
AcDbEntity
8
1
62
256
6
ByLayer
370
18
48
1
60
1
100
AcDbLine
10
3.499998
20
46.060784
30
0
11
3.500002
21
45.139216
31
0
39
0
210
0
220
0
230
1
0
LINE
5
15C
100
AcDbEntity
8
1
62
256
6
ByLayer
370
18
48
1
60
1
100
AcDbLine
10
3.500002
20
45.139216
30
0
11
0
21
45.6
31
0
39
0
210
0
220
0
230
1
0
LINE
5
1EA
100
AcDbEntity
8
1
62
256
6
ByLayer
370
13
48
0.05
60
0
100
AcDbLine
10
167.05
20
-19.899495
30
0
11
196.9
21
-19.899495
31
0
39
0
210
0
220
0
230
1
0
LINE
5
1EB
100
AcDbEntity
8
1
62
256
6
ByLayer
370
13
48
0.05
60
0
100
AcDbLine
10
171.244351
20
-10
30
0
11
186.82476
21
-10
31
0
39
0
210
0
220
0
230
1
0
LINE
5
1EC
100
AcDbEntity
8
1
62
256
6
ByLayer
370
13
48
0.05
60
0
100
AcDbLine
10
167.05
20
-0.100505
30
0
11
196.9
21
-0.100505
31
0
39
0
210
0
220
0
230
1
0
LINE
5
1ED
100
AcDbEntity
8
1
62
256
6
ByLayer
370
13
48
0.05
60
0
100
AcDbLine
10
184.52
20
0
30
0
11
169.7
21
0
31
0
39
0
210
0
220
0
230
1
0
LINE
5
1F2
100
AcDbEntity
8
1
62
256
6
ByLayer
370
18
48
1
60
1
100
AcDbLine
10
-54.6
20
40
30
0
11
-54.139216
21
36.500002
31
0
39
0
210
0
220
0
230
1
0
LINE
5
1F3
100
AcDbEntity
8
1
62
256
6
ByLayer
370
18
48
1
60
1
100
AcDbLine
10
-54.139216
20
36.500002
30
0
11
-55.060784
21
36.499998
31
0
39
0
210
0
220
0
230
1
0
LINE
5
1F4
100
AcDbEntity
8
1
62
256
6
ByLayer
370
18
48
1
60
1
100
AcDbLine
10
-55.060784
20
36.499998
30
0
11
-54.6
21
40
31
0
39
0
210
0
220
0
230
1
0
LINE
5
1F6
100
AcDbEntity
8
1
62
256
6
ByLayer
370
18
48
1
60
1
100
AcDbLine
10
-54.6
20
-40
30
0
11
-55.060784
21
-36.500002
31
0
39
0
210
0
220
0
230
1
0
LINE
5
1F7
100
AcDbEntity
8
1
62
256
6
ByLayer
370
18
48
1
60
1
100
AcDbLine
10
-55.060784
20
-36.500002
30
0
11
-54.139216
21
-36.499998
31
0
39
0
210
0
220
0
230
1
0
LINE
5
1F8
100
AcDbEntity
8
1
62
256
6
ByLayer
370
18
48
1
60
1
100
AcDbLine
10
-54.139216
20
-36.499998
30
0
11
-54.6
21
-40
31
0
39
0
210
0
220
0
230
1
0
LINE
5
1FC
100
AcDbEntity
8
1
62
256
6
ByLayer
370
18
48
1
60
1
100
AcDbLine
10
211.748181
20
30
30
0
11
212.208964
21
26.500002
31
0
39
0
210
0
220
0
230
1
0
LINE
5
1FD
100
AcDbEntity
8
1
62
256
6
ByLayer
370
18
48
1
60
1
100
AcDbLine
10
212.208964
20
26.500002
30
0
11
211.287397
21
26.499998
31
0
39
0
210
0
220
0
230
1
0
LINE
5
1FE
100
AcDbEntity
8
1
62
256
6
ByLayer
370
18
48
1
60
1
100
AcDbLine
10
211.287397
20
26.499998
30
0
11
211.748181
21
30
31
0
39
0
210
0
220
0
230
1
0
LINE
5
200
100
AcDbEntity
8
1
62
256
6
ByLayer
370
18
48
1
60
1
100
AcDbLine
10
211.748181
20
-30
30
0
11
211.287397
21
-26.500002
31
0
39
0
210
0
220
0
230
1
0
LINE
5
201
100
AcDbEntity
8
1
62
256
6
ByLayer
370
18
48
1
60
1
100
AcDbLine
10
211.287397
20
-26.500002
30
0
11
212.208964
21
-26.499998
31
0
39
0
210
0
220
0
230
1
0
LINE
5
202
100
AcDbEntity
8
1
62
256
6
ByLayer
370
18
48
1
60
1
100
AcDbLine
10
212.208964
20
-26.499998
30
0
11
211.748181
21
-30
31
0
39
0
210
0
220
0
230
1
0
LINE
5
208
100
AcDbEntity
8
1
62
256
6
ByLayer
370
18
48
1
60
1
100
AcDbLine
10
200.123181
20
-30
30
0
11
199.662397
21
-26.500002
31
0
39
0
210
0
220
0
230
1
0
LINE
5
209
100
AcDbEntity
8
1
62
256
6
ByLayer
370
18
48
1
60
1
100
AcDbLine
10
199.662397
20
-26.500002
30
0
11
200.583964
21
-26.499998
31
0
39
0
210
0
220
0
230
1
0
LINE
5
20A
100
AcDbEntity
8
1
62
256
6
ByLayer
370
18
48
1
60
1
100
AcDbLine
10
200.583964
20
-26.499998
30
0
11
200.123181
21
-30
31
0
39
0
210
0
220
0
230
1
0
LINE
5
20C
100
AcDbEntity
8
1
62
256
6
ByLayer
370
18
48
1
60
1
100
AcDbLine
10
200.123181
20
10
30
0
11
200.583964
21
6.500002
31
0
39
0
210
0
220
0
230
1
0
LINE
5
20D
100
AcDbEntity
8
1
62
256
6
ByLayer
370
18
48
1
60
1
100
AcDbLine
10
200.583964
20
6.500002
30
0
11
199.662397
21
6.499998
31
0
39
0
210
0
220
0
230
1
0
LINE
5
20E
100
AcDbEntity
8
1
62
256
6
ByLayer
370
18
48
1
60
1
100
AcDbLine
10
199.662397
20
6.499998
30
0
11
200.123181
21
10
31
0
39
0
210
0
220
0
230
1
0
LINE
5
211
100
AcDbEntity
8
1
62
256
6
ByLayer
370
18
48
1
60
1
100
AcDbLine
10
180
20
45.6
30
0
11
176.500002
21
45.139216
31
0
39
0
210
0
220
0
230
1
0
LINE
5
212
100
AcDbEntity
8
1
62
256
6
ByLayer
370
18
48
1
60
1
100
AcDbLine
10
176.500002
20
45.139216
30
0
11
176.499998
21
46.060784
31
0
39
0
210
0
220
0
230
1
0
LINE
5
213
100
AcDbEntity
8
1
62
256
6
ByLayer
370
18
48
1
60
1
100
AcDbLine
10
176.499998
20
46.060784
30
0
11
180
21
45.6
31
0
39
0
210
0
220
0
230
1
0
LINE
5
215
100
AcDbEntity
8
1
62
256
6
ByLayer
370
18
48
1
60
1
100
AcDbLine
10
0
20
45.6
30
0
11
3.499998
21
46.060784
31
0
39
0
210
0
220
0
230
1
0
LINE
5
216
100
AcDbEntity
8
1
62
256
6
ByLayer
370
18
48
1
60
1
100
AcDbLine
10
3.499998
20
46.060784
30
0
11
3.500002
21
45.139216
31
0
39
0
210
0
220
0
230
1
0
LINE
5
217
100
AcDbEntity
8
1
62
256
6
ByLayer
370
18
48
1
60
1
100
AcDbLine
10
3.500002
20
45.139216
30
0
11
0
21
45.6
31
0
39
0
210
0
220
0
230
1
0
MTEXT
5
1EE
100
AcDbEntity
8
SK2
62
256
6
ByLayer
370
18
48
1
60
0
100
AcDbMText
10
-56.164634
20
-4.530622
30
0
210
0
220
0
230
1
1
%%c
40
3.5
41
0
44
1.084337
50
90
71
7
72
5
7
iso_b_vert
0
MTEXT
5
1F1
100
AcDbEntity
8
SK2
62
256
6
ByLayer
370
18
48
1
60
0
100
AcDbMText
10
-56.164634
20
2.442034
30
0
210
0
220
0
230
1
1
\W0.6740;80
40
3.5
41
0
44
1.084337
50
90
71
7
72
5
7
iso_b_vert
0
MTEXT
5
1FA
100
AcDbEntity
8
SK2
62
256
6
ByLayer
370
18
48
1
60
0
100
AcDbMText
10
210.183547
20
-4.530622
30
0
210
0
220
0
230
1
1
%%c
40
3.5
41
0
44
1.084337
50
90
71
7
72
5
7
iso_b_vert
0
MTEXT
5
1FB
100
AcDbEntity
8
SK2
62
256
6
ByLayer
370
18
48
1
60
0
100
AcDbMText
10
210.183547
20
2.442034
30
0
210
0
220
0
230
1
1
\W0.6740;60
40
3.5
41
0
44
1.084337
50
90
71
7
72
5
7
iso_b_vert
0
MTEXT
5
204
100
AcDbEntity
8
SK2
62
256
6
ByLayer
370
18
48
1
60
0
100
AcDbMText
10
197.902297
20
-23.392233
30
0
210
0
220
0
230
1
1
\W1.1313;{\H1.88x;)}
40
3.5
41
0
44
1.084337
50
90
71
7
72
5
7
iso_b_vert
0
MTEXT
5
205
100
AcDbEntity
8
SK2
62
256
6
ByLayer
370
18
48
1
60
0
100
AcDbMText
10
197.902297
20
-39.141699
30
0
210
0
220
0
230
1
1
\W1.1313;{\H1.88x;(}
40
3.5
41
0
44
1.084337
50
90
71
7
72
5
7
iso_b_vert
0
MTEXT
5
206
100
AcDbEntity
8
SK2
62
256
6
ByLayer
370
18
48
1
60
0
100
AcDbMText
10
197.902297
20
-34.914355
30
0
210
0
220
0
230
1
1
%%c
40
3.5
41
0
44
1.084337
50
90
71
7
72
5
7
iso_b_vert
0
MTEXT
5
207
100
AcDbEntity
8
SK2
62
256
6
ByLayer
370
18
48
1
60
0
100
AcDbMText
10
197.902297
20
-27.941699
30
0
210
0
220
0
230
1
1
\W0.7361;40
40
3.5
41
0
44
1.084337
50
90
71
7
72
5
7
iso_b_vert
0
MTEXT
5
210
100
AcDbEntity
8
SK2
62
256
6
ByLayer
370
18
48
1
60
0
100
AcDbMText
10
87.224734
20
46.632634
30
0
210
0
220
0
230
1
1
\W0.6217;180
40
3.5
41
0
44
1.084337
50
0
71
7
72
5
7
iso_b_vert
0
MTEXT
5
219
100
AcDbEntity
8
SK6
62
256
6
ByLayer
370
18
48
1
60
0
100
AcDbMText
10
48.705327
20
-65.567366
30
0
210
0
220
0
230
1
1
\W0.7614;HT40D-C8 60 180L40
40
3.5
41
0
44
1.084337
50
0
71
7
72
5
7
iso_b_vert
0
HATCH
5
1F5
100
AcDbEntity
8
SK2
62
256
6
ByLayer
370
13
48
1
60
0
100
AcDbHatch
10
0
20
0
30
0
210
0
220
0
230
1
2
ANSI31
70
0
71
0
91
1
92
5
93
3
72
1
10
-54.6
20
40
11
-54.1392162584473
21
36.5000016925532
72
1
10
-54.1392162584473
20
36.5000016925532
11
-55.0607837415528
21
36.4999983074468
72
1
10
-55.0607837415528
20
36.4999983074468
11
-54.6
21
40
97
0
75
0
76
1
52
0
41
0.0062
77
0
78
1
53
45
43
0
44
0
45
-0.0139193969876572
46
0.0139193969876572
79
0
47
0
98
1
10
0
20
0
0
HATCH
5
1F9
100
AcDbEntity
8
SK2
62
256
6
ByLayer
370
13
48
1
60
0
100
AcDbHatch
10
0
20
0
30
0
210
0
220
0
230
1
2
ANSI31
70
0
71
0
91
1
92
5
93
3
72
1
10
-54.6
20
-40
11
-55.0607837415528
21
-36.5000016925532
72
1
10
-55.0607837415528
20
-36.5000016925532
11
-54.1392162584473
21
-36.4999983074468
72
1
10
-54.1392162584473
20
-36.4999983074468
11
-54.6
21
-40
97
0
75
0
76
1
52
0
41
0.0062
77
0
78
1
53
45
43
0
44
0
45
-0.0139193969876572
46
0.0139193969876572
79
0
47
0
98
1
10
0
20
0
0
HATCH
5
1FF
100
AcDbEntity
8
SK2
62
256
6
ByLayer
370
13
48
1
60
0
100
AcDbHatch
10
0
20
0
30
0
210
0
220
0
230
1
2
ANSI31
70
0
71
0
91
1
92
5
93
3
72
1
10
211.748180566759
20
30
11
212.208964308311
21
26.5000016925532
72
1
10
212.208964308311
20
26.5000016925532
11
211.287396825206
21
26.4999983074468
72
1
10
211.287396825206
20
26.4999983074468
11
211.748180566759
21
30
97
0
75
0
76
1
52
0
41
0.0062
77
0
78
1
53
45
43
0
44
0
45
-0.0139193969876572
46
0.0139193969876572
79
0
47
0
98
1
10
0
20
0
0
HATCH
5
203
100
AcDbEntity
8
SK2
62
256
6
ByLayer
370
13
48
1
60
0
100
AcDbHatch
10
0
20
0
30
0
210
0
220
0
230
1
2
ANSI31
70
0
71
0
91
1
92
5
93
3
72
1
10
211.748180566759
20
-30
11
211.287396825206
21
-26.5000016925532
72
1
10
211.287396825206
20
-26.5000016925532
11
212.208964308311
21
-26.4999983074468
72
1
10
212.208964308311
20
-26.4999983074468
11
211.748180566759
21
-30
97
0
75
0
76
1
52
0
41
0.0062
77
0
78
1
53
45
43
0
44
0
45
-0.0139193969876572
46
0.0139193969876572
79
0
47
0
98
1
10
0
20
0
0
HATCH
5
20B
100
AcDbEntity
8
SK2
62
256
6
ByLayer
370
13
48
1
60
0
100
AcDbHatch
10
0
20
0
30
0
210
0
220
0
230
1
2
ANSI31
70
0
71
0
91
1
92
5
93
3
72
1
10
200.123180566759
20
-30
11
199.662396825206
21
-26.5000016925532
72
1
10
199.662396825206
20
-26.5000016925532
11
200.583964308311
21
-26.4999983074468
72
1
10
200.583964308311
20
-26.4999983074468
11
200.123180566759
21
-30
97
0
75
0
76
1
52
0
41
0.0062
77
0
78
1
53
45
43
0
44
0
45
-0.0139193969876572
46
0.0139193969876572
79
0
47
0
98
1
10
0
20
0
0
HATCH
5
20F
100
AcDbEntity
8
SK2
62
256
6
ByLayer
370
13
48
1
60
0
100
AcDbHatch
10
0
20
0
30
0
210
0
220
0
230
1
2
ANSI31
70
0
71
0
91
1
92
5
93
3
72
1
10
200.123180566759
20
10
11
200.583964308311
21
6.50000169255318
72
1
10
200.583964308311
20
6.50000169255318
11
199.662396825206
21
6.49999830744682
72
1
10
199.662396825206
20
6.49999830744682
11
200.123180566759
21
10
97
0
75
0
76
1
52
0
41
0.0062
77
0
78
1
53
45
43
0
44
0
45
-0.0139193969876572
46
0.0139193969876572
79
0
47
0
98
1
10
0
20
0
0
HATCH
5
214
100
AcDbEntity
8
SK2
62
256
6
ByLayer
370
13
48
1
60
0
100
AcDbHatch
10
0
20
0
30
0
210
0
220
0
230
1
2
ANSI31
70
0
71
0
91
1
92
5
93
3
72
1
10
180
20
45.6
11
176.500001692553
21
45.1392162584472
72
1
10
176.500001692553
20
45.1392162584472
11
176.499998307447
21
46.0607837415528
72
1
10
176.499998307447
20
46.0607837415528
11
180
21
45.6
97
0
75
0
76
1
52
0
41
0.0062
77
0
78
1
53
45
43
0
44
0
45
-0.0139193969876572
46
0.0139193969876572
79
0
47
0
98
1
10
0
20
0
0
HATCH
5
218
100
AcDbEntity
8
SK2
62
256
6
ByLayer
370
13
48
1
60
0
100
AcDbHatch
10
0
20
0
30
0
210
0
220
0
230
1
2
ANSI31
70
0
71
0
91
1
92
5
93
3
72
1
10
0
20
45.6
11
3.49999830744682
21
46.0607837415528
72
1
10
3.49999830744682
20
46.0607837415528
11
3.50000169255318
21
45.1392162584472
72
1
10
3.50000169255318
20
45.1392162584472
11
0
21
45.6
97
0
75
0
76
1
52
0
41
0.0062
77
0
78
1
53
45
43
0
44
0
45
-0.0139193969876572
46
0.0139193969876572
79
0
47
0
98
1
10
0
20
0
0
DIMENSION
5
21C
100
AcDbEntity
8
SK2
62
256
6
ByLayer
370
18
48
1
60
0
100
AcDbDimension
2
_U0
10
180
20
-53.1
30
0
11
106.5
21
-53.1
31
0
70
32
71
1
72
1
41
1
210
0
220
0
230
1
3
Standard
100
AcDbAlignedDimension
13
33
23
-30
33
0
14
180
24
30
34
0
50
0
100
AcDbRotatedDimension
1001
ACAD
1000
DSTYLE
1002
{
1070
   371
1070
    13
1070
   372
1070
    13
1070
   170
1070
     0
1070
   144
1040
1.0
1070
   277
1070
     2
1070
   284
1070
     8
1070
   278
1070
    46
1070
   146
1040
1.0
1070
   345
1005
16
1070
   347
1005
16
1070
   346
1005
16
1070
   344
1005
0
1070
   343
1005
0
1070
   172
1070
     1
1070
    76
1070
     0
1070
    75
1070
     0
1070
   282
1070
     0
1070
   281
1070
     0
1070
    71
1070
     0
1070
    74
1070
     0
1070
   279
1070
     0
1070
   173
1070
     1
1070
   340
1005
1EF
1070
   271
1070
     2
1070
   272
1070
     2
1070
    77
1070
     1
1070
    73
1070
     1
1070
   171
1070
     3
1070
   274
1070
     4
1070
   177
1070
     2
1070
   176
1070
     2
1070
   178
1070
     2
1070
    78
1070
     8
1070
    48
1040
-0.1
1070
    41
1040
3.5
1070
   147
1040
1.75
1070
    42
1040
1.5875
1070
    44
1040
2.0
1070
   140
1040
3.5
1002
}
1001
ACAD_DSTYLE_DIM_LINETYPE
1070
   380
1005
16
1001
ACAD_DSTYLE_DIM_EXT1_LINETYPE
1070
   381
1005
16
1001
ACAD_DSTYLE_DIM_EXT2_LINETYPE
1070
   382
1005
16
0
ENDSEC
0
SECTION
2
OBJECTS
0
DICTIONARY
5
2a5
330
0
100
AcDbDictionary
280
0
281
1
3
ACAD_GROUP
350
2a6
3
ACAD_MLINESTYLE
350
2a7
0
DICTIONARY
5
2a6
330
0
100
AcDbDictionary
280
0
281
1
0
DICTIONARY
5
2a7
330
0
100
AcDbDictionary
280
0
281
1
3
Standard
350
18
0
MLINESTYLE
5
18
330
2a7
100
AcDbMlineStyle
2
Standard
70
0
3

62
256
51
90
52
90
71
2
49
-0.5
62
256
6
ByLayer
49
0.5
62
256
6
ByLayer
0
RASTERVARIABLES
5
293
330

100
AcDbRasterVariables
90
0
70
1
71
1
72
1
0
ENDSEC
0
EOF
