0
SECTION
2
HEADER
9
$ACADVER
1
AC1015
9
$DWGCODEPAGE
3
ANSI_1252
9
$HANDSEED
5
2e1
9
$ANGBASE
50
0
9
$ANGDIR
70
0
9
$ATTMODE
70
1
9
$AUNITS
70
0
9
$AUPREC
70
0
9
$CECOLOR
62
256
9
$CELTSCALE
40
1
9
$CELTYPE
6
ByLayer
9
$CELWEIGHT
370
18
9
$CLAYER
8
0
9
$CMLJUST
70
0
9
$CMLSCALE
40
1
9
$CMLSTYLE
2
Standard
9
$DIMSTYLE
2
Standard
9
$TEXTSIZE
40
0.2
9
$TEXTSTYLE
7
Standard
9
$LUNITS
70
2
9
$LUPREC
70
4
9
$EXTNAMES
290
1
9
$INSUNITS
70
4
9
$LTSCALE
40
1
9
$LWDISPLAY
290
1
9
$PDMODE
70
0
9
$PDSIZE
40
0
9
$PLINEGEN
70
0
0
ENDSEC
0
SECTION
2
CLASSES
0
CLASS
1
RASTERVARIABLES
2
AcDbRasterVariables
3
ISM
90
0
280
0
281
0
0
ENDSEC
0
SECTION
2
TABLES
0
TABLE
2
VPORT
5
2d7
100
AcDbSymbolTable
0
VPORT
5
1
100
AcDbSymbolTableRecord
100
AcDbViewportTableRecord
2
*Active
70
0
10
0
20
0
11
1
21
1
12
-1
22
1
13
0
23
0
14
0.5
24
0.5
15
10
25
10
16
0
26
0
36
1
17
0
27
0
37
0
0
ENDTAB
0
TABLE
2
LTYPE
5
2d8
100
AcDbSymbolTable
0
LTYPE
5
14
100
AcDbSymbolTableRecord
100
AcDbLinetypeTableRecord
70
0
2
ByBlock
3

72
65
73
0
40
0
0
LTYPE
5
15
100
AcDbSymbolTableRecord
100
AcDbLinetypeTableRecord
70
0
2
ByLayer
3

72
65
73
0
40
0
0
LTYPE
5
16
100
AcDbSymbolTableRecord
100
AcDbLinetypeTableRecord
70
0
2
Continuous
3
Solid line
72
65
73
0
40
0
0
LTYPE
5
6E
100
AcDbSymbolTableRecord
100
AcDbLinetypeTableRecord
70
0
2
CENTER
3
____ _ ____ _ ____ _ ____
72
65
73
4
40
47.5
49
22
74
0
49
-8.5
74
0
49
8.5
74
0
49
-8.5
74
0
0
LTYPE
5
6F
100
AcDbSymbolTableRecord
100
AcDbLinetypeTableRecord
70
0
2
DASHED
3
__ __ __ __ __ __ __ __ __
72
65
73
2
40
25.72
49
12.86
74
0
49
-12.86
74
0
0
ENDTAB
0
TABLE
2
LAYER
5
2d9
100
AcDbSymbolTable
0
LAYER
5
10
100
AcDbSymbolTableRecord
100
AcDbLayerTableRecord
2
0
70
0
62
7
6
Continuous
290
1
370
-3
390
0
0
LAYER
5
71
100
AcDbSymbolTableRecord
100
AcDbLayerTableRecord
2
2
70
0
62
7
6
Continuous
290
1
370
-3
390
0
0
LAYER
5
98
100
AcDbSymbolTableRecord
100
AcDbLayerTableRecord
2
81
70
0
62
-3
6
Continuous
290
1
370
-3
390
0
0
LAYER
5
9A
100
AcDbSymbolTableRecord
100
AcDbLayerTableRecord
2
80
70
0
62
-6
6
Continuous
290
1
370
-3
390
0
0
LAYER
5
9C
100
AcDbSymbolTableRecord
100
AcDbLayerTableRecord
2
1
70
0
62
4
6
Continuous
290
1
370
-3
390
0
0
LAYER
5
AA
100
AcDbSymbolTableRecord
100
AcDbLayerTableRecord
2
4
70
0
62
-2
6
CENTER
290
1
370
-3
390
0
0
LAYER
5
24E
100
AcDbSymbolTableRecord
100
AcDbLayerTableRecord
2
Defpoints
70
0
62
7
6
Continuous
290
0
370
-3
390
0
0
LAYER
5
2c3
100
AcDbSymbolTableRecord
100
AcDbLayerTableRecord
2
SK4
70
0
62
2
6
CENTER
290
1
370
-3
390
0
0
LAYER
5
2c4
100
AcDbSymbolTableRecord
100
AcDbLayerTableRecord
2
SK1
70
0
62
4
6
Continuous
290
1
370
-3
390
0
0
LAYER
5
2c5
100
AcDbSymbolTableRecord
100
AcDbLayerTableRecord
2
SK2
70
0
62
7
6
Continuous
290
1
370
-3
390
0
0
LAYER
5
2c6
100
AcDbSymbolTableRecord
100
AcDbLayerTableRecord
2
SK6
70
0
62
5
6
Continuous
290
1
370
-3
390
0
0
ENDTAB
0
TABLE
2
STYLE
5
2da
100
AcDbSymbolTable
0
STYLE
5
11
100
AcDbSymbolTableRecord
100
AcDbTextStyleTableRecord
2
Standard
3
txt
70
0
71
0
40
0
41
1
42
0
50
0
0
STYLE
5
21E
100
AcDbSymbolTableRecord
100
AcDbTextStyleTableRecord
2
iso_b_vert
3
simplex.shx
70
0
71
0
40
0
41
1
42
0
50
0
0
STYLE
5
21F
100
AcDbSymbolTableRecord
100
AcDbTextStyleTableRecord
2
DWGDirectTextStyle
3
simplex
70
0
71
0
40
0
41
1
42
0
50
0
0
ENDTAB
0
TABLE
2
DIMSTYLE
5
2db
100
AcDbSymbolTable
100
AcDbDimStyleTable
0
DIMSTYLE
105
27
100
AcDbSymbolTableRecord
100
AcDbDimStyleTableRecord
2
Standard
70
0
3
<>
41
0.18
42
0.0625
44
0.18
140
0.18
147
0.09
73
0
74
0
77
1
271
2
275
0
278
52
280
0
340
11
0
ENDTAB
0
TABLE
2
VIEW
5
2dc
100
AcDbSymbolTable
0
ENDTAB
0
TABLE
2
UCS
5
2dd
100
AcDbSymbolTable
0
ENDTAB
0
TABLE
2
APPID
5
2de
100
AcDbSymbolTable
0
APPID
5
12
100
AcDbSymbolTableRecord
100
AcDbRegAppTableRecord
2
ACAD
70
0
0
APPID
5
24A
100
AcDbSymbolTableRecord
100
AcDbRegAppTableRecord
2
ACAD_DSTYLE_DIMBREAK
70
0
0
APPID
5
282
100
AcDbSymbolTableRecord
100
AcDbRegAppTableRecord
2
ACAD_DSTYLE_DIM_LINETYPE
70
0
0
APPID
5
283
100
AcDbSymbolTableRecord
100
AcDbRegAppTableRecord
2
ACAD_DSTYLE_DIM_EXT1_LINETYPE
70
0
0
APPID
5
284
100
AcDbSymbolTableRecord
100
AcDbRegAppTableRecord
2
ACAD_DSTYLE_DIM_EXT2_LINETYPE
70
0
0
APPID
5
2BF
100
AcDbSymbolTableRecord
100
AcDbRegAppTableRecord
2
ACAD_MLEADERVER
70
0
0
ENDTAB
0
TABLE
2
BLOCK_RECORD
5
2df
100
AcDbSymbolTable
0
BLOCK_RECORD
5
1F
100
AcDbSymbolTableRecord
100
AcDbBlockTableRecord
2
*Model_Space
340
0
70
0
0
BLOCK_RECORD
5
1B
100
AcDbSymbolTableRecord
100
AcDbBlockTableRecord
2
*Paper_Space
340
0
70
0
0
BLOCK_RECORD
5
23
100
AcDbSymbolTableRecord
100
AcDbBlockTableRecord
2
*Paper_Space0
340
0
70
0
0
BLOCK_RECORD
5
24F
100
AcDbSymbolTableRecord
100
AcDbBlockTableRecord
2
*D1
340
0
70
0
0
BLOCK_RECORD
5
25B
100
AcDbSymbolTableRecord
100
AcDbBlockTableRecord
2
_U0
340
0
70
0
0
ENDTAB
0
ENDSEC
0
SECTION
2
BLOCKS
0
BLOCK
5
20
100
AcDbEntity
8
0
100
AcDbBlockBegin
2
*Model_Space
70
0
10
0
20
0
30
0
3
*Model_Space
0
ENDBLK
5
21
100
AcDbEntity
8
0
100
AcDbBlockEnd
0
BLOCK
5
1C
100
AcDbEntity
8
0
100
AcDbBlockBegin
2
*Paper_Space
70
0
10
0
20
0
30
0
3
*Paper_Space
0
ENDBLK
5
1D
100
AcDbEntity
8
0
100
AcDbBlockEnd
0
BLOCK
5
24
100
AcDbEntity
8
0
100
AcDbBlockBegin
2
*Paper_Space0
70
0
10
0
20
0
30
0
3
*Paper_Space0
0
ENDBLK
5
25
100
AcDbEntity
8
0
100
AcDbBlockEnd
0
BLOCK
5
250
100
AcDbEntity
8
0
100
AcDbBlockBegin
2
*D1
70
1
10
0
20
0
30
0
3
*D1
0
LINE
5
252
100
AcDbEntity
8
0
62
256
6
ByLayer
370
-2
48
1
60
0
100
AcDbLine
10
29
20
-26.5875
30
0
11
29
21
-46.57
31
0
39
0
210
0
220
0
230
1
0
LINE
5
253
100
AcDbEntity
8
0
62
256
6
ByLayer
370
-2
48
1
60
0
100
AcDbLine
10
268
20
23.4125
30
0
11
268
21
-46.57
31
0
39
0
210
0
220
0
230
1
0
LINE
5
254
100
AcDbEntity
8
0
62
256
6
ByLayer
370
-2
48
1
60
0
100
AcDbLine
10
32.5
20
-44.57
30
0
11
264.5
21
-44.57
31
0
39
0
210
0
220
0
230
1
0
SOLID
5
255
100
AcDbEntity
8
0
62
256
6
ByLayer
370
-1
48
1
60
0
100
AcDbTrace
10
32.5
20
-43.986667
30
0
11
32.5
21
-45.153333
31
0
12
29
22
-44.57
32
0
13
29
23
-44.57
33
0
39
0
210
0
220
0
230
1
0
SOLID
5
256
100
AcDbEntity
8
0
62
256
6
ByLayer
370
-1
48
1
60
0
100
AcDbTrace
10
264.5
20
-45.153333
30
0
11
264.5
21
-43.986667
31
0
12
268
22
-44.57
32
0
13
268
23
-44.57
33
0
39
0
210
0
220
0
230
1
0
MTEXT
5
257
100
AcDbEntity
8
0
62
256
6
ByLayer
370
18
48
1
60
0
100
AcDbMText
10
148.5
20
-37.57
30
0
210
0
220
0
230
1
1
\A1;239
40
3.5
41
0
44
1
50
0
71
5
72
5
7
iso_b_vert
0
POINT
5
258
100
AcDbEntity
8
Defpoints
62
0
6
ByLayer
370
-1
48
1
60
0
100
AcDbPoint
10
29
20
-25
30
0
39
0
210
0
220
0
230
1
50
360
0
POINT
5
259
100
AcDbEntity
8
Defpoints
62
0
6
ByLayer
370
-1
48
1
60
0
100
AcDbPoint
10
268
20
25
30
0
39
0
210
0
220
0
230
1
50
360
0
POINT
5
25A
100
AcDbEntity
8
Defpoints
62
0
6
ByLayer
370
-1
48
1
60
0
100
AcDbPoint
10
268
20
-44.57
30
0
39
0
210
0
220
0
230
1
50
360
0
ENDBLK
5
251
100
AcDbEntity
8
0
100
AcDbBlockEnd
0
BLOCK
5
262
100
AcDbEntity
8
0
100
AcDbBlockBegin
2
_U0
70
0
10
0
20
0
30
0
3
_U0
0
MTEXT
5
25C
100
AcDbEntity
8
SK2
62
256
6
ByLayer
370
18
48
1
60
0
100
AcDbMText
10
145.287301
20
-43.537366
30
0
210
0
220
0
230
1
1
\W0.7266;239
40
3.5
41
0
44
1.084337
50
0
71
7
72
5
7
iso_b_vert
0
LINE
5
25D
100
AcDbEntity
8
SK2
62
256
6
ByLayer
370
13
48
1
60
0
100
AcDbLine
10
29
20
-26.5875
30
0
11
29
21
-46.57
31
0
39
0
210
0
220
0
230
1
0
LINE
5
25E
100
AcDbEntity
8
SK2
62
256
6
ByLayer
370
13
48
1
60
0
100
AcDbLine
10
268
20
23.4125
30
0
11
268
21
-46.57
31
0
39
0
210
0
220
0
230
1
0
LINE
5
25F
100
AcDbEntity
8
SK2
62
256
6
ByLayer
370
13
48
1
60
0
100
AcDbLine
10
29
20
-44.57
30
0
11
268
21
-44.57
31
0
39
0
210
0
220
0
230
1
0
SOLID
5
260
100
AcDbEntity
8
SK2
62
256
6
ByLayer
370
18
48
1
60
0
100
AcDbTrace
10
29
20
-44.57
30
0
11
32.499998
21
-44.109216
31
0
12
32.500002
22
-45.030784
32
0
13
32.500002
23
-45.030784
33
0
39
0
210
0
220
0
230
1
0
SOLID
5
261
100
AcDbEntity
8
SK2
62
256
6
ByLayer
370
18
48
1
60
0
100
AcDbTrace
10
268
20
-44.57
30
0
11
264.500002
21
-45.030784
31
0
12
264.499998
22
-44.109216
32
0
13
264.499998
23
-44.109216
33
0
39
0
210
0
220
0
230
1
0
ENDBLK
5
263
100
AcDbEntity
8
0
100
AcDbBlockEnd
0
ENDSEC
0
SECTION
2
ENTITIES
0
ARC
5
189
100
AcDbEntity
8
1
62
256
6
ByLayer
370
18
48
1
60
0
100
AcDbCircle
39
0
10
263.8
20
-24.8
30
0
40
0.2
210
0
220
0
230
1
100
AcDbArc
50
270
51
360
0
ARC
5
18A
100
AcDbEntity
8
1
62
256
6
ByLayer
370
18
48
1
60
0
100
AcDbCircle
39
0
10
263.8
20
24.8
30
0
40
0.2
210
0
220
0
230
1
100
AcDbArc
50
360
51
90
0
ARC
5
18B
100
AcDbEntity
8
1
62
256
6
ByLayer
370
18
48
1
60
0
100
AcDbCircle
39
0
10
29
20
28
30
0
40
3
210
0
220
0
230
1
100
AcDbArc
50
212.235541
51
270
0
ARC
5
18C
100
AcDbEntity
8
1
62
256
6
ByLayer
370
18
48
1
60
0
100
AcDbCircle
39
0
10
29
20
-28
30
0
40
3
210
0
220
0
230
1
100
AcDbArc
50
90
51
147.766032
0
ARC
5
18D
100
AcDbEntity
8
SK1
62
256
6
ByLayer
370
18
48
1
60
0
100
AcDbCircle
39
0
10
-27.2
20
22.245
30
0
40
1.4
210
0
220
0
230
1
100
AcDbArc
50
270
51
304.922922
0
ARC
5
18E
100
AcDbEntity
8
SK1
62
256
6
ByLayer
370
18
48
1
60
0
100
AcDbCircle
39
0
10
-23.2
20
-22.245
30
0
40
1.4
210
0
220
0
230
1
100
AcDbArc
50
39.740105
51
90
0
ARC
5
18F
100
AcDbEntity
8
SK1
62
256
6
ByLayer
370
18
48
1
60
0
100
AcDbCircle
39
0
10
-0.45
20
24.570431
30
0
40
0.600000000000001
210
0
220
0
230
1
100
AcDbArc
50
270
51
318.590378
0
ARC
5
190
100
AcDbEntity
8
SK1
62
256
6
ByLayer
370
18
48
1
60
0
100
AcDbCircle
39
0
10
-0.45
20
-24.570431
30
0
40
0.600000000000001
210
0
220
0
230
1
100
AcDbArc
50
41.409622
51
90
0
ARC
5
191
100
AcDbEntity
8
1
62
256
6
ByLayer
370
18
48
1
60
0
100
AcDbCircle
39
0
10
266.5
20
-15.5
30
0
40
0.5
210
0
220
0
230
1
100
AcDbArc
50
90
51
180
0
ARC
5
192
100
AcDbEntity
8
1
62
256
6
ByLayer
370
18
48
1
60
0
100
AcDbCircle
39
0
10
264.2
20
-24.8
30
0
40
0.2
210
0
220
0
230
1
100
AcDbArc
50
180
51
270
0
ARC
5
193
100
AcDbEntity
8
1
62
256
6
ByLayer
370
18
48
1
60
0
100
AcDbCircle
39
0
10
264.2
20
24.8
30
0
40
0.2
210
0
220
0
230
1
100
AcDbArc
50
90
51
180
0
ARC
5
194
100
AcDbEntity
8
1
62
256
6
ByLayer
370
18
48
1
60
0
100
AcDbCircle
39
0
10
272.8
20
11.699495
30
0
40
0.2
210
0
220
0
230
1
100
AcDbArc
50
0
51
90
0
ARC
5
195
100
AcDbEntity
8
1
62
256
6
ByLayer
370
18
48
1
60
0
100
AcDbCircle
39
0
10
272.8
20
18.099495
30
0
40
0.2
210
0
220
0
230
1
100
AcDbArc
50
270
51
0
0
ARC
5
196
100
AcDbEntity
8
1
62
256
6
ByLayer
370
18
48
1
60
0
100
AcDbCircle
39
0
10
278.4
20
10.499495
30
0
40
0.6
210
0
220
0
230
1
100
AcDbArc
50
270
51
360
0
ARC
5
197
100
AcDbEntity
8
1
62
256
6
ByLayer
370
18
48
1
60
0
100
AcDbCircle
39
0
10
278.4
20
19.299495
30
0
40
0.6
210
0
220
0
230
1
100
AcDbArc
50
360
51
90
0
ARC
5
198
100
AcDbEntity
8
1
62
256
6
ByLayer
370
18
48
1
60
0
100
AcDbCircle
39
0
10
272.8
20
-8.099495
30
0
40
0.2
210
0
220
0
230
1
100
AcDbArc
50
0
51
90
0
ARC
5
199
100
AcDbEntity
8
1
62
256
6
ByLayer
370
18
48
1
60
0
100
AcDbCircle
39
0
10
272.8
20
-1.699495
30
0
40
0.2
210
0
220
0
230
1
100
AcDbArc
50
270
51
0
0
ARC
5
19A
100
AcDbEntity
8
1
62
256
6
ByLayer
370
18
48
1
60
0
100
AcDbCircle
39
0
10
278.4
20
-9.299495
30
0
40
0.6
210
0
220
0
230
1
100
AcDbArc
50
270
51
360
0
ARC
5
19B
100
AcDbEntity
8
1
62
256
6
ByLayer
370
18
48
1
60
0
100
AcDbCircle
39
0
10
278.4
20
-0.499495
30
0
40
0.6
210
0
220
0
230
1
100
AcDbArc
50
360
51
90
0
ELLIPSE
5
19C
100
AcDbEntity
8
SK1
62
256
6
ByLayer
370
13
48
1
60
0
100
AcDbEllipse
10
-23.2
20
-21.778508
30
0
11
-1.4
21
5.14524403985583E-15
31
0
210
0
220
0
230
1
40
0.891007
41
-2.07355898834548
42
-1.5707963267949
0
ELLIPSE
5
19D
100
AcDbEntity
8
1
62
256
6
ByLayer
370
13
48
1
60
0
100
AcDbEllipse
10
266.5
20
22.975
30
0
11
0.5
21
0
31
0
210
0
220
0
230
1
40
0.876829
41
-2.61524846552589
42
-1.5707963267949
0
POINT
5
70
100
AcDbEntity
8
2
62
256
6
ByLayer
370
18
48
1
60
0
100
AcDbPoint
10
193.2
20
17
30
0
39
0
210
0
220
0
230
1
50
360
0
POINT
5
72
100
AcDbEntity
8
2
62
256
6
ByLayer
370
18
48
1
60
0
100
AcDbPoint
10
273
20
14.899495
30
0
39
0
210
0
220
0
230
1
50
360
0
POINT
5
73
100
AcDbEntity
8
2
62
256
6
ByLayer
370
18
48
1
60
0
100
AcDbPoint
10
269
20
-4.899495
30
0
39
0
210
0
220
0
230
1
50
360
0
POINT
5
74
100
AcDbEntity
8
2
62
256
6
ByLayer
370
18
48
1
60
0
100
AcDbPoint
10
269
20
14.899495
30
0
39
0
210
0
220
0
230
1
50
360
0
POINT
5
75
100
AcDbEntity
8
2
62
256
6
ByLayer
370
18
48
1
60
0
100
AcDbPoint
10
248
20
0
30
0
39
0
210
0
220
0
230
1
50
360
0
POINT
5
76
100
AcDbEntity
8
2
62
256
6
ByLayer
370
18
48
1
60
0
100
AcDbPoint
10
255
20
0
30
0
39
0
210
0
220
0
230
1
50
360
0
POINT
5
77
100
AcDbEntity
8
2
62
256
6
ByLayer
370
18
48
1
60
0
100
AcDbPoint
10
273
20
14.899495
30
0
39
0
210
0
220
0
230
1
50
360
0
POINT
5
78
100
AcDbEntity
8
2
62
256
6
ByLayer
370
18
48
1
60
0
100
AcDbPoint
10
255
20
0
30
0
39
0
210
0
220
0
230
1
50
360
0
POINT
5
79
100
AcDbEntity
8
2
62
256
6
ByLayer
370
18
48
1
60
0
100
AcDbPoint
10
172
20
0
30
0
39
0
210
0
220
0
230
1
50
360
0
POINT
5
7A
100
AcDbEntity
8
2
62
256
6
ByLayer
370
18
48
1
60
0
100
AcDbPoint
10
213.5
20
0
30
0
39
0
210
0
220
0
230
1
50
360
0
POINT
5
7B
100
AcDbEntity
8
2
62
256
6
ByLayer
370
18
48
1
60
0
100
AcDbPoint
10
265.37476
20
5
30
0
39
0
210
0
220
0
230
1
50
360
0
POINT
5
7C
100
AcDbEntity
8
2
62
256
6
ByLayer
370
18
48
1
60
0
100
AcDbPoint
10
269
20
-4.899495
30
0
39
0
210
0
220
0
230
1
50
360
0
POINT
5
7D
100
AcDbEntity
8
2
62
256
6
ByLayer
370
18
48
1
60
0
100
AcDbPoint
10
230.8
20
17
30
0
39
0
210
0
220
0
230
1
50
360
0
POINT
5
7E
100
AcDbEntity
8
2
62
256
6
ByLayer
370
18
48
1
60
0
100
AcDbPoint
10
171.3
20
0
30
0
39
0
210
0
220
0
230
1
50
360
0
POINT
5
7F
100
AcDbEntity
8
2
62
256
6
ByLayer
370
18
48
1
60
0
100
AcDbPoint
10
176
20
0
30
0
39
0
210
0
220
0
230
1
50
360
0
POINT
5
80
100
AcDbEntity
8
2
62
256
6
ByLayer
370
18
48
1
60
0
100
AcDbPoint
10
167.1
20
0
30
0
39
0
210
0
220
0
230
1
50
360
0
POINT
5
81
100
AcDbEntity
8
2
62
256
6
ByLayer
370
18
48
1
60
0
100
AcDbPoint
10
175.5
20
0
30
0
39
0
210
0
220
0
230
1
50
360
0
POINT
5
82
100
AcDbEntity
8
2
62
256
6
ByLayer
370
18
48
1
60
0
100
AcDbPoint
10
171.55
20
0
30
0
39
0
210
0
220
0
230
1
50
360
0
POINT
5
83
100
AcDbEntity
8
2
62
256
6
ByLayer
370
18
48
1
60
0
100
AcDbPoint
10
167.1
20
0
30
0
39
0
210
0
220
0
230
1
50
360
0
POINT
5
84
100
AcDbEntity
8
2
62
256
6
ByLayer
370
18
48
1
60
0
100
AcDbPoint
10
268
20
5
30
0
39
0
210
0
220
0
230
1
50
360
0
POINT
5
85
100
AcDbEntity
8
2
62
256
6
ByLayer
370
50
48
1
60
0
100
AcDbPoint
10
248.5
20
0
30
0
39
0
210
0
220
0
230
1
50
360
0
POINT
5
86
100
AcDbEntity
8
2
62
256
6
ByLayer
370
18
48
1
60
0
100
AcDbPoint
10
248
20
0
30
0
39
0
210
0
220
0
230
1
50
360
0
POINT
5
87
100
AcDbEntity
8
2
62
256
6
ByLayer
370
50
48
1
60
0
100
AcDbPoint
10
273
20
0
30
0
39
0
210
0
220
0
230
1
50
360
0
POINT
5
88
100
AcDbEntity
8
2
62
256
6
ByLayer
370
18
48
1
60
0
100
AcDbPoint
10
264
20
0
30
0
39
0
210
0
220
0
230
1
50
360
0
POINT
5
89
100
AcDbEntity
8
2
62
256
6
ByLayer
370
18
48
1
60
0
100
AcDbPoint
10
255
20
0
30
0
39
0
210
0
220
0
230
1
50
360
0
POINT
5
8A
100
AcDbEntity
8
2
62
256
6
ByLayer
370
18
48
1
60
0
100
AcDbPoint
10
268
20
5
30
0
39
0
210
0
220
0
230
1
50
360
0
POINT
5
8B
100
AcDbEntity
8
2
62
256
6
ByLayer
370
18
48
1
60
0
100
AcDbPoint
10
264
20
0
30
0
39
0
210
0
220
0
230
1
50
360
0
POINT
5
8C
100
AcDbEntity
8
2
62
256
6
ByLayer
370
18
48
1
60
0
100
AcDbPoint
10
240
20
0
30
0
39
0
210
0
220
0
230
1
50
360
0
POINT
5
8D
100
AcDbEntity
8
2
62
256
6
ByLayer
370
18
48
1
60
0
100
AcDbPoint
10
265.37476
20
5
30
0
39
0
210
0
220
0
230
1
50
360
0
POINT
5
8E
100
AcDbEntity
8
2
62
256
6
ByLayer
370
18
48
1
60
0
100
AcDbPoint
10
248
20
0
30
0
39
0
210
0
220
0
230
1
50
360
0
POINT
5
8F
100
AcDbEntity
8
2
62
256
6
ByLayer
370
18
48
1
60
0
100
AcDbPoint
10
238.8
20
0
30
0
39
0
210
0
220
0
230
1
50
360
0
POINT
5
90
100
AcDbEntity
8
2
62
256
6
ByLayer
370
18
48
1
60
0
100
AcDbPoint
10
212
20
0
30
0
39
0
210
0
220
0
230
1
50
360
0
POINT
5
91
100
AcDbEntity
8
2
62
256
6
ByLayer
370
18
48
1
60
0
100
AcDbPoint
10
185.2
20
0
30
0
39
0
210
0
220
0
230
1
50
360
0
POINT
5
92
100
AcDbEntity
8
2
62
256
6
ByLayer
370
18
48
1
60
0
100
AcDbPoint
10
230.8
20
17
30
0
39
0
210
0
220
0
230
1
50
360
0
POINT
5
93
100
AcDbEntity
8
2
62
256
6
ByLayer
370
18
48
1
60
0
100
AcDbPoint
10
176
20
0
30
0
39
0
210
0
220
0
230
1
50
360
0
POINT
5
94
100
AcDbEntity
8
2
62
256
6
ByLayer
370
18
48
1
60
0
100
AcDbPoint
10
193.2
20
17
30
0
39
0
210
0
220
0
230
1
50
360
0
POINT
5
95
100
AcDbEntity
8
2
62
256
6
ByLayer
370
18
48
1
60
0
100
AcDbPoint
10
176
20
0
30
0
39
0
210
0
220
0
230
1
50
360
0
POINT
5
96
100
AcDbEntity
8
2
62
256
6
ByLayer
370
18
48
1
60
0
100
AcDbPoint
10
248
20
0
30
0
39
0
210
0
220
0
230
1
50
360
0
POINT
5
97
100
AcDbEntity
8
81
62
256
6
ByLayer
370
18
48
1
60
0
100
AcDbPoint
10
268
20
5
30
0
39
0
210
0
220
0
230
1
50
360
0
POINT
5
99
100
AcDbEntity
8
80
62
256
6
ByLayer
370
18
48
1
60
0
100
AcDbPoint
10
0
20
0
30
0
39
0
210
0
220
0
230
1
50
360
0
POINT
5
9B
100
AcDbEntity
8
1
62
256
6
ByLayer
370
13
48
1
60
1
100
AcDbPoint
10
260.05
20
-4.899495
30
0
39
0
210
0
220
0
230
1
50
360
0
POINT
5
9D
100
AcDbEntity
8
1
62
256
6
ByLayer
370
13
48
1
60
1
100
AcDbPoint
10
274.3
20
-4.899495
30
0
39
0
210
0
220
0
230
1
50
360
0
POINT
5
9E
100
AcDbEntity
8
1
62
256
6
ByLayer
370
13
48
1
60
1
100
AcDbPoint
10
267.52
20
0
30
0
39
0
210
0
220
0
230
1
50
360
0
POINT
5
9F
100
AcDbEntity
8
1
62
256
6
ByLayer
370
13
48
1
60
1
100
AcDbPoint
10
262.7
20
0
30
0
39
0
210
0
220
0
230
1
50
360
0
POINT
5
A0
100
AcDbEntity
8
1
62
256
6
ByLayer
370
13
48
1
60
1
100
AcDbPoint
10
264.330172
20
5
30
0
39
0
210
0
220
0
230
1
50
360
0
POINT
5
A1
100
AcDbEntity
8
1
62
256
6
ByLayer
370
13
48
1
60
1
100
AcDbPoint
10
269.82476
20
5
30
0
39
0
210
0
220
0
230
1
50
360
0
POINT
5
A2
100
AcDbEntity
8
1
62
256
6
ByLayer
370
13
48
1
60
1
100
AcDbPoint
10
260.05
20
14.899495
30
0
39
0
210
0
220
0
230
1
50
360
0
POINT
5
A3
100
AcDbEntity
8
1
62
256
6
ByLayer
370
13
48
1
60
1
100
AcDbPoint
10
274.3
20
14.899495
30
0
39
0
210
0
220
0
230
1
50
360
0
POINT
5
A4
100
AcDbEntity
8
1
62
256
6
ByLayer
370
18
48
1
60
1
100
AcDbPoint
10
29
20
-25
30
0
39
0
210
0
220
0
230
1
50
360
0
POINT
5
A5
100
AcDbEntity
8
1
62
256
6
ByLayer
370
18
48
1
60
1
100
AcDbPoint
10
268
20
25
30
0
39
0
210
0
220
0
230
1
50
360
0
SPLINE
5
19E
100
AcDbEntity
8
1
62
256
6
ByLayer
370
18
48
1
60
0
100
AcDbSpline
70
4
71
3
72
10
73
6
40
0
40
0
40
0
40
0
40
0.5
40
0.5
40
1
40
1
40
1
40
1
41
1
10
16.0875000000001
20
21.0560949889959
30
0
41
1
10
15.8506426439459
20
21.6199031911644
30
0
41
1
10
15.6099927740462
20
22.1821015374399
30
0
41
1
10
15.1223105694379
20
23.3032807805062
30
0
41
1
10
14.8752484831935
20
23.8623300660154
30
0
41
1
10
14.6253876765867
20
24.4200409500066
30
0
0
SPLINE
5
19F
100
AcDbEntity
8
1
62
256
6
ByLayer
370
18
48
1
60
0
100
AcDbSpline
70
4
71
3
72
8
73
4
40
0
40
0
40
0
40
0
40
1
40
1
40
1
40
1
41
1
10
16.0875000000001
20
27.8046997814329
30
0
41
1
10
15.6013682901507
20
28.6810104197576
30
0
41
1
10
15.1138933954394
20
29.5565832425009
30
0
41
1
10
14.6253876765867
20
30.4315723180712
30
0
0
SPLINE
5
1A0
100
AcDbEntity
8
1
62
256
6
ByLayer
370
18
48
1
60
0
100
AcDbSpline
70
4
71
3
72
12
73
8
40
0
40
0
40
0
40
0
40
0.5
40
0.5
40
0.75
40
0.75
40
1
40
1
40
1
40
1
41
1
10
21.3746123234135
20
24.4200409500066
30
0
41
1
10
21.124747358991
20
23.8623207854119
30
0
41
1
10
20.8776812078724
20
23.3032621748527
30
0
41
1
10
20.511913629054
20
22.4623636727486
30
0
41
1
10
20.3907974787063
20
22.1816785476824
30
0
41
1
10
20.1502979344707
20
21.6194796603244
30
0
41
1
10
20.0308935038537
20
21.3379153625243
30
0
41
1
10
19.9125000000001
20
21.0560949889958
30
0
0
SPLINE
5
1A1
100
AcDbEntity
8
1
62
256
6
ByLayer
370
18
48
1
60
0
100
AcDbSpline
70
4
71
3
72
8
73
4
40
0
40
0
40
0
40
0
40
1
40
1
40
1
40
1
41
1
10
21.3746123234135
20
30.4315723180712
30
0
41
1
10
20.8861066045608
20
29.5565832425009
30
0
41
1
10
20.3986317098495
20
28.6810104197575
30
0
41
1
10
19.9125000000001
20
27.8046997814329
30
0
0
SPLINE
5
1A2
100
AcDbEntity
8
1
62
256
6
ByLayer
370
18
48
1
60
0
100
AcDbSpline
70
4
71
3
72
28
73
24
40
0
40
0
40
0
40
0
40
0.0312499999999948
40
0.0312499999999948
40
0.0624999999999896
40
0.0624999999999896
40
0.124999999999997
40
0.124999999999997
40
0.187500000000004
40
0.187500000000004
40
0.250000000000011
40
0.250000000000011
40
0.375000000000012
40
0.375000000000012
40
0.437500000000013
40
0.437500000000013
40
0.500000000000013
40
0.500000000000013
40
0.625000000000014
40
0.625000000000014
40
0.750000000000015
40
0.750000000000015
40
1
40
1
40
1
40
1
41
1
10
16.4875000000001
20
26.3999999999999
30
0
41
1
10
16.482021811732
20
26.3999999999999
30
0
41
1
10
16.4764592722499
20
26.3999999999999
30
0
41
1
10
16.4656012812888
20
26.3999999999999
30
0
41
1
10
16.4602658912546
20
26.3999999999999
30
0
41
1
10
16.444515236173
20
26.3999999999999
30
0
41
1
10
16.4343199762314
20
26.3999999999999
30
0
41
1
10
16.4153703180138
20
26.3999999999999
30
0
41
1
10
16.4064703778981
20
26.3999999999999
30
0
41
1
10
16.3895195476015
20
26.3999999999999
30
0
41
1
10
16.3815789387688
20
26.3999999999999
30
0
41
1
10
16.3591671821829
20
26.3999999999999
30
0
41
1
10
16.3459317556311
20
26.3999999999999
30
0
41
1
10
16.3276061332822
20
26.3999999999999
30
0
41
1
10
16.3217743290004
20
26.3999999999999
30
0
41
1
10
16.3106587768623
20
26.3999999999999
30
0
41
1
10
16.3053571530061
20
26.3999999999999
30
0
41
1
10
16.2900791502381
20
26.3999999999999
30
0
41
1
10
16.28072240469
20
26.3999999999999
30
0
41
1
10
16.2632042143623
20
26.3999999999999
30
0
41
1
10
16.2550476678602
20
26.3999999999999
30
0
41
1
10
16.2319851817064
20
26.3999999999999
30
0
41
1
10
16.2184660040618
20
26.3999999999999
30
0
41
1
10
16.2062397274628
20
26.3999999999999
30
0
0
SPLINE
5
1A3
100
AcDbEntity
8
1
62
256
6
ByLayer
370
18
48
1
60
0
100
AcDbSpline
70
4
71
3
72
20
73
16
40
0
40
0
40
0
40
0
40
0.125000000000001
40
0.125000000000001
40
0.250000000000002
40
0.250000000000002
40
0.375000000000002
40
0.375000000000002
40
0.500000000000003
40
0.500000000000003
40
0.750000000000004
40
0.750000000000004
40
0.875000000000002
40
0.875000000000002
40
1
40
1
40
1
40
1
41
1
10
16.2062397274629
20
26.3999999999999
30
0
41
1
10
16.1967797092233
20
26.4097769359915
30
0
41
1
10
16.1877865639474
20
26.4200440728324
30
0
41
1
10
16.1707472360251
20
26.4415726253039
30
0
41
1
10
16.1627374972285
20
26.4527970849145
30
0
41
1
10
16.1479195864139
20
26.4758754239805
30
0
41
1
10
16.1410798508728
20
26.4877681435597
30
0
41
1
10
16.1285373835997
20
26.5122597909392
30
0
41
1
10
16.122891898764
20
26.5247523636756
30
0
41
1
10
16.1078550131527
20
26.5627233580409
30
0
41
1
10
16.1002979661202
20
26.5887831485561
30
0
41
1
10
16.0926384458534
20
26.6289838896684
30
0
41
1
10
16.0906975852377
20
26.6426443681819
30
0
41
1
10
16.0881328445339
20
26.669914771909
30
0
41
1
10
16.0875000000002
20
26.6835224093322
30
0
41
1
10
16.0875000000001
20
26.6971031902318
30
0
0
SPLINE
5
1A4
100
AcDbEntity
8
1
62
256
6
ByLayer
370
18
48
1
60
0
100
AcDbSpline
70
4
71
3
72
40
73
36
40
0
40
0
40
0
40
0
40
0.0156465734672854
40
0.0156465734672854
40
0.0312931469345708
40
0.0312931469345708
40
0.0469397204018563
40
0.0469397204018563
40
0.0625862938691417
40
0.0625862938691417
40
0.0782328673364271
40
0.0782328673364271
40
0.0938794408037125
40
0.0938794408037125
40
0.125172587738282
40
0.125172587738282
40
0.156465734672852
40
0.156465734672852
40
0.187758881607421
40
0.187758881607421
40
0.250345175476559
40
0.250345175476559
40
0.312931469345696
40
0.312931469345696
40
0.375517763214833
40
0.375517763214833
40
0.438104057083971
40
0.438104057083971
40
0.500690350953108
40
0.500690350953108
40
0.625862938691381
40
0.625862938691381
40
0.751035526429654
40
0.751035526429654
40
1
40
1
40
1
40
1
41
1
10
16.4874999999999
20
-26.4000000000001
30
0
41
1
10
16.4798226919548
20
-26.4000000000001
30
0
41
1
10
16.4721313914732
20
-26.4000000000001
30
0
41
1
10
16.4568522436318
20
-26.4000000000001
30
0
41
1
10
16.4494772923284
20
-26.4000000000001
30
0
41
1
10
16.4351671530004
20
-26.4000000000001
30
0
41
1
10
16.4281891178926
20
-26.4000000000001
30
0
41
1
10
16.4149395960545
20
-26.4000000000001
30
0
41
1
10
16.4086337977331
20
-26.4000000000001
30
0
41
1
10
16.3965205954805
20
-26.4
30
0
41
1
10
16.3907140529182
20
-26.4000000000001
30
0
41
1
10
16.3795076620279
20
-26.4000000000001
30
0
41
1
10
16.3741086482299
20
-26.4000000000001
30
0
41
1
10
16.3586431413253
20
-26.4000000000001
30
0
41
1
10
16.3492000188149
20
-26.4000000000001
30
0
41
1
10
16.3314863257431
20
-26.4000000000001
30
0
41
1
10
16.3232230075454
20
-26.4000000000001
30
0
41
1
10
16.3075782779868
20
-26.4000000000001
30
0
41
1
10
16.3001895460748
20
-26.4000000000001
30
0
41
1
10
16.2792934397998
20
-26.4
30
0
41
1
10
16.2669360687866
20
-26.4000000000001
30
0
41
1
10
16.2442610364963
20
-26.4000000000001
30
0
41
1
10
16.2339615373227
20
-26.4000000000001
30
0
41
1
10
16.2148941560712
20
-26.4000000000001
30
0
41
1
10
16.2061321375886
20
-26.4000000000001
30
0
41
1
10
16.1898412140385
20
-26.4000000000001
30
0
41
1
10
16.1823146974543
20
-26.4000000000001
30
0
41
1
10
16.1683069562401
20
-26.4000000000001
30
0
41
1
10
16.1618205605638
20
-26.4000000000001
30
0
41
1
10
16.14383013168
20
-26.4000000000001
30
0
41
1
10
16.1337477874992
20
-26.4000000000001
30
0
41
1
10
16.1166941300889
20
-26.4000000000001
30
0
41
1
10
16.1097316710735
20
-26.4000000000001
30
0
41
1
10
16.0931251379543
20
-26.4000000000001
30
0
41
1
10
16.0875506601206
20
-26.4000000000001
30
0
41
1
10
16.0875050000013
20
-26.4000000000001
30
0
0
SPLINE
5
1A5
100
AcDbEntity
8
1
62
256
6
ByLayer
370
18
48
1
60
0
100
AcDbSpline
70
4
71
3
72
18
73
14
40
0
40
0
40
0
40
0
40
0.250000000000004
40
0.250000000000004
40
0.375000000000004
40
0.375000000000004
40
0.500000000000003
40
0.500000000000003
40
0.625000000000002
40
0.625000000000002
40
0.750000000000001
40
0.750000000000001
40
1
40
1
40
1
40
1
41
1
10
19.9125000000001
20
26.6971031902339
30
0
41
1
10
19.9125000000001
20
26.6698685852524
30
0
41
1
10
19.9099731220321
20
26.6428008079354
30
0
41
1
10
19.9023171455653
20
26.6024543576673
30
0
41
1
10
19.8990996570473
20
26.5890078696329
30
0
41
1
10
19.8914472157244
20
26.5626603688926
30
0
41
1
10
19.8870068479358
20
26.5497093197237
30
0
41
1
10
19.8768945845806
20
26.5242537963243
30
0
41
1
10
19.8712052336605
20
26.5117157078945
30
0
41
1
10
19.8586326634776
20
26.4872501038807
30
0
41
1
10
19.851800926805
20
26.47541426105
30
0
41
1
10
19.8297015430665
20
26.4410741899465
30
0
41
1
10
19.8128462606137
20
26.4197253830843
30
0
41
1
10
19.7937602725374
20
26.3999999999999
30
0
0
SPLINE
5
1A6
100
AcDbEntity
8
1
62
256
6
ByLayer
370
18
48
1
60
0
100
AcDbSpline
70
4
71
3
72
26
73
22
40
0
40
0
40
0
40
0
40
0.250000000000024
40
0.250000000000024
40
0.375000000000036
40
0.375000000000036
40
0.500000000000048
40
0.500000000000048
40
0.625000000000056
40
0.625000000000056
40
0.750000000000063
40
0.750000000000063
40
0.812500000000062
40
0.812500000000062
40
0.875000000000061
40
0.875000000000061
40
0.906250000000051
40
0.906250000000051
40
0.93750000000004
40
0.93750000000004
40
1
40
1
40
1
40
1
41
1
10
19.7937602725374
20
26.3999999999999
30
0
41
1
10
19.7815965948293
20
26.3999999999999
30
0
41
1
10
19.7680948871377
20
26.3999999999999
30
0
41
1
10
19.7448398153968
20
26.3999999999999
30
0
41
1
10
19.7366017306861
20
26.3999999999999
30
0
41
1
10
19.7189550314072
20
26.3999999999999
30
0
41
1
10
19.7095419248779
20
26.3999999999999
30
0
41
1
10
19.6890999939952
20
26.3999999999999
30
0
41
1
10
19.678066877177
20
26.3999999999999
30
0
41
1
10
19.6536255684365
20
26.3999999999999
30
0
41
1
10
19.6403645548573
20
26.3999999999999
30
0
41
1
10
19.6178061592549
20
26.3999999999999
30
0
41
1
10
19.6099072259905
20
26.3999999999999
30
0
41
1
10
19.593194514367
20
26.3999999999999
30
0
41
1
10
19.584373956896
20
26.3999999999999
30
0
41
1
10
19.570156868774
20
26.3999999999999
30
0
41
1
10
19.5652211218731
20
26.3999999999999
30
0
41
1
10
19.5551852979552
20
26.3999999999999
30
0
41
1
10
19.550070213871
20
26.3999999999999
30
0
41
1
10
19.5343992171814
20
26.3999999999999
30
0
41
1
10
19.5233590822779
20
26.3999999999999
30
0
41
1
10
19.5125000000001
20
26.3999999999999
30
0
0
SPLINE
5
1A7
100
AcDbEntity
8
1
62
256
6
ByLayer
370
18
48
1
60
0
100
AcDbSpline
70
4
71
3
72
28
73
24
40
0
40
0
40
0
40
0
40
0.0748212973330802
40
0.0748212973330802
40
0.190468635166449
40
0.190468635166449
40
0.306115972999817
40
0.306115972999817
40
0.421763310833186
40
0.421763310833186
40
0.537410648666554
40
0.537410648666554
40
0.653057986499923
40
0.653057986499923
40
0.768705324333289
40
0.768705324333289
40
0.826528993249967
40
0.826528993249967
40
0.884352662166644
40
0.884352662166644
40
0.942176331083322
40
0.942176331083322
40
1
40
1
40
1
40
1
41
1
10
19.8552200000011
20
-26.4000000000001
30
0
41
1
10
19.8517337517213
20
-26.4000000000001
30
0
41
1
10
19.8480607994626
20
-26.4000000000001
30
0
41
1
10
19.838205522847
20
-26.4000000000001
30
0
41
1
10
19.8317344836364
20
-26.4000000000001
30
0
41
1
10
19.8177256509176
20
-26.4000000000001
30
0
41
1
10
19.8102032010589
20
-26.4000000000001
30
0
41
1
10
19.7939372623681
20
-26.4000000000001
30
0
41
1
10
19.785195992305
20
-26.4000000000001
30
0
41
1
10
19.7662004633518
20
-26.4000000000001
30
0
41
1
10
19.7559515593261
20
-26.4000000000001
30
0
41
1
10
19.7334364641737
20
-26.4000000000001
30
0
41
1
10
19.7211864060721
20
-26.4000000000001
30
0
41
1
10
19.6936726787182
20
-26.4000000000001
30
0
41
1
10
19.6784725350733
20
-26.4000000000001
30
0
41
1
10
19.6515406321408
20
-26.4000000000001
30
0
41
1
10
19.6420107395916
20
-26.4000000000001
30
0
41
1
10
19.6213830913965
20
-26.4000000000001
30
0
41
1
10
19.6103019250376
20
-26.4000000000001
30
0
41
1
10
19.5856479862609
20
-26.4000000000001
30
0
41
1
10
19.5724441081096
20
-26.4000000000001
30
0
41
1
10
19.5433575509738
20
-26.4000000000001
30
0
41
1
10
19.5282541033154
20
-26.4000000000001
30
0
41
1
10
19.5124999999999
20
-26.4000000000001
30
0
0
SPLINE
5
1A8
100
AcDbEntity
8
1
62
256
6
ByLayer
370
18
48
1
60
0
100
AcDbSpline
70
4
71
3
72
27
73
23
40
0
40
0
40
0
40
0
40
0.125647187230127
40
0.125647187230127
40
0.251294374460254
40
0.251294374460254
40
0.502588748920508
40
0.502588748920508
40
0.628235936150634
40
0.628235936150634
40
0.753883123380761
40
0.753883123380761
40
0.879530310610888
40
0.879530310610888
40
0.942353904225952
40
0.942353904225952
40
0.973765701033483
40
0.989471599437249
40
0.997324548639132
40
0.999287785939603
40
0.999287785939603
40
1
40
1
40
1
40
1
41
1
10
26.0017486131811
20
-26.4000000000001
30
0
41
1
10
26.0059212749394
20
-26.4000000000001
30
0
41
1
10
26.0173035459314
20
-26.4000000000001
30
0
41
1
10
26.0499395290138
20
-26.4000000000001
30
0
41
1
10
26.0712036872566
20
-26.4000000000001
30
0
41
1
10
26.1436996572949
20
-26.4000000000001
30
0
41
1
10
26.2035526136155
20
-26.4000000000001
30
0
41
1
10
26.2881265195413
20
-26.4000000000001
30
0
41
1
10
26.3154692126153
20
-26.4000000000001
30
0
41
1
10
26.3651225626809
20
-26.4000000000001
30
0
41
1
10
26.3874242940378
20
-26.4000000000001
30
0
41
1
10
26.4242116083307
20
-26.4000000000001
30
0
41
1
10
26.4386846928085
20
-26.4000000000001
30
0
41
1
10
26.4531148340357
20
-26.4000000000001
30
0
41
1
10
26.4567199005976
20
-26.4000000000001
30
0
41
1
10
26.4602284649691
20
-26.4000000000001
30
0
41
1
10
26.461508926533
20
-26.4000000000001
30
0
41
1
10
26.462163776036
20
-26.4000000000001
30
0
41
1
10
26.4622726232526
20
-26.4000000000001
30
0
41
1
10
26.4622826242526
20
-26.4000000000001
30
0
41
1
10
26.4622916769853
20
-26.4000000000002
30
0
41
1
10
26.4622896963294
20
-26.4000000000002
30
0
41
1
10
26.4622860343837
20
-26.4000000000002
30
0
0
SPLINE
5
1A9
100
AcDbEntity
8
1
62
256
6
ByLayer
370
18
48
1
60
0
100
AcDbSpline
70
4
71
3
72
25
73
21
40
0
40
0
40
0
40
0
40
0.25128297866258
40
0.25128297866258
40
0.50256595732516
40
0.50256595732516
40
0.62820744665645
40
0.62820744665645
40
0.75384893598774
40
0.75384893598774
40
0.87949042531903
40
0.87949042531903
40
0.942311169984675
40
0.942311169984675
40
0.973721542317498
40
0.989426728483909
40
0.997279321567115
40
0.999242469837916
40
0.999242469837916
40
1
40
1
40
1
40
1
41
1
10
26.0280682622458
20
26.3999999999999
30
0
41
1
10
26.0549563995176
20
26.3999999999999
30
0
41
1
10
26.098202499477
20
26.3999999999999
30
0
41
1
10
26.1948094717769
20
26.3999999999999
30
0
41
1
10
26.2481814923981
20
26.3999999999999
30
0
41
1
10
26.3205392316453
20
26.3999999999999
30
0
41
1
10
26.3433891474361
20
26.3999999999999
30
0
41
1
10
26.3843362396029
20
26.3999999999999
30
0
41
1
10
26.4024277869447
20
26.3999999999999
30
0
41
1
10
26.4320467776134
20
26.3999999999999
30
0
41
1
10
26.4435677592677
20
26.3999999999999
30
0
41
1
10
26.4550267416145
20
26.3999999999999
30
0
41
1
10
26.4578814292766
20
26.3999999999999
30
0
41
1
10
26.4606583193317
20
26.3999999999999
30
0
41
1
10
26.4616710729433
20
26.3999999999999
30
0
41
1
10
26.4621889576731
20
26.3999999999999
30
0
41
1
10
26.4622630039988
20
26.3999999999999
30
0
41
1
10
26.4622730049988
20
26.3999999999999
30
0
41
1
10
26.4622883883022
20
26.3999999999999
30
0
41
1
10
26.4622899607151
20
26.3999999999999
30
0
41
1
10
26.4622872862444
20
26.3999999999999
30
0
0
SPLINE
5
1AA
100
AcDbEntity
8
1
62
256
6
ByLayer
370
18
48
1
60
0
100
AcDbSpline
70
4
71
3
72
53
73
49
40
0
40
0
40
0
40
0
40
0.0624999999999991
40
0.0624999999999991
40
0.124999999999998
40
0.124999999999998
40
0.187499999999997
40
0.187499999999997
40
0.203124999999997
40
0.203124999999997
40
0.218749999999997
40
0.218749999999997
40
0.249999999999997
40
0.249999999999997
40
0.312499999999996
40
0.312499999999996
40
0.374999999999996
40
0.374999999999996
40
0.406249999999996
40
0.406249999999996
40
0.421874999999996
40
0.421874999999996
40
0.437499999999996
40
0.437499999999996
40
0.499999999999996
40
0.499999999999996
40
0.562499999999997
40
0.562499999999997
40
0.624999999999997
40
0.624999999999997
40
0.640624999999997
40
0.640624999999997
40
0.656249999999997
40
0.687499999999997
40
0.687499999999997
40
0.749999999999998
40
0.749999999999998
40
0.812499999999998
40
0.812499999999998
40
0.843749999999998
40
0.843749999999998
40
0.859374999999999
40
0.859374999999999
40
0.874999999999999
40
0.874999999999999
40
0.937499999999999
40
0.937499999999999
40
1
40
1
40
1
40
1
41
1
10
4.95000000000012
20
31.4699951342545
30
0
41
1
10
4.95000000000012
20
31.4698476089309
30
0
41
1
10
4.96316148456403
20
31.4663482437805
30
0
41
1
10
5.01483326253916
20
31.4529824401189
30
0
41
1
10
5.05334632259866
20
31.4431153983589
30
0
41
1
10
5.15552174838186
20
31.4173251944317
30
0
41
1
10
5.21918321366867
20
31.4014014637224
30
0
41
1
10
5.31481265858481
20
31.3779016832463
30
0
41
1
10
5.33474305466247
20
31.3730219778239
30
0
41
1
10
5.37622898172674
20
31.3629078986404
30
0
41
1
10
5.39780590833254
20
31.3576684102907
30
0
41
1
10
5.46462463571714
20
31.3415165236844
30
0
41
1
10
5.5120488142752
20
31.3301472965835
30
0
41
1
10
5.6627760204626
20
31.2943892951813
30
0
41
1
10
5.77451273201872
20
31.2683509878205
30
0
41
1
10
6.02006473104055
20
31.2126594055855
30
0
41
1
10
6.15388041729047
20
31.1830046977939
30
0
41
1
10
6.37134836873938
20
31.1363910865798
30
0
41
1
10
6.44663359836241
20
31.1204980223428
30
0
41
1
10
6.56382727681567
20
31.0962003530904
30
0
41
1
10
6.60363097354957
20
31.0880191489025
30
0
41
1
10
6.68455656030872
20
31.0715414521729
30
0
41
1
10
6.72557231063091
20
31.0632664878015
30
0
41
1
10
6.93338647885241
20
31.0217492547395
30
0
41
1
10
7.10836961999735
20
30.9880811451731
30
0
41
1
10
7.47540396108064
20
30.9207839071198
30
0
41
1
10
7.66745608423199
20
30.8871531261034
30
0
41
1
10
8.06876163464815
20
30.820867822267
30
0
41
1
10
8.27801337795127
20
30.7882116103006
30
0
41
1
10
8.55074524405757
20
30.7486137736258
30
0
41
1
10
8.60592716662786
20
30.7407450951662
30
0
41
1
10
8.7169052046299
20
30.72521871645
30
0
41
1
10
8.88436668666495
20
30.7022336947394
30
0
41
1
10
9.0547842764669
20
30.6802165246348
30
0
41
1
10
9.39951696413316
20
30.6376146650815
30
0
41
1
10
9.63452623072516
20
30.6111232682603
30
0
41
1
10
10.1149153789439
20
30.5627093850562
30
0
41
1
10
10.3602948471898
20
30.5407858131468
30
0
41
1
10
10.7363641534852
20
30.5119001269115
30
0
41
1
10
10.8630563144909
20
30.5029384070804
30
0
41
1
10
11.0551489977477
20
30.4905711455267
30
0
41
1
10
11.1195899808494
20
30.4866243994951
30
0
41
1
10
11.2485709831099
20
30.4791355756795
30
0
41
1
10
11.3131637273307
20
30.4755896793321
30
0
41
1
10
11.6366359254662
20
30.458863680073
30
0
41
1
10
11.8970373100374
20
30.4486945546454
30
0
41
1
10
12.4210740916658
20
30.4350490385151
30
0
41
1
10
12.6847093748944
20
30.4315723180712
30
0
41
1
10
12.9500000000001
20
30.4315723180712
30
0
0
SPLINE
5
1AB
100
AcDbEntity
8
1
62
256
6
ByLayer
370
18
48
1
60
0
100
AcDbSpline
70
4
71
3
72
53
73
49
40
0
40
0
40
0
40
0
40
0.0624999999999989
40
0.0624999999999989
40
0.124999999999998
40
0.124999999999998
40
0.187499999999997
40
0.187499999999997
40
0.203124999999996
40
0.203124999999996
40
0.218749999999996
40
0.218749999999996
40
0.249999999999996
40
0.249999999999996
40
0.312499999999996
40
0.312499999999996
40
0.374999999999995
40
0.374999999999995
40
0.406249999999995
40
0.406249999999995
40
0.421874999999995
40
0.421874999999995
40
0.437499999999995
40
0.437499999999995
40
0.499999999999996
40
0.499999999999996
40
0.562499999999997
40
0.562499999999997
40
0.624999999999997
40
0.624999999999997
40
0.640624999999997
40
0.640624999999997
40
0.656249999999997
40
0.687499999999998
40
0.687499999999998
40
0.749999999999998
40
0.749999999999998
40
0.812499999999998
40
0.812499999999998
40
0.843749999999998
40
0.843749999999998
40
0.859374999999998
40
0.859374999999998
40
0.874999999999999
40
0.874999999999999
40
0.937499999999999
40
0.937499999999999
40
1
40
1
40
1
40
1
41
1
10
12.9499999999999
20
-30.1503829784963
30
0
41
1
10
12.6841313593865
20
-30.1503829784963
30
0
41
1
10
12.4206474984049
20
-30.1543453879132
30
0
41
1
10
11.8982638705434
20
-30.1697869707438
30
0
41
1
10
11.6393646026071
20
-30.1812667142532
30
0
41
1
10
11.1260959657864
20
-30.2113619657957
30
0
41
1
10
10.8717264718106
20
-30.2299778939184
30
0
41
1
10
10.5566391253123
20
-30.2574763990119
30
0
41
1
10
10.4937656966582
20
-30.2631875405795
30
0
41
1
10
10.368309303338
20
-30.275026930796
30
0
41
1
10
10.3057219374418
20
-30.2811564366936
30
0
41
1
10
10.1194618268703
20
-30.3000493570684
30
0
41
1
10
9.99692951457183
20
-30.3133501209503
30
0
41
1
10
9.63413312205698
20
-30.3551895350746
30
0
41
1
10
9.39865793344241
20
-30.3856634558139
30
0
41
1
10
8.94013129968286
20
-30.4508771444522
30
0
41
1
10
8.71708027746809
20
-30.4856182415107
30
0
41
1
10
8.39183435684615
20
-30.5402922027968
30
0
41
1
10
8.2849769890887
20
-30.5589441303185
30
0
41
1
10
8.1270559476546
20
-30.5874838229592
30
0
41
1
10
8.07474052483514
20
-30.5971038147968
30
0
41
1
10
7.971324767184
20
-30.616438827492
30
0
41
1
10
7.92022166488184
20
-30.6261537581165
30
0
41
1
10
7.66769106088216
20
-30.674925228277
30
0
41
1
10
7.47519443651612
20
-30.7145691260909
30
0
41
1
10
7.1086548393416
20
-30.7941358726583
30
0
41
1
10
6.93461315369402
20
-30.8340604486317
30
0
41
1
10
6.60496316861732
20
-30.913266496599
30
0
41
1
10
6.44935329682464
20
-30.9525496389803
30
0
41
1
10
6.26671018689754
20
-31.0006744484452
30
0
41
1
10
6.2307796168988
20
-31.0102499429787
30
0
41
1
10
6.16050409576204
20
-31.0291838688348
30
0
41
1
10
6.05731623933828
20
-31.0572994179037
30
0
41
1
10
5.9607330741634
20
-31.0845086951601
30
0
41
1
10
5.7762484438188
20
-31.137589019802
30
0
41
1
10
5.66481288123542
20
-31.1711913504447
30
0
41
1
10
5.46492163805159
20
-31.2341535567076
30
0
41
1
10
5.37646500709735
20
-31.2635146855691
30
0
41
1
10
5.26144287268454
20
-31.3038663020077
30
0
41
1
10
5.22605148530548
20
-31.3167016610254
30
0
41
1
10
5.17749558495785
20
-31.334965364922
30
0
41
1
10
5.16207042207287
20
-31.340887023016
30
0
41
1
10
5.13289039673234
20
-31.3523337498622
30
0
41
1
10
5.11911462028131
20
-31.3578665960225
30
0
41
1
10
5.05428379043063
20
-31.3845694043971
30
0
41
1
10
5.01534301301398
20
-31.4028553327579
30
0
41
1
10
4.96320171145753
20
-31.433046335086
30
0
41
1
10
4.94999999999989
20
-31.4449518407133
30
0
41
1
10
4.94999999999989
20
-31.4535466005028
30
0
0
SPLINE
5
1AC
100
AcDbEntity
8
1
62
256
6
ByLayer
370
18
48
1
60
0
100
AcDbSpline
70
4
71
3
72
45
73
41
40
0
40
0
40
0
40
0
40
0.0624999999999973
40
0.0624999999999973
40
0.124999999999995
40
0.124999999999995
40
0.187499999999992
40
0.187499999999992
40
0.203124999999991
40
0.203124999999991
40
0.218749999999991
40
0.218749999999991
40
0.249999999999989
40
0.249999999999989
40
0.312499999999988
40
0.312499999999988
40
0.374999999999986
40
0.374999999999986
40
0.406249999999985
40
0.421874999999985
40
0.421874999999985
40
0.437499999999985
40
0.437499999999985
40
0.499999999999986
40
0.499999999999986
40
0.562499999999987
40
0.562499999999987
40
0.624999999999989
40
0.624999999999989
40
0.640624999999989
40
0.640624999999989
40
0.65624999999999
40
0.65624999999999
40
0.687499999999992
40
0.687499999999992
40
0.749999999999994
40
0.749999999999994
40
0.874999999999997
40
0.874999999999997
40
1
40
1
40
1
40
1
41
1
10
12.1956203456894
20
24.4200409500065
30
0
41
1
10
11.9759339284873
20
24.4200409500065
30
0
41
1
10
11.7583248060652
20
24.4127074179385
30
0
41
1
10
11.3270848993939
20
24.3839386530955
30
0
41
1
10
11.1134547056099
20
24.3625011198197
30
0
41
1
10
10.6901035240454
20
24.3056038437388
30
0
41
1
10
10.4803827549289
20
24.2701435456968
30
0
41
1
10
10.2206901328042
20
24.2168315972934
30
0
41
1
10
10.1688747482697
20
24.205718817418
30
0
41
1
10
10.0654915217628
20
24.1825826465595
30
0
41
1
10
10.0138582555168
20
24.1705425488761
30
0
41
1
10
9.86011701382476
20
24.1332343953865
30
0
41
1
10
9.75899909269474
20
24.1067468964487
30
0
41
1
10
9.45963651748916
20
24.0225304764547
30
0
41
1
10
9.26537564622211
20
23.9600575830852
30
0
41
1
10
8.88695628215891
20
23.8226742810017
30
0
41
1
10
8.70279973502882
20
23.7477618111634
30
0
41
1
10
8.43391201880769
20
23.6260043199278
30
0
41
1
10
8.30130718635615
20
23.5627752021059
30
0
41
1
10
8.17143577115024
20
23.49598276546
30
0
41
1
10
8.0854606065222
20
23.4506566866419
30
0
41
1
10
8.04288957259092
20
23.4276543776726
30
0
41
1
10
7.83231360064816
20
23.311091922816
30
0
41
1
10
7.67087988193634
20
23.212752963373
30
0
41
1
10
7.36101732450736
20
23.0061760538759
30
0
41
1
10
7.21259155009511
20
22.8979363634043
30
0
41
1
10
6.92796256802139
20
22.6716713696083
30
0
41
1
10
6.79176136423079
20
22.5536449583075
30
0
41
1
10
6.62877486055871
20
22.3999925415235
30
0
41
1
10
6.59654118645183
20
22.3689558373227
30
0
41
1
10
6.53279309131632
20
22.3062689833204
30
0
41
1
10
6.5013131816695
20
22.2746516436256
30
0
41
1
10
6.4082738883652
20
22.179234275698
30
0
41
1
10
6.34801389290473
20
22.1147708752695
30
0
41
1
10
6.17226321560707
20
21.9188742079098
30
0
41
1
10
6.06179410768465
20
21.784936542704
30
0
41
1
10
5.74865705723425
20
21.3734069993164
30
0
41
1
10
5.56418709064188
20
21.0861176330193
30
0
41
1
10
5.236524907316
20
20.4866364512196
30
0
41
1
10
5.09337039057033
20
20.1744346090999
30
0
41
1
10
4.9682154922604
20
19.85
30
0
0
SPLINE
5
1AD
100
AcDbEntity
8
1
62
256
6
ByLayer
370
18
48
1
60
0
100
AcDbSpline
70
4
71
3
72
12
73
8
40
0
40
0
40
0
40
0
40
0.500000000000002
40
0.500000000000002
40
0.750000000000001
40
0.750000000000001
40
1
40
1
40
1
40
1
41
1
10
21.3746123234134
20
19.8499999999999
30
0
41
1
10
21.1247500405128
20
19.8499999999999
30
0
41
1
10
20.8776825838395
20
19.8499999999999
30
0
41
1
10
20.5119066576935
20
19.8499999999999
30
0
41
1
10
20.3907866606824
20
19.8499999999999
30
0
41
1
10
20.1502772377169
20
19.8499999999999
30
0
41
1
10
20.0308737179775
20
19.8499999999999
30
0
41
1
10
19.9125000000001
20
19.8499999999999
30
0
0
SPLINE
5
1AE
100
AcDbEntity
8
1
62
256
6
ByLayer
370
18
48
1
60
0
100
AcDbSpline
70
4
71
3
72
8
73
4
40
0
40
0
40
0
40
0
40
1
40
1
40
1
40
1
41
1
10
21.3746123234133
20
-30.1503829784964
30
0
41
1
10
20.8857665817205
20
-29.2666188421691
30
0
41
1
10
20.3982595400865
20
-28.3821097116547
30
0
41
1
10
19.9124999999999
20
-27.4966603414964
30
0
0
SPLINE
5
1AF
100
AcDbEntity
8
1
62
256
6
ByLayer
370
18
48
1
60
0
100
AcDbSpline
70
4
71
3
72
12
73
8
40
0
40
0
40
0
40
0
40
0.25
40
0.25
40
0.5
40
0.5
40
1
40
1
40
1
40
1
41
1
10
16.0875000000001
20
19.8499999999999
30
0
41
1
10
15.9690799505245
20
19.8499999999999
30
0
41
1
10
15.8496879036794
20
19.8499999999999
30
0
41
1
10
15.6091851802385
20
19.8499999999999
30
0
41
1
10
15.4880685888112
20
19.8499999999999
30
0
41
1
10
15.1223030300325
20
19.8499999999999
30
0
41
1
10
14.8752426852368
20
19.8499999999999
30
0
41
1
10
14.6253876765867
20
19.8499999999999
30
0
0
SPLINE
5
1B0
100
AcDbEntity
8
1
62
256
6
ByLayer
370
18
48
1
60
0
100
AcDbSpline
70
4
71
3
72
8
73
4
40
0
40
0
40
0
40
0
40
1
40
1
40
1
40
1
41
1
10
16.0874999999999
20
-27.4966603414964
30
0
41
1
10
15.6017404599133
20
-28.3821097116547
30
0
41
1
10
15.1142334182793
20
-29.2666188421691
30
0
41
1
10
14.6253876765865
20
-30.1503829784964
30
0
0
SPLINE
5
1B1
100
AcDbEntity
8
SK1
62
256
6
ByLayer
370
18
48
1
60
0
100
AcDbSpline
70
4
71
3
72
18
73
14
40
0
40
0
40
0
40
0
40
0.25
40
0.25
40
0.499999999999999
40
0.499999999999999
40
0.749999999999999
40
0.749999999999999
40
0.874999999999998
40
0.874999999999998
40
0.937499999999999
40
0.937499999999999
40
1
40
1
40
1
40
1
41
1
10
-30.7600449304181
20
20.834310484856
30
0
41
1
10
-30.8005304147288
20
20.7918881716244
30
0
41
1
10
-30.8391903518072
20
20.7469260622846
30
0
41
1
10
-30.9108217629841
20
20.6529591719931
30
0
41
1
10
-30.9438142125758
20
20.6039429159937
30
0
41
1
10
-31.0007051028079
20
20.5035329800828
30
0
41
1
10
-31.0245900033693
20
20.4521521286423
30
0
41
1
10
-31.0497392687941
20
20.3751260560867
30
0
41
1
10
-31.0563287190666
20
20.3494639188075
30
0
41
1
10
-31.0630301448816
20
20.3111943798817
30
0
41
1
10
-31.0647340773198
20
20.2984745535366
30
0
41
1
10
-31.0670149098382
20
20.2731305775176
30
0
41
1
10
-31.0675855446106
20
20.2605639288719
30
0
41
1
10
-31.0675798041816
20
20.2481331121863
30
0
0
SPLINE
5
1B2
100
AcDbEntity
8
SK1
62
256
6
ByLayer
370
18
48
1
60
0
100
AcDbSpline
70
4
71
3
72
86
73
82
40
0
40
0
40
0
40
0
40
0.0625000000000146
40
0.0625000000000146
40
0.0937500000000218
40
0.0937500000000218
40
0.125000000000029
40
0.125000000000029
40
0.187500000000044
40
0.187500000000044
40
0.250000000000058
40
0.250000000000058
40
0.312500000000073
40
0.312500000000073
40
0.34375000000008
40
0.34375000000008
40
0.375000000000086
40
0.375000000000086
40
0.406250000000093
40
0.406250000000093
40
0.421875000000096
40
0.421875000000096
40
0.4375000000001
40
0.4375000000001
40
0.453125000000104
40
0.453125000000104
40
0.468750000000108
40
0.468750000000108
40
0.47656250000011
40
0.47656250000011
40
0.484375000000113
40
0.484375000000113
40
0.488281250000113
40
0.488281250000113
40
0.492187500000114
40
0.492187500000114
40
0.496093750000115
40
0.496093750000115
40
0.500000000000115
40
0.500000000000115
40
0.503906250000116
40
0.503906250000116
40
0.507812500000116
40
0.507812500000116
40
0.511718750000117
40
0.511718750000117
40
0.515625000000117
40
0.515625000000117
40
0.519531250000118
40
0.519531250000118
40
0.523437500000118
40
0.523437500000118
40
0.531250000000118
40
0.531250000000118
40
0.539062500000117
40
0.539062500000117
40
0.546875000000116
40
0.546875000000116
40
0.562500000000114
40
0.562500000000114
40
0.570312500000113
40
0.570312500000113
40
0.578125000000111
40
0.578125000000111
40
0.593750000000108
40
0.593750000000108
40
0.6250000000001
40
0.6250000000001
40
0.656250000000092
40
0.656250000000092
40
0.687500000000084
40
0.687500000000084
40
0.750000000000067
40
0.750000000000067
40
0.81250000000005
40
0.81250000000005
40
0.875000000000034
40
0.875000000000034
40
0.937500000000017
40
0.937500000000017
40
1
40
1
40
1
40
1
41
1
10
-31.0675798041839
20
20.2481331121842
30
0
41
1
10
-31.0675534944799
20
20.1911598250595
30
0
41
1
10
-31.069055856239
20
20.1327741785482
30
0
41
1
10
-31.0736621007991
20
20.0430220169692
30
0
41
1
10
-31.0755906272496
20
20.0127414288744
30
0
41
1
10
-31.0802571040529
20
19.9514324154456
30
0
41
1
10
-31.0829973921191
20
19.9203813292839
30
0
41
1
10
-31.0924641772114
20
19.8262395233603
30
0
41
1
10
-31.1004220038532
20
19.7622144791399
30
0
41
1
10
-31.1199564688365
20
19.6313868500959
30
0
41
1
10
-31.1315270169386
20
19.5645889397037
30
0
41
1
10
-31.1589044208933
20
19.427741632586
30
0
41
1
10
-31.1746935451898
20
19.3577058453326
30
0
41
1
10
-31.2024754952607
20
19.2495066308992
30
0
41
1
10
-31.2124248807955
20
19.2129116020518
30
0
41
1
10
-31.2339922209398
20
19.1384408702744
30
0
41
1
10
-31.2456055269336
20
19.1005687352886
30
0
41
1
10
-31.2709786311792
20
19.023176971638
30
0
41
1
10
-31.284724971786
20
18.9836676720973
30
0
41
1
10
-31.3076341494911
20
18.92264633859
30
0
41
1
10
-31.31565616293
20
18.9020099191338
30
0
41
1
10
-31.3326866023335
20
18.8599799806349
30
0
41
1
10
-31.3417002622531
20
18.8385764999579
30
0
41
1
10
-31.3608223753417
20
18.7952734750923
30
0
41
1
10
-31.3709454828758
20
18.773325188451
30
0
41
1
10
-31.3927907938226
20
18.7285842604353
30
0
41
1
10
-31.4044932816837
20
18.705802029268
30
0
41
1
10
-31.4239870332907
20
18.6706043130996
30
0
41
1
10
-31.430813505529
20
18.65869744271
30
0
41
1
10
-31.4453941233626
20
18.6343971398108
30
0
41
1
10
-31.4530542422569
20
18.6221573264871
30
0
41
1
10
-31.465347631389
20
18.6036028649067
30
0
41
1
10
-31.4695806420623
20
18.5973852611454
30
0
41
1
10
-31.4783874629756
20
18.5848674254362
30
0
41
1
10
-31.4829710051464
20
18.5785556772675
30
0
41
1
10
-31.4924118347874
20
18.5660460149065
30
0
41
1
10
-31.4972842123298
20
18.5598250962617
30
0
41
1
10
-31.5074155755051
20
18.547469535794
30
0
41
1
10
-31.5127218227734
20
18.5412827337069
30
0
41
1
10
-31.5235937264865
20
18.529301799757
30
0
41
1
10
-31.5291328199052
20
18.5235319382216
30
0
41
1
10
-31.5404552063009
20
18.512514524003
30
0
41
1
10
-31.5462733934334
20
18.5072488249712
30
0
41
1
10
-31.5575893391608
20
18.4978203702407
30
0
41
1
10
-31.5631560757218
20
18.4935853099658
30
0
41
1
10
-31.5741129152166
20
18.4860428576642
30
0
41
1
10
-31.5793773870242
20
18.482825018003
30
0
41
1
10
-31.5893628312424
20
18.4774075684558
30
0
41
1
10
-31.5941206124756
20
18.4751832342693
30
0
41
1
10
-31.6032509622763
20
18.4715287801372
30
0
41
1
10
-31.6075259110806
20
18.4701363725632
30
0
41
1
10
-31.6196892919794
20
18.4669404158795
30
0
41
1
10
-31.626931817693
20
18.4661001055432
30
0
41
1
10
-31.6403099849974
20
18.4660679744845
30
0
41
1
10
-31.6463246677904
20
18.4668858294532
30
0
41
1
10
-31.6574273993906
20
18.469593734604
30
0
41
1
10
-31.6625210547536
20
18.4714922786134
30
0
41
1
10
-31.6768216409586
20
18.4783543828115
30
0
41
1
10
-31.6850662410959
20
18.4844629399589
30
0
41
1
10
-31.6962699976864
20
18.4950097031547
30
0
41
1
10
-31.6998073256463
20
18.4987693542862
30
0
41
1
10
-31.7065160959731
20
18.506635259966
30
0
41
1
10
-31.709692338417
20
18.5107457302965
30
0
41
1
10
-31.7187819764966
20
18.5235146894652
30
0
41
1
10
-31.7242610332234
20
18.5326059928097
30
0
41
1
10
-31.7394465274051
20
18.5611271858249
30
0
41
1
10
-31.7479242105624
20
18.581781517225
30
0
41
1
10
-31.7628979469376
20
18.6250648550228
30
0
41
1
10
-31.7693718252073
20
18.647715958541
30
0
41
1
10
-31.7809367752669
20
18.6943961188109
30
0
41
1
10
-31.7860209140009
20
18.7184320842855
30
0
41
1
10
-31.7997361246821
20
18.7920717910878
30
0
41
1
10
-31.80685805216
20
18.8432011946924
30
0
41
1
10
-31.8186080449852
20
18.9475492027825
30
0
41
1
10
-31.8232228476894
20
19.0008435080291
30
0
41
1
10
-31.8307411640382
20
19.1089534395517
30
0
41
1
10
-31.8336362373555
20
19.1637765692049
30
0
41
1
10
-31.8381282388222
20
19.2745768682289
30
0
41
1
10
-31.8397219150847
20
19.3305569284988
30
0
41
1
10
-31.8418206348239
20
19.4434848340782
30
0
41
1
10
-31.8423244915369
20
19.5004337344102
30
0
41
1
10
-31.8423156651182
20
19.557838405569
30
0
0
SPLINE
5
1B3
100
AcDbEntity
8
SK1
62
256
6
ByLayer
370
18
48
1
60
0
100
AcDbSpline
70
4
71
3
72
18
73
14
40
0
40
0
40
0
40
0
40
0.16666666666667
40
0.16666666666667
40
0.33333333333334
40
0.33333333333334
40
0.416666666666672
40
0.416666666666672
40
0.500000000000004
40
0.500000000000004
40
0.666666666666668
40
0.666666666666668
40
1
40
1
40
1
40
1
41
1
10
-31.8423156651182
20
19.557838405569
30
0
41
1
10
-31.8423124272775
20
19.5788964574041
30
0
41
1
10
-31.8431055401533
20
19.5975686520517
30
0
41
1
10
-31.8461332411617
20
19.6302929305893
30
0
41
1
10
-31.8483658328874
20
19.6443465600597
30
0
41
1
10
-31.8525269753937
20
19.6621378505256
30
0
41
1
10
-31.8540411331186
20
19.667488852856
30
0
41
1
10
-31.8572417503739
20
19.6770602932876
30
0
41
1
10
-31.8589305081703
20
19.6812910376213
30
0
41
1
10
-31.8641630823174
20
19.6924445617111
30
0
41
1
10
-31.86787185249
20
19.6978331581022
30
0
41
1
10
-31.8789048656755
20
19.7086926317289
30
0
41
1
10
-31.886117982338
20
19.7089022277164
30
0
41
1
10
-31.8914145256276
20
19.7035854332564
30
0
0
SPLINE
5
1B4
100
AcDbEntity
8
SK1
62
256
6
ByLayer
370
18
48
1
60
0
100
AcDbSpline
70
4
71
3
72
21
73
17
40
0
40
0
40
0
40
0
40
0.250000000000006
40
0.250000000000006
40
0.312500000000008
40
0.312500000000008
40
0.375000000000011
40
0.50000000000001
40
0.50000000000001
40
0.750000000000013
40
0.750000000000013
40
0.81250000000001
40
0.81250000000001
40
0.875000000000007
40
0.875000000000007
40
1
40
1
40
1
40
1
41
1
10
-31.8692807746815
20
-19.4903757489684
30
0
41
1
10
-31.8692299147199
20
-19.5264686106129
30
0
41
1
10
-31.8707678265069
20
-19.5562094579243
30
0
41
1
10
-31.8742083558995
20
-19.5856430155368
30
0
41
1
10
-31.8749676630486
20
-19.5911294589166
30
0
41
1
10
-31.8765888610101
20
-19.6012578213722
30
0
41
1
10
-31.8791786747931
20
-19.6152218635191
30
0
41
1
10
-31.8821019518081
20
-19.6256998513616
30
0
41
1
10
-31.888000237731
20
-19.6424693135637
30
0
41
1
10
-31.891999405525
20
-19.6480865530936
30
0
41
1
10
-31.8957563161763
20
-19.6493541979661
30
0
41
1
10
-31.8964456824745
20
-19.6493185096531
30
0
41
1
10
-31.8976676502274
20
-19.6486932038979
30
0
41
1
10
-31.8982008064946
20
-19.6481021409977
30
0
41
1
10
-31.8995113892775
20
-19.6455440347338
30
0
41
1
10
-31.9000000000001
20
-19.6427984456979
30
0
41
1
10
-31.9000000000001
20
-19.6391433762693
30
0
0
SPLINE
5
1B5
100
AcDbEntity
8
SK1
62
256
6
ByLayer
370
18
48
1
60
0
100
AcDbSpline
70
4
71
3
72
85
73
81
40
0
40
0
40
0
40
0
40
0.0625000000000021
40
0.0625000000000021
40
0.125000000000004
40
0.125000000000004
40
0.187500000000006
40
0.187500000000006
40
0.250000000000008
40
0.250000000000008
40
0.281250000000009
40
0.281250000000009
40
0.31250000000001
40
0.31250000000001
40
0.343750000000011
40
0.343750000000011
40
0.375000000000011
40
0.375000000000011
40
0.406250000000012
40
0.406250000000012
40
0.421875000000012
40
0.421875000000012
40
0.437500000000012
40
0.437500000000012
40
0.453125000000012
40
0.453125000000012
40
0.468750000000012
40
0.468750000000012
40
0.476562500000011
40
0.476562500000011
40
0.48437500000001
40
0.48437500000001
40
0.49218750000001
40
0.49218750000001
40
0.496093750000009
40
0.496093750000009
40
0.500000000000008
40
0.500000000000008
40
0.501953125000008
40
0.501953125000008
40
0.503906250000008
40
0.505859375000008
40
0.505859375000008
40
0.507812500000008
40
0.507812500000008
40
0.511718750000008
40
0.511718750000008
40
0.515625000000008
40
0.515625000000008
40
0.519531250000008
40
0.519531250000008
40
0.523437500000008
40
0.523437500000008
40
0.531250000000008
40
0.531250000000008
40
0.539062500000008
40
0.539062500000008
40
0.546875000000007
40
0.546875000000007
40
0.562500000000007
40
0.562500000000007
40
0.578125000000007
40
0.578125000000007
40
0.593750000000006
40
0.593750000000006
40
0.625000000000006
40
0.625000000000006
40
0.656250000000005
40
0.656250000000005
40
0.687500000000004
40
0.687500000000004
40
0.750000000000003
40
0.750000000000003
40
0.812500000000002
40
0.812500000000002
40
0.875000000000002
40
0.875000000000002
40
0.937500000000001
40
0.937500000000001
40
1
40
1
40
1
40
1
41
1
10
-30.9697797028105
20
-20.2918370725199
30
0
41
1
10
-30.9693805484015
20
-20.2242325067996
30
0
41
1
10
-30.9708959030156
20
-20.1549957596024
30
0
41
1
10
-30.9777953092696
20
-20.0132240746287
30
0
41
1
10
-30.983178264118
20
-19.9406900719027
30
0
41
1
10
-30.9980277307873
20
-19.7921407007484
30
0
41
1
10
-31.0074909213459
20
-19.7161281638048
30
0
41
1
10
-31.0309520383003
20
-19.5602370794962
30
0
41
1
10
-31.0449413593768
20
-19.4803658684469
30
0
41
1
10
-31.0699640521918
20
-19.3571159186566
30
0
41
1
10
-31.0789925010704
20
-19.3154109977504
30
0
41
1
10
-31.0985197922664
20
-19.2309564770923
30
0
41
1
10
-31.109014979911
20
-19.1882128324104
30
0
41
1
10
-31.1316836456085
20
-19.1015408634911
30
0
41
1
10
-31.1438549479184
20
-19.0576140750776
30
0
41
1
10
-31.1702012624289
20
-18.9683461100548
30
0
41
1
10
-31.184371242124
20
-18.9230084858143
30
0
41
1
10
-31.215251732803
20
-18.8305399151153
30
0
41
1
10
-31.2319480136138
20
-18.7834190135185
30
0
41
1
10
-31.259649619429
20
-18.7108619951161
30
0
41
1
10
-31.2693307327141
20
-18.6863606191294
30
0
41
1
10
-31.2898206204753
20
-18.6365618683518
30
0
41
1
10
-31.3006256953054
20
-18.6112671050843
30
0
41
1
10
-31.3237443497554
20
-18.559612748068
30
0
41
1
10
-31.3359968749229
20
-18.5333858801766
30
0
41
1
10
-31.3623030742786
20
-18.4801315162842
30
0
41
1
10
-31.3763538144417
20
-18.4530744518746
30
0
41
1
10
-31.3996123195164
20
-18.411443700456
30
0
41
1
10
-31.4077338006012
20
-18.3973902377184
30
0
41
1
10
-31.4250044752432
20
-18.3687911379523
30
0
41
1
10
-31.4342063227093
20
-18.3541631861864
30
0
41
1
10
-31.4537358336
20
-18.3248103422872
30
0
41
1
10
-31.4640680013395
20
-18.3100544268213
30
0
41
1
10
-31.4809347945917
20
-18.2877288232207
30
0
41
1
10
-31.4867689754927
20
-18.2802849896592
30
0
41
1
10
-31.4987695265094
20
-18.2656481955593
30
0
41
1
10
-31.5049588926808
20
-18.2584231514011
30
0
41
1
10
-31.5146084609663
20
-18.2477660396495
30
0
41
1
10
-31.5179009844924
20
-18.2442292571151
30
0
41
1
10
-31.5245047171156
20
-18.2373513991957
30
0
41
1
10
-31.531145276693
20
-18.2306475415455
30
0
41
1
10
-31.5378642934664
20
-18.224314379043
30
0
41
1
10
-31.5446253008474
20
-18.2181796140779
30
0
41
1
10
-31.5480480136682
20
-18.2151940018773
30
0
41
1
10
-31.5582177001603
20
-18.2066943669608
30
0
41
1
10
-31.5648179679007
20
-18.2016701092279
30
0
41
1
10
-31.5776874553992
20
-18.192805772428
30
0
41
1
10
-31.5839965957659
20
-18.1889523870067
30
0
41
1
10
-31.5958275050374
20
-18.1825748198684
30
0
41
1
10
-31.6014172059612
20
-18.1799973665733
30
0
41
1
10
-31.612079203009
20
-18.1758134549592
30
0
41
1
10
-31.6171684198045
20
-18.1742073900737
30
0
41
1
10
-31.6314755580394
20
-18.1706489424234
30
0
41
1
10
-31.6398873844075
20
-18.169864379627
30
0
41
1
10
-31.6553235899369
20
-18.1702511861042
30
0
41
1
10
-31.6623480733509
20
-18.1714548241553
30
0
41
1
10
-31.6751712230683
20
-18.1751566304182
30
0
41
1
10
-31.6810118139047
20
-18.1776593073098
30
0
41
1
10
-31.6973298182026
20
-18.1865414299077
30
0
41
1
10
-31.7066261909752
20
-18.1942690242497
30
0
41
1
10
-31.7233527311736
20
-18.2118544716247
30
0
41
1
10
-31.7307660688538
20
-18.2217510056787
30
0
41
1
10
-31.7442620339321
20
-18.2429792168094
30
0
41
1
10
-31.7503106880221
20
-18.2542681592899
30
0
41
1
10
-31.7669652168292
20
-18.2895741879514
30
0
41
1
10
-31.7761076686094
20
-18.315003445797
30
0
41
1
10
-31.7920763347652
20
-18.3680970807755
30
0
41
1
10
-31.7988749124811
20
-18.3957881266906
30
0
41
1
10
-31.8108834227722
20
-18.4527032269194
30
0
41
1
10
-31.8160848263626
20
-18.48193551152
30
0
41
1
10
-31.8299579674629
20
-18.5713028103296
30
0
41
1
10
-31.8369326384219
20
-18.6330754572665
30
0
41
1
10
-31.8482528452256
20
-18.7591578099885
30
0
41
1
10
-31.8525686835724
20
-18.8234855768323
30
0
41
1
10
-31.8594677308273
20
-18.9536523894755
30
0
41
1
10
-31.8620435345824
20
-19.0195246630816
30
0
41
1
10
-31.8659662688388
20
-19.1523787397178
30
0
41
1
10
-31.8673094050546
20
-19.2193639685457
30
0
41
1
10
-31.8690154340587
20
-19.3542194718499
30
0
41
1
10
-31.8693769976541
20
-19.4220909464325
30
0
41
1
10
-31.8692807746815
20
-19.4903757489684
30
0
0
SPLINE
5
1B6
100
AcDbEntity
8
SK1
62
256
6
ByLayer
370
18
48
1
60
0
100
AcDbSpline
70
4
71
3
72
14
73
10
40
0
40
0
40
0
40
0
40
0.25
40
0.25
40
0.5
40
0.5
40
0.75
40
0.75
40
1
40
1
40
1
40
1
41
1
10
-30.7600449304183
20
-20.775935564824
30
0
41
1
10
-30.7900404769229
20
-20.7391430873327
30
0
41
1
10
-30.8180896999409
20
-20.7008459428364
30
0
41
1
10
-30.8687458608594
20
-20.6220739429084
30
0
41
1
10
-30.891349839175
20
-20.5816010000123
30
0
41
1
10
-30.9290751655627
20
-20.4995348632114
30
0
41
1
10
-30.9441756135539
20
-20.4579549543772
30
0
41
1
10
-30.9646688220375
20
-20.3747617985673
30
0
41
1
10
-30.9700237499846
20
-20.3331712100058
30
0
41
1
10
-30.9697797028105
20
-20.2918370725199
30
0
0
SPLINE
5
1B7
100
AcDbEntity
8
SK1
62
256
6
ByLayer
370
18
48
1
60
0
100
AcDbSpline
70
4
71
3
72
88
73
84
40
0
40
0
40
0
40
0
40
0.0056561076494369
40
0.0056561076494369
40
0.0369034596484464
40
0.0369034596484464
40
0.0681508116474559
40
0.0681508116474559
40
0.0993981636464654
40
0.0993981636464654
40
0.130645515645475
40
0.130645515645475
40
0.14626919164498
40
0.154081029644732
40
0.154081029644732
40
0.161892867644484
40
0.161892867644484
40
0.193140219643494
40
0.193140219643494
40
0.224387571642503
40
0.255634923641512
40
0.255634923641512
40
0.286882275640522
40
0.286882275640522
40
0.318129627639531
40
0.34937697963854
40
0.34937697963854
40
0.357188817638293
40
0.357188817638293
40
0.365000655638045
40
0.365000655638045
40
0.38062433163755
40
0.38062433163755
40
0.41187168363656
40
0.443119035635569
40
0.474366387634578
40
0.474366387634578
40
0.48217822563433
40
0.48217822563433
40
0.489990063634082
40
0.505613739633587
40
0.505613739633587
40
0.536861091632595
40
0.568108443631604
40
0.568108443631604
40
0.583732119631108
40
0.59154395763086
40
0.59154395763086
40
0.599355795630612
40
0.599355795630612
40
0.63060314762962
40
0.661850499628627
40
0.661850499628627
40
0.693097851627635
40
0.693097851627635
40
0.708721527627139
40
0.708721527627139
40
0.71653336562689
40
0.71653336562689
40
0.724345203626642
40
0.75559255562565
40
0.786839907624658
40
0.786839907624658
40
0.818087259623665
40
0.818087259623665
40
0.825899097623417
40
0.825899097623417
40
0.833710935623169
40
0.833710935623169
40
0.849334611622672
40
0.849334611622672
40
0.88058196362168
40
0.88058196362168
40
0.911829315620687
40
0.911829315620687
40
0.927452991620191
40
0.927452991620191
40
0.935264829619943
40
0.935264829619943
40
0.943076667619694
40
0.943076667619694
40
0.974324019618702
40
1
40
1
40
1
40
1
41
1
10
-4.30168633996286
20
24.1051159300925
30
0
41
1
10
-4.30169069002343
20
24.1051151450803
30
0
41
1
10
-4.30195526026203
20
24.105060991595
30
0
41
1
10
-4.30536782734249
20
24.1043613496407
30
0
41
1
10
-4.31614758031955
20
24.1021487344219
30
0
41
1
10
-4.35340135419183
20
24.0945493849193
30
0
41
1
10
-4.37987586635501
20
24.0891622982116
30
0
41
1
10
-4.44891908335131
20
24.0752540951658
30
0
41
1
10
-4.49082342534528
20
24.0668680204954
30
0
41
1
10
-4.58858282604807
20
24.0475686672466
30
0
41
1
10
-4.64444078155654
20
24.0366546474642
30
0
41
1
10
-4.73844404924634
20
24.0186053787489
30
0
41
1
10
-4.78800454267849
20
24.0091607772999
30
0
41
1
10
-4.84140347098582
20
23.9991239778134
30
0
41
1
10
-4.87785826413305
20
23.9923052546659
30
0
41
1
10
-4.8965396002789
20
23.9888272932572
30
0
41
1
10
-4.99173167448056
20
23.9711959322813
30
0
41
1
10
-5.07345418982874
20
23.9563429896813
30
0
41
1
10
-5.24740476227399
20
23.9255231932856
30
0
41
1
10
-5.43186504620492
20
23.8935884692672
30
0
41
1
10
-5.63680740863735
20
23.860102163332
30
0
41
1
10
-5.85203976936369
20
23.8261603582413
30
0
41
1
10
-5.96329638868765
20
23.8092009654145
30
0
41
1
10
-6.19248673236702
20
23.7756466629153
30
0
41
1
10
-6.42843812096734
20
23.7424444263185
30
0
41
1
10
-6.67763908592303
20
23.710497562162
30
0
41
1
10
-6.83756376255454
20
23.6910903973563
30
0
41
1
10
-6.86975786231439
20
23.6872369385211
30
0
41
1
10
-6.9345670928827
20
23.6795901478983
30
0
41
1
10
-6.96722049481687
20
23.6757924910873
30
0
41
1
10
-7.06542972331459
20
23.6645400714812
30
0
41
1
10
-7.13127877974421
20
23.6572200536679
30
0
41
1
10
-7.32993264071035
20
23.6358334985277
30
0
41
1
10
-7.59774955390736
20
23.6088486303024
30
0
41
1
10
-8.00814620129316
20
23.5734005827059
30
0
41
1
10
-8.28756103674424
20
23.5534012244309
30
0
41
1
10
-8.46407198051783
20
23.5421243095026
30
0
41
1
10
-8.49947362982934
20
23.5399299494132
30
0
41
1
10
-8.57011605624476
20
23.5356859859622
30
0
41
1
10
-8.67596912924512
20
23.5295286298487
30
0
41
1
10
-8.78149389774391
20
23.5239938959419
30
0
41
1
10
-8.99211137104614
20
23.5137463672139
30
0
41
1
10
-9.27178423802951
20
23.5022744878208
30
0
41
1
10
-9.54916793577296
20
23.495097301709
30
0
41
1
10
-9.75632742419693
20
23.4912897893957
30
0
41
1
10
-9.85968725372055
20
23.4897798453115
30
0
41
1
10
-9.96270970268495
20
23.4888535724899
30
0
41
1
10
-10.031315303841
20
23.4883649467269
30
0
41
1
10
-10.065625203476
20
23.4881849823938
30
0
41
1
10
-10.2363031957401
20
23.4876073519398
30
0
41
1
10
-10.5038418468565
20
23.4887333733928
30
0
41
1
10
-10.7605101095888
20
23.4934823130594
30
0
41
1
10
-11.0117058741088
20
23.4998104833313
30
0
41
1
10
-11.1345680915785
20
23.5037645043529
30
0
41
1
10
-11.3146131107251
20
23.5107053328383
30
0
41
1
10
-11.3739188052123
20
23.5131872031447
30
0
41
1
10
-11.4617826957788
20
23.5171398196358
30
0
41
1
10
-11.4909139860093
20
23.5184969051108
30
0
41
1
10
-11.5486900923139
20
23.5212781537709
30
0
41
1
10
-11.691574550405
20
23.5283836560046
30
0
41
1
10
-11.9349352689426
20
23.5424044329511
30
0
41
1
10
-12.1317688860195
20
23.5559372766504
30
0
41
1
10
-12.3186581544295
20
23.5696743005682
30
0
41
1
10
-12.407132501571
20
23.5766454521325
30
0
41
1
10
-12.5111847229627
20
23.5852786082452
30
0
41
1
10
-12.5316672485765
20
23.587001167732
30
0
41
1
10
-12.5719645232394
20
23.5904327471603
30
0
41
1
10
-12.5918036439563
20
23.5921439390936
30
0
41
1
10
-12.6499580329549
20
23.5972189430162
30
0
41
1
10
-12.6870041217727
20
23.6005318083988
30
0
41
1
10
-12.7930296415109
20
23.6102028095271
30
0
41
1
10
-12.8569093434488
20
23.6162927534538
30
0
41
1
10
-12.9710489508252
20
23.6274780345401
30
0
41
1
10
-13.0213099416691
20
23.6325738325079
30
0
41
1
10
-13.0861551596526
20
23.6392727492729
30
0
41
1
10
-13.1060090734277
20
23.6413483233523
30
0
41
1
10
-13.1330725294573
20
23.6442008161262
30
0
41
1
10
-13.1416405258963
20
23.6451081679138
30
0
41
1
10
-13.1578543559825
20
23.6468317534131
30
0
41
1
10
-13.1654843884348
20
23.6476463125308
30
0
41
1
10
-13.20108176998
20
23.6514592160887
30
0
41
1
10
-13.2384579624609
20
23.6555336636115
30
0
41
1
10
-13.2500487682212
20
23.6568082630285
30
0
41
1
10
-13.2500010282886
20
23.6568035145264
30
0
0
SPLINE
5
1B8
100
AcDbEntity
8
SK1
62
256
6
ByLayer
370
18
48
1
60
0
100
AcDbSpline
70
4
71
3
72
99
73
95
40
0
40
0
40
0
40
0
40
0.0087720239450997
40
0.0087720239450997
40
0.0165819690296812
40
0.0165819690296812
40
0.0243919141142626
40
0.0243919141142626
40
0.0556316944525885
40
0.0556316944525885
40
0.0868714747909143
40
0.0868714747909143
40
0.102491364960077
40
0.102491364960077
40
0.110301310044659
40
0.110301310044659
40
0.11811125512924
40
0.11811125512924
40
0.149351035467566
40
0.149351035467566
40
0.180590815805892
40
0.180590815805892
40
0.196210705975055
40
0.196210705975055
40
0.204020651059636
40
0.204020651059636
40
0.211830596144218
40
0.211830596144218
40
0.243070376482544
40
0.243070376482544
40
0.274310156820869
40
0.274310156820869
40
0.289930046990032
40
0.297739992074613
40
0.297739992074613
40
0.305549937159195
40
0.305549937159195
40
0.336789717497521
40
0.336789717497521
40
0.368029497835847
40
0.399269278174173
40
0.399269278174173
40
0.414889168343336
40
0.414889168343336
40
0.430509058512499
40
0.430509058512499
40
0.461748838850826
40
0.492988619189153
40
0.492988619189153
40
0.508608509358316
40
0.516418454442898
40
0.516418454442898
40
0.524228399527479
40
0.524228399527479
40
0.555468179865805
40
0.586707960204131
40
0.617947740542457
40
0.617947740542457
40
0.633567630711619
40
0.633567630711619
40
0.649187520880782
40
0.649187520880782
40
0.680427301219108
40
0.711667081557433
40
0.711667081557433
40
0.742906861895759
40
0.742906861895759
40
0.758526752064922
40
0.758526752064922
40
0.766336697149503
40
0.766336697149503
40
0.774146642234085
40
0.805386422572411
40
0.836626202910736
40
0.836626202910736
40
0.867865983249062
40
0.867865983249062
40
0.875675928333644
40
0.875675928333644
40
0.883485873418225
40
0.883485873418225
40
0.899105763587388
40
0.899105763587388
40
0.930345543925713
40
0.930345543925713
40
0.961585324264039
40
0.961585324264039
40
0.977205214433202
40
0.977205214433202
40
0.985015159517784
40
0.985015159517784
40
0.992825104602365
40
0.992825104602365
40
1
40
1
40
1
40
1
41
1
10
-13.2500000075869
20
-23.6568035702779
30
0
41
1
10
-13.2499853072982
20
-23.6568019486668
30
0
41
1
10
-13.2493451919268
20
-23.6567316737384
30
0
41
1
10
-13.246936503988
20
-23.6564673089888
30
0
41
1
10
-13.2452991642847
20
-23.6562876585972
30
0
41
1
10
-13.2410429449999
20
-23.6558212498926
30
0
41
1
10
-13.2384226556491
20
-23.6555343371857
30
0
41
1
10
-13.2228904369508
20
-23.653836550564
30
0
41
1
10
-13.2027059118387
20
-23.6516353933437
30
0
41
1
10
-13.147263210058
20
-23.6456924894018
30
0
41
1
10
-13.1120040591081
20
-23.641950490462
30
0
41
1
10
-13.0477814830664
20
-23.6353053849913
30
0
41
1
10
-13.0244813481595
20
-23.6329185076143
30
0
41
1
10
-12.9866550651023
20
-23.629097813993
30
0
41
1
10
-12.9735673760035
20
-23.6277843087306
30
0
41
1
10
-12.9465940156618
20
-23.6250971100961
30
0
41
1
10
-12.9326897576673
20
-23.6237215317615
30
0
41
1
10
-12.8611124023999
20
-23.6166960900213
30
0
41
1
10
-12.7972883829373
20
-23.6106036598318
30
0
41
1
10
-12.6570409007135
20
-23.5977871756569
30
0
41
1
10
-12.5806158295879
20
-23.5910625891893
30
0
41
1
10
-12.456614037022
20
-23.5807407804375
30
0
41
1
10
-12.4137163910494
20
-23.5772611251987
30
0
41
1
10
-12.3470080832682
20
-23.5720144807511
30
0
41
1
10
-12.3243587430965
20
-23.5702596739445
30
0
41
1
10
-12.2785103065267
20
-23.5667647000924
30
0
41
1
10
-12.2552856904669
20
-23.5650224806888
30
0
41
1
10
-12.137684119067
20
-23.5563507829001
30
0
41
1
10
-12.038883817226
20
-23.5495398741343
30
0
41
1
10
-11.8322424541655
20
-23.5364971188833
30
0
41
1
10
-11.7244000562007
20
-23.5302647562708
30
0
41
1
10
-11.5559397289976
20
-23.5215939255661
30
0
41
1
10
-11.4700325268679
20
-23.5174279856823
30
0
41
1
10
-11.3815971444374
20
-23.5135634252246
30
0
41
1
10
-11.3220754526998
20
-23.5110593916302
30
0
41
1
10
-11.2920402882451
20
-23.5098440427785
30
0
41
1
10
-11.1412090975779
20
-23.5039896941271
30
0
41
1
10
-11.0178624240851
20
-23.4999929024078
30
0
41
1
10
-10.7660399087143
20
-23.4935952418475
30
0
41
1
10
-10.5090870676335
20
-23.4887940776504
30
0
41
1
10
-10.2420386902452
20
-23.4876189889922
30
0
41
1
10
-10.0379253701215
20
-23.4882641360031
30
0
41
1
10
-9.96909745915065
20
-23.4887360245953
30
0
41
1
10
-9.83135291982157
20
-23.4902017560846
30
0
41
1
10
-9.76234395534402
20
-23.4911947338096
30
0
41
1
10
-9.5549165798956
20
-23.4949624386457
30
0
41
1
10
-9.27728095010197
20
-23.5020900472767
30
0
41
1
10
-8.9975679369438
20
-23.5135091808747
30
0
41
1
10
-8.78700252968966
20
-23.523712500881
30
0
41
1
10
-8.68152435641596
20
-23.5292238822118
30
0
41
1
10
-8.57574943133054
20
-23.5353553168572
30
0
41
1
10
-8.50516629236211
20
-23.5395813403766
30
0
41
1
10
-8.46980183964939
20
-23.5417661028801
30
0
41
1
10
-8.29331585260817
20
-23.5530052448837
30
0
41
1
10
-8.014018812091
20
-23.5729390326172
30
0
41
1
10
-7.60401258929529
20
-23.6082658901943
30
0
41
1
10
-7.33658355744132
20
-23.6351503889624
30
0
41
1
10
-7.13826597722029
20
-23.6564527074368
30
0
41
1
10
-7.07253642101874
20
-23.6637432476213
30
0
41
1
10
-6.94184416469403
20
-23.6786844046452
30
0
41
1
10
-6.87677097778646
20
-23.6863493221285
30
0
41
1
10
-6.68462051554108
20
-23.709619843392
30
0
41
1
10
-6.43547363472487
20
-23.741501597346
30
0
41
1
10
-6.20019551432117
20
-23.7745513711411
30
0
41
1
10
-5.97193167710219
20
-23.8079061106606
30
0
41
1
10
-5.86130586018868
20
-23.824736486798
30
0
41
1
10
-5.70084746445261
20
-23.8499869407451
30
0
41
1
10
-5.64827648052724
20
-23.8584043682081
30
0
41
1
10
-5.57083822625779
20
-23.8710008366057
30
0
41
1
10
-5.54527212997719
20
-23.8751931570182
30
0
41
1
10
-5.49491518416589
20
-23.8835134163765
30
0
41
1
10
-5.37077862375388
20
-23.9041842467822
30
0
41
1
10
-5.16297868868611
20
-23.9401092886478
30
0
41
1
10
-5.00050606880207
20
-23.9695954701138
30
0
41
1
10
-4.84949796142122
20
-23.9975184722948
30
0
41
1
10
-4.77972332880718
20
-24.0106992370932
30
0
41
1
10
-4.70013346056208
20
-24.0259579533634
30
0
41
1
10
-4.68459802487305
20
-24.0289486829331
30
0
41
1
10
-4.65430866683174
20
-24.0348014035446
30
0
41
1
10
-4.63961951812671
20
-24.0376508796205
30
0
41
1
10
-4.59697075937387
20
-24.0459525421521
30
0
41
1
10
-4.57040176631854
20
-24.0511632490483
30
0
41
1
10
-4.49623484469889
20
-24.0657907722911
30
0
41
1
10
-4.45416284893433
20
-24.074203866331
30
0
41
1
10
-4.3848397309834
20
-24.0881571163303
30
0
41
1
10
-4.35758717148468
20
-24.0936977199571
30
0
41
1
10
-4.32823260598525
20
-24.0996826801603
30
0
41
1
10
-4.32037224999979
20
-24.101289709509
30
0
41
1
10
-4.31155750899629
20
-24.1030935224463
30
0
41
1
10
-4.30911679194942
20
-24.1035933832659
30
0
41
1
10
-4.30526526658662
20
-24.1043824412738
30
0
41
1
10
-4.30384855157058
20
-24.1046728470559
30
0
41
1
10
-4.30209583290184
20
-24.1050321626006
30
0
41
1
10
-4.30168024194617
20
-24.1051172366522
30
0
41
1
10
-4.30168578158244
20
-24.105115970746
30
0
0
SPLINE
5
1B9
100
AcDbEntity
8
SK1
62
256
6
ByLayer
370
18
48
1
60
0
100
AcDbSpline
70
4
71
3
72
48
73
44
40
0
40
0
40
0
40
0
40
0.125000000000003
40
0.125000000000003
40
0.187500000000004
40
0.187500000000004
40
0.250000000000004
40
0.250000000000004
40
0.375000000000007
40
0.375000000000007
40
0.500000000000009
40
0.500000000000009
40
0.562500000000011
40
0.562500000000011
40
0.593750000000011
40
0.625000000000012
40
0.625000000000012
40
0.687500000000012
40
0.687500000000012
40
0.750000000000012
40
0.750000000000012
40
0.812500000000013
40
0.812500000000013
40
0.843750000000013
40
0.843750000000013
40
0.875000000000012
40
0.875000000000012
40
0.906250000000012
40
0.906250000000012
40
0.921875000000011
40
0.921875000000011
40
0.93750000000001
40
0.93750000000001
40
0.945312500000008
40
0.945312500000008
40
0.953125000000007
40
0.953125000000007
40
0.968750000000005
40
0.984375000000002
40
0.984375000000002
40
0.992187500000001
40
0.992187500000001
40
1
40
1
40
1
40
1
41
1
10
-25.7999999999999
20
21.8338164768252
30
0
41
1
10
-25.7999999999999
20
21.7915616932459
30
0
41
1
10
-25.8090351025926
20
21.7478886231867
30
0
41
1
10
-25.83462492762
20
21.6803274915863
30
0
41
1
10
-25.8451736895933
20
21.657459370377
30
0
41
1
10
-25.8701328331008
20
21.611068883537
30
0
41
1
10
-25.8844279552088
20
21.5877568927845
30
0
41
1
10
-25.9323193271321
20
21.5174811379227
30
0
41
1
10
-25.970895045869
20
21.4701766351095
30
0
41
1
10
-26.0597609446708
20
21.374737696852
30
0
41
1
10
-26.1100469510949
20
21.3266019341389
30
0
41
1
10
-26.1937594442118
20
21.253867678515
30
0
41
1
10
-26.2230510956806
20
21.2295349064356
30
0
41
1
10
-26.2691019693367
20
21.1929233351458
30
0
41
1
10
-26.300508659108
20
21.1684783027552
30
0
41
1
10
-26.3333651336779
20
21.1439679172571
30
0
41
1
10
-26.3836133703913
20
21.1072837145489
30
0
41
1
10
-26.4184363723702
20
21.0828939039857
30
0
41
1
10
-26.4910775441696
20
21.0343527408064
30
0
41
1
10
-26.5289288892005
20
21.010170777376
30
0
41
1
10
-26.6081703997842
20
20.9624296091496
30
0
41
1
10
-26.6495207904699
20
20.9388574261359
30
0
41
1
10
-26.7155571452227
20
20.9043825860997
30
0
41
1
10
-26.7381850495634
20
20.8930763850154
30
0
41
1
10
-26.7849643407705
20
20.8710565078677
30
0
41
1
10
-26.8091240203116
20
20.8603320584473
30
0
41
1
10
-26.8596629929597
20
20.8397526331819
30
0
41
1
10
-26.8860248460638
20
20.8298902068595
30
0
41
1
10
-26.9281901973077
20
20.8161652083247
30
0
41
1
10
-26.9425890117264
20
20.8118063042744
30
0
41
1
10
-26.9720526096037
20
20.8036833762743
30
0
41
1
10
-26.9871413088018
20
20.7999110001803
30
0
41
1
10
-27.0104414007834
20
20.7947971843859
30
0
41
1
10
-27.0183196500097
20
20.7931836832861
30
0
41
1
10
-27.0343264723929
20
20.7901617507432
30
0
41
1
10
-27.0424360016076
20
20.7887581757636
30
0
41
1
10
-27.0667844525406
20
20.7849461963153
30
0
41
1
10
-27.0995297892863
20
20.7808838588947
30
0
41
1
10
-27.1328814273505
20
20.7790296636823
30
0
41
1
10
-27.1581348648262
20
20.7785122863742
30
0
41
1
10
-27.1666027794187
20
20.7784864100352
30
0
41
1
10
-27.1833765602224
20
20.7787216300467
30
0
41
1
10
-27.191712431909
20
20.778981589709
30
0
41
1
10
-27.2000000000001
20
20.779376124844
30
0
0
SPLINE
5
1BA
100
AcDbEntity
8
SK1
62
256
6
ByLayer
370
18
48
1
60
0
100
AcDbSpline
70
4
71
3
72
16
73
12
40
0
40
0
40
0
40
0
40
0.125
40
0.125
40
0.25
40
0.25
40
0.5
40
0.5
40
0.75
40
0.75
40
1
40
1
40
1
40
1
41
1
10
-27.1999999999999
20
20.7793761248445
30
0
41
1
10
-27.3465084698193
20
20.7863507570032
30
0
41
1
10
-27.4933392699913
20
20.7923486729088
30
0
41
1
10
-27.787460857807
20
20.8029531915612
30
0
41
1
10
-27.9347534171158
20
20.8075544018738
30
0
41
1
10
-28.3771606131414
20
20.8197595020289
30
0
41
1
10
-28.672796448895
20
20.8257901832185
30
0
41
1
10
-29.2649774843479
20
20.8351189775667
30
0
41
1
10
-29.5615294983985
20
20.8383963493073
30
0
41
1
10
-30.1552999785086
20
20.842957994198
30
0
41
1
10
-30.4525208480586
20
20.8442349515109
30
0
41
1
10
-30.7499999999999
20
20.8447435124636
30
0
0
SPLINE
5
1BB
100
AcDbEntity
8
SK1
62
256
6
ByLayer
370
18
48
1
60
0
100
AcDbSpline
70
4
71
3
72
8
73
4
40
0
40
0
40
0
40
0
40
1
40
1
40
1
40
1
41
1
10
-30.7600449304182
20
20.834310484856
30
0
41
1
10
-30.7567195771115
20
20.8377949233401
30
0
41
1
10
-30.7533711052712
20
20.8412726012236
30
0
41
1
10
-30.7499999999999
20
20.8447435124636
30
0
0
SPLINE
5
1BC
100
AcDbEntity
8
SK1
62
256
6
ByLayer
370
18
48
1
60
0
100
AcDbSpline
70
4
71
3
72
8
73
4
40
0
40
0
40
0
40
0
40
1
40
1
40
1
40
1
41
1
10
-30.7600449304183
20
-20.775935564824
30
0
41
1
10
-30.7414872158136
20
-20.7986984205292
30
0
41
1
10
-30.7218522549564
20
-20.8211767365989
30
0
41
1
10
-30.7012500000001
20
-20.8433892377954
30
0
0
SPLINE
5
1BD
100
AcDbEntity
8
SK1
62
256
6
ByLayer
370
18
48
1
60
0
100
AcDbSpline
70
4
71
3
72
44
73
40
40
0
40
0
40
0
40
0
40
0.0078125
40
0.0078125
40
0.015625
40
0.015625
40
0.0234375
40
0.0234375
40
0.03125
40
0.03125
40
0.0468749999999986
40
0.0468749999999986
40
0.0546874999999982
40
0.0546874999999982
40
0.0624999999999978
40
0.0624999999999978
40
0.0781249999999975
40
0.0781249999999975
40
0.0937499999999972
40
0.0937499999999972
40
0.124999999999996
40
0.124999999999996
40
0.156249999999995
40
0.156249999999995
40
0.187499999999994
40
0.187499999999994
40
0.249999999999994
40
0.249999999999994
40
0.312499999999993
40
0.312499999999993
40
0.374999999999993
40
0.374999999999993
40
0.499999999999995
40
0.499999999999995
40
0.624999999999997
40
0.624999999999997
40
0.749999999999998
40
0.749999999999998
40
1
40
1
40
1
40
1
41
1
10
-25.9833434997485
20
-20.5310987896624
30
0
41
1
10
-25.9828031618323
20
-20.5371610287378
30
0
41
1
10
-25.9838914660095
20
-20.5430390572781
30
0
41
1
10
-25.989023632328
20
-20.5544608237056
30
0
41
1
10
-25.9931333824197
20
-20.5600445157078
30
0
41
1
10
-26.0035108983184
20
-20.5704663607109
30
0
41
1
10
-26.0097833008976
20
-20.575367007332
30
0
41
1
10
-26.0240019197854
20
-20.5846890574357
30
0
41
1
10
-26.031977700009
20
-20.589115850717
30
0
41
1
10
-26.0572642628518
20
-20.6015324498898
30
0
41
1
10
-26.076083379591
20
-20.6088127615819
30
0
41
1
10
-26.1060653331203
20
-20.6188417181554
30
0
41
1
10
-26.1163855034074
20
-20.6220371989383
30
0
41
1
10
-26.1374112205774
20
-20.6281446385722
30
0
41
1
10
-26.1480862607684
20
-20.6310487657606
30
0
41
1
10
-26.1805020443381
20
-20.6394008249399
30
0
41
1
10
-26.2026285707415
20
-20.6444929365118
30
0
41
1
10
-26.2475993651116
20
-20.6540152319345
30
0
41
1
10
-26.270446928587
20
-20.6584423755729
30
0
41
1
10
-26.339801651072
20
-20.6709750078269
30
0
41
1
10
-26.3871071994479
20
-20.6783442839641
30
0
41
1
10
-26.4830721960953
20
-20.6918347308019
30
0
41
1
10
-26.5318115234255
20
-20.6979517553181
30
0
41
1
10
-26.6296273769647
20
-20.7092210665844
30
0
41
1
10
-26.6787817533783
20
-20.7143814426965
30
0
41
1
10
-26.8267903169713
20
-20.728813296296
30
0
41
1
10
-26.9261804508361
20
-20.7370537763176
30
0
41
1
10
-27.1258560688842
20
-20.7518138357
30
0
41
1
10
-27.2261500148119
20
-20.7583171143808
30
0
41
1
10
-27.427377483183
20
-20.7700955230177
30
0
41
1
10
-27.5283138087649
20
-20.7753652529666
30
0
41
1
10
-27.8318508313426
20
-20.7897778683559
30
0
41
1
10
-28.0351676379408
20
-20.7975471747096
30
0
41
1
10
-28.443029374997
20
-20.8107359004726
30
0
41
1
10
-28.6476200301025
20
-20.8161361676978
30
0
41
1
10
-29.0571977039527
20
-20.8252283040691
30
0
41
1
10
-29.262256503036
20
-20.828915947548
30
0
41
1
10
-29.8780477589524
20
-20.8380299878138
30
0
41
1
10
-30.2893853411834
20
-20.8415387546248
30
0
41
1
10
-30.7012499999993
20
-20.8433892377982
30
0
0
SPLINE
5
1BE
100
AcDbEntity
8
SK1
62
256
6
ByLayer
370
18
48
1
60
0
100
AcDbSpline
70
4
71
3
72
40
73
36
40
0
40
0
40
0
40
0
40
0.125
40
0.125
40
0.25
40
0.25
40
0.312499999999999
40
0.312499999999999
40
0.374999999999998
40
0.374999999999998
40
0.499999999999996
40
0.499999999999996
40
0.562499999999994
40
0.562499999999994
40
0.624999999999993
40
0.624999999999993
40
0.656249999999994
40
0.656249999999994
40
0.687499999999995
40
0.687499999999995
40
0.749999999999995
40
0.749999999999995
40
0.781249999999995
40
0.781249999999995
40
0.812499999999996
40
0.812499999999996
40
0.874999999999998
40
0.874999999999998
40
0.906249999999999
40
0.906249999999999
40
0.921875
40
0.921875
40
0.937500000000001
40
0.937500000000001
40
1
40
1
40
1
40
1
41
1
10
-23.2000000000001
20
-19.3576886388615
30
0
41
1
10
-23.3511498698864
20
-19.3890583558382
30
0
41
1
10
-23.5011417738729
20
-19.4214450221735
30
0
41
1
10
-23.7982575980833
20
-19.4887370768966
30
0
41
1
10
-23.9453860922002
20
-19.5236384483978
30
0
41
1
10
-24.1633277841841
20
-19.5784065333679
30
0
41
1
10
-24.2355141475596
20
-19.5970673047763
30
0
41
1
10
-24.3788251046807
20
-19.6353213154182
30
0
41
1
10
-24.4498886068506
20
-19.654899019074
30
0
41
1
10
-24.6605180310534
20
-19.7150509364066
30
0
41
1
10
-24.7977509432143
20
-19.757066470918
30
0
41
1
10
-24.9969552111744
20
-19.8240814911229
30
0
41
1
10
-25.0622401051569
20
-19.8470905310893
30
0
41
1
10
-25.1900960100752
20
-19.8947388433039
30
0
41
1
10
-25.2526702413817
20
-19.9193761810722
30
0
41
1
10
-25.3439908091237
20
-19.9578584363621
30
0
41
1
10
-25.3740057216961
20
-19.9709413189194
30
0
41
1
10
-25.4330711781516
20
-19.9976863812778
30
0
41
1
10
-25.462159416536
20
-20.0113684764032
30
0
41
1
10
-25.5471770614403
20
-20.0531112354521
30
0
41
1
10
-25.6010398129092
20
-20.0819298668876
30
0
41
1
10
-25.6764945943257
20
-20.127035379949
30
0
41
1
10
-25.700752176622
20
-20.1423849275988
30
0
41
1
10
-25.7472269417683
20
-20.173801523617
30
0
41
1
10
-25.7694641654584
20
-20.1898835451222
30
0
41
1
10
-25.8325202493386
20
-20.2392776407825
30
0
41
1
10
-25.8690266895949
20
-20.2731985289794
30
0
41
1
10
-25.9137039563344
20
-20.3258872551723
30
0
41
1
10
-25.9269103792576
20
-20.3437524001573
30
0
41
1
10
-25.9439039253821
20
-20.3710549363235
30
0
41
1
10
-25.9490985759969
20
-20.3802400107881
30
0
41
1
10
-25.9584932970341
20
-20.3987884505315
30
0
41
1
10
-25.9626968383489
20
-20.4081671310453
30
0
41
1
10
-25.9809200317925
20
-20.4550640119657
30
0
41
1
10
-25.9867474411684
20
-20.4929087866348
30
0
41
1
10
-25.9833434997535
20
-20.5310987896622
30
0
0
SPLINE
5
1BF
100
AcDbEntity
8
SK1
62
256
6
ByLayer
370
18
48
1
60
0
100
AcDbSpline
70
4
71
3
72
49
73
45
40
0
40
0
40
0
40
0
40
0.0156249999999982
40
0.0156249999999982
40
0.0234374999999971
40
0.0234374999999971
40
0.0312499999999961
40
0.039062499999995
40
0.039062499999995
40
0.046874999999994
40
0.046874999999994
40
0.0624999999999927
40
0.0624999999999927
40
0.0703124999999916
40
0.0703124999999916
40
0.0781249999999905
40
0.0781249999999905
40
0.093749999999992
40
0.093749999999992
40
0.124999999999993
40
0.124999999999993
40
0.156249999999993
40
0.156249999999993
40
0.187499999999994
40
0.187499999999994
40
0.218749999999994
40
0.218749999999994
40
0.249999999999995
40
0.249999999999995
40
0.312499999999996
40
0.312499999999996
40
0.374999999999997
40
0.374999999999997
40
0.499999999999998
40
0.499999999999998
40
0.624999999999999
40
0.624999999999999
40
0.687499999999999
40
0.687499999999999
40
0.749999999999998
40
0.749999999999998
40
0.874999999999999
40
0.874999999999999
40
1
40
1
40
1
40
1
41
1
10
-23.2000000000001
20
-19.3576886388615
30
0
41
1
10
-23.1861263738958
20
-19.3548092998011
30
0
41
1
10
-23.1718181484694
20
-19.3528767085844
30
0
41
1
10
-23.1495705820266
20
-19.351693853878
30
0
41
1
10
-23.1419558829898
20
-19.351589455749
30
0
41
1
10
-23.1267710245219
20
-19.3520086897377
30
0
41
1
10
-23.1117483110012
20
-19.3530404980296
30
0
41
1
10
-23.097031341817
20
-19.3552271920325
30
0
41
1
10
-23.0824594197308
20
-19.357961402898
30
0
41
1
10
-23.0751972475899
20
-19.3596174805654
30
0
41
1
10
-23.0541683727243
20
-19.3652090302265
30
0
41
1
10
-23.041026233859
20
-19.369765572758
30
0
41
1
10
-23.0222759824086
20
-19.3775054232736
30
0
41
1
10
-23.0161653761048
20
-19.3802498027786
30
0
41
1
10
-23.0043574985134
20
-19.3859430363915
30
0
41
1
10
-22.998664395367
20
-19.3888875401976
30
0
41
1
10
-22.9821128438073
20
-19.3979646717981
30
0
41
1
10
-22.9717769671596
20
-19.4043384554671
30
0
41
1
10
-22.9423174354008
20
-19.4241644263843
30
0
41
1
10
-22.9246416181743
20
-19.4383911219554
30
0
41
1
10
-22.8926000975431
20
-19.4672649986397
30
0
41
1
10
-22.8781266650964
20
-19.4820005787684
30
0
41
1
10
-22.8512286559011
20
-19.5118342507331
30
0
41
1
10
-22.838818676992
20
-19.5269355647497
30
0
41
1
10
-22.8155229034176
20
-19.5573815302703
30
0
41
1
10
-22.804642252431
20
-19.5727273210933
30
0
41
1
10
-22.78408014492
20
-19.603587639979
30
0
41
1
10
-22.7743855330713
20
-19.6191299705532
30
0
41
1
10
-22.7469250060529
20
-19.6656728292618
30
0
41
1
10
-22.7307289881772
20
-19.6966163680465
30
0
41
1
10
-22.7012516700929
20
-19.7582643050006
30
0
41
1
10
-22.6879871624016
20
-19.7889695419302
30
0
41
1
10
-22.6515479659095
20
-19.8806706152633
30
0
41
1
10
-22.6316754243824
20
-19.9412491153105
30
0
41
1
10
-22.5979028786882
20
-20.0611279854317
30
0
41
1
10
-22.5840501695143
20
-20.1204308083456
30
0
41
1
10
-22.5668031549043
20
-20.2083628349194
30
0
41
1
10
-22.5616502875566
20
-20.2375035213652
30
0
41
1
10
-22.5524349659653
20
-20.2954370752344
30
0
41
1
10
-22.5483712676771
20
-20.3242435514414
30
0
41
1
10
-22.5377232568457
20
-20.4100032899886
30
0
41
1
10
-22.5326683781549
20
-20.4663066275959
30
0
41
1
10
-22.5262727782789
20
-20.5771821268186
30
0
41
1
10
-22.5249342246095
20
-20.6317542356373
30
0
41
1
10
-22.5254125626118
20
-20.685459777106
30
0
0
SPLINE
5
1C0
100
AcDbEntity
8
SK1
62
256
6
ByLayer
370
18
48
1
60
0
100
AcDbSpline
70
4
71
3
72
34
73
30
40
0
40
0
40
0
40
0
40
0.0156250000000004
40
0.0156250000000004
40
0.0312500000000007
40
0.0312500000000007
40
0.0625000000000016
40
0.0625000000000016
40
0.125000000000002
40
0.125000000000002
40
0.187500000000002
40
0.187500000000002
40
0.250000000000003
40
0.250000000000003
40
0.312500000000003
40
0.312500000000003
40
0.375000000000004
40
0.375000000000004
40
0.500000000000003
40
0.500000000000003
40
0.625000000000003
40
0.625000000000003
40
0.750000000000002
40
0.750000000000002
40
0.875000000000002
40
0.875000000000002
40
0.937500000000001
40
0.937500000000001
40
1
40
1
40
1
40
1
41
1
10
-22.5254125626118
20
-20.685459777106
30
0
41
1
10
-22.5254818561566
20
-20.6932397304619
30
0
41
1
10
-22.5252982329915
20
-20.7010302962569
30
0
41
1
10
-22.5244206719041
20
-20.7166327083331
30
0
41
1
10
-22.5237250932908
20
-20.724450236317
30
0
41
1
10
-22.5209000969645
20
-20.7477678059888
30
0
41
1
10
-22.5180297482889
20
-20.7631868009727
30
0
41
1
10
-22.5067325290341
20
-20.809089134793
30
0
41
1
10
-22.495615018521
20
-20.8392180280165
30
0
41
1
10
-22.4680447309116
20
-20.8986670678109
30
0
41
1
10
-22.4516075368504
20
-20.9279880443384
30
0
41
1
10
-22.4152303797029
20
-20.9859439034446
30
0
41
1
10
-22.3952943205215
20
-21.014578891385
30
0
41
1
10
-22.3534119707755
20
-21.0712552493651
30
0
41
1
10
-22.3314622748997
20
-21.0992988730572
30
0
41
1
10
-22.2867010042883
20
-21.154846415762
30
0
41
1
10
-22.2638910168701
20
-21.1823452339533
30
0
41
1
10
-22.1954619614248
20
-21.2640966679271
30
0
41
1
10
-22.1499039898425
20
-21.3176097368586
30
0
41
1
10
-22.0636197786301
20
-21.4228949886007
30
0
41
1
10
-22.0228509469916
20
-21.4746639856629
30
0
41
1
10
-21.9492920327111
20
-21.5765464925675
30
0
41
1
10
-21.9164767448843
20
-21.6266585089866
30
0
41
1
10
-21.8615121435875
20
-21.7252402036644
30
0
41
1
10
-21.8393398492878
20
-21.7737090889449
30
0
41
1
10
-21.8162516997398
20
-21.8451596337883
30
0
41
1
10
-21.8102527530669
20
-21.8687756249294
30
0
41
1
10
-21.8021075898158
20
-21.9155505663052
30
0
41
1
10
-21.8
20
-21.9384913426182
30
0
41
1
10
-21.8
20
-21.9609792783773
30
0
0
SPLINE
5
1C1
100
AcDbEntity
8
1
62
256
6
ByLayer
370
18
48
1
60
0
100
AcDbSpline
70
4
71
3
72
74
73
70
40
0
40
0
40
0
40
0
40
0.0075024758933664
40
0.0148992199183553
40
0.0222838275355075
40
0.0296556764651519
40
0.0370148586585026
40
0.0443614840716229
40
0.0516956615373999
40
0.0590174987848199
40
0.0663271024572217
40
0.07362457813114
40
0.0809100303340368
40
0.0881835625619986
40
0.0954452772970439
40
0.102695276024101
40
0.109933659247669
40
0.117160526508159
40
0.124375976397934
40
0.13158010657706
40
0.138773013788735
40
0.14595479387455
40
0.153125541789216
40
0.160285351615352
40
0.167434316577782
40
0.174572151227107
40
0.181696970112387
40
0.188808589599453
40
0.195907112467902
40
0.20299264037258
40
0.210065273861699
40
0.217125112394308
40
0.224172254357279
40
0.231206797082911
40
0.238228836864867
40
0.245238468974708
40
0.252235787677648
40
0.316747179426861
40
0.379892843275316
40
0.441730493081838
40
0.502156069324699
40
0.523556877992398
40
0.54468581303242
40
0.565545342093676
40
0.586137744176478
40
0.606465117787054
40
0.626529388577498
40
0.646332316515477
40
0.665875502622876
40
0.685160395319474
40
0.704179925308679
40
0.7229210939456
40
0.741385566936026
40
0.759575129005815
40
0.777491414198034
40
0.795135912582951
40
0.812509976600285
40
0.829614827063497
40
0.846451558853518
40
0.86302114632665
40
0.879324448459495
40
0.895362213751704
40
0.911135084905637
40
0.926643603300433
40
0.941878976062404
40
0.956831121297613
40
0.971501264692092
40
0.985890545639715
40
1
40
1
40
1
40
1
41
1
10
266
20
24.999999999999
30
0
41
1
10
266.000521894441
20
24.9999752851221
30
0
41
1
10
266.001558328299
20
24.9999262036734
30
0
41
1
10
266.003108169379
20
24.999531859257
30
0
41
1
10
266.004648351702
20
24.9989085727691
30
0
41
1
10
266.006185065585
20
24.9980330865695
30
0
41
1
10
266.007718001871
20
24.9969128186655
30
0
41
1
10
266.009246905404
20
24.9955474026734
30
0
41
1
10
266.010771524938
20
24.9939385287231
30
0
41
1
10
266.012291611741
20
24.992087319464
30
0
41
1
10
266.013806919526
20
24.9899950318017
30
0
41
1
10
266.015317204292
20
24.9876628695866
30
0
41
1
10
266.016822224263
20
24.9850920339094
30
0
41
1
10
266.018321739772
20
24.9822837098888
30
0
41
1
10
266.019815513172
20
24.9792390704287
30
0
41
1
10
266.021303308735
20
24.9759592754362
30
0
41
1
10
266.022784892562
20
24.97244547225
30
0
41
1
10
266.024260032486
20
24.9686987957412
30
0
41
1
10
266.025728497987
20
24.9647203684981
30
0
41
1
10
266.0271900601
20
24.9605113009857
30
0
41
1
10
266.028644491327
20
24.9560726917082
30
0
41
1
10
266.030091565543
20
24.9514056273693
30
0
41
1
10
266.031531057934
20
24.9465111830246
30
0
41
1
10
266.032962744856
20
24.9413904222466
30
0
41
1
10
266.034386378844
20
24.9360444914242
30
0
41
1
10
266.0358015828
20
24.9304750585304
30
0
41
1
10
266.03720797058
20
24.9246839685818
30
0
41
1
10
266.038605182315
20
24.9186730674886
30
0
41
1
10
266.039992991908
20
24.9124436841501
30
0
41
1
10
266.041371193284
20
24.9059970565881
30
0
41
1
10
266.042739581551
20
24.8993344100557
30
0
41
1
10
266.044097952873
20
24.8924569571482
30
0
41
1
10
266.045446104452
20
24.88536589832
30
0
41
1
10
266.046783834343
20
24.8780624208405
30
0
41
1
10
266.048110941535
20
24.8705477036169
30
0
41
1
10
266.049427225551
20
24.8628229000623
30
0
41
1
10
266.054309407255
20
24.8331478192015
30
0
41
1
10
266.062388143032
20
24.7749692644852
30
0
41
1
10
266.072810739712
20
24.6748666979225
30
0
41
1
10
266.08189607865
20
24.5595370725074
30
0
41
1
10
266.087928966358
20
24.45706332463
30
0
41
1
10
266.091685371151
20
24.3773807210492
30
0
41
1
10
266.093806849155
20
24.3263248100877
30
0
41
1
10
266.095704729602
20
24.2739799163069
30
0
41
1
10
266.097376750635
20
24.2204191936399
30
0
41
1
10
266.098820815325
20
24.1657144520241
30
0
41
1
10
266.100035001887
20
24.1099360799827
30
0
41
1
10
266.101017546611
20
24.0531531671393
30
0
41
1
10
266.101766858061
20
23.9954335498677
30
0
41
1
10
266.10228136734
20
23.9368524127604
30
0
41
1
10
266.102559936066
20
23.8774994486163
30
0
41
1
10
266.102602362093
20
23.8174650047816
30
0
41
1
10
266.102408387515
20
23.756830924721
30
0
41
1
10
266.1019781172
20
23.6956619164985
30
0
41
1
10
266.101311763977
20
23.6340211421299
30
0
41
1
10
266.100409693882
20
23.5719705351003
30
0
41
1
10
266.099272414568
20
23.5095708634601
30
0
41
1
10
266.097900579693
20
23.446881777213
30
0
41
1
10
266.096294989944
20
23.383961852914
30
0
41
1
10
266.094456596297
20
23.3208686407312
30
0
41
1
10
266.092386501994
20
23.2576586824073
30
0
41
1
10
266.090085971515
20
23.1943876195409
30
0
41
1
10
266.087556417522
20
23.1311099572205
30
0
41
1
10
266.084800018477
20
23.0678926210274
30
0
41
1
10
266.081819869085
20
23.0048141694069
30
0
41
1
10
266.078622596322
20
22.941959872862
30
0
41
1
10
266.075204314262
20
22.879374787198
30
0
41
1
10
266.071595695201
20
22.8171854602397
30
0
41
1
10
266.068973504201
20
22.7754259003027
30
0
41
1
10
266.067675282232
20
22.7547511370659
30
0
0
SPLINE
5
1C2
100
AcDbEntity
8
1
62
256
6
ByLayer
370
13
48
1
60
0
100
AcDbSpline
70
4
71
1
72
4
73
2
40
0
40
0
40
1
40
1
41
1
10
265.635350564464
20
22.9943900756365
30
0
41
1
10
266.067675282232
20
22.7547511370658
30
0
0
SPLINE
5
1C3
100
AcDbEntity
8
1
62
256
6
ByLayer
370
18
48
1
60
0
100
AcDbSpline
70
4
71
3
72
30
73
26
40
0
40
0
40
0
40
0
40
0.0465739966116982
40
0.0465739966116982
40
0.141916596950529
40
0.141916596950529
40
0.189587897119943
40
0.189587897119943
40
0.237259197289357
40
0.237259197289357
40
0.332601797628185
40
0.332601797628185
40
0.3802730977976
40
0.3802730977976
40
0.427944397967014
40
0.427944397967014
40
0.523286998305847
40
0.523286998305847
40
0.61862959864468
40
0.61862959864468
40
0.713972198983512
40
0.713972198983512
40
0.809314799322345
40
0.809314799322345
40
1
40
1
40
1
40
1
41
1
10
267.563369368539
20
-14.7612639199755
30
0
41
1
10
267.561751101095
20
-14.7628975205536
30
0
41
1
10
267.560253815113
20
-14.7644091895897
30
0
41
1
10
267.556170769704
20
-14.7685318245786
30
0
41
1
10
267.554054662599
20
-14.7706689842474
30
0
41
1
10
267.551904777518
20
-14.7728403855665
30
0
41
1
10
267.551358069514
20
-14.7733926014487
30
0
41
1
10
267.550642684802
20
-14.7741152032579
30
0
41
1
10
267.550471174801
20
-14.7742884504578
30
0
41
1
10
267.550501778366
20
-14.7742575373647
30
0
41
1
10
267.551246131199
20
-14.7735056170728
30
0
41
1
10
267.553449587003
20
-14.771280119121
30
0
41
1
10
267.554366440456
20
-14.7703541331474
30
0
41
1
10
267.556507437831
20
-14.7681920072904
30
0
41
1
10
267.557735591993
20
-14.7669518171113
30
0
41
1
10
267.561863192775
20
-14.7627842351996
30
0
41
1
10
267.565218581561
20
-14.7593968992327
30
0
41
1
10
267.572951716672
20
-14.7515926878484
30
0
41
1
10
267.577252302461
20
-14.7472536906856
30
0
41
1
10
267.586584704884
20
-14.7378414692282
30
0
41
1
10
267.591617667416
20
-14.7327670857892
30
0
41
1
10
267.602342916788
20
-14.7219581556365
30
0
41
1
10
267.607954623723
20
-14.716304835689
30
0
41
1
10
267.625296915117
20
-14.6988417531492
30
0
41
1
10
267.637586054382
20
-14.6864770846465
30
0
41
1
10
267.650480947162
20
-14.6735161477116
30
0
0
SPLINE
5
1C4
100
AcDbEntity
8
1
62
256
6
ByLayer
370
18
48
1
60
0
100
AcDbSpline
70
4
71
3
72
8
73
4
40
0
40
0
40
0
40
0
40
1
40
1
40
1
40
1
41
1
10
267.650480947162
20
-14.6735161477116
30
0
41
1
10
267.875830405165
20
-14.4470125107007
30
0
41
1
10
268.100607863251
20
-14.2197546698719
30
0
41
1
10
268.324759526419
20
-13.991671694457
30
0
0
SPLINE
5
1C5
100
AcDbEntity
8
1
62
256
6
ByLayer
370
18
48
1
60
0
100
AcDbSpline
70
4
71
3
72
8
73
4
40
0
40
0
40
0
40
0
40
1
40
1
40
1
40
1
41
1
10
268.324759526419
20
-13.976856793211
30
0
41
1
10
268.100458994954
20
-14.1950332762291
30
0
41
1
10
267.875685997486
20
-14.4125589107679
30
0
41
1
10
267.650480947162
20
-14.6294893682067
30
0
0
SPLINE
5
1C6
100
AcDbEntity
8
1
62
256
6
ByLayer
370
18
48
1
60
0
100
AcDbSpline
70
4
71
3
72
36
73
32
40
0
40
0
40
0
40
0
40
0.0625
40
0.0625
40
0.125
40
0.125
40
0.1875
40
0.1875
40
0.25
40
0.25
40
0.3125
40
0.3125
40
0.375
40
0.375
40
0.4375
40
0.4375
40
0.5
40
0.5
40
0.5625
40
0.5625
40
0.625
40
0.625
40
0.6875
40
0.6875
40
0.75
40
0.75
40
0.8125
40
0.8125
40
0.875
40
0.875
40
1
40
1
40
1
40
1
41
1
10
267.650480947162
20
-14.6294893682067
30
0
41
1
10
267.643862084188
20
-14.6358650377155
30
0
41
1
10
267.63736815804
20
-14.6420854939402
30
0
41
1
10
267.624658212001
20
-14.6541795144039
30
0
41
1
10
267.618465781099
20
-14.6600302465747
30
0
41
1
10
267.606614451507
20
-14.6711317760511
30
0
41
1
10
267.600930365741
20
-14.6764066912086
30
0
41
1
10
267.590113554064
20
-14.6863246581531
30
0
41
1
10
267.584944456052
20
-14.691000029735
30
0
41
1
10
267.575462300344
20
-14.6994157565428
30
0
41
1
10
267.571165979257
20
-14.7031426233283
30
0
41
1
10
267.563582231134
20
-14.709502599634
30
0
41
1
10
267.560295493777
20
-14.712131438416
30
0
41
1
10
267.555115656292
20
-14.7159495810431
30
0
41
1
10
267.55318093426
20
-14.7171751733816
30
0
41
1
10
267.550745513604
20
-14.7181286395752
30
0
41
1
10
267.550291079597
20
-14.7178363837959
30
0
41
1
10
267.550812662286
20
-14.7158184071485
30
0
41
1
10
267.551796471514
20
-14.7140793421226
30
0
41
1
10
267.555138387984
20
-14.7092388666707
30
0
41
1
10
267.557446708715
20
-14.7062051495611
30
0
41
1
10
267.563158317433
20
-14.6990846204178
30
0
41
1
10
267.566592406128
20
-14.6949623448446
30
0
41
1
10
267.57432482138
20
-14.6859171291042
30
0
41
1
10
267.578590882068
20
-14.681029982192
30
0
41
1
10
267.587802061849
20
-14.6706380732879
30
0
41
1
10
267.592748132286
20
-14.6651324406491
30
0
41
1
10
267.60325464834
20
-14.6535639456452
30
0
41
1
10
267.608756349684
20
-14.6475660845116
30
0
41
1
10
267.625757992912
20
-14.6291819152161
30
0
41
1
10
267.63781344554
20
-14.61633815057
30
0
41
1
10
267.650480947162
20
-14.6030003410702
30
0
0
SPLINE
5
1C7
100
AcDbEntity
8
1
62
256
6
ByLayer
370
18
48
1
60
0
100
AcDbSpline
70
4
71
3
72
8
73
4
40
0
40
0
40
0
40
0
40
1
40
1
40
1
40
1
41
1
10
267.650480947162
20
-14.6030003410702
30
0
41
1
10
267.876008003165
20
-14.3655393957395
30
0
41
1
10
268.100791090601
20
-14.1271433496662
30
0
41
1
10
268.324759526419
20
-13.8877233606922
30
0
0
SPLINE
5
1C8
100
AcDbEntity
8
1
62
256
6
ByLayer
370
18
48
1
60
0
100
AcDbSpline
70
4
71
3
72
8
73
4
40
0
40
0
40
0
40
0
40
1
40
1
40
1
40
1
41
1
10
268.324759526419
20
-13.8429985339393
30
0
41
1
10
268.10033706691
20
-14.0525298860225
30
0
41
1
10
267.875567648883
20
-14.2615638584146
30
0
41
1
10
267.650480947162
20
-14.4701429912266
30
0
0
SPLINE
5
1C9
100
AcDbEntity
8
1
62
256
6
ByLayer
370
18
48
1
60
0
100
AcDbSpline
70
4
71
3
72
38
73
34
40
0
40
0
40
0
40
0
40
0.0625000000000001
40
0.0625000000000001
40
0.125
40
0.125
40
0.1875
40
0.1875
40
0.25
40
0.25
40
0.3125
40
0.3125
40
0.375
40
0.375
40
0.4375
40
0.4375
40
0.5
40
0.5
40
0.531249999999999
40
0.531249999999999
40
0.562499999999997
40
0.562499999999997
40
0.624999999999998
40
0.624999999999998
40
0.687499999999999
40
0.687499999999999
40
0.749999999999999
40
0.749999999999999
40
0.8125
40
0.8125
40
0.875
40
0.875
40
1
40
1
40
1
40
1
41
1
10
267.650480947162
20
-14.4701429912266
30
0
41
1
10
267.643726881463
20
-14.4764017224423
30
0
41
1
10
267.637098160743
20
-14.4824675984272
30
0
41
1
10
267.624121587645
20
-14.4941653645868
30
0
41
1
10
267.617742143976
20
-14.4998242703934
30
0
41
1
10
267.605562970483
20
-14.5104136408798
30
0
41
1
10
267.599742695575
20
-14.5153637999649
30
0
41
1
10
267.588714807944
20
-14.5244776354355
30
0
41
1
10
267.583471678807
20
-14.5286687146879
30
0
41
1
10
267.573894168183
20
-14.5359672809043
30
0
41
1
10
267.569604727196
20
-14.5390430763014
30
0
41
1
10
267.562140118258
20
-14.5439116287629
30
0
41
1
10
267.558968752714
20
-14.5456925212599
30
0
41
1
10
267.55412676766
20
-14.5476893893337
30
0
41
1
10
267.552408786091
20
-14.5479394606962
30
0
41
1
10
267.550449968655
20
-14.5468649480105
30
0
41
1
10
267.550243871428
20
-14.5455532016635
30
0
41
1
10
267.550991933076
20
-14.5425459103032
30
0
41
1
10
267.551417710024
20
-14.5413688368428
30
0
41
1
10
267.552612851189
20
-14.5386745168143
30
0
41
1
10
267.553385026571
20
-14.5371539574111
30
0
41
1
10
267.556141299637
20
-14.5322031740124
30
0
41
1
10
267.558572250332
20
-14.5283601137453
30
0
41
1
10
267.56445428438
20
-14.5197418754234
30
0
41
1
10
267.567937837454
20
-14.5149253101646
30
0
41
1
10
267.575648799551
20
-14.5046892334923
30
0
41
1
10
267.579874304902
20
-14.4992680700752
30
0
41
1
10
267.588959245089
20
-14.4879075907872
30
0
41
1
10
267.593819464948
20
-14.481967630192
30
0
41
1
10
267.604115964568
20
-14.4696181549195
30
0
41
1
10
267.609513235996
20
-14.4632561734402
30
0
41
1
10
267.6261921918
20
-14.4438785061741
30
0
41
1
10
267.638027080278
20
-14.4304881908616
30
0
41
1
10
267.650480947162
20
-14.4166940319337
30
0
0
SPLINE
5
1CA
100
AcDbEntity
8
1
62
256
6
ByLayer
370
18
48
1
60
0
100
AcDbSpline
70
4
71
3
72
8
73
4
40
0
40
0
40
0
40
0
40
1
40
1
40
1
40
1
41
1
10
267.650480947162
20
-14.4166940319337
30
0
41
1
10
267.876228917632
20
-14.1666509399759
30
0
41
1
10
268.101019214675
20
-13.9154654531775
30
0
41
1
10
268.324759526419
20
-13.6630274540343
30
0
0
SPLINE
5
1CB
100
AcDbEntity
8
1
62
256
6
ByLayer
370
18
48
1
60
0
100
AcDbSpline
70
4
71
3
72
8
73
4
40
0
40
0
40
0
40
0
40
1
40
1
40
1
40
1
41
1
10
268.324759526419
20
-13.5875252185448
30
0
41
1
10
268.100236859786
20
-13.7895703804302
30
0
41
1
10
267.875470342809
20
-13.9912532251739
30
0
41
1
10
267.650480947162
20
-14.1926049128585
30
0
0
SPLINE
5
1CC
100
AcDbEntity
8
1
62
256
6
ByLayer
370
18
48
1
60
0
100
AcDbSpline
70
4
71
3
72
39
73
35
40
0
40
0
40
0
40
0
40
0.0625000000000006
40
0.0625000000000006
40
0.125000000000001
40
0.125000000000001
40
0.187500000000002
40
0.187500000000002
40
0.250000000000003
40
0.250000000000003
40
0.312500000000003
40
0.312500000000003
40
0.343750000000005
40
0.343750000000005
40
0.375000000000006
40
0.406250000000007
40
0.406250000000007
40
0.437500000000008
40
0.437500000000008
40
0.500000000000007
40
0.500000000000007
40
0.562500000000006
40
0.562500000000006
40
0.625000000000004
40
0.625000000000004
40
0.687500000000003
40
0.687500000000003
40
0.750000000000002
40
0.750000000000002
40
0.812500000000001
40
0.812500000000001
40
0.875
40
0.875
40
1
40
1
40
1
40
1
41
1
10
267.650480947162
20
-14.1926049128585
30
0
41
1
10
267.643561481925
20
-14.1987974091723
30
0
41
1
10
267.636760597053
20
-14.2047594560303
30
0
41
1
10
267.623428732478
20
-14.2161568732057
30
0
41
1
10
267.616868043973
20
-14.221614922344
30
0
41
1
10
267.604372494835
20
-14.2316571174384
30
0
41
1
10
267.598405523108
20
-14.2362705085001
30
0
41
1
10
267.587120780066
20
-14.2445513660961
30
0
41
1
10
267.581757911793
20
-14.2482452222619
30
0
41
1
10
267.572161291116
20
-14.254261882998
30
0
41
1
10
267.567898801765
20
-14.2566113207279
30
0
41
1
10
267.562409953693
20
-14.2590197111101
30
0
41
1
10
267.56074024976
20
-14.2596301418332
30
0
41
1
10
267.557792033825
20
-14.2604382600576
30
0
41
1
10
267.555212841065
20
-14.260843929946
30
0
41
1
10
267.553367705005
20
-14.2604482498092
30
0
41
1
10
267.551893890274
20
-14.259646847813
30
0
41
1
10
267.551341802858
20
-14.2590371274935
30
0
41
1
10
267.550274927363
20
-14.2566430276484
30
0
41
1
10
267.550326458122
20
-14.2543028706045
30
0
41
1
10
267.551787967949
20
-14.2482959791925
30
0
41
1
10
267.553220516283
20
-14.2445964956724
30
0
41
1
10
267.557185296634
20
-14.2362910592434
30
0
41
1
10
267.559719213955
20
-14.2316610587586
30
0
41
1
10
267.565737405588
20
-14.2215788782879
30
0
41
1
10
267.569244994022
20
-14.2160956853234
30
0
41
1
10
267.576918114054
20
-14.2046829541815
30
0
41
1
10
267.581098727558
20
-14.1987255135266
30
0
41
1
10
267.590054837743
20
-14.1863774236144
30
0
41
1
10
267.594830979835
20
-14.1799863029423
30
0
41
1
10
267.604926584524
20
-14.1668094826124
30
0
41
1
10
267.61022432905
20
-14.1600533921716
30
0
41
1
10
267.626598565669
20
-14.1395788033858
30
0
41
1
10
267.638226288089
20
-14.1255569553049
30
0
41
1
10
267.650480947162
20
-14.1112111570004
30
0
0
SPLINE
5
1CD
100
AcDbEntity
8
1
62
256
6
ByLayer
370
18
48
1
60
0
100
AcDbSpline
70
4
71
3
72
8
73
4
40
0
40
0
40
0
40
0
40
1
40
1
40
1
40
1
41
1
10
267.650480947162
20
-14.1112111570004
30
0
41
1
10
267.876507770666
20
-13.8466150387271
30
0
41
1
10
268.101307459449
20
-13.5806365366899
30
0
41
1
10
268.324759526419
20
-13.3131399205608
30
0
0
SPLINE
5
1CE
100
AcDbEntity
8
1
62
256
6
ByLayer
370
18
48
1
60
0
100
AcDbSpline
70
4
71
3
72
8
73
4
40
0
40
0
40
0
40
0
40
1
40
1
40
1
40
1
41
1
10
268.324759526419
20
-13.2053177327405
30
0
41
1
10
268.100154848045
20
-13.4009956122078
30
0
41
1
10
267.875390693943
20
-13.5964289589482
30
0
41
1
10
267.650480947162
20
-13.7916390605863
30
0
0
SPLINE
5
1CF
100
AcDbEntity
8
1
62
256
6
ByLayer
370
18
48
1
60
0
100
AcDbSpline
70
4
71
3
72
32
73
28
40
0
40
0
40
0
40
0
40
0.125000000000005
40
0.125000000000005
40
0.187500000000008
40
0.187500000000008
40
0.250000000000012
40
0.250000000000012
40
0.312500000000015
40
0.312500000000015
40
0.375000000000018
40
0.375000000000018
40
0.437500000000021
40
0.437500000000021
40
0.500000000000025
40
0.500000000000025
40
0.562500000000028
40
0.562500000000028
40
0.625000000000032
40
0.625000000000032
40
0.750000000000028
40
0.750000000000028
40
0.812500000000023
40
0.812500000000023
40
0.875000000000018
40
0.875000000000018
40
1
40
1
40
1
40
1
41
1
10
267.650480947162
20
-13.7916390605863
30
0
41
1
10
267.636218452344
20
-13.8040181731096
30
0
41
1
10
267.622240264368
20
-13.8154173152057
30
0
41
1
10
267.602992291188
20
-13.8296153042818
30
0
41
1
10
267.596826112669
20
-13.8338945401541
30
0
41
1
10
267.585150324815
20
-13.8413094412345
30
0
41
1
10
267.579802545074
20
-13.8443419283303
30
0
41
1
10
267.570193548697
20
-13.8489058516394
30
0
41
1
10
267.565917359672
20
-13.8504253367866
30
0
41
1
10
267.558961483899
20
-13.8516753986753
30
0
41
1
10
267.556219248358
20
-13.8514436933267
30
0
41
1
10
267.552246458667
20
-13.849215664622
30
0
41
1
10
267.551085390741
20
-13.847251677176
30
0
41
1
10
267.550241537347
20
-13.8418614194546
30
0
41
1
10
267.550569080283
20
-13.838382972768
30
0
41
1
10
267.552511726574
20
-13.8303344171854
30
0
41
1
10
267.554109567751
20
-13.8257708187564
30
0
41
1
10
267.558360917358
20
-13.8157342041938
30
0
41
1
10
267.56103952816
20
-13.8102189029195
30
0
41
1
10
267.570274220005
20
-13.7928579231853
30
0
41
1
10
267.578003306719
20
-13.7801749967745
30
0
41
1
10
267.591401058081
20
-13.7598818429381
30
0
41
1
10
267.59613953536
20
-13.7529552766068
30
0
41
1
10
267.605993559771
20
-13.7389641660196
30
0
41
1
10
267.611125160039
20
-13.7318756087936
30
0
41
1
10
267.627074672477
20
-13.7103590621013
30
0
41
1
10
267.638441494712
20
-13.6956828090534
30
0
41
1
10
267.650480947162
20
-13.6807059996453
30
0
0
SPLINE
5
1D0
100
AcDbEntity
8
1
62
256
6
ByLayer
370
18
48
1
60
0
100
AcDbSpline
70
4
71
3
72
8
73
4
40
0
40
0
40
0
40
0
40
1
40
1
40
1
40
1
41
1
10
267.650480947162
20
-13.6807059996453
30
0
41
1
10
267.876866272618
20
-13.3990877212208
30
0
41
1
10
268.101678442285
20
-13.1158055554858
30
0
41
1
10
268.324759526419
20
-12.8306924641203
30
0
0
SPLINE
5
1D1
100
AcDbEntity
8
1
62
256
6
ByLayer
370
18
48
1
60
0
100
AcDbSpline
70
4
71
3
72
8
73
4
40
0
40
0
40
0
40
0
40
1
40
1
40
1
40
1
41
1
10
268.324759526419
20
-12.6881625317622
30
0
41
1
10
268.100089025132
20
-12.8786205059034
30
0
41
1
10
267.875326782244
20
-13.0689340213265
30
0
41
1
10
267.650480947162
20
-13.2591159102959
30
0
0
SPLINE
5
1D2
100
AcDbEntity
8
1
62
256
6
ByLayer
370
18
48
1
60
0
100
AcDbSpline
70
4
71
3
72
41
73
37
40
0
40
0
40
0
40
0
40
0.0624999999999926
40
0.0624999999999926
40
0.124999999999985
40
0.124999999999985
40
0.156249999999983
40
0.156249999999983
40
0.187499999999981
40
0.187499999999981
40
0.249999999999976
40
0.249999999999976
40
0.281249999999973
40
0.281249999999973
40
0.31249999999997
40
0.343749999999967
40
0.343749999999967
40
0.374999999999964
40
0.374999999999964
40
0.437499999999961
40
0.437499999999961
40
0.468749999999961
40
0.468749999999961
40
0.499999999999962
40
0.499999999999962
40
0.562499999999968
40
0.562499999999968
40
0.624999999999974
40
0.624999999999974
40
0.68749999999998
40
0.68749999999998
40
0.749999999999986
40
0.749999999999986
40
0.874999999999993
40
0.874999999999993
40
1
40
1
40
1
40
1
41
1
10
267.650480947162
20
-13.2591159102959
30
0
41
1
10
267.643120671969
20
-13.2653414694166
30
0
41
1
10
267.635804695087
20
-13.2712773588533
30
0
41
1
10
267.621558337367
20
-13.2822363602357
30
0
41
1
10
267.614658110684
20
-13.2872398905806
30
0
41
1
10
267.604698216193
20
-13.2939087063824
30
0
41
1
10
267.601443651369
20
-13.2959915195205
30
0
41
1
10
267.595080260981
20
-13.2998442241162
30
0
41
1
10
267.591968194618
20
-13.3016142220477
30
0
41
1
10
267.583076629913
20
-13.3062945367757
30
0
41
1
10
267.577668862641
20
-13.3086246746216
30
0
41
1
10
267.570442806861
20
-13.3107695863605
30
0
41
1
10
267.568202442333
20
-13.311249831675
30
0
41
1
10
267.564140466581
20
-13.3117249114438
30
0
41
1
10
267.560469601454
20
-13.3117232880423
30
0
41
1
10
267.557572696077
20
-13.3107769709451
30
0
41
1
10
267.555065784551
20
-13.309353963845
30
0
41
1
10
267.554012412702
20
-13.3084010300555
30
0
41
1
10
267.551498718449
20
-13.3049318251677
30
0
41
1
10
267.550641696582
20
-13.3017928744923
30
0
41
1
10
267.550431296051
20
-13.295997198854
30
0
41
1
10
267.550543891767
20
-13.2938771195681
30
0
41
1
10
267.551097439142
20
-13.2893835606961
30
0
41
1
10
267.55153724686
20
-13.2870008336855
30
0
41
1
10
267.553295887259
20
-13.2794861044513
30
0
41
1
10
267.555051097323
20
-13.2739898973766
30
0
41
1
10
267.559557801758
20
-13.2621650826902
30
0
41
1
10
267.562301249488
20
-13.255868425622
30
0
41
1
10
267.568507240897
20
-13.2428591198084
30
0
41
1
10
267.571983861287
20
-13.2361109336979
30
0
41
1
10
267.579584891849
20
-13.2221925717875
30
0
41
1
10
267.583728003621
20
-13.2149922619395
30
0
41
1
10
267.59691541842
20
-13.1930284474532
30
0
41
1
10
267.606613261902
20
-13.1780492255834
30
0
41
1
10
267.627467863824
20
-13.1475539976581
30
0
41
1
10
267.638630045339
20
-13.1320359563962
30
0
41
1
10
267.650480947162
20
-13.1162678662829
30
0
0
SPLINE
5
1D3
100
AcDbEntity
8
1
62
256
6
ByLayer
370
18
48
1
60
0
100
AcDbSpline
70
4
71
3
72
8
73
4
40
0
40
0
40
0
40
0
40
1
40
1
40
1
40
1
41
1
10
267.650480947162
20
-13.1162678662829
30
0
41
1
10
267.877337890168
20
-12.8144257977423
30
0
41
1
10
268.102167049584
20
-12.5105841761004
30
0
41
1
10
268.324759526419
20
-12.204537010627
30
0
0
SPLINE
5
1D4
100
AcDbEntity
8
1
62
256
6
ByLayer
370
18
48
1
60
0
100
AcDbSpline
70
4
71
3
72
8
73
4
40
0
40
0
40
0
40
0
40
1
40
1
40
1
40
1
41
1
10
268.324759526419
20
-12.0237655573035
30
0
41
1
10
268.100039125586
20
-12.2102687278786
30
0
41
1
10
267.875278354979
20
-12.3967070563419
30
0
41
1
10
267.650480947162
20
-12.5830864488545
30
0
0
SPLINE
5
1D5
100
AcDbEntity
8
1
62
256
6
ByLayer
370
18
48
1
60
0
100
AcDbSpline
70
4
71
3
72
39
73
35
40
0
40
0
40
0
40
0
40
0.0625000000000067
40
0.0625000000000067
40
0.125000000000013
40
0.125000000000013
40
0.18750000000002
40
0.18750000000002
40
0.218750000000018
40
0.218750000000018
40
0.250000000000016
40
0.250000000000016
40
0.312500000000011
40
0.312500000000011
40
0.343750000000009
40
0.343750000000009
40
0.375000000000008
40
0.406250000000006
40
0.406250000000006
40
0.437500000000004
40
0.437500000000004
40
0.500000000000005
40
0.500000000000005
40
0.562500000000006
40
0.562500000000006
40
0.625000000000007
40
0.625000000000007
40
0.687500000000007
40
0.687500000000007
40
0.750000000000008
40
0.750000000000008
40
0.875000000000004
40
0.875000000000004
40
1
40
1
40
1
40
1
41
1
10
267.650480947162
20
-12.5830864488545
30
0
41
1
10
267.642848465984
20
-12.5894145343029
30
0
41
1
10
267.635230044314
20
-12.595390661751
30
0
41
1
10
267.620434193986
20
-12.6061779599136
30
0
41
1
10
267.613255140464
20
-12.6109974845258
30
0
41
1
10
267.599425158374
20
-12.6192459915897
30
0
41
1
10
267.592745263725
20
-12.6226722784107
30
0
41
1
10
267.583692680945
20
-12.6262998168299
30
0
41
1
10
267.580816760607
20
-12.6272697003255
30
0
41
1
10
267.575367399923
20
-12.6286973789882
30
0
41
1
10
267.572783455345
20
-12.6291527982114
30
0
41
1
10
267.565725370173
20
-12.6296830301401
30
0
41
1
10
267.561864611698
20
-12.6289563432174
30
0
41
1
10
267.557292459269
20
-12.6263023228401
30
0
41
1
10
267.55596873654
20
-12.6251453113997
30
0
41
1
10
267.553784251942
20
-12.6223872509883
30
0
41
1
10
267.5520409109
20
-12.6191807863454
30
0
41
1
10
267.551098579189
20
-12.6151589316106
30
0
41
1
10
267.550528264205
20
-12.6107578663781
30
0
41
1
10
267.550430700683
20
-12.6083568813511
30
0
41
1
10
267.550654051541
20
-12.6007652352962
30
0
41
1
10
267.551475794025
20
-12.5951597496364
30
0
41
1
10
267.554198267888
20
-12.5830737854485
30
0
41
1
10
267.556114381686
20
-12.5765557654393
30
0
41
1
10
267.560823333971
20
-12.5629298211251
30
0
41
1
10
267.563597798464
20
-12.5558628914167
30
0
41
1
10
267.569844713144
20
-12.5413066108052
30
0
41
1
10
267.573318283136
20
-12.5338165910076
30
0
41
1
10
267.580882685558
20
-12.5184630726745
30
0
41
1
10
267.584984596991
20
-12.5105829559687
30
0
41
1
10
267.597909096523
20
-12.4868430027674
30
0
41
1
10
267.60740422431
20
-12.4707518266133
30
0
41
1
10
267.627855969026
20
-12.4381338925017
30
0
41
1
10
267.638816630045
20
-12.4216059035302
30
0
41
1
10
267.650480947162
20
-12.4048713342168
30
0
0
SPLINE
5
1D6
100
AcDbEntity
8
1
62
256
6
ByLayer
370
18
48
1
60
0
100
AcDbSpline
70
4
71
3
72
8
73
4
40
0
40
0
40
0
40
0
40
1
40
1
40
1
40
1
41
1
10
267.650480947162
20
-12.4048713342168
30
0
41
1
10
267.87797677687
20
-12.0784874839783
30
0
41
1
10
268.10282976625
20
-11.7496954266917
30
0
41
1
10
268.324759526419
20
-11.4182396666035
30
0
0
SPLINE
5
1D7
100
AcDbEntity
8
1
62
256
6
ByLayer
370
18
48
1
60
0
100
AcDbSpline
70
4
71
3
72
8
73
4
40
0
40
0
40
0
40
0
40
1
40
1
40
1
40
1
41
1
10
268.324759526419
20
-11.1940141333158
30
0
41
1
10
268.100007511727
20
-11.3780816494076
30
0
41
1
10
267.875247737629
20
-11.562136533404
30
0
41
1
10
267.650480947162
20
-11.746179991573
30
0
0
SPLINE
5
1D8
100
AcDbEntity
8
1
62
256
6
ByLayer
370
18
48
1
60
0
100
AcDbSpline
70
4
71
3
72
39
73
35
40
0
40
0
40
0
40
0
40
0.0625000000000132
40
0.0625000000000132
40
0.125000000000026
40
0.125000000000026
40
0.15625000000003
40
0.15625000000003
40
0.187500000000033
40
0.187500000000033
40
0.218750000000036
40
0.218750000000036
40
0.25000000000004
40
0.281250000000043
40
0.281250000000043
40
0.312500000000046
40
0.312500000000046
40
0.375000000000053
40
0.375000000000053
40
0.406250000000056
40
0.406250000000056
40
0.437500000000059
40
0.437500000000059
40
0.500000000000053
40
0.500000000000053
40
0.562500000000046
40
0.562500000000046
40
0.625000000000039
40
0.625000000000039
40
0.750000000000026
40
0.750000000000026
40
0.875000000000013
40
0.875000000000013
40
1
40
1
40
1
40
1
41
1
10
267.650480947162
20
-11.746179991573
30
0
41
1
10
267.642517355018
20
-11.7527007370729
30
0
41
1
10
267.63453440989
20
-11.7587815916516
30
0
41
1
10
267.619042460543
20
-11.7694623151681
30
0
41
1
10
267.611511726718
20
-11.7740895951831
30
0
41
1
10
267.600621370502
20
-11.7796806806265
30
0
41
1
10
267.597061556648
20
-11.7813124621382
30
0
41
1
10
267.590290341915
20
-11.7839856794475
30
0
41
1
10
267.587053841966
20
-11.7850409190099
30
0
41
1
10
267.58089623758
20
-11.7865551188083
30
0
41
1
10
267.577954952722
20
-11.787014546725
30
0
41
1
10
267.572512587958
20
-11.7872842763299
30
0
41
1
10
267.567547431314
20
-11.7869134556388
30
0
41
1
10
267.56348717482
20
-11.7853258627782
30
0
41
1
10
267.559865561372
20
-11.7831473720273
30
0
41
1
10
267.558264729514
20
-11.7817488018332
30
0
41
1
10
267.554196953588
20
-11.7767917693816
30
0
41
1
10
267.552440567205
20
-11.7725079257539
30
0
41
1
10
267.550959029724
20
-11.7648963564566
30
0
41
1
10
267.550660070545
20
-11.7621461067265
30
0
41
1
10
267.550422720308
20
-11.7563820754741
30
0
41
1
10
267.550481076441
20
-11.7533611718071
30
0
41
1
10
267.551119474506
20
-11.7439343578554
30
0
41
1
10
267.552159177103
20
-11.7371671874774
30
0
41
1
10
267.555239798449
20
-11.7228437690721
30
0
41
1
10
267.557290439547
20
-11.7152746972413
30
0
41
1
10
267.562146245542
20
-11.6997853492498
30
0
41
1
10
267.564959968858
20
-11.6918233983916
30
0
41
1
10
267.574383518436
20
-11.667383516767
30
0
41
1
10
267.582020418221
20
-11.650262691225
30
0
41
1
10
267.598905986321
20
-11.6158494363728
30
0
41
1
10
267.608200334979
20
-11.598435293485
30
0
41
1
10
267.628249215424
20
-11.5632547901691
30
0
41
1
10
267.639006636006
20
-11.5454877152697
30
0
41
1
10
267.650480947162
20
-11.5275506630102
30
0
0
SPLINE
5
1D9
100
AcDbEntity
8
1
62
256
6
ByLayer
370
18
48
1
60
0
100
AcDbSpline
70
4
71
3
72
8
73
4
40
0
40
0
40
0
40
0
40
1
40
1
40
1
40
1
41
1
10
267.650480947162
20
-11.5275506630102
30
0
41
1
10
267.878876276632
20
-11.1705149416595
30
0
41
1
10
268.103764009202
20
-10.810559849517
30
0
41
1
10
268.324759526419
20
-10.4473652688745
30
0
0
SPLINE
5
1DA
100
AcDbEntity
8
1
62
256
6
ByLayer
370
18
48
1
60
0
100
AcDbSpline
70
4
71
3
72
8
73
4
40
0
40
0
40
0
40
0
40
1
40
1
40
1
40
1
41
1
10
268.324759526419
20
-10.1718025873668
30
0
41
1
10
268.10000187134
20
-10.3554472734967
30
0
41
1
10
267.875242279349
20
-10.5390887989495
30
0
41
1
10
267.650480947162
20
-10.7227274845183
30
0
0
SPLINE
5
1DB
100
AcDbEntity
8
1
62
256
6
ByLayer
370
18
48
1
60
0
100
AcDbSpline
70
4
71
3
72
38
73
34
40
0
40
0
40
0
40
0
40
0.0624999999999862
40
0.0624999999999862
40
0.0937499999999819
40
0.0937499999999819
40
0.124999999999978
40
0.124999999999978
40
0.18749999999997
40
0.18749999999997
40
0.249999999999963
40
0.249999999999963
40
0.281249999999962
40
0.281249999999962
40
0.312499999999962
40
0.312499999999962
40
0.374999999999965
40
0.374999999999965
40
0.437499999999968
40
0.437499999999968
40
0.499999999999971
40
0.499999999999971
40
0.562499999999973
40
0.562499999999973
40
0.624999999999976
40
0.624999999999976
40
0.687499999999979
40
0.687499999999979
40
0.749999999999982
40
0.749999999999982
40
0.874999999999991
40
0.874999999999991
40
1
40
1
40
1
40
1
41
1
10
267.650480947162
20
-10.7227274845183
30
0
41
1
10
267.642084189611
20
-10.7295879596037
30
0
41
1
10
267.633635577278
20
-10.7358730778356
30
0
41
1
10
267.621331349082
20
-10.7438542779441
30
0
41
1
10
267.617278610407
20
-10.7462841546212
30
0
41
1
10
267.609284196944
20
-10.7506167225577
30
0
41
1
10
267.605312533919
20
-10.7525309641135
30
0
41
1
10
267.59384949108
20
-10.7572404234748
30
0
41
1
10
267.586793021271
20
-10.7590261770081
30
0
41
1
10
267.574217814694
20
-10.7594741859477
30
0
41
1
10
267.568995280752
20
-10.7581391109129
30
0
41
1
10
267.562595860953
20
-10.7540283498179
30
0
41
1
10
267.560701051961
20
-10.7522911875507
30
0
41
1
10
267.557471003325
20
-10.7482678595027
30
0
41
1
10
267.556116901746
20
-10.7459736675136
30
0
41
1
10
267.552741344183
20
-10.7383459141717
30
0
41
1
10
267.551412871276
20
-10.7322137165065
30
0
41
1
10
267.550260898918
20
-10.7189622551599
30
0
41
1
10
267.550404629694
20
-10.7117851145465
30
0
41
1
10
267.551786707427
20
-10.6965886813024
30
0
41
1
10
267.55302900844
20
-10.6885664010898
30
0
41
1
10
267.556428844899
20
-10.6718153503697
30
0
41
1
10
267.558575785074
20
-10.6631531994741
30
0
41
1
10
267.563557184201
20
-10.6455384394763
30
0
41
1
10
267.566399025425
20
-10.6365545230326
30
0
41
1
10
267.5726862554
20
-10.6182825742104
30
0
41
1
10
267.576143791446
20
-10.6089656304781
30
0
41
1
10
267.58354639268
20
-10.5902008455666
30
0
41
1
10
267.587481021919
20
-10.5807754721047
30
0
41
1
10
267.599905559109
20
-10.5523851374547
30
0
41
1
10
267.609009839549
20
-10.5333070438359
30
0
41
1
10
267.628661740995
20
-10.4948880043354
30
0
41
1
10
267.639211392285
20
-10.4755466757476
30
0
41
1
10
267.650480947162
20
-10.4560769820837
30
0
0
SPLINE
5
1DC
100
AcDbEntity
8
1
62
256
6
ByLayer
370
18
48
1
60
0
100
AcDbSpline
70
4
71
3
72
8
73
4
40
0
40
0
40
0
40
0
40
1
40
1
40
1
40
1
41
1
10
267.650480947162
20
-10.4560769820837
30
0
41
1
10
267.880211532645
20
-10.0591860512814
30
0
41
1
10
268.105152654041
20
-9.65871232422131
30
0
41
1
10
268.324759526419
20
-9.25424827025361
30
0
0
SPLINE
5
1DD
100
AcDbEntity
8
1
62
256
6
ByLayer
370
18
48
1
60
0
100
AcDbSpline
70
4
71
3
72
8
73
4
40
0
40
0
40
0
40
0
40
1
40
1
40
1
40
1
41
1
10
268.324759526419
20
-8.91477968744127
30
0
41
1
10
268.10004293855
20
-9.10099187452957
30
0
41
1
10
267.87528177088
20
-9.28713229076214
30
0
41
1
10
267.650480947162
20
-9.47320886309237
30
0
0
SPLINE
5
1DE
100
AcDbEntity
8
1
62
256
6
ByLayer
370
18
48
1
60
0
100
AcDbSpline
70
4
71
3
72
34
73
30
40
0
40
0
40
0
40
0
40
0.0625000000000157
40
0.0625000000000157
40
0.0937500000000254
40
0.0937500000000254
40
0.125000000000035
40
0.125000000000035
40
0.187500000000047
40
0.187500000000047
40
0.250000000000058
40
0.250000000000058
40
0.28125000000006
40
0.28125000000006
40
0.312500000000061
40
0.312500000000061
40
0.375000000000058
40
0.375000000000058
40
0.437500000000054
40
0.437500000000054
40
0.50000000000005
40
0.50000000000005
40
0.625000000000038
40
0.625000000000038
40
0.750000000000025
40
0.750000000000025
40
0.875000000000013
40
0.875000000000013
40
1
40
1
40
1
40
1
41
1
10
267.650480947162
20
-9.4732088630933
30
0
41
1
10
267.641610746045
20
-9.48055108093936
30
0
41
1
10
267.632717594853
20
-9.48709742601486
30
0
41
1
10
267.619328414583
20
-9.49520539499068
30
0
41
1
10
267.614948765931
20
-9.49756171194821
30
0
41
1
10
267.606376490094
20
-9.50149614590956
30
0
41
1
10
267.602156895126
20
-9.50308185095761
30
0
41
1
10
267.590005767027
20
-9.50643292619722
30
0
41
1
10
267.582819857639
20
-9.50675740049098
30
0
41
1
10
267.570335823892
20
-9.50344855594645
30
0
41
1
10
267.565449926247
20
-9.49992936230936
30
0
41
1
10
267.559738856258
20
-9.49254380095775
30
0
41
1
10
267.558096977763
20
-9.48970101832154
30
0
41
1
10
267.555363676397
20
-9.48351861218666
30
0
41
1
10
267.554261456695
20
-9.48017426130508
30
0
41
1
10
267.551618606382
20
-9.46950406988628
30
0
41
1
10
267.55074024509
20
-9.46148862181025
30
0
41
1
10
267.550322100162
20
-9.44464214165072
30
0
41
1
10
267.550767880496
20
-9.43576934561221
30
0
41
1
10
267.552650600946
20
-9.4173396015774
30
0
41
1
10
267.554097560382
20
-9.40774830411803
30
0
41
1
10
267.559624326733
20
-9.37836229807058
30
0
41
1
10
267.564840271178
20
-9.35804580031666
30
0
41
1
10
267.57746663017
20
-9.31641517319008
30
0
41
1
10
267.584781622077
20
-9.29544451247517
30
0
41
1
10
267.600983403359
20
-9.25325825027281
30
0
41
1
10
267.609876729726
20
-9.23204169530254
30
0
41
1
10
267.629096511696
20
-9.18938762024462
30
0
41
1
10
267.639424130324
20
-9.16794990812267
30
0
41
1
10
267.650480947162
20
-9.14640238484057
30
0
0
SPLINE
5
1DF
100
AcDbEntity
8
1
62
256
6
ByLayer
370
18
48
1
60
0
100
AcDbSpline
70
4
71
3
72
8
73
4
40
0
40
0
40
0
40
0
40
1
40
1
40
1
40
1
41
1
10
267.650480947162
20
-9.14640238484057
30
0
41
1
10
267.882352997816
20
-8.69453016127972
30
0
41
1
10
268.107382666912
20
-8.23816651619808
30
0
41
1
10
268.324759526419
20
-7.77677947489215
30
0
0
SPLINE
5
1E0
100
AcDbEntity
8
1
62
256
6
ByLayer
370
18
48
1
60
0
100
AcDbSpline
70
4
71
3
72
8
73
4
40
0
40
0
40
0
40
0
40
1
40
1
40
1
40
1
41
1
10
268.324759526419
20
-7.35146119898474
30
0
41
1
10
268.100191536751
20
-7.5453578173516
30
0
41
1
10
267.875423713527
20
-7.73894510745922
30
0
41
1
10
267.650480947162
20
-7.93226159791718
30
0
0
SPLINE
5
1E1
100
AcDbEntity
8
1
62
256
6
ByLayer
370
18
48
1
60
0
100
AcDbSpline
70
4
71
3
72
39
73
35
40
0
40
0
40
0
40
0
40
0.0312499999999989
40
0.0312499999999989
40
0.0624999999999979
40
0.0624999999999979
40
0.0937499999999969
40
0.0937499999999969
40
0.124999999999996
40
0.124999999999996
40
0.156249999999995
40
0.156249999999995
40
0.187499999999994
40
0.187499999999994
40
0.218749999999993
40
0.218749999999993
40
0.249999999999992
40
0.249999999999992
40
0.281249999999991
40
0.281249999999991
40
0.31249999999999
40
0.31249999999999
40
0.374999999999983
40
0.374999999999983
40
0.499999999999979
40
0.499999999999979
40
0.56249999999998
40
0.56249999999998
40
0.624999999999981
40
0.624999999999981
40
0.749999999999988
40
0.749999999999988
40
0.874999999999994
40
1
40
1
40
1
40
1
41
1
10
267.650480947162
20
-7.93226159791899
30
0
41
1
10
267.645659559596
20
-7.93640511290448
30
0
41
1
10
267.640801078904
20
-7.94027527253456
30
0
41
1
10
267.630992180374
20
-7.94733665601603
30
0
41
1
10
267.626006027204
20
-7.95054470916793
30
0
41
1
10
267.616213206618
20
-7.95591984139028
30
0
41
1
10
267.611384546088
20
-7.95810902100757
30
0
41
1
10
267.601890289183
20
-7.96128445215427
30
0
41
1
10
267.597355810905
20
-7.96222048374619
30
0
41
1
10
267.588820720175
20
-7.96271895541486
30
0
41
1
10
267.584759371
20
-7.96226588251636
30
0
41
1
10
267.577453125654
20
-7.96002560259481
30
0
41
1
10
267.574191909539
20
-7.95826207512442
30
0
41
1
10
267.568356163976
20
-7.95360470919078
30
0
41
1
10
267.565807208947
20
-7.95071591730155
30
0
41
1
10
267.561457307646
20
-7.94421632214596
30
0
41
1
10
267.559626662752
20
-7.94058162684507
30
0
41
1
10
267.556523269336
20
-7.93268665844519
30
0
41
1
10
267.555247510152
20
-7.92840352998817
30
0
41
1
10
267.55319751331
20
-7.91944341403394
30
0
41
1
10
267.552418485904
20
-7.91476360895018
30
0
41
1
10
267.550682498191
20
-7.90023434939587
30
0
41
1
10
267.550325735067
20
-7.88985561336946
30
0
41
1
10
267.550966789172
20
-7.85799228261826
30
0
41
1
10
267.553590221519
20
-7.83558668761302
30
0
41
1
10
267.559524476594
20
-7.80090260273141
30
0
41
1
10
267.561860927053
20
-7.78911380618999
30
0
41
1
10
267.567088729835
20
-7.76542058685163
30
0
41
1
10
267.569973709317
20
-7.7535355328593
30
0
41
1
10
267.579321527427
20
-7.7177809868887
30
0
41
1
10
267.58646953122
20
-7.69381309105472
30
0
41
1
10
267.602267862415
20
-7.64565947793471
30
0
41
1
10
267.619577003328
20
-7.59728693312169
30
0
41
1
10
267.639694160572
20
-7.54851064618569
30
0
41
1
10
267.650480947162
20
-7.52402032861448
30
0
0
SPLINE
5
1E2
100
AcDbEntity
8
1
62
256
6
ByLayer
370
18
48
1
60
0
100
AcDbSpline
70
4
71
3
72
8
73
4
40
0
40
0
40
0
40
0
40
1
40
1
40
1
40
1
41
1
10
267.650480947162
20
-7.52402032861448
30
0
41
1
10
267.886241901321
20
-6.98874871734321
30
0
41
1
10
268.111437539985
20
-6.44762852173562
30
0
41
1
10
268.324759526419
20
-5.89993549292939
30
0
0
SPLINE
5
1E3
100
AcDbEntity
8
1
62
256
6
ByLayer
370
18
48
1
60
0
100
AcDbSpline
70
4
71
3
72
8
73
4
40
0
40
0
40
0
40
0
40
1
40
1
40
1
40
1
41
1
10
268.324759526419
20
-5.3438916153458
30
0
41
1
10
268.100672937923
20
-5.55616259190819
30
0
41
1
10
267.875878259423
20
-5.76742938853343
30
0
41
1
10
267.650480947162
20
-5.97784155830419
30
0
0
SPLINE
5
1E4
100
AcDbEntity
8
1
62
256
6
ByLayer
370
18
48
1
60
0
100
AcDbSpline
70
4
71
3
72
39
73
35
40
0
40
0
40
0
40
0
40
0.0312500000000013
40
0.0312500000000013
40
0.0625000000000027
40
0.0625000000000027
40
0.0781250000000038
40
0.0781250000000038
40
0.093750000000005
40
0.093750000000005
40
0.125000000000008
40
0.125000000000008
40
0.156250000000012
40
0.156250000000012
40
0.187500000000016
40
0.187500000000016
40
0.218750000000019
40
0.218750000000019
40
0.250000000000023
40
0.250000000000023
40
0.281250000000026
40
0.281250000000026
40
0.31250000000003
40
0.31250000000003
40
0.375000000000029
40
0.375000000000029
40
0.500000000000023
40
0.500000000000023
40
0.625000000000017
40
0.625000000000017
40
0.750000000000012
40
0.750000000000012
40
0.875000000000006
40
1
40
1
40
1
40
1
41
1
10
267.650480947162
20
-5.97784155830595
30
0
41
1
10
267.645070573186
20
-5.98289223311738
30
0
41
1
10
267.639513106979
20
-5.98757922883834
30
0
41
1
10
267.628225225349
20
-5.99575979951476
30
0
41
1
10
267.622572736455
20
-5.99920331417292
30
0
41
1
10
267.614077225303
20
-6.00309188103947
30
0
41
1
10
267.611222335286
20
-6.0041768835963
30
0
41
1
10
267.605677702528
20
-6.00579678088101
30
0
41
1
10
267.602973531995
20
-6.00634145162715
30
0
41
1
10
267.595073068045
20
-6.00714902252295
30
0
41
1
10
267.590031566255
20
-6.00653248903444
30
0
41
1
10
267.581193349521
20
-6.00322100252211
30
0
41
1
10
267.577280359417
20
-6.0005431411258
30
0
41
1
10
267.570434037439
20
-5.99361295890813
30
0
41
1
10
267.567567506173
20
-5.98945546023654
30
0
41
1
10
267.562642849808
20
-5.98013118363457
30
0
41
1
10
267.560603852079
20
-5.9749764931922
30
0
41
1
10
267.557229405652
20
-5.96419775223481
30
0
41
1
10
267.555875895449
20
-5.95853365972957
30
0
41
1
10
267.553672457203
20
-5.94678901701678
30
0
41
1
10
267.552823959493
20
-5.94070730425935
30
0
41
1
10
267.551532822405
20
-5.92820667992882
30
0
41
1
10
267.551090778585
20
-5.92176918652808
30
0
41
1
10
267.550280304693
20
-5.90225782336273
30
0
41
1
10
267.550409275107
20
-5.88893362627496
30
0
41
1
10
267.552194406003
20
-5.84829137627224
30
0
41
1
10
267.555225580055
20
-5.82031433022186
30
0
41
1
10
267.56364088965
20
-5.76320726547411
30
0
41
1
10
267.568989094997
20
-5.73448453117362
30
0
41
1
10
267.581324248186
20
-5.67689172178731
30
0
41
1
10
267.588324868774
20
-5.64799917338237
30
0
41
1
10
267.603732419277
20
-5.59004840719558
30
0
41
1
10
267.620551977068
20
-5.53193141866862
30
0
41
1
10
267.640038964386
20
-5.47350179980808
30
0
41
1
10
267.650480947162
20
-5.44420748306328
30
0
0
SPLINE
5
1E5
100
AcDbEntity
8
1
62
256
6
ByLayer
370
18
48
1
60
0
100
AcDbSpline
70
4
71
3
72
8
73
4
40
0
40
0
40
0
40
0
40
1
40
1
40
1
40
1
41
1
10
267.650480947162
20
-5.44420748306328
30
0
41
1
10
267.895186418447
20
-4.75770188931241
30
0
41
1
10
268.120774732857
20
-4.06295440434465
30
0
41
1
10
268.324759526419
20
-3.35889309358703
30
0
0
SPLINE
5
1E6
100
AcDbEntity
8
1
62
256
6
ByLayer
370
18
48
1
60
0
100
AcDbSpline
70
4
71
3
72
8
73
4
40
0
40
0
40
0
40
0
40
1
40
1
40
1
40
1
41
1
10
268.324759526419
20
-2.54543529228207
30
0
41
1
10
268.102856207575
20
-2.80812939306756
30
0
41
1
10
267.87789393872
20
-3.06728947825403
30
0
41
1
10
267.650480947162
20
-3.32361823496825
30
0
0
SPLINE
5
1E7
100
AcDbEntity
8
1
62
256
6
ByLayer
370
18
48
1
60
0
100
AcDbSpline
70
4
71
3
72
38
73
34
40
0
40
0
40
0
40
0
40
0.0312500000000092
40
0.0312500000000092
40
0.0468750000000111
40
0.0468750000000111
40
0.0625000000000129
40
0.0625000000000129
40
0.0781250000000148
40
0.0781250000000148
40
0.0937500000000167
40
0.0937500000000167
40
0.109375000000018
40
0.109375000000018
40
0.12500000000002
40
0.12500000000002
40
0.156250000000016
40
0.156250000000016
40
0.187500000000012
40
0.187500000000012
40
0.250000000000011
40
0.250000000000011
40
0.312500000000009
40
0.312500000000009
40
0.375000000000007
40
0.375000000000007
40
0.500000000000006
40
0.500000000000006
40
0.625000000000005
40
0.625000000000005
40
0.750000000000004
40
0.750000000000004
40
1
40
1
40
1
40
1
41
1
10
267.650480947163
20
-3.32361823497158
30
0
41
1
10
267.643984522043
20
-3.33094068635305
30
0
41
1
10
267.637087099727
20
-3.33768124412313
30
0
41
1
10
267.626354747428
20
-3.34568070105763
30
0
41
1
10
267.622672786077
20
-3.34801975192073
30
0
41
1
10
267.615227174174
20
-3.35169640698223
30
0
41
1
10
267.611531397854
20
-3.35300455163289
30
0
41
1
10
267.604203715131
20
-3.35436607527086
30
0
41
1
10
267.600638398742
20
-3.3543893446805
30
0
41
1
10
267.593959541195
20
-3.35314067665328
30
0
41
1
10
267.590782123263
20
-3.35184798669397
30
0
41
1
10
267.58507026222
20
-3.34828207327095
30
0
41
1
10
267.582488099225
20
-3.34601133649505
30
0
41
1
10
267.577753050436
20
-3.34070331419869
30
0
41
1
10
267.575612489275
20
-3.33767053930825
30
0
41
1
10
267.569849274635
20
-3.32792028671358
30
0
41
1
10
267.566789889396
20
-3.32043543782288
30
0
41
1
10
267.561775920044
20
-3.30477720344982
30
0
41
1
10
267.559797491318
20
-3.29654262529218
30
0
41
1
10
267.554893629213
20
-3.2710419424109
30
0
41
1
10
267.552983754743
20
-3.25288418124572
30
0
41
1
10
267.550722421526
20
-3.21638791679734
30
0
41
1
10
267.550369579247
20
-3.19789985844957
30
0
41
1
10
267.550648562
20
-3.16061226405216
30
0
41
1
10
267.551290415845
20
-3.14180977373368
30
0
41
1
10
267.5543116466
20
-3.08504763501375
30
0
41
1
10
267.557768451239
20
-3.04673870110841
30
0
41
1
10
267.566574464434
20
-2.96947917110109
30
0
41
1
10
267.571943356467
20
-2.93052277137772
30
0
41
1
10
267.584191791777
20
-2.85208140430837
30
0
41
1
10
267.591049423945
20
-2.81277108989698
30
0
41
1
10
267.613451439318
20
-2.69485960614358
30
0
41
1
10
267.630794068013
20
-2.61615616242864
30
0
41
1
10
267.650480947162
20
-2.53736390968342
30
0
0
SPLINE
5
1E8
100
AcDbEntity
8
1
62
256
6
ByLayer
370
18
48
1
60
0
100
AcDbSpline
70
4
71
3
72
8
73
4
40
0
40
0
40
0
40
0
40
1
40
1
40
1
40
1
41
1
10
267.650480947162
20
-2.53736390968345
30
0
41
1
10
267.936650314553
20
-1.39203615339727
30
0
41
1
10
268.164101740032
20
-0.231555181888524
30
0
41
1
10
268.324759526419
20
0.946163082953603
30
0
0
SPLINE
5
1E9
100
AcDbEntity
8
1
62
256
6
ByLayer
370
18
48
1
60
0
100
AcDbSpline
70
4
71
3
72
10
73
6
40
0
40
0
40
0
40
0
40
0.5
40
0.5
40
1
40
1
40
1
40
1
41
1
10
268.324759526419
20
3.46016437565444
30
0
41
1
10
268.253343637493
20
3.08605222486108
30
0
41
1
10
268.158489259995
20
2.72177884437951
30
0
41
1
10
267.930986544702
20
2.00909684762169
30
0
41
1
10
267.79833441894
20
1.66068982142014
30
0
41
1
10
267.650480947162
20
1.31866386161801
30
0
0
SPLINE
5
1EA
100
AcDbEntity
8
1
62
256
6
ByLayer
370
18
48
1
60
0
100
AcDbSpline
70
4
71
3
72
57
73
53
40
0
40
0
40
0
40
0
40
0.124999999999997
40
0.124999999999997
40
0.249999999999994
40
0.374999999999991
40
0.374999999999991
40
0.499999999999988
40
0.499999999999988
40
0.624999999999985
40
0.624999999999985
40
0.687499999999983
40
0.687499999999983
40
0.749999999999982
40
0.749999999999982
40
0.81249999999998
40
0.81249999999998
40
0.874999999999979
40
0.874999999999979
40
0.906249999999978
40
0.906249999999978
40
0.921874999999978
40
0.921874999999978
40
0.937499999999977
40
0.937499999999977
40
0.945312499999977
40
0.945312499999977
40
0.953124999999977
40
0.953124999999977
40
0.960937499999977
40
0.960937499999977
40
0.964843749999978
40
0.964843749999978
40
0.968749999999978
40
0.968749999999978
40
0.972656249999979
40
0.972656249999979
40
0.976562499999979
40
0.976562499999979
40
0.978515624999981
40
0.978515624999981
40
0.980468749999982
40
0.980468749999982
40
0.982421874999983
40
0.982421874999983
40
0.984374999999984
40
0.984374999999984
40
0.988281249999988
40
0.988281249999988
40
0.992187499999992
40
0.992187499999992
40
1
40
1
40
1
40
1
41
1
10
267.650480947162
20
4.79447758099667
30
0
41
1
10
267.649474914009
20
4.64257282307747
30
0
41
1
10
267.647352403027
20
4.49068193356015
30
0
41
1
10
267.641079448038
20
4.18692895768521
30
0
41
1
10
267.632780577668
20
3.88320479550887
30
0
41
1
10
267.621220285853
20
3.57954243457635
30
0
41
1
10
267.608599227804
20
3.27591403785303
30
0
41
1
10
267.601754923346
20
3.12411680115792
30
0
41
1
10
267.587790157286
20
2.82056059262649
30
0
41
1
10
267.580656945611
20
2.66880154760787
30
0
41
1
10
267.570656270951
20
2.44119674680141
30
0
41
1
10
267.567443146172
20
2.3653341303519
30
0
41
1
10
267.561508805656
20
2.21362161662216
30
0
41
1
10
267.558783648494
20
2.13774767313779
30
0
41
1
10
267.554227791731
20
1.98639807764752
30
0
41
1
10
267.552384521753
20
1.91088208268403
30
0
41
1
10
267.550304819929
20
1.76030544060933
30
0
41
1
10
267.550017507499
20
1.6852352599474
30
0
41
1
10
267.552116127572
20
1.5732193809699
30
0
41
1
10
267.553241725102
20
1.53597982306456
30
0
41
1
10
267.556066196098
20
1.48036217479086
30
0
41
1
10
267.557199844787
20
1.46186376712626
30
0
41
1
10
267.560032561575
20
1.42498249382041
30
0
41
1
10
267.561724621638
20
1.40659831536257
30
0
41
1
10
267.564962866512
20
1.37916042457786
30
0
41
1
10
267.566160648091
20
1.37003783743228
30
0
41
1
10
267.568892543204
20
1.3518580740199
30
0
41
1
10
267.570429233634
20
1.34277298098647
30
0
41
1
10
267.574003223349
20
1.32482961050152
30
0
41
1
10
267.576022559128
20
1.3160194319106
30
0
41
1
10
267.579665375541
20
1.30322695536597
30
0
41
1
10
267.580983473112
20
1.29903429870967
30
0
41
1
10
267.583925806698
20
1.29085903674346
30
0
41
1
10
267.585555704597
20
1.28686312506491
30
0
41
1
10
267.589214864265
20
1.27940680909828
30
0
41
1
10
267.591242911041
20
1.27591802146324
30
0
41
1
10
267.596024190781
20
1.26981277473885
30
0
41
1
10
267.598791925149
20
1.2672074496231
30
0
41
1
10
267.603585192062
20
1.2649718690642
30
0
41
1
10
267.605238544653
20
1.26453095266163
30
0
41
1
10
267.608667422955
20
1.26431709371232
30
0
41
1
10
267.61045752744
20
1.2645596699725
30
0
41
1
10
267.613936585578
20
1.26566676014633
30
0
41
1
10
267.615671884936
20
1.26653771797211
30
0
41
1
10
267.61899339339
20
1.2687115550205
30
0
41
1
10
267.620581409002
20
1.27000587963417
30
0
41
1
10
267.625186557665
20
1.27434154931871
30
0
41
1
10
267.628021131566
20
1.2778099018696
30
0
41
1
10
267.633249794904
20
1.28514751172437
30
0
41
1
10
267.635679061346
20
1.28906668056044
30
0
41
1
10
267.642616772462
20
1.30129666549811
30
0
41
1
10
267.646685962344
20
1.3098850124704
30
0
41
1
10
267.650480947162
20
1.31866386161801
30
0
0
SPLINE
5
1EB
100
AcDbEntity
8
1
62
256
6
ByLayer
370
18
48
1
60
0
100
AcDbSpline
70
4
71
3
72
8
73
4
40
0
40
0
40
0
40
0
40
1
40
1
40
1
40
1
41
1
10
267.650480947162
20
4.79447758099667
30
0
41
1
10
267.651388368233
20
4.93149252699823
30
0
41
1
10
267.651388368233
20
5.06850747299978
30
0
41
1
10
267.650480947162
20
5.20552241900131
30
0
0
SPLINE
5
1EC
100
AcDbEntity
8
1
62
256
6
ByLayer
370
18
48
1
60
0
100
AcDbSpline
70
4
71
3
72
59
73
55
40
0
40
0
40
0
40
0
40
0.125000000000001
40
0.125000000000001
40
0.250000000000002
40
0.375000000000003
40
0.375000000000003
40
0.500000000000004
40
0.500000000000004
40
0.625000000000005
40
0.625000000000005
40
0.687500000000006
40
0.687500000000006
40
0.750000000000006
40
0.750000000000006
40
0.812500000000007
40
0.812500000000007
40
0.843750000000008
40
0.843750000000008
40
0.875000000000009
40
0.875000000000009
40
0.90625000000001
40
0.90625000000001
40
0.921875000000009
40
0.921875000000009
40
0.937500000000009
40
0.937500000000009
40
0.945312500000008
40
0.945312500000008
40
0.953125000000007
40
0.953125000000007
40
0.960937500000005
40
0.960937500000005
40
0.964843750000004
40
0.964843750000004
40
0.968750000000003
40
0.968750000000003
40
0.972656250000002
40
0.972656250000002
40
0.9765625
40
0.9765625
40
0.978515625
40
0.978515625
40
0.98046875
40
0.98046875
40
0.982421874999999
40
0.982421874999999
40
0.984374999999999
40
0.984374999999999
40
0.988281249999999
40
0.988281249999999
40
0.992187499999999
40
0.992187499999999
40
1
40
1
40
1
40
1
41
1
10
267.650480947162
20
5.20552241900131
30
0
41
1
10
267.649474529164
20
5.3574852861187
30
0
41
1
10
267.647350571744
20
5.50946203431886
30
0
41
1
10
267.641070593963
20
5.81344439338068
30
0
41
1
10
267.632760419544
20
6.1174556232823
30
0
41
1
10
267.621178756172
20
6.42152886412094
30
0
41
1
10
267.608531759673
20
6.72563622957691
30
0
41
1
10
267.601672191192
20
6.87770695466091
30
0
41
1
10
267.587676377915
20
7.18188692008806
30
0
41
1
10
267.580530180473
20
7.33394573764687
30
0
41
1
10
267.570536139854
20
7.56160809848373
30
0
41
1
10
267.567328862803
20
7.63743907733289
30
0
41
1
10
267.561413484972
20
7.78896908574725
30
0
41
1
10
267.558701689912
20
7.86466839812911
30
0
41
1
10
267.554167978853
20
8.01590533592272
30
0
41
1
10
267.552334555853
20
8.09144384070069
30
0
41
1
10
267.550799054594
20
8.20458854632454
30
0
41
1
10
267.550492739193
20
8.24227603690937
30
0
41
1
10
267.550469812772
20
8.31758254278597
30
0
41
1
10
267.550750183483
20
8.35523886655193
30
0
41
1
10
267.552208755407
20
8.43023262171349
30
0
41
1
10
267.553373181025
20
8.46757297685483
30
0
41
1
10
267.556275212278
20
8.52319890720392
30
0
41
1
10
267.557437968645
20
8.54167593430708
30
0
41
1
10
267.560336644401
20
8.57844571083476
30
0
41
1
10
267.562065629678
20
8.59674052995985
30
0
41
1
10
267.565365531574
20
8.62396204542222
30
0
41
1
10
267.566584913132
20
8.63299859792536
30
0
41
1
10
267.569361551694
20
8.65096757430709
30
0
41
1
10
267.570921073671
20
8.65991916152197
30
0
41
1
10
267.574516938715
20
8.67745376451649
30
0
41
1
10
267.576547962152
20
8.68605996342851
30
0
41
1
10
267.58021552862
20
8.69854381258739
30
0
41
1
10
267.581543102687
20
8.70263313961817
30
0
41
1
10
267.584510409302
20
8.71059873923653
30
0
41
1
10
267.586161611328
20
8.71450396438121
30
0
41
1
10
267.589888240219
20
8.72177776739406
30
0
41
1
10
267.591955510826
20
8.72516274851071
30
0
41
1
10
267.59684579735
20
8.73100162030167
30
0
41
1
10
267.599637337106
20
8.73338371760613
30
0
41
1
10
267.604411839463
20
8.73527061609741
30
0
41
1
10
267.606061767277
20
8.73560195864573
30
0
41
1
10
267.609492008734
20
8.73560099260337
30
0
41
1
10
267.611227428267
20
8.73526227848529
30
0
41
1
10
267.61463552521
20
8.73400699466956
30
0
41
1
10
267.616332222931
20
8.73307964611337
30
0
41
1
10
267.61955483406
20
8.73084823538696
30
0
41
1
10
267.621102908113
20
8.72953833110859
30
0
41
1
10
267.62560527577
20
8.72517335725436
30
0
41
1
10
267.628363216431
20
8.72174764484257
30
0
41
1
10
267.633516183583
20
8.71443632136831
30
0
41
1
10
267.635914818984
20
8.71053626148279
30
0
41
1
10
267.642693644436
20
8.69852839288205
30
0
41
1
10
267.646722359183
20
8.69003079157761
30
0
41
1
10
267.650480947162
20
8.6813361383816
30
0
0
SPLINE
5
1ED
100
AcDbEntity
8
1
62
256
6
ByLayer
370
18
48
1
60
0
100
AcDbSpline
70
4
71
3
72
10
73
6
40
0
40
0
40
0
40
0
40
0.499999999999999
40
0.499999999999999
40
1
40
1
40
1
40
1
41
1
10
267.650480947161
20
8.68133613838134
30
0
41
1
10
267.798334418938
20
8.33931017858188
30
0
41
1
10
267.9309865447
20
7.99090315238311
30
0
41
1
10
268.158489259991
20
7.27822115563114
30
0
41
1
10
268.253343637489
20
6.91394777515262
30
0
41
1
10
268.324759526416
20
6.5398356243625
30
0
0
SPLINE
5
1EE
100
AcDbEntity
8
1
62
256
6
ByLayer
370
18
48
1
60
0
100
AcDbSpline
70
4
71
3
72
8
73
4
40
0
40
0
40
0
40
0
40
1
40
1
40
1
40
1
41
1
10
268.324759526419
20
9.05383691704441
30
0
41
1
10
268.164101740032
20
10.2315551818865
30
0
41
1
10
267.936650314553
20
11.3920361533952
30
0
41
1
10
267.650480947162
20
12.5373639096815
30
0
0
SPLINE
5
1EF
100
AcDbEntity
8
1
62
256
6
ByLayer
370
18
48
1
60
0
100
AcDbSpline
70
4
71
3
72
42
73
38
40
0
40
0
40
0
40
0
40
0.249999999999995
40
0.249999999999995
40
0.374999999999993
40
0.374999999999993
40
0.49999999999999
40
0.49999999999999
40
0.624999999999988
40
0.624999999999988
40
0.687499999999987
40
0.687499999999987
40
0.749999999999986
40
0.749999999999986
40
0.781249999999987
40
0.781249999999987
40
0.812499999999989
40
0.812499999999989
40
0.843749999999991
40
0.843749999999991
40
0.859374999999992
40
0.859374999999992
40
0.874999999999993
40
0.874999999999993
40
0.890624999999994
40
0.890624999999994
40
0.906249999999995
40
0.906249999999995
40
0.921874999999995
40
0.921874999999995
40
0.937499999999996
40
0.937499999999996
40
0.953124999999997
40
0.953124999999997
40
0.968749999999998
40
0.968749999999998
40
1
40
1
40
1
40
1
41
1
10
267.650480947161
20
12.5373639096815
30
0
41
1
10
267.63076897837
20
12.6162565780114
30
0
41
1
10
267.61346059995
20
12.6948483875486
30
0
41
1
10
267.591140780514
20
12.8122718609805
30
0
41
1
10
267.584320719394
20
12.8513346156633
30
0
41
1
10
267.572124668301
20
12.9292847102216
30
0
41
1
10
267.566742521326
20
12.9681725752506
30
0
41
1
10
267.557864378318
20
13.045734165456
30
0
41
1
10
267.55434285781
20
13.0844400879732
30
0
41
1
10
267.551271377319
20
13.1421780618722
30
0
41
1
10
267.550630005146
20
13.1612308644048
30
0
41
1
10
267.550377159459
20
13.1988263852376
30
0
41
1
10
267.550757044975
20
13.2173731419204
30
0
41
1
10
267.552486535079
20
13.2446298400147
30
0
41
1
10
267.553258656099
20
13.2536204028758
30
0
41
1
10
267.555324288495
20
13.2713507168479
30
0
41
1
10
267.556619146011
20
13.2801132325754
30
0
41
1
10
267.559941779673
20
13.29718730275
30
0
41
1
10
267.56194845637
20
13.3054174754382
30
0
41
1
10
267.565733288872
20
13.317079095542
30
0
41
1
10
267.567125496084
20
13.3208510908134
30
0
41
1
10
267.570248978874
20
13.3280968735352
30
0
41
1
10
267.571992418155
20
13.3315905985696
30
0
41
1
10
267.575857623531
20
13.3380349923345
30
0
41
1
10
267.577978928924
20
13.3409948006522
30
0
41
1
10
267.582717557109
20
13.3462264145764
30
0
41
1
10
267.58536880188
20
13.3485166992707
30
0
41
1
10
267.591140283969
20
13.3520175053925
30
0
41
1
10
267.594278886941
20
13.3532465409791
30
0
41
1
10
267.601038610781
20
13.3544128086471
30
0
41
1
10
267.604547324229
20
13.3543357984648
30
0
41
1
10
267.611812347963
20
13.3529157629825
30
0
41
1
10
267.615579957294
20
13.3515498926698
30
0
41
1
10
267.622949675614
20
13.3478528590446
30
0
41
1
10
267.626634528599
20
13.3454932373673
30
0
41
1
10
267.637401170667
20
13.3374023255903
30
0
41
1
10
267.644079218297
20
13.3308339493785
30
0
41
1
10
267.650480947162
20
13.3236182349663
30
0
0
SPLINE
5
1F0
100
AcDbEntity
8
1
62
256
6
ByLayer
370
18
48
1
60
0
100
AcDbSpline
70
4
71
3
72
8
73
4
40
0
40
0
40
0
40
0
40
1
40
1
40
1
40
1
41
1
10
267.650480947162
20
13.3236182349663
30
0
41
1
10
267.877893938717
20
13.0672894782552
30
0
41
1
10
268.102856207569
20
12.8081293930721
30
0
41
1
10
268.324759526411
20
12.5454352922899
30
0
0
SPLINE
5
1F1
100
AcDbEntity
8
1
62
256
6
ByLayer
370
18
48
1
60
0
100
AcDbSpline
70
4
71
3
72
8
73
4
40
0
40
0
40
0
40
0
40
1
40
1
40
1
40
1
41
1
10
268.324759526419
20
13.358893093585
30
0
41
1
10
268.120774732857
20
14.0629544043427
30
0
41
1
10
267.895186418447
20
14.7577018893104
30
0
41
1
10
267.650480947162
20
15.4442074830613
30
0
0
SPLINE
5
1F2
100
AcDbEntity
8
1
62
256
6
ByLayer
370
18
48
1
60
0
100
AcDbSpline
70
4
71
3
72
40
73
36
40
0
40
0
40
0
40
0
40
0.12500000000002
40
0.12500000000002
40
0.25000000000004
40
0.25000000000004
40
0.375000000000054
40
0.375000000000054
40
0.500000000000068
40
0.500000000000068
40
0.562500000000072
40
0.562500000000072
40
0.625000000000076
40
0.625000000000076
40
0.68750000000008
40
0.68750000000008
40
0.750000000000084
40
0.750000000000084
40
0.781250000000076
40
0.781250000000076
40
0.812500000000069
40
0.812500000000069
40
0.843750000000061
40
0.843750000000061
40
0.875000000000054
40
0.875000000000054
40
0.906250000000046
40
0.906250000000046
40
0.921875000000042
40
0.921875000000042
40
0.937500000000039
40
0.937500000000039
40
0.968750000000019
40
0.968750000000019
40
1
40
1
40
1
40
1
41
1
10
267.650480947162
20
15.4442074830613
30
0
41
1
10
267.640025010736
20
15.4735409458817
30
0
41
1
10
267.630210989746
20
15.5029673076436
30
0
41
1
10
267.611958545041
20
15.5616002322836
30
0
41
1
10
267.603523410692
20
15.590786552844
30
0
41
1
10
267.588102337403
20
15.6488854928156
30
0
41
1
10
267.581113785878
20
15.6777985452109
30
0
41
1
10
267.5688291768
20
15.7353093306313
30
0
41
1
10
267.56352332279
20
15.7639086554232
30
0
41
1
10
267.557268698593
20
15.8064991466687
30
0
41
1
10
267.555468305322
20
15.8206822963944
30
0
41
1
10
267.552619223369
20
15.8486113407315
30
0
41
1
10
267.551563972929
20
15.8623801284264
30
0
41
1
10
267.550399909879
20
15.8894214732832
30
0
41
1
10
267.550285829804
20
15.9026966836883
30
0
41
1
10
267.55138586223
20
15.9285585052088
30
0
41
1
10
267.552608640832
20
15.9412331302681
30
0
41
1
10
267.555948456209
20
15.9588608230573
30
0
41
1
10
267.557314290988
20
15.9645185412792
30
0
41
1
10
267.560709973981
20
15.975262942648
30
0
41
1
10
267.562757184409
20
15.9803881681504
30
0
41
1
10
267.567691285185
20
15.989647309683
30
0
41
1
10
267.570555797839
20
15.993760395916
30
0
41
1
10
267.577358112121
20
16.0005969404042
30
0
41
1
10
267.581328265331
20
16.0032995526677
30
0
41
1
10
267.590209516905
20
16.0065701580039
30
0
41
1
10
267.595238130169
20
16.0071547338818
30
0
41
1
10
267.603144568994
20
16.0063121242087
30
0
41
1
10
267.605853809948
20
16.0057558877133
30
0
41
1
10
267.611415566325
20
16.0041091466667
30
0
41
1
10
267.614249175209
20
16.0030206655193
30
0
41
1
10
267.622685087213
20
15.9991362853469
30
0
41
1
10
267.628307688267
20
15.9957046891447
30
0
41
1
10
267.639550729521
20
15.9875472607242
30
0
41
1
10
267.645089621271
20
15.982874451409
30
0
41
1
10
267.650480947162
20
15.9778415583039
30
0
0
SPLINE
5
1F3
100
AcDbEntity
8
1
62
256
6
ByLayer
370
18
48
1
60
0
100
AcDbSpline
70
4
71
3
72
8
73
4
40
0
40
0
40
0
40
0
40
1
40
1
40
1
40
1
41
1
10
267.650480947162
20
15.9778415583022
30
0
41
1
10
267.875878259423
20
15.7674293885314
30
0
41
1
10
268.100672937923
20
15.5561625919062
30
0
41
1
10
268.324759526419
20
15.3438916153438
30
0
0
SPLINE
5
1F4
100
AcDbEntity
8
1
62
256
6
ByLayer
370
18
48
1
60
0
100
AcDbSpline
70
4
71
3
72
8
73
4
40
0
40
0
40
0
40
0
40
1
40
1
40
1
40
1
41
1
10
268.324759526419
20
15.8999354929274
30
0
41
1
10
268.111437539985
20
16.4476285217336
30
0
41
1
10
267.886241901321
20
16.9887487173412
30
0
41
1
10
267.650480947162
20
17.5240203286125
30
0
0
SPLINE
5
1F5
100
AcDbEntity
8
1
62
256
6
ByLayer
370
18
48
1
60
0
100
AcDbSpline
70
4
71
3
72
40
73
36
40
0
40
0
40
0
40
0
40
0.124999999999988
40
0.124999999999988
40
0.249999999999976
40
0.249999999999976
40
0.374999999999964
40
0.374999999999964
40
0.499999999999952
40
0.499999999999952
40
0.562499999999954
40
0.562499999999954
40
0.624999999999957
40
0.624999999999957
40
0.68749999999996
40
0.68749999999996
40
0.718749999999964
40
0.718749999999964
40
0.749999999999968
40
0.749999999999968
40
0.781249999999972
40
0.781249999999972
40
0.812499999999976
40
0.812499999999976
40
0.84374999999998
40
0.84374999999998
40
0.874999999999984
40
0.874999999999984
40
0.906249999999988
40
0.906249999999988
40
0.937499999999992
40
0.937499999999992
40
0.968749999999996
40
0.968749999999996
40
1
40
1
40
1
40
1
41
1
10
267.650480947162
20
17.5240203286125
30
0
41
1
10
267.639690471916
20
17.5485190209084
30
0
41
1
10
267.629613916005
20
17.5729486554878
30
0
41
1
10
267.610849297583
20
17.621668938141
30
0
41
1
10
267.602160592807
20
17.6459596622946
30
0
41
1
10
267.586289625029
20
17.6943887125289
30
0
41
1
10
267.579096154492
20
17.7185525224906
30
0
41
1
10
267.566584682111
20
17.7665924147555
30
0
41
1
10
267.561339273704
20
17.7901565661233
30
0
41
1
10
267.555481361028
20
17.8246060554291
30
0
41
1
10
267.553867302615
20
17.8359382479908
30
0
41
1
10
267.551487852271
20
17.8582271487085
30
0
41
1
10
267.550718615151
20
17.8692396521943
30
0
41
1
10
267.550336211257
20
17.8904892822458
30
0
41
1
10
267.550714779598
20
17.9006787514825
30
0
41
1
10
267.552465551096
20
17.915065565047
30
0
41
1
10
267.553248182532
20
17.9197101977648
30
0
41
1
10
267.555309097648
20
17.9286248501674
30
0
41
1
10
267.556593904736
20
17.9329010995036
30
0
41
1
10
267.559717301251
20
17.9407756166943
30
0
41
1
10
267.561559358519
20
17.9444002494733
30
0
41
1
10
267.565937706079
20
17.9508777423318
30
0
41
1
10
267.568504767017
20
17.9537519025173
30
0
41
1
10
267.574349248947
20
17.9583575070409
30
0
41
1
10
267.577621102576
20
17.9601034727094
30
0
41
1
10
267.584977180313
20
17.9623048822328
30
0
41
1
10
267.589008029016
20
17.9627276846827
30
0
41
1
10
267.597554413792
20
17.962188306638
30
0
41
1
10
267.602165047508
20
17.9612103113984
30
0
41
1
10
267.61156352127
20
17.9580305278126
30
0
41
1
10
267.616343834585
20
17.9558532438602
30
0
41
1
10
267.626039774226
20
17.9505209964743
30
0
41
1
10
267.630992916634
20
17.9473363627041
30
0
41
1
10
267.640809613647
20
17.9402688914584
30
0
41
1
10
267.64566607499
20
17.9363995135527
30
0
41
1
10
267.650480947162
20
17.9322615979161
30
0
0
SPLINE
5
1F6
100
AcDbEntity
8
1
62
256
6
ByLayer
370
18
48
1
60
0
100
AcDbSpline
70
4
71
3
72
8
73
4
40
0
40
0
40
0
40
0
40
1
40
1
40
1
40
1
41
1
10
267.650480947162
20
17.9322615979152
30
0
41
1
10
267.875423713527
20
17.7389451074572
30
0
41
1
10
268.100191536751
20
17.5453578173496
30
0
41
1
10
268.324759526419
20
17.3514611989827
30
0
0
SPLINE
5
1F7
100
AcDbEntity
8
1
62
256
6
ByLayer
370
18
48
1
60
0
100
AcDbSpline
70
4
71
3
72
8
73
4
40
0
40
0
40
0
40
0
40
1
40
1
40
1
40
1
41
1
10
268.324759526419
20
17.7767794748902
30
0
41
1
10
268.107382666912
20
18.2381665161961
30
0
41
1
10
267.882352997816
20
18.6945301612777
30
0
41
1
10
267.650480947162
20
19.1464023848386
30
0
0
SPLINE
5
1F8
100
AcDbEntity
8
1
62
256
6
ByLayer
370
18
48
1
60
0
100
AcDbSpline
70
4
71
3
72
40
73
36
40
0
40
0
40
0
40
0
40
0.125000000000006
40
0.125000000000006
40
0.250000000000012
40
0.250000000000012
40
0.375000000000018
40
0.375000000000018
40
0.437500000000024
40
0.437500000000024
40
0.500000000000029
40
0.500000000000029
40
0.562500000000035
40
0.562500000000035
40
0.62500000000004
40
0.62500000000004
40
0.687500000000045
40
0.687500000000045
40
0.71875000000004
40
0.71875000000004
40
0.750000000000034
40
0.750000000000034
40
0.781250000000028
40
0.781250000000028
40
0.812500000000023
40
0.812500000000023
40
0.843750000000017
40
0.843750000000017
40
0.875000000000012
40
0.875000000000012
40
0.9375
40
0.9375
40
0.96875
40
0.96875
40
1
40
1
40
1
40
1
41
1
10
267.650480947162
20
19.1464023848386
30
0
41
1
10
267.639414958228
20
19.1679677827009
30
0
41
1
10
267.629040809079
20
19.1894982781832
30
0
41
1
10
267.609683150239
20
19.2324844320546
30
0
41
1
10
267.600665700982
20
19.2540304822569
30
0
41
1
10
267.584409180772
20
19.2964716606374
30
0
41
1
10
267.577153956557
20
19.3173783954791
30
0
41
1
10
267.56784509696
20
19.34817408247
30
0
41
1
10
267.565006721944
20
19.3583444727699
30
0
41
1
10
267.55994833633
20
19.3784644888763
30
0
41
1
10
267.557723039423
20
19.3884367390233
30
0
41
1
10
267.554054354314
20
19.408013781379
30
0
41
1
10
267.552625671844
20
19.4175304795205
30
0
41
1
10
267.550759790623
20
19.4359026326863
30
0
41
1
10
267.550318779816
20
19.4447605718952
30
0
41
1
10
267.550749497916
20
19.4616056545869
30
0
41
1
10
267.551636822927
20
19.4696104377058
30
0
41
1
10
267.554281873644
20
19.4802400051818
30
0
41
1
10
267.555383473851
20
19.4835703154132
30
0
41
1
10
267.55811068237
20
19.4897250071953
30
0
41
1
10
267.559751087798
20
19.4925672484098
30
0
41
1
10
267.5635955558
20
19.4975235357771
30
0
41
1
10
267.565792502249
20
19.4996397405518
30
0
41
1
10
267.570810054821
20
19.5030524418837
30
0
41
1
10
267.573662929114
20
19.5043510856056
30
0
41
1
10
267.579852338377
20
19.505948937452
30
0
41
1
10
267.583198210382
20
19.5062662734105
30
0
41
1
10
267.59039654148
20
19.5059318013028
30
0
41
1
10
267.594295692839
20
19.5052651393155
30
0
41
1
10
267.606418497699
20
19.5018746224366
30
0
41
1
10
267.61493133613
20
19.4978669254711
30
0
41
1
10
267.628201605806
20
19.4898327177069
30
0
41
1
10
267.632697891773
20
19.4868155998186
30
0
41
1
10
267.641605111237
20
19.4803478822283
30
0
41
1
10
267.646047713552
20
19.476878426666
30
0
41
1
10
267.650480947162
20
19.4732088630909
30
0
0
SPLINE
5
1F9
100
AcDbEntity
8
1
62
256
6
ByLayer
370
18
48
1
60
0
100
AcDbSpline
70
4
71
3
72
8
73
4
40
0
40
0
40
0
40
0
40
1
40
1
40
1
40
1
41
1
10
267.650480947162
20
19.4732088630904
30
0
41
1
10
267.87528177088
20
19.2871322907601
30
0
41
1
10
268.10004293855
20
19.1009918745276
30
0
41
1
10
268.324759526419
20
18.9147796874393
30
0
0
SPLINE
5
1FA
100
AcDbEntity
8
1
62
256
6
ByLayer
370
18
48
1
60
0
100
AcDbSpline
70
4
71
3
72
8
73
4
40
0
40
0
40
0
40
0
40
1
40
1
40
1
40
1
41
1
10
268.324759526419
20
19.2542482702516
30
0
41
1
10
268.105152654041
20
19.6587123242193
30
0
41
1
10
267.880211532645
20
20.0591860512794
30
0
41
1
10
267.650480947162
20
20.4560769820817
30
0
0
SPLINE
5
1FB
100
AcDbEntity
8
1
62
256
6
ByLayer
370
18
48
1
60
0
100
AcDbSpline
70
4
71
3
72
39
73
35
40
0
40
0
40
0
40
0
40
0.124999999999992
40
0.124999999999992
40
0.249999999999984
40
0.249999999999984
40
0.374999999999976
40
0.374999999999976
40
0.437499999999979
40
0.437499999999979
40
0.499999999999983
40
0.499999999999983
40
0.562499999999986
40
0.562499999999986
40
0.593749999999987
40
0.593749999999987
40
0.624999999999989
40
0.624999999999989
40
0.687499999999992
40
0.687499999999992
40
0.718749999999994
40
0.718749999999994
40
0.749999999999996
40
0.749999999999996
40
0.781249999999997
40
0.781249999999997
40
0.812499999999999
40
0.843750000000001
40
0.843750000000001
40
0.875000000000003
40
0.875000000000003
40
0.937500000000001
40
0.937500000000001
40
1
40
1
40
1
40
1
41
1
10
267.650480947162
20
20.4560769820817
30
0
41
1
10
267.639193035731
20
20.4755783891974
30
0
41
1
10
267.628590160519
20
20.4950150972991
30
0
41
1
10
267.608789608101
20
20.5337506274611
30
0
41
1
10
267.59955440175
20
20.5531394770011
30
0
41
1
10
267.582996045851
20
20.5910738569017
30
0
41
1
10
267.575636447461
20
20.6096683647388
30
0
41
1
10
267.566297083473
20
20.6368716168542
30
0
41
1
10
267.563469944102
20
20.645823579613
30
0
41
1
10
267.558498129876
20
20.6634519327057
30
0
41
1
10
267.556355985995
20
20.6721338879727
30
0
41
1
10
267.552992495483
20
20.6887880727997
30
0
41
1
10
267.551755667217
20
20.6968054930664
30
0
41
1
10
267.550731607718
20
20.7082552465143
30
0
41
1
10
267.550529643809
20
20.7119751829301
30
0
41
1
10
267.550447718715
20
20.719192264215
30
0
41
1
10
267.550569803588
20
20.7227031448452
30
0
41
1
10
267.551489172924
20
20.7326767960523
30
0
41
1
10
267.552823866437
20
20.738626638057
30
0
41
1
10
267.556235634613
20
20.7461914297898
30
0
41
1
10
267.557622786118
20
20.7484972729619
30
0
41
1
10
267.560888621489
20
20.7524800239245
30
0
41
1
10
267.562763444322
20
20.7541622265607
30
0
41
1
10
267.567039967856
20
20.7568546457296
30
0
41
1
10
267.569461523802
20
20.7578691446217
30
0
41
1
10
267.574799687778
20
20.7591280609581
30
0
41
1
10
267.580567979247
20
20.7596147878297
30
0
41
1
10
267.587174135165
20
20.7586005535325
30
0
41
1
10
267.594197904459
20
20.7568396148934
30
0
41
1
10
267.597925489672
20
20.755576485667
30
0
41
1
10
267.609307892352
20
20.7508672481523
30
0
41
1
10
267.617324482498
20
20.7464633141769
30
0
41
1
10
267.63384879861
20
20.7357246214987
30
0
41
1
10
267.642150093394
20
20.7295341136668
30
0
41
1
10
267.650480947162
20
20.7227274845166
30
0
0
SPLINE
5
1FC
100
AcDbEntity
8
1
62
256
6
ByLayer
370
18
48
1
60
0
100
AcDbSpline
70
4
71
3
72
8
73
4
40
0
40
0
40
0
40
0
40
1
40
1
40
1
40
1
41
1
10
267.650480947162
20
20.7227274845163
30
0
41
1
10
267.875242279349
20
20.5390887989475
30
0
41
1
10
268.10000187134
20
20.3554472734947
30
0
41
1
10
268.324759526419
20
20.1718025873648
30
0
0
SPLINE
5
1FD
100
AcDbEntity
8
1
62
256
6
ByLayer
370
18
48
1
60
0
100
AcDbSpline
70
4
71
3
72
8
73
4
40
0
40
0
40
0
40
0
40
1
40
1
40
1
40
1
41
1
10
268.324759526419
20
20.4473652688725
30
0
41
1
10
268.103764009202
20
20.810559849515
30
0
41
1
10
267.878876276632
20
21.1705149416575
30
0
41
1
10
267.650480947162
20
21.5275506630082
30
0
0
SPLINE
5
1FE
100
AcDbEntity
8
1
62
256
6
ByLayer
370
18
48
1
60
0
100
AcDbSpline
70
4
71
3
72
41
73
37
40
0
40
0
40
0
40
0
40
0.125000000000015
40
0.125000000000015
40
0.18750000000002
40
0.18750000000002
40
0.250000000000025
40
0.250000000000025
40
0.375000000000017
40
0.375000000000017
40
0.437500000000016
40
0.437500000000016
40
0.500000000000016
40
0.500000000000016
40
0.562500000000015
40
0.562500000000015
40
0.625000000000014
40
0.625000000000014
40
0.656250000000014
40
0.656250000000014
40
0.687500000000013
40
0.687500000000013
40
0.718750000000013
40
0.718750000000013
40
0.750000000000012
40
0.750000000000012
40
0.812500000000009
40
0.812500000000009
40
0.843750000000006
40
0.843750000000006
40
0.875000000000003
40
0.90625
40
0.90625
40
0.937499999999997
40
0.937499999999997
40
1
40
1
40
1
40
1
41
1
10
267.650480947162
20
21.5275506630082
30
0
41
1
10
267.638981804677
20
21.5455265324862
30
0
41
1
10
267.62814548197
20
21.5634206151335
30
0
41
1
10
267.612939206481
20
21.5901281849016
30
0
41
1
10
267.608042788563
20
21.5990169496362
30
0
41
1
10
267.598721928768
20
21.6165648982937
30
0
41
1
10
267.594284643272
20
21.6252457634564
30
0
41
1
10
267.581686936374
20
21.6509896479133
30
0
41
1
10
267.574223281786
20
21.6677610781076
30
0
41
1
10
267.564837577099
20
21.6921604462431
30
0
41
1
10
267.562006278076
20
21.7001981661694
30
0
41
1
10
267.557184605238
20
21.7156477088197
30
0
41
1
10
267.555179368067
20
21.7230904973053
30
0
41
1
10
267.552137250522
20
21.7373043165403
30
0
41
1
10
267.551097322754
20
21.7440774273179
30
0
41
1
10
267.550263647968
20
21.7567617390182
30
0
41
1
10
267.550482593648
20
21.7625191878583
30
0
41
1
10
267.551971457481
20
21.7700613230126
30
0
41
1
10
267.552662227263
20
21.7723934928267
30
0
41
1
10
267.554488589318
20
21.7766425722041
30
0
41
1
10
267.555629696968
20
21.7785582671364
30
0
41
1
10
267.558347744801
20
21.78182817428
30
0
41
1
10
267.559929168047
20
21.7831969176469
30
0
41
1
10
267.563569638857
20
21.7853637195273
30
0
41
1
10
267.565645521329
20
21.7861647789775
30
0
41
1
10
267.572537810431
20
21.7876065271326
30
0
41
1
10
267.57792665398
20
21.7872966647596
30
0
41
1
10
267.587151619285
20
21.7850110816928
30
0
41
1
10
267.590446302725
20
21.7839313072065
30
0
41
1
10
267.597241521147
20
21.7812338486892
30
0
41
1
10
267.604247829043
20
21.7780072079674
30
0
41
1
10
267.61163322165
20
21.7738322488314
30
0
41
1
10
267.619193271317
20
21.7692211157912
30
0
41
1
10
267.623071327699
20
21.7666886267628
30
0
41
1
10
267.634714931172
20
21.7586489532184
30
0
41
1
10
267.642563586242
20
21.7526628820382
30
0
41
1
10
267.650480947162
20
21.7461799915712
30
0
0
SPLINE
5
1FF
100
AcDbEntity
8
1
62
256
6
ByLayer
370
18
48
1
60
0
100
AcDbSpline
70
4
71
3
72
8
73
4
40
0
40
0
40
0
40
0
40
1
40
1
40
1
40
1
41
1
10
267.650480947162
20
21.746179991571
30
0
41
1
10
267.875247737629
20
21.562136533402
30
0
41
1
10
268.100007511727
20
21.3780816494056
30
0
41
1
10
268.324759526419
20
21.1940141333138
30
0
0
SPLINE
5
200
100
AcDbEntity
8
1
62
256
6
ByLayer
370
18
48
1
60
0
100
AcDbSpline
70
4
71
3
72
8
73
4
40
0
40
0
40
0
40
0
40
1
40
1
40
1
40
1
41
1
10
268.324759526419
20
21.4182396666015
30
0
41
1
10
268.10282976625
20
21.7496954266897
30
0
41
1
10
267.87797677687
20
22.0784874839763
30
0
41
1
10
267.650480947162
20
22.4048713342148
30
0
0
SPLINE
5
201
100
AcDbEntity
8
1
62
256
6
ByLayer
370
18
48
1
60
0
100
AcDbSpline
70
4
71
3
72
34
73
30
40
0
40
0
40
0
40
0
40
0.124999999999996
40
0.124999999999996
40
0.249999999999993
40
0.249999999999993
40
0.312499999999986
40
0.312499999999986
40
0.37499999999998
40
0.37499999999998
40
0.499999999999981
40
0.499999999999981
40
0.56249999999999
40
0.56249999999999
40
0.625
40
0.625
40
0.68750000000001
40
0.68750000000001
40
0.718750000000014
40
0.718750000000014
40
0.750000000000017
40
0.750000000000017
40
0.812500000000012
40
0.812500000000012
40
0.875000000000008
40
0.875000000000008
40
0.937500000000004
40
0.937500000000004
40
1
40
1
40
1
40
1
41
1
10
267.650480947162
20
22.4048713342148
30
0
41
1
10
267.638779782576
20
22.4216587678777
30
0
41
1
10
267.627693116502
20
22.4383758860397
30
0
41
1
10
267.607002473869
20
22.4714107933072
30
0
41
1
10
267.597504579954
20
22.4875524832548
30
0
41
1
10
267.584701626499
20
22.5111204626926
30
0
41
1
10
267.580676613219
20
22.5188681596801
30
0
41
1
10
267.57317678391
20
22.534117596637
30
0
41
1
10
267.569687169971
20
22.5416532144359
30
0
41
1
10
267.560306547286
20
22.5635746306852
30
0
41
1
10
267.555515793997
20
22.5771559030119
30
0
41
1
10
267.551444442405
20
22.595334081103
30
0
41
1
10
267.550629414815
20
22.6010158296469
30
0
41
1
10
267.550369704541
20
22.6110410235748
30
0
41
1
10
267.550906911697
20
22.6154408318432
30
0
41
1
10
267.553649785601
20
22.6227119306327
30
0
41
1
10
267.555833495619
20
22.6254796389081
30
0
41
1
10
267.560418657478
20
22.6281044544232
30
0
41
1
10
267.562180578905
20
22.6287302685921
30
0
41
1
10
267.56612484049
20
22.6294299988251
30
0
41
1
10
267.568286199411
20
22.6295043011137
30
0
41
1
10
267.575316333567
20
22.6289333978018
30
0
41
1
10
267.580743615077
20
22.6274928474914
30
0
41
1
10
267.592956646791
20
22.6225760263917
30
0
41
1
10
267.599500450861
20
22.6192044399131
30
0
41
1
10
267.613308831924
20
22.6109620758314
30
0
41
1
10
267.620630234375
20
22.606041751765
30
0
41
1
10
267.635395579301
20
22.5952630873188
30
0
41
1
10
267.642891402848
20
22.5893789353738
30
0
41
1
10
267.650480947162
20
22.5830864488526
30
0
0
SPLINE
5
202
100
AcDbEntity
8
1
62
256
6
ByLayer
370
18
48
1
60
0
100
AcDbSpline
70
4
71
3
72
8
73
4
40
0
40
0
40
0
40
0
40
1
40
1
40
1
40
1
41
1
10
267.650480947162
20
22.5830864488525
30
0
41
1
10
267.87527835498
20
22.3967070563399
30
0
41
1
10
268.100039125586
20
22.2102687278766
30
0
41
1
10
268.324759526419
20
22.0237655573015
30
0
0
SPLINE
5
203
100
AcDbEntity
8
1
62
256
6
ByLayer
370
18
48
1
60
0
100
AcDbSpline
70
4
71
3
72
8
73
4
40
0
40
0
40
0
40
0
40
1
40
1
40
1
40
1
41
1
10
268.324759526419
20
22.204537010625
30
0
41
1
10
268.102167049584
20
22.5105841760984
30
0
41
1
10
267.877337890168
20
22.8144257977403
30
0
41
1
10
267.650480947162
20
23.1162678662809
30
0
0
SPLINE
5
204
100
AcDbEntity
8
1
62
256
6
ByLayer
370
18
48
1
60
0
100
AcDbSpline
70
4
71
3
72
41
73
37
40
0
40
0
40
0
40
0
40
0.0624999999999968
40
0.0624999999999968
40
0.124999999999994
40
0.124999999999994
40
0.249999999999989
40
0.249999999999989
40
0.31249999999998
40
0.31249999999998
40
0.374999999999972
40
0.374999999999972
40
0.437499999999964
40
0.468749999999959
40
0.468749999999959
40
0.499999999999955
40
0.499999999999955
40
0.562499999999962
40
0.562499999999962
40
0.624999999999968
40
0.624999999999968
40
0.687499999999974
40
0.687499999999974
40
0.749999999999981
40
0.749999999999981
40
0.781249999999982
40
0.781249999999982
40
0.812499999999983
40
0.812499999999983
40
0.874999999999991
40
0.874999999999991
40
0.906249999999994
40
0.906249999999994
40
0.937499999999997
40
0.937499999999997
40
1
40
1
40
1
40
1
41
1
10
267.650480947162
20
23.1162678662809
30
0
41
1
10
267.644530707472
20
23.1241848937809
30
0
41
1
10
267.638734660478
20
23.1320661881953
30
0
41
1
10
267.627462614209
20
23.1477537676436
30
0
41
1
10
267.621983627572
20
23.1555655854387
30
0
41
1
10
267.606226071217
20
23.1786319055686
30
0
41
1
10
267.59655639816
20
23.1936038516683
30
0
41
1
10
267.583525644729
20
23.2153410699508
30
0
41
1
10
267.579429881242
20
23.2224656317329
30
0
41
1
10
267.571814377828
20
23.2364325284516
30
0
41
1
10
267.568318980523
20
23.2432345542663
30
0
41
1
10
267.562151731737
20
23.2562021368559
30
0
41
1
10
267.558116055743
20
23.2654991328189
30
0
41
1
10
267.555124307769
20
23.2740375850832
30
0
41
1
10
267.553390593519
20
23.2795405045759
30
0
41
1
10
267.552653442229
20
23.2822028365402
30
0
41
1
10
267.550910298472
20
23.2897406107654
30
0
41
1
10
267.550352356246
20
23.2942147484457
30
0
41
1
10
267.550659068286
20
23.3018677379392
30
0
41
1
10
267.551551382702
20
23.3050594781872
30
0
41
1
10
267.554942046485
20
23.3096266601912
30
0
41
1
10
267.55744201508
20
23.311050293669
30
0
41
1
10
267.564147905172
20
23.3119608702209
30
0
41
1
10
267.568227742826
20
23.3114399048519
30
0
41
1
10
267.575359496822
20
23.3093034854215
30
0
41
1
10
267.577906330663
20
23.3083642815707
30
0
41
1
10
267.583336023074
20
23.3060366334098
30
0
41
1
10
267.58621229645
20
23.3046487760981
30
0
41
1
10
267.595094710497
20
23.2999585110487
30
0
41
1
10
267.601422754011
20
23.2961049586603
30
0
41
1
10
267.611436330013
20
23.2893955044807
30
0
41
1
10
267.614876803774
20
23.2869917365583
30
0
41
1
10
267.62181975771
20
23.2819650556364
30
0
41
1
10
267.625327553303
20
23.2793394829965
30
0
41
1
10
267.635948792471
20
23.271161122512
30
0
41
1
10
267.643159471795
20
23.2653086512658
30
0
41
1
10
267.650480947162
20
23.259115910294
30
0
0
SPLINE
5
205
100
AcDbEntity
8
1
62
256
6
ByLayer
370
18
48
1
60
0
100
AcDbSpline
70
4
71
3
72
8
73
4
40
0
40
0
40
0
40
0
40
1
40
1
40
1
40
1
41
1
10
267.650480947162
20
23.2591159102939
30
0
41
1
10
267.875326782245
20
23.0689340213245
30
0
41
1
10
268.100089025132
20
22.8786205059014
30
0
41
1
10
268.324759526419
20
22.6881625317602
30
0
0
SPLINE
5
206
100
AcDbEntity
8
1
62
256
6
ByLayer
370
18
48
1
60
0
100
AcDbSpline
70
4
71
3
72
8
73
4
40
0
40
0
40
0
40
0
40
1
40
1
40
1
40
1
41
1
10
268.324759526419
20
22.8306924641183
30
0
41
1
10
268.101678442285
20
23.1158055554838
30
0
41
1
10
267.876866272618
20
23.3990877212188
30
0
41
1
10
267.650480947162
20
23.6807059996433
30
0
0
SPLINE
5
207
100
AcDbEntity
8
1
62
256
6
ByLayer
370
18
48
1
60
0
100
AcDbSpline
70
4
71
3
72
38
73
34
40
0
40
0
40
0
40
0
40
0.0624999999999957
40
0.0624999999999957
40
0.124999999999991
40
0.124999999999991
40
0.249999999999996
40
0.249999999999996
40
0.312499999999999
40
0.312499999999999
40
0.375000000000003
40
0.375000000000003
40
0.437500000000006
40
0.437500000000006
40
0.50000000000001
40
0.50000000000001
40
0.562500000000013
40
0.562500000000013
40
0.625000000000016
40
0.625000000000016
40
0.68750000000002
40
0.68750000000002
40
0.750000000000023
40
0.750000000000023
40
0.781250000000023
40
0.781250000000023
40
0.812500000000023
40
0.812500000000023
40
0.875000000000015
40
0.875000000000015
40
0.937500000000008
40
0.937500000000008
40
1
40
1
40
1
40
1
41
1
10
267.650480947162
20
23.6807059996433
30
0
41
1
10
267.644435066045
20
23.6882269404479
30
0
41
1
10
267.638541009106
20
23.6956954835835
30
0
41
1
10
267.627070710279
20
23.7105219541035
30
0
41
1
10
267.621478397149
20
23.7179019338325
30
0
41
1
10
267.605382543492
20
23.7396367381094
30
0
41
1
10
267.59552307329
20
23.7536213176671
30
0
41
1
10
267.582291758194
20
23.7736882743315
30
0
41
1
10
267.5781434099
20
23.7802241905292
30
0
41
1
10
267.570463431254
20
23.792935050526
30
0
41
1
10
267.566983467967
20
23.7990266724997
30
0
41
1
10
267.560894095359
20
23.8105111646504
30
0
41
1
10
267.558273629461
20
23.815921115395
30
0
41
1
10
267.554041861199
20
23.8259505318486
30
0
41
1
10
267.552432376485
20
23.8305864249226
30
0
41
1
10
267.550538980103
20
23.8385889334797
30
0
41
1
10
267.550233118891
20
23.8420039082253
30
0
41
1
10
267.551141496283
20
23.8474028832882
30
0
41
1
10
267.552342069686
20
23.8493113044677
30
0
41
1
10
267.556322566543
20
23.8514574493085
30
0
41
1
10
267.559156903261
20
23.8516693992406
30
0
41
1
10
267.566155193741
20
23.8503516061782
30
0
41
1
10
267.57032728413
20
23.8488516643681
30
0
41
1
10
267.57754044284
20
23.845411474337
30
0
41
1
10
267.580121827421
20
23.8440551043974
30
0
41
1
10
267.585487525657
20
23.8410134790055
30
0
41
1
10
267.588275661537
20
23.8393280740413
30
0
41
1
10
267.596927885113
20
23.8338227337166
30
0
41
1
10
267.603078037699
20
23.8295564416243
30
0
41
1
10
267.616050433374
20
23.8199786606828
30
0
41
1
10
267.622764082909
20
23.8147458022593
30
0
41
1
10
267.636420273296
20
23.8036638171362
30
0
41
1
10
267.64338911966
20
23.7977944023928
30
0
41
1
10
267.650480947162
20
23.7916390605843
30
0
0
SPLINE
5
208
100
AcDbEntity
8
1
62
256
6
ByLayer
370
18
48
1
60
0
100
AcDbSpline
70
4
71
3
72
8
73
4
40
0
40
0
40
0
40
0
40
1
40
1
40
1
40
1
41
1
10
267.650480947162
20
23.7916390605842
30
0
41
1
10
267.875390693943
20
23.5964289589462
30
0
41
1
10
268.100154848045
20
23.4009956122058
30
0
41
1
10
268.324759526419
20
23.2053177327385
30
0
0
SPLINE
5
209
100
AcDbEntity
8
1
62
256
6
ByLayer
370
18
48
1
60
0
100
AcDbSpline
70
4
71
3
72
8
73
4
40
0
40
0
40
0
40
0
40
1
40
1
40
1
40
1
41
1
10
268.324759526419
20
23.3131399205588
30
0
41
1
10
268.101307459449
20
23.5806365366879
30
0
41
1
10
267.876507770666
20
23.8466150387251
30
0
41
1
10
267.650480947162
20
24.1112111569984
30
0
0
SPLINE
5
20A
100
AcDbEntity
8
1
62
256
6
ByLayer
370
18
48
1
60
0
100
AcDbSpline
70
4
71
3
72
37
73
33
40
0
40
0
40
0
40
0
40
0.125000000000008
40
0.125000000000008
40
0.250000000000017
40
0.250000000000017
40
0.312500000000026
40
0.312500000000026
40
0.375000000000035
40
0.375000000000035
40
0.437500000000044
40
0.437500000000044
40
0.468750000000044
40
0.468750000000044
40
0.500000000000044
40
0.531250000000044
40
0.531250000000044
40
0.562500000000044
40
0.562500000000044
40
0.625000000000045
40
0.625000000000045
40
0.656250000000042
40
0.656250000000042
40
0.687500000000039
40
0.687500000000039
40
0.750000000000033
40
0.750000000000033
40
0.812500000000027
40
0.812500000000027
40
0.87500000000002
40
0.87500000000002
40
1
40
1
40
1
40
1
41
1
10
267.650480947162
20
24.1112111569984
30
0
41
1
10
267.638202144537
20
24.1255852187192
30
0
41
1
10
267.626485867576
20
24.1397144945012
30
0
41
1
10
267.604552320067
20
24.1671510631419
30
0
41
1
10
267.594502099815
20
24.1802445976569
30
0
41
1
10
267.581082092083
20
24.1987490698123
30
0
41
1
10
267.57688735265
20
24.204726067889
30
0
41
1
10
267.569160111633
20
24.2162246159382
30
0
41
1
10
267.565703840037
20
24.2216334116332
30
0
41
1
10
267.559712993625
20
24.2316731893732
30
0
41
1
10
267.557175330865
20
24.2363077732501
30
0
41
1
10
267.554189582967
20
24.2425686008363
30
0
41
1
10
267.55333114082
20
24.2445439196832
30
0
41
1
10
267.551945089713
20
24.2481706791223
30
0
41
1
10
267.550880371976
20
24.2514914590535
30
0
41
1
10
267.550493173189
20
24.2541672783623
30
0
41
1
10
267.550469840073
20
24.2564968771605
30
0
41
1
10
267.55064329357
20
24.2574911476058
30
0
41
1
10
267.551729677775
20
24.2598627622581
30
0
41
1
10
267.553197894126
20
24.2606567256908
30
0
41
1
10
267.556546564706
20
24.2606368151023
30
0
41
1
10
267.557864176504
20
24.2604245190895
30
0
41
1
10
267.560849626481
20
24.2595937482387
30
0
41
1
10
267.562509311232
20
24.2589798099636
30
0
41
1
10
267.567961306001
20
24.256576233021
30
0
41
1
10
267.572230449554
20
24.254223815365
30
0
41
1
10
267.581924074944
20
24.2481356233884
30
0
41
1
10
267.587203153222
20
24.2444931606362
30
0
41
1
10
267.598484907468
20
24.2362099822935
30
0
41
1
10
267.604518790299
20
24.231543271622
30
0
41
1
10
267.623400016941
20
24.2163577993813
30
0
41
1
10
267.636681697517
20
24.2049543935815
30
0
41
1
10
267.650480947162
20
24.1926049128565
30
0
0
SPLINE
5
20B
100
AcDbEntity
8
1
62
256
6
ByLayer
370
18
48
1
60
0
100
AcDbSpline
70
4
71
3
72
8
73
4
40
0
40
0
40
0
40
0
40
1
40
1
40
1
40
1
41
1
10
267.650480947162
20
24.1926049128565
30
0
41
1
10
267.875470342809
20
23.9912532251719
30
0
41
1
10
268.100236859786
20
23.7895703804282
30
0
41
1
10
268.324759526419
20
23.5875252185428
30
0
0
SPLINE
5
20C
100
AcDbEntity
8
1
62
256
6
ByLayer
370
18
48
1
60
0
100
AcDbSpline
70
4
71
3
72
8
73
4
40
0
40
0
40
0
40
0
40
1
40
1
40
1
40
1
41
1
10
268.324759526419
20
23.6630274540323
30
0
41
1
10
268.101019214676
20
23.9154654531755
30
0
41
1
10
267.876228917632
20
24.1666509399739
30
0
41
1
10
267.650480947162
20
24.4166940319317
30
0
0
SPLINE
5
20D
100
AcDbEntity
8
1
62
256
6
ByLayer
370
18
48
1
60
0
100
AcDbSpline
70
4
71
3
72
37
73
33
40
0
40
0
40
0
40
0
40
0.0624999999999997
40
0.0624999999999997
40
0.124999999999999
40
0.124999999999999
40
0.249999999999987
40
0.249999999999987
40
0.312499999999979
40
0.312499999999979
40
0.374999999999972
40
0.406249999999972
40
0.406249999999972
40
0.437499999999972
40
0.437499999999972
40
0.499999999999972
40
0.499999999999972
40
0.531249999999972
40
0.531249999999972
40
0.562499999999973
40
0.562499999999973
40
0.624999999999977
40
0.624999999999977
40
0.687499999999981
40
0.687499999999981
40
0.749999999999984
40
0.749999999999984
40
0.812499999999988
40
0.812499999999988
40
0.874999999999992
40
0.874999999999992
40
1
40
1
40
1
40
1
41
1
10
267.650480947162
20
24.4166940319317
30
0
41
1
10
267.644233516261
20
24.4236138148026
30
0
41
1
10
267.638128791671
20
24.430447242131
30
0
41
1
10
267.626224587922
20
24.4439282469405
30
0
41
1
10
267.620408632679
20
24.4505953398446
30
0
41
1
10
267.603696944729
20
24.4700187730239
30
0
41
1
10
267.593459438986
20
24.4822776869182
30
0
41
1
10
267.579801977808
20
24.499359790976
30
0
41
1
10
267.575513158026
20
24.5048653228659
30
0
41
1
10
267.56782727776
20
24.515076174794
30
0
41
1
10
267.562698992221
20
24.5221718288949
30
0
41
1
10
267.55866279162
20
24.5283005792946
30
0
41
1
10
267.556240243351
20
24.5321488241222
30
0
41
1
10
267.555161120897
20
24.5339584350349
30
0
41
1
10
267.552417952635
20
24.5389021635926
30
0
41
1
10
267.551221826353
20
24.5415884195274
30
0
41
1
10
267.550485616375
20
24.5445985953598
30
0
41
1
10
267.55041909126
20
24.5454340249248
30
0
41
1
10
267.550661814729
20
24.5467128369875
30
0
41
1
10
267.550968230583
20
24.5471605417453
30
0
41
1
10
267.552439131489
20
24.5479324593425
30
0
41
1
10
267.554154903999
20
24.5476875862852
30
0
41
1
10
267.559095757758
20
24.545630029288
30
0
41
1
10
267.562230525272
20
24.5438567909979
30
0
41
1
10
267.569682176899
20
24.5389883407304
30
0
41
1
10
267.574051131848
20
24.535851615374
30
0
41
1
10
267.583612877603
20
24.528557039508
30
0
41
1
10
267.58879748384
20
24.5244110022466
30
0
41
1
10
267.599860114334
20
24.5152650369465
30
0
41
1
10
267.605784818522
20
24.510223577668
30
0
41
1
10
267.624098620595
20
24.4942917137724
30
0
41
1
10
267.637015243457
20
24.482621137557
30
0
41
1
10
267.650480947162
20
24.4701429912246
30
0
0
SPLINE
5
20E
100
AcDbEntity
8
1
62
256
6
ByLayer
370
18
48
1
60
0
100
AcDbSpline
70
4
71
3
72
8
73
4
40
0
40
0
40
0
40
0
40
1
40
1
40
1
40
1
41
1
10
267.650480947162
20
24.4701429912246
30
0
41
1
10
267.875567648883
20
24.2615638584126
30
0
41
1
10
268.10033706691
20
24.0525298860206
30
0
41
1
10
268.324759526419
20
23.8429985339373
30
0
0
SPLINE
5
20F
100
AcDbEntity
8
1
62
256
6
ByLayer
370
18
48
1
60
0
100
AcDbSpline
70
4
71
3
72
8
73
4
40
0
40
0
40
0
40
0
40
1
40
1
40
1
40
1
41
1
10
268.324759526419
20
23.8877233606902
30
0
41
1
10
268.100791090601
20
24.1271433496641
30
0
41
1
10
267.876008003165
20
24.3655393957375
30
0
41
1
10
267.650480947162
20
24.6030003410682
30
0
0
SPLINE
5
210
100
AcDbEntity
8
1
62
256
6
ByLayer
370
18
48
1
60
0
100
AcDbSpline
70
4
71
3
72
37
73
33
40
0
40
0
40
0
40
0
40
0.125000000000019
40
0.125000000000019
40
0.187500000000022
40
0.187500000000022
40
0.250000000000025
40
0.250000000000025
40
0.312500000000029
40
0.343750000000031
40
0.343750000000031
40
0.375000000000033
40
0.375000000000033
40
0.437500000000028
40
0.437500000000028
40
0.468750000000026
40
0.468750000000026
40
0.500000000000025
40
0.500000000000025
40
0.56250000000002
40
0.56250000000002
40
0.625000000000015
40
0.625000000000015
40
0.687500000000011
40
0.687500000000011
40
0.750000000000006
40
0.750000000000006
40
0.812500000000001
40
0.812500000000001
40
0.874999999999996
40
0.874999999999996
40
1
40
1
40
1
40
1
41
1
10
267.650480947162
20
24.6030003410682
30
0
41
1
10
267.637713524711
20
24.6164433587635
30
0
41
1
10
267.625555134204
20
24.6293990848527
30
0
41
1
10
267.608569850311
20
24.6477688699763
30
0
41
1
10
267.603108564082
20
24.6537238617298
30
0
41
1
10
267.592645038061
20
24.6652469120375
30
0
41
1
10
267.587628553198
20
24.6708318448442
30
0
41
1
10
267.578394061833
20
24.6812540907372
30
0
41
1
10
267.572016535815
20
24.6885648297583
30
0
41
1
10
267.566579562048
20
24.6950058114138
30
0
41
1
10
267.563185659207
20
24.6990862291307
30
0
41
1
10
267.561600856608
20
24.7010238889245
30
0
41
1
10
267.557303071354
20
24.7063893319171
30
0
41
1
10
267.555014755975
20
24.7094065301884
30
0
41
1
10
267.552553203198
20
24.712989484204
30
0
41
1
10
267.551893247071
20
24.7140301161116
30
0
41
1
10
267.550941407315
20
24.7157401602277
30
0
41
1
10
267.550646743412
20
24.7164124694581
30
0
41
1
10
267.550307456757
20
24.7178803359899
30
0
41
1
10
267.550804218982
20
24.7181301453516
30
0
41
1
10
267.553323180194
20
24.7170929258179
30
0
41
1
10
267.555303382755
20
24.7158212919819
30
0
41
1
10
267.560517793468
20
24.7119566589432
30
0
41
1
10
267.563756830219
20
24.7093608741
30
0
41
1
10
267.571431586465
20
24.7029148992639
30
0
41
1
10
267.575773222109
20
24.699143259071
30
0
41
1
10
267.585223568068
20
24.6907486294527
30
0
41
1
10
267.59034747327
20
24.6861125346094
30
0
41
1
10
267.601310018783
20
24.6760560925478
30
0
41
1
10
267.607046357809
20
24.670729424596
30
0
41
1
10
267.624771194315
20
24.6541190568002
30
0
41
1
10
267.637325338165
20
24.6421616074531
30
0
41
1
10
267.650480947162
20
24.6294893682047
30
0
0
SPLINE
5
211
100
AcDbEntity
8
1
62
256
6
ByLayer
370
18
48
1
60
0
100
AcDbSpline
70
4
71
3
72
8
73
4
40
0
40
0
40
0
40
0
40
1
40
1
40
1
40
1
41
1
10
267.650480947162
20
24.6294893682047
30
0
41
1
10
267.875685997487
20
24.4125589107659
30
0
41
1
10
268.100458994954
20
24.1950332762271
30
0
41
1
10
268.324759526419
20
23.976856793209
30
0
0
SPLINE
5
212
100
AcDbEntity
8
1
62
256
6
ByLayer
370
18
48
1
60
0
100
AcDbSpline
70
4
71
3
72
8
73
4
40
0
40
0
40
0
40
0
40
1
40
1
40
1
40
1
41
1
10
268.324759526419
20
23.991671694455
30
0
41
1
10
268.100607863251
20
24.2197546698699
30
0
41
1
10
267.875830405166
20
24.4470125106987
30
0
41
1
10
267.650480947162
20
24.6735161477096
30
0
0
SPLINE
5
213
100
AcDbEntity
8
1
62
256
6
ByLayer
370
18
48
1
60
0
100
AcDbSpline
70
2053
71
3
72
40
73
36
40
0
40
0
40
0
40
0
40
0.0625
40
0.0625
40
0.125
40
0.125
40
0.249999999999999
40
0.249999999999999
40
0.312499999999998
40
0.312499999999998
40
0.343749999999997
40
0.343749999999997
40
0.374999999999996
40
0.374999999999996
40
0.437499999999995
40
0.437499999999995
40
0.468749999999996
40
0.468749999999996
40
0.499999999999998
40
0.499999999999998
40
0.5625
40
0.5625
40
0.59375
40
0.59375
40
0.624999999999999
40
0.624999999999999
40
0.687499999999999
40
0.687499999999999
40
0.75
40
0.75
40
0.8125
40
0.8125
40
0.875
40
0.875
40
1
40
1
40
1
40
1
41
1
10
267.650480947162
20
24.6735161477096
30
0
41
1
10
267.643995528497
20
24.6800347829355
30
0
41
1
10
267.637641930968
20
24.6864240983015
30
0
41
1
10
267.625223781212
20
24.6989177330073
30
0
41
1
10
267.619159362558
20
24.7050219490496
30
0
41
1
10
267.601760540395
20
24.7225422830348
30
0
41
1
10
267.591092877904
20
24.7332946246375
30
0
41
1
10
267.576962978984
20
24.7475455477888
30
0
41
1
10
267.572665768936
20
24.7518812199185
30
0
41
1
10
267.566937041454
20
24.7576626687878
30
0
41
1
10
267.565146159727
20
24.7594703034823
30
0
41
1
10
267.561821741835
20
24.7628262012975
30
0
41
1
10
267.560285385348
20
24.7643773132453
30
0
41
1
10
267.556170769704
20
24.7685318245766
30
0
41
1
10
267.554054662599
20
24.7706689842455
30
0
41
1
10
267.551904777519
20
24.7728403855645
30
0
41
1
10
267.551358069514
20
24.7733926014467
30
0
41
1
10
267.550642684802
20
24.7741152032559
30
0
41
1
10
267.550471174801
20
24.7742884504558
30
0
41
1
10
267.550501778366
20
24.7742575373627
30
0
41
1
10
267.551246131199
20
24.7735056170708
30
0
41
1
10
267.553449587003
20
24.771280119119
30
0
41
1
10
267.554366440456
20
24.7703541331453
30
0
41
1
10
267.556507437831
20
24.7681920072883
30
0
41
1
10
267.557735591993
20
24.7669518171093
30
0
41
1
10
267.561863192775
20
24.7627842351976
30
0
41
1
10
267.565218581561
20
24.7593968992307
30
0
41
1
10
267.572951716672
20
24.7515926878464
30
0
41
1
10
267.577252302461
20
24.7472536906836
30
0
41
1
10
267.586584704884
20
24.7378414692261
30
0
41
1
10
267.591617667416
20
24.7327670857872
30
0
41
1
10
267.602342916789
20
24.7219581556344
30
0
41
1
10
267.607954623723
20
24.7163048356871
30
0
41
1
10
267.625296915117
20
24.6988417531472
30
0
41
1
10
267.637586054382
20
24.6864770846445
30
0
41
1
10
267.650480947162
20
24.6735161477096
30
0
0
SPLINE
5
214
100
AcDbEntity
8
1
62
256
6
ByLayer
370
13
48
1
60
0
100
AcDbSpline
70
4
71
3
72
34
73
30
40
0
40
0
40
0
40
0
40
0.0624999999999999
40
0.0624999999999999
40
0.125
40
0.15625
40
0.15625
40
0.1875
40
0.1875
40
0.25
40
0.25
40
0.375
40
0.40625
40
0.40625
40
0.4375
40
0.4375
40
0.5
40
0.5
40
0.625
40
0.625
40
0.6875
40
0.6875
40
0.75
40
0.75
40
0.875
40
0.875
40
0.9375
40
0.9375
40
1
40
1
40
1
40
1
41
1
10
266
20
24.999999999999
30
0
41
1
10
266.014812739614
20
24.999999999999
30
0
41
1
10
266.029622238173
20
24.9967241358786
30
0
41
1
10
266.059139800026
20
24.9836371974726
30
0
41
1
10
266.081206597765
20
24.9689207780151
30
0
41
1
10
266.103081239536
20
24.9468494149334
30
0
41
1
10
266.117611926543
20
24.9304980569
30
0
41
1
10
266.124852375046
20
24.9215017564257
30
0
41
1
10
266.146457520478
20
24.8920857452437
30
0
41
1
10
266.160712834101
20
24.8692332625326
30
0
41
1
10
266.20291630061
20
24.7909839098409
30
0
41
1
10
266.237152682465
20
24.709635261553
30
0
41
1
10
266.269682158228
20
24.6080642925882
30
0
41
1
10
266.282544446913
20
24.5658113771965
30
0
41
1
10
266.288902986091
20
24.5438661551309
30
0
41
1
10
266.3077213716
20
24.4756414302038
30
0
41
1
10
266.31991839485
20
24.4269981302981
30
0
41
1
10
266.355312517614
20
24.2716211294437
30
0
41
1
10
266.377321211601
20
24.1554500642246
30
0
41
1
10
266.40722530712
20
23.9622722142651
30
0
41
1
10
266.41667329215
20
23.8947236348502
30
0
41
1
10
266.43437761318
20
23.7532778952799
30
0
41
1
10
266.442617490402
20
23.6795117451554
30
0
41
1
10
266.465247523275
20
23.4491666082544
30
0
41
1
10
266.477575832709
20
23.283527491318
30
0
41
1
10
266.490600456538
20
23.0169088242278
30
0
41
1
10
266.494026128838
20
22.9249759938856
30
0
41
1
10
266.498725623193
20
22.7351579663387
30
0
41
1
10
266.5
20
22.6373314104557
30
0
41
1
10
266.5
20
22.5365853658614
30
0
0
SPLINE
5
215
100
AcDbEntity
8
1
62
256
6
ByLayer
370
18
48
1
60
0
100
AcDbSpline
70
4
71
3
72
73
73
69
40
0
40
0
40
0
40
0
40
0.0173685652626429
40
0.0346693658320719
40
0.0519023857450232
40
0.0690676086282236
40
0.0861650177047592
40
0.103194595800468
40
0.120156325350305
40
0.137050188404719
40
0.153876166636001
40
0.170634241344653
40
0.187324393465714
40
0.203946603575094
40
0.220500851895897
40
0.236987118304732
40
0.25340538233801
40
0.269755623198208
40
0.286037819760155
40
0.302251950577264
40
0.31839799388778
40
0.334475927620996
40
0.350485729403433
40
0.366427376565046
40
0.382300846145363
40
0.398106114899632
40
0.413843159304948
40
0.429511955566335
40
0.445112479622837
40
0.460644707153556
40
0.476108613583687
40
0.491504174090518
40
0.506831363609425
40
0.522090156839799
40
0.537280528250995
40
0.552402452088228
40
0.567455902378441
40
0.582440852936164
40
0.597357277369313
40
0.612205149084998
40
0.626984441295279
40
0.641695127022883
40
0.656337179106936
40
0.670910570208592
40
0.685415272816712
40
0.699851259253442
40
0.714218501679808
40
0.728516972101257
40
0.742746642373157
40
0.756907484206298
40
0.77099946917232
40
0.785022568709134
40
0.798976754126302
40
0.812861996610377
40
0.826678267230228
40
0.840425536942296
40
0.854103776595858
40
0.867712956938224
40
0.88125304861991
40
0.894724022199777
40
0.908125848150138
40
0.921458496861826
40
0.934721938649219
40
0.947916143755237
40
0.961041082356316
40
0.974096724567317
40
0.987083040446425
40
1
40
1
40
1
40
1
41
1
10
266.067675282232
20
22.7547511370658
30
0
41
1
10
266.066970994684
20
22.7437790593183
30
0
41
1
10
266.065565167416
20
22.7218777121654
30
0
41
1
10
266.063493924058
20
22.6888038938661
30
0
41
1
10
266.061455391542
20
22.6556525193587
30
0
41
1
10
266.059451921734
20
22.6224061037302
30
0
41
1
10
266.057482862836
20
22.589073121416
30
0
41
1
10
266.055548358859
20
22.5556551131825
30
0
41
1
10
266.053648337597
20
22.5221554478722
30
0
41
1
10
266.05178278024
20
22.4885769886021
30
0
41
1
10
266.049951649607
20
22.4549227144019
30
0
41
1
10
266.048154909302
20
22.421195554653
30
0
41
1
10
266.046392518658
20
22.3873984331967
30
0
41
1
10
266.044664434127
20
22.3535342565998
30
0
41
1
10
266.042970608955
20
22.3196059172926
30
0
41
1
10
266.041310993316
20
22.2856162927457
30
0
41
1
10
266.039685534317
20
22.2515682457026
30
0
41
1
10
266.038094176042
20
22.2174646241307
30
0
41
1
10
266.036536859588
20
22.1833082612475
30
0
41
1
10
266.035013523098
20
22.1491019755265
30
0
41
1
10
266.033524101796
20
22.1148485707099
30
0
41
1
10
266.032068528028
20
22.0805508358176
30
0
41
1
10
266.030646731289
20
22.0462115451591
30
0
41
1
10
266.029258638265
20
22.0118334583436
30
0
41
1
10
266.027904172866
20
21.9774193202914
30
0
41
1
10
266.026583256264
20
21.9429718612444
30
0
41
1
10
266.025295806922
20
21.908493796778
30
0
41
1
10
266.02404174064
20
21.8739878278113
30
0
41
1
10
266.022820970579
20
21.8394566406193
30
0
41
1
10
266.021633407305
20
21.8049029068438
30
0
41
1
10
266.020478958822
20
21.7703292835054
30
0
41
1
10
266.019357530603
20
21.7357384130148
30
0
41
1
10
266.018269025633
20
21.701132923185
30
0
41
1
10
266.01721334444
20
21.666515427243
30
0
41
1
10
266.016190385128
20
21.6318885238421
30
0
41
1
10
266.015200043416
20
21.5972547970739
30
0
41
1
10
266.014242212674
20
21.562616816481
30
0
41
1
10
266.013316783953
20
21.5279771370696
30
0
41
1
10
266.012423646026
20
21.4933382993219
30
0
41
1
10
266.011562685417
20
21.4587028292092
30
0
41
1
10
266.01073378644
20
21.4240732382052
30
0
41
1
10
266.009936831233
20
21.3894520232988
30
0
41
1
10
266.009171699792
20
21.3548416670077
30
0
41
1
10
266.008438270005
20
21.3202446373924
30
0
41
1
10
266.007736417687
20
21.2856633880695
30
0
41
1
10
266.007066016616
20
21.2511003582259
30
0
41
1
10
266.006426938565
20
21.2165579726331
30
0
41
1
10
266.005819053336
20
21.1820386416616
30
0
41
1
10
266.005242228796
20
21.1475447612955
30
0
41
1
10
266.004696330911
20
21.1130787131472
30
0
41
1
10
266.004181223776
20
21.078642864473
30
0
41
1
10
266.003696769654
20
21.0442395681876
30
0
41
1
10
266.003242829006
20
21.0098711628806
30
0
41
1
10
266.002819260525
20
20.9755399728311
30
0
41
1
10
266.002425921168
20
20.9412483080262
30
0
41
1
10
266.002062666196
20
20.9069984641684
30
0
41
1
10
266.001729349193
20
20.8727927227258
30
0
41
1
10
266.001425822132
20
20.8386333508233
30
0
41
1
10
266.001151935291
20
20.8045226017248
30
0
41
1
10
266.000907537724
20
20.7704627131271
30
0
41
1
10
266.000692475666
20
20.7364559135615
30
0
41
1
10
266.000506598586
20
20.7025043987675
30
0
41
1
10
266.000349736934
20
20.6686104192697
30
0
41
1
10
266.000221784686
20
20.6347759561659
30
0
41
1
10
266.000122393851
20
20.6010039217177
30
0
41
1
10
266.00005210575
20
20.5672937140436
30
0
41
1
10
266.000008162608
20
20.5336576759843
30
0
41
1
10
266.000002716008
20
20.5111991810324
30
0
41
1
10
266
20
20.499999999999
30
0
0
SPLINE
5
216
100
AcDbEntity
8
1
62
256
6
ByLayer
370
18
48
1
60
0
100
AcDbSpline
70
4
71
3
72
51
73
47
40
0
40
0
40
0
40
0
40
0.0163698658227556
40
0.0328016119007479
40
0.0492952623575901
40
0.0658508410462714
40
0.0824683715531076
40
0.0991478772015861
40
0.115889381056156
40
0.132692905925976
40
0.149558474368561
40
0.166486108693374
40
0.183475830965383
40
0.200527663008522
40
0.217641626409105
40
0.234817742519192
40
0.252056032459867
40
0.26935651712451
40
0.286719217181959
40
0.304144153079655
40
0.321631345046717
40
0.339180813096971
40
0.356792577031925
40
0.374466656443695
40
0.392203070717891
40
0.410001839036428
40
0.427862980380329
40
0.445786513532442
40
0.463772457080143
40
0.481820829417984
40
0.499931648750275
40
0.531729742561769
40
0.563747425027471
40
0.595984789744238
40
0.628441928408118
40
0.661118930864687
40
0.694015885157785
40
0.727132877576663
40
0.76046999270163
40
0.794027313448234
40
0.827804921110051
40
0.86180289540015
40
0.896021314491218
40
0.930460255054464
40
0.96511979229733
40
1
40
1
40
1
40
1
41
1
10
265.5
20
20.9183673469378
30
0
41
1
10
265.500010032665
20
20.9315221621949
30
0
41
1
10
265.50003013592
20
20.9578815196487
30
0
41
1
10
265.500172268434
20
20.9972726393059
30
0
41
1
10
265.500396275852
20
21.0366474215526
30
0
41
1
10
265.500710285225
20
21.0759875467444
30
0
41
1
10
265.501112106629
20
21.1152949764781
30
0
41
1
10
265.501602330167
20
21.1545661901958
30
0
41
1
10
265.502180796846
20
21.1937991273883
30
0
41
1
10
265.50284754952
20
21.23299131697
30
0
41
1
10
265.503602576652
20
21.2721403813098
30
0
41
1
10
265.504445881362
20
21.3112439004135
30
0
41
1
10
265.505377462823
20
21.3502994485107
30
0
41
1
10
265.506397321267
20
21.3893045841906
30
0
41
1
10
265.507505456644
20
21.4282568530544
30
0
41
1
10
265.508701868979
20
21.4671537869966
30
0
41
1
10
265.509986558276
20
21.5059929043955
30
0
41
1
10
265.511359524545
20
21.5447717100601
30
0
41
1
10
265.512820767793
20
21.5834876952442
30
0
41
1
10
265.51437028803
20
21.622138337643
30
0
41
1
10
265.516008085265
20
21.6607211013961
30
0
41
1
10
265.517734159505
20
21.69923343709
30
0
41
1
10
265.519548510757
20
21.7376727817614
30
0
41
1
10
265.521451139038
20
21.7760365589045
30
0
41
1
10
265.523442044323
20
21.8143221784682
30
0
41
1
10
265.525521226744
20
21.8525270368936
30
0
41
1
10
265.527688685842
20
21.8906485170097
30
0
41
1
10
265.529944423382
20
21.9286839884615
30
0
41
1
10
265.532288432771
20
21.9666308061493
30
0
41
1
10
265.53472073879
20
22.0044863161328
30
0
41
1
10
265.537873309971
20
22.051717188103
30
0
41
1
10
265.541838989512
20
22.1081879219391
30
0
41
1
10
265.546731421531
20
22.1736906151841
30
0
41
1
10
265.551898535711
20
22.2389257212342
30
0
41
1
10
265.55734037521
20
22.3038766023259
30
0
41
1
10
265.563056928704
20
22.3685264772534
30
0
41
1
10
265.569048199042
20
22.4328584026164
30
0
41
1
10
265.575314187376
20
22.4968552674563
30
0
41
1
10
265.58185488724
20
22.5604998357507
30
0
41
1
10
265.588670324646
20
22.6237745821819
30
0
41
1
10
265.595760402152
20
22.6866623144907
30
0
41
1
10
265.60312548785
20
22.7491438295752
30
0
41
1
10
265.610764195354
20
22.8112067491154
30
0
41
1
10
265.618681749719
20
22.872812226141
30
0
41
1
10
265.626858463382
20
22.934020402534
30
0
41
1
10
265.63251388199
20
22.9742243249025
30
0
41
1
10
265.635350564464
20
22.9943900756365
30
0
0
SPLINE
5
217
100
AcDbEntity
8
1
62
256
6
ByLayer
370
18
48
1
60
0
100
AcDbSpline
70
4
71
3
72
55
73
51
40
0
40
0
40
0
40
0
40
0.0079245655345783
40
0.0159114253084012
40
0.0239605829212847
40
0.0320720418900571
40
0.0402458056510963
40
0.0484818775627481
40
0.0567802609076743
40
0.0651409588951036
40
0.073563974662993
40
0.0820493112801276
40
0.0905969717481253
40
0.099206959003389
40
0.107879275918966
40
0.116613925306361
40
0.125410909917276
40
0.154479422763259
40
0.184954478282284
40
0.216836148163241
40
0.250124494582527
40
0.30630053375266
40
0.366464850257788
40
0.430617606472867
40
0.498758926831092
40
0.554560544510239
40
0.614775322165124
40
0.67940325612816
40
0.74844433078931
40
0.756529661225179
40
0.765004342929402
40
0.773868375905948
40
0.783121760149294
40
0.79276449564557
40
0.802796582373484
40
0.81321802030507
40
0.824028809406309
40
0.835228949637628
40
0.846818440954335
40
0.858797283306961
40
0.871165476641574
40
0.883923020900011
40
0.897069916020117
40
0.910606161935911
40
0.924531758577755
40
0.938846705872486
40
0.953551003743539
40
0.968644652111046
40
0.984127650891938
40
1
40
1
40
1
40
1
41
1
10
265.635350564464
20
22.9943900756365
30
0
41
1
10
265.636827231209
20
23.0048101163503
30
0
41
1
10
265.639792172631
20
23.025732108705
30
0
41
1
10
265.644187677625
20
23.0569385932359
30
0
41
1
10
265.648567480635
20
23.0881650731174
30
0
41
1
10
265.652926486448
20
23.1193839852768
30
0
41
1
10
265.657266076186
20
23.1505951298854
30
0
41
1
10
265.661585875399
20
23.1817908172797
30
0
41
1
10
265.665885985496
20
23.2129653154657
30
0
41
1
10
265.670166378896
20
23.244112289314
30
0
41
1
10
265.674427063057
20
23.2752254944764
30
0
41
1
10
265.678668035641
20
23.3062985893318
30
0
41
1
10
265.682889298113
20
23.3373251855371
30
0
41
1
10
265.687090846582
20
23.3682988354851
30
0
41
1
10
265.691272694941
20
23.3992130309973
30
0
41
1
10
265.695434790658
20
23.4300612211196
30
0
41
1
10
265.702749531823
20
23.4844034635147
30
0
41
1
10
265.713202997964
20
23.5624587972589
30
0
41
1
10
265.726687452156
20
23.6634130587565
30
0
41
1
10
265.740315176372
20
23.7652105530392
30
0
41
1
10
265.757060675379
20
23.8892768552793
30
0
41
1
10
265.776818712095
20
24.0336161723125
30
0
41
1
10
265.799459956364
20
24.1940645144833
30
0
41
1
10
265.82250506025
20
24.3494711028511
30
0
41
1
10
265.844080926517
20
24.4849394003191
30
0
41
1
10
265.864458435076
20
24.6024163086357
30
0
41
1
10
265.88388942393
20
24.7036775557659
30
0
41
1
10
265.904230575193
20
24.7961499467149
30
0
41
1
10
265.918777827684
20
24.8510224692613
30
0
41
1
10
265.927463692301
20
24.8797034882565
30
0
41
1
10
265.930035638374
20
24.8879379258374
30
0
41
1
10
265.93271897357
20
24.8962394995725
30
0
41
1
10
265.935513501391
20
24.9045661803916
30
0
41
1
10
265.938419276188
20
24.9128740548778
30
0
41
1
10
265.94143628084
20
24.9211173469684
30
0
41
1
10
265.944564518854
20
24.9292484106838
30
0
41
1
10
265.947803988062
20
24.9372177315421
30
0
41
1
10
265.951154688067
20
24.9449739258942
30
0
41
1
10
265.954616618106
20
24.9524637415512
30
0
41
1
10
265.958189777629
20
24.9596320578186
30
0
41
1
10
265.961874166129
20
24.9664218893887
30
0
41
1
10
265.965669783141
20
24.9727743777799
30
0
41
1
10
265.969576628361
20
24.9786288341041
30
0
41
1
10
265.973594701092
20
24.9839225843718
30
0
41
1
10
265.977724002382
20
24.9885915879312
30
0
41
1
10
265.981964526669
20
24.9925680484325
30
0
41
1
10
265.986316294249
20
24.9957897271055
30
0
41
1
10
265.990779225129
20
24.9981637903864
30
0
41
1
10
265.995353628535
20
24.9997071335421
30
0
41
1
10
265.998438441113
20
24.999901573039
30
0
41
1
10
266
20
24.999999999999
30
0
0
SPLINE
5
218
100
AcDbEntity
8
1
62
256
6
ByLayer
370
18
48
1
60
0
100
AcDbSpline
70
4
71
1
72
4
73
2
40
0
40
0
40
1
40
1
41
1
10
265.5
20
20.9183673469378
30
0
41
1
10
266
20
20.499999999999
30
0
0
LINE
5
A6
100
AcDbEntity
8
SK4
62
256
6
ByLayer
370
18
48
0.05
60
0
100
AcDbLine
10
4
20
0
30
0
11
264
21
0
31
0
39
0
210
0
220
0
230
1
0
LINE
5
A8
100
AcDbEntity
8
81
62
256
6
ByLayer
370
18
48
1
60
0
100
AcDbLine
10
268
20
5
30
0
11
273
21
5
31
0
39
0
210
0
220
0
230
1
0
LINE
5
A9
100
AcDbEntity
8
4
62
256
6
ByLayer
370
18
48
0.05
60
0
100
AcDbLine
10
264
20
5
30
0
11
268
21
5
31
0
39
0
210
0
220
0
230
1
0
LINE
5
AB
100
AcDbEntity
8
80
62
256
6
ByLayer
370
18
48
1
60
0
100
AcDbLine
10
0
20
0
30
0
11
-5
21
0
31
0
39
0
210
0
220
0
230
1
0
LINE
5
AC
100
AcDbEntity
8
1
62
256
6
ByLayer
370
18
48
1
60
0
100
AcDbLine
10
272.8
20
17.899495
30
0
11
272.8
21
11.899495
31
0
39
0
210
0
220
0
230
1
0
LINE
5
AD
100
AcDbEntity
8
1
62
256
6
ByLayer
370
13
48
1
60
0
100
AcDbLine
10
268.324503
20
12.453995
30
0
11
272.8
21
12.453995
31
0
39
0
210
0
220
0
230
1
0
LINE
5
AE
100
AcDbEntity
8
1
62
256
6
ByLayer
370
13
48
1
60
0
100
AcDbLine
10
268.324503
20
17.344995
30
0
11
272.8
21
17.344995
31
0
39
0
210
0
220
0
230
1
0
LINE
5
AF
100
AcDbEntity
8
1
62
256
6
ByLayer
370
18
48
1
60
0
100
AcDbLine
10
272.8
20
-1.899495
30
0
11
272.8
21
-7.899495
31
0
39
0
210
0
220
0
230
1
0
LINE
5
B0
100
AcDbEntity
8
1
62
256
6
ByLayer
370
13
48
1
60
0
100
AcDbLine
10
268.324503
20
-7.344995
30
0
11
272.8
21
-7.344995
31
0
39
0
210
0
220
0
230
1
0
LINE
5
B1
100
AcDbEntity
8
1
62
256
6
ByLayer
370
13
48
1
60
0
100
AcDbLine
10
268.324503
20
-2.453995
30
0
11
272.8
21
-2.453995
31
0
39
0
210
0
220
0
230
1
0
LINE
5
B2
100
AcDbEntity
8
1
62
256
6
ByLayer
370
18
48
1
60
0
100
AcDbLine
10
26
20
30.431572
30
0
11
26
21
24.420041
31
0
39
0
210
0
220
0
230
1
0
LINE
5
B3
100
AcDbEntity
8
1
62
256
6
ByLayer
370
18
48
1
60
0
100
AcDbLine
10
26
20
30.431572
30
0
11
21.374612
21
30.431572
31
0
39
0
210
0
220
0
230
1
0
LINE
5
B4
100
AcDbEntity
8
1
62
256
6
ByLayer
370
18
48
1
60
0
100
AcDbLine
10
16.0875
20
19.85
30
0
11
16.0875
21
21.056095
31
0
39
0
210
0
220
0
230
1
0
LINE
5
B5
100
AcDbEntity
8
1
62
256
6
ByLayer
370
18
48
1
60
0
100
AcDbLine
10
26
20
24.420041
30
0
11
26
21
19.85
31
0
39
0
210
0
220
0
230
1
0
LINE
5
B6
100
AcDbEntity
8
1
62
256
6
ByLayer
370
18
48
1
60
0
100
AcDbLine
10
19.9125
20
21.056095
30
0
11
19.9125
21
19.85
31
0
39
0
210
0
220
0
230
1
0
LINE
5
B7
100
AcDbEntity
8
1
62
256
6
ByLayer
370
18
48
1
60
0
100
AcDbLine
10
26
20
24.420041
30
0
11
21.374612
21
24.420041
31
0
39
0
210
0
220
0
230
1
0
LINE
5
B8
100
AcDbEntity
8
1
62
256
6
ByLayer
370
18
48
1
60
0
100
AcDbLine
10
16.0875
20
27.8047
30
0
11
16.0875
21
21.056095
31
0
39
0
210
0
220
0
230
1
0
LINE
5
B9
100
AcDbEntity
8
1
62
256
6
ByLayer
370
18
48
1
60
0
100
AcDbLine
10
19.9125
20
27.8047
30
0
11
19.9125
21
21.056095
31
0
39
0
210
0
220
0
230
1
0
LINE
5
BA
100
AcDbEntity
8
1
62
256
6
ByLayer
370
18
48
1
60
0
100
AcDbLine
10
21.374612
20
30.431572
30
0
11
21.374612
21
24.420041
31
0
39
0
210
0
220
0
230
1
0
LINE
5
BB
100
AcDbEntity
8
1
62
256
6
ByLayer
370
13
48
1
60
0
100
AcDbLine
10
12.19562
20
24.420041
30
0
11
12.19562
21
19.85
31
0
39
0
210
0
220
0
230
1
0
LINE
5
BC
100
AcDbEntity
8
1
62
256
6
ByLayer
370
18
48
1
60
0
100
AcDbLine
10
264
20
24.8
30
0
11
264
21
-24.8
31
0
39
0
210
0
220
0
230
1
0
LINE
5
BD
100
AcDbEntity
8
1
62
256
6
ByLayer
370
13
48
1
60
0
100
AcDbLine
10
263.8
20
25
30
0
11
263.8
21
-25
31
0
39
0
210
0
220
0
230
1
0
LINE
5
BE
100
AcDbEntity
8
1
62
256
6
ByLayer
370
18
48
1
60
0
100
AcDbLine
10
19.5125
20
26.4
30
0
11
16.4875
21
26.4
31
0
39
0
210
0
220
0
230
1
0
LINE
5
BF
100
AcDbEntity
8
1
62
256
6
ByLayer
370
18
48
1
60
0
100
AcDbLine
10
19.5125
20
-26.4
30
0
11
16.4875
21
-26.4
31
0
39
0
210
0
220
0
230
1
0
LINE
5
C0
100
AcDbEntity
8
1
62
256
6
ByLayer
370
13
48
1
60
0
100
AcDbLine
10
16.4875
20
26.4
30
0
11
16.4875
21
-26.4
31
0
39
0
210
0
220
0
230
1
0
LINE
5
C1
100
AcDbEntity
8
1
62
256
6
ByLayer
370
13
48
1
60
0
100
AcDbLine
10
19.5125
20
26.4
30
0
11
19.5125
21
-26.4
31
0
39
0
210
0
220
0
230
1
0
LINE
5
C2
100
AcDbEntity
8
1
62
256
6
ByLayer
370
13
48
1
60
0
100
AcDbLine
10
29
20
-25
30
0
11
29
21
25
31
0
39
0
210
0
220
0
230
1
0
LINE
5
C3
100
AcDbEntity
8
1
62
256
6
ByLayer
370
18
48
1
60
0
100
AcDbLine
10
0
20
-30.97
30
0
11
0
21
30.97
31
0
39
0
210
0
220
0
230
1
0
LINE
5
C4
100
AcDbEntity
8
1
62
256
6
ByLayer
370
18
48
1
60
0
100
AcDbLine
10
14.625388
20
24.420041
30
0
11
12.19562
21
24.420041
31
0
39
0
210
0
220
0
230
1
0
LINE
5
C5
100
AcDbEntity
8
1
62
256
6
ByLayer
370
18
48
1
60
0
100
AcDbLine
10
14.625388
20
24.420041
30
0
11
14.625388
21
30.431572
31
0
39
0
210
0
220
0
230
1
0
LINE
5
C6
100
AcDbEntity
8
1
62
256
6
ByLayer
370
18
48
1
60
0
100
AcDbLine
10
14.625388
20
30.431572
30
0
11
12.95
21
30.431572
31
0
39
0
210
0
220
0
230
1
0
LINE
5
C7
100
AcDbEntity
8
1
62
256
6
ByLayer
370
18
48
1
60
0
100
AcDbLine
10
4.95
20
-31.453547
30
0
11
4.95
21
-31.47
31
0
39
0
210
0
220
0
230
1
0
LINE
5
C8
100
AcDbEntity
8
1
62
256
6
ByLayer
370
18
48
1
60
0
100
AcDbLine
10
14.625388
20
-30.150383
30
0
11
12.95
21
-30.150383
31
0
39
0
210
0
220
0
230
1
0
LINE
5
C9
100
AcDbEntity
8
1
62
256
6
ByLayer
370
18
48
1
60
0
100
AcDbLine
10
14.625388
20
19.85
30
0
11
4.968215
21
19.85
31
0
39
0
210
0
220
0
230
1
0
LINE
5
CA
100
AcDbEntity
8
1
62
256
6
ByLayer
370
18
48
1
60
0
100
AcDbLine
10
0.5
20
-31.47
30
0
11
0.5
21
31.47
31
0
39
0
210
0
220
0
230
1
0
LINE
5
CB
100
AcDbEntity
8
1
62
256
6
ByLayer
370
18
48
1
60
0
100
AcDbLine
10
26
20
19.85
30
0
11
26
21
-30.150383
31
0
39
0
210
0
220
0
230
1
0
LINE
5
CC
100
AcDbEntity
8
1
62
256
6
ByLayer
370
18
48
1
60
0
100
AcDbLine
10
26
20
19.85
30
0
11
21.374612
21
19.85
31
0
39
0
210
0
220
0
230
1
0
LINE
5
CD
100
AcDbEntity
8
1
62
256
6
ByLayer
370
18
48
1
60
0
100
AcDbLine
10
26
20
-30.150383
30
0
11
21.374612
21
-30.150383
31
0
39
0
210
0
220
0
230
1
0
LINE
5
CE
100
AcDbEntity
8
1
62
256
6
ByLayer
370
18
48
1
60
0
100
AcDbLine
10
21.374612
20
19.85
30
0
11
21.374612
21
-30.150383
31
0
39
0
210
0
220
0
230
1
0
LINE
5
CF
100
AcDbEntity
8
1
62
256
6
ByLayer
370
18
48
1
60
0
100
AcDbLine
10
19.9125
20
19.85
30
0
11
19.9125
21
-27.49666
31
0
39
0
210
0
220
0
230
1
0
LINE
5
D0
100
AcDbEntity
8
1
62
256
6
ByLayer
370
18
48
1
60
0
100
AcDbLine
10
16.0875
20
19.85
30
0
11
16.0875
21
-27.49666
31
0
39
0
210
0
220
0
230
1
0
LINE
5
D1
100
AcDbEntity
8
1
62
256
6
ByLayer
370
18
48
1
60
0
100
AcDbLine
10
14.625388
20
-30.150383
30
0
11
14.625388
21
19.85
31
0
39
0
210
0
220
0
230
1
0
LINE
5
D2
100
AcDbEntity
8
SK1
62
256
6
ByLayer
370
13
48
1
60
0
100
AcDbLine
10
-27.2
20
20.845
30
0
11
-27.2
21
20.779376
31
0
39
0
210
0
220
0
230
1
0
LINE
5
D4
100
AcDbEntity
8
SK1
62
256
6
ByLayer
370
18
48
1
60
0
100
AcDbLine
10
-30.75
20
20.845
30
0
11
-30.75
21
20.844744
31
0
39
0
210
0
220
0
230
1
0
LINE
5
D5
100
AcDbEntity
8
SK1
62
256
6
ByLayer
370
18
48
1
60
0
100
AcDbLine
10
-30.70125
20
-20.845
30
0
11
-30.70125
21
-20.843389
31
0
39
0
210
0
220
0
230
1
0
LINE
5
D6
100
AcDbEntity
8
SK1
62
256
6
ByLayer
370
13
48
1
60
0
100
AcDbLine
10
-23.2
20
-20.531099
30
0
11
-23.2
21
-20.845
31
0
39
0
210
0
220
0
230
1
0
LINE
5
D7
100
AcDbEntity
8
SK1
62
256
6
ByLayer
370
13
48
1
60
0
100
AcDbLine
10
-23.2
20
-20.531099
30
0
11
-25.983343
21
-20.531099
31
0
39
0
210
0
220
0
230
1
0
LINE
5
D8
100
AcDbEntity
8
SK1
62
256
6
ByLayer
370
13
48
1
60
0
100
AcDbLine
10
-23.2
20
-20.531099
30
0
11
-23.2
21
-19.357689
31
0
39
0
210
0
220
0
230
1
0
LINE
5
D9
100
AcDbEntity
8
SK1
62
256
6
ByLayer
370
13
48
1
60
0
100
AcDbLine
10
-31.842316
20
19.557838
30
0
11
-31.06758
21
20.248133
31
0
39
0
210
0
220
0
230
1
0
LINE
5
DA
100
AcDbEntity
8
SK1
62
256
6
ByLayer
370
13
48
1
60
0
100
AcDbLine
10
-31.869281
20
-19.490376
30
0
11
-30.96978
21
-20.291837
31
0
39
0
210
0
220
0
230
1
0
LINE
5
DB
100
AcDbEntity
8
SK1
62
256
6
ByLayer
370
18
48
1
60
0
100
AcDbLine
10
-31.9
20
-19.639143
30
0
11
-31.9
21
19.672662
31
0
39
0
210
0
220
0
230
1
0
LINE
5
DC
100
AcDbEntity
8
SK1
62
256
6
ByLayer
370
13
48
1
60
0
100
AcDbLine
10
-0.45
20
-23.970431
30
0
11
-0.45
21
23.970431
31
0
39
0
210
0
220
0
230
1
0
LINE
5
DD
100
AcDbEntity
8
SK1
62
256
6
ByLayer
370
18
48
1
60
0
100
AcDbLine
10
-25.8
20
21.833816
30
0
11
-25.8
21
23.028046
31
0
39
0
210
0
220
0
230
1
0
LINE
5
DE
100
AcDbEntity
8
SK1
62
256
6
ByLayer
370
13
48
1
60
0
100
AcDbLine
10
-30.760045
20
20.83431
30
0
11
-30.760045
21
-20.775936
31
0
39
0
210
0
220
0
230
1
0
LINE
5
DF
100
AcDbEntity
8
SK1
62
256
6
ByLayer
370
18
48
1
60
0
100
AcDbLine
10
-21.8
20
-23.228447
30
0
11
-21.8
21
-21.960979
31
0
39
0
210
0
220
0
230
1
0
LINE
5
E0
100
AcDbEntity
8
SK1
62
256
6
ByLayer
370
18
48
1
60
0
100
AcDbLine
10
-1.566987
20
-23.970431
30
0
11
-1.566987
21
23.970431
31
0
39
0
210
0
220
0
230
1
0
LINE
5
E1
100
AcDbEntity
8
SK1
62
256
6
ByLayer
370
18
48
1
60
0
100
AcDbLine
10
-2
20
-24.220431
30
0
11
-2
21
24.220431
31
0
39
0
210
0
220
0
230
1
0
LINE
5
E2
100
AcDbEntity
8
1
62
256
6
ByLayer
370
18
48
1
60
0
100
AcDbLine
10
268.32476
20
23.887542
30
0
11
268.32476
21
23.976857
31
0
39
0
210
0
220
0
230
1
0
LINE
5
E3
100
AcDbEntity
8
1
62
256
6
ByLayer
370
18
48
1
60
0
100
AcDbLine
10
268.32476
20
-13.976857
30
0
11
268.32476
21
-13.887542
31
0
39
0
210
0
220
0
230
1
0
LINE
5
E4
100
AcDbEntity
8
1
62
256
6
ByLayer
370
13
48
1
60
0
100
AcDbLine
10
267.650481
20
24.602807
30
0
11
267.650481
21
24.629489
31
0
39
0
210
0
220
0
230
1
0
LINE
5
E5
100
AcDbEntity
8
1
62
256
6
ByLayer
370
13
48
1
60
0
100
AcDbLine
10
267.650481
20
-14.629489
30
0
11
267.650481
21
-14.602807
31
0
39
0
210
0
220
0
230
1
0
LINE
5
E6
100
AcDbEntity
8
1
62
256
6
ByLayer
370
18
48
1
60
0
100
AcDbLine
10
268.32476
20
-13.842999
30
0
11
268.32476
21
-13.662842
31
0
39
0
210
0
220
0
230
1
0
LINE
5
E7
100
AcDbEntity
8
1
62
256
6
ByLayer
370
18
48
1
60
0
100
AcDbLine
10
268.32476
20
23.662842
30
0
11
268.32476
21
23.842999
31
0
39
0
210
0
220
0
230
1
0
LINE
5
E8
100
AcDbEntity
8
1
62
256
6
ByLayer
370
13
48
1
60
0
100
AcDbLine
10
267.650481
20
24.416627
30
0
11
267.650481
21
24.470143
31
0
39
0
210
0
220
0
230
1
0
LINE
5
E9
100
AcDbEntity
8
1
62
256
6
ByLayer
370
13
48
1
60
0
100
AcDbLine
10
267.650481
20
-14.470143
30
0
11
267.650481
21
-14.416627
31
0
39
0
210
0
220
0
230
1
0
LINE
5
EA
100
AcDbEntity
8
1
62
256
6
ByLayer
370
18
48
1
60
0
100
AcDbLine
10
268.32476
20
23.31313
30
0
11
268.32476
21
23.587525
31
0
39
0
210
0
220
0
230
1
0
LINE
5
EB
100
AcDbEntity
8
1
62
256
6
ByLayer
370
18
48
1
60
0
100
AcDbLine
10
268.32476
20
-13.587525
30
0
11
268.32476
21
-13.31313
31
0
39
0
210
0
220
0
230
1
0
LINE
5
EC
100
AcDbEntity
8
1
62
256
6
ByLayer
370
13
48
1
60
0
100
AcDbLine
10
267.650481
20
-14.192605
30
0
11
267.650481
21
-14.111162
31
0
39
0
210
0
220
0
230
1
0
LINE
5
ED
100
AcDbEntity
8
1
62
256
6
ByLayer
370
13
48
1
60
0
100
AcDbLine
10
267.650481
20
24.111162
30
0
11
267.650481
21
24.192605
31
0
39
0
210
0
220
0
230
1
0
LINE
5
EE
100
AcDbEntity
8
1
62
256
6
ByLayer
370
18
48
1
60
0
100
AcDbLine
10
268.32476
20
-13.205318
30
0
11
268.32476
21
-12.830489
31
0
39
0
210
0
220
0
230
1
0
LINE
5
EF
100
AcDbEntity
8
1
62
256
6
ByLayer
370
18
48
1
60
0
100
AcDbLine
10
268.32476
20
22.830489
30
0
11
268.32476
21
23.205318
31
0
39
0
210
0
220
0
230
1
0
LINE
5
F0
100
AcDbEntity
8
1
62
256
6
ByLayer
370
13
48
1
60
0
100
AcDbLine
10
267.650481
20
-13.791639
30
0
11
267.650481
21
-13.680651
31
0
39
0
210
0
220
0
230
1
0
LINE
5
F1
100
AcDbEntity
8
1
62
256
6
ByLayer
370
13
48
1
60
0
100
AcDbLine
10
267.650481
20
23.680651
30
0
11
267.650481
21
23.791639
31
0
39
0
210
0
220
0
230
1
0
LINE
5
F2
100
AcDbEntity
8
1
62
256
6
ByLayer
370
18
48
1
60
0
100
AcDbLine
10
268.32476
20
-12.688163
30
0
11
268.32476
21
-12.204449
31
0
39
0
210
0
220
0
230
1
0
LINE
5
F3
100
AcDbEntity
8
1
62
256
6
ByLayer
370
18
48
1
60
0
100
AcDbLine
10
268.32476
20
22.204449
30
0
11
268.32476
21
22.688163
31
0
39
0
210
0
220
0
230
1
0
LINE
5
F4
100
AcDbEntity
8
1
62
256
6
ByLayer
370
13
48
1
60
0
100
AcDbLine
10
267.650481
20
-13.259116
30
0
11
267.650481
21
-13.116188
31
0
39
0
210
0
220
0
230
1
0
LINE
5
F5
100
AcDbEntity
8
1
62
256
6
ByLayer
370
13
48
1
60
0
100
AcDbLine
10
267.650481
20
23.116188
30
0
11
267.650481
21
23.259116
31
0
39
0
210
0
220
0
230
1
0
LINE
5
F6
100
AcDbEntity
8
1
62
256
6
ByLayer
370
18
48
1
60
0
100
AcDbLine
10
268.32476
20
21.418191
30
0
11
268.32476
21
22.023766
31
0
39
0
210
0
220
0
230
1
0
LINE
5
F7
100
AcDbEntity
8
1
62
256
6
ByLayer
370
18
48
1
60
0
100
AcDbLine
10
268.32476
20
-12.023766
30
0
11
268.32476
21
-11.418191
31
0
39
0
210
0
220
0
230
1
0
LINE
5
F8
100
AcDbEntity
8
1
62
256
6
ByLayer
370
13
48
1
60
0
100
AcDbLine
10
267.650481
20
-12.583086
30
0
11
267.650481
21
-12.404844
31
0
39
0
210
0
220
0
230
1
0
LINE
5
F9
100
AcDbEntity
8
1
62
256
6
ByLayer
370
13
48
1
60
0
100
AcDbLine
10
267.650481
20
22.404844
30
0
11
267.650481
21
22.583086
31
0
39
0
210
0
220
0
230
1
0
LINE
5
FA
100
AcDbEntity
8
1
62
256
6
ByLayer
370
18
48
1
60
0
100
AcDbLine
10
268.32476
20
-11.194014
30
0
11
268.32476
21
-10.447336
31
0
39
0
210
0
220
0
230
1
0
LINE
5
FB
100
AcDbEntity
8
1
62
256
6
ByLayer
370
18
48
1
60
0
100
AcDbLine
10
268.32476
20
20.447336
30
0
11
268.32476
21
21.194014
31
0
39
0
210
0
220
0
230
1
0
LINE
5
FC
100
AcDbEntity
8
1
62
256
6
ByLayer
370
13
48
1
60
0
100
AcDbLine
10
267.650481
20
-11.74618
30
0
11
267.650481
21
-11.527523
31
0
39
0
210
0
220
0
230
1
0
LINE
5
FD
100
AcDbEntity
8
1
62
256
6
ByLayer
370
13
48
1
60
0
100
AcDbLine
10
267.650481
20
21.527523
30
0
11
267.650481
21
21.74618
31
0
39
0
210
0
220
0
230
1
0
LINE
5
FE
100
AcDbEntity
8
1
62
256
6
ByLayer
370
18
48
1
60
0
100
AcDbLine
10
268.32476
20
19.254246
30
0
11
268.32476
21
20.171803
31
0
39
0
210
0
220
0
230
1
0
LINE
5
FF
100
AcDbEntity
8
1
62
256
6
ByLayer
370
18
48
1
60
0
100
AcDbLine
10
268.32476
20
-10.171803
30
0
11
268.32476
21
-9.254246
31
0
39
0
210
0
220
0
230
1
0
LINE
5
100
100
AcDbEntity
8
1
62
256
6
ByLayer
370
13
48
1
60
0
100
AcDbLine
10
267.650481
20
-10.722727
30
0
11
267.650481
21
-10.456027
31
0
39
0
210
0
220
0
230
1
0
LINE
5
101
100
AcDbEntity
8
1
62
256
6
ByLayer
370
13
48
1
60
0
100
AcDbLine
10
267.650481
20
20.456027
30
0
11
267.650481
21
20.722727
31
0
39
0
210
0
220
0
230
1
0
LINE
5
102
100
AcDbEntity
8
1
62
256
6
ByLayer
370
18
48
1
60
0
100
AcDbLine
10
268.32476
20
17.776776
30
0
11
268.32476
21
18.91478
31
0
39
0
210
0
220
0
230
1
0
LINE
5
103
100
AcDbEntity
8
1
62
256
6
ByLayer
370
18
48
1
60
0
100
AcDbLine
10
268.32476
20
-8.91478
30
0
11
268.32476
21
-7.776776
31
0
39
0
210
0
220
0
230
1
0
LINE
5
104
100
AcDbEntity
8
1
62
256
6
ByLayer
370
13
48
1
60
0
100
AcDbLine
10
267.650481
20
-9.473209
30
0
11
267.650481
21
-9.146205
31
0
39
0
210
0
220
0
230
1
0
LINE
5
105
100
AcDbEntity
8
1
62
256
6
ByLayer
370
13
48
1
60
0
100
AcDbLine
10
267.650481
20
19.146205
30
0
11
267.650481
21
19.473209
31
0
39
0
210
0
220
0
230
1
0
LINE
5
106
100
AcDbEntity
8
1
62
256
6
ByLayer
370
18
48
1
60
0
100
AcDbLine
10
268.32476
20
-7.351461
30
0
11
268.32476
21
-5.899779
31
0
39
0
210
0
220
0
230
1
0
LINE
5
107
100
AcDbEntity
8
1
62
256
6
ByLayer
370
18
48
1
60
0
100
AcDbLine
10
268.32476
20
15.899779
30
0
11
268.32476
21
17.351461
31
0
39
0
210
0
220
0
230
1
0
LINE
5
108
100
AcDbEntity
8
1
62
256
6
ByLayer
370
13
48
1
60
0
100
AcDbLine
10
267.650481
20
-7.932262
30
0
11
267.650481
21
-7.523683
31
0
39
0
210
0
220
0
230
1
0
LINE
5
109
100
AcDbEntity
8
1
62
256
6
ByLayer
370
13
48
1
60
0
100
AcDbLine
10
267.650481
20
17.523683
30
0
11
267.650481
21
17.932262
31
0
39
0
210
0
220
0
230
1
0
LINE
5
10A
100
AcDbEntity
8
1
62
256
6
ByLayer
370
18
48
1
60
0
100
AcDbLine
10
268.32476
20
-5.343892
30
0
11
268.32476
21
-3.358834
31
0
39
0
210
0
220
0
230
1
0
LINE
5
10B
100
AcDbEntity
8
1
62
256
6
ByLayer
370
18
48
1
60
0
100
AcDbLine
10
268.32476
20
13.358834
30
0
11
268.32476
21
15.343892
31
0
39
0
210
0
220
0
230
1
0
LINE
5
10C
100
AcDbEntity
8
1
62
256
6
ByLayer
370
13
48
1
60
0
100
AcDbLine
10
267.650481
20
-5.977842
30
0
11
267.650481
21
-5.444044
31
0
39
0
210
0
220
0
230
1
0
LINE
5
10D
100
AcDbEntity
8
1
62
256
6
ByLayer
370
13
48
1
60
0
100
AcDbLine
10
267.650481
20
15.444044
30
0
11
267.650481
21
15.977842
31
0
39
0
210
0
220
0
230
1
0
LINE
5
10E
100
AcDbEntity
8
1
62
256
6
ByLayer
370
18
48
1
60
0
100
AcDbLine
10
268.32476
20
-2.545435
30
0
11
268.32476
21
0.946215
31
0
39
0
210
0
220
0
230
1
0
LINE
5
10F
100
AcDbEntity
8
1
62
256
6
ByLayer
370
18
48
1
60
0
100
AcDbLine
10
268.32476
20
9.053785
30
0
11
268.32476
21
12.545435
31
0
39
0
210
0
220
0
230
1
0
LINE
5
110
100
AcDbEntity
8
1
62
256
6
ByLayer
370
13
48
1
60
0
100
AcDbLine
10
267.650481
20
-3.323618
30
0
11
267.650481
21
-2.537296
31
0
39
0
210
0
220
0
230
1
0
LINE
5
111
100
AcDbEntity
8
1
62
256
6
ByLayer
370
13
48
1
60
0
100
AcDbLine
10
267.650481
20
12.537296
30
0
11
267.650481
21
13.323618
31
0
39
0
210
0
220
0
230
1
0
LINE
5
112
100
AcDbEntity
8
1
62
256
6
ByLayer
370
18
48
1
60
0
100
AcDbLine
10
268.32476
20
3.460164
30
0
11
268.32476
21
6.539836
31
0
39
0
210
0
220
0
230
1
0
LINE
5
113
100
AcDbEntity
8
1
62
256
6
ByLayer
370
13
48
1
60
0
100
AcDbLine
10
267.650481
20
1.318664
30
0
11
267.650481
21
4.790509
31
0
39
0
210
0
220
0
230
1
0
LINE
5
114
100
AcDbEntity
8
1
62
256
6
ByLayer
370
13
48
1
60
0
100
AcDbLine
10
267.650481
20
5.209491
30
0
11
267.650481
21
8.681336
31
0
39
0
210
0
220
0
230
1
0
LINE
5
115
100
AcDbEntity
8
1
62
256
6
ByLayer
370
18
48
1
60
0
100
AcDbLine
10
268.32476
20
-13.976857
30
0
11
268.32476
21
-13.991672
31
0
39
0
210
0
220
0
230
1
0
LINE
5
116
100
AcDbEntity
8
1
62
256
6
ByLayer
370
18
48
1
60
0
100
AcDbLine
10
268.32476
20
-13.842999
30
0
11
268.32476
21
-13.887723
31
0
39
0
210
0
220
0
230
1
0
LINE
5
117
100
AcDbEntity
8
1
62
256
6
ByLayer
370
18
48
1
60
0
100
AcDbLine
10
268.32476
20
-13.587525
30
0
11
268.32476
21
-13.663027
31
0
39
0
210
0
220
0
230
1
0
LINE
5
118
100
AcDbEntity
8
1
62
256
6
ByLayer
370
18
48
1
60
0
100
AcDbLine
10
268.32476
20
-13.205318
30
0
11
268.32476
21
-13.31314
31
0
39
0
210
0
220
0
230
1
0
LINE
5
119
100
AcDbEntity
8
1
62
256
6
ByLayer
370
18
48
1
60
0
100
AcDbLine
10
268.32476
20
-12.688163
30
0
11
268.32476
21
-12.830692
31
0
39
0
210
0
220
0
230
1
0
LINE
5
11A
100
AcDbEntity
8
1
62
256
6
ByLayer
370
18
48
1
60
0
100
AcDbLine
10
268.32476
20
-12.023766
30
0
11
268.32476
21
-12.204537
31
0
39
0
210
0
220
0
230
1
0
LINE
5
11B
100
AcDbEntity
8
1
62
256
6
ByLayer
370
18
48
1
60
0
100
AcDbLine
10
268.32476
20
-11.194014
30
0
11
268.32476
21
-11.41824
31
0
39
0
210
0
220
0
230
1
0
LINE
5
11C
100
AcDbEntity
8
1
62
256
6
ByLayer
370
18
48
1
60
0
100
AcDbLine
10
268.32476
20
-10.171803
30
0
11
268.32476
21
-10.447365
31
0
39
0
210
0
220
0
230
1
0
LINE
5
11D
100
AcDbEntity
8
1
62
256
6
ByLayer
370
18
48
1
60
0
100
AcDbLine
10
268.32476
20
-8.91478
30
0
11
268.32476
21
-9.254248
31
0
39
0
210
0
220
0
230
1
0
LINE
5
11E
100
AcDbEntity
8
1
62
256
6
ByLayer
370
18
48
1
60
0
100
AcDbLine
10
268.32476
20
-7.351461
30
0
11
268.32476
21
-7.776779
31
0
39
0
210
0
220
0
230
1
0
LINE
5
11F
100
AcDbEntity
8
1
62
256
6
ByLayer
370
18
48
1
60
0
100
AcDbLine
10
268.32476
20
-5.343892
30
0
11
268.32476
21
-5.899935
31
0
39
0
210
0
220
0
230
1
0
LINE
5
120
100
AcDbEntity
8
1
62
256
6
ByLayer
370
18
48
1
60
0
100
AcDbLine
10
268.32476
20
-2.545435
30
0
11
268.32476
21
-3.358893
31
0
39
0
210
0
220
0
230
1
0
LINE
5
121
100
AcDbEntity
8
1
62
256
6
ByLayer
370
18
48
1
60
0
100
AcDbLine
10
268.32476
20
3.460164
30
0
11
268.32476
21
0.946163
31
0
39
0
210
0
220
0
230
1
0
LINE
5
122
100
AcDbEntity
8
1
62
256
6
ByLayer
370
18
48
1
60
0
100
AcDbLine
10
268.32476
20
9.053837
30
0
11
268.32476
21
6.539836
31
0
39
0
210
0
220
0
230
1
0
LINE
5
123
100
AcDbEntity
8
1
62
256
6
ByLayer
370
18
48
1
60
0
100
AcDbLine
10
268.32476
20
13.358893
30
0
11
268.32476
21
12.545435
31
0
39
0
210
0
220
0
230
1
0
LINE
5
124
100
AcDbEntity
8
1
62
256
6
ByLayer
370
18
48
1
60
0
100
AcDbLine
10
268.32476
20
15.899935
30
0
11
268.32476
21
15.343892
31
0
39
0
210
0
220
0
230
1
0
LINE
5
125
100
AcDbEntity
8
1
62
256
6
ByLayer
370
18
48
1
60
0
100
AcDbLine
10
268.32476
20
17.776779
30
0
11
268.32476
21
17.351461
31
0
39
0
210
0
220
0
230
1
0
LINE
5
126
100
AcDbEntity
8
1
62
256
6
ByLayer
370
18
48
1
60
0
100
AcDbLine
10
268.32476
20
19.254248
30
0
11
268.32476
21
18.91478
31
0
39
0
210
0
220
0
230
1
0
LINE
5
127
100
AcDbEntity
8
1
62
256
6
ByLayer
370
18
48
1
60
0
100
AcDbLine
10
268.32476
20
20.447365
30
0
11
268.32476
21
20.171803
31
0
39
0
210
0
220
0
230
1
0
LINE
5
128
100
AcDbEntity
8
1
62
256
6
ByLayer
370
18
48
1
60
0
100
AcDbLine
10
268.32476
20
21.41824
30
0
11
268.32476
21
21.194014
31
0
39
0
210
0
220
0
230
1
0
LINE
5
129
100
AcDbEntity
8
1
62
256
6
ByLayer
370
18
48
1
60
0
100
AcDbLine
10
268.32476
20
22.204537
30
0
11
268.32476
21
22.023766
31
0
39
0
210
0
220
0
230
1
0
LINE
5
12A
100
AcDbEntity
8
1
62
256
6
ByLayer
370
18
48
1
60
0
100
AcDbLine
10
268.32476
20
22.830692
30
0
11
268.32476
21
22.688163
31
0
39
0
210
0
220
0
230
1
0
LINE
5
12B
100
AcDbEntity
8
1
62
256
6
ByLayer
370
18
48
1
60
0
100
AcDbLine
10
268.32476
20
23.31314
30
0
11
268.32476
21
23.205318
31
0
39
0
210
0
220
0
230
1
0
LINE
5
12C
100
AcDbEntity
8
1
62
256
6
ByLayer
370
18
48
1
60
0
100
AcDbLine
10
268.32476
20
23.663027
30
0
11
268.32476
21
23.587525
31
0
39
0
210
0
220
0
230
1
0
LINE
5
12D
100
AcDbEntity
8
1
62
256
6
ByLayer
370
18
48
1
60
0
100
AcDbLine
10
268.32476
20
23.887723
30
0
11
268.32476
21
23.842999
31
0
39
0
210
0
220
0
230
1
0
LINE
5
12E
100
AcDbEntity
8
1
62
256
6
ByLayer
370
18
48
1
60
0
100
AcDbLine
10
268.32476
20
23.991672
30
0
11
268.32476
21
23.976857
31
0
39
0
210
0
220
0
230
1
0
LINE
5
12F
100
AcDbEntity
8
1
62
256
6
ByLayer
370
18
48
1
60
0
100
AcDbLine
10
267.32476
20
-15
30
0
11
267.32476
21
25
31
0
39
0
210
0
220
0
230
1
0
LINE
5
130
100
AcDbEntity
8
1
62
256
6
ByLayer
370
13
48
1
60
0
100
AcDbLine
10
266.5
20
-15
30
0
11
266.5
21
22.536585
31
0
39
0
210
0
220
0
230
1
0
LINE
5
131
100
AcDbEntity
8
1
62
256
6
ByLayer
370
18
48
1
60
0
100
AcDbLine
10
264
20
24.8
30
0
11
264
21
-24.8
31
0
39
0
210
0
220
0
230
1
0
LINE
5
132
100
AcDbEntity
8
1
62
256
6
ByLayer
370
13
48
1
60
0
100
AcDbLine
10
264.2
20
25
30
0
11
264.2
21
-25
31
0
39
0
210
0
220
0
230
1
0
LINE
5
133
100
AcDbEntity
8
1
62
256
6
ByLayer
370
18
48
1
60
0
100
AcDbLine
10
266
20
-24.5
30
0
11
266
21
20.5
31
0
39
0
210
0
220
0
230
1
0
LINE
5
134
100
AcDbEntity
8
1
62
256
6
ByLayer
370
18
48
1
60
0
100
AcDbLine
10
265.5
20
-25
30
0
11
265.5
21
20.918367
31
0
39
0
210
0
220
0
230
1
0
LINE
5
135
100
AcDbEntity
8
1
62
256
6
ByLayer
370
13
48
1
60
0
100
AcDbLine
10
272.8
20
17.899495
30
0
11
272.8
21
11.899495
31
0
39
0
210
0
220
0
230
1
0
LINE
5
136
100
AcDbEntity
8
1
62
256
6
ByLayer
370
18
48
1
60
0
100
AcDbLine
10
273
20
19.899495
30
0
11
273
21
9.899495
31
0
39
0
210
0
220
0
230
1
0
LINE
5
137
100
AcDbEntity
8
1
62
256
6
ByLayer
370
13
48
1
60
0
100
AcDbLine
10
278.4
20
19.899495
30
0
11
278.4
21
9.899495
31
0
39
0
210
0
220
0
230
1
0
LINE
5
138
100
AcDbEntity
8
1
62
256
6
ByLayer
370
18
48
1
60
0
100
AcDbLine
10
279
20
19.299495
30
0
11
279
21
10.499495
31
0
39
0
210
0
220
0
230
1
0
LINE
5
139
100
AcDbEntity
8
1
62
256
6
ByLayer
370
13
48
1
60
0
100
AcDbLine
10
272.8
20
-1.899495
30
0
11
272.8
21
-4.899495
31
0
39
0
210
0
220
0
230
1
0
LINE
5
13A
100
AcDbEntity
8
1
62
256
6
ByLayer
370
13
48
1
60
0
100
AcDbLine
10
272.8
20
-4.899495
30
0
11
272.8
21
-7.899495
31
0
39
0
210
0
220
0
230
1
0
LINE
5
13B
100
AcDbEntity
8
1
62
256
6
ByLayer
370
18
48
1
60
0
100
AcDbLine
10
273
20
-9.899495
30
0
11
273
21
-4.899495
31
0
39
0
210
0
220
0
230
1
0
LINE
5
13C
100
AcDbEntity
8
1
62
256
6
ByLayer
370
18
48
1
60
0
100
AcDbLine
10
273
20
-4.899495
30
0
11
273
21
0.100505
31
0
39
0
210
0
220
0
230
1
0
LINE
5
13D
100
AcDbEntity
8
1
62
256
6
ByLayer
370
13
48
1
60
0
100
AcDbLine
10
278.4
20
0.100505
30
0
11
278.4
21
-4.899495
31
0
39
0
210
0
220
0
230
1
0
LINE
5
13E
100
AcDbEntity
8
1
62
256
6
ByLayer
370
13
48
1
60
0
100
AcDbLine
10
278.4
20
-4.899495
30
0
11
278.4
21
-9.899495
31
0
39
0
210
0
220
0
230
1
0
LINE
5
13F
100
AcDbEntity
8
1
62
256
6
ByLayer
370
18
48
1
60
0
100
AcDbLine
10
279
20
-9.299495
30
0
11
279
21
-4.899495
31
0
39
0
210
0
220
0
230
1
0
LINE
5
140
100
AcDbEntity
8
1
62
256
6
ByLayer
370
18
48
1
60
0
100
AcDbLine
10
279
20
-4.899495
30
0
11
279
21
-0.499495
31
0
39
0
210
0
220
0
230
1
0
LINE
5
141
100
AcDbEntity
8
1
62
256
6
ByLayer
370
18
48
1
60
0
100
AcDbLine
10
263.8
20
25
30
0
11
29
21
25
31
0
39
0
210
0
220
0
230
1
0
LINE
5
142
100
AcDbEntity
8
1
62
256
6
ByLayer
370
18
48
1
60
0
100
AcDbLine
10
29
20
-25
30
0
11
263.8
21
-25
31
0
39
0
210
0
220
0
230
1
0
LINE
5
143
100
AcDbEntity
8
1
62
256
6
ByLayer
370
18
48
1
60
0
100
AcDbLine
10
0
20
-30.97
30
0
11
0.5
21
-31.47
31
0
39
0
210
0
220
0
230
1
0
LINE
5
144
100
AcDbEntity
8
1
62
256
6
ByLayer
370
18
48
1
60
0
100
AcDbLine
10
0.5
20
31.47
30
0
11
0
21
30.97
31
0
39
0
210
0
220
0
230
1
0
LINE
5
145
100
AcDbEntity
8
1
62
256
6
ByLayer
370
18
48
1
60
0
100
AcDbLine
10
4.948964
20
31.47
30
0
11
4.948569
21
31.47
31
0
39
0
210
0
220
0
230
1
0
LINE
5
146
100
AcDbEntity
8
1
62
256
6
ByLayer
370
18
48
1
60
0
100
AcDbLine
10
4.948569
20
31.47
30
0
11
0.5
21
31.47
31
0
39
0
210
0
220
0
230
1
0
LINE
5
147
100
AcDbEntity
8
1
62
256
6
ByLayer
370
18
48
1
60
0
100
AcDbLine
10
0.5
20
-31.47
30
0
11
4.95
21
-31.47
31
0
39
0
210
0
220
0
230
1
0
LINE
5
148
100
AcDbEntity
8
SK1
62
256
6
ByLayer
370
18
48
1
60
0
100
AcDbLine
10
-27.2
20
20.845
30
0
11
-30.75
21
20.845
31
0
39
0
210
0
220
0
230
1
0
LINE
5
149
100
AcDbEntity
8
SK1
62
256
6
ByLayer
370
18
48
1
60
0
100
AcDbLine
10
-31.898858
20
-19.647392
30
0
11
-30.70125
21
-20.845
31
0
39
0
210
0
220
0
230
1
0
LINE
5
14A
100
AcDbEntity
8
SK1
62
256
6
ByLayer
370
18
48
1
60
0
100
AcDbLine
10
-30.75
20
20.845
30
0
11
-31.892671
21
19.702329
31
0
39
0
210
0
220
0
230
1
0
LINE
5
14B
100
AcDbEntity
8
SK1
62
256
6
ByLayer
370
18
48
1
60
0
100
AcDbLine
10
-30.70125
20
-20.845
30
0
11
-23.2
21
-20.845
31
0
39
0
210
0
220
0
230
1
0
LINE
5
14C
100
AcDbEntity
8
SK1
62
256
6
ByLayer
370
18
48
1
60
0
100
AcDbLine
10
-0.45
20
23.970431
30
0
11
-1.566987
21
23.970431
31
0
39
0
210
0
220
0
230
1
0
LINE
5
14D
100
AcDbEntity
8
SK1
62
256
6
ByLayer
370
18
48
1
60
0
100
AcDbLine
10
-1.566987
20
-23.970431
30
0
11
-0.45
21
-23.970431
31
0
39
0
210
0
220
0
230
1
0
LINE
5
14E
100
AcDbEntity
8
SK1
62
256
6
ByLayer
370
18
48
1
60
0
100
AcDbLine
10
-21.8
20
-23.228447
30
0
11
-13.239771
21
-23.657316
31
0
39
0
210
0
220
0
230
1
0
LINE
5
14F
100
AcDbEntity
8
SK1
62
256
6
ByLayer
370
18
48
1
60
0
100
AcDbLine
10
-4.314641
20
-24.104467
30
0
11
-2
21
-24.220431
31
0
39
0
210
0
220
0
230
1
0
LINE
5
150
100
AcDbEntity
8
SK1
62
256
6
ByLayer
370
18
48
1
60
0
100
AcDbLine
10
-2
20
24.220431
30
0
11
-4.314784
21
24.10446
31
0
39
0
210
0
220
0
230
1
0
LINE
5
151
100
AcDbEntity
8
SK1
62
256
6
ByLayer
370
18
48
1
60
0
100
AcDbLine
10
-13.237585
20
23.657426
30
0
11
-25.8
21
23.028046
31
0
39
0
210
0
220
0
230
1
0
LINE
5
152
100
AcDbEntity
8
SK1
62
256
6
ByLayer
370
18
48
1
60
0
100
AcDbLine
10
-1.566987
20
23.970431
30
0
11
-2
21
24.220431
31
0
39
0
210
0
220
0
230
1
0
LINE
5
153
100
AcDbEntity
8
SK1
62
256
6
ByLayer
370
18
48
1
60
0
100
AcDbLine
10
-2
20
-24.220431
30
0
11
-1.566987
21
-23.970431
31
0
39
0
210
0
220
0
230
1
0
LINE
5
154
100
AcDbEntity
8
1
62
256
6
ByLayer
370
18
48
1
60
0
100
AcDbLine
10
267.552123
20
24.772637
30
0
11
267.32476
21
25
31
0
39
0
210
0
220
0
230
1
0
LINE
5
155
100
AcDbEntity
8
1
62
256
6
ByLayer
370
18
48
1
60
0
100
AcDbLine
10
267.32476
20
-15
30
0
11
267.552123
21
-14.772637
31
0
39
0
210
0
220
0
230
1
0
LINE
5
156
100
AcDbEntity
8
1
62
256
6
ByLayer
370
18
48
1
60
0
100
AcDbLine
10
266.5
20
-15
30
0
11
267.32476
21
-15
31
0
39
0
210
0
220
0
230
1
0
LINE
5
157
100
AcDbEntity
8
1
62
256
6
ByLayer
370
18
48
1
60
0
100
AcDbLine
10
267.32476
20
25
30
0
11
266
21
25
31
0
39
0
210
0
220
0
230
1
0
LINE
5
158
100
AcDbEntity
8
1
62
256
6
ByLayer
370
18
48
1
60
0
100
AcDbLine
10
266.02
20
25
30
0
11
264.2
21
25
31
0
39
0
210
0
220
0
230
1
0
LINE
5
159
100
AcDbEntity
8
1
62
256
6
ByLayer
370
18
48
1
60
0
100
AcDbLine
10
264.2
20
-25
30
0
11
265.5
21
-25
31
0
39
0
210
0
220
0
230
1
0
LINE
5
15A
100
AcDbEntity
8
1
62
256
6
ByLayer
370
18
48
1
60
0
100
AcDbLine
10
265.5
20
-25
30
0
11
266
21
-24.5
31
0
39
0
210
0
220
0
230
1
0
LINE
5
15B
100
AcDbEntity
8
1
62
256
6
ByLayer
370
18
48
1
60
0
100
AcDbLine
10
268.324609
20
11.899495
30
0
11
272.8
21
11.899495
31
0
39
0
210
0
220
0
230
1
0
LINE
5
15C
100
AcDbEntity
8
1
62
256
6
ByLayer
370
18
48
1
60
0
100
AcDbLine
10
272.8
20
17.899495
30
0
11
268.324609
21
17.899495
31
0
39
0
210
0
220
0
230
1
0
LINE
5
15D
100
AcDbEntity
8
1
62
256
6
ByLayer
370
18
48
1
60
0
100
AcDbLine
10
273
20
9.899495
30
0
11
278.4
21
9.899495
31
0
39
0
210
0
220
0
230
1
0
LINE
5
15E
100
AcDbEntity
8
1
62
256
6
ByLayer
370
18
48
1
60
0
100
AcDbLine
10
278.4
20
19.899495
30
0
11
273
21
19.899495
31
0
39
0
210
0
220
0
230
1
0
LINE
5
15F
100
AcDbEntity
8
1
62
256
6
ByLayer
370
18
48
1
60
0
100
AcDbLine
10
268.324609
20
-7.899495
30
0
11
272.8
21
-7.899495
31
0
39
0
210
0
220
0
230
1
0
LINE
5
160
100
AcDbEntity
8
1
62
256
6
ByLayer
370
18
48
1
60
0
100
AcDbLine
10
272.8
20
-1.899495
30
0
11
268.324609
21
-1.899495
31
0
39
0
210
0
220
0
230
1
0
LINE
5
161
100
AcDbEntity
8
1
62
256
6
ByLayer
370
18
48
1
60
0
100
AcDbLine
10
273
20
-9.899495
30
0
11
278.4
21
-9.899495
31
0
39
0
210
0
220
0
230
1
0
LINE
5
162
100
AcDbEntity
8
1
62
256
6
ByLayer
370
18
48
1
60
0
100
AcDbLine
10
278.4
20
0.100505
30
0
11
273
21
0.100505
31
0
39
0
210
0
220
0
230
1
0
LINE
5
163
100
AcDbEntity
8
1
62
256
6
ByLayer
370
13
48
0.05
60
0
100
AcDbLine
10
270.3
20
0
30
0
11
-37.260045
21
0
31
0
39
0
210
0
220
0
230
1
0
LINE
5
164
100
AcDbEntity
8
SK2
62
256
6
ByLayer
370
18
48
1
60
0
100
AcDbLine
10
-38.5
20
-31.47
30
0
11
-38.5
21
31.47
31
0
39
0
210
0
220
0
230
1
0
LINE
5
166
100
AcDbEntity
8
SK2
62
256
6
ByLayer
370
18
48
1
60
0
100
AcDbLine
10
-1.0875
20
31.47
30
0
11
-40.5
21
31.47
31
0
39
0
210
0
220
0
230
1
0
LINE
5
167
100
AcDbEntity
8
SK2
62
256
6
ByLayer
370
18
48
1
60
0
100
AcDbLine
10
-1.0875
20
-31.47
30
0
11
-40.5
21
-31.47
31
0
39
0
210
0
220
0
230
1
0
LINE
5
168
100
AcDbEntity
8
1
62
256
6
ByLayer
370
18
48
1
60
1
100
AcDbLine
10
-38.5
20
31.47
30
0
11
-38.039216
21
27.970002
31
0
39
0
210
0
220
0
230
1
0
LINE
5
169
100
AcDbEntity
8
1
62
256
6
ByLayer
370
18
48
1
60
1
100
AcDbLine
10
-38.039216
20
27.970002
30
0
11
-38.960784
21
27.969998
31
0
39
0
210
0
220
0
230
1
0
LINE
5
16A
100
AcDbEntity
8
1
62
256
6
ByLayer
370
18
48
1
60
1
100
AcDbLine
10
-38.960784
20
27.969998
30
0
11
-38.5
21
31.47
31
0
39
0
210
0
220
0
230
1
0
LINE
5
16B
100
AcDbEntity
8
1
62
256
6
ByLayer
370
18
48
1
60
1
100
AcDbLine
10
-38.5
20
-31.47
30
0
11
-38.960784
21
-27.970002
31
0
39
0
210
0
220
0
230
1
0
LINE
5
16C
100
AcDbEntity
8
1
62
256
6
ByLayer
370
18
48
1
60
1
100
AcDbLine
10
-38.960784
20
-27.970002
30
0
11
-38.039216
21
-27.969998
31
0
39
0
210
0
220
0
230
1
0
LINE
5
16D
100
AcDbEntity
8
1
62
256
6
ByLayer
370
18
48
1
60
1
100
AcDbLine
10
-38.039216
20
-27.969998
30
0
11
-38.5
21
-31.47
31
0
39
0
210
0
220
0
230
1
0
LINE
5
16E
100
AcDbEntity
8
SK2
62
256
6
ByLayer
370
18
48
1
60
0
100
AcDbLine
10
299.748181
20
-25
30
0
11
299.748181
21
25
31
0
39
0
210
0
220
0
230
1
0
LINE
5
16F
100
AcDbEntity
8
SK2
62
256
6
ByLayer
370
18
48
1
60
0
100
AcDbLine
10
265.3875
20
25
30
0
11
301.748181
21
25
31
0
39
0
210
0
220
0
230
1
0
LINE
5
170
100
AcDbEntity
8
SK2
62
256
6
ByLayer
370
18
48
1
60
0
100
AcDbLine
10
265.3875
20
-25
30
0
11
301.748181
21
-25
31
0
39
0
210
0
220
0
230
1
0
LINE
5
171
100
AcDbEntity
8
1
62
256
6
ByLayer
370
18
48
1
60
1
100
AcDbLine
10
299.748181
20
25
30
0
11
300.208964
21
21.500002
31
0
39
0
210
0
220
0
230
1
0
LINE
5
172
100
AcDbEntity
8
1
62
256
6
ByLayer
370
18
48
1
60
1
100
AcDbLine
10
300.208964
20
21.500002
30
0
11
299.287397
21
21.499998
31
0
39
0
210
0
220
0
230
1
0
LINE
5
173
100
AcDbEntity
8
1
62
256
6
ByLayer
370
18
48
1
60
1
100
AcDbLine
10
299.287397
20
21.499998
30
0
11
299.748181
21
25
31
0
39
0
210
0
220
0
230
1
0
LINE
5
174
100
AcDbEntity
8
1
62
256
6
ByLayer
370
18
48
1
60
1
100
AcDbLine
10
299.748181
20
-25
30
0
11
299.287397
21
-21.500002
31
0
39
0
210
0
220
0
230
1
0
LINE
5
175
100
AcDbEntity
8
1
62
256
6
ByLayer
370
18
48
1
60
1
100
AcDbLine
10
299.287397
20
-21.500002
30
0
11
300.208964
21
-21.499998
31
0
39
0
210
0
220
0
230
1
0
LINE
5
176
100
AcDbEntity
8
1
62
256
6
ByLayer
370
18
48
1
60
1
100
AcDbLine
10
300.208964
20
-21.499998
30
0
11
299.748181
21
-25
31
0
39
0
210
0
220
0
230
1
0
LINE
5
177
100
AcDbEntity
8
SK2
62
256
6
ByLayer
370
13
48
1
60
0
100
AcDbLine
10
288.123181
20
25
30
0
11
288.123181
21
-15
31
0
39
0
210
0
220
0
230
1
0
LINE
5
178
100
AcDbEntity
8
SK2
62
256
6
ByLayer
370
13
48
1
60
0
100
AcDbLine
10
268.91226
20
-15
30
0
11
290.123181
21
-15
31
0
39
0
210
0
220
0
230
1
0
LINE
5
179
100
AcDbEntity
8
SK2
62
256
6
ByLayer
370
13
48
1
60
0
100
AcDbLine
10
268.91226
20
25
30
0
11
290.123181
21
25
31
0
39
0
210
0
220
0
230
1
0
LINE
5
17A
100
AcDbEntity
8
1
62
256
6
ByLayer
370
18
48
1
60
1
100
AcDbLine
10
288.123181
20
-15
30
0
11
287.662397
21
-11.500002
31
0
39
0
210
0
220
0
230
1
0
LINE
5
17B
100
AcDbEntity
8
1
62
256
6
ByLayer
370
18
48
1
60
1
100
AcDbLine
10
287.662397
20
-11.500002
30
0
11
288.583964
21
-11.499998
31
0
39
0
210
0
220
0
230
1
0
LINE
5
17C
100
AcDbEntity
8
1
62
256
6
ByLayer
370
18
48
1
60
1
100
AcDbLine
10
288.583964
20
-11.499998
30
0
11
288.123181
21
-15
31
0
39
0
210
0
220
0
230
1
0
LINE
5
17D
100
AcDbEntity
8
1
62
256
6
ByLayer
370
18
48
1
60
1
100
AcDbLine
10
288.123181
20
25
30
0
11
288.583964
21
21.500002
31
0
39
0
210
0
220
0
230
1
0
LINE
5
17E
100
AcDbEntity
8
1
62
256
6
ByLayer
370
18
48
1
60
1
100
AcDbLine
10
288.583964
20
21.500002
30
0
11
287.662397
21
21.499998
31
0
39
0
210
0
220
0
230
1
0
LINE
5
17F
100
AcDbEntity
8
1
62
256
6
ByLayer
370
18
48
1
60
1
100
AcDbLine
10
287.662397
20
21.499998
30
0
11
288.123181
21
25
31
0
39
0
210
0
220
0
230
1
0
LINE
5
180
100
AcDbEntity
8
SK2
62
256
6
ByLayer
370
18
48
1
60
0
100
AcDbLine
10
0
20
37.07
30
0
11
268
21
37.07
31
0
39
0
210
0
220
0
230
1
0
LINE
5
181
100
AcDbEntity
8
SK2
62
256
6
ByLayer
370
18
48
1
60
0
100
AcDbLine
10
268
20
26.5875
30
0
11
268
21
39.07
31
0
39
0
210
0
220
0
230
1
0
LINE
5
182
100
AcDbEntity
8
SK2
62
256
6
ByLayer
370
18
48
1
60
0
100
AcDbLine
10
0
20
32.5575
30
0
11
0
21
39.07
31
0
39
0
210
0
220
0
230
1
0
LINE
5
183
100
AcDbEntity
8
1
62
256
6
ByLayer
370
18
48
1
60
1
100
AcDbLine
10
268
20
37.07
30
0
11
264.500002
21
36.609216
31
0
39
0
210
0
220
0
230
1
0
LINE
5
184
100
AcDbEntity
8
1
62
256
6
ByLayer
370
18
48
1
60
1
100
AcDbLine
10
264.500002
20
36.609216
30
0
11
264.499998
21
37.530784
31
0
39
0
210
0
220
0
230
1
0
LINE
5
185
100
AcDbEntity
8
1
62
256
6
ByLayer
370
18
48
1
60
1
100
AcDbLine
10
264.499998
20
37.530784
30
0
11
268
21
37.07
31
0
39
0
210
0
220
0
230
1
0
LINE
5
186
100
AcDbEntity
8
1
62
256
6
ByLayer
370
18
48
1
60
1
100
AcDbLine
10
0
20
37.07
30
0
11
3.499998
21
37.530784
31
0
39
0
210
0
220
0
230
1
0
LINE
5
187
100
AcDbEntity
8
1
62
256
6
ByLayer
370
18
48
1
60
1
100
AcDbLine
10
3.499998
20
37.530784
30
0
11
3.500002
21
36.609216
31
0
39
0
210
0
220
0
230
1
0
LINE
5
188
100
AcDbEntity
8
1
62
256
6
ByLayer
370
18
48
1
60
1
100
AcDbLine
10
3.500002
20
36.609216
30
0
11
0
21
37.07
31
0
39
0
210
0
220
0
230
1
0
LINE
5
219
100
AcDbEntity
8
1
62
256
6
ByLayer
370
13
48
0.05
60
0
100
AcDbLine
10
255.05
20
-4.899495
30
0
11
279.3
21
-4.899495
31
0
39
0
210
0
220
0
230
1
0
LINE
5
21A
100
AcDbEntity
8
1
62
256
6
ByLayer
370
13
48
0.05
60
0
100
AcDbLine
10
272.52
20
0
30
0
11
257.7
21
0
31
0
39
0
210
0
220
0
230
1
0
LINE
5
21B
100
AcDbEntity
8
1
62
256
6
ByLayer
370
13
48
0.05
60
0
100
AcDbLine
10
259.330172
20
5
30
0
11
274.82476
21
5
31
0
39
0
210
0
220
0
230
1
0
LINE
5
21C
100
AcDbEntity
8
1
62
256
6
ByLayer
370
13
48
0.05
60
0
100
AcDbLine
10
255.05
20
14.899495
30
0
11
279.3
21
14.899495
31
0
39
0
210
0
220
0
230
1
0
LINE
5
221
100
AcDbEntity
8
1
62
256
6
ByLayer
370
18
48
1
60
1
100
AcDbLine
10
-38.5
20
31.47
30
0
11
-38.039216
21
27.970002
31
0
39
0
210
0
220
0
230
1
0
LINE
5
222
100
AcDbEntity
8
1
62
256
6
ByLayer
370
18
48
1
60
1
100
AcDbLine
10
-38.039216
20
27.970002
30
0
11
-38.960784
21
27.969998
31
0
39
0
210
0
220
0
230
1
0
LINE
5
223
100
AcDbEntity
8
1
62
256
6
ByLayer
370
18
48
1
60
1
100
AcDbLine
10
-38.960784
20
27.969998
30
0
11
-38.5
21
31.47
31
0
39
0
210
0
220
0
230
1
0
LINE
5
225
100
AcDbEntity
8
1
62
256
6
ByLayer
370
18
48
1
60
1
100
AcDbLine
10
-38.5
20
-31.47
30
0
11
-38.960784
21
-27.970002
31
0
39
0
210
0
220
0
230
1
0
LINE
5
226
100
AcDbEntity
8
1
62
256
6
ByLayer
370
18
48
1
60
1
100
AcDbLine
10
-38.960784
20
-27.970002
30
0
11
-38.039216
21
-27.969998
31
0
39
0
210
0
220
0
230
1
0
LINE
5
227
100
AcDbEntity
8
1
62
256
6
ByLayer
370
18
48
1
60
1
100
AcDbLine
10
-38.039216
20
-27.969998
30
0
11
-38.5
21
-31.47
31
0
39
0
210
0
220
0
230
1
0
LINE
5
22B
100
AcDbEntity
8
1
62
256
6
ByLayer
370
18
48
1
60
1
100
AcDbLine
10
299.748181
20
25
30
0
11
300.208964
21
21.500002
31
0
39
0
210
0
220
0
230
1
0
LINE
5
22C
100
AcDbEntity
8
1
62
256
6
ByLayer
370
18
48
1
60
1
100
AcDbLine
10
300.208964
20
21.500002
30
0
11
299.287397
21
21.499998
31
0
39
0
210
0
220
0
230
1
0
LINE
5
22D
100
AcDbEntity
8
1
62
256
6
ByLayer
370
18
48
1
60
1
100
AcDbLine
10
299.287397
20
21.499998
30
0
11
299.748181
21
25
31
0
39
0
210
0
220
0
230
1
0
LINE
5
22F
100
AcDbEntity
8
1
62
256
6
ByLayer
370
18
48
1
60
1
100
AcDbLine
10
299.748181
20
-25
30
0
11
299.287397
21
-21.500002
31
0
39
0
210
0
220
0
230
1
0
LINE
5
230
100
AcDbEntity
8
1
62
256
6
ByLayer
370
18
48
1
60
1
100
AcDbLine
10
299.287397
20
-21.500002
30
0
11
300.208964
21
-21.499998
31
0
39
0
210
0
220
0
230
1
0
LINE
5
231
100
AcDbEntity
8
1
62
256
6
ByLayer
370
18
48
1
60
1
100
AcDbLine
10
300.208964
20
-21.499998
30
0
11
299.748181
21
-25
31
0
39
0
210
0
220
0
230
1
0
LINE
5
237
100
AcDbEntity
8
1
62
256
6
ByLayer
370
18
48
1
60
1
100
AcDbLine
10
288.123181
20
-15
30
0
11
287.662397
21
-11.500002
31
0
39
0
210
0
220
0
230
1
0
LINE
5
238
100
AcDbEntity
8
1
62
256
6
ByLayer
370
18
48
1
60
1
100
AcDbLine
10
287.662397
20
-11.500002
30
0
11
288.583964
21
-11.499998
31
0
39
0
210
0
220
0
230
1
0
LINE
5
239
100
AcDbEntity
8
1
62
256
6
ByLayer
370
18
48
1
60
1
100
AcDbLine
10
288.583964
20
-11.499998
30
0
11
288.123181
21
-15
31
0
39
0
210
0
220
0
230
1
0
LINE
5
23B
100
AcDbEntity
8
1
62
256
6
ByLayer
370
18
48
1
60
1
100
AcDbLine
10
288.123181
20
25
30
0
11
288.583964
21
21.500002
31
0
39
0
210
0
220
0
230
1
0
LINE
5
23C
100
AcDbEntity
8
1
62
256
6
ByLayer
370
18
48
1
60
1
100
AcDbLine
10
288.583964
20
21.500002
30
0
11
287.662397
21
21.499998
31
0
39
0
210
0
220
0
230
1
0
LINE
5
23D
100
AcDbEntity
8
1
62
256
6
ByLayer
370
18
48
1
60
1
100
AcDbLine
10
287.662397
20
21.499998
30
0
11
288.123181
21
25
31
0
39
0
210
0
220
0
230
1
0
LINE
5
240
100
AcDbEntity
8
1
62
256
6
ByLayer
370
18
48
1
60
1
100
AcDbLine
10
268
20
37.07
30
0
11
264.500002
21
36.609216
31
0
39
0
210
0
220
0
230
1
0
LINE
5
241
100
AcDbEntity
8
1
62
256
6
ByLayer
370
18
48
1
60
1
100
AcDbLine
10
264.500002
20
36.609216
30
0
11
264.499998
21
37.530784
31
0
39
0
210
0
220
0
230
1
0
LINE
5
242
100
AcDbEntity
8
1
62
256
6
ByLayer
370
18
48
1
60
1
100
AcDbLine
10
264.499998
20
37.530784
30
0
11
268
21
37.07
31
0
39
0
210
0
220
0
230
1
0
LINE
5
244
100
AcDbEntity
8
1
62
256
6
ByLayer
370
18
48
1
60
1
100
AcDbLine
10
0
20
37.07
30
0
11
3.499998
21
37.530784
31
0
39
0
210
0
220
0
230
1
0
LINE
5
245
100
AcDbEntity
8
1
62
256
6
ByLayer
370
18
48
1
60
1
100
AcDbLine
10
3.499998
20
37.530784
30
0
11
3.500002
21
36.609216
31
0
39
0
210
0
220
0
230
1
0
LINE
5
246
100
AcDbEntity
8
1
62
256
6
ByLayer
370
18
48
1
60
1
100
AcDbLine
10
3.500002
20
36.609216
30
0
11
0
21
37.07
31
0
39
0
210
0
220
0
230
1
0
MTEXT
5
21D
100
AcDbEntity
8
SK2
62
256
6
ByLayer
370
18
48
1
60
0
100
AcDbMText
10
-40.064634
20
-8.039355
30
0
210
0
220
0
230
1
1
%%c
40
3.5
41
0
44
1.084337
50
90
71
7
72
5
7
iso_b_vert
0
MTEXT
5
220
100
AcDbEntity
8
SK2
62
256
6
ByLayer
370
18
48
1
60
0
100
AcDbMText
10
-40.064634
20
-1.066699
30
0
210
0
220
0
230
1
1
\W0.7607;62.94
40
3.5
41
0
44
1.084337
50
90
71
7
72
5
7
iso_b_vert
0
MTEXT
5
229
100
AcDbEntity
8
SK2
62
256
6
ByLayer
370
18
48
1
60
0
100
AcDbMText
10
298.183547
20
-4.530622
30
0
210
0
220
0
230
1
1
%%c
40
3.5
41
0
44
1.084337
50
90
71
7
72
5
7
iso_b_vert
0
MTEXT
5
22A
100
AcDbEntity
8
SK2
62
256
6
ByLayer
370
18
48
1
60
0
100
AcDbMText
10
298.183547
20
2.442034
30
0
210
0
220
0
230
1
1
\W0.6740;50
40
3.5
41
0
44
1.084337
50
90
71
7
72
5
7
iso_b_vert
0
MTEXT
5
233
100
AcDbEntity
8
SK2
62
256
6
ByLayer
370
18
48
1
60
0
100
AcDbMText
10
285.902297
20
11.807233
30
0
210
0
220
0
230
1
1
\W1.1313;{\H1.88x;)}
40
3.5
41
0
44
1.084337
50
90
71
7
72
5
7
iso_b_vert
0
MTEXT
5
234
100
AcDbEntity
8
SK2
62
256
6
ByLayer
370
18
48
1
60
0
100
AcDbMText
10
285.902297
20
-3.942233
30
0
210
0
220
0
230
1
1
\W1.1313;{\H1.88x;(}
40
3.5
41
0
44
1.084337
50
90
71
7
72
5
7
iso_b_vert
0
MTEXT
5
235
100
AcDbEntity
8
SK2
62
256
6
ByLayer
370
18
48
1
60
0
100
AcDbMText
10
285.902297
20
0.285111
30
0
210
0
220
0
230
1
1
%%c
40
3.5
41
0
44
1.084337
50
90
71
7
72
5
7
iso_b_vert
0
MTEXT
5
236
100
AcDbEntity
8
SK2
62
256
6
ByLayer
370
18
48
1
60
0
100
AcDbMText
10
285.902297
20
7.257767
30
0
210
0
220
0
230
1
1
\W0.7361;40
40
3.5
41
0
44
1.084337
50
90
71
7
72
5
7
iso_b_vert
0
MTEXT
5
23F
100
AcDbEntity
8
SK2
62
256
6
ByLayer
370
18
48
1
60
0
100
AcDbMText
10
130.787301
20
38.102634
30
0
210
0
220
0
230
1
1
\W0.7138;268
40
3.5
41
0
44
1.084337
50
0
71
7
72
5
7
iso_b_vert
0
MTEXT
5
248
100
AcDbEntity
8
SK6
62
256
6
ByLayer
370
18
48
1
60
0
100
AcDbMText
10
97.333894
20
-57.037366
30
0
210
0
220
0
230
1
1
\W0.7857;HT30D-HT06 50 268R40
40
3.5
41
0
44
1.084337
50
0
71
7
72
5
7
iso_b_vert
0
HATCH
5
224
100
AcDbEntity
8
SK2
62
256
6
ByLayer
370
13
48
1
60
0
100
AcDbHatch
10
0
20
0
30
0
210
0
220
0
230
1
2
ANSI31
70
0
71
0
91
1
92
5
93
3
72
1
10
-38.5000000000001
20
31.47
11
-38.0392162584473
21
27.9700016925532
72
1
10
-38.0392162584473
20
27.9700016925532
11
-38.9607837415529
21
27.9699983074468
72
1
10
-38.9607837415529
20
27.9699983074468
11
-38.5000000000001
21
31.47
97
0
75
0
76
1
52
0
41
0.0062
77
0
78
1
53
45
43
0
44
0
45
-0.0139193969876572
46
0.0139193969876572
79
0
47
0
98
1
10
0
20
0
0
HATCH
5
228
100
AcDbEntity
8
SK2
62
256
6
ByLayer
370
13
48
1
60
0
100
AcDbHatch
10
0
20
0
30
0
210
0
220
0
230
1
2
ANSI31
70
0
71
0
91
1
92
5
93
3
72
1
10
-38.5000000000001
20
-31.47
11
-38.9607837415529
21
-27.9700016925532
72
1
10
-38.9607837415529
20
-27.9700016925532
11
-38.0392162584473
21
-27.9699983074468
72
1
10
-38.0392162584473
20
-27.9699983074468
11
-38.5000000000001
21
-31.47
97
0
75
0
76
1
52
0
41
0.0062
77
0
78
1
53
45
43
0
44
0
45
-0.0139193969876572
46
0.0139193969876572
79
0
47
0
98
1
10
0
20
0
0
HATCH
5
22E
100
AcDbEntity
8
SK2
62
256
6
ByLayer
370
13
48
1
60
0
100
AcDbHatch
10
0
20
0
30
0
210
0
220
0
230
1
2
ANSI31
70
0
71
0
91
1
92
5
93
3
72
1
10
299.748180566759
20
24.999999999999
11
300.208964308312
21
21.5000016925522
72
1
10
300.208964308312
20
21.5000016925522
11
299.287396825206
21
21.4999983074459
72
1
10
299.287396825206
20
21.4999983074459
11
299.748180566759
21
24.999999999999
97
0
75
0
76
1
52
0
41
0.0062
77
0
78
1
53
45
43
0
44
0
45
-0.0139193969876572
46
0.0139193969876572
79
0
47
0
98
1
10
0
20
0
0
HATCH
5
232
100
AcDbEntity
8
SK2
62
256
6
ByLayer
370
13
48
1
60
0
100
AcDbHatch
10
0
20
0
30
0
210
0
220
0
230
1
2
ANSI31
70
0
71
0
91
1
92
5
93
3
72
1
10
299.748180566759
20
-25.000000000001
11
299.287396825206
21
-21.5000016925542
72
1
10
299.287396825206
20
-21.5000016925542
11
300.208964308312
21
-21.4999983074478
72
1
10
300.208964308312
20
-21.4999983074478
11
299.748180566759
21
-25.000000000001
97
0
75
0
76
1
52
0
41
0.0062
77
0
78
1
53
45
43
0
44
0
45
-0.0139193969876572
46
0.0139193969876572
79
0
47
0
98
1
10
0
20
0
0
HATCH
5
23A
100
AcDbEntity
8
SK2
62
256
6
ByLayer
370
13
48
1
60
0
100
AcDbHatch
10
0
20
0
30
0
210
0
220
0
230
1
2
ANSI31
70
0
71
0
91
1
92
5
93
3
72
1
10
288.123180566759
20
-15.000000000001
11
287.662396825206
21
-11.5000016925542
72
1
10
287.662396825206
20
-11.5000016925542
11
288.583964308312
21
-11.4999983074478
72
1
10
288.583964308312
20
-11.4999983074478
11
288.123180566759
21
-15.000000000001
97
0
75
0
76
1
52
0
41
0.0062
77
0
78
1
53
45
43
0
44
0
45
-0.0139193969876572
46
0.0139193969876572
79
0
47
0
98
1
10
0
20
0
0
HATCH
5
23E
100
AcDbEntity
8
SK2
62
256
6
ByLayer
370
13
48
1
60
0
100
AcDbHatch
10
0
20
0
30
0
210
0
220
0
230
1
2
ANSI31
70
0
71
0
91
1
92
5
93
3
72
1
10
288.123180566759
20
24.999999999999
11
288.583964308312
21
21.5000016925522
72
1
10
288.583964308312
20
21.5000016925522
11
287.662396825206
21
21.4999983074458
72
1
10
287.662396825206
20
21.4999983074458
11
288.123180566759
21
24.999999999999
97
0
75
0
76
1
52
0
41
0.0062
77
0
78
1
53
45
43
0
44
0
45
-0.0139193969876572
46
0.0139193969876572
79
0
47
0
98
1
10
0
20
0
0
HATCH
5
243
100
AcDbEntity
8
SK2
62
256
6
ByLayer
370
13
48
1
60
0
100
AcDbHatch
10
0
20
0
30
0
210
0
220
0
230
1
2
ANSI31
70
0
71
0
91
1
92
5
93
3
72
1
10
268
20
37.0700000000001
11
264.500001692553
21
36.6092162584474
72
1
10
264.500001692553
20
36.6092162584474
11
264.499998307447
21
37.5307837415529
72
1
10
264.499998307447
20
37.5307837415529
11
268
21
37.0700000000001
97
0
75
0
76
1
52
0
41
0.0062
77
0
78
1
53
45
43
0
44
0
45
-0.0139193969876572
46
0.0139193969876572
79
0
47
0
98
1
10
0
20
0
0
HATCH
5
247
100
AcDbEntity
8
SK2
62
256
6
ByLayer
370
13
48
1
60
0
100
AcDbHatch
10
0
20
0
30
0
210
0
220
0
230
1
2
ANSI31
70
0
71
0
91
1
92
5
93
3
72
1
10
0
20
37.0700000000001
11
3.4999983074468
21
37.5307837415529
72
1
10
3.4999983074468
20
37.5307837415529
11
3.5000016925532
21
36.6092162584474
72
1
10
3.5000016925532
20
36.6092162584474
11
0
21
37.0700000000001
97
0
75
0
76
1
52
0
41
0.0062
77
0
78
1
53
45
43
0
44
0
45
-0.0139193969876572
46
0.0139193969876572
79
0
47
0
98
1
10
0
20
0
0
DIMENSION
5
24B
100
AcDbEntity
8
SK2
62
256
6
ByLayer
370
18
48
1
60
0
100
AcDbDimension
2
_U0
10
268
20
-44.57
30
0
11
148.5
21
-44.57
31
0
70
32
71
1
72
1
41
1
210
0
220
0
230
1
3
Standard
100
AcDbAlignedDimension
13
29
23
-25
33
0
14
268
24
25
34
0
50
0
100
AcDbRotatedDimension
1001
ACAD
1000
DSTYLE
1002
{
1070
   371
1070
    13
1070
   372
1070
    13
1070
   170
1070
     0
1070
   144
1040
1.0
1070
   277
1070
     2
1070
   284
1070
     8
1070
   278
1070
    46
1070
   146
1040
1.0
1070
   345
1005
16
1070
   347
1005
16
1070
   346
1005
16
1070
   344
1005
0
1070
   343
1005
0
1070
   172
1070
     1
1070
    76
1070
     0
1070
    75
1070
     0
1070
   282
1070
     0
1070
   281
1070
     0
1070
    71
1070
     0
1070
    74
1070
     0
1070
   279
1070
     0
1070
   173
1070
     1
1070
   340
1005
21E
1070
   271
1070
     2
1070
   272
1070
     2
1070
    77
1070
     1
1070
    73
1070
     1
1070
   171
1070
     3
1070
   274
1070
     4
1070
   177
1070
     2
1070
   176
1070
     2
1070
   178
1070
     2
1070
    78
1070
     8
1070
    48
1040
-0.1
1070
    41
1040
3.5
1070
   147
1040
1.75
1070
    42
1040
1.5875
1070
    44
1040
2.0
1070
   140
1040
3.5
1002
}
1001
ACAD_DSTYLE_DIM_LINETYPE
1070
   380
1005
16
1001
ACAD_DSTYLE_DIM_EXT1_LINETYPE
1070
   381
1005
16
1001
ACAD_DSTYLE_DIM_EXT2_LINETYPE
1070
   382
1005
16
0
ENDSEC
0
SECTION
2
OBJECTS
0
DICTIONARY
5
2d4
330
0
100
AcDbDictionary
280
0
281
1
3
ACAD_GROUP
350
2d5
3
ACAD_MLINESTYLE
350
2d6
0
DICTIONARY
5
2d5
330
0
100
AcDbDictionary
280
0
281
1
0
DICTIONARY
5
2d6
330
0
100
AcDbDictionary
280
0
281
1
3
Standard
350
18
0
MLINESTYLE
5
18
330
2d6
100
AcDbMlineStyle
2
Standard
70
0
3

62
256
51
90
52
90
71
2
49
-0.5
62
256
6
ByLayer
49
0.5
62
256
6
ByLayer
0
RASTERVARIABLES
5
2c2
330

100
AcDbRasterVariables
90
0
70
1
71
1
72
1
0
ENDSEC
0
EOF
