0
SECTION
2
HEADER
9
$ACADVER
1
AC1015
9
$DWGCODEPAGE
3
ANSI_1252
9
$HANDSEED
5
276
9
$ANGBASE
50
0
9
$ANGDIR
70
0
9
$ATTMODE
70
1
9
$AUNITS
70
0
9
$AUPREC
70
0
9
$CECOLOR
62
256
9
$CELTSCALE
40
1
9
$CELTYPE
6
ByLayer
9
$CELWEIGHT
370
18
9
$CLAYER
8
0
9
$CMLJUST
70
0
9
$CMLSCALE
40
1
9
$CMLSTYLE
2
Standard
9
$DIMSTYLE
2
Standard
9
$TEXTSIZE
40
0.2
9
$TEXTSTYLE
7
Standard
9
$LUNITS
70
2
9
$LUPREC
70
4
9
$EXTNAMES
290
1
9
$INSUNITS
70
4
9
$LTSCALE
40
1
9
$LWDISPLAY
290
1
9
$PDMODE
70
0
9
$PDSIZE
40
0
9
$PLINEGEN
70
0
0
ENDSEC
0
SECTION
2
CLASSES
0
CLASS
1
RASTERVARIABLES
2
AcDbRasterVariables
3
ISM
90
0
280
0
281
0
0
ENDSEC
0
SECTION
2
TABLES
0
TABLE
2
VPORT
5
26c
100
AcDbSymbolTable
0
VPORT
5
1
100
AcDbSymbolTableRecord
100
AcDbViewportTableRecord
2
*Active
70
0
10
0
20
0
11
1
21
1
12
-1
22
1
13
0
23
0
14
0.5
24
0.5
15
10
25
10
16
0
26
0
36
1
17
0
27
0
37
0
0
ENDTAB
0
TABLE
2
LTYPE
5
26d
100
AcDbSymbolTable
0
LTYPE
5
14
100
AcDbSymbolTableRecord
100
AcDbLinetypeTableRecord
70
0
2
ByBlock
3

72
65
73
0
40
0
0
LTYPE
5
15
100
AcDbSymbolTableRecord
100
AcDbLinetypeTableRecord
70
0
2
ByLayer
3

72
65
73
0
40
0
0
LTYPE
5
16
100
AcDbSymbolTableRecord
100
AcDbLinetypeTableRecord
70
0
2
Continuous
3
Solid line
72
65
73
0
40
0
0
LTYPE
5
6E
100
AcDbSymbolTableRecord
100
AcDbLinetypeTableRecord
70
0
2
CENTER
3
____ _ ____ _ ____ _ ____
72
65
73
4
40
47.5
49
22
74
0
49
-8.5
74
0
49
8.5
74
0
49
-8.5
74
0
0
LTYPE
5
6F
100
AcDbSymbolTableRecord
100
AcDbLinetypeTableRecord
70
0
2
DASHED
3
__ __ __ __ __ __ __ __ __
72
65
73
2
40
25.72
49
12.86
74
0
49
-12.86
74
0
0
ENDTAB
0
TABLE
2
LAYER
5
26e
100
AcDbSymbolTable
0
LAYER
5
10
100
AcDbSymbolTableRecord
100
AcDbLayerTableRecord
2
0
70
0
62
7
6
Continuous
290
1
370
-3
390
0
0
LAYER
5
71
100
AcDbSymbolTableRecord
100
AcDbLayerTableRecord
2
2
70
0
62
7
6
Continuous
290
1
370
-3
390
0
0
LAYER
5
83
100
AcDbSymbolTableRecord
100
AcDbLayerTableRecord
2
81
70
0
62
-3
6
Continuous
290
1
370
-3
390
0
0
LAYER
5
85
100
AcDbSymbolTableRecord
100
AcDbLayerTableRecord
2
80
70
0
62
-6
6
Continuous
290
1
370
-3
390
0
0
LAYER
5
87
100
AcDbSymbolTableRecord
100
AcDbLayerTableRecord
2
1
70
0
62
4
6
Continuous
290
1
370
-3
390
0
0
LAYER
5
97
100
AcDbSymbolTableRecord
100
AcDbLayerTableRecord
2
4
70
0
62
-2
6
CENTER
290
1
370
-3
390
0
0
LAYER
5
1E3
100
AcDbSymbolTableRecord
100
AcDbLayerTableRecord
2
Defpoints
70
0
62
7
6
Continuous
290
0
370
-3
390
0
0
LAYER
5
258
100
AcDbSymbolTableRecord
100
AcDbLayerTableRecord
2
SK4
70
0
62
2
6
CENTER
290
1
370
-3
390
0
0
LAYER
5
259
100
AcDbSymbolTableRecord
100
AcDbLayerTableRecord
2
SK1
70
0
62
4
6
Continuous
290
1
370
-3
390
0
0
LAYER
5
25a
100
AcDbSymbolTableRecord
100
AcDbLayerTableRecord
2
SK2
70
0
62
7
6
Continuous
290
1
370
-3
390
0
0
LAYER
5
25b
100
AcDbSymbolTableRecord
100
AcDbLayerTableRecord
2
SK6
70
0
62
5
6
Continuous
290
1
370
-3
390
0
0
ENDTAB
0
TABLE
2
STYLE
5
26f
100
AcDbSymbolTable
0
STYLE
5
11
100
AcDbSymbolTableRecord
100
AcDbTextStyleTableRecord
2
Standard
3
txt
70
0
71
0
40
0
41
1
42
0
50
0
0
STYLE
5
1BF
100
AcDbSymbolTableRecord
100
AcDbTextStyleTableRecord
2
iso_b_vert
3
simplex.shx
70
0
71
0
40
0
41
1
42
0
50
0
0
STYLE
5
1C0
100
AcDbSymbolTableRecord
100
AcDbTextStyleTableRecord
2
DWGDirectTextStyle
3
simplex
70
0
71
0
40
0
41
1
42
0
50
0
0
ENDTAB
0
TABLE
2
DIMSTYLE
5
270
100
AcDbSymbolTable
100
AcDbDimStyleTable
0
DIMSTYLE
105
27
100
AcDbSymbolTableRecord
100
AcDbDimStyleTableRecord
2
Standard
70
0
3
<>
41
0.18
42
0.0625
44
0.18
140
0.18
147
0.09
73
0
74
0
77
1
271
2
275
0
278
52
280
0
340
11
0
ENDTAB
0
TABLE
2
VIEW
5
271
100
AcDbSymbolTable
0
ENDTAB
0
TABLE
2
UCS
5
272
100
AcDbSymbolTable
0
ENDTAB
0
TABLE
2
APPID
5
273
100
AcDbSymbolTable
0
APPID
5
12
100
AcDbSymbolTableRecord
100
AcDbRegAppTableRecord
2
ACAD
70
0
0
APPID
5
1DF
100
AcDbSymbolTableRecord
100
AcDbRegAppTableRecord
2
ACAD_DSTYLE_DIMBREAK
70
0
0
APPID
5
217
100
AcDbSymbolTableRecord
100
AcDbRegAppTableRecord
2
ACAD_DSTYLE_DIM_LINETYPE
70
0
0
APPID
5
218
100
AcDbSymbolTableRecord
100
AcDbRegAppTableRecord
2
ACAD_DSTYLE_DIM_EXT1_LINETYPE
70
0
0
APPID
5
219
100
AcDbSymbolTableRecord
100
AcDbRegAppTableRecord
2
ACAD_DSTYLE_DIM_EXT2_LINETYPE
70
0
0
APPID
5
254
100
AcDbSymbolTableRecord
100
AcDbRegAppTableRecord
2
ACAD_MLEADERVER
70
0
0
ENDTAB
0
TABLE
2
BLOCK_RECORD
5
274
100
AcDbSymbolTable
0
BLOCK_RECORD
5
1F
100
AcDbSymbolTableRecord
100
AcDbBlockTableRecord
2
*Model_Space
340
0
70
0
0
BLOCK_RECORD
5
1B
100
AcDbSymbolTableRecord
100
AcDbBlockTableRecord
2
*Paper_Space
340
0
70
0
0
BLOCK_RECORD
5
23
100
AcDbSymbolTableRecord
100
AcDbBlockTableRecord
2
*Paper_Space0
340
0
70
0
0
BLOCK_RECORD
5
1E4
100
AcDbSymbolTableRecord
100
AcDbBlockTableRecord
2
*D1
340
0
70
0
0
BLOCK_RECORD
5
1F0
100
AcDbSymbolTableRecord
100
AcDbBlockTableRecord
2
_U0
340
0
70
0
0
ENDTAB
0
ENDSEC
0
SECTION
2
BLOCKS
0
BLOCK
5
20
100
AcDbEntity
8
0
100
AcDbBlockBegin
2
*Model_Space
70
0
10
0
20
0
30
0
3
*Model_Space
0
ENDBLK
5
21
100
AcDbEntity
8
0
100
AcDbBlockEnd
0
BLOCK
5
1C
100
AcDbEntity
8
0
100
AcDbBlockBegin
2
*Paper_Space
70
0
10
0
20
0
30
0
3
*Paper_Space
0
ENDBLK
5
1D
100
AcDbEntity
8
0
100
AcDbBlockEnd
0
BLOCK
5
24
100
AcDbEntity
8
0
100
AcDbBlockBegin
2
*Paper_Space0
70
0
10
0
20
0
30
0
3
*Paper_Space0
0
ENDBLK
5
25
100
AcDbEntity
8
0
100
AcDbBlockEnd
0
BLOCK
5
1E5
100
AcDbEntity
8
0
100
AcDbBlockBegin
2
*D1
70
1
10
0
20
0
30
0
3
*D1
0
LINE
5
1E7
100
AcDbEntity
8
0
62
256
6
ByLayer
370
-2
48
1
60
0
100
AcDbLine
10
42
20
-41.5875
30
0
11
42
21
-65.1
31
0
39
0
210
0
220
0
230
1
0
LINE
5
1E8
100
AcDbEntity
8
0
62
256
6
ByLayer
370
-2
48
1
60
0
100
AcDbLine
10
755
20
38.4125
30
0
11
755
21
-65.1
31
0
39
0
210
0
220
0
230
1
0
LINE
5
1E9
100
AcDbEntity
8
0
62
256
6
ByLayer
370
-2
48
1
60
0
100
AcDbLine
10
45.5
20
-63.1
30
0
11
751.5
21
-63.1
31
0
39
0
210
0
220
0
230
1
0
SOLID
5
1EA
100
AcDbEntity
8
0
62
256
6
ByLayer
370
-1
48
1
60
0
100
AcDbTrace
10
45.5
20
-62.516667
30
0
11
45.5
21
-63.683333
31
0
12
42
22
-63.1
32
0
13
42
23
-63.1
33
0
39
0
210
0
220
0
230
1
0
SOLID
5
1EB
100
AcDbEntity
8
0
62
256
6
ByLayer
370
-1
48
1
60
0
100
AcDbTrace
10
751.5
20
-63.683333
30
0
11
751.5
21
-62.516667
31
0
12
755
22
-63.1
32
0
13
755
23
-63.1
33
0
39
0
210
0
220
0
230
1
0
MTEXT
5
1EC
100
AcDbEntity
8
0
62
256
6
ByLayer
370
18
48
1
60
0
100
AcDbMText
10
398.5
20
-56.1
30
0
210
0
220
0
230
1
1
\A1;713
40
3.5
41
0
44
1
50
0
71
5
72
5
7
iso_b_vert
0
POINT
5
1ED
100
AcDbEntity
8
Defpoints
62
0
6
ByLayer
370
-1
48
1
60
0
100
AcDbPoint
10
42
20
-40
30
0
39
0
210
0
220
0
230
1
50
360
0
POINT
5
1EE
100
AcDbEntity
8
Defpoints
62
0
6
ByLayer
370
-1
48
1
60
0
100
AcDbPoint
10
755
20
40
30
0
39
0
210
0
220
0
230
1
50
360
0
POINT
5
1EF
100
AcDbEntity
8
Defpoints
62
0
6
ByLayer
370
-1
48
1
60
0
100
AcDbPoint
10
755
20
-63.1
30
0
39
0
210
0
220
0
230
1
50
360
0
ENDBLK
5
1E6
100
AcDbEntity
8
0
100
AcDbBlockEnd
0
BLOCK
5
1F7
100
AcDbEntity
8
0
100
AcDbBlockBegin
2
_U0
70
0
10
0
20
0
30
0
3
_U0
0
MTEXT
5
1F1
100
AcDbEntity
8
SK2
62
256
6
ByLayer
370
18
48
1
60
0
100
AcDbMText
10
395.724734
20
-62.067366
30
0
210
0
220
0
230
1
1
\W0.6217;713
40
3.5
41
0
44
1.084337
50
0
71
7
72
5
7
iso_b_vert
0
LINE
5
1F2
100
AcDbEntity
8
SK2
62
256
6
ByLayer
370
13
48
1
60
0
100
AcDbLine
10
42
20
-41.5875
30
0
11
42
21
-65.1
31
0
39
0
210
0
220
0
230
1
0
LINE
5
1F3
100
AcDbEntity
8
SK2
62
256
6
ByLayer
370
13
48
1
60
0
100
AcDbLine
10
755
20
38.4125
30
0
11
755
21
-65.1
31
0
39
0
210
0
220
0
230
1
0
LINE
5
1F4
100
AcDbEntity
8
SK2
62
256
6
ByLayer
370
13
48
1
60
0
100
AcDbLine
10
42
20
-63.1
30
0
11
755
21
-63.1
31
0
39
0
210
0
220
0
230
1
0
SOLID
5
1F5
100
AcDbEntity
8
SK2
62
256
6
ByLayer
370
18
48
1
60
0
100
AcDbTrace
10
42
20
-63.1
30
0
11
45.499998
21
-62.639216
31
0
12
45.500002
22
-63.560784
32
0
13
45.500002
23
-63.560784
33
0
39
0
210
0
220
0
230
1
0
SOLID
5
1F6
100
AcDbEntity
8
SK2
62
256
6
ByLayer
370
18
48
1
60
0
100
AcDbTrace
10
755
20
-63.1
30
0
11
751.500002
21
-63.560784
31
0
12
751.499998
22
-62.639216
32
0
13
751.499998
23
-62.639216
33
0
39
0
210
0
220
0
230
1
0
ENDBLK
5
1F8
100
AcDbEntity
8
0
100
AcDbBlockEnd
0
ENDSEC
0
SECTION
2
ENTITIES
0
ARC
5
13A
100
AcDbEntity
8
1
62
256
6
ByLayer
370
18
48
1
60
0
100
AcDbCircle
39
0
10
745.8
20
-39.8
30
0
40
0.2
210
0
220
0
230
1
100
AcDbArc
50
270
51
360
0
ARC
5
13B
100
AcDbEntity
8
1
62
256
6
ByLayer
370
18
48
1
60
0
100
AcDbCircle
39
0
10
745.8
20
39.8
30
0
40
0.2
210
0
220
0
230
1
100
AcDbArc
50
360
51
90
0
ARC
5
13C
100
AcDbEntity
8
1
62
256
6
ByLayer
370
18
48
1
60
0
100
AcDbCircle
39
0
10
42
20
46
30
0
40
6
210
0
220
0
230
1
100
AcDbArc
50
180
51
270
0
ARC
5
13D
100
AcDbEntity
8
1
62
256
6
ByLayer
370
18
48
1
60
0
100
AcDbCircle
39
0
10
42
20
-46
30
0
40
6
210
0
220
0
230
1
100
AcDbArc
50
90
51
180
0
ARC
5
13E
100
AcDbEntity
8
1
62
256
6
ByLayer
370
18
48
1
60
0
100
AcDbCircle
39
0
10
35.5
20
-49.5
30
0
40
0.5
210
0
220
0
230
1
100
AcDbArc
50
270
51
360
0
ARC
5
13F
100
AcDbEntity
8
1
62
256
6
ByLayer
370
18
48
1
60
0
100
AcDbCircle
39
0
10
35.5
20
49.5
30
0
40
0.5
210
0
220
0
230
1
100
AcDbArc
50
360
51
90
0
ARC
5
140
100
AcDbEntity
8
SK1
62
256
6
ByLayer
370
18
48
1
60
0
100
AcDbCircle
39
0
10
-0.6
20
38.9
30
0
40
0.999999999999997
210
0
220
0
230
1
100
AcDbArc
50
293.578178
51
306.869898
0
ARC
5
141
100
AcDbEntity
8
SK1
62
256
6
ByLayer
370
18
48
1
60
0
100
AcDbCircle
39
0
10
-0.6
20
-38.9
30
0
40
0.999999999999997
210
0
220
0
230
1
100
AcDbArc
50
53.130102
51
66.421822
0
ELLIPSE
5
142
100
AcDbEntity
8
1
62
256
6
ByLayer
370
13
48
1
60
0
100
AcDbEllipse
10
750.145698
20
-19.588981
30
0
11
2.51430274659212
21
0.66202847255939
31
0
210
0
220
0
230
1
40
0.858616
41
1.01143952070848
42
-0.559356806086448
0
ELLIPSE
5
143
100
AcDbEntity
8
1
62
256
6
ByLayer
370
13
48
0.05
60
0
100
AcDbEllipse
10
750.210961
20
-19.836842
30
0
11
2.90111855376014
21
0.763879006799297
31
0
210
0
220
0
230
1
40
0.858616
41
1.01143952070854
42
-0.559356806086399
0
ELLIPSE
5
144
100
AcDbEntity
8
1
62
256
6
ByLayer
370
13
48
0.05
60
0
100
AcDbEllipse
10
750.210961
20
19.836842
30
0
11
-2.90111855376013
21
0.763879006799318
31
0
210
0
220
0
230
1
40
0.858616
41
-1.53503829630681
42
-3.10583462310167
0
ELLIPSE
5
145
100
AcDbEntity
8
1
62
256
6
ByLayer
370
13
48
1
60
0
100
AcDbEllipse
10
750.145698
20
19.588981
30
0
11
-2.51430274659212
21
0.662028472559409
31
0
210
0
220
0
230
1
40
0.858616
41
-1.53503829630676
42
-3.10583462310168
0
ELLIPSE
5
146
100
AcDbEntity
8
1
62
256
6
ByLayer
370
18
48
1
60
0
100
AcDbEllipse
10
-7.094011
20
0
30
0
11
23.418544699455
21
49.3543728818757
31
0
210
0
220
0
230
1
40
0.341999
41
-1.09444724969933
42
-0.154598522698911
0
ELLIPSE
5
147
100
AcDbEntity
8
1
62
256
6
ByLayer
370
18
48
1
60
0
100
AcDbEllipse
10
39.094011
20
0
30
0
11
23.4185446994526
21
-49.3543728818722
31
0
210
0
220
0
230
1
40
0.341999
41
-2.98699413089088
42
-2.04714540389041
0
ELLIPSE
5
148
100
AcDbEntity
8
1
62
256
6
ByLayer
370
18
48
1
60
0
100
AcDbEllipse
10
39.094011
20
0
30
0
11
23.4185446994541
21
49.3543728818741
31
0
210
0
220
0
230
1
40
0.341999
41
2.04714540389044
42
2.98699413089088
0
ELLIPSE
5
149
100
AcDbEntity
8
1
62
256
6
ByLayer
370
18
48
1
60
0
100
AcDbEllipse
10
-7.094011
20
0
30
0
11
23.4185446994535
21
-49.3543728818738
31
0
210
0
220
0
230
1
40
0.341999
41
0.154598522698913
42
1.09444724969936
0
ELLIPSE
5
14A
100
AcDbEntity
8
1
62
256
6
ByLayer
370
18
48
1
60
0
100
AcDbEllipse
10
750.210961
20
-19.836842
30
0
11
2.41759879480012
21
0.636565838999414
31
0
210
0
220
0
230
1
40
0.858616
41
2.7469002906612
42
-0.00965082171813442
0
ELLIPSE
5
14B
100
AcDbEntity
8
1
62
256
6
ByLayer
370
18
48
1
60
0
100
AcDbEllipse
10
750.210961
20
-19.836842
30
0
11
2.41759879480012
21
0.636565838999414
31
0
210
0
220
0
230
1
40
0.858616
41
2.265745710352
42
2.74690029066116
0
ELLIPSE
5
14C
100
AcDbEntity
8
1
62
256
6
ByLayer
370
18
48
1
60
0
100
AcDbEllipse
10
769.291578
20
24.877983
30
0
11
-1.53900039462537
21
1.70923309859801
31
0
210
0
220
0
230
1
40
0.258819
41
-2.87033522338308
42
-0.271354208577131
0
ELLIPSE
5
14D
100
AcDbEntity
8
1
62
256
6
ByLayer
370
18
48
1
60
0
100
AcDbEllipse
10
769.148013
20
24.748717
30
0
11
1.67282651589714
21
-1.85786206369349
31
0
210
0
220
0
230
1
40
0.258819
41
0
42
-3.14159198189577
0
ELLIPSE
5
14E
100
AcDbEntity
8
1
62
256
6
ByLayer
370
18
48
1
60
0
100
AcDbEllipse
10
770.325003
20
7E-06
30
0
11
15.8173277660612
21
36.7397983395992
31
0
210
0
220
0
230
1
40
1
41
3.12459957207043
42
-3.12908608233503
0
ELLIPSE
5
14F
100
AcDbEntity
8
1
62
256
6
ByLayer
370
18
48
1
60
0
100
AcDbEllipse
10
753.670464
20
0
30
0
11
2.44921270764508E-15
21
40.0000000000053
31
0
210
0
220
0
230
1
40
0.013091
41
-2.71806021835879
42
-0.423532435231027
0
ELLIPSE
5
150
100
AcDbEntity
8
1
62
256
6
ByLayer
370
18
48
1
60
0
100
AcDbEllipse
10
770.324993
20
1.6E-05
30
0
11
36.7229616826561
21
15.8563362639228
31
0
210
0
220
0
230
1
40
1
41
1.55722757912662
42
1.5867272411696
0
ELLIPSE
5
151
100
AcDbEntity
8
1
62
256
6
ByLayer
370
18
48
1
60
0
100
AcDbEllipse
10
728.356005
20
-0.019511
30
0
11
69.3029737836595
21
0.0111743851987704
31
0
210
0
220
0
230
1
40
0.577458
41
1.17657801684004
42
1.18144370642228
0
ELLIPSE
5
152
100
AcDbEntity
8
1
62
256
6
ByLayer
370
18
48
1
60
0
100
AcDbEllipse
10
780.331671
20
-0.000275
30
0
11
69.2823221527672
21
-0.000150876560321127
31
0
210
0
220
0
230
1
40
0.577352
41
1.94007182567563
42
1.95043574983107
0
ELLIPSE
5
153
100
AcDbEntity
8
1
62
256
6
ByLayer
370
18
48
1
60
0
100
AcDbEllipse
10
730.968004
20
-4.8E-05
30
0
11
69.2820826110718
21
2.55619219273947E-05
31
0
210
0
220
0
230
1
40
0.577351
41
1.21155627409991
42
1.22184009159769
0
ELLIPSE
5
154
100
AcDbEntity
8
1
62
256
6
ByLayer
370
18
48
1
60
0
100
AcDbEllipse
10
777.733571
20
-0.000271
30
0
11
69.2823080552912
21
-0.000133961800002358
31
0
210
0
220
0
230
1
40
0.577352
41
1.90015858677974
42
1.91037023493199
0
ELLIPSE
5
155
100
AcDbEntity
8
1
62
256
6
ByLayer
370
18
48
1
60
0
100
AcDbEllipse
10
733.566361
20
0.000441
30
0
11
69.2815918879089
21
-0.000205185650707771
31
0
210
0
220
0
230
1
40
0.577348
41
1.25133069351865
42
1.26147374459399
0
ELLIPSE
5
156
100
AcDbEntity
8
1
62
256
6
ByLayer
370
18
48
1
60
0
100
AcDbEllipse
10
775.135426
20
-0.000182
30
0
11
69.2822107485043
21
-7.89791696582917E-05
31
0
210
0
220
0
230
1
40
0.577351
41
1.8607822846761
42
1.87086364022708
0
ELLIPSE
5
157
100
AcDbEntity
8
1
62
256
6
ByLayer
370
18
48
1
60
0
100
AcDbEllipse
10
736.164251
20
0.000131
30
0
11
69.2819062313743
21
-5.27080748602969E-05
31
0
210
0
220
0
230
1
40
0.577349
41
1.29058195107435
42
1.30060494503306
0
ELLIPSE
5
158
100
AcDbEntity
8
1
62
256
6
ByLayer
370
18
48
1
60
0
100
AcDbEllipse
10
772.537129
20
0.000278
30
0
11
69.2817677867043
21
0.000105584424372105
31
0
210
0
220
0
230
1
40
0.577348
41
1.82186139551724
42
1.83183231931318
0
ELLIPSE
5
159
100
AcDbEntity
8
1
62
256
6
ByLayer
370
18
48
1
60
0
100
AcDbEllipse
10
738.762289
20
6.2E-05
30
0
11
69.2819746129375
21
-2.10192380780859E-05
31
0
210
0
220
0
230
1
40
0.57735
41
1.32939642658985
42
1.33931828828609
0
ELLIPSE
5
15A
100
AcDbEntity
8
1
62
256
6
ByLayer
370
18
48
1
60
0
100
AcDbEllipse
10
769.938846
20
0.000871
30
0
11
69.2812239545119
21
0.000281703240503158
31
0
210
0
220
0
230
1
40
0.577344
41
1.78332551848476
42
1.79320411861694
0
ELLIPSE
5
15B
100
AcDbEntity
8
1
62
256
6
ByLayer
370
18
48
1
60
0
100
AcDbEllipse
10
741.360088
20
-0.000725
30
0
11
69.2826974757701
21
0.000214521510044334
31
0
210
0
220
0
230
1
40
0.577355
41
1.36783989048977
42
1.37767789151056
0
ELLIPSE
5
15C
100
AcDbEntity
8
1
62
256
6
ByLayer
370
18
48
1
60
0
100
AcDbEllipse
10
767.341211
20
-0.000346
30
0
11
69.2823465917428
21
-9.23617186535427E-05
31
0
210
0
220
0
230
1
40
0.577353
41
1.7451168874674
42
1.75491966557314
0
ELLIPSE
5
15D
100
AcDbEntity
8
1
62
256
6
ByLayer
370
18
48
1
60
0
100
AcDbEllipse
10
743.958339
20
-0.000277
30
0
11
69.2822815083269
21
6.61713606025544E-05
31
0
210
0
220
0
230
1
40
0.577352
41
1.40598768279632
42
1.41575813205203
0
ELLIPSE
5
15E
100
AcDbEntity
8
1
62
256
6
ByLayer
370
18
48
1
60
0
100
AcDbEllipse
10
764.742929
20
0.000396
30
0
11
69.2816788688356
21
8.36270480717836E-05
31
0
210
0
220
0
230
1
40
0.577347
41
1.70715459402189
42
1.71689745610481
0
ELLIPSE
5
15F
100
AcDbEntity
8
1
62
256
6
ByLayer
370
18
48
1
60
0
100
AcDbEllipse
10
746.556421
20
-0.000338
30
0
11
69.282331787943
21
6.16007597618729E-05
31
0
210
0
220
0
230
1
40
0.577353
41
1.44389248222893
42
1.45361053341681
0
ELLIPSE
5
160
100
AcDbEntity
8
1
62
256
6
ByLayer
370
18
48
1
60
0
100
AcDbEllipse
10
762.144942
20
4.8E-05
30
0
11
69.2819899789467
21
7.12755504132379E-06
31
0
210
0
220
0
230
1
40
0.57735
41
1.66939338070792
42
1.67909103619368
0
ELLIPSE
5
161
100
AcDbEntity
8
1
62
256
6
ByLayer
370
18
48
1
60
0
100
AcDbEllipse
10
749.154654
20
0.000581
30
0
11
69.28152413002
21
-7.33161692151204E-05
31
0
210
0
220
0
230
1
40
0.577346
41
1.48161684828281
42
1.49129713577137
0
ELLIPSE
5
162
100
AcDbEntity
8
1
62
256
6
ByLayer
370
18
48
1
60
0
100
AcDbEllipse
10
759.546871
20
2.3E-05
30
0
11
69.2820125052707
21
2.30167393492751E-06
31
0
210
0
220
0
230
1
40
0.57735
41
1.63177156370423
42
1.64143829913246
0
ELLIPSE
5
163
100
AcDbEntity
8
1
62
256
6
ByLayer
370
18
48
1
60
0
100
AcDbEllipse
10
751.752653
20
0.0001
30
0
11
69.281945347221
21
-7.14737672129391E-06
31
0
210
0
220
0
230
1
40
0.57735
41
1.51921106546306
42
1.52886743908826
0
ELLIPSE
5
164
100
AcDbEntity
8
1
62
256
6
ByLayer
370
18
48
1
60
0
100
AcDbEllipse
10
756.948796
20
2.4E-05
30
0
11
69.2820117039141
21
9.99985208872056E-07
31
0
210
0
220
0
230
1
40
0.57735
41
1.5942359550522
42
1.60388561999146
0
ELLIPSE
5
165
100
AcDbEntity
8
1
62
256
6
ByLayer
370
18
48
1
60
0
100
AcDbEllipse
10
754.35072
20
-7.3E-05
30
0
11
69.282095744072
21
9.62813211547302E-07
31
0
210
0
220
0
230
1
40
0.577351
41
1.55673335207378
42
1.56637956284904
0
ELLIPSE
5
166
100
AcDbEntity
8
1
62
256
6
ByLayer
370
18
48
1
60
0
100
AcDbEllipse
10
754.35072
20
7.3E-05
30
0
11
69.282095744072
21
-9.62813239657373E-07
31
0
210
0
220
0
230
1
40
0.577351
41
-1.56637956284904
42
-1.55673335207378
0
ELLIPSE
5
167
100
AcDbEntity
8
1
62
256
6
ByLayer
370
18
48
1
60
0
100
AcDbEllipse
10
756.9488
20
4E-05
30
0
11
69.2820672804843
21
1.61848338048043E-06
31
0
210
0
220
0
230
1
40
0.577351
41
-1.60388565893966
42
-1.59423600173549
0
ELLIPSE
5
168
100
AcDbEntity
8
1
62
256
6
ByLayer
370
18
48
1
60
0
100
AcDbEllipse
10
751.752653
20
-0.0001
30
0
11
69.281945347222
21
7.14737678548609E-06
31
0
210
0
220
0
230
1
40
0.57735
41
-1.52886743908826
42
-1.51921106546306
0
ELLIPSE
5
169
100
AcDbEntity
8
1
62
256
6
ByLayer
370
18
48
1
60
0
100
AcDbEllipse
10
759.546876
20
2.2E-05
30
0
11
69.2820518322438
21
2.06819327676321E-06
31
0
210
0
220
0
230
1
40
0.57735
41
-1.64143836854781
42
-1.63177163858405
0
ELLIPSE
5
16A
100
AcDbEntity
8
1
62
256
6
ByLayer
370
18
48
1
60
0
100
AcDbEllipse
10
749.154571
20
-1.5E-05
30
0
11
69.282019032684
21
1.63761080565522E-06
31
0
210
0
220
0
230
1
40
0.57735
41
-1.49129590479986
42
-1.48161568597063
0
ELLIPSE
5
16B
100
AcDbEntity
8
1
62
256
6
ByLayer
370
18
48
1
60
0
100
AcDbEllipse
10
762.14499
20
0.000223
30
0
11
69.282228935577
21
3.44591068804281E-05
31
0
210
0
220
0
230
1
40
0.577352
41
-1.67909170861403
42
-1.66939408623132
0
ELLIPSE
5
16C
100
AcDbEntity
8
1
62
256
6
ByLayer
370
18
48
1
60
0
100
AcDbEllipse
10
746.556407
20
0.000405
30
0
11
69.282391201509
21
-7.39701005398231E-05
31
0
210
0
220
0
230
1
40
0.577353
41
-1.453610322134
42
-1.44389227915588
0
ELLIPSE
5
16D
100
AcDbEntity
8
1
62
256
6
ByLayer
370
18
48
1
60
0
100
AcDbEllipse
10
764.742928
20
-0.000396
30
0
11
69.2816787918981
21
-8.38698089466564E-05
31
0
210
0
220
0
230
1
40
0.577347
41
-1.71689745003241
42
-1.70715458794428
0
ELLIPSE
5
16E
100
AcDbEntity
8
1
62
256
6
ByLayer
370
18
48
1
60
0
100
AcDbEllipse
10
743.95836
20
0.000205
30
0
11
69.2822165211211
21
-4.87920898957676E-05
31
0
210
0
220
0
230
1
40
0.577352
41
-1.41575842728493
42
-1.4059879690944
0
ELLIPSE
5
16F
100
AcDbEntity
8
1
62
256
6
ByLayer
370
18
48
1
60
0
100
AcDbEllipse
10
767.341076
20
-8.5E-05
30
0
11
69.2819548937265
21
-2.26258139357329E-05
31
0
210
0
220
0
230
1
40
0.57735
41
-1.75491777934089
42
-1.74511494750871
0
ELLIPSE
5
170
100
AcDbEntity
8
1
62
256
6
ByLayer
370
18
48
1
60
0
100
AcDbEllipse
10
741.360411
20
-0.000205
30
0
11
69.2818446824213
21
6.01721784803198E-05
31
0
210
0
220
0
230
1
40
0.577349
41
-1.37768253169847
42
-1.36784441410667
0
ELLIPSE
5
171
100
AcDbEntity
8
1
62
256
6
ByLayer
370
18
48
1
60
0
100
AcDbEllipse
10
769.938776
20
-0.001053
30
0
11
69.2810547102787
21
-0.000340807000639399
31
0
210
0
220
0
230
1
40
0.577343
41
-1.79320314409205
42
-1.78332452090487
0
ELLIPSE
5
172
100
AcDbEntity
8
1
62
256
6
ByLayer
370
18
48
1
60
0
100
AcDbEllipse
10
738.762195
20
0.000164
30
0
11
69.2821867827471
21
-5.81210674275446E-05
31
0
210
0
220
0
230
1
40
0.577351
41
-1.33931695693121
42
-1.32939512404822
0
ELLIPSE
5
173
100
AcDbEntity
8
1
62
256
6
ByLayer
370
18
48
1
60
0
100
AcDbEllipse
10
772.537145
20
-0.000242
30
0
11
69.2818020088941
21
-9.20520764067676E-05
31
0
210
0
220
0
230
1
40
0.577349
41
-1.83183254126833
42
-1.82186162210657
0
ELLIPSE
5
174
100
AcDbEntity
8
1
62
256
6
ByLayer
370
18
48
1
60
0
100
AcDbEllipse
10
736.164473
20
-0.000583
30
0
11
69.2814690626703
21
0.000237591199864346
31
0
210
0
220
0
230
1
40
0.577347
41
-1.30060806143352
42
-1.29058500860509
0
ELLIPSE
5
175
100
AcDbEntity
8
1
62
256
6
ByLayer
370
18
48
1
60
0
100
AcDbEllipse
10
775.134889
20
-0.000838
30
0
11
69.281209389029
21
-0.000365897353880061
31
0
210
0
220
0
230
1
40
0.577345
41
-1.87085629296947
42
-1.86077480306348
0
ELLIPSE
5
176
100
AcDbEntity
8
1
62
256
6
ByLayer
370
18
48
1
60
0
100
AcDbEllipse
10
733.566129
20
-3.1E-05
30
0
11
69.2820017291418
21
1.41097214128055E-05
31
0
210
0
220
0
230
1
40
0.57735
41
-1.26147052573438
42
-1.25132752938658
0
ELLIPSE
5
177
100
AcDbEntity
8
1
62
256
6
ByLayer
370
18
48
1
60
0
100
AcDbEllipse
10
777.733121
20
-0.000473
30
0
11
69.2815513034848
21
-0.00023399412559401
31
0
210
0
220
0
230
1
40
0.577347
41
-1.91036413811219
42
-1.90015238935205
0
ELLIPSE
5
178
100
AcDbEntity
8
1
62
256
6
ByLayer
370
18
48
1
60
0
100
AcDbEllipse
10
730.968271
20
-0.000368
30
0
11
69.2816519706337
21
0.000191253450877734
31
0
210
0
220
0
230
1
40
0.577348
41
-1.22184373759787
42
-1.21155986306123
0
ELLIPSE
5
179
100
AcDbEntity
8
1
62
256
6
ByLayer
370
18
48
1
60
0
100
AcDbEllipse
10
780.331087
20
-0.000583
30
0
11
69.2814173326934
21
-0.000319860620033336
31
0
210
0
220
0
230
1
40
0.577347
41
-1.95042796097372
42
-1.94006391745329
0
ELLIPSE
5
17A
100
AcDbEntity
8
1
62
256
6
ByLayer
370
18
48
1
60
0
100
AcDbEllipse
10
728.364079
20
0.008233
30
0
11
69.2908657447082
21
-0.00470909771417397
31
0
210
0
220
0
230
1
40
0.577396
41
-1.18155182895478
42
-1.17668539741037
0
ELLIPSE
5
17B
100
AcDbEntity
8
1
62
256
6
ByLayer
370
18
48
1
60
0
100
AcDbEllipse
10
769.375316
20
-24.782739
30
0
11
1.53900039462538
21
1.709233098598
31
0
210
0
220
0
230
1
40
0.258819
41
-2.8703352233831
42
-0.271354208577136
0
ELLIPSE
5
17C
100
AcDbEntity
8
1
62
256
6
ByLayer
370
18
48
1
60
0
100
AcDbEllipse
10
769.231751
20
-24.653473
30
0
11
-1.67282651589715
21
-1.85786206369348
31
0
210
0
220
0
230
1
40
0.258819
41
0
42
-3.14159198189577
0
ELLIPSE
5
17D
100
AcDbEntity
8
1
62
256
6
ByLayer
370
18
48
1
60
0
100
AcDbEllipse
10
750.210961
20
19.836842
30
0
11
-2.41759879480011
21
0.636565838999433
31
0
210
0
220
0
230
1
40
0.858616
41
-0.437693148189134
42
0
0
ELLIPSE
5
17E
100
AcDbEntity
8
1
62
256
6
ByLayer
370
18
48
1
60
0
100
AcDbEllipse
10
750.210961
20
19.836842
30
0
11
-2.41759879480011
21
0.636565838999433
31
0
210
0
220
0
230
1
40
0.858616
41
0
42
0.971114714949415
0
ELLIPSE
5
17F
100
AcDbEntity
8
1
62
256
6
ByLayer
370
18
48
1
60
0
100
AcDbEllipse
10
750.210961
20
19.836842
30
0
11
-2.41759879480011
21
0.636565838999433
31
0
210
0
220
0
230
1
40
0.858616
41
-3.05778144542991
42
-0.437693148189155
0
ELLIPSE
5
180
100
AcDbEntity
8
1
62
256
6
ByLayer
370
18
48
1
60
0
100
AcDbEllipse
10
774.879096
20
0
30
0
11
38.0494837311113
21
39.3223699513103
31
0
210
0
220
0
230
1
40
0.192684
41
-2.09405060737141
42
-1.93293084691265
0
ELLIPSE
5
181
100
AcDbEntity
8
1
62
256
6
ByLayer
370
18
48
1
60
0
100
AcDbEllipse
10
774.879096
20
0
30
0
11
38.0494836469034
21
-39.3223698378478
31
0
210
0
220
0
230
1
40
0.192684
41
1.93293084583495
42
2.09405060664295
0
ELLIPSE
5
182
100
AcDbEntity
8
1
62
256
6
ByLayer
370
18
48
1
60
0
100
AcDbEllipse
10
241.561383
20
-510.457508
30
0
11
549.264562076672
21
528.115449111969
31
0
210
0
220
0
230
1
40
0.048595
41
-0.336564538049332
42
-0.33013256252065
0
ELLIPSE
5
183
100
AcDbEntity
8
1
62
256
6
ByLayer
370
18
48
1
60
0
100
AcDbEllipse
10
241.599799
20
510.421794
30
0
11
549.226117245728
21
-528.079643870877
31
0
210
0
220
0
230
1
40
0.048596
41
0.330143760270098
42
0.336575970051773
0
POINT
5
70
100
AcDbEntity
8
2
62
256
6
ByLayer
370
18
48
1
60
0
100
AcDbPoint
10
746
20
0
30
0
39
0
210
0
220
0
230
1
50
360
0
POINT
5
72
100
AcDbEntity
8
2
62
256
6
ByLayer
370
18
48
1
60
0
100
AcDbPoint
10
746
20
0
30
0
39
0
210
0
220
0
230
1
50
360
0
POINT
5
73
100
AcDbEntity
8
2
62
256
6
ByLayer
370
18
48
1
60
0
100
AcDbPoint
10
750.210961
20
19.836842
30
0
39
0
210
0
220
0
230
1
50
360
0
POINT
5
74
100
AcDbEntity
8
2
62
256
6
ByLayer
370
18
48
1
60
0
100
AcDbPoint
10
753.275
20
16
30
0
39
0
210
0
220
0
230
1
50
360
0
POINT
5
75
100
AcDbEntity
8
2
62
256
6
ByLayer
370
18
48
1
60
0
100
AcDbPoint
10
750.210961
20
-19.836842
30
0
39
0
210
0
220
0
230
1
50
360
0
POINT
5
76
100
AcDbEntity
8
2
62
256
6
ByLayer
370
18
48
1
60
0
100
AcDbPoint
10
754.325
20
0
30
0
39
0
210
0
220
0
230
1
50
360
0
POINT
5
77
100
AcDbEntity
8
2
62
256
6
ByLayer
370
18
48
1
60
0
100
AcDbPoint
10
762.825
20
0
30
0
39
0
210
0
220
0
230
1
50
360
0
POINT
5
78
100
AcDbEntity
8
2
62
256
6
ByLayer
370
18
48
1
60
0
100
AcDbPoint
10
700.05
20
0
30
0
39
0
210
0
220
0
230
1
50
360
0
POINT
5
79
100
AcDbEntity
8
2
62
256
6
ByLayer
370
18
48
1
60
0
100
AcDbPoint
10
753.275
20
-16
30
0
39
0
210
0
220
0
230
1
50
360
0
POINT
5
7A
100
AcDbEntity
8
2
62
256
6
ByLayer
370
18
48
1
60
0
100
AcDbPoint
10
762.974738
20
19.190275
30
0
39
0
210
0
220
0
230
1
50
360
0
POINT
5
7B
100
AcDbEntity
8
2
62
256
6
ByLayer
370
70
48
1
60
0
100
AcDbPoint
10
762.984641
20
0
30
0
39
0
210
0
220
0
230
1
50
360
0
POINT
5
7C
100
AcDbEntity
8
2
62
256
6
ByLayer
370
18
48
1
60
0
100
AcDbPoint
10
761.684641
20
0
30
0
39
0
210
0
220
0
230
1
50
360
0
POINT
5
7D
100
AcDbEntity
8
2
62
256
6
ByLayer
370
70
48
1
60
0
100
AcDbPoint
10
753.984641
20
0
30
0
39
0
210
0
220
0
230
1
50
360
0
POINT
5
7E
100
AcDbEntity
8
2
62
256
6
ByLayer
370
70
48
1
60
0
100
AcDbPoint
10
765.068379
20
-20.904756
30
0
39
0
210
0
220
0
230
1
50
360
0
POINT
5
7F
100
AcDbEntity
8
2
62
256
6
ByLayer
370
70
48
1
60
0
100
AcDbPoint
10
764.984641
20
21
30
0
39
0
210
0
220
0
230
1
50
360
0
POINT
5
80
100
AcDbEntity
8
2
62
256
6
ByLayer
370
18
48
1
60
0
100
AcDbPoint
10
763.058476
20
-19.09503
30
0
39
0
210
0
220
0
230
1
50
360
0
POINT
5
81
100
AcDbEntity
8
2
62
256
6
ByLayer
370
18
48
1
60
0
100
AcDbPoint
10
460.05
20
0
30
0
39
0
210
0
220
0
230
1
50
360
0
POINT
5
82
100
AcDbEntity
8
81
62
256
6
ByLayer
370
18
48
1
60
0
100
AcDbPoint
10
755
20
0
30
0
39
0
210
0
220
0
230
1
50
360
0
POINT
5
84
100
AcDbEntity
8
80
62
256
6
ByLayer
370
18
48
1
60
0
100
AcDbPoint
10
0
20
0
30
0
39
0
210
0
220
0
230
1
50
360
0
POINT
5
86
100
AcDbEntity
8
1
62
256
6
ByLayer
370
13
48
1
60
1
100
AcDbPoint
10
761.549909
20
-17.736711
30
0
39
0
210
0
220
0
230
1
50
360
0
POINT
5
88
100
AcDbEntity
8
1
62
256
6
ByLayer
370
13
48
1
60
1
100
AcDbPoint
10
773.073242
20
-28.112366
30
0
39
0
210
0
220
0
230
1
50
360
0
POINT
5
89
100
AcDbEntity
8
1
62
256
6
ByLayer
370
13
48
1
60
1
100
AcDbPoint
10
745.547194
20
-2.124425
30
0
39
0
210
0
220
0
230
1
50
360
0
POINT
5
8A
100
AcDbEntity
8
1
62
256
6
ByLayer
370
13
48
1
60
1
100
AcDbPoint
10
750.790144
20
-22.036508
30
0
39
0
210
0
220
0
230
1
50
360
0
POINT
5
8B
100
AcDbEntity
8
1
62
256
6
ByLayer
370
13
48
1
60
1
100
AcDbPoint
10
756.825
20
0
30
0
39
0
210
0
220
0
230
1
50
360
0
POINT
5
8C
100
AcDbEntity
8
1
62
256
6
ByLayer
370
13
48
1
60
1
100
AcDbPoint
10
744.5
20
0
30
0
39
0
210
0
220
0
230
1
50
360
0
POINT
5
8D
100
AcDbEntity
8
1
62
256
6
ByLayer
370
13
48
1
60
1
100
AcDbPoint
10
745.547657
20
2.126186
30
0
39
0
210
0
220
0
230
1
50
360
0
POINT
5
8E
100
AcDbEntity
8
1
62
256
6
ByLayer
370
13
48
1
60
1
100
AcDbPoint
10
750.789832
20
22.035322
30
0
39
0
210
0
220
0
230
1
50
360
0
POINT
5
8F
100
AcDbEntity
8
1
62
256
6
ByLayer
370
13
48
1
60
1
100
AcDbPoint
10
761.466171
20
17.831955
30
0
39
0
210
0
220
0
230
1
50
360
0
POINT
5
90
100
AcDbEntity
8
1
62
256
6
ByLayer
370
13
48
1
60
1
100
AcDbPoint
10
772.989504
20
28.207611
30
0
39
0
210
0
220
0
230
1
50
360
0
POINT
5
91
100
AcDbEntity
8
1
62
256
6
ByLayer
370
18
48
1
60
1
100
AcDbPoint
10
42
20
-40
30
0
39
0
210
0
220
0
230
1
50
360
0
POINT
5
92
100
AcDbEntity
8
1
62
256
6
ByLayer
370
18
48
1
60
1
100
AcDbPoint
10
755
20
40
30
0
39
0
210
0
220
0
230
1
50
360
0
SPLINE
5
184
100
AcDbEntity
8
SK1
62
256
6
ByLayer
370
18
48
1
60
0
100
AcDbSpline
70
4
71
2
72
6
73
3
40
0
40
0
40
0
40
1
40
1
40
1
41
1
10
-57.9999999999999
20
34.6181755422317
30
0
41
1
10
-59.0000000184052
20
34.040899650239
30
0
41
1
10
-59.9999999999999
20
33.4636240941155
30
0
0
SPLINE
5
185
100
AcDbEntity
8
SK1
62
256
6
ByLayer
370
18
48
1
60
0
100
AcDbSpline
70
4
71
2
72
6
73
3
40
0
40
0
40
0
40
1
40
1
40
1
41
1
10
-60.0000000000001
20
-33.463624270945
30
0
41
1
10
-59.0000000184072
20
-34.0408998263443
30
0
41
1
10
-58.0000000000001
20
-34.6181757176365
30
0
0
SPLINE
5
186
100
AcDbEntity
8
SK1
62
256
6
ByLayer
370
18
48
1
60
0
100
AcDbSpline
70
4
71
3
72
11
73
7
40
0
40
0
40
0
40
0
40
0.238883862180922
40
0.497413574887394
40
0.757381157998907
40
1
40
1
40
1
40
1
41
1
10
-0.394913799811434
20
-35.8653896963417
30
0
41
1
10
-0.369683193050861
20
-35.8663180573075
30
0
41
1
10
-0.321111484140346
20
-35.8763682715858
30
0
41
1
10
-0.255176566703625
20
-35.9195944489528
30
0
41
1
10
-0.211247740473652
20
-35.985582652085
30
0
41
1
10
-0.200957281154643
20
-36.0346194146335
30
0
41
1
10
-0.200000000000131
20
-36.06027713668
30
0
0
SPLINE
5
187
100
AcDbEntity
8
SK1
62
256
6
ByLayer
370
18
48
1
60
0
100
AcDbSpline
70
4
71
3
72
11
73
7
40
0
40
0
40
0
40
0
40
0.242618842122772
40
0.50258642528899
40
0.761116137943199
40
1
40
1
40
1
40
1
41
1
10
-0.199999999999818
20
36.0602769580582
30
0
41
1
10
-0.200957281151545
20
36.0346192359751
30
0
41
1
10
-0.21124774047027
20
35.9855824733591
30
0
41
1
10
-0.255176566689727
20
35.9195942701279
30
0
41
1
10
-0.321111484128267
20
35.8763680926842
30
0
41
1
10
-0.369683193047592
20
35.8663178783903
30
0
41
1
10
-0.39491379981115
20
35.8653895174204
30
0
0
SPLINE
5
188
100
AcDbEntity
8
SK1
62
256
6
ByLayer
370
18
48
1
60
0
100
AcDbSpline
70
4
71
2
72
6
73
3
40
0
40
0
40
0
40
1
40
1
40
1
41
1
10
-0.39491379981115
20
35.8653762243039
30
0
41
1
10
-1.1949768888756
20
35.8452785780294
30
0
41
1
10
-1.99503997793917
20
35.8251809317473
30
0
0
SPLINE
5
189
100
AcDbEntity
8
SK1
62
256
6
ByLayer
370
18
48
1
60
0
100
AcDbSpline
70
4
71
2
72
6
73
3
40
0
40
0
40
0
40
1
40
1
40
1
41
1
10
-1.99503997793943
20
-35.8251811094741
30
0
41
1
10
-1.19497688887586
20
-35.8452787557246
30
0
41
1
10
-0.394913799811434
20
-35.8653764019675
30
0
0
SPLINE
5
18A
100
AcDbEntity
8
SK1
62
256
6
ByLayer
370
18
48
1
60
0
100
AcDbSpline
70
4
71
3
72
13
73
9
40
0
40
0
40
0
40
0
40
0.239471162860123
40
0.368379894974465
40
0.500021131905154
40
0.631658853855645
40
0.760557894165859
40
1
40
1
40
1
40
1
41
1
10
-1.99503997793917
20
35.8251942148273
30
0
41
1
10
-2.02111001788324
20
35.8247924479739
30
0
41
1
10
-2.05884008786538
20
35.8309639254268
30
0
41
1
10
-2.10627671849542
20
35.8540046625366
30
0
41
1
10
-2.13886340553941
20
35.8791686789068
30
0
41
1
10
-2.16563563428861
20
35.9104461500348
30
0
41
1
10
-2.19103262331009
20
35.9566591505759
30
0
41
1
10
-2.19909176796341
20
35.9940272211736
30
0
41
1
10
-2.19999999999987
20
36.0200816554225
30
0
0
SPLINE
5
18B
100
AcDbEntity
8
SK1
62
256
6
ByLayer
370
18
48
1
60
0
100
AcDbSpline
70
4
71
3
72
13
73
9
40
0
40
0
40
0
40
0
40
0.239442105709448
40
0.368341145979431
40
0.499978867915451
40
0.631620104860488
40
0.760528837014914
40
1
40
1
40
1
40
1
41
1
10
-2.20000000000013
20
-36.0200818341074
30
0
41
1
10
-2.19909176796173
20
-35.9940273998955
30
0
41
1
10
-2.19103262330839
20
-35.9566593293522
30
0
41
1
10
-2.16563563428642
20
-35.9104463288838
30
0
41
1
10
-2.1388634055364
20
-35.8791688578038
30
0
41
1
10
-2.10627671849207
20
-35.854004841473
30
0
41
1
10
-2.05884008785986
20
-35.830964104399
30
0
41
1
10
-2.02111001788052
20
-35.8247926269554
30
0
41
1
10
-1.99503997793943
20
-35.82519439381
30
0
0
SPLINE
5
18C
100
AcDbEntity
8
SK1
62
256
6
ByLayer
370
18
48
1
60
0
100
AcDbSpline
70
4
71
2
72
6
73
3
40
0
40
0
40
0
40
1
40
1
40
1
41
1
10
-2.19999999999987
20
35.9985719120492
30
0
41
1
10
-30.1000000035744
20
35.2981890859066
30
0
41
1
10
-57.9999999999999
20
34.597800310042
30
0
0
SPLINE
5
18D
100
AcDbEntity
8
SK1
62
256
6
ByLayer
370
18
48
1
60
0
100
AcDbSpline
70
4
71
2
72
6
73
3
40
0
40
0
40
0
40
1
40
1
40
1
41
1
10
-58.0000000000001
20
-34.5978000890186
30
0
41
1
10
-30.1000000035745
20
-35.2981888603888
30
0
41
1
10
-2.20000000000013
20
-35.9985716822015
30
0
0
SPLINE
5
18E
100
AcDbEntity
8
1
62
256
6
ByLayer
370
18
48
1
60
0
100
AcDbSpline
70
4
71
3
72
28
73
24
40
0
40
0
40
0
40
0
40
0.0625000000000061
40
0.0625000000000061
40
0.093750000000003
40
0.093750000000003
40
0.125
40
0.125
40
0.250000000000001
40
0.250000000000001
40
0.375000000000002
40
0.375000000000002
40
0.437499999999996
40
0.437499999999996
40
0.499999999999991
40
0.499999999999991
40
0.624999999999993
40
0.624999999999993
40
0.749999999999996
40
0.749999999999996
40
0.874999999999998
40
0.874999999999998
40
1
40
1
40
1
40
1
41
1
10
18.2113248654053
20
47.699112336314
30
0
41
1
10
18.2270595596559
20
47.699112336314
30
0
41
1
10
18.2425066022339
20
47.6986325211243
30
0
41
1
10
18.265284104851
20
47.6972565620906
30
0
41
1
10
18.272810913383
20
47.6966882205613
30
0
41
1
10
18.2877376616229
20
47.6953394645317
30
0
41
1
10
18.2951724971557
20
47.6945543357693
30
0
41
1
10
18.3314372006437
20
47.690189691897
30
0
41
1
10
18.3578281265271
20
47.6853219328559
30
0
41
1
10
18.4069581904136
20
47.6736470656566
30
0
41
1
10
18.4288334491968
20
47.6670413844207
30
0
41
1
10
18.4588809702255
20
47.6563838934506
30
0
41
1
10
18.4684309157004
20
47.6527013060038
30
0
41
1
10
18.4867303490984
20
47.6451099305975
30
0
41
1
10
18.4955010868101
20
47.6411896516378
30
0
41
1
10
18.5204889532972
20
47.6292580497127
30
0
41
1
10
18.5354760545343
20
47.6210513457404
30
0
41
1
10
18.562944944888
20
47.6042440377894
30
0
41
1
10
18.5754177835218
20
47.5956422180835
30
0
41
1
10
18.5983196665244
20
47.5781044545093
30
0
41
1
10
18.6087450830626
20
47.5691680198121
30
0
41
1
10
18.6278436196426
20
47.5509978353522
30
0
41
1
10
18.6364974994729
20
47.541778524855
30
0
41
1
10
18.6443375672975
20
47.5324740593458
30
0
0
SPLINE
5
18F
100
AcDbEntity
8
1
62
256
6
ByLayer
370
18
48
1
60
0
100
AcDbSpline
70
4
71
3
72
32
73
28
40
0
40
0
40
0
40
0
40
0.25000000000001
40
0.25000000000001
40
0.375000000000018
40
0.375000000000018
40
0.437500000000019
40
0.437500000000019
40
0.50000000000002
40
0.50000000000002
40
0.625000000000021
40
0.625000000000021
40
0.68750000000002
40
0.68750000000002
40
0.750000000000019
40
0.750000000000019
40
0.812500000000017
40
0.812500000000017
40
0.843750000000015
40
0.843750000000015
40
0.875000000000012
40
0.875000000000012
40
0.937500000000006
40
0.937500000000006
40
0.968750000000003
40
0.968750000000003
40
1
40
1
40
1
40
1
41
1
10
18.6443375672973
20
15.5133461831292
30
0
41
1
10
18.6286630435769
20
15.4563493271807
30
0
41
1
10
18.6099224010159
20
15.4004782360281
30
0
41
1
10
18.5756373106803
20
15.3189628763403
30
0
41
1
10
18.5631695734011
20
15.2921769035834
30
0
41
1
10
18.542518822586
20
15.2527254134147
30
0
41
1
10
18.5353085448822
20
15.2396968594119
30
0
41
1
10
18.520136596788
20
15.2139209621237
30
0
41
1
10
18.5121625348485
20
15.2011578148613
30
0
41
1
10
18.4871618698534
20
15.1637170876448
30
0
41
1
10
18.4690247593559
20
15.1397658465103
30
0
41
1
10
18.4387714809654
20
15.1059376964122
30
0
41
1
10
18.4281592107111
20
15.095010803522
30
0
41
1
10
18.4060583457712
20
15.074362288657
30
0
41
1
10
18.3945344903245
20
15.0645964295525
30
0
41
1
10
18.3703588188408
20
15.0463962702365
30
0
41
1
10
18.3577088110858
20
15.0379598317318
30
0
41
1
10
18.3376838445829
20
15.0265455239635
30
0
41
1
10
18.3308009490982
20
15.0229343649007
30
0
41
1
10
18.316834097529
20
15.0162767768353
30
0
41
1
10
18.309748706295
20
15.0132261076343
30
0
41
1
10
18.2881674439404
20
15.0049610020095
30
0
41
1
10
18.2733483563929
20
15.0006283664657
30
0
41
1
10
18.250367935748
20
14.996181011478
30
0
41
1
10
18.2425805614475
20
14.9950458111051
30
0
41
1
10
18.2270026846867
20
14.9935361300597
30
0
41
1
10
18.2191806796093
20
14.9931545155677
30
0
41
1
10
18.2113248654052
20
14.9931545155677
30
0
0
SPLINE
5
190
100
AcDbEntity
8
1
62
256
6
ByLayer
370
18
48
1
60
0
100
AcDbSpline
70
4
71
3
72
28
73
24
40
0
40
0
40
0
40
0
40
0.0625000000000044
40
0.0625000000000044
40
0.0937500000000065
40
0.0937500000000065
40
0.125000000000009
40
0.125000000000009
40
0.250000000000013
40
0.250000000000013
40
0.375000000000017
40
0.375000000000017
40
0.437500000000013
40
0.437500000000013
40
0.500000000000009
40
0.500000000000009
40
0.625000000000007
40
0.625000000000007
40
0.750000000000005
40
0.750000000000005
40
0.875000000000002
40
0.875000000000002
40
1
40
1
40
1
40
1
41
1
10
13.7886751345949
20
14.9931545155678
30
0
41
1
10
13.7729404403443
20
14.9931545155678
30
0
41
1
10
13.7574933977663
20
14.9946812225929
30
0
41
1
10
13.7347158951492
20
14.9990572633153
30
0
41
1
10
13.7271890866172
20
15.0008645698075
30
0
41
1
10
13.7122623383773
20
15.005152395568
30
0
41
1
10
13.7048275028445
20
15.0076478892364
30
0
41
1
10
13.6685627993565
20
15.0215159830933
30
0
41
1
10
13.6421718734731
20
15.0369693753062
30
0
41
1
10
13.5930418095866
20
15.0739427918915
30
0
41
1
10
13.5711665508034
20
15.0948242086538
30
0
41
1
10
13.5411190297747
20
15.1284239846263
30
0
41
1
10
13.5315690842998
20
15.1400203146011
30
0
41
1
10
13.5132696509018
20
15.1638931870095
30
0
41
1
10
13.50449891319
20
15.1762057179683
30
0
41
1
10
13.479511046703
20
15.2136275524139
30
0
41
1
10
13.4645239454659
20
15.2392987486415
30
0
41
1
10
13.4370550551122
20
15.2917202176403
30
0
41
1
10
13.4245822164784
20
15.318474407119
30
0
41
1
10
13.4016803334758
20
15.372858967322
30
0
41
1
10
13.3912549169376
20
15.4004909261967
30
0
41
1
10
13.3721563803576
20
15.4565025709994
30
0
41
1
10
13.3635025005272
20
15.4848375519009
30
0
41
1
10
13.3556624327026
20
15.5133461831292
30
0
0
SPLINE
5
191
100
AcDbEntity
8
1
62
256
6
ByLayer
370
18
48
1
60
0
100
AcDbSpline
70
4
71
3
72
32
73
28
40
0
40
0
40
0
40
0
40
0.25000000000001
40
0.25000000000001
40
0.375000000000011
40
0.375000000000011
40
0.437500000000014
40
0.437500000000014
40
0.500000000000016
40
0.500000000000016
40
0.625000000000008
40
0.625000000000008
40
0.687500000000007
40
0.687500000000007
40
0.750000000000005
40
0.750000000000005
40
0.812500000000003
40
0.812500000000003
40
0.843750000000005
40
0.843750000000005
40
0.875000000000006
40
0.875000000000006
40
0.937500000000006
40
0.937500000000006
40
0.968750000000003
40
0.968750000000003
40
1
40
1
40
1
40
1
41
1
10
13.3556624327028
20
47.5324740593459
30
0
41
1
10
13.3713369564233
20
47.5510763302181
30
0
41
1
10
13.3900775989842
20
47.5691972862267
30
0
41
1
10
13.4243626893198
20
47.5954849905103
30
0
41
1
10
13.4368304265991
20
47.6040973909194
30
0
41
1
10
13.4574811774142
20
47.6167466147849
30
0
41
1
10
13.464691455118
20
47.6209179112661
30
0
41
1
10
13.4798634032122
20
47.6291590523765
30
0
41
1
10
13.4878374651517
20
47.6332339095114
30
0
41
1
10
13.5128381301468
20
47.6451715334099
30
0
41
1
10
13.5309752406443
20
47.6527863810657
30
0
41
1
10
13.5612285190347
20
47.663516301819
30
0
41
1
10
13.5718407892891
20
47.6669777320219
30
0
41
1
10
13.593941654229
20
47.6735117109474
30
0
41
1
10
13.6054655096757
20
47.6765983002466
30
0
41
1
10
13.6296411811594
20
47.6823452689501
30
0
41
1
10
13.6422911889144
20
47.6850063201912
30
0
41
1
10
13.6623161554173
20
47.6886039377399
30
0
41
1
10
13.669199050902
20
47.6897416143955
30
0
41
1
10
13.6831659024712
20
47.6918383367784
30
0
41
1
10
13.6902512937052
20
47.6927987245779
30
0
41
1
10
13.7118325560598
20
47.6953999741734
30
0
41
1
10
13.7266516436073
20
47.6967625554496
30
0
41
1
10
13.7496320642522
20
47.6981609444842
30
0
41
1
10
13.7574194385526
20
47.6985178150112
30
0
41
1
10
13.7729973153134
20
47.6989923891761
30
0
41
1
10
13.7808193203909
20
47.699112336314
30
0
41
1
10
13.788675134595
20
47.699112336314
30
0
0
SPLINE
5
192
100
AcDbEntity
8
1
62
256
6
ByLayer
370
18
48
1
60
0
100
AcDbSpline
70
4
71
3
72
28
73
24
40
0
40
0
40
0
40
0
40
0.0624999999999992
40
0.0624999999999992
40
0.0937499999999988
40
0.0937499999999988
40
0.124999999999998
40
0.124999999999998
40
0.249999999999994
40
0.249999999999994
40
0.374999999999991
40
0.374999999999991
40
0.437499999999994
40
0.437499999999994
40
0.499999999999998
40
0.499999999999998
40
0.624999999999999
40
0.624999999999999
40
0.749999999999999
40
0.749999999999999
40
0.875
40
0.875
40
1
40
1
40
1
40
1
41
1
10
13.7886751345946
20
-47.6991123363141
30
0
41
1
10
13.7729404403441
20
-47.6991123363141
30
0
41
1
10
13.757493397766
20
-47.6986325211244
30
0
41
1
10
13.734715895149
20
-47.6972565620907
30
0
41
1
10
13.7271890866169
20
-47.6966882205614
30
0
41
1
10
13.7122623383771
20
-47.6953394645319
30
0
41
1
10
13.7048275028443
20
-47.6945543357695
30
0
41
1
10
13.6685627993563
20
-47.6901896918971
30
0
41
1
10
13.6421718734729
20
-47.6853219328561
30
0
41
1
10
13.5930418095863
20
-47.6736470656567
30
0
41
1
10
13.5711665508031
20
-47.6670413844209
30
0
41
1
10
13.5411190297744
20
-47.6563838934508
30
0
41
1
10
13.5315690842996
20
-47.6527013060039
30
0
41
1
10
13.5132696509016
20
-47.6451099305976
30
0
41
1
10
13.5044989131898
20
-47.6411896516379
30
0
41
1
10
13.4795110467028
20
-47.6292580497128
30
0
41
1
10
13.4645239454657
20
-47.6210513457406
30
0
41
1
10
13.4370550551119
20
-47.6042440377895
30
0
41
1
10
13.4245822164781
20
-47.5956422180836
30
0
41
1
10
13.4016803334756
20
-47.5781044545095
30
0
41
1
10
13.3912549169374
20
-47.5691680198122
30
0
41
1
10
13.3721563803573
20
-47.5509978353523
30
0
41
1
10
13.363502500527
20
-47.5417785248551
30
0
41
1
10
13.3556624327024
20
-47.532474059346
30
0
0
SPLINE
5
193
100
AcDbEntity
8
1
62
256
6
ByLayer
370
18
48
1
60
0
100
AcDbSpline
70
4
71
3
72
32
73
28
40
0
40
0
40
0
40
0
40
0.249999999999985
40
0.249999999999985
40
0.374999999999981
40
0.374999999999981
40
0.437499999999979
40
0.437499999999979
40
0.499999999999977
40
0.499999999999977
40
0.624999999999974
40
0.624999999999974
40
0.687499999999975
40
0.687499999999975
40
0.749999999999976
40
0.749999999999976
40
0.812499999999977
40
0.812499999999977
40
0.84374999999998
40
0.84374999999998
40
0.874999999999982
40
0.874999999999982
40
0.937499999999988
40
0.937499999999988
40
0.968749999999994
40
0.968749999999994
40
1
40
1
40
1
40
1
41
1
10
13.3556624327026
20
-15.5133461831292
30
0
41
1
10
13.371336956423
20
-15.4563493271808
30
0
41
1
10
13.390077598984
20
-15.4004782360282
30
0
41
1
10
13.4243626893196
20
-15.3189628763404
30
0
41
1
10
13.4368304265989
20
-15.2921769035835
30
0
41
1
10
13.457481177414
20
-15.2527254134148
30
0
41
1
10
13.4646914551177
20
-15.239696859412
30
0
41
1
10
13.479863403212
20
-15.2139209621238
30
0
41
1
10
13.4878374651515
20
-15.2011578148614
30
0
41
1
10
13.5128381301466
20
-15.1637170876448
30
0
41
1
10
13.5309752406441
20
-15.1397658465103
30
0
41
1
10
13.5612285190345
20
-15.1059376964122
30
0
41
1
10
13.5718407892888
20
-15.0950108035221
30
0
41
1
10
13.5939416542287
20
-15.074362288657
30
0
41
1
10
13.6054655096755
20
-15.0645964295525
30
0
41
1
10
13.6296411811591
20
-15.0463962702365
30
0
41
1
10
13.6422911889142
20
-15.0379598317319
30
0
41
1
10
13.6623161554171
20
-15.0265455239636
30
0
41
1
10
13.6691990509017
20
-15.0229343649008
30
0
41
1
10
13.683165902471
20
-15.0162767768354
30
0
41
1
10
13.690251293705
20
-15.0132261076344
30
0
41
1
10
13.7118325560596
20
-15.0049610020096
30
0
41
1
10
13.7266516436071
20
-15.0006283664657
30
0
41
1
10
13.7496320642519
20
-14.9961810114781
30
0
41
1
10
13.7574194385524
20
-14.9950458111052
30
0
41
1
10
13.7729973153132
20
-14.9935361300598
30
0
41
1
10
13.7808193203906
20
-14.9931545155678
30
0
41
1
10
13.7886751345947
20
-14.9931545155678
30
0
0
SPLINE
5
194
100
AcDbEntity
8
1
62
256
6
ByLayer
370
18
48
1
60
0
100
AcDbSpline
70
4
71
3
72
28
73
24
40
0
40
0
40
0
40
0
40
0.0624999999999862
40
0.0624999999999862
40
0.0937499999999861
40
0.0937499999999861
40
0.124999999999986
40
0.124999999999986
40
0.249999999999995
40
0.249999999999995
40
0.375000000000004
40
0.375000000000004
40
0.437500000000012
40
0.437500000000012
40
0.500000000000019
40
0.500000000000019
40
0.625000000000015
40
0.625000000000015
40
0.75000000000001
40
0.75000000000001
40
0.875000000000005
40
0.875000000000005
40
1
40
1
40
1
40
1
41
1
10
18.2113248654051
20
-14.9931545155679
30
0
41
1
10
18.2270595596556
20
-14.9931545155679
30
0
41
1
10
18.2425066022337
20
-14.994681222593
30
0
41
1
10
18.2652841048508
20
-14.9990572633154
30
0
41
1
10
18.2728109133828
20
-15.0008645698076
30
0
41
1
10
18.2877376616226
20
-15.0051523955681
30
0
41
1
10
18.2951724971554
20
-15.0076478892365
30
0
41
1
10
18.3314372006434
20
-15.0215159830934
30
0
41
1
10
18.3578281265268
20
-15.0369693753063
30
0
41
1
10
18.4069581904134
20
-15.0739427918916
30
0
41
1
10
18.4288334491966
20
-15.0948242086539
30
0
41
1
10
18.4588809702253
20
-15.1284239846264
30
0
41
1
10
18.4684309157001
20
-15.1400203146012
30
0
41
1
10
18.4867303490981
20
-15.1638931870096
30
0
41
1
10
18.4955010868099
20
-15.1762057179683
30
0
41
1
10
18.5204889532969
20
-15.213627552414
30
0
41
1
10
18.535476054534
20
-15.2392987486416
30
0
41
1
10
18.5629449448878
20
-15.2917202176404
30
0
41
1
10
18.5754177835216
20
-15.3184744071191
30
0
41
1
10
18.5983196665242
20
-15.3728589673221
30
0
41
1
10
18.6087450830623
20
-15.4004909261968
30
0
41
1
10
18.6278436196423
20
-15.4565025709994
30
0
41
1
10
18.6364974994727
20
-15.484837551901
30
0
41
1
10
18.6443375672973
20
-15.5133461831293
30
0
0
SPLINE
5
195
100
AcDbEntity
8
1
62
256
6
ByLayer
370
18
48
1
60
0
100
AcDbSpline
70
4
71
3
72
32
73
28
40
0
40
0
40
0
40
0
40
0.250000000000006
40
0.250000000000006
40
0.37500000000001
40
0.37500000000001
40
0.437500000000014
40
0.437500000000014
40
0.500000000000019
40
0.500000000000019
40
0.625000000000029
40
0.625000000000029
40
0.687500000000027
40
0.687500000000027
40
0.750000000000025
40
0.750000000000025
40
0.812500000000023
40
0.812500000000023
40
0.843750000000019
40
0.843750000000019
40
0.875000000000016
40
0.875000000000016
40
0.937500000000007
40
0.937500000000007
40
0.968750000000004
40
0.968750000000004
40
1
40
1
40
1
40
1
41
1
10
18.6443375672971
20
-47.532474059346
30
0
41
1
10
18.6286630435766
20
-47.5510763302182
30
0
41
1
10
18.6099224010157
20
-47.5691972862268
30
0
41
1
10
18.5756373106801
20
-47.5954849905104
30
0
41
1
10
18.5631695734008
20
-47.6040973909196
30
0
41
1
10
18.5425188225857
20
-47.616746614785
30
0
41
1
10
18.535308544882
20
-47.6209179112662
30
0
41
1
10
18.5201365967877
20
-47.6291590523766
30
0
41
1
10
18.5121625348482
20
-47.6332339095115
30
0
41
1
10
18.4871618698531
20
-47.64517153341
30
0
41
1
10
18.4690247593556
20
-47.6527863810658
30
0
41
1
10
18.4387714809652
20
-47.6635163018192
30
0
41
1
10
18.4281592107108
20
-47.666977732022
30
0
41
1
10
18.4060583457709
20
-47.6735117109475
30
0
41
1
10
18.3945344903242
20
-47.6765983002467
30
0
41
1
10
18.3703588188405
20
-47.6823452689503
30
0
41
1
10
18.3577088110855
20
-47.6850063201913
30
0
41
1
10
18.3376838445826
20
-47.68860393774
30
0
41
1
10
18.330800949098
20
-47.6897416143957
30
0
41
1
10
18.3168340975287
20
-47.6918383367785
30
0
41
1
10
18.3097487062947
20
-47.692798724578
30
0
41
1
10
18.2881674439402
20
-47.6953999741735
30
0
41
1
10
18.2733483563926
20
-47.6967625554497
30
0
41
1
10
18.2503679357478
20
-47.6981609444844
30
0
41
1
10
18.2425805614473
20
-47.6985178150113
30
0
41
1
10
18.2270026846865
20
-47.6989923891762
30
0
41
1
10
18.2191806796091
20
-47.6991123363142
30
0
41
1
10
18.211324865405
20
-47.6991123363142
30
0
0
SPLINE
5
196
100
AcDbEntity
8
SK1
62
256
6
ByLayer
370
18
48
1
60
0
100
AcDbSpline
70
4
71
3
72
55
73
51
40
0
40
0
40
0
40
0
40
0.0021426956110271
40
0.0298014037143317
40
0.0574601118176362
40
0.0851188199209408
40
0.112777528024245
40
0.14043623612755
40
0.168094944230854
40
0.195753652334159
40
0.223412360437463
40
0.251071068540768
40
0.278729776644073
40
0.306388484747377
40
0.334047192850682
40
0.361705900953986
40
0.389364609057291
40
0.403193963108943
40
0.417023317160595
40
0.430852671212248
40
0.4446820252639
40
0.458511379315552
40
0.472340733367204
40
0.486170087418857
40
0.493084764444683
40
0.499999441470509
40
0.506914118496335
40
0.513828795522161
40
0.527658149573813
40
0.541487503625466
40
0.555316857677118
40
0.56914621172877
40
0.582975565780422
40
0.596804919832075
40
0.610634273883727
40
0.638292981987032
40
0.665951690090336
40
0.693610398193641
40
0.721269106296945
40
0.74892781440025
40
0.776586522503554
40
0.804245230606859
40
0.831903938710163
40
0.859562646813468
40
0.887221354916772
40
0.914880063020077
40
0.942538771123381
40
0.970197479226686
40
0.997856187329991
40
1
40
1
40
1
40
1
41
1
10
-60.0000000000001
20
-33.4636353461985
30
0
41
1
10
-60.0000000000001
20
-33.4633418365633
30
0
41
1
10
-60.0000000000001
20
-33.4548082674074
30
0
41
1
10
-60.0000000000001
20
-33.3205056815015
30
0
41
1
10
-60.0000000000001
20
-32.8505413890955
30
0
41
1
10
-60.0000000000001
20
-32.1329294130155
30
0
41
1
10
-60.0000000000001
20
-31.1885173778895
30
0
41
1
10
-60.0000000000001
20
-30.033383709577
30
0
41
1
10
-60.0000000000001
20
-28.6802027696426
30
0
41
1
10
-60.0000000000001
20
-27.1391563014212
30
0
41
1
10
-60.0000000000001
20
-25.4186126805196
30
0
41
1
10
-60.0000000000001
20
-23.5255321087807
30
0
41
1
10
-60.0000000000001
20
-21.4658195107746
30
0
41
1
10
-60.0000000000001
20
-19.2446308945637
30
0
41
1
10
-60.0000000000001
20
-16.8668253225732
30
0
41
1
10
-60.0000000000001
20
-14.3374601373515
30
0
41
1
10
-60
20
-12.1145030090861
30
0
41
1
10
-60
20
-10.2537713764772
30
0
41
1
10
-60
20
-8.83314461375005
30
0
41
1
10
-60
20
-7.38364733925624
30
0
41
1
10
-60
20
-5.91000562514989
30
0
41
1
10
-60
20
-4.4200428506075
30
0
41
1
10
-60
20
-2.92703470265559
30
0
41
1
10
-60
20
-1.70333091645796
30
0
41
1
10
-60
20
-0.720500335383463
30
0
41
1
10
-60
20
-1.53638666E-08
30
0
41
1
10
-60
20
0.720500611729165
30
0
41
1
10
-60
20
1.70333122668194
30
0
41
1
10
-60
20
2.92703464210848
30
0
41
1
10
-60
20
4.42004263163022
30
0
41
1
10
-60
20
5.9100059937137
30
0
41
1
10
-60
20
7.38364757350564
30
0
41
1
10
-59.9999999999999
20
8.83314440595325
30
0
41
1
10
-59.9999999999999
20
10.2537717697711
30
0
41
1
10
-59.9999999999999
20
12.1145025622944
30
0
41
1
10
-59.9999999999999
20
14.3374601761271
30
0
41
1
10
-59.9999999999999
20
16.8668255987006
30
0
41
1
10
-59.9999999999999
20
19.244630869401
30
0
41
1
10
-59.9999999999999
20
21.4658194114311
30
0
41
1
10
-59.9999999999999
20
23.5255322928728
30
0
41
1
10
-59.9999999999999
20
25.4186124925266
30
0
41
1
10
-59.9999999999999
20
27.1391563797825
30
0
41
1
10
-59.9999999999999
20
28.6802025797168
30
0
41
1
10
-59.9999999999999
20
30.0333837103401
30
0
41
1
10
-59.9999999999999
20
31.1885173679486
30
0
41
1
10
-59.9999999999999
20
32.1329288173201
30
0
41
1
10
-59.9999999999999
20
32.8505413389776
30
0
41
1
10
-59.9999999999999
20
33.3205059792771
30
0
41
1
10
-59.9999999999998
20
33.454811054522
30
0
41
1
10
-59.9999999999998
20
33.4633423462806
30
0
41
1
10
-59.9999999999998
20
33.4636356528365
30
0
0
SPLINE
5
197
100
AcDbEntity
8
SK1
62
256
6
ByLayer
370
18
48
1
60
0
100
AcDbSpline
70
4
71
3
72
35
73
31
40
0
40
0
40
0
40
0
40
0.249999999999995
40
0.249999999999995
40
0.374999999999992
40
0.374999999999992
40
0.49999999999999
40
0.49999999999999
40
0.624999999999987
40
0.624999999999987
40
0.687499999999985
40
0.687499999999985
40
0.749999999999984
40
0.749999999999984
40
0.812499999999982
40
0.812499999999982
40
0.843749999999983
40
0.843749999999983
40
0.874999999999983
40
0.874999999999983
40
0.906249999999984
40
0.906249999999984
40
0.921874999999986
40
0.921874999999986
40
0.937499999999989
40
0.937499999999989
40
0.953124999999991
40
0.953124999999991
40
0.968749999999994
40
1
40
1
40
1
40
1
41
1
10
-0.200000000000017
20
-6.8151347872452
30
0
41
1
10
-0.200338559745831
20
-6.75019455649618
30
0
41
1
10
-0.202015290054703
20
-6.68521895117027
30
0
41
1
10
-0.207341087389494
20
-6.58770581547833
30
0
41
1
10
-0.209590420527064
20
-6.55519323641295
30
0
41
1
10
-0.215316946322645
20
-6.49015470603621
30
0
41
1
10
-0.218787497090801
20
-6.45762862829213
30
0
41
1
10
-0.227462754000896
20
-6.39257019354085
30
0
41
1
10
-0.232636006632532
20
-6.36013139183433
30
0
41
1
10
-0.242440199067147
20
-6.31178890673698
30
0
41
1
10
-0.246061015445804
20
-6.2956987219676
30
0
41
1
10
-0.254247154374667
20
-6.26378985464112
30
0
41
1
10
-0.258796103956627
20
-6.24800183842382
30
0
41
1
10
-0.269289153167932
20
-6.21693652516268
30
0
41
1
10
-0.275203088231478
20
-6.20164812034483
30
0
41
1
10
-0.285975269686872
20
-6.17941326237525
30
0
41
1
10
-0.289887109237924
20
-6.17211949294227
30
0
41
1
10
-0.298743534933919
20
-6.15791144208106
30
0
41
1
10
-0.303619948323643
20
-6.15109580779904
30
0
41
1
10
-0.314768935000018
20
-6.13864094702615
30
0
41
1
10
-0.320966316493553
20
-6.1330770993435
30
0
41
1
10
-0.33160868907035
20
-6.12677507307671
30
0
41
1
10
-0.335424941304439
20
-6.12501830371843
30
0
41
1
10
-0.343229294830223
20
-6.12257787152623
30
0
41
1
10
-0.347325836481957
20
-6.12186429918972
30
0
41
1
10
-0.355452660466085
20
-6.12159300997945
30
0
41
1
10
-0.359469499195853
20
-6.1220135667499
30
0
41
1
10
-0.36742053513629
20
-6.12384711124537
30
0
41
1
10
-0.378768531813421
20
-6.12796735398592
30
0
41
1
10
-0.38879744411696
20
-6.13511490508347
30
0
41
1
10
-0.39491379981132
20
-6.14048954798676
30
0
0
SPLINE
5
198
100
AcDbEntity
8
SK1
62
256
6
ByLayer
370
18
48
1
60
0
100
AcDbSpline
70
4
71
3
72
38
73
34
40
0
40
0
40
0
40
0
40
0.0156250000000019
40
0.0156250000000019
40
0.0312500000000038
40
0.0312500000000038
40
0.0468750000000056
40
0.0468750000000056
40
0.0625000000000075
40
0.0625000000000075
40
0.0781250000000094
40
0.0781250000000094
40
0.0937500000000113
40
0.0937500000000113
40
0.125000000000011
40
0.125000000000011
40
0.15625000000001
40
0.15625000000001
40
0.18750000000001
40
0.18750000000001
40
0.250000000000009
40
0.250000000000009
40
0.312500000000008
40
0.312500000000008
40
0.375000000000008
40
0.375000000000008
40
0.500000000000006
40
0.500000000000006
40
0.625000000000005
40
0.625000000000005
40
0.750000000000003
40
0.750000000000003
40
1
40
1
40
1
40
1
41
1
10
-0.394913799811263
20
6.14048931519881
30
0
41
1
10
-0.391859175197254
20
6.13780511628147
30
0
41
1
10
-0.388686559823725
20
6.13529574333785
30
0
41
1
10
-0.382033424453482
20
6.13073337924823
30
0
41
1
10
-0.37852947079017
20
6.12866765624966
30
0
41
1
10
-0.371211019526669
20
6.12522181033518
30
0
41
1
10
-0.367433379654898
20
6.12385483366972
30
0
41
1
10
-0.359574524938097
20
6.12203263759289
30
0
41
1
10
-0.355472042902818
20
6.12159560817213
30
0
41
1
10
-0.347382639833938
20
6.121858728174
30
0
41
1
10
-0.343285185316603
20
6.12256411001283
30
0
41
1
10
-0.335452839534241
20
6.1250054440053
30
0
41
1
10
-0.33169372609305
20
6.12672884593684
30
0
41
1
10
-0.320936929416774
20
6.13308563425846
30
0
41
1
10
-0.314749234501534
20
6.13865828268484
30
0
41
1
10
-0.303586892285068
20
6.15113696370872
30
0
41
1
10
-0.298759657726578
20
6.15789253941813
30
0
41
1
10
-0.289962437596159
20
6.17199129036317
30
0
41
1
10
-0.285990787434201
20
6.179376769182
30
0
41
1
10
-0.275088323518162
20
6.20189327718197
30
0
41
1
10
-0.269151523758865
20
6.21729962361042
30
0
41
1
10
-0.258638343325884
20
6.24851404682818
30
0
41
1
10
-0.254096489237071
20
6.26433243977334
30
0
41
1
10
-0.245933915331676
20
6.29623991319608
30
0
41
1
10
-0.242319543002253
20
6.31233859574388
30
0
41
1
10
-0.232501591303219
20
6.360886594438
30
0
41
1
10
-0.227355749960736
20
6.39329057484412
30
0
41
1
10
-0.218731591997454
20
6.45813108693864
30
0
41
1
10
-0.215276196788722
20
6.49056858627654
30
0
41
1
10
-0.209571318882297
20
6.55545925427595
30
0
41
1
10
-0.207328217206253
20
6.58791268903786
30
0
41
1
10
-0.202014906793778
20
6.68528329279218
30
0
41
1
10
-0.200338479334306
20
6.75020990600507
30
0
41
1
10
-0.199999999999989
20
6.81513476249484
30
0
0
SPLINE
5
199
100
AcDbEntity
8
SK1
62
256
6
ByLayer
370
13
48
1
60
0
100
AcDbSpline
70
4
71
3
72
27
73
23
40
0
40
0
40
0
40
0
40
0.0125014891561664
40
0.043128192498581
40
0.0737548958409955
40
0.10438159918341
40
0.135008302525825
40
0.196261709210654
40
0.257515115895483
40
0.318768522580312
40
0.380021929265141
40
0.44127533594997
40
0.502528742634799
40
0.563782149319629
40
0.625035556004458
40
0.686288962689287
40
0.747542369374116
40
0.808795776058945
40
0.870049182743774
40
0.931302589428603
40
0.992555996113432
40
1
40
1
40
1
40
1
41
1
10
-0.39491379981132
20
-6.14048954798812
30
0
41
1
10
-0.39491379981132
20
-6.36440300196199
30
0
41
1
10
-0.39491379981132
20
-7.13289945093021
30
0
41
1
10
-0.39491379981132
20
-8.42331075216447
30
0
41
1
10
-0.39491379981132
20
-9.98816040557102
30
0
41
1
10
-0.394913799811349
20
-11.5102859417502
30
0
41
1
10
-0.394913799811349
20
-13.4834575653738
30
0
41
1
10
-0.394913799811349
20
-15.8428434722906
30
0
41
1
10
-0.394913799811349
20
-18.5056011360314
30
0
41
1
10
-0.394913799811377
20
-20.9993892841997
30
0
41
1
10
-0.394913799811377
20
-23.3230322455299
30
0
41
1
10
-0.394913799811377
20
-25.4742063724191
30
0
41
1
10
-0.394913799811405
20
-27.449451757043
30
0
41
1
10
-0.394913799811405
20
-29.2440107058567
30
0
41
1
10
-0.394913799811405
20
-30.8516499008688
30
0
41
1
10
-0.394913799811405
20
-32.2643689271589
30
0
41
1
10
-0.394913799811405
20
-33.4720135663698
30
0
41
1
10
-0.394913799811434
20
-34.4615411736756
30
0
41
1
10
-0.394913799811434
20
-35.2159258037197
30
0
41
1
10
-0.394913799811434
20
-35.7124173230212
30
0
41
1
10
-0.394913799811434
20
-35.8588061235276
30
0
41
1
10
-0.394913799811434
20
-35.8655011572878
30
0
41
1
10
-0.394913799811405
20
-35.8653758450495
30
0
0
SPLINE
5
19A
100
AcDbEntity
8
SK1
62
256
6
ByLayer
370
18
48
1
60
0
100
AcDbSpline
70
4
71
3
72
44
73
40
40
0
40
0
40
0
40
0
40
0.0312499999999969
40
0.0312499999999969
40
0.0468749999999956
40
0.0468749999999956
40
0.0624999999999944
40
0.0781249999999932
40
0.0781249999999932
40
0.0859374999999929
40
0.0859374999999929
40
0.0937499999999926
40
0.109374999999992
40
0.109374999999992
40
0.124999999999992
40
0.124999999999992
40
0.156249999999991
40
0.156249999999991
40
0.18749999999999
40
0.18749999999999
40
0.218749999999989
40
0.218749999999989
40
0.249999999999988
40
0.249999999999988
40
0.312499999999988
40
0.312499999999988
40
0.374999999999987
40
0.374999999999987
40
0.437499999999987
40
0.437499999999987
40
0.499999999999987
40
0.499999999999987
40
0.62499999999999
40
0.62499999999999
40
0.749999999999993
40
0.749999999999993
40
0.874999999999997
40
0.874999999999997
40
1
40
1
40
1
40
1
41
1
10
-0.39491379981132
20
-6.14048954798807
30
0
41
1
10
-0.411320296904194
20
-6.15490647656026
30
0
41
1
10
-0.428692575635296
20
-6.16812049444115
30
0
41
1
10
-0.456847871703985
20
-6.18533833468359
30
0
41
1
10
-0.466645793041778
20
-6.190662165194
30
0
41
1
10
-0.486679220255837
20
-6.20001925474503
30
0
41
1
10
-0.507195340378559
20
-6.20812819851409
30
0
41
1
10
-0.528819088976064
20
-6.21337534589202
30
0
41
1
10
-0.545522979159642
20
-6.21605544304009
30
0
41
1
10
-0.551173881687731
20
-6.21673571501583
30
0
41
1
10
-0.562387828318549
20
-6.21763160756586
30
0
41
1
10
-0.579171588290023
20
-6.21829610951232
30
0
41
1
10
-0.595845611378707
20
-6.21695442895037
30
0
41
1
10
-0.617982640268394
20
-6.21342877796661
30
0
41
1
10
-0.629092493063609
20
-6.21075953330535
30
0
41
1
10
-0.661178894788975
20
-6.20061034113303
30
0
41
1
10
-0.681215510343293
20
-6.19103427162474
30
0
41
1
10
-0.719340518859042
20
-6.16783435052412
30
0
41
1
10
-0.736840009746544
20
-6.15457756836202
30
0
41
1
10
-0.769702703210783
20
-6.12594888888395
30
0
41
1
10
-0.785070378501985
20
-6.11054891190958
30
0
41
1
10
-0.814264246961585
20
-6.07816953792792
30
0
41
1
10
-0.827902203448076
20
-6.06139145953347
30
0
41
1
10
-0.866591379680074
20
-6.00998831052675
30
0
41
1
10
-0.889552422423549
20
-5.97421011732268
30
0
41
1
10
-0.93205245088015
20
-5.90079746755288
30
0
41
1
10
-0.951550604545673
20
-5.8631417358763
30
0
41
1
10
-0.988106509998431
20
-5.78648090037512
30
0
41
1
10
-1.00516682254644
20
-5.7474209945816
30
0
41
1
10
-1.03715984705502
20
-5.66894819794635
30
0
41
1
10
-1.0521344144392
20
-5.62944051499005
30
0
41
1
10
-1.09469182958466
20
-5.51026258495523
30
0
41
1
10
-1.11994311520161
20
-5.42994544157921
30
0
41
1
10
-1.1662622239964
20
-5.2680431737038
30
0
41
1
10
-1.18730158957433
20
-5.18645153904424
30
0
41
1
10
-1.22623577285506
20
-5.02222827252785
30
0
41
1
10
-1.24411971327538
20
-4.93959396507074
30
0
41
1
10
-1.27738506598777
20
-4.77341902800811
30
0
41
1
10
-1.2927621929098
20
-4.68987741371876
30
0
41
1
10
-1.30710678118655
20
-4.60592606074874
30
0
0
SPLINE
5
19B
100
AcDbEntity
8
SK1
62
256
6
ByLayer
370
18
48
1
60
0
100
AcDbSpline
70
4
71
3
72
52
73
48
40
0
40
0
40
0
40
0
40
0.124999999999997
40
0.124999999999997
40
0.249999999999993
40
0.249999999999993
40
0.312499999999993
40
0.312499999999993
40
0.374999999999993
40
0.374999999999993
40
0.499999999999988
40
0.499999999999988
40
0.562499999999987
40
0.562499999999987
40
0.624999999999986
40
0.624999999999986
40
0.687499999999985
40
0.687499999999985
40
0.718749999999985
40
0.718749999999985
40
0.749999999999985
40
0.749999999999985
40
0.781249999999984
40
0.781249999999984
40
0.812499999999984
40
0.812499999999984
40
0.828124999999985
40
0.828124999999985
40
0.843749999999986
40
0.843749999999986
40
0.859374999999988
40
0.859374999999988
40
0.874999999999989
40
0.89062499999999
40
0.89062499999999
40
0.898437499999991
40
0.898437499999991
40
0.906249999999991
40
0.921874999999992
40
0.921874999999992
40
0.937499999999993
40
0.937499999999993
40
0.968749999999995
40
0.968749999999995
40
0.984374999999998
40
0.984374999999998
40
1
40
1
40
1
40
1
41
1
10
-1.30710678118652
20
4.60592664169553
30
0
41
1
10
-1.29275891091695
20
4.68989714720857
30
0
41
1
10
-1.27736962638437
20
4.77350841426141
30
0
41
1
10
-1.24404820493325
20
4.9399397228791
30
0
41
1
10
-1.22612064508869
20
5.02276061332566
30
0
41
1
10
-1.19681208321498
20
5.14631322592794
30
0
41
1
10
-1.18663768174733
20
5.18738396050338
30
0
41
1
10
-1.16535505328312
20
5.26927678319413
30
0
41
1
10
-1.15423917443448
20
5.31012638756459
30
0
41
1
10
-1.11931731285438
20
5.43201276986741
30
0
41
1
10
-1.09398428792127
20
5.51239595526584
30
0
41
1
10
-1.05148525648869
20
5.63117963544465
30
0
41
1
10
-1.03656113937748
20
5.67047297182705
30
0
41
1
10
-1.00477875230897
20
5.74831460023262
30
0
41
1
10
-0.98792647788153
20
5.78686496693513
30
0
41
1
10
-0.951618923970926
20
5.86299160032428
30
0
41
1
10
-0.932180037806262
20
5.90057354452273
30
0
41
1
10
-0.900153001667064
20
5.95590061943511
30
0
41
1
10
-0.888962127258139
20
5.9742145038457
30
0
41
1
10
-0.865496992525976
20
6.01015344582646
30
0
41
1
10
-0.853252514704224
20
6.02774095695474
30
0
41
1
10
-0.827458831985751
20
6.06194863274374
30
0
41
1
10
-0.813913312977633
20
6.07857148158422
30
0
41
1
10
-0.785075891824761
20
6.11052946629451
30
0
41
1
10
-0.769793584513906
20
6.12587159294549
30
0
41
1
10
-0.744972277821574
20
6.14749176791878
30
0
41
1
10
-0.736378832912976
20
6.15445714630403
30
0
41
1
10
-0.718692978023824
20
6.16759076245796
30
0
41
1
10
-0.709571748065656
20
6.17378612133842
30
0
41
1
10
-0.690657240434462
20
6.18528091245651
30
0
41
1
10
-0.680808653574928
20
6.19060634315309
30
0
41
1
10
-0.660548602982999
20
6.20002330412603
30
0
41
1
10
-0.63986137796212
20
6.20815612202625
30
0
41
1
10
-0.618206929166234
20
6.21338279886066
30
0
41
1
10
-0.601549235398664
20
6.21605069297289
30
0
41
1
10
-0.595894684359621
20
6.21673259001068
30
0
41
1
10
-0.584623491536121
20
6.2176327300308
30
0
41
1
10
-0.567784303200085
20
6.2182961509402
30
0
41
1
10
-0.55114318445527
20
6.21694745395433
30
0
41
1
10
-0.529123888329934
20
6.21343336489906
30
0
41
1
10
-0.518101951885455
20
6.21078160435087
30
0
41
1
10
-0.486210164870357
20
6.20067411916989
30
0
41
1
10
-0.466388186231001
20
6.19116060030751
30
0
41
1
10
-0.438186505727458
20
6.17393188540939
30
0
41
1
10
-0.429090292917067
20
6.16771263779106
30
0
41
1
10
-0.411568394116813
20
6.15460321336286
30
0
41
1
10
-0.403113287056044
20
6.14769447379137
30
0
41
1
10
-0.394913799811263
20
6.14048931519875
30
0
0
SPLINE
5
19C
100
AcDbEntity
8
SK1
62
256
6
ByLayer
370
13
48
1
60
0
100
AcDbSpline
70
4
71
3
72
27
73
23
40
0
40
0
40
0
40
0
40
0.0074621451083116
40
0.0687144319831605
40
0.129966718858009
40
0.191219005732858
40
0.252471292607707
40
0.313723579482556
40
0.374975866357405
40
0.436228153232254
40
0.497480440107103
40
0.558732726981952
40
0.6199850138568
40
0.681237300731649
40
0.742489587606498
40
0.803741874481347
40
0.864994161356196
40
0.89562030479362
40
0.926246448231045
40
0.956872591668469
40
0.987498735105893
40
1
40
1
40
1
40
1
41
1
10
-0.39491379981115
20
35.8653747193825
30
0
41
1
10
-0.39491379981115
20
35.8655045639704
30
0
41
1
10
-0.394913799811121
20
35.8588269061564
30
0
41
1
10
-0.39491379981115
20
35.7124176199326
30
0
41
1
10
-0.39491379981115
20
35.2159257001025
30
0
41
1
10
-0.39491379981115
20
34.4615405790489
30
0
41
1
10
-0.394913799811178
20
33.4720136264138
30
0
41
1
10
-0.394913799811178
20
32.2643688967805
30
0
41
1
10
-0.394913799811178
20
30.8516497262062
30
0
41
1
10
-0.394913799811178
20
29.2440107893824
30
0
41
1
10
-0.394913799811178
20
27.4494515900979
30
0
41
1
10
-0.394913799811206
20
25.4742065689819
30
0
41
1
10
-0.394913799811206
20
23.3230321121426
30
0
41
1
10
-0.394913799811206
20
20.9993893665863
30
0
41
1
10
-0.394913799811235
20
18.505601336728
30
0
41
1
10
-0.394913799811235
20
15.8428433477203
30
0
41
1
10
-0.394913799811235
20
13.4834574083321
30
0
41
1
10
-0.394913799811235
20
11.510286218877
30
0
41
1
10
-0.394913799811263
20
9.98816027318446
30
0
41
1
10
-0.394913799811263
20
8.42331104678902
30
0
41
1
10
-0.394913799811263
20
7.13289939289211
30
0
41
1
10
-0.394913799811263
20
6.36440284602151
30
0
41
1
10
-0.394913799811263
20
6.14048931519881
30
0
0
SPLINE
5
19D
100
AcDbEntity
8
SK1
62
256
6
ByLayer
370
18
48
1
60
0
100
AcDbSpline
70
4
71
3
72
29
73
25
40
0
40
0
40
0
40
0
40
0.125
40
0.125
40
0.25
40
0.25
40
0.3125
40
0.3125
40
0.34375
40
0.34375
40
0.375
40
0.375
40
0.5
40
0.5
40
0.625
40
0.625
40
0.75
40
0.75
40
0.78125
40
0.78125
40
0.8125
40
0.875
40
0.875
40
1
40
1
40
1
40
1
41
1
10
-1.30710678118655
20
-4.60592606074869
30
0
41
1
10
-1.37081125400846
20
-4.23309718755536
30
0
41
1
10
-1.42988244415665
20
-3.85762223498023
30
0
41
1
10
-1.53601697125637
20
-3.10046674502002
30
0
41
1
10
-1.58309608481946
20
-2.71879180004015
30
0
41
1
10
-1.6418538836833
20
-2.14065366130035
30
0
41
1
10
-1.65945940647146
20
-1.94700181642941
30
0
41
1
10
-1.68249845293482
20
-1.65497671689536
30
0
41
1
10
-1.68961870290613
20
-1.55733947190663
30
0
41
1
10
-1.70266427629372
20
-1.36168548678421
30
0
41
1
10
-1.70857393117737
20
-1.2639093425509
30
0
41
1
10
-1.73495061568829
20
-0.775288794588619
30
0
41
1
10
-1.7457641954185
20
-0.385233065375189
30
0
41
1
10
-1.74561737258446
20
0.393133285396345
30
0
41
1
10
-1.73466515643025
20
0.781444423561027
30
0
41
1
10
-1.69273604411049
20
1.55642983746571
30
0
41
1
10
-1.66186877360201
20
1.94311068769235
30
0
41
1
10
-1.61291274879554
20
2.42556605138475
30
0
41
1
10
-1.60259660498775
20
2.52208429114984
30
0
41
1
10
-1.58103161178599
20
2.714623369474
30
0
41
1
10
-1.54729100893732
20
3.0026557867829
30
0
41
1
10
-1.50965797271613
20
3.28847396604806
30
0
41
1
10
-1.42991858386861
20
3.85743979515036
30
0
41
1
10
-1.37079534340222
20
4.23319113014099
30
0
41
1
10
-1.30710678118652
20
4.60592664169553
30
0
0
SPLINE
5
19E
100
AcDbEntity
8
SK1
62
256
6
ByLayer
370
13
48
1
60
0
100
AcDbSpline
70
4
71
3
72
55
73
51
40
0
40
0
40
0
40
0
40
0.0031234071147451
40
0.0307296040069958
40
0.0583358008992465
40
0.0859419977914972
40
0.113548194683748
40
0.141154391575999
40
0.168760588468249
40
0.1963667853605
40
0.223972982252751
40
0.251579179145002
40
0.279185376037252
40
0.306791572929503
40
0.334397769821754
40
0.362003966714004
40
0.389610163606255
40
0.40341326205238
40
0.417216360498506
40
0.431019458944631
40
0.444822557390756
40
0.458625655836882
40
0.472428754283007
40
0.486231852729133
40
0.493133401952195
40
0.500034951175258
40
0.506936500398321
40
0.513838049621383
40
0.527641148067509
40
0.541444246513634
40
0.555247344959759
40
0.569050443405885
40
0.58285354185201
40
0.596656640298135
40
0.610459738744261
40
0.638065935636512
40
0.665672132528762
40
0.693278329421013
40
0.720884526313264
40
0.748490723205514
40
0.776096920097765
40
0.803703116990016
40
0.831309313882266
40
0.858915510774517
40
0.886521707666768
40
0.914127904559019
40
0.941734101451269
40
0.96934029834352
40
0.996946495235771
40
1
40
1
40
1
40
1
41
1
10
-1.99503997793914
20
35.8251941590046
30
0
41
1
10
-1.99503997793917
20
35.8252015569387
30
0
41
1
10
-1.99503997793917
20
35.8180396952901
30
0
41
1
10
-1.99503997793917
20
35.6723836848469
30
0
41
1
10
-1.99503997793917
20
35.1763357577499
30
0
41
1
10
-1.99503997793917
20
34.4225661075322
30
0
41
1
10
-1.99503997793917
20
33.4337942626939
30
0
41
1
10
-1.99503997793917
20
32.2270284220684
30
0
41
1
10
-1.99503997793917
20
30.8153057523624
30
0
41
1
10
-1.9950399779392
20
29.2087813923734
30
0
41
1
10
-1.9950399779392
20
27.4154610031465
30
0
41
1
10
-1.9950399779392
20
25.4415911921648
30
0
41
1
10
-1.9950399779392
20
23.2919475472127
30
0
41
1
10
-1.99503997793923
20
20.970019599504
30
0
41
1
10
-1.99503997793923
20
18.4781727978133
30
0
41
1
10
-1.99503997793923
20
15.8176474286293
30
0
41
1
10
-1.99503997793926
20
13.4605449192125
30
0
41
1
10
-1.99503997793926
20
11.4892556686531
30
0
41
1
10
-1.99503997793926
20
9.96882852636497
30
0
41
1
10
-1.99503997793926
20
8.40590997758017
30
0
41
1
10
-1.99503997793928
20
6.80062156131368
30
0
41
1
10
-1.99503997793928
20
5.15362303649027
30
0
41
1
10
-1.99503997793928
20
3.46682572646461
30
0
41
1
10
-1.99503997793928
20
2.03246205572793
30
0
41
1
10
-1.99503997793928
20
0.872327198701271
30
0
41
1
10
-1.99503997793928
20
1.87858404E-08
30
0
41
1
10
-1.99503997793931
20
-0.872327145714451
30
0
41
1
10
-1.99503997793931
20
-2.03246197307198
30
0
41
1
10
-1.99503997793931
20
-3.46682565849329
30
0
41
1
10
-1.99503997793931
20
-5.15362300763576
30
0
41
1
10
-1.99503997793931
20
-6.80062160559305
30
0
41
1
10
-1.99503997793934
20
-8.40590968396612
30
0
41
1
10
-1.99503997793934
20
-9.96882866001368
30
0
41
1
10
-1.99503997793934
20
-11.489255389582
30
0
41
1
10
-1.99503997793934
20
-13.4605450811038
30
0
41
1
10
-1.99503997793937
20
-15.8176475504657
30
0
41
1
10
-1.99503997793937
20
-18.4781725958541
30
0
41
1
10
-1.99503997793937
20
-20.9700195189174
30
0
41
1
10
-1.99503997793937
20
-23.2919476800301
30
0
41
1
10
-1.9950399779394
20
-25.4415909958108
30
0
41
1
10
-1.9950399779394
20
-27.4154611704439
30
0
41
1
10
-1.9950399779394
20
-29.2087813089343
30
0
41
1
10
-1.9950399779394
20
-30.8153059272805
30
0
41
1
10
-1.99503997793943
20
-32.2270284519257
30
0
41
1
10
-1.99503997793943
20
-33.4337942038213
30
0
41
1
10
-1.99503997793943
20
-34.4225667021769
30
0
41
1
10
-1.99503997793943
20
-35.1763358604717
30
0
41
1
10
-1.99503997793943
20
-35.672383387921
30
0
41
1
10
-1.99503997793943
20
-35.8178649660863
30
0
41
1
10
-1.99503997793943
20
-35.8251687581079
30
0
41
1
10
-1.99503997793943
20
-35.8251937281771
30
0
0
SPLINE
5
19F
100
AcDbEntity
8
SK1
62
256
6
ByLayer
370
18
48
1
60
0
100
AcDbSpline
70
4
71
3
72
53
73
49
40
0
40
0
40
0
40
0
40
0.0212885191082584
40
0.049448014957906
40
0.0776075108075537
40
0.105767006657201
40
0.133926502506849
40
0.162085998356497
40
0.190245494206144
40
0.218404990055792
40
0.246564485905439
40
0.274723981755087
40
0.302883477604735
40
0.331042973454382
40
0.35920246930403
40
0.387361965153677
40
0.401441713078501
40
0.415521461003325
40
0.429601208928149
40
0.443680956852973
40
0.457760704777797
40
0.47184045270262
40
0.485920200627444
40
0.492960074589856
40
0.499999948552268
40
0.50703982251468
40
0.514079696477092
40
0.528159444401916
40
0.542239192326739
40
0.556318940251563
40
0.570398688176387
40
0.584478436101211
40
0.598558184026035
40
0.612637931950858
40
0.640797427800506
40
0.668956923650153
40
0.697116419499801
40
0.725275915349449
40
0.753435411199096
40
0.781594907048744
40
0.809754402898392
40
0.837913898748039
40
0.866073394597687
40
0.894232890447335
40
0.922392386296982
40
0.95055188214663
40
0.978711377996277
40
1
40
1
40
1
40
1
41
1
10
-2.1999999999999
20
35.99853432418
30
0
41
1
10
-2.1999999999999
20
35.968361710695
30
0
41
1
10
-2.19999999999985
20
35.8259680625064
30
0
41
1
10
-2.19999999999987
20
35.36828810137
30
0
41
1
10
-2.19999999999987
20
34.6115343329044
30
0
41
1
10
-2.19999999999987
20
33.619101338222
30
0
41
1
10
-2.19999999999987
20
32.4080741929617
30
0
41
1
10
-2.19999999999987
20
30.9915199760065
30
0
41
1
10
-2.1999999999999
20
29.3795915759284
30
0
41
1
10
-2.1999999999999
20
27.5802648002379
30
0
41
1
10
-2.1999999999999
20
25.5997272652693
30
0
41
1
10
-2.1999999999999
20
23.4426614592353
30
0
41
1
10
-2.19999999999993
20
21.1124192921534
30
0
41
1
10
-2.19999999999993
20
18.6111604207771
30
0
41
1
10
-2.19999999999993
20
15.9398101657229
30
0
41
1
10
-2.19999999999996
20
13.5716364167829
30
0
41
1
10
-2.19999999999996
20
11.5912225613334
30
0
41
1
10
-2.19999999999996
20
10.0625587489356
30
0
41
1
10
-2.19999999999996
20
8.49027928497594
30
0
41
1
10
-2.19999999999999
20
6.8741257988703
30
0
41
1
10
-2.19999999999999
20
5.21416685618908
30
0
41
1
10
-2.19999999999999
20
3.51137573607468
30
0
41
1
10
-2.19999999999999
20
2.05962586413813
30
0
41
1
10
-2.19999999999999
20
0.88485774265564
30
0
41
1
10
-2.19999999999999
20
2.16043077E-08
30
0
41
1
10
-2.20000000000002
20
-0.884857708103027
30
0
41
1
10
-2.20000000000002
20
-2.0596258002638
30
0
41
1
10
-2.20000000000002
20
-3.5113756574965
30
0
41
1
10
-2.20000000000002
20
-5.21416680688048
30
0
41
1
10
-2.20000000000002
20
-6.87412587722235
30
0
41
1
10
-2.20000000000005
20
-8.49027898646239
30
0
41
1
10
-2.20000000000005
20
-10.0625588764647
30
0
41
1
10
-2.20000000000005
20
-11.5912222916892
30
0
41
1
10
-2.20000000000005
20
-13.5716365551607
30
0
41
1
10
-2.20000000000005
20
-15.9398103008149
30
0
41
1
10
-2.20000000000007
20
-18.6111602249392
30
0
41
1
10
-2.20000000000007
20
-21.1124192028391
30
0
41
1
10
-2.20000000000007
20
-23.4426615948154
30
0
41
1
10
-2.2000000000001
20
-25.5997270679032
30
0
41
1
10
-2.2000000000001
20
-27.5802649658272
30
0
41
1
10
-2.2000000000001
20
-29.3795914920701
30
0
41
1
10
-2.2000000000001
20
-30.991520149686
30
0
41
1
10
-2.20000000000013
20
-32.4080742253461
30
0
41
1
10
-2.20000000000013
20
-33.61910127367
30
0
41
1
10
-2.20000000000013
20
-34.6115349274623
30
0
41
1
10
-2.20000000000013
20
-35.3682882084331
30
0
41
1
10
-2.20000000000016
20
-35.8259684053149
30
0
41
1
10
-2.20000000000016
20
-35.9683620850311
30
0
41
1
10
-2.20000000000013
20
-35.9985346756134
30
0
0
SPLINE
5
1A0
100
AcDbEntity
8
SK1
62
256
6
ByLayer
370
18
48
1
60
0
100
AcDbSpline
70
4
71
3
72
53
73
49
40
0
40
0
40
0
40
0
40
0.0213321388699042
40
0.0494890689582035
40
0.0776459990465029
40
0.105802929134802
40
0.133959859223102
40
0.162116789311401
40
0.1902737193997
40
0.218430649488
40
0.246587579576299
40
0.274744509664598
40
0.302901439752898
40
0.331058369841197
40
0.359215299929496
40
0.387372230017796
40
0.401450695061945
40
0.415529160106095
40
0.429607625150245
40
0.443686090194394
40
0.457764555238544
40
0.471843020282694
40
0.485921485326843
40
0.492960717848918
40
0.499999950370993
40
0.507039182893068
40
0.514078415415143
40
0.528156880459293
40
0.542235345503442
40
0.556313810547592
40
0.570392275591741
40
0.584470740635891
40
0.598549205680041
40
0.61262767072419
40
0.64078460081249
40
0.668941530900789
40
0.697098460989088
40
0.725255391077388
40
0.753412321165687
40
0.781569251253987
40
0.809726181342286
40
0.837883111430585
40
0.866040041518884
40
0.894196971607184
40
0.922353901695483
40
0.950510831783783
40
0.978667761872082
40
1
40
1
40
1
40
1
41
1
10
-57.9999999999999
20
34.5977983365372
30
0
41
1
10
-57.9999999999999
20
34.5687765972932
30
0
41
1
10
-57.9999999999999
20
34.4314143242297
30
0
41
1
10
-57.9999999999999
20
33.9876977370147
30
0
41
1
10
-57.9999999999999
20
33.2524068213664
30
0
41
1
10
-57.9999999999999
20
32.2863061344951
30
0
41
1
10
-57.9999999999999
20
31.1059278263756
30
0
41
1
10
-57.9999999999999
20
29.7241238367491
30
0
41
1
10
-57.9999999999999
20
28.1510632386217
30
0
41
1
10
-57.9999999999999
20
26.3949365568698
30
0
41
1
10
-57.9999999999999
20
24.4623556934106
30
0
41
1
10
-57.9999999999999
20
22.3586727420947
30
0
41
1
10
-57.9999999999999
20
20.088229434133
30
0
41
1
10
-57.9999999999999
20
17.6546655565837
30
0
41
1
10
-57.9999999999999
20
15.0611717780169
30
0
41
1
10
-57.9999999999999
20
12.7726263697316
30
0
41
1
10
-58
20
10.8578399578044
30
0
41
1
10
-58
20
9.3884172423019
30
0
41
1
10
-58
20
7.88346485051159
30
0
41
1
10
-58
20
6.34545685846496
30
0
41
1
10
-58
20
4.77871390718593
30
0
41
1
10
-58
20
3.19095602751759
30
0
41
1
10
-58
20
1.86425397420436
30
0
41
1
10
-58
20
0.794733559135977
30
0
41
1
10
-58
20
1.3330919E-09
30
0
41
1
10
-58
20
-0.794733391997454
30
0
41
1
10
-58
20
-1.86425377524557
30
0
41
1
10
-58
20
-3.19095602522771
30
0
41
1
10
-58
20
-4.77871400499004
30
0
41
1
10
-58
20
-6.34545669175338
30
0
41
1
10
-58
20
-7.88346458723669
30
0
41
1
10
-58.0000000000001
20
-9.3884174138451
30
0
41
1
10
-58.0000000000001
20
-10.8578396203575
30
0
41
1
10
-58.0000000000001
20
-12.772626677226
30
0
41
1
10
-58.0000000000001
20
-15.0611718177695
30
0
41
1
10
-58.0000000000001
20
-17.6546653167194
30
0
41
1
10
-58.0000000000001
20
-20.0882294075913
30
0
41
1
10
-58.0000000000001
20
-22.3586728578046
30
0
41
1
10
-58.0000000000001
20
-24.4623555033231
30
0
41
1
10
-58.0000000000001
20
-26.3949367347439
30
0
41
1
10
-58.0000000000001
20
-28.1510631577775
30
0
41
1
10
-58.0000000000001
20
-29.724124019337
30
0
41
1
10
-58.0000000000001
20
-31.1059278405836
30
0
41
1
10
-58.0000000000001
20
-32.2863061107906
30
0
41
1
10
-58.0000000000001
20
-33.2524074165479
30
0
41
1
10
-58.0000000000001
20
-33.9876978128523
30
0
41
1
10
-58.0000000000001
20
-34.4314146242422
30
0
41
1
10
-58.0000000000001
20
-34.5687769379023
30
0
41
1
10
-58.0000000000001
20
-34.5977986634148
30
0
0
SPLINE
5
1A1
100
AcDbEntity
8
1
62
256
6
ByLayer
370
18
48
1
60
0
100
AcDbSpline
70
4
71
3
72
30
73
26
40
0
40
0
40
0
40
0
40
0.125000000000002
40
0.125000000000002
40
0.187500000000009
40
0.187500000000009
40
0.250000000000017
40
0.312500000000024
40
0.312500000000024
40
0.375000000000032
40
0.375000000000032
40
0.437500000000039
40
0.437500000000039
40
0.500000000000047
40
0.500000000000047
40
0.625000000000044
40
0.625000000000044
40
0.687500000000035
40
0.687500000000035
40
0.750000000000025
40
0.812500000000016
40
0.812500000000016
40
0.875000000000006
40
0.875000000000006
40
1
40
1
40
1
40
1
41
1
10
754.656721420743
20
37.0090355525327
30
0
41
1
10
754.640602353637
20
37.0128519005872
30
0
41
1
10
754.626277616816
20
37.0174226933656
30
0
41
1
10
754.607245357999
20
37.0253035494962
30
0
41
1
10
754.601286994159
20
37.0281234701428
30
0
41
1
10
754.590498161733
20
37.0339612331603
30
0
41
1
10
754.580766758371
20
37.040017682988
30
0
41
1
10
754.573066008387
20
37.0464918607156
30
0
41
1
10
754.566391336294
20
37.0531761469539
30
0
41
1
10
754.563617417913
20
37.0565760027888
30
0
41
1
10
754.5591875419
20
37.0634320733307
30
0
41
1
10
754.557523102602
20
37.0668969628439
30
0
41
1
10
754.555289028136
20
37.0738995990256
30
0
41
1
10
754.554720612949
20
37.0774593078805
30
0
41
1
10
754.554723038941
20
37.0880815626042
30
0
41
1
10
754.556941298356
20
37.0950351298313
30
0
41
1
10
754.563598982513
20
37.1052750920087
30
0
41
1
10
754.566406004185
20
37.1086774170913
30
0
41
1
10
754.573045973629
20
37.1152488519093
30
0
41
1
10
754.580713605118
20
37.1216141393885
30
0
41
1
10
754.590436047902
20
37.1275691481898
30
0
41
1
10
754.601239077658
20
37.1333095680265
30
0
41
1
10
754.607206102714
20
37.1360769061745
30
0
41
1
10
754.626245190844
20
37.1437911674079
30
0
41
1
10
754.640581647455
20
37.1482519203005
30
0
41
1
10
754.656721420743
20
37.1519698464422
30
0
0
SPLINE
5
1A2
100
AcDbEntity
8
1
62
256
6
ByLayer
370
18
48
1
60
0
100
AcDbSpline
70
4
71
3
72
30
73
26
40
0
40
0
40
0
40
0
40
0.125000000000015
40
0.125000000000015
40
0.187500000000012
40
0.187500000000012
40
0.250000000000009
40
0.312500000000007
40
0.312500000000007
40
0.375000000000005
40
0.375000000000005
40
0.437500000000002
40
0.437500000000002
40
0.499999999999999
40
0.499999999999999
40
0.625000000000021
40
0.625000000000021
40
0.68750000000002
40
0.68750000000002
40
0.750000000000019
40
0.812500000000019
40
0.812500000000019
40
0.875000000000018
40
0.875000000000018
40
1
40
1
40
1
40
1
41
1
10
754.656721420743
20
37.5892101549865
30
0
41
1
10
754.64071351971
20
37.5925728765223
30
0
41
1
10
754.626440539663
20
37.5966033085483
30
0
41
1
10
754.607435213491
20
37.6035669056872
30
0
41
1
10
754.601475936926
20
37.6060611136694
30
0
41
1
10
754.590673121451
20
37.6112299642538
30
0
41
1
10
754.580917659172
20
37.6165966052253
30
0
41
1
10
754.573182094384
20
37.6223424936285
30
0
41
1
10
754.566471586545
20
37.6282798811789
30
0
41
1
10
754.563677715355
20
37.6313045315092
30
0
41
1
10
754.559217926544
20
37.6374025543639
30
0
41
1
10
754.557541577924
20
37.640485244904
30
0
41
1
10
754.555291631357
20
37.6467172829099
30
0
41
1
10
754.554719362912
20
37.6498868873064
30
0
41
1
10
754.554725553267
20
37.6593411184784
30
0
41
1
10
754.556964597826
20
37.6655275720326
30
0
41
1
10
754.563679395236
20
37.6746343229926
30
0
41
1
10
754.566508456338
20
37.6776568080754
30
0
41
1
10
754.5731843213
20
37.6834837004034
30
0
41
1
10
754.580889503141
20
37.6891255308556
30
0
41
1
10
754.590650294527
20
37.6943996619834
30
0
41
1
10
754.601491835259
20
37.6994816366811
30
0
41
1
10
754.607449201922
20
37.7019179797377
30
0
41
1
10
754.62642860182
20
37.7087066538045
30
0
41
1
10
754.64069577097
20
37.7126281327959
30
0
41
1
10
754.656721420743
20
37.7158965944578
30
0
0
SPLINE
5
1A3
100
AcDbEntity
8
1
62
256
6
ByLayer
370
18
48
1
60
0
100
AcDbSpline
70
4
71
3
72
30
73
26
40
0
40
0
40
0
40
0
40
0.125000000000005
40
0.125000000000005
40
0.187500000000008
40
0.187500000000008
40
0.250000000000011
40
0.312500000000013
40
0.312500000000013
40
0.375000000000016
40
0.375000000000016
40
0.437500000000018
40
0.437500000000018
40
0.500000000000021
40
0.500000000000021
40
0.625000000000023
40
0.625000000000023
40
0.687500000000019
40
0.687500000000019
40
0.750000000000015
40
0.812500000000011
40
0.812500000000011
40
0.875000000000007
40
0.875000000000007
40
1
40
1
40
1
40
1
41
1
10
754.656721420743
20
38.1015580734286
30
0
41
1
10
754.640809561535
20
38.1044940059641
30
0
41
1
10
754.626582172788
20
38.1080149218649
30
0
41
1
10
754.607601117664
20
38.1141087161351
30
0
41
1
10
754.601641373801
20
38.1162932022506
30
0
41
1
10
754.590826716726
20
38.120824251103
30
0
41
1
10
754.581050468577
20
38.1255317604491
30
0
41
1
10
754.5732844173
20
38.1305786858712
30
0
41
1
10
754.566542410327
20
38.1357975620943
30
0
41
1
10
754.563730859775
20
38.1384598044678
30
0
41
1
10
754.55924459517
20
38.1438259276437
30
0
41
1
10
754.557557714575
20
38.1465392382765
30
0
41
1
10
754.555293783502
20
38.1520257745421
30
0
41
1
10
754.554718157371
20
38.1548173701461
30
0
41
1
10
754.554727989716
20
38.163140928094
30
0
41
1
10
754.556985855833
20
38.1685851157378
30
0
41
1
10
754.563752001645
20
38.1765958318279
30
0
41
1
10
754.566599933363
20
38.1792510851604
30
0
41
1
10
754.573308101775
20
38.1843631060361
30
0
41
1
10
754.581046682816
20
38.1893108479912
30
0
41
1
10
754.590842413094
20
38.1939324990251
30
0
41
1
10
754.601718594197
20
38.1983840273891
30
0
41
1
10
754.607659942825
20
38.2005049586334
30
0
41
1
10
754.626587499829
20
38.2064203256218
30
0
41
1
10
754.640794503405
20
38.2098340185137
30
0
41
1
10
754.656721420743
20
38.2126791572733
30
0
0
SPLINE
5
1A4
100
AcDbEntity
8
1
62
256
6
ByLayer
370
18
48
1
60
0
100
AcDbSpline
70
4
71
3
72
30
73
26
40
0
40
0
40
0
40
0
40
0.124999999999995
40
0.124999999999995
40
0.187499999999996
40
0.187499999999996
40
0.249999999999998
40
0.312499999999999
40
0.312499999999999
40
0.375
40
0.375
40
0.437500000000001
40
0.437500000000001
40
0.500000000000002
40
0.500000000000002
40
0.625000000000004
40
0.625000000000004
40
0.687500000000003
40
0.687500000000003
40
0.750000000000002
40
0.812500000000002
40
0.812500000000002
40
0.875000000000001
40
0.875000000000001
40
1
40
1
40
1
40
1
41
1
10
754.656721420743
20
38.548783835161
30
0
41
1
10
754.640891734473
20
38.5513150953304
30
0
41
1
10
754.626703981251
20
38.5543520128607
30
0
41
1
10
754.607744414815
20
38.559615460137
30
0
41
1
10
754.601784506389
20
38.5615035591898
30
0
41
1
10
754.590959890907
20
38.5654227477693
30
0
41
1
10
754.581165854097
20
38.569496723755
30
0
41
1
10
754.573373410908
20
38.5738691635381
30
0
41
1
10
754.566604049417
20
38.5783932062631
30
0
41
1
10
754.563777046531
20
38.580703668381
30
0
41
1
10
754.559267662225
20
38.5853595936032
30
0
41
1
10
754.557571595483
20
38.5877141560813
30
0
41
1
10
754.55529551779
20
38.5924759856041
30
0
41
1
10
754.554717012765
20
38.5948995928499
30
0
41
1
10
754.554730313471
20
38.6021232969869
30
0
41
1
10
754.557004982676
20
38.606845757212
30
0
41
1
10
754.563816644241
20
38.6137912164918
30
0
41
1
10
754.56668063148
20
38.6160901591463
30
0
41
1
10
754.573417423833
20
38.6205118110102
30
0
41
1
10
754.581186006756
20
38.6247896318513
30
0
41
1
10
754.591012273654
20
38.62878246668
30
0
41
1
10
754.601919101002
20
38.6326267897755
30
0
41
1
10
754.607841050941
20
38.6344468098399
30
0
41
1
10
754.62672393754
20
38.6395318883292
30
0
41
1
10
754.640879154118
20
38.6424637070025
30
0
41
1
10
754.656721420743
20
38.6449070490485
30
0
0
SPLINE
5
1A5
100
AcDbEntity
8
1
62
256
6
ByLayer
370
18
48
1
60
0
100
AcDbSpline
70
4
71
3
72
32
73
28
40
0
40
0
40
0
40
0
40
0.125000000000001
40
0.125000000000001
40
0.187500000000002
40
0.187500000000002
40
0.250000000000002
40
0.312500000000003
40
0.312500000000003
40
0.375000000000004
40
0.375000000000004
40
0.437500000000004
40
0.437500000000004
40
0.500000000000005
40
0.500000000000005
40
0.625000000000006
40
0.625000000000006
40
0.687500000000005
40
0.687500000000005
40
0.750000000000004
40
0.812500000000003
40
0.812500000000003
40
0.875000000000002
40
0.875000000000002
40
0.937500000000001
40
0.937500000000001
40
1
40
1
40
1
40
1
41
1
10
754.656721420743
20
38.9331316839152
30
0
41
1
10
754.640971952476
20
38.935274924899
30
0
41
1
10
754.62682677741
20
38.9378467707196
30
0
41
1
10
754.607895698329
20
38.9423085322213
30
0
41
1
10
754.601938422902
20
38.9439098496155
30
0
41
1
10
754.591108742808
20
38.9472358134
30
0
41
1
10
754.581301609264
20
38.9506944546673
30
0
41
1
10
754.57348585951
20
38.9544093369535
30
0
41
1
10
754.566690729565
20
38.9582546005091
30
0
41
1
10
754.563847732452
20
38.9602206945851
30
0
41
1
10
754.559312314852
20
38.9641812064152
30
0
41
1
10
754.557604568207
20
38.9661841988175
30
0
41
1
10
754.555308834964
20
38.9702352108211
30
0
41
1
10
754.554722308138
20
38.9722973061477
30
0
41
1
10
754.554719649006
20
38.9784428863932
30
0
41
1
10
754.556993800837
20
38.9824582144804
30
0
41
1
10
754.563816371114
20
38.988360516843
30
0
41
1
10
754.566683910637
20
38.9903119228286
30
0
41
1
10
754.573425162144
20
38.9940626308262
30
0
41
1
10
754.581198008567
20
38.9976899212825
30
0
41
1
10
754.59102614296
20
39.0010731588591
30
0
41
1
10
754.601932514172
20
39.0043294949573
30
0
41
1
10
754.607830555937
20
39.0058649303706
30
0
41
1
10
754.620405895002
20
39.0087340404936
30
0
41
1
10
754.62709640638
20
39.0100716564357
30
0
41
1
10
754.641296557258
20
39.0125509819886
30
0
41
1
10
754.648842390087
20
39.0136970867236
30
0
41
1
10
754.656721420743
20
39.0147258516893
30
0
0
SPLINE
5
1A6
100
AcDbEntity
8
1
62
256
6
ByLayer
370
18
48
1
60
0
100
AcDbSpline
70
4
71
3
72
31
73
27
40
0
40
0
40
0
40
0
40
0.124999999999996
40
0.124999999999996
40
0.187499999999996
40
0.187499999999996
40
0.249999999999997
40
0.312499999999997
40
0.312499999999997
40
0.374999999999997
40
0.374999999999997
40
0.437499999999997
40
0.437499999999997
40
0.499999999999997
40
0.499999999999997
40
0.624999999999998
40
0.624999999999998
40
0.687499999999995
40
0.687499999999995
40
0.749999999999993
40
0.749999999999993
40
0.874999999999995
40
0.874999999999995
40
0.937499999999998
40
0.937499999999998
40
1
40
1
40
1
40
1
41
1
10
754.656721420743
20
39.2564485182269
30
0
41
1
10
754.64103150191
20
39.2582199396317
30
0
41
1
10
754.626916424299
20
39.2603458580514
30
0
41
1
10
754.608003135698
20
39.2640364817079
30
0
41
1
10
754.602046547765
20
39.2653614931958
30
0
41
1
10
754.59121078376
20
39.2681146646171
30
0
41
1
10
754.581391643769
20
39.2709783557228
30
0
41
1
10
754.573556990445
20
39.2740556541567
30
0
41
1
10
754.566741851817
20
39.2772417481003
30
0
41
1
10
754.563887166616
20
39.278871990878
30
0
41
1
10
754.559333827546
20
39.2821547980204
30
0
41
1
10
754.557618697147
20
39.2838149462359
30
0
41
1
10
754.555312381213
20
39.2871723211864
30
0
41
1
10
754.554722687134
20
39.2888813890403
30
0
41
1
10
754.554718894148
20
39.2939729508705
30
0
41
1
10
754.557002408548
20
39.2972971674733
30
0
41
1
10
754.563852522632
20
39.3021801889518
30
0
41
1
10
754.566729189178
20
39.3037924582493
30
0
41
1
10
754.573487230804
20
39.3068893215274
30
0
41
1
10
754.577382246936
20
39.3083861155361
30
0
41
1
10
754.590609184949
20
39.3127235783377
30
0
41
1
10
754.601646687484
20
39.3154368197017
30
0
41
1
10
754.620484873578
20
39.318974322453
30
0
41
1
10
754.627165270124
20
39.320073616289
30
0
41
1
10
754.641341376657
20
39.3221109954995
30
0
41
1
10
754.648873070465
20
39.3230525112654
30
0
41
1
10
754.656721420743
20
39.3238963702144
30
0
0
SPLINE
5
1A7
100
AcDbEntity
8
1
62
256
6
ByLayer
370
18
48
1
60
0
100
AcDbSpline
70
4
71
3
72
32
73
28
40
0
40
0
40
0
40
0
40
0.125000000000004
40
0.125000000000004
40
0.187500000000004
40
0.187500000000004
40
0.250000000000005
40
0.312500000000005
40
0.312500000000005
40
0.375000000000005
40
0.375000000000005
40
0.437500000000005
40
0.437500000000005
40
0.500000000000005
40
0.500000000000005
40
0.625000000000004
40
0.625000000000004
40
0.687500000000003
40
0.687500000000003
40
0.750000000000002
40
0.750000000000002
40
0.812500000000002
40
0.812500000000002
40
0.875000000000001
40
0.937500000000001
40
0.937500000000001
40
1
40
1
40
1
40
1
41
1
10
754.656721420743
20
39.520232259076
30
0
41
1
10
754.6410792586
20
39.5216437269874
30
0
41
1
10
754.626988471535
20
39.5233375478939
30
0
41
1
10
754.608089602086
20
39.526278717593
30
0
41
1
10
754.60213361747
20
39.5273348113798
30
0
41
1
10
754.591292994527
20
39.5295295694801
30
0
41
1
10
754.581464163203
20
39.5318125413665
30
0
41
1
10
754.573614262792
20
39.5342659165552
30
0
41
1
10
754.566782943265
20
39.5368060651756
30
0
41
1
10
754.563918796352
20
39.5381063242288
30
0
41
1
10
754.559350967655
20
39.5407233974854
30
0
41
1
10
754.557629885325
20
39.542046561533
30
0
41
1
10
754.555315093489
20
39.544721748627
30
0
41
1
10
754.554722902319
20
39.5460833166494
30
0
41
1
10
754.554718466022
20
39.5501375517919
30
0
41
1
10
754.557009824645
20
39.5527818167561
30
0
41
1
10
754.563882686171
20
39.5566623220022
30
0
41
1
10
754.566766687545
20
39.5579418527527
30
0
41
1
10
754.573538530935
20
39.560397990649
30
0
41
1
10
754.577440682516
20
39.5615844208149
30
0
41
1
10
754.586272882942
20
39.5638752899977
30
0
41
1
10
754.591211067504
20
39.5649813496121
30
0
41
1
10
754.602130379889
20
39.567102045887
30
0
41
1
10
754.613877215372
20
39.5690903965705
30
0
41
1
10
754.627222066325
20
39.5708254755783
30
0
41
1
10
754.64137915318
20
39.5724329976338
30
0
41
1
10
754.648897722644
20
39.5731753905852
30
0
41
1
10
754.656721420743
20
39.5738400738195
30
0
0
SPLINE
5
1A8
100
AcDbEntity
8
1
62
256
6
ByLayer
370
18
48
1
60
0
100
AcDbSpline
70
4
71
3
72
32
73
28
40
0
40
0
40
0
40
0
40
0.124999999999988
40
0.124999999999988
40
0.187499999999985
40
0.187499999999985
40
0.249999999999981
40
0.312499999999978
40
0.312499999999978
40
0.374999999999974
40
0.374999999999974
40
0.437499999999971
40
0.437499999999971
40
0.499999999999967
40
0.499999999999967
40
0.624999999999971
40
0.624999999999971
40
0.687499999999976
40
0.687499999999976
40
0.749999999999981
40
0.749999999999981
40
0.812499999999986
40
0.812499999999986
40
0.87499999999999
40
0.937499999999995
40
0.937499999999995
40
1
40
1
40
1
40
1
41
1
10
754.656721420743
20
39.725668847213
30
0
41
1
10
754.641115750474
20
39.7267295341763
30
0
41
1
10
754.627043566459
20
39.7280019619805
30
0
41
1
10
754.608155712048
20
39.7302104944505
30
0
41
1
10
754.602200186277
20
39.7310034083711
30
0
41
1
10
754.591355813838
20
39.7326509200473
30
0
41
1
10
754.581519522906
20
39.7343642259331
30
0
41
1
10
754.573657872465
20
39.7362042875288
30
0
41
1
10
754.566814104628
20
39.7381087553312
30
0
41
1
10
754.563942694826
20
39.7390835804315
30
0
41
1
10
754.559363772204
20
39.7410441865271
30
0
41
1
10
754.557638156617
20
39.7420349001047
30
0
41
1
10
754.555316977939
20
39.7440367511569
30
0
41
1
10
754.554722956737
20
39.7450550893638
30
0
41
1
10
754.554718357791
20
39.748084877293
30
0
41
1
10
754.557016027087
20
39.7500578066149
30
0
41
1
10
754.56390683421
20
39.752948744261
30
0
41
1
10
754.566796479186
20
39.7539005569251
30
0
41
1
10
754.573579113817
20
39.7557260983448
30
0
41
1
10
754.577486830318
20
39.7566071822485
30
0
41
1
10
754.586330119041
20
39.7583071950502
30
0
41
1
10
754.591280544939
20
39.7591282720041
30
0
41
1
10
754.602194671056
20
39.7606973795764
30
0
41
1
10
754.613933926823
20
39.7621676376207
30
0
41
1
10
754.627266656539
20
39.7634492789203
30
0
41
1
10
754.64140926791
20
39.7646362213507
30
0
41
1
10
754.648916661507
20
39.7651838714899
30
0
41
1
10
754.656721420743
20
39.7656737732573
30
0
0
SPLINE
5
1A9
100
AcDbEntity
8
1
62
256
6
ByLayer
370
18
48
1
60
0
100
AcDbSpline
70
4
71
3
72
32
73
28
40
0
40
0
40
0
40
0
40
0.125000000000001
40
0.125000000000001
40
0.1875
40
0.1875
40
0.249999999999999
40
0.312499999999998
40
0.312499999999998
40
0.374999999999997
40
0.374999999999997
40
0.437499999999996
40
0.437499999999996
40
0.499999999999995
40
0.499999999999995
40
0.624999999999996
40
0.624999999999996
40
0.687499999999997
40
0.687499999999997
40
0.749999999999997
40
0.749999999999997
40
0.812499999999998
40
0.812499999999998
40
0.874999999999999
40
0.937499999999999
40
0.937499999999999
40
1
40
1
40
1
40
1
41
1
10
754.656721420743
20
39.8736601393143
30
0
41
1
10
754.641141370995
20
39.8743767678536
30
0
41
1
10
754.627082193418
20
39.8752356513384
30
0
41
1
10
754.608201925526
20
39.8767238867602
30
0
41
1
10
754.602246668732
20
39.8772578344371
30
0
41
1
10
754.591399568678
20
39.8783662991054
30
0
41
1
10
754.58155794006
20
39.8795180547751
30
0
41
1
10
754.573687962235
20
39.8807525839513
30
0
41
1
10
754.56683540672
20
39.8820288940613
30
0
41
1
10
754.563958912054
20
39.8826816194181
30
0
41
1
10
754.559372264999
20
39.883992536221
30
0
41
1
10
754.557643525588
20
39.8846541129905
30
0
41
1
10
754.555318037367
20
39.8859890926399
30
0
41
1
10
754.554722851834
20
39.8866673156724
30
0
41
1
10
754.55471856639
20
39.8886820558253
30
0
41
1
10
754.557021003235
20
39.8899899366629
30
0
41
1
10
754.563924953682
20
39.8919007527828
30
0
41
1
10
754.566818625078
20
39.8925285581329
30
0
41
1
10
754.573609026452
20
39.8937308943075
30
0
41
1
10
754.577520728759
20
39.8943102921269
30
0
41
1
10
754.586371935734
20
39.8954266795174
30
0
41
1
10
754.591330634655
20
39.8959654703236
30
0
41
1
10
754.602241024922
20
39.8969919891622
30
0
41
1
10
754.613974908168
20
39.8979525595082
30
0
41
1
10
754.627298936843
20
39.8987880636935
30
0
41
1
10
754.641431270369
20
39.8995611457202
30
0
41
1
10
754.648930121626
20
39.8999173278402
30
0
41
1
10
754.656721420743
20
39.9002356270487
30
0
0
SPLINE
5
1AA
100
AcDbEntity
8
1
62
256
6
ByLayer
370
18
48
1
60
0
100
AcDbSpline
70
4
71
3
72
32
73
28
40
0
40
0
40
0
40
0
40
0.125000000000003
40
0.125000000000003
40
0.187500000000004
40
0.187500000000004
40
0.250000000000005
40
0.312500000000005
40
0.312500000000005
40
0.375000000000006
40
0.375000000000006
40
0.437500000000007
40
0.437500000000007
40
0.500000000000008
40
0.500000000000008
40
0.625000000000009
40
0.625000000000009
40
0.687500000000008
40
0.687500000000008
40
0.750000000000006
40
0.750000000000006
40
0.812500000000005
40
0.812500000000005
40
0.875000000000003
40
0.937500000000002
40
0.937500000000002
40
1
40
1
40
1
40
1
41
1
10
754.656721420743
20
39.9648443066235
30
0
41
1
10
754.641156390664
20
39.9652213215923
30
0
41
1
10
754.627104684896
20
39.9656718452912
30
0
41
1
10
754.608228556068
20
39.9664479246712
30
0
41
1
10
754.602273346304
20
39.9667256851749
30
0
41
1
10
754.591424478695
20
39.9673005084347
30
0
41
1
10
754.581579622257
20
39.9678960578935
30
0
41
1
10
754.573704623012
20
39.9685301696283
30
0
41
1
10
754.566846890946
20
39.969183258206
30
0
41
1
10
754.56396747569
20
39.9695160745139
30
0
41
1
10
754.559376457127
20
39.9701817430324
30
0
41
1
10
754.557645997884
20
39.9705163516389
30
0
41
1
10
754.555318271427
20
39.9711886856426
30
0
41
1
10
754.55472258757
20
39.971528824896
30
0
41
1
10
754.554719092291
20
39.9725346713068
30
0
41
1
10
754.557024749184
20
39.9731816136276
30
0
41
1
10
754.563937043987
20
39.9741184725494
30
0
41
1
10
754.566833176598
20
39.974424722274
30
0
41
1
10
754.573628312202
20
39.9750086844383
30
0
41
1
10
754.577542416014
20
39.9752887850737
30
0
41
1
10
754.586398361139
20
39.9758262597713
30
0
41
1
10
754.591361877309
20
39.9760845987541
30
0
41
1
10
754.602269803662
20
39.9765743650943
30
0
41
1
10
754.614000126158
20
39.9770307132055
30
0
41
1
10
754.627318838096
20
39.9774247746813
30
0
41
1
10
754.64144485474
20
39.9777883329626
30
0
41
1
10
754.648938266171
20
39.977955206756
30
0
41
1
10
754.656721420743
20
39.9781039513743
30
0
0
SPLINE
5
1AB
100
AcDbEntity
8
1
62
256
6
ByLayer
370
18
48
1
60
0
100
AcDbSpline
70
4
71
3
72
21
73
17
40
0
40
0
40
0
40
0
40
0.249356511086554
40
0.249356511086554
40
0.374034766629831
40
0.374034766629831
40
0.498713022173109
40
0.623391277716386
40
0.623391277716386
40
0.748069533259663
40
0.748069533259663
40
0.87274778880294
40
0.87274778880294
40
0.997426044346218
40
0.997426044346218
40
1
40
1
40
1
40
1
41
1
10
754.656721420743
20
39.9996098480945
30
0
41
1
10
754.641160964732
20
39.9996495276443
30
0
41
1
10
754.627111228963
20
39.9996943350388
30
0
41
1
10
754.608235776258
20
39.9997623785757
30
0
41
1
10
754.602280371707
20
39.9997853540867
30
0
41
1
10
754.59143065899
20
39.9998292592626
30
0
41
1
10
754.581584474447
20
39.9998712896966
30
0
41
1
10
754.573707894504
20
39.9999075279224
30
0
41
1
10
754.566848569447
20
39.9999398428112
30
0
41
1
10
754.563968391395
20
39.9999538433562
30
0
41
1
10
754.559376347186
20
39.9999764648248
30
0
41
1
10
754.557645570409
20
39.9999851767801
30
0
41
1
10
754.555317676721
20
39.9999969466014
30
0
41
1
10
754.554726051363
20
39.9999999762995
30
0
41
1
10
754.554719569445
20
40.0000000096356
30
0
41
1
10
754.554720830721
20
40.0000000030928
30
0
41
1
10
754.554721830807
20
39.9999999978954
30
0
0
SPLINE
5
1AC
100
AcDbEntity
8
1
62
256
6
ByLayer
370
18
48
1
60
0
100
AcDbSpline
70
4
71
3
72
21
73
17
40
0
40
0
40
0
40
0
40
0.0014213502759464
40
0.0014213502759464
40
0.25106601270696
40
0.25106601270696
40
0.375888343922467
40
0.375888343922467
40
0.500710675137973
40
0.500710675137973
40
0.62553300635348
40
0.62553300635348
40
0.750355337568987
40
0.875177668784493
40
0.875177668784493
40
1
40
1
40
1
40
1
41
1
10
754.554721916831
20
-39.9999999975531
30
0
41
1
10
754.554720916745
20
-40.0000000026781
30
0
41
1
10
754.554719916658
20
-40.000000007813
30
0
41
1
10
754.554709938514
20
-40.0000000590608
30
0
41
1
10
754.557027269406
20
-39.9999880409247
30
0
41
1
10
754.56394311579
20
-39.9999539658999
30
0
41
1
10
754.566840177519
20
-39.9999398857391
30
0
41
1
10
754.573637011289
20
-39.9999078585172
30
0
41
1
10
754.577551929536
20
-39.99988983449
30
0
41
1
10
754.586409426881
20
-39.9998506973466
30
0
41
1
10
754.591374605254
20
-39.9998294898708
30
0
41
1
10
754.60228123195
20
-39.9997853468585
30
0
41
1
10
754.614009941006
20
-39.9997400987154
30
0
41
1
10
754.627326324791
20
-39.9996949838809
30
0
41
1
10
754.641449843113
20
-39.999651082918
30
0
41
1
10
754.648941192897
20
-39.9996296878746
30
0
41
1
10
754.656721420742
20
-39.9996098481001
30
0
0
SPLINE
5
1AD
100
AcDbEntity
8
1
62
256
6
ByLayer
370
18
48
1
60
0
100
AcDbSpline
70
4
71
3
72
32
73
28
40
0
40
0
40
0
40
0
40
0.125000000000006
40
0.125000000000006
40
0.187500000000004
40
0.187500000000004
40
0.250000000000003
40
0.312500000000001
40
0.312500000000001
40
0.375
40
0.375
40
0.437499999999998
40
0.437499999999998
40
0.499999999999997
40
0.499999999999997
40
0.624999999999994
40
0.624999999999994
40
0.687499999999995
40
0.687499999999995
40
0.749999999999996
40
0.749999999999996
40
0.812499999999997
40
0.812499999999997
40
0.874999999999998
40
0.937499999999999
40
0.937499999999999
40
1
40
1
40
1
40
1
41
1
10
754.656721420742
20
-39.97810395138
30
0
41
1
10
754.641155137494
20
-39.9778064626381
30
0
41
1
10
754.627101873318
20
-39.9774457175796
30
0
41
1
10
754.608223620457
20
-39.9768059128792
30
0
41
1
10
754.602267770985
20
-39.9765741571472
30
0
41
1
10
754.591418121289
20
-39.9760872402206
30
0
41
1
10
754.581572720605
20
-39.9755758210247
30
0
41
1
10
754.573697765202
20
-39.9750142224054
30
0
41
1
10
754.566840424842
20
-39.9744257710962
30
0
41
1
10
754.563961642764
20
-39.9741209745561
30
0
41
1
10
754.559371921193
20
-39.9735005577525
30
0
41
1
10
754.557642231255
20
-39.9731833707332
30
0
41
1
10
754.555316246768
20
-39.9725345594975
30
0
41
1
10
754.55472157365
20
-39.9722004986662
30
0
41
1
10
754.554721115016
20
-39.9711947117067
30
0
41
1
10
754.557028576743
20
-39.9705238324591
30
0
41
1
10
754.563943190627
20
-39.9695187739098
30
0
41
1
10
754.566839665532
20
-39.9691843793778
30
0
41
1
10
754.573635161489
20
-39.9685363565208
30
0
41
1
10
754.577549306191
20
-39.9682201908287
30
0
41
1
10
754.586405166896
20
-39.9676043826157
30
0
41
1
10
754.591368965779
20
-39.9673035727032
30
0
41
1
10
754.6022754131
20
-39.9667254533415
30
0
41
1
10
754.614004150545
20
-39.9661785167827
30
0
41
1
10
754.627321394232
20
-39.9656940764363
30
0
41
1
10
754.641446175646
20
-39.9652425609921
30
0
41
1
10
754.648938937653
20
-39.9650328133396
30
0
41
1
10
754.656721420742
20
-39.9648443066292
30
0
0
SPLINE
5
1AE
100
AcDbEntity
8
1
62
256
6
ByLayer
370
18
48
1
60
0
100
AcDbSpline
70
4
71
3
72
32
73
28
40
0
40
0
40
0
40
0
40
0.125
40
0.125
40
0.187499999999999
40
0.187499999999999
40
0.249999999999999
40
0.312499999999998
40
0.312499999999998
40
0.374999999999997
40
0.374999999999997
40
0.437499999999996
40
0.437499999999996
40
0.499999999999995
40
0.499999999999995
40
0.624999999999996
40
0.624999999999996
40
0.687499999999997
40
0.687499999999997
40
0.749999999999997
40
0.749999999999997
40
0.812499999999998
40
0.812499999999998
40
0.874999999999999
40
0.937499999999999
40
0.937499999999999
40
1
40
1
40
1
40
1
41
1
10
754.656721420742
20
-39.9002356270544
30
0
41
1
10
754.641138843403
20
-39.899599029491
30
0
41
1
10
754.627076526047
20
-39.8988304189639
30
0
41
1
10
754.608191984906
20
-39.8974790233718
30
0
41
1
10
754.602235443359
20
-39.8969912423179
30
0
41
1
10
754.591386773461
20
-39.895970972895
30
0
41
1
10
754.581544105968
20
-39.8949035744655
30
0
41
1
10
754.573674171626
20
-39.8937416501381
30
0
41
1
10
754.566822409516
20
-39.8925299994698
30
0
41
1
10
754.563947190751
20
-39.8919053506824
30
0
41
1
10
754.559363152165
20
-39.8906397119332
30
0
41
1
10
754.55763595937
20
-39.8899955497119
30
0
41
1
10
754.555313971854
20
-39.8886840419469
30
0
41
1
10
754.554720816702
20
-39.8880118347286
30
0
41
1
10
754.554722630226
20
-39.8859972651213
30
0
41
1
10
754.557028692757
20
-39.8846654364653
30
0
41
1
10
754.563937301325
20
-39.8826862714913
30
0
41
1
10
754.566831673587
20
-39.8820303661436
30
0
41
1
10
754.573622799239
20
-39.8807639518383
30
0
41
1
10
754.577534583178
20
-39.8801484383033
30
0
41
1
10
754.586385617866
20
-39.8789535398278
30
0
41
1
10
754.591344930576
20
-39.8783721051283
30
0
41
1
10
754.602252335862
20
-39.8772570337637
30
0
41
1
10
754.613983015836
20
-39.8762055719643
30
0
41
1
10
754.627304076893
20
-39.8752792666064
30
0
41
1
10
754.641433907491
20
-39.8744177595769
30
0
41
1
10
754.648931475664
20
-39.8740184499193
30
0
41
1
10
754.656721420742
20
-39.87366013932
30
0
0
SPLINE
5
1AF
100
AcDbEntity
8
1
62
256
6
ByLayer
370
18
48
1
60
0
100
AcDbSpline
70
4
71
3
72
32
73
28
40
0
40
0
40
0
40
0
40
0.125000000000006
40
0.125000000000006
40
0.187500000000006
40
0.187500000000006
40
0.250000000000007
40
0.312500000000008
40
0.312500000000008
40
0.375000000000008
40
0.375000000000008
40
0.437500000000009
40
0.437500000000009
40
0.500000000000009
40
0.500000000000009
40
0.625000000000011
40
0.625000000000011
40
0.687500000000009
40
0.687500000000009
40
0.750000000000007
40
0.750000000000007
40
0.812500000000006
40
0.812500000000006
40
0.875000000000004
40
0.937500000000002
40
0.937500000000002
40
1
40
1
40
1
40
1
41
1
10
754.656721420742
20
-39.765673773263
30
0
41
1
10
754.641111905047
20
-39.7646939699023
30
0
41
1
10
754.627034953123
20
-39.7635126482298
30
0
41
1
10
754.608140625136
20
-39.76144190534
30
0
41
1
10
754.602183158787
20
-39.7606954298194
30
0
41
1
10
754.591336417325
20
-39.7591365981573
30
0
41
1
10
754.581498487329
20
-39.7575080340065
30
0
41
1
10
754.57363699677
20
-39.7557407257266
30
0
41
1
10
754.566794444393
20
-39.7539009533082
30
0
41
1
10
754.563924972562
20
-39.7529543020457
30
0
41
1
10
754.559349999327
20
-39.7510390179196
30
0
41
1
10
754.557626723923
20
-39.7500657069265
30
0
41
1
10
754.555310838725
20
-39.748087242077
30
0
41
1
10
754.554719885604
20
-39.7470748146421
30
0
41
1
10
754.554724500121
20
-39.744045385023
30
0
41
1
10
754.557027648485
20
-39.7420484900468
30
0
41
1
10
754.563925493311
20
-39.7390889531802
30
0
41
1
10
754.566816231179
20
-39.738109109176
30
0
41
1
10
754.573599961273
20
-39.7362194650558
30
0
41
1
10
754.577507799844
20
-39.7353021822121
30
0
41
1
10
754.586350821375
20
-39.7335233628241
30
0
41
1
10
754.591302292767
20
-39.7326593362613
30
0
41
1
10
754.602211872921
20
-39.7310013488791
30
0
41
1
10
754.61394631017
20
-39.7294397176804
30
0
41
1
10
754.627274438318
20
-39.7280665442014
30
0
41
1
10
754.641413212508
20
-39.7267903899169
30
0
41
1
10
754.64891872067
20
-39.7261991815204
30
0
41
1
10
754.656721420742
20
-39.7256688472186
30
0
0
SPLINE
5
1B0
100
AcDbEntity
8
1
62
256
6
ByLayer
370
18
48
1
60
0
100
AcDbSpline
70
4
71
3
72
32
73
28
40
0
40
0
40
0
40
0
40
0.12499999999999
40
0.12499999999999
40
0.18749999999999
40
0.18749999999999
40
0.24999999999999
40
0.312499999999989
40
0.312499999999989
40
0.374999999999989
40
0.374999999999989
40
0.437499999999989
40
0.437499999999989
40
0.499999999999989
40
0.499999999999989
40
0.624999999999989
40
0.624999999999989
40
0.687499999999991
40
0.687499999999991
40
0.749999999999993
40
0.749999999999993
40
0.812499999999995
40
0.812499999999995
40
0.874999999999996
40
0.937499999999998
40
0.937499999999998
40
1
40
1
40
1
40
1
41
1
10
754.656721420742
20
-39.5738400738251
30
0
41
1
10
754.64107402786
20
-39.5725107076381
30
0
41
1
10
754.626976772487
20
-39.5709091792219
30
0
41
1
10
754.608069150564
20
-39.5681071454142
30
0
41
1
10
754.602110553105
20
-39.5670978748232
30
0
41
1
10
754.591266744628
20
-39.56499248231
30
0
41
1
10
754.581435722331
20
-39.5627947872406
30
0
41
1
10
754.573586067665
20
-39.5604143801592
30
0
41
1
10
754.566756417132
20
-39.5579389750556
30
0
41
1
10
754.563894899947
20
-39.5566670316098
30
0
41
1
10
754.559332406898
20
-39.5540953418407
30
0
41
1
10
754.55761448334
20
-39.5527895631314
30
0
41
1
10
754.555306830127
20
-39.5501376404093
30
0
41
1
10
754.55471877248
20
-39.5487818344909
30
0
41
1
10
754.55472674451
20
-39.5447282261887
30
0
41
1
10
754.557025485638
20
-39.5420599713132
30
0
41
1
10
754.563907826864
20
-39.5381105128205
30
0
41
1
10
754.566793365654
20
-39.5368030332697
30
0
41
1
10
754.573566686905
20
-39.5342827681917
30
0
41
1
10
754.577469000511
20
-39.5330600252809
30
0
41
1
10
754.586300827943
20
-39.5306899369787
30
0
41
1
10
754.591240650883
20
-39.5295404606125
30
0
41
1
10
754.602153770669
20
-39.5273304382992
30
0
41
1
10
754.613893949686
20
-39.5252500241616
30
0
41
1
10
754.627232582556
20
-39.5234223981326
30
0
41
1
10
754.641384393947
20
-39.5217245476113
30
0
41
1
10
754.648900521873
20
-39.5209379765963
30
0
41
1
10
754.656721420742
20
-39.5202322590816
30
0
0
SPLINE
5
1B1
100
AcDbEntity
8
1
62
256
6
ByLayer
370
18
48
1
60
0
100
AcDbSpline
70
4
71
3
72
31
73
27
40
0
40
0
40
0
40
0
40
0.124999999999997
40
0.124999999999997
40
0.187499999999995
40
0.187499999999995
40
0.249999999999994
40
0.312499999999993
40
0.312499999999993
40
0.374999999999991
40
0.374999999999991
40
0.437499999999989
40
0.437499999999989
40
0.499999999999988
40
0.499999999999988
40
0.624999999999994
40
0.624999999999994
40
0.687499999999992
40
0.687499999999992
40
0.749999999999991
40
0.749999999999991
40
0.874999999999993
40
0.874999999999993
40
0.937499999999997
40
0.937499999999997
40
1
40
1
40
1
40
1
41
1
10
754.656721420742
20
-39.32389637022
30
0
41
1
10
754.641024791275
20
-39.3222086599654
30
0
41
1
10
754.626901444449
20
-39.3201765943782
30
0
41
1
10
754.607977016029
20
-39.3166268666566
30
0
41
1
10
754.602017120554
20
-39.3153491806229
30
0
41
1
10
754.591177331023
20
-39.3126862682469
30
0
41
1
10
754.581355431569
20
-39.3099085475424
30
0
41
1
10
754.573521151932
20
-39.3069044941194
30
0
41
1
10
754.566708179639
20
-39.3037832016829
30
0
41
1
10
754.563856856799
20
-39.3021814667111
30
0
41
1
10
754.559310302404
20
-39.2989441222073
30
0
41
1
10
754.557599183964
20
-39.2973013362787
30
0
41
1
10
754.555301924165
20
-39.2939670657496
30
0
41
1
10
754.554717467303
20
-39.2922635657158
30
0
41
1
10
754.554729388771
20
-39.2871729861404
30
0
41
1
10
754.557022258312
20
-39.2838247497833
30
0
41
1
10
754.563884380446
20
-39.2788723137683
30
0
41
1
10
754.566763103532
20
-39.2772321761186
30
0
41
1
10
754.573523020993
20
-39.2740711724054
30
0
41
1
10
754.577418238416
20
-39.272537924423
30
0
41
1
10
754.590644435448
20
-39.2680808412305
30
0
41
1
10
754.601676556335
20
-39.2652737332473
30
0
41
1
10
754.620502283604
20
-39.2615961266261
30
0
41
1
10
754.627178656715
20
-39.2604498957247
30
0
41
1
10
754.641347902515
20
-39.25832072652
30
0
41
1
10
754.648876658455
20
-39.2573342066787
30
0
41
1
10
754.656721420742
20
-39.2564485182326
30
0
0
SPLINE
5
1B2
100
AcDbEntity
8
1
62
256
6
ByLayer
370
18
48
1
60
0
100
AcDbSpline
70
4
71
3
72
32
73
28
40
0
40
0
40
0
40
0
40
0.124999999999996
40
0.124999999999996
40
0.187499999999994
40
0.187499999999994
40
0.249999999999992
40
0.31249999999999
40
0.31249999999999
40
0.374999999999988
40
0.374999999999988
40
0.437499999999986
40
0.437499999999986
40
0.499999999999984
40
0.499999999999984
40
0.624999999999979
40
0.624999999999979
40
0.687499999999983
40
0.687499999999983
40
0.749999999999986
40
0.81249999999999
40
0.81249999999999
40
0.874999999999993
40
0.874999999999993
40
0.937499999999996
40
0.937499999999996
40
1
40
1
40
1
40
1
41
1
10
754.656721420742
20
-39.014725851695
30
0
41
1
10
754.640963635801
20
-39.0126683578492
30
0
41
1
10
754.626808257935
20
-39.0101923272507
30
0
41
1
10
754.60786350993
20
-39.0058736582789
30
0
41
1
10
754.601902203368
20
-39.0043202919726
30
0
41
1
10
754.591067627787
20
-39.0010856979467
30
0
41
1
10
754.581257188837
20
-38.9977138831636
30
0
41
1
10
754.573441953193
20
-38.9940725856106
30
0
41
1
10
754.566649544797
20
-38.9902921881795
30
0
41
1
10
754.56381069595
20
-38.9883548526636
30
0
41
1
10
754.559283594425
20
-38.9844399002796
30
0
41
1
10
754.557580758263
20
-38.9824542405927
30
0
41
1
10
754.555296093446
20
-38.9784261322559
30
0
41
1
10
754.554715957502
20
-38.9763693616736
30
0
41
1
10
754.554732465011
20
-38.9702252145547
30
0
41
1
10
754.5570180353
20
-38.9661858325462
30
0
41
1
10
754.563855255273
20
-38.9602135423208
30
0
41
1
10
754.56672547174
20
-38.9582343218959
30
0
41
1
10
754.573469017625
20
-38.9544194877129
30
0
41
1
10
754.581242350437
20
-38.9507189678023
30
0
41
1
10
754.591068721134
20
-38.9472481798643
30
0
41
1
10
754.601973039914
20
-38.9438991430557
30
0
41
1
10
754.607862415502
20
-38.9423176307287
30
0
41
1
10
754.620427383568
20
-38.9393537664177
30
0
41
1
10
754.62711285551
20
-38.9379683895805
30
0
41
1
10
754.641304362347
20
-38.9353954480198
30
0
41
1
10
754.648846831255
20
-38.9342032847289
30
0
41
1
10
754.656721420742
20
-38.9331316839209
30
0
0
SPLINE
5
1B3
100
AcDbEntity
8
1
62
256
6
ByLayer
370
18
48
1
60
0
100
AcDbSpline
70
4
71
3
72
30
73
26
40
0
40
0
40
0
40
0
40
0.124999999999979
40
0.124999999999979
40
0.187499999999977
40
0.187499999999977
40
0.249999999999975
40
0.312499999999973
40
0.312499999999973
40
0.374999999999971
40
0.374999999999971
40
0.437499999999969
40
0.437499999999969
40
0.499999999999967
40
0.499999999999967
40
0.624999999999975
40
0.624999999999975
40
0.687499999999979
40
0.687499999999979
40
0.749999999999984
40
0.812499999999988
40
0.812499999999988
40
0.874999999999992
40
0.874999999999992
40
1
40
1
40
1
40
1
41
1
10
754.656721420742
20
-38.6449070490541
30
0
41
1
10
754.640881230373
20
-38.6424640272275
30
0
41
1
10
754.626680834731
20
-38.6395252928592
30
0
41
1
10
754.607704513441
20
-38.6344075035008
30
0
41
1
10
754.601739721267
20
-38.6325680735331
30
0
41
1
10
754.59090918654
20
-38.628741502931
30
0
41
1
10
754.58111121415
20
-38.624755278768
30
0
41
1
10
754.573319535858
20
-38.6204566704952
30
0
41
1
10
754.566553632853
20
-38.6159973894638
30
0
41
1
10
754.563731752876
20
-38.6137159354798
30
0
41
1
10
754.559232571081
20
-38.6091054987456
30
0
41
1
10
754.557542523183
20
-38.6067681305988
30
0
41
1
10
754.555280014165
20
-38.6020287377884
30
0
41
1
10
754.554709341174
20
-38.5996100536056
30
0
41
1
10
754.554746168776
20
-38.5923880170571
30
0
41
1
10
754.557035005698
20
-38.5876412322029
30
0
41
1
10
754.563865173513
20
-38.5806247228241
30
0
41
1
10
754.566732913635
20
-38.5782978888952
30
0
41
1
10
754.573473189097
20
-38.5738119944498
30
0
41
1
10
754.581242908689
20
-38.5694603800411
30
0
41
1
10
754.591068138857
20
-38.5653787444874
30
0
41
1
10
754.601973425767
20
-38.5614401023121
30
0
41
1
10
754.607885435182
20
-38.5595737158744
30
0
41
1
10
754.626748250425
20
-38.554344981047
30
0
41
1
10
754.640889270098
20
-38.5513154894042
30
0
41
1
10
754.656721420742
20
-38.5487838351667
30
0
0
SPLINE
5
1B4
100
AcDbEntity
8
1
62
256
6
ByLayer
370
18
48
1
60
0
100
AcDbSpline
70
4
71
3
72
30
73
26
40
0
40
0
40
0
40
0
40
0.124999999999983
40
0.124999999999983
40
0.187499999999983
40
0.187499999999983
40
0.249999999999983
40
0.312499999999984
40
0.312499999999984
40
0.374999999999984
40
0.374999999999984
40
0.437499999999984
40
0.437499999999984
40
0.499999999999985
40
0.499999999999985
40
0.624999999999997
40
0.624999999999997
40
0.687499999999997
40
0.687499999999997
40
0.749999999999998
40
0.812499999999998
40
0.812499999999998
40
0.874999999999999
40
0.874999999999999
40
1
40
1
40
1
40
1
41
1
10
754.656721420742
20
-38.212679157279
30
0
41
1
10
754.640797034537
20
-38.2098344706737
30
0
41
1
10
754.626554653379
20
-38.2064145776556
30
0
41
1
10
754.607553876815
20
-38.2004695295627
30
0
41
1
10
754.601588436083
20
-38.1983345833499
30
0
41
1
10
754.59076689757
20
-38.1938976891834
30
0
41
1
10
754.580986138351
20
-38.1892790997089
30
0
41
1
10
754.57322112625
20
-38.1843064149749
30
0
41
1
10
754.566483307427
20
-38.1791523261492
30
0
41
1
10
754.56367782206
20
-38.1765194849996
30
0
41
1
10
754.559203545977
20
-38.1711989621816
30
0
41
1
10
754.557523723944
20
-38.1685027923996
30
0
41
1
10
754.555275673123
20
-38.1630383885102
30
0
41
1
10
754.554709190736
20
-38.1602513505617
30
0
41
1
10
754.554746488816
20
-38.1519301562479
30
0
41
1
10
754.557020899924
20
-38.1464616265254
30
0
41
1
10
754.563808621759
20
-38.1383790834907
30
0
41
1
10
754.566661294004
20
-38.1356958201284
30
0
41
1
10
754.573373505793
20
-38.1305197463176
30
0
41
1
10
754.581113812096
20
-38.1254979460157
30
0
41
1
10
754.590907697936
20
-38.1207861562166
30
0
41
1
10
754.601781856617
20
-38.116238595478
30
0
41
1
10
754.607712888758
20
-38.1140704457933
30
0
41
1
10
754.626616602937
20
-38.1080086907506
30
0
41
1
10
754.640806647861
20
-38.1044945435782
30
0
41
1
10
754.656721420742
20
-38.1015580734343
30
0
0
SPLINE
5
1B5
100
AcDbEntity
8
1
62
256
6
ByLayer
370
18
48
1
60
0
100
AcDbSpline
70
4
71
3
72
30
73
26
40
0
40
0
40
0
40
0
40
0.12500000000001
40
0.12500000000001
40
0.187500000000016
40
0.187500000000016
40
0.250000000000021
40
0.312500000000026
40
0.312500000000026
40
0.375000000000032
40
0.375000000000032
40
0.437500000000037
40
0.437500000000037
40
0.500000000000042
40
0.500000000000042
40
0.625000000000026
40
0.625000000000026
40
0.68750000000002
40
0.68750000000002
40
0.750000000000015
40
0.812500000000009
40
0.812500000000009
40
0.875000000000004
40
0.875000000000004
40
1
40
1
40
1
40
1
41
1
10
754.656721420742
20
-37.7158965944634
30
0
41
1
10
754.640698712975
20
-37.7126287328292
30
0
41
1
10
754.626408131503
20
-37.7087027013932
30
0
41
1
10
754.607379853147
20
-37.701891479268
30
0
41
1
10
754.601414016005
20
-37.6994478320799
30
0
41
1
10
754.590603307758
20
-37.6943749327141
30
0
41
1
10
754.580842758482
20
-37.6890985694872
30
0
41
1
10
754.573108588267
20
-37.6834273863396
30
0
41
1
10
754.566403110765
20
-37.6775548038447
30
0
41
1
10
754.563616343522
20
-37.6745600484296
30
0
41
1
10
754.559170482827
20
-37.6685077592497
30
0
41
1
10
754.557502316146
20
-37.6654421482816
30
0
41
1
10
754.555270734402
20
-37.6592318896135
30
0
41
1
10
754.554709009931
20
-37.6560664005919
30
0
41
1
10
754.554746873761
20
-37.6466153841116
30
0
41
1
10
754.557005003214
20
-37.6404045843521
30
0
41
1
10
754.563744640999
20
-37.6312251109516
30
0
41
1
10
754.566579664901
20
-37.6281742856679
30
0
41
1
10
754.573260158807
20
-37.6222836740705
30
0
41
1
10
754.580966988196
20
-37.6165674618208
30
0
41
1
10
754.59072566852
20
-37.6112017764499
30
0
41
1
10
754.601564571001
20
-37.6060217901276
30
0
41
1
10
754.607511811317
20
-37.6035369712842
30
0
41
1
10
754.626463154652
20
-37.5965987860617
30
0
41
1
10
754.640710239158
20
-37.5925735656616
30
0
41
1
10
754.656721420742
20
-37.5892101549922
30
0
0
SPLINE
5
1B6
100
AcDbEntity
8
1
62
256
6
ByLayer
370
18
48
1
60
0
100
AcDbSpline
70
4
71
3
72
30
73
26
40
0
40
0
40
0
40
0
40
0.125000000000008
40
0.125000000000008
40
0.187500000000015
40
0.187500000000015
40
0.250000000000021
40
0.312500000000028
40
0.312500000000028
40
0.375000000000034
40
0.375000000000034
40
0.43750000000004
40
0.43750000000004
40
0.500000000000047
40
0.500000000000047
40
0.625000000000032
40
0.625000000000032
40
0.687500000000025
40
0.687500000000025
40
0.750000000000017
40
0.81250000000001
40
0.81250000000001
40
0.875000000000002
40
0.875000000000002
40
1
40
1
40
1
40
1
41
1
10
754.656721420742
20
-37.1519698464479
30
0
41
1
10
754.64058494135
20
-37.1482526790813
30
0
41
1
10
754.626239671936
20
-37.1437902770473
30
0
41
1
10
754.607180907833
20
-37.1360660233399
30
0
41
1
10
754.601215059832
20
-37.133297850089
30
0
41
1
10
754.590417266612
20
-37.12755811977
30
0
41
1
10
754.580680203823
20
-37.1215935110716
30
0
41
1
10
754.572981306432
20
-37.1151945595749
30
0
41
1
10
754.566312647058
20
-37.1085750836757
30
0
41
1
10
754.563546988945
20
-37.105205741068
30
0
41
1
10
754.559133169834
20
-37.0983955633549
30
0
41
1
10
754.55747813861
20
-37.0949476846997
30
0
41
1
10
754.555265125642
20
-37.0879664236315
30
0
41
1
10
754.554708762562
20
-37.0844102921218
30
0
41
1
10
754.554747400167
20
-37.0737922927598
30
0
41
1
10
754.556987482943
20
-37.0668143987238
30
0
41
1
10
754.563673508191
20
-37.0565006960205
30
0
41
1
10
754.56648802325
20
-37.0530693552524
30
0
41
1
10
754.573133235186
20
-37.0464347517846
30
0
41
1
10
754.580802841224
20
-37.039994915684
30
0
41
1
10
754.590522334194
20
-37.0339467056606
30
0
41
1
10
754.60132193575
20
-37.0281060193948
30
0
41
1
10
754.607279782426
20
-37.0252883597759
30
0
41
1
10
754.626286039974
20
-37.0174210818314
30
0
41
1
10
754.640598820691
20
-37.0128527370526
30
0
41
1
10
754.656721420742
20
-37.0090355525384
30
0
0
SPLINE
5
1B7
100
AcDbEntity
8
1
62
256
6
ByLayer
370
18
48
1
60
0
100
AcDbSpline
70
2053
71
3
72
151
73
147
40
0
40
0
40
0
40
0
40
0.0156250000000042
40
0.0312500000000085
40
0.0468750000000127
40
0.0468750000000127
40
0.0546875000000146
40
0.0546875000000146
40
0.0625000000000166
40
0.0625000000000166
40
0.0781250000000202
40
0.0937500000000239
40
0.0937500000000239
40
0.101562500000026
40
0.105468750000027
40
0.105468750000027
40
0.109375000000028
40
0.109375000000028
40
0.125000000000031
40
0.140625000000034
40
0.156250000000037
40
0.156250000000037
40
0.160156250000037
40
0.160156250000037
40
0.164062500000037
40
0.164062500000037
40
0.171875000000038
40
0.171875000000038
40
0.187500000000039
40
0.20312500000004
40
0.20312500000004
40
0.210937500000041
40
0.210937500000041
40
0.218750000000041
40
0.218750000000041
40
0.234375000000043
40
0.250000000000045
40
0.265625000000046
40
0.265625000000046
40
0.269531250000046
40
0.269531250000046
40
0.273437500000046
40
0.281250000000047
40
0.281250000000047
40
0.296875000000048
40
0.31250000000005
40
0.31250000000005
40
0.32031250000005
40
0.32031250000005
40
0.32421875000005
40
0.32421875000005
40
0.32812500000005
40
0.34375000000005
40
0.359375000000049
40
0.359375000000049
40
0.375000000000049
40
0.375000000000049
40
0.390625000000048
40
0.406250000000048
40
0.421875000000048
40
0.421875000000048
40
0.425781250000048
40
0.425781250000048
40
0.429687500000048
40
0.429687500000048
40
0.437500000000048
40
0.437500000000048
40
0.453125000000047
40
0.468750000000047
40
0.468750000000047
40
0.476562500000047
40
0.480468750000047
40
0.480468750000047
40
0.484375000000047
40
0.484375000000047
40
0.500000000000046
40
0.515625000000046
40
0.531250000000045
40
0.531250000000045
40
0.539062500000045
40
0.539062500000045
40
0.546875000000044
40
0.546875000000044
40
0.562500000000044
40
0.578125000000043
40
0.578125000000043
40
0.585937500000043
40
0.585937500000043
40
0.593750000000043
40
0.593750000000043
40
0.609375000000043
40
0.625000000000043
40
0.640625000000043
40
0.640625000000043
40
0.648437500000044
40
0.648437500000044
40
0.656250000000044
40
0.656250000000044
40
0.671875000000044
40
0.687500000000043
40
0.687500000000043
40
0.695312500000043
40
0.695312500000043
40
0.703125000000042
40
0.703125000000042
40
0.71875000000004
40
0.734375000000038
40
0.750000000000036
40
0.750000000000036
40
0.753906250000035
40
0.753906250000035
40
0.757812500000034
40
0.765625000000032
40
0.765625000000032
40
0.781250000000028
40
0.796875000000024
40
0.796875000000024
40
0.804687500000022
40
0.804687500000022
40
0.81250000000002
40
0.81250000000002
40
0.828125000000017
40
0.843750000000013
40
0.843750000000013
40
0.851562500000011
40
0.855468750000011
40
0.855468750000011
40
0.85937500000001
40
0.85937500000001
40
0.875000000000008
40
0.890625000000007
40
0.906250000000005
40
0.906250000000005
40
0.914062500000004
40
0.914062500000004
40
0.921875000000004
40
0.921875000000004
40
0.937500000000003
40
0.953125000000002
40
0.953125000000002
40
0.960937500000002
40
0.960937500000002
40
0.968750000000001
40
0.968750000000001
40
0.984375000000001
40
1
40
1
40
1
40
1
41
1
10
750.243626271044
20
-17.7958360870635
30
0
41
1
10
750.160678816369
20
-17.795836405246
30
0
41
1
10
749.996159670968
20
-17.8030990894569
30
0
41
1
10
749.753378413501
20
-17.8350840304158
30
0
41
1
10
749.594178456251
20
-17.8703926417309
30
0
41
1
10
749.475798579313
20
-17.9022373679532
30
0
41
1
10
749.436454428332
20
-17.9137651617023
30
0
41
1
10
749.358351355286
20
-17.9385755273635
30
0
41
1
10
749.319802666362
20
-17.9517884689855
30
0
41
1
10
749.205635712233
20
-17.9937991024338
30
0
41
1
10
749.057350133319
20
-18.0561264187872
30
0
41
1
10
748.91680132706
20
-18.1308092922291
30
0
41
1
10
748.814322392083
20
-18.1914828044847
30
0
41
1
10
748.76381725741
20
-18.2229867199066
30
0
41
1
10
748.714432060898
20
-18.2562661566716
30
0
41
1
10
748.681760247067
20
-18.2788508875581
30
0
41
1
10
748.665528043269
20
-18.2903589183329
30
0
41
1
10
748.585375295362
20
-18.3486340501329
30
0
41
1
10
748.463347498836
20
-18.4466819789358
30
0
41
1
10
748.298374186422
20
-18.6076258341602
30
0
41
1
10
748.200398638924
20
-18.724071878992
30
0
41
1
10
748.143013896293
20
-18.7997636624982
30
0
41
1
10
748.131729896951
20
-18.8150480118046
30
0
41
1
10
748.109552113272
20
-18.8459114521247
30
0
41
1
10
748.098657415047
20
-18.8614934455406
30
0
41
1
10
748.066743253156
20
-18.9084170908914
30
0
41
1
10
748.046429467883
20
-18.9400232275536
30
0
41
1
10
747.988320228687
20
-19.03578851359
30
0
41
1
10
747.918379998006
20
-19.1659956978009
30
0
41
1
10
747.863275983814
20
-19.3011079905331
30
0
41
1
10
747.827584146185
20
-19.4042885815757
30
0
41
1
10
747.816627913611
20
-19.4389904328478
30
0
41
1
10
747.796630952225
20
-19.5090193760204
30
0
41
1
10
747.787576239773
20
-19.5444266588301
30
0
41
1
10
747.763587710675
20
-19.6504839309821
30
0
41
1
10
747.739858113855
20
-19.7920121974217
30
0
41
1
10
747.728339064301
20
-20.0046188471417
30
0
41
1
10
747.736724440931
20
-20.1465593571275
30
0
41
1
10
747.747140850063
20
-20.2353399357212
30
0
41
1
10
747.749487424897
20
-20.253124492681
30
0
41
1
10
747.754683556583
20
-20.2885554848576
30
0
41
1
10
747.763228926906
20
-20.3414868616513
30
0
41
1
10
747.77400025172
20
-20.3937814795805
30
0
41
1
10
747.798462275344
20
-20.4975380806591
30
0
41
1
10
747.838849478379
20
-20.6336634331184
30
0
41
1
10
747.894611492272
20
-20.7654392203395
30
0
41
1
10
747.942305510331
20
-20.8626283151409
30
0
41
1
10
747.959184032832
20
-20.8947504429617
30
0
41
1
10
747.986002876869
20
-20.9425165800741
30
0
41
1
10
747.995193990275
20
-20.9583692581363
30
0
41
1
10
748.013972841627
20
-20.989757834353
30
0
41
1
10
748.061978610649
20
-21.0675475764633
30
0
41
1
10
748.157763368956
20
-21.2015435911622
30
0
41
1
10
748.255935234024
20
-21.3123453240203
30
0
41
1
10
748.36066099015
20
-21.4190070890065
30
0
41
1
10
748.416304323493
20
-21.4702717680891
30
0
41
1
10
748.534361994877
20
-21.5685398101164
30
0
41
1
10
748.657210381512
20
-21.6609050390273
30
0
41
1
10
748.855354571754
20
-21.7824807069351
30
0
41
1
10
748.996632247086
20
-21.8523728812032
30
0
41
1
10
749.087862392272
20
-21.8925150199904
30
0
41
1
10
749.106255335316
20
-21.900366014082
30
0
41
1
10
749.143337984635
20
-21.9157101113301
30
0
41
1
10
749.162054107238
20
-21.9232132318374
30
0
41
1
10
749.218410146841
20
-21.9450873333353
30
0
41
1
10
749.25626275934
20
-21.9588291048701
30
0
41
1
10
749.370648814191
20
-21.9975894415853
30
0
41
1
10
749.525367899509
20
-22.0427098609652
30
0
41
1
10
749.684408166798
20
-22.0750202794797
30
0
41
1
10
749.805322120869
20
-22.0944238503391
30
0
41
1
10
749.866188183985
20
-22.1029163358748
30
0
41
1
10
749.927677300027
20
-22.109568873674
30
0
41
1
10
749.968809945499
20
-22.1135909168177
30
0
41
1
10
749.989450590542
20
-22.1153950587392
30
0
41
1
10
750.092436031403
20
-22.1233337553907
30
0
41
1
10
750.256726510346
20
-22.1292291533591
30
0
41
1
10
750.501749824961
20
-22.1183107324476
30
0
41
1
10
750.66416091586
20
-22.0979023706954
30
0
41
1
10
750.785608795609
20
-22.0775406910496
30
0
41
1
10
750.82613310353
20
-22.0698853012827
30
0
41
1
10
750.906293607423
20
-22.0530151778893
30
0
41
1
10
750.945983587287
20
-22.0437961156308
30
0
41
1
10
751.06390408268
20
-22.0138259610444
30
0
41
1
10
751.218071650026
20
-21.9677090588348
30
0
41
1
10
751.366210206295
20
-21.9094108699874
30
0
41
1
10
751.475021608057
20
-21.8610321764165
30
0
41
1
10
751.510909310888
20
-21.8441286863986
30
0
41
1
10
751.581905315551
20
-21.8087346596969
30
0
41
1
10
751.61709208644
20
-21.7901967748989
30
0
41
1
10
751.720414706378
20
-21.732733924075
30
0
41
1
10
751.85275234623
20
-21.6509681275814
30
0
41
1
10
752.035396140591
20
-21.5131560227944
30
0
41
1
10
752.146551385767
20
-21.4110645416283
30
0
41
1
10
752.22580916197
20
-21.3305086882837
30
0
41
1
10
752.25159576939
20
-21.302924927023
30
0
41
1
10
752.301246298611
20
-21.2469838767908
30
0
41
1
10
752.325166506167
20
-21.2185755830782
30
0
41
1
10
752.394254602813
20
-21.1320512371474
30
0
41
1
10
752.479257857051
20
-21.0132260231454
30
0
41
1
10
752.550170052044
20
-20.8874821098171
30
0
41
1
10
752.59796711113
20
-20.7905067642501
30
0
41
1
10
752.613000008442
20
-20.7577363172268
30
0
41
1
10
752.641229155825
20
-20.6912827680326
30
0
41
1
10
752.654441237645
20
-20.6575396776103
30
0
41
1
10
752.690861974535
20
-20.5560555950868
30
0
41
1
10
752.731178713165
20
-20.4193999155325
30
0
41
1
10
752.767528834574
20
-20.2104327495454
30
0
41
1
10
752.775617943886
20
-20.0684340781309
30
0
41
1
10
752.775459442961
20
-19.9788147110557
30
0
41
1
10
752.775165239654
20
-19.9608240221447
30
0
41
1
10
752.774054995612
20
-19.9249397830622
30
0
41
1
10
752.771608180419
20
-19.8712159368221
30
0
41
1
10
752.766845838669
20
-19.8177959733512
30
0
41
1
10
752.754285040137
20
-19.7113555205509
30
0
41
1
10
752.729455198197
20
-19.570497926398
30
0
41
1
10
752.688647952016
20
-19.4317626814458
30
0
41
1
10
752.651946636318
20
-19.3285339425486
30
0
41
1
10
752.638695070641
20
-19.2942617734688
30
0
41
1
10
752.610115777632
20
-19.2260005220671
30
0
41
1
10
752.594904637353
20
-19.1922907040491
30
0
41
1
10
752.546591693282
20
-19.092447736253
30
0
41
1
10
752.47502387391
20
-18.9627038971892
30
0
41
1
10
752.38950182535
20
-18.8396093617665
30
0
41
1
10
752.320104226546
20
-18.7498158899002
30
0
41
1
10
752.284089275578
20
-18.7055520677343
30
0
41
1
10
752.246073118238
20
-18.6622552603297
30
0
41
1
10
752.220280012624
20
-18.6336082227682
30
0
41
1
10
752.207145759321
20
-18.6193802790995
30
0
41
1
10
752.140692925682
20
-18.5491588532652
30
0
41
1
10
752.028938883796
20
-18.4421468366101
30
0
41
1
10
751.845571350457
20
-18.2972106978472
30
0
41
1
10
751.712894840869
20
-18.2109811942427
30
0
41
1
10
751.609382716747
20
-18.1503239157505
30
0
41
1
10
751.574120003879
20
-18.1307310934594
30
0
41
1
10
751.502922620008
20
-18.0932746669711
30
0
41
1
10
751.466940646745
20
-18.0753778145719
30
0
41
1
10
751.357865990651
20
-18.0241407732929
30
0
41
1
10
751.209428599534
20
-17.9623560691364
30
0
41
1
10
751.055071574154
20
-17.9134890383093
30
0
41
1
10
750.937053144943
20
-17.8817656313695
30
0
41
1
10
750.897337893917
20
-17.8720137253631
30
0
41
1
10
750.817142312863
20
-17.8541867987693
30
0
41
1
10
750.776593171686
20
-17.8461028050771
30
0
41
1
10
750.654820905075
20
-17.8245999990192
30
0
41
1
10
750.491573295586
20
-17.8031008143124
30
0
41
1
10
750.326573725718
20
-17.7958357688809
30
0
41
1
10
750.243626271044
20
-17.7958360870635
30
0
0
SPLINE
5
1B8
100
AcDbEntity
8
1
62
256
6
ByLayer
370
18
48
1
60
0
100
AcDbSpline
70
2053
71
3
72
151
73
147
40
0
40
0
40
0
40
0
40
0.0156250000000017
40
0.0312500000000034
40
0.046875000000005
40
0.046875000000005
40
0.0546875000000059
40
0.0546875000000059
40
0.0625000000000069
40
0.0625000000000069
40
0.0781250000000088
40
0.0937500000000108
40
0.0937500000000108
40
0.101562500000012
40
0.101562500000012
40
0.109375000000013
40
0.109375000000013
40
0.125000000000015
40
0.140625000000016
40
0.156250000000018
40
0.156250000000018
40
0.164062500000019
40
0.164062500000019
40
0.17187500000002
40
0.17187500000002
40
0.187500000000022
40
0.203125000000024
40
0.203125000000024
40
0.210937500000025
40
0.214843750000026
40
0.214843750000026
40
0.218750000000026
40
0.218750000000026
40
0.234375000000027
40
0.250000000000027
40
0.265625000000028
40
0.265625000000028
40
0.273437500000028
40
0.273437500000028
40
0.281250000000029
40
0.281250000000029
40
0.296875000000029
40
0.312500000000029
40
0.312500000000029
40
0.32031250000003
40
0.32031250000003
40
0.324218750000029
40
0.324218750000029
40
0.328125000000029
40
0.343750000000029
40
0.359375000000029
40
0.375000000000029
40
0.375000000000029
40
0.382812500000029
40
0.382812500000029
40
0.390625000000029
40
0.390625000000029
40
0.406250000000029
40
0.421875000000028
40
0.421875000000028
40
0.429687500000028
40
0.429687500000028
40
0.437500000000029
40
0.437500000000029
40
0.453125000000029
40
0.468750000000029
40
0.468750000000029
40
0.476562500000029
40
0.476562500000029
40
0.484375000000028
40
0.484375000000028
40
0.500000000000028
40
0.515625000000028
40
0.531250000000028
40
0.531250000000028
40
0.539062500000028
40
0.539062500000028
40
0.546875000000027
40
0.546875000000027
40
0.562500000000027
40
0.578125000000027
40
0.578125000000027
40
0.585937500000027
40
0.589843750000027
40
0.589843750000027
40
0.593750000000027
40
0.593750000000027
40
0.609375000000027
40
0.625000000000027
40
0.640625000000028
40
0.640625000000028
40
0.644531250000027
40
0.644531250000027
40
0.648437500000027
40
0.648437500000027
40
0.656250000000027
40
0.656250000000027
40
0.671875000000026
40
0.687500000000026
40
0.687500000000026
40
0.695312500000026
40
0.695312500000026
40
0.703125000000026
40
0.703125000000026
40
0.718750000000026
40
0.734375000000026
40
0.750000000000025
40
0.750000000000025
40
0.757812500000025
40
0.757812500000025
40
0.765625000000024
40
0.765625000000024
40
0.781250000000022
40
0.79687500000002
40
0.79687500000002
40
0.80468750000002
40
0.80468750000002
40
0.808593750000019
40
0.808593750000019
40
0.812500000000019
40
0.828125000000018
40
0.843750000000017
40
0.859375000000016
40
0.859375000000016
40
0.875000000000015
40
0.875000000000015
40
0.890625000000014
40
0.906250000000013
40
0.906250000000013
40
0.910156250000012
40
0.910156250000012
40
0.914062500000012
40
0.914062500000012
40
0.92187500000001
40
0.92187500000001
40
0.937500000000008
40
0.953125000000006
40
0.953125000000006
40
0.960937500000005
40
0.964843750000005
40
0.964843750000005
40
0.968750000000004
40
0.968750000000004
40
0.984375000000002
40
0.984375000000002
40
1
40
1
40
1
40
1
41
1
10
750.243626138619
20
17.7958361435285
30
0
41
1
10
750.326575056951
20
17.7958365181817
30
0
41
1
10
750.491089998682
20
17.8030990710645
30
0
41
1
10
750.733863987078
20
17.8349794108936
30
0
41
1
10
750.893070700515
20
17.8700848875307
30
0
41
1
10
751.011464649248
20
17.9017023568506
30
0
41
1
10
751.050775573962
20
17.9131291910906
30
0
41
1
10
751.128991099605
20
17.937764494423
30
0
41
1
10
751.167602323744
20
17.9508798043935
30
0
41
1
10
751.281977248377
20
17.9925650014751
30
0
41
1
10
751.430594649934
20
18.0543712619052
30
0
41
1
10
751.571598162253
20
18.1283376476975
30
0
41
1
10
751.674469403931
20
18.1883927352676
30
0
41
1
10
751.708278733017
20
18.2091758135662
30
0
41
1
10
751.774920173007
20
18.2522914189365
30
0
41
1
10
751.807776803165
20
18.2746414743613
30
0
41
1
10
751.904693408907
20
18.3439547372807
30
0
41
1
10
752.027770084922
20
18.4411277729649
30
0
41
1
10
752.194507706241
20
18.6006207366617
30
0
41
1
10
752.293775964427
20
18.716017170882
30
0
41
1
10
752.363646312045
20
18.8060332962427
30
0
41
1
10
752.386195141627
20
18.8366518247323
30
0
41
1
10
752.4296246793
20
18.8989285013159
30
0
41
1
10
752.450370558689
20
18.9303894776151
30
0
41
1
10
752.50975633746
20
19.0257163317074
30
0
41
1
10
752.58134605754
20
19.1553310926073
30
0
41
1
10
752.637991769915
20
19.2898374689331
30
0
41
1
10
752.674798467435
20
19.3925587805048
30
0
41
1
10
752.691780127619
20
19.444380617029
30
0
41
1
10
752.706590687872
20
19.496904123651
30
0
41
1
10
752.715976204067
20
19.5320773144293
30
0
41
1
10
752.720430729693
20
19.5497685218501
30
0
41
1
10
752.741376144219
20
19.6382344536858
30
0
41
1
10
752.766456235154
20
19.779844236603
30
0
41
1
10
752.779553701987
20
19.9924138787074
30
0
41
1
10
752.77198462629
20
20.1342222913481
30
0
41
1
10
752.760032551635
20
20.2406178514747
30
0
41
1
10
752.754980942499
20
20.2761892931791
30
0
41
1
10
752.742855413615
20
20.3466826023073
30
0
41
1
10
752.735785321477
20
20.381632546349
30
0
41
1
10
752.711612415805
20
20.485612072846
30
0
41
1
10
752.671496159801
20
20.6219347293754
30
0
41
1
10
752.615882750986
20
20.7537391851798
30
0
41
1
10
752.568295274607
20
20.8508968996742
30
0
41
1
10
752.55145147049
20
20.8829997424369
30
0
41
1
10
752.524689074307
20
20.9307249580857
30
0
41
1
10
752.51550530297
20
20.9465838222146
30
0
41
1
10
752.496711776356
20
20.9780284409094
30
0
41
1
10
752.448666338047
20
21.0559478596643
30
0
41
1
10
752.352808682473
20
21.1901015613363
30
0
41
1
10
752.205570589045
20
21.3564319084954
30
0
41
1
10
752.094469893705
20
21.4590373552625
30
0
41
1
10
752.006149303991
20
21.5328247288088
30
0
41
1
10
751.976031913778
20
21.5567573159104
30
0
41
1
10
751.914715652962
20
21.6031293619635
30
0
41
1
10
751.883477980352
20
21.6256013504755
30
0
41
1
10
751.788054015732
20
21.690916560894
30
0
41
1
10
751.656267077178
20
21.7724112306666
30
0
41
1
10
751.515461812779
20
21.8429078912093
30
0
41
1
10
751.4064111142
20
21.8916033954687
30
0
41
1
10
751.36945856318
20
21.9071483612932
30
0
41
1
10
751.294489826125
20
21.9367745526652
30
0
41
1
10
751.2567268587
20
21.9507571061942
30
0
41
1
10
751.142619466572
20
21.9902703335845
30
0
41
1
10
750.98829790523
20
22.0364761374228
30
0
41
1
10
750.829704334033
20
22.0700271039008
30
0
41
1
10
750.709142773994
20
22.090416516492
30
0
41
1
10
750.668685715963
20
22.0964158985317
30
0
41
1
10
750.587223534759
20
22.1067976632496
30
0
41
1
10
750.546165242193
20
22.1111845518353
30
0
41
1
10
750.42249315977
20
22.1218364220756
30
0
41
1
10
750.258105703422
20
22.1292266122318
30
0
41
1
10
750.01300344752
20
22.1205175218034
30
0
41
1
10
749.850584545513
20
22.1015533935034
30
0
41
1
10
749.729148269524
20
22.0822613051104
30
0
41
1
10
749.688671408559
20
22.0749716923694
30
0
41
1
10
749.608115068495
20
22.058711770602
30
0
41
1
10
749.56824173915
20
22.0497858816252
30
0
41
1
10
749.449812799429
20
22.0206627911265
30
0
41
1
10
749.295077834595
20
21.9755891464903
30
0
41
1
10
749.146574985105
20
21.9181940208757
30
0
41
1
10
749.037560816696
20
21.8704527339288
30
0
41
1
10
748.983645411406
20
21.8454064402105
30
0
41
1
10
748.930632477591
20
21.8185620155552
30
0
41
1
10
748.89549331642
20
21.800261094409
30
0
41
1
10
748.878000626262
20
21.7908945803725
30
0
41
1
10
748.79141977285
20
21.7432408639588
30
0
41
1
10
748.658501230766
20
21.6617772579291
30
0
41
1
10
748.475434789005
20
21.5243000115605
30
0
41
1
10
748.36422720862
20
21.4224175164231
30
0
41
1
10
748.298196694298
20
21.3554355576314
30
0
41
1
10
748.285164707135
20
21.3418735086624
30
0
41
1
10
748.259452832947
20
21.3144137838573
30
0
41
1
10
748.246764829511
20
21.3005059502005
30
0
41
1
10
748.209440750098
20
21.2585081959178
30
0
41
1
10
748.185475671083
20
21.2300733176652
30
0
41
1
10
748.116280540698
20
21.1434777377104
30
0
41
1
10
748.031207520565
20
21.0245801604731
30
0
41
1
10
747.960272435716
20
20.8988538292402
30
0
41
1
10
747.912438994699
20
20.8019433725139
30
0
41
1
10
747.897390758762
20
20.7692031918061
30
0
41
1
10
747.869118011757
20
20.7028308169092
30
0
41
1
10
747.85586566678
20
20.6691115084344
30
0
41
1
10
747.819263803907
20
20.5676082563827
30
0
41
1
10
747.778637633393
20
20.4309515858512
30
0
41
1
10
747.741537653512
20
20.2220670887268
30
0
41
1
10
747.73269644949
20
20.0801886783468
30
0
41
1
10
747.732205020256
20
19.9727638011316
30
0
41
1
10
747.733074565231
20
19.9367552898013
30
0
41
1
10
747.736849622107
20
19.8652010140952
30
0
41
1
10
747.739752094495
20
19.8295561675795
30
0
41
1
10
747.751453243475
20
19.7230127846657
30
0
41
1
10
747.77502435571
20
19.5819959615242
30
0
41
1
10
747.814350789378
20
19.443057546461
30
0
41
1
10
747.8498594291
20
19.339659970463
30
0
41
1
10
747.862699754912
20
19.3053287778671
30
0
41
1
10
747.883496929929
20
19.2540401715161
30
0
41
1
10
747.890691363058
20
19.2369671654353
30
0
41
1
10
747.905513699572
20
19.2030793541153
30
0
41
1
10
747.943702175406
20
19.118895997565
30
0
41
1
10
748.022462897201
20
18.9721181715283
30
0
41
1
10
748.14836893203
20
18.786402325203
30
0
41
1
10
748.246305609371
20
18.6693459859756
30
0
41
1
10
748.351489884134
20
18.5558211575032
30
0
41
1
10
748.40689148326
20
18.5017111996245
30
0
41
1
10
748.522905304626
20
18.3988635948003
30
0
41
1
10
748.644201486369
20
18.3013145925041
30
0
41
1
10
748.775984020998
20
18.2143508709662
30
0
41
1
10
748.861695839936
20
18.1633984768728
30
0
41
1
10
748.879005972911
20
18.153378380724
30
0
41
1
10
748.913965120676
20
18.1336828473765
30
0
41
1
10
748.931638008823
20
18.1239948320513
30
0
41
1
10
748.98498201826
20
18.0955545091775
30
0
41
1
10
749.020928084238
20
18.0774488429454
30
0
41
1
10
749.12989242537
20
18.0256472758363
30
0
41
1
10
749.27817545068
20
17.9632738804224
30
0
41
1
10
749.432332429127
20
17.9140722773637
30
0
41
1
10
749.550170455057
20
17.8821656080501
30
0
41
1
10
749.609645421901
20
17.8674628341209
30
0
41
1
10
749.669967021821
20
17.8546668887842
30
0
41
1
10
749.710371513891
20
17.8465646302383
30
0
41
1
10
749.730679933835
20
17.8427262298989
30
0
41
1
10
749.832251034763
20
17.824693659737
30
0
41
1
10
749.913935349798
20
17.8138978981466
30
0
41
1
10
750.078146177486
20
17.7994689608836
30
0
41
1
10
750.160677220287
20
17.7958357688753
30
0
41
1
10
750.243626138619
20
17.7958361435285
30
0
0
LINE
5
93
100
AcDbEntity
8
SK4
62
256
6
ByLayer
370
18
48
0.05
60
0
100
AcDbLine
10
4
20
0
30
0
11
769
21
0
31
0
39
0
210
0
220
0
230
1
0
LINE
5
95
100
AcDbEntity
8
81
62
256
6
ByLayer
370
18
48
1
60
0
100
AcDbLine
10
755
20
0
30
0
11
760
21
0
31
0
39
0
210
0
220
0
230
1
0
LINE
5
96
100
AcDbEntity
8
4
62
256
6
ByLayer
370
18
48
0.05
60
0
100
AcDbLine
10
0
20
0
30
0
11
755
21
0
31
0
39
0
210
0
220
0
230
1
0
LINE
5
98
100
AcDbEntity
8
80
62
256
6
ByLayer
370
18
48
1
60
0
100
AcDbLine
10
0
20
0
30
0
11
-5
21
0
31
0
39
0
210
0
220
0
230
1
0
LINE
5
99
100
AcDbEntity
8
1
62
256
6
ByLayer
370
18
48
1
60
0
100
AcDbLine
10
745.8
20
40
30
0
11
42
21
40
31
0
39
0
210
0
220
0
230
1
0
LINE
5
9A
100
AcDbEntity
8
1
62
256
6
ByLayer
370
18
48
1
60
0
100
AcDbLine
10
42
20
-40
30
0
11
745.8
21
-40
31
0
39
0
210
0
220
0
230
1
0
LINE
5
9B
100
AcDbEntity
8
1
62
256
6
ByLayer
370
18
48
1
60
0
100
AcDbLine
10
35.5
20
50
30
0
11
0.3
21
50
31
0
39
0
210
0
220
0
230
1
0
LINE
5
9C
100
AcDbEntity
8
1
62
256
6
ByLayer
370
18
48
1
60
0
100
AcDbLine
10
0.3
20
-50
30
0
11
35.5
21
-50
31
0
39
0
210
0
220
0
230
1
0
LINE
5
9D
100
AcDbEntity
8
1
62
256
6
ByLayer
370
18
48
1
60
0
100
AcDbLine
10
0
20
-49.7
30
0
11
0.3
21
-50
31
0
39
0
210
0
220
0
230
1
0
LINE
5
9E
100
AcDbEntity
8
1
62
256
6
ByLayer
370
18
48
1
60
0
100
AcDbLine
10
0.3
20
50
30
0
11
0
21
49.7
31
0
39
0
210
0
220
0
230
1
0
LINE
5
9F
100
AcDbEntity
8
1
62
256
6
ByLayer
370
18
48
1
60
0
100
AcDbLine
10
767.92739
20
26.631445
30
0
11
767.665201
21
26.654654
31
0
39
0
210
0
220
0
230
1
0
LINE
5
A0
100
AcDbEntity
8
1
62
256
6
ByLayer
370
18
48
1
60
0
100
AcDbLine
10
770.888513
20
23.074803
30
0
11
770.892838
21
23.337982
31
0
39
0
210
0
220
0
230
1
0
LINE
5
A1
100
AcDbEntity
8
1
62
256
6
ByLayer
370
18
48
1
60
0
100
AcDbLine
10
768.484398
20
20.787113
30
0
11
770.82084
21
22.890855
31
0
39
0
210
0
220
0
230
1
0
LINE
5
A2
100
AcDbEntity
8
1
62
256
6
ByLayer
370
18
48
1
60
0
100
AcDbLine
10
767.475187
20
26.606579
30
0
11
764.690803
21
24.099508
31
0
39
0
210
0
220
0
230
1
0
LINE
5
A3
100
AcDbEntity
8
1
62
256
6
ByLayer
370
18
48
1
60
0
100
AcDbLine
10
754.555809
20
40
30
0
11
746
21
40
31
0
39
0
210
0
220
0
230
1
0
LINE
5
A4
100
AcDbEntity
8
1
62
256
6
ByLayer
370
18
48
1
60
0
100
AcDbLine
10
746
20
-40
30
0
11
754.555809
21
-40
31
0
39
0
210
0
220
0
230
1
0
LINE
5
A5
100
AcDbEntity
8
1
62
256
6
ByLayer
370
18
48
1
60
0
100
AcDbLine
10
770.976576
20
-23.242738
30
0
11
770.972251
21
-22.979558
31
0
39
0
210
0
220
0
230
1
0
LINE
5
A6
100
AcDbEntity
8
1
62
256
6
ByLayer
370
18
48
1
60
0
100
AcDbLine
10
767.748939
20
-26.55941
30
0
11
768.011128
21
-26.536201
31
0
39
0
210
0
220
0
230
1
0
LINE
5
A7
100
AcDbEntity
8
1
62
256
6
ByLayer
370
18
48
1
60
0
100
AcDbLine
10
764.788111
20
-24.016483
30
0
11
767.558925
21
-26.511335
31
0
39
0
210
0
220
0
230
1
0
LINE
5
A8
100
AcDbEntity
8
1
62
256
6
ByLayer
370
18
48
1
60
0
100
AcDbLine
10
770.904578
20
-22.795611
30
0
11
768.563031
21
-20.687273
31
0
39
0
210
0
220
0
230
1
0
LINE
5
A9
100
AcDbEntity
8
1
62
256
6
ByLayer
370
13
48
1
60
0
100
AcDbLine
10
747.309843
20
-20.600721
30
0
11
747.793363
21
-20.473408
31
0
39
0
210
0
220
0
230
1
0
LINE
5
AA
100
AcDbEntity
8
1
62
256
6
ByLayer
370
13
48
1
60
0
100
AcDbLine
10
747.309843
20
20.600721
30
0
11
747.793363
21
20.473408
31
0
39
0
210
0
220
0
230
1
0
LINE
5
AB
100
AcDbEntity
8
1
62
256
6
ByLayer
370
13
48
1
60
0
100
AcDbLine
10
748.019441
20
21.332025
30
0
11
747.309843
21
20.600721
31
0
39
0
210
0
220
0
230
1
0
LINE
5
AC
100
AcDbEntity
8
1
62
256
6
ByLayer
370
13
48
1
60
0
100
AcDbLine
10
752.854638
20
20.058893
30
0
11
753.11208
21
19.072963
31
0
39
0
210
0
220
0
230
1
0
LINE
5
AD
100
AcDbEntity
8
1
62
256
6
ByLayer
370
13
48
1
60
0
100
AcDbLine
10
752.854638
20
-20.058893
30
0
11
753.11208
21
-19.072963
31
0
39
0
210
0
220
0
230
1
0
LINE
5
AE
100
AcDbEntity
8
1
62
256
6
ByLayer
370
13
48
1
60
0
100
AcDbLine
10
748.019441
20
-21.332025
30
0
11
747.309843
21
-20.600721
31
0
39
0
210
0
220
0
230
1
0
LINE
5
AF
100
AcDbEntity
8
1
62
256
6
ByLayer
370
13
48
1
60
0
100
AcDbLine
10
745.8
20
40
30
0
11
745.8
21
-40
31
0
39
0
210
0
220
0
230
1
0
LINE
5
B0
100
AcDbEntity
8
1
62
256
6
ByLayer
370
13
48
1
60
0
100
AcDbLine
10
42
20
-40
30
0
11
42
21
40
31
0
39
0
210
0
220
0
230
1
0
LINE
5
B1
100
AcDbEntity
8
1
62
256
6
ByLayer
370
13
48
1
60
0
100
AcDbLine
10
13.355662
20
47.532474
30
0
11
13.355662
21
15.513346
31
0
39
0
210
0
220
0
230
1
0
LINE
5
B2
100
AcDbEntity
8
1
62
256
6
ByLayer
370
13
48
1
60
0
100
AcDbLine
10
13.788675
20
47.699112
30
0
11
13.788675
21
14.993155
31
0
39
0
210
0
220
0
230
1
0
LINE
5
B3
100
AcDbEntity
8
1
62
256
6
ByLayer
370
13
48
1
60
0
100
AcDbLine
10
18.211325
20
-14.993155
30
0
11
18.211325
21
-47.699112
31
0
39
0
210
0
220
0
230
1
0
LINE
5
B4
100
AcDbEntity
8
1
62
256
6
ByLayer
370
13
48
1
60
0
100
AcDbLine
10
18.644338
20
-15.513346
30
0
11
18.644338
21
-47.532474
31
0
39
0
210
0
220
0
230
1
0
LINE
5
B5
100
AcDbEntity
8
1
62
256
6
ByLayer
370
13
48
1
60
0
100
AcDbLine
10
13.355662
20
-15.513346
30
0
11
13.355662
21
-47.532474
31
0
39
0
210
0
220
0
230
1
0
LINE
5
B6
100
AcDbEntity
8
1
62
256
6
ByLayer
370
13
48
1
60
0
100
AcDbLine
10
13.788675
20
-14.993155
30
0
11
13.788675
21
-47.699112
31
0
39
0
210
0
220
0
230
1
0
LINE
5
B7
100
AcDbEntity
8
1
62
256
6
ByLayer
370
13
48
1
60
0
100
AcDbLine
10
18.211325
20
47.699112
30
0
11
18.211325
21
14.993155
31
0
39
0
210
0
220
0
230
1
0
LINE
5
B8
100
AcDbEntity
8
1
62
256
6
ByLayer
370
13
48
1
60
0
100
AcDbLine
10
18.644338
20
47.532474
30
0
11
18.644338
21
15.513346
31
0
39
0
210
0
220
0
230
1
0
LINE
5
B9
100
AcDbEntity
8
1
62
256
6
ByLayer
370
18
48
1
60
0
100
AcDbLine
10
36
20
49.5
30
0
11
36
21
-49.5
31
0
39
0
210
0
220
0
230
1
0
LINE
5
BA
100
AcDbEntity
8
1
62
256
6
ByLayer
370
13
48
1
60
0
100
AcDbLine
10
35.5
20
50
30
0
11
35.5
21
-50
31
0
39
0
210
0
220
0
230
1
0
LINE
5
BB
100
AcDbEntity
8
1
62
256
6
ByLayer
370
18
48
1
60
0
100
AcDbLine
10
18.211325
20
14.993155
30
0
11
13.788675
21
14.993155
31
0
39
0
210
0
220
0
230
1
0
LINE
5
BC
100
AcDbEntity
8
1
62
256
6
ByLayer
370
18
48
1
60
0
100
AcDbLine
10
13.788675
20
47.699112
30
0
11
18.211325
21
47.699112
31
0
39
0
210
0
220
0
230
1
0
LINE
5
BD
100
AcDbEntity
8
1
62
256
6
ByLayer
370
18
48
1
60
0
100
AcDbLine
10
13.788675
20
-14.993155
30
0
11
18.211325
21
-14.993155
31
0
39
0
210
0
220
0
230
1
0
LINE
5
BE
100
AcDbEntity
8
1
62
256
6
ByLayer
370
18
48
1
60
0
100
AcDbLine
10
18.211325
20
-47.699112
30
0
11
13.788675
21
-47.699112
31
0
39
0
210
0
220
0
230
1
0
LINE
5
BF
100
AcDbEntity
8
1
62
256
6
ByLayer
370
18
48
1
60
0
100
AcDbLine
10
0.3
20
-50
30
0
11
0.3
21
50
31
0
39
0
210
0
220
0
230
1
0
LINE
5
C0
100
AcDbEntity
8
1
62
256
6
ByLayer
370
18
48
1
60
0
100
AcDbLine
10
0
20
-49.7
30
0
11
0
21
49.7
31
0
39
0
210
0
220
0
230
1
0
LINE
5
C1
100
AcDbEntity
8
SK1
62
256
6
ByLayer
370
18
48
1
60
0
100
AcDbLine
10
-0.2
20
-6.815135
30
0
11
-0.2
21
-37.983485
31
0
39
0
210
0
220
0
230
1
0
LINE
5
C3
100
AcDbEntity
8
SK1
62
256
6
ByLayer
370
18
48
1
60
0
100
AcDbLine
10
-0.2
20
37.983485
30
0
11
-0.2
21
6.815135
31
0
39
0
210
0
220
0
230
1
0
LINE
5
C4
100
AcDbEntity
8
SK1
62
256
6
ByLayer
370
13
48
1
60
0
100
AcDbLine
10
-1.307107
20
4.605927
30
0
11
-1.307107
21
-4.605926
31
0
39
0
210
0
220
0
230
1
0
LINE
5
C5
100
AcDbEntity
8
1
62
256
6
ByLayer
370
18
48
1
60
0
100
AcDbLine
10
750.279703
20
-19.223476
30
0
11
749.036263
21
-19.116252
31
0
39
0
210
0
220
0
230
1
0
LINE
5
C6
100
AcDbEntity
8
1
62
256
6
ByLayer
370
18
48
1
60
0
100
AcDbLine
10
750.863565
20
-18.574546
30
0
11
750.279703
21
-19.223476
31
0
39
0
210
0
220
0
230
1
0
LINE
5
C7
100
AcDbEntity
8
1
62
256
6
ByLayer
370
18
48
1
60
0
100
AcDbLine
10
750.279703
20
-19.223476
30
0
11
750.801808
21
-21.206366
31
0
39
0
210
0
220
0
230
1
0
LINE
5
C8
100
AcDbEntity
8
1
62
256
6
ByLayer
370
18
48
1
60
0
100
AcDbLine
10
748.697293
20
-19.493006
30
0
11
749.110017
21
-21.06048
31
0
39
0
210
0
220
0
230
1
0
LINE
5
C9
100
AcDbEntity
8
1
62
256
6
ByLayer
370
18
48
1
60
0
100
AcDbLine
10
751.902752
20
-19.982728
30
0
11
750.801808
21
-21.206366
31
0
39
0
210
0
220
0
230
1
0
LINE
5
CA
100
AcDbEntity
8
1
62
256
6
ByLayer
370
18
48
1
60
0
100
AcDbLine
10
750.801808
20
-21.206366
30
0
11
749.110017
21
-21.06048
31
0
39
0
210
0
220
0
230
1
0
LINE
5
CB
100
AcDbEntity
8
1
62
256
6
ByLayer
370
18
48
1
60
0
100
AcDbLine
10
749.110017
20
-21.06048
30
0
11
748.519171
21
-19.690957
31
0
39
0
210
0
220
0
230
1
0
LINE
5
CC
100
AcDbEntity
8
1
62
256
6
ByLayer
370
18
48
1
60
0
100
AcDbLine
10
748.519171
20
-19.690957
30
0
11
749.620115
21
-18.467319
31
0
39
0
210
0
220
0
230
1
0
LINE
5
CD
100
AcDbEntity
8
1
62
256
6
ByLayer
370
18
48
1
60
0
100
AcDbLine
10
749.620115
20
-18.467319
30
0
11
751.311906
21
-18.613204
31
0
39
0
210
0
220
0
230
1
0
LINE
5
CE
100
AcDbEntity
8
1
62
256
6
ByLayer
370
18
48
1
60
0
100
AcDbLine
10
751.311906
20
-18.613204
30
0
11
751.902752
21
-19.982728
31
0
39
0
210
0
220
0
230
1
0
LINE
5
CF
100
AcDbEntity
8
1
62
256
6
ByLayer
370
18
48
1
60
0
100
AcDbLine
10
755.325
20
-39.989012
30
0
11
755.325
21
-39.946663
31
0
39
0
210
0
220
0
230
1
0
LINE
5
D0
100
AcDbEntity
8
1
62
256
6
ByLayer
370
18
48
1
60
0
100
AcDbLine
10
755.325
20
39.946663
30
0
11
755.325
21
39.989012
31
0
39
0
210
0
220
0
230
1
0
LINE
5
D1
100
AcDbEntity
8
1
62
256
6
ByLayer
370
13
48
1
60
0
100
AcDbLine
10
754.656721
20
39.964828
30
0
11
754.656721
21
39.978104
31
0
39
0
210
0
220
0
230
1
0
LINE
5
D2
100
AcDbEntity
8
1
62
256
6
ByLayer
370
13
48
1
60
0
100
AcDbLine
10
754.656721
20
-39.978104
30
0
11
754.656721
21
-39.964828
31
0
39
0
210
0
220
0
230
1
0
LINE
5
D3
100
AcDbEntity
8
1
62
256
6
ByLayer
370
18
48
1
60
0
100
AcDbLine
10
755.325
20
-39.925663
30
0
11
755.325
21
-39.840847
31
0
39
0
210
0
220
0
230
1
0
LINE
5
D4
100
AcDbEntity
8
1
62
256
6
ByLayer
370
18
48
1
60
0
100
AcDbLine
10
755.325
20
39.840847
30
0
11
755.325
21
39.925663
31
0
39
0
210
0
220
0
230
1
0
LINE
5
D5
100
AcDbEntity
8
1
62
256
6
ByLayer
370
13
48
1
60
0
100
AcDbLine
10
754.656721
20
-39.900236
30
0
11
754.656721
21
-39.873518
31
0
39
0
210
0
220
0
230
1
0
LINE
5
D6
100
AcDbEntity
8
1
62
256
6
ByLayer
370
13
48
1
60
0
100
AcDbLine
10
754.656721
20
39.873518
30
0
11
754.656721
21
39.900236
31
0
39
0
210
0
220
0
230
1
0
LINE
5
D7
100
AcDbEntity
8
1
62
256
6
ByLayer
370
18
48
1
60
0
100
AcDbLine
10
755.325
20
-39.805729
30
0
11
755.325
21
-39.678216
31
0
39
0
210
0
220
0
230
1
0
LINE
5
D8
100
AcDbEntity
8
1
62
256
6
ByLayer
370
18
48
1
60
0
100
AcDbLine
10
755.325
20
39.678216
30
0
11
755.325
21
39.805729
31
0
39
0
210
0
220
0
230
1
0
LINE
5
D9
100
AcDbEntity
8
1
62
256
6
ByLayer
370
13
48
1
60
0
100
AcDbLine
10
754.656721
20
39.725639
30
0
11
754.656721
21
39.765674
31
0
39
0
210
0
220
0
230
1
0
LINE
5
DA
100
AcDbEntity
8
1
62
256
6
ByLayer
370
13
48
1
60
0
100
AcDbLine
10
754.656721
20
-39.765674
30
0
11
754.656721
21
-39.725639
31
0
39
0
210
0
220
0
230
1
0
LINE
5
DB
100
AcDbEntity
8
1
62
256
6
ByLayer
370
18
48
1
60
0
100
AcDbLine
10
755.325
20
-39.628697
30
0
11
755.325
21
-39.457851
31
0
39
0
210
0
220
0
230
1
0
LINE
5
DC
100
AcDbEntity
8
1
62
256
6
ByLayer
370
18
48
1
60
0
100
AcDbLine
10
755.325
20
39.457851
30
0
11
755.325
21
39.628697
31
0
39
0
210
0
220
0
230
1
0
LINE
5
DD
100
AcDbEntity
8
1
62
256
6
ByLayer
370
13
48
1
60
0
100
AcDbLine
10
754.656721
20
39.520085
30
0
11
754.656721
21
39.57384
31
0
39
0
210
0
220
0
230
1
0
LINE
5
DE
100
AcDbEntity
8
1
62
256
6
ByLayer
370
13
48
1
60
0
100
AcDbLine
10
754.656721
20
-39.57384
30
0
11
754.656721
21
-39.520085
31
0
39
0
210
0
220
0
230
1
0
LINE
5
DF
100
AcDbEntity
8
1
62
256
6
ByLayer
370
18
48
1
60
0
100
AcDbLine
10
755.325
20
39.178981
30
0
11
755.325
21
39.393795
31
0
39
0
210
0
220
0
230
1
0
LINE
5
E0
100
AcDbEntity
8
1
62
256
6
ByLayer
370
18
48
1
60
0
100
AcDbLine
10
755.325
20
-39.393795
30
0
11
755.325
21
-39.178981
31
0
39
0
210
0
220
0
230
1
0
LINE
5
E1
100
AcDbEntity
8
1
62
256
6
ByLayer
370
13
48
1
60
0
100
AcDbLine
10
754.656721
20
-39.323896
30
0
11
754.656721
21
-39.256308
31
0
39
0
210
0
220
0
230
1
0
LINE
5
E2
100
AcDbEntity
8
1
62
256
6
ByLayer
370
13
48
1
60
0
100
AcDbLine
10
754.656721
20
39.256308
30
0
11
754.656721
21
39.323896
31
0
39
0
210
0
220
0
230
1
0
LINE
5
E3
100
AcDbEntity
8
1
62
256
6
ByLayer
370
18
48
1
60
0
100
AcDbLine
10
755.325
20
-39.099982
30
0
11
755.325
21
-38.839723
31
0
39
0
210
0
220
0
230
1
0
LINE
5
E4
100
AcDbEntity
8
1
62
256
6
ByLayer
370
18
48
1
60
0
100
AcDbLine
10
755.325
20
38.839723
30
0
11
755.325
21
39.099982
31
0
39
0
210
0
220
0
230
1
0
LINE
5
E5
100
AcDbEntity
8
1
62
256
6
ByLayer
370
13
48
1
60
0
100
AcDbLine
10
754.656721
20
-39.014726
30
0
11
754.656721
21
-38.933039
31
0
39
0
210
0
220
0
230
1
0
LINE
5
E6
100
AcDbEntity
8
1
62
256
6
ByLayer
370
13
48
1
60
0
100
AcDbLine
10
754.656721
20
38.933039
30
0
11
754.656721
21
39.014726
31
0
39
0
210
0
220
0
230
1
0
LINE
5
E7
100
AcDbEntity
8
1
62
256
6
ByLayer
370
18
48
1
60
0
100
AcDbLine
10
755.325
20
-38.745917
30
0
11
755.325
21
-38.439582
31
0
39
0
210
0
220
0
230
1
0
LINE
5
E8
100
AcDbEntity
8
1
62
256
6
ByLayer
370
18
48
1
60
0
100
AcDbLine
10
755.325
20
38.439582
30
0
11
755.325
21
38.745917
31
0
39
0
210
0
220
0
230
1
0
LINE
5
E9
100
AcDbEntity
8
1
62
256
6
ByLayer
370
13
48
1
60
0
100
AcDbLine
10
754.656721
20
-38.644907
30
0
11
754.656721
21
-38.548295
31
0
39
0
210
0
220
0
230
1
0
LINE
5
EA
100
AcDbEntity
8
1
62
256
6
ByLayer
370
13
48
1
60
0
100
AcDbLine
10
754.656721
20
38.548295
30
0
11
754.656721
21
38.644907
31
0
39
0
210
0
220
0
230
1
0
LINE
5
EB
100
AcDbEntity
8
1
62
256
6
ByLayer
370
18
48
1
60
0
100
AcDbLine
10
755.325
20
-38.329931
30
0
11
755.325
21
-37.975379
31
0
39
0
210
0
220
0
230
1
0
LINE
5
EC
100
AcDbEntity
8
1
62
256
6
ByLayer
370
18
48
1
60
0
100
AcDbLine
10
755.325
20
37.975379
30
0
11
755.325
21
38.329931
31
0
39
0
210
0
220
0
230
1
0
LINE
5
ED
100
AcDbEntity
8
1
62
256
6
ByLayer
370
13
48
1
60
0
100
AcDbLine
10
754.656721
20
-38.212679
30
0
11
754.656721
21
-38.100429
31
0
39
0
210
0
220
0
230
1
0
LINE
5
EE
100
AcDbEntity
8
1
62
256
6
ByLayer
370
13
48
1
60
0
100
AcDbLine
10
754.656721
20
38.100429
30
0
11
754.656721
21
38.212679
31
0
39
0
210
0
220
0
230
1
0
LINE
5
EF
100
AcDbEntity
8
1
62
256
6
ByLayer
370
18
48
1
60
0
100
AcDbLine
10
755.325
20
-37.849981
30
0
11
755.325
21
-37.44546
31
0
39
0
210
0
220
0
230
1
0
LINE
5
F0
100
AcDbEntity
8
1
62
256
6
ByLayer
370
18
48
1
60
0
100
AcDbLine
10
755.325
20
37.44546
30
0
11
755.325
21
37.849981
31
0
39
0
210
0
220
0
230
1
0
LINE
5
F1
100
AcDbEntity
8
1
62
256
6
ByLayer
370
13
48
1
60
0
100
AcDbLine
10
754.656721
20
-37.715897
30
0
11
754.656721
21
-37.588605
31
0
39
0
210
0
220
0
230
1
0
LINE
5
F2
100
AcDbEntity
8
1
62
256
6
ByLayer
370
13
48
1
60
0
100
AcDbLine
10
754.656721
20
37.588605
30
0
11
754.656721
21
37.715897
31
0
39
0
210
0
220
0
230
1
0
LINE
5
F3
100
AcDbEntity
8
1
62
256
6
ByLayer
370
18
48
1
60
0
100
AcDbLine
10
755.325
20
-37.3036
30
0
11
755.325
21
-25.999444
31
0
39
0
210
0
220
0
230
1
0
LINE
5
F4
100
AcDbEntity
8
1
62
256
6
ByLayer
370
18
48
1
60
0
100
AcDbLine
10
755.325
20
25.999444
30
0
11
755.325
21
37.3036
31
0
39
0
210
0
220
0
230
1
0
LINE
5
F5
100
AcDbEntity
8
1
62
256
6
ByLayer
370
13
48
1
60
0
100
AcDbLine
10
754.656721
20
-37.15197
30
0
11
754.656721
21
-37.008006
31
0
39
0
210
0
220
0
230
1
0
LINE
5
F6
100
AcDbEntity
8
1
62
256
6
ByLayer
370
13
48
1
60
0
100
AcDbLine
10
754.656721
20
37.008006
30
0
11
754.656721
21
37.15197
31
0
39
0
210
0
220
0
230
1
0
LINE
5
F7
100
AcDbEntity
8
1
62
256
6
ByLayer
370
18
48
1
60
0
100
AcDbLine
10
754.968389
20
-36.934733
30
0
11
754.968389
21
-25.999744
31
0
39
0
210
0
220
0
230
1
0
LINE
5
F8
100
AcDbEntity
8
1
62
256
6
ByLayer
370
18
48
1
60
0
100
AcDbLine
10
754.968389
20
25.999744
30
0
11
754.968389
21
36.934733
31
0
39
0
210
0
220
0
230
1
0
LINE
5
F9
100
AcDbEntity
8
1
62
256
6
ByLayer
370
18
48
1
60
0
100
AcDbLine
10
755.325
20
37.446577
30
0
11
755.325
21
37.3036
31
0
39
0
210
0
220
0
230
1
0
LINE
5
FA
100
AcDbEntity
8
1
62
256
6
ByLayer
370
18
48
1
60
0
100
AcDbLine
10
755.325
20
37.976092
30
0
11
755.325
21
37.849981
31
0
39
0
210
0
220
0
230
1
0
LINE
5
FB
100
AcDbEntity
8
1
62
256
6
ByLayer
370
18
48
1
60
0
100
AcDbLine
10
755.325
20
38.439837
30
0
11
755.325
21
38.329931
31
0
39
0
210
0
220
0
230
1
0
LINE
5
FC
100
AcDbEntity
8
1
62
256
6
ByLayer
370
18
48
1
60
0
100
AcDbLine
10
755.325
20
38.840167
30
0
11
755.325
21
38.745917
31
0
39
0
210
0
220
0
230
1
0
LINE
5
FD
100
AcDbEntity
8
1
62
256
6
ByLayer
370
18
48
1
60
0
100
AcDbLine
10
755.325
20
39.179026
30
0
11
755.325
21
39.099982
31
0
39
0
210
0
220
0
230
1
0
LINE
5
FE
100
AcDbEntity
8
1
62
256
6
ByLayer
370
18
48
1
60
0
100
AcDbLine
10
755.325
20
39.457998
30
0
11
755.325
21
39.393795
31
0
39
0
210
0
220
0
230
1
0
LINE
5
FF
100
AcDbEntity
8
1
62
256
6
ByLayer
370
18
48
1
60
0
100
AcDbLine
10
755.325
20
39.678345
30
0
11
755.325
21
39.628697
31
0
39
0
210
0
220
0
230
1
0
LINE
5
100
100
AcDbEntity
8
1
62
256
6
ByLayer
370
18
48
1
60
0
100
AcDbLine
10
755.325
20
39.841042
30
0
11
755.325
21
39.805729
31
0
39
0
210
0
220
0
230
1
0
LINE
5
101
100
AcDbEntity
8
1
62
256
6
ByLayer
370
18
48
1
60
0
100
AcDbLine
10
755.325
20
39.946791
30
0
11
755.325
21
39.925663
31
0
39
0
210
0
220
0
230
1
0
LINE
5
102
100
AcDbEntity
8
1
62
256
6
ByLayer
370
18
48
1
60
0
100
AcDbLine
10
755.325
20
39.996045
30
0
11
755.325
21
39.989012
31
0
39
0
210
0
220
0
230
1
0
LINE
5
103
100
AcDbEntity
8
1
62
256
6
ByLayer
370
18
48
1
60
0
100
AcDbLine
10
755.325
20
-39.989012
30
0
11
755.325
21
-39.996045
31
0
39
0
210
0
220
0
230
1
0
LINE
5
104
100
AcDbEntity
8
1
62
256
6
ByLayer
370
18
48
1
60
0
100
AcDbLine
10
755.325
20
-39.925663
30
0
11
755.325
21
-39.946791
31
0
39
0
210
0
220
0
230
1
0
LINE
5
105
100
AcDbEntity
8
1
62
256
6
ByLayer
370
18
48
1
60
0
100
AcDbLine
10
755.325
20
-39.805729
30
0
11
755.325
21
-39.841042
31
0
39
0
210
0
220
0
230
1
0
LINE
5
106
100
AcDbEntity
8
1
62
256
6
ByLayer
370
18
48
1
60
0
100
AcDbLine
10
755.325
20
-39.628697
30
0
11
755.325
21
-39.678345
31
0
39
0
210
0
220
0
230
1
0
LINE
5
107
100
AcDbEntity
8
1
62
256
6
ByLayer
370
18
48
1
60
0
100
AcDbLine
10
755.325
20
-39.393795
30
0
11
755.325
21
-39.457998
31
0
39
0
210
0
220
0
230
1
0
LINE
5
108
100
AcDbEntity
8
1
62
256
6
ByLayer
370
18
48
1
60
0
100
AcDbLine
10
755.325
20
-39.099982
30
0
11
755.325
21
-39.179026
31
0
39
0
210
0
220
0
230
1
0
LINE
5
109
100
AcDbEntity
8
1
62
256
6
ByLayer
370
18
48
1
60
0
100
AcDbLine
10
755.325
20
-38.745917
30
0
11
755.325
21
-38.840167
31
0
39
0
210
0
220
0
230
1
0
LINE
5
10A
100
AcDbEntity
8
1
62
256
6
ByLayer
370
18
48
1
60
0
100
AcDbLine
10
755.325
20
-38.329931
30
0
11
755.325
21
-38.439837
31
0
39
0
210
0
220
0
230
1
0
LINE
5
10B
100
AcDbEntity
8
1
62
256
6
ByLayer
370
18
48
1
60
0
100
AcDbLine
10
755.325
20
-37.849981
30
0
11
755.325
21
-37.976092
31
0
39
0
210
0
220
0
230
1
0
LINE
5
10C
100
AcDbEntity
8
1
62
256
6
ByLayer
370
18
48
1
60
0
100
AcDbLine
10
755.325
20
-37.3036
30
0
11
755.325
21
-37.446577
31
0
39
0
210
0
220
0
230
1
0
LINE
5
10D
100
AcDbEntity
8
1
62
256
6
ByLayer
370
18
48
1
60
0
100
AcDbLine
10
746
20
-40
30
0
11
746
21
40
31
0
39
0
210
0
220
0
230
1
0
LINE
5
10E
100
AcDbEntity
8
1
62
256
6
ByLayer
370
18
48
1
60
0
100
AcDbLine
10
749.92242
20
19.324639
30
0
11
750.864682
21
18.623785
31
0
39
0
210
0
220
0
230
1
0
LINE
5
10F
100
AcDbEntity
8
1
62
256
6
ByLayer
370
18
48
1
60
0
100
AcDbLine
10
749.035128
20
19.067025
30
0
11
749.92242
21
19.324639
31
0
39
0
210
0
220
0
230
1
0
LINE
5
110
100
AcDbEntity
8
1
62
256
6
ByLayer
370
18
48
1
60
0
100
AcDbLine
10
749.92242
20
19.324639
30
0
11
750.444525
21
21.307528
31
0
39
0
210
0
220
0
230
1
0
LINE
5
111
100
AcDbEntity
8
1
62
256
6
ByLayer
370
18
48
1
60
0
100
AcDbLine
10
751.401134
20
18.77953
30
0
11
751.801091
21
20.298516
31
0
39
0
210
0
220
0
230
1
0
LINE
5
112
100
AcDbEntity
8
1
62
256
6
ByLayer
370
18
48
1
60
0
100
AcDbLine
10
751.567527
20
18.82783
30
0
11
749.977398
21
18.366156
31
0
39
0
210
0
220
0
230
1
0
LINE
5
113
100
AcDbEntity
8
1
62
256
6
ByLayer
370
18
48
1
60
0
100
AcDbLine
10
749.977398
20
18.366156
30
0
11
748.620832
21
19.375169
31
0
39
0
210
0
220
0
230
1
0
LINE
5
114
100
AcDbEntity
8
1
62
256
6
ByLayer
370
18
48
1
60
0
100
AcDbLine
10
748.620832
20
19.375169
30
0
11
748.854396
21
20.845855
31
0
39
0
210
0
220
0
230
1
0
LINE
5
115
100
AcDbEntity
8
1
62
256
6
ByLayer
370
18
48
1
60
0
100
AcDbLine
10
748.854396
20
20.845855
30
0
11
750.444525
21
21.307528
31
0
39
0
210
0
220
0
230
1
0
LINE
5
116
100
AcDbEntity
8
1
62
256
6
ByLayer
370
18
48
1
60
0
100
AcDbLine
10
750.444525
20
21.307528
30
0
11
751.801091
21
20.298516
31
0
39
0
210
0
220
0
230
1
0
LINE
5
117
100
AcDbEntity
8
1
62
256
6
ByLayer
370
18
48
1
60
0
100
AcDbLine
10
751.801091
20
20.298516
30
0
11
751.567527
21
18.82783
31
0
39
0
210
0
220
0
230
1
0
LINE
5
118
100
AcDbEntity
8
1
62
256
6
ByLayer
370
18
48
1
60
0
100
AcDbLine
10
753.984641
20
26
30
0
11
753.984641
21
-26
31
0
39
0
210
0
220
0
230
1
0
LINE
5
119
100
AcDbEntity
8
1
62
256
6
ByLayer
370
18
48
1
60
0
100
AcDbLine
10
762.428703
20
26
30
0
11
753.984641
21
26
31
0
39
0
210
0
220
0
230
1
0
LINE
5
11A
100
AcDbEntity
8
1
62
256
6
ByLayer
370
18
48
1
60
0
100
AcDbLine
10
762.428703
20
-26
30
0
11
753.984641
21
-26
31
0
39
0
210
0
220
0
230
1
0
LINE
5
11B
100
AcDbEntity
8
1
62
256
6
ByLayer
370
18
48
1
60
0
100
AcDbLine
10
768.484641
20
-20.786801
30
0
11
768.484641
21
20.786801
31
0
39
0
210
0
220
0
230
1
0
LINE
5
11C
100
AcDbEntity
8
1
62
256
6
ByLayer
370
18
48
1
60
0
100
AcDbLine
10
769.484641
20
19.513103
30
0
11
769.484641
21
-19.513103
31
0
39
0
210
0
220
0
230
1
0
LINE
5
11D
100
AcDbEntity
8
1
62
256
6
ByLayer
370
13
48
0.05
60
0
100
AcDbLine
10
752.3
20
0
30
0
11
-6.5
21
0
31
0
39
0
210
0
220
0
230
1
0
LINE
5
11E
100
AcDbEntity
8
SK2
62
256
6
ByLayer
370
18
48
1
60
0
100
AcDbLine
10
-66.6
20
-50
30
0
11
-66.6
21
50
31
0
39
0
210
0
220
0
230
1
0
LINE
5
120
100
AcDbEntity
8
SK2
62
256
6
ByLayer
370
18
48
1
60
0
100
AcDbLine
10
-1.2875
20
50
30
0
11
-68.6
21
50
31
0
39
0
210
0
220
0
230
1
0
LINE
5
121
100
AcDbEntity
8
SK2
62
256
6
ByLayer
370
18
48
1
60
0
100
AcDbLine
10
-1.2875
20
-50
30
0
11
-68.6
21
-50
31
0
39
0
210
0
220
0
230
1
0
LINE
5
122
100
AcDbEntity
8
1
62
256
6
ByLayer
370
18
48
1
60
1
100
AcDbLine
10
-66.6
20
50
30
0
11
-66.139216
21
46.500002
31
0
39
0
210
0
220
0
230
1
0
LINE
5
123
100
AcDbEntity
8
1
62
256
6
ByLayer
370
18
48
1
60
1
100
AcDbLine
10
-66.139216
20
46.500002
30
0
11
-67.060784
21
46.499998
31
0
39
0
210
0
220
0
230
1
0
LINE
5
124
100
AcDbEntity
8
1
62
256
6
ByLayer
370
18
48
1
60
1
100
AcDbLine
10
-67.060784
20
46.499998
30
0
11
-66.6
21
50
31
0
39
0
210
0
220
0
230
1
0
LINE
5
125
100
AcDbEntity
8
1
62
256
6
ByLayer
370
18
48
1
60
1
100
AcDbLine
10
-66.6
20
-50
30
0
11
-67.060784
21
-46.500002
31
0
39
0
210
0
220
0
230
1
0
LINE
5
126
100
AcDbEntity
8
1
62
256
6
ByLayer
370
18
48
1
60
1
100
AcDbLine
10
-67.060784
20
-46.500002
30
0
11
-66.139216
21
-46.499998
31
0
39
0
210
0
220
0
230
1
0
LINE
5
127
100
AcDbEntity
8
1
62
256
6
ByLayer
370
18
48
1
60
1
100
AcDbLine
10
-66.139216
20
-46.499998
30
0
11
-66.6
21
-50
31
0
39
0
210
0
220
0
230
1
0
LINE
5
128
100
AcDbEntity
8
SK2
62
256
6
ByLayer
370
18
48
1
60
0
100
AcDbLine
10
782.727312
20
-40
30
0
11
782.727312
21
40
31
0
39
0
210
0
220
0
230
1
0
LINE
5
129
100
AcDbEntity
8
SK2
62
256
6
ByLayer
370
18
48
1
60
0
100
AcDbLine
10
747.3875
20
40
30
0
11
784.727312
21
40
31
0
39
0
210
0
220
0
230
1
0
LINE
5
12A
100
AcDbEntity
8
SK2
62
256
6
ByLayer
370
18
48
1
60
0
100
AcDbLine
10
747.3875
20
-40
30
0
11
784.727312
21
-40
31
0
39
0
210
0
220
0
230
1
0
LINE
5
12B
100
AcDbEntity
8
1
62
256
6
ByLayer
370
18
48
1
60
1
100
AcDbLine
10
782.727312
20
40
30
0
11
783.188095
21
36.500002
31
0
39
0
210
0
220
0
230
1
0
LINE
5
12C
100
AcDbEntity
8
1
62
256
6
ByLayer
370
18
48
1
60
1
100
AcDbLine
10
783.188095
20
36.500002
30
0
11
782.266528
21
36.499998
31
0
39
0
210
0
220
0
230
1
0
LINE
5
12D
100
AcDbEntity
8
1
62
256
6
ByLayer
370
18
48
1
60
1
100
AcDbLine
10
782.266528
20
36.499998
30
0
11
782.727312
21
40
31
0
39
0
210
0
220
0
230
1
0
LINE
5
12E
100
AcDbEntity
8
1
62
256
6
ByLayer
370
18
48
1
60
1
100
AcDbLine
10
782.727312
20
-40
30
0
11
782.266528
21
-36.500002
31
0
39
0
210
0
220
0
230
1
0
LINE
5
12F
100
AcDbEntity
8
1
62
256
6
ByLayer
370
18
48
1
60
1
100
AcDbLine
10
782.266528
20
-36.500002
30
0
11
783.188095
21
-36.499998
31
0
39
0
210
0
220
0
230
1
0
LINE
5
130
100
AcDbEntity
8
1
62
256
6
ByLayer
370
18
48
1
60
1
100
AcDbLine
10
783.188095
20
-36.499998
30
0
11
782.727312
21
-40
31
0
39
0
210
0
220
0
230
1
0
LINE
5
131
100
AcDbEntity
8
SK2
62
256
6
ByLayer
370
18
48
1
60
0
100
AcDbLine
10
0
20
55.6
30
0
11
755
21
55.6
31
0
39
0
210
0
220
0
230
1
0
LINE
5
132
100
AcDbEntity
8
SK2
62
256
6
ByLayer
370
18
48
1
60
0
100
AcDbLine
10
755
20
41.5875
30
0
11
755
21
57.6
31
0
39
0
210
0
220
0
230
1
0
LINE
5
133
100
AcDbEntity
8
SK2
62
256
6
ByLayer
370
18
48
1
60
0
100
AcDbLine
10
0
20
51.2875
30
0
11
0
21
57.6
31
0
39
0
210
0
220
0
230
1
0
LINE
5
134
100
AcDbEntity
8
1
62
256
6
ByLayer
370
18
48
1
60
1
100
AcDbLine
10
755
20
55.6
30
0
11
751.500002
21
55.139216
31
0
39
0
210
0
220
0
230
1
0
LINE
5
135
100
AcDbEntity
8
1
62
256
6
ByLayer
370
18
48
1
60
1
100
AcDbLine
10
751.500002
20
55.139216
30
0
11
751.499998
21
56.060784
31
0
39
0
210
0
220
0
230
1
0
LINE
5
136
100
AcDbEntity
8
1
62
256
6
ByLayer
370
18
48
1
60
1
100
AcDbLine
10
751.499998
20
56.060784
30
0
11
755
21
55.6
31
0
39
0
210
0
220
0
230
1
0
LINE
5
137
100
AcDbEntity
8
1
62
256
6
ByLayer
370
18
48
1
60
1
100
AcDbLine
10
0
20
55.6
30
0
11
3.499998
21
56.060784
31
0
39
0
210
0
220
0
230
1
0
LINE
5
138
100
AcDbEntity
8
1
62
256
6
ByLayer
370
18
48
1
60
1
100
AcDbLine
10
3.499998
20
56.060784
30
0
11
3.500002
21
55.139216
31
0
39
0
210
0
220
0
230
1
0
LINE
5
139
100
AcDbEntity
8
1
62
256
6
ByLayer
370
18
48
1
60
1
100
AcDbLine
10
3.500002
20
55.139216
30
0
11
0
21
55.6
31
0
39
0
210
0
220
0
230
1
0
LINE
5
1B9
100
AcDbEntity
8
1
62
256
6
ByLayer
370
13
48
0.05
60
0
100
AcDbLine
10
757.834185
20
-14.391058
30
0
11
776.788966
21
-31.458019
31
0
39
0
210
0
220
0
230
1
0
LINE
5
1BA
100
AcDbEntity
8
1
62
256
6
ByLayer
370
13
48
0.05
60
0
100
AcDbLine
10
744.274062
20
2.710772
30
0
11
752.063276
21
-26.871706
31
0
39
0
210
0
220
0
230
1
0
LINE
5
1BB
100
AcDbEntity
8
1
62
256
6
ByLayer
370
13
48
0.05
60
0
100
AcDbLine
10
761.825
20
0
30
0
11
739.5
21
0
31
0
39
0
210
0
220
0
230
1
0
LINE
5
1BC
100
AcDbEntity
8
1
62
256
6
ByLayer
370
13
48
0.05
60
0
100
AcDbLine
10
744.274525
20
-2.709011
30
0
11
752.062964
21
26.870519
31
0
39
0
210
0
220
0
230
1
0
LINE
5
1BD
100
AcDbEntity
8
1
62
256
6
ByLayer
370
13
48
0.05
60
0
100
AcDbLine
10
757.750447
20
14.486302
30
0
11
776.705228
21
31.553264
31
0
39
0
210
0
220
0
230
1
0
LINE
5
1C2
100
AcDbEntity
8
1
62
256
6
ByLayer
370
18
48
1
60
1
100
AcDbLine
10
-66.6
20
50
30
0
11
-66.139216
21
46.500002
31
0
39
0
210
0
220
0
230
1
0
LINE
5
1C3
100
AcDbEntity
8
1
62
256
6
ByLayer
370
18
48
1
60
1
100
AcDbLine
10
-66.139216
20
46.500002
30
0
11
-67.060784
21
46.499998
31
0
39
0
210
0
220
0
230
1
0
LINE
5
1C4
100
AcDbEntity
8
1
62
256
6
ByLayer
370
18
48
1
60
1
100
AcDbLine
10
-67.060784
20
46.499998
30
0
11
-66.6
21
50
31
0
39
0
210
0
220
0
230
1
0
LINE
5
1C6
100
AcDbEntity
8
1
62
256
6
ByLayer
370
18
48
1
60
1
100
AcDbLine
10
-66.6
20
-50
30
0
11
-67.060784
21
-46.500002
31
0
39
0
210
0
220
0
230
1
0
LINE
5
1C7
100
AcDbEntity
8
1
62
256
6
ByLayer
370
18
48
1
60
1
100
AcDbLine
10
-67.060784
20
-46.500002
30
0
11
-66.139216
21
-46.499998
31
0
39
0
210
0
220
0
230
1
0
LINE
5
1C8
100
AcDbEntity
8
1
62
256
6
ByLayer
370
18
48
1
60
1
100
AcDbLine
10
-66.139216
20
-46.499998
30
0
11
-66.6
21
-50
31
0
39
0
210
0
220
0
230
1
0
LINE
5
1CC
100
AcDbEntity
8
1
62
256
6
ByLayer
370
18
48
1
60
1
100
AcDbLine
10
782.727312
20
40
30
0
11
783.188095
21
36.500002
31
0
39
0
210
0
220
0
230
1
0
LINE
5
1CD
100
AcDbEntity
8
1
62
256
6
ByLayer
370
18
48
1
60
1
100
AcDbLine
10
783.188095
20
36.500002
30
0
11
782.266528
21
36.499998
31
0
39
0
210
0
220
0
230
1
0
LINE
5
1CE
100
AcDbEntity
8
1
62
256
6
ByLayer
370
18
48
1
60
1
100
AcDbLine
10
782.266528
20
36.499998
30
0
11
782.727312
21
40
31
0
39
0
210
0
220
0
230
1
0
LINE
5
1D0
100
AcDbEntity
8
1
62
256
6
ByLayer
370
18
48
1
60
1
100
AcDbLine
10
782.727312
20
-40
30
0
11
782.266528
21
-36.500002
31
0
39
0
210
0
220
0
230
1
0
LINE
5
1D1
100
AcDbEntity
8
1
62
256
6
ByLayer
370
18
48
1
60
1
100
AcDbLine
10
782.266528
20
-36.500002
30
0
11
783.188095
21
-36.499998
31
0
39
0
210
0
220
0
230
1
0
LINE
5
1D2
100
AcDbEntity
8
1
62
256
6
ByLayer
370
18
48
1
60
1
100
AcDbLine
10
783.188095
20
-36.499998
30
0
11
782.727312
21
-40
31
0
39
0
210
0
220
0
230
1
0
LINE
5
1D5
100
AcDbEntity
8
1
62
256
6
ByLayer
370
18
48
1
60
1
100
AcDbLine
10
755
20
55.6
30
0
11
751.500002
21
55.139216
31
0
39
0
210
0
220
0
230
1
0
LINE
5
1D6
100
AcDbEntity
8
1
62
256
6
ByLayer
370
18
48
1
60
1
100
AcDbLine
10
751.500002
20
55.139216
30
0
11
751.499998
21
56.060784
31
0
39
0
210
0
220
0
230
1
0
LINE
5
1D7
100
AcDbEntity
8
1
62
256
6
ByLayer
370
18
48
1
60
1
100
AcDbLine
10
751.499998
20
56.060784
30
0
11
755
21
55.6
31
0
39
0
210
0
220
0
230
1
0
LINE
5
1D9
100
AcDbEntity
8
1
62
256
6
ByLayer
370
18
48
1
60
1
100
AcDbLine
10
0
20
55.6
30
0
11
3.499998
21
56.060784
31
0
39
0
210
0
220
0
230
1
0
LINE
5
1DA
100
AcDbEntity
8
1
62
256
6
ByLayer
370
18
48
1
60
1
100
AcDbLine
10
3.499998
20
56.060784
30
0
11
3.500002
21
55.139216
31
0
39
0
210
0
220
0
230
1
0
LINE
5
1DB
100
AcDbEntity
8
1
62
256
6
ByLayer
370
18
48
1
60
1
100
AcDbLine
10
3.500002
20
55.139216
30
0
11
0
21
55.6
31
0
39
0
210
0
220
0
230
1
0
MTEXT
5
1BE
100
AcDbEntity
8
SK2
62
256
6
ByLayer
370
18
48
1
60
0
100
AcDbMText
10
-68.164634
20
-5.400922
30
0
210
0
220
0
230
1
1
%%c
40
3.5
41
0
44
1.084337
50
90
71
7
72
5
7
iso_b_vert
0
MTEXT
5
1C1
100
AcDbEntity
8
SK2
62
256
6
ByLayer
370
18
48
1
60
0
100
AcDbMText
10
-68.164634
20
1.571734
30
0
210
0
220
0
230
1
1
\W0.6217;100
40
3.5
41
0
44
1.084337
50
90
71
7
72
5
7
iso_b_vert
0
MTEXT
5
1CA
100
AcDbEntity
8
SK2
62
256
6
ByLayer
370
18
48
1
60
0
100
AcDbMText
10
781.162678
20
-4.530622
30
0
210
0
220
0
230
1
1
%%c
40
3.5
41
0
44
1.084337
50
90
71
7
72
5
7
iso_b_vert
0
MTEXT
5
1CB
100
AcDbEntity
8
SK2
62
256
6
ByLayer
370
18
48
1
60
0
100
AcDbMText
10
781.162678
20
2.442034
30
0
210
0
220
0
230
1
1
\W0.6740;80
40
3.5
41
0
44
1.084337
50
90
71
7
72
5
7
iso_b_vert
0
MTEXT
5
1D4
100
AcDbEntity
8
SK2
62
256
6
ByLayer
370
18
48
1
60
0
100
AcDbMText
10
374.287301
20
56.632634
30
0
210
0
220
0
230
1
1
\W0.7138;755
40
3.5
41
0
44
1.084337
50
0
71
7
72
5
7
iso_b_vert
0
MTEXT
5
1DD
100
AcDbEntity
8
SK6
62
256
6
ByLayer
370
18
48
1
60
0
100
AcDbMText
10
331.755693
20
-75.567366
30
0
210
0
220
0
230
1
1
\W0.7343;HT30D-C10 80 755-80
40
3.5
41
0
44
1.084337
50
0
71
7
72
5
7
iso_b_vert
0
HATCH
5
1C5
100
AcDbEntity
8
SK2
62
256
6
ByLayer
370
13
48
1
60
0
100
AcDbHatch
10
0
20
0
30
0
210
0
220
0
230
1
2
ANSI31
70
0
71
0
91
1
92
5
93
3
72
1
10
-66.6000000000003
20
49.9999999999999
11
-66.1392162584475
21
46.5000016925531
72
1
10
-66.1392162584475
20
46.5000016925531
11
-67.060783741553
21
46.4999983074467
72
1
10
-67.060783741553
20
46.4999983074467
11
-66.6000000000003
21
49.9999999999999
97
0
75
0
76
1
52
0
41
0.0062
77
0
78
1
53
45
43
0
44
0
45
-0.0139193969876572
46
0.0139193969876572
79
0
47
0
98
1
10
0
20
0
0
HATCH
5
1C9
100
AcDbEntity
8
SK2
62
256
6
ByLayer
370
13
48
1
60
0
100
AcDbHatch
10
0
20
0
30
0
210
0
220
0
230
1
2
ANSI31
70
0
71
0
91
1
92
5
93
3
72
1
10
-66.6000000000003
20
-50.0000000000001
11
-67.060783741553
21
-46.5000016925533
72
1
10
-67.060783741553
20
-46.5000016925533
11
-66.1392162584475
21
-46.4999983074469
72
1
10
-66.1392162584475
20
-46.4999983074469
11
-66.6000000000003
21
-50.0000000000001
97
0
75
0
76
1
52
0
41
0.0062
77
0
78
1
53
45
43
0
44
0
45
-0.0139193969876572
46
0.0139193969876572
79
0
47
0
98
1
10
0
20
0
0
HATCH
5
1CF
100
AcDbEntity
8
SK2
62
256
6
ByLayer
370
13
48
1
60
0
100
AcDbHatch
10
0
20
0
30
0
210
0
220
0
230
1
2
ANSI31
70
0
71
0
91
1
92
5
93
3
72
1
10
782.727311692569
20
39.9999999999973
11
783.188095434122
21
36.5000016925505
72
1
10
783.188095434122
20
36.5000016925505
11
782.266527951017
21
36.4999983074441
72
1
10
782.266527951017
20
36.4999983074441
11
782.727311692569
21
39.9999999999973
97
0
75
0
76
1
52
0
41
0.0062
77
0
78
1
53
45
43
0
44
0
45
-0.0139193969876572
46
0.0139193969876572
79
0
47
0
98
1
10
0
20
0
0
HATCH
5
1D3
100
AcDbEntity
8
SK2
62
256
6
ByLayer
370
13
48
1
60
0
100
AcDbHatch
10
0
20
0
30
0
210
0
220
0
230
1
2
ANSI31
70
0
71
0
91
1
92
5
93
3
72
1
10
782.727311692569
20
-40.0000000000028
11
782.266527951017
21
-36.500001692556
72
1
10
782.266527951017
20
-36.500001692556
11
783.188095434122
21
-36.4999983074496
72
1
10
783.188095434122
20
-36.4999983074496
11
782.727311692569
21
-40.0000000000028
97
0
75
0
76
1
52
0
41
0.0062
77
0
78
1
53
45
43
0
44
0
45
-0.0139193969876572
46
0.0139193969876572
79
0
47
0
98
1
10
0
20
0
0
HATCH
5
1D8
100
AcDbEntity
8
SK2
62
256
6
ByLayer
370
13
48
1
60
0
100
AcDbHatch
10
0
20
0
30
0
210
0
220
0
230
1
2
ANSI31
70
0
71
0
91
1
92
5
93
3
72
1
10
755
20
55.6000000000003
11
751.500001692553
21
55.1392162584474
72
1
10
751.500001692553
20
55.1392162584474
11
751.499998307447
21
56.0607837415531
72
1
10
751.499998307447
20
56.0607837415531
11
755
21
55.6000000000003
97
0
75
0
76
1
52
0
41
0.0062
77
0
78
1
53
45
43
0
44
0
45
-0.0139193969876572
46
0.0139193969876572
79
0
47
0
98
1
10
0
20
0
0
HATCH
5
1DC
100
AcDbEntity
8
SK2
62
256
6
ByLayer
370
13
48
1
60
0
100
AcDbHatch
10
0
20
0
30
0
210
0
220
0
230
1
2
ANSI31
70
0
71
0
91
1
92
5
93
3
72
1
10
0
20
55.6000000000003
11
3.49999830744682
21
56.0607837415531
72
1
10
3.49999830744682
20
56.0607837415531
11
3.50000169255318
21
55.1392162584474
72
1
10
3.50000169255318
20
55.1392162584474
11
0
21
55.6000000000003
97
0
75
0
76
1
52
0
41
0.0062
77
0
78
1
53
45
43
0
44
0
45
-0.0139193969876572
46
0.0139193969876572
79
0
47
0
98
1
10
0
20
0
0
DIMENSION
5
1E0
100
AcDbEntity
8
SK2
62
256
6
ByLayer
370
18
48
1
60
0
100
AcDbDimension
2
_U0
10
755
20
-63.1
30
0
11
398.5
21
-63.1
31
0
70
32
71
1
72
1
41
1
210
0
220
0
230
1
3
Standard
100
AcDbAlignedDimension
13
42
23
-40
33
0
14
755
24
40
34
0
50
0
100
AcDbRotatedDimension
1001
ACAD
1000
DSTYLE
1002
{
1070
   371
1070
    13
1070
   372
1070
    13
1070
   170
1070
     0
1070
   144
1040
1.0
1070
   277
1070
     2
1070
   284
1070
     8
1070
   278
1070
    46
1070
   146
1040
1.0
1070
   345
1005
16
1070
   347
1005
16
1070
   346
1005
16
1070
   344
1005
0
1070
   343
1005
0
1070
   172
1070
     1
1070
    76
1070
     0
1070
    75
1070
     0
1070
   282
1070
     0
1070
   281
1070
     0
1070
    71
1070
     0
1070
    74
1070
     0
1070
   279
1070
     0
1070
   173
1070
     1
1070
   340
1005
1BF
1070
   271
1070
     2
1070
   272
1070
     2
1070
    77
1070
     1
1070
    73
1070
     1
1070
   171
1070
     3
1070
   274
1070
     4
1070
   177
1070
     2
1070
   176
1070
     2
1070
   178
1070
     2
1070
    78
1070
     8
1070
    48
1040
-0.1
1070
    41
1040
3.5
1070
   147
1040
1.75
1070
    42
1040
1.5875
1070
    44
1040
2.0
1070
   140
1040
3.5
1002
}
1001
ACAD_DSTYLE_DIM_LINETYPE
1070
   380
1005
16
1001
ACAD_DSTYLE_DIM_EXT1_LINETYPE
1070
   381
1005
16
1001
ACAD_DSTYLE_DIM_EXT2_LINETYPE
1070
   382
1005
16
0
ENDSEC
0
SECTION
2
OBJECTS
0
DICTIONARY
5
269
330
0
100
AcDbDictionary
280
0
281
1
3
ACAD_GROUP
350
26a
3
ACAD_MLINESTYLE
350
26b
0
DICTIONARY
5
26a
330
0
100
AcDbDictionary
280
0
281
1
0
DICTIONARY
5
26b
330
0
100
AcDbDictionary
280
0
281
1
3
Standard
350
18
0
MLINESTYLE
5
18
330
26b
100
AcDbMlineStyle
2
Standard
70
0
3

62
256
51
90
52
90
71
2
49
-0.5
62
256
6
ByLayer
49
0.5
62
256
6
ByLayer
0
RASTERVARIABLES
5
257
330

100
AcDbRasterVariables
90
0
70
1
71
1
72
1
0
ENDSEC
0
EOF
