0
SECTION
2
HEADER
9
$ACADVER
1
AC1015
9
$DWGCODEPAGE
3
ANSI_1252
9
$HANDSEED
5
2ac
9
$ANGBASE
50
0
9
$ANGDIR
70
0
9
$ATTMODE
70
1
9
$AUNITS
70
0
9
$AUPREC
70
0
9
$CECOLOR
62
256
9
$CELTSCALE
40
1
9
$CELTYPE
6
ByLayer
9
$CELWEIGHT
370
18
9
$CLAYER
8
0
9
$CMLJUST
70
0
9
$CMLSCALE
40
1
9
$CMLSTYLE
2
Standard
9
$DIMSTYLE
2
Standard
9
$TEXTSIZE
40
0.2
9
$TEXTSTYLE
7
Standard
9
$LUNITS
70
2
9
$LUPREC
70
4
9
$EXTNAMES
290
1
9
$INSUNITS
70
4
9
$LTSCALE
40
1
9
$LWDISPLAY
290
1
9
$PDMODE
70
0
9
$PDSIZE
40
0
9
$PLINEGEN
70
0
0
ENDSEC
0
SECTION
2
CLASSES
0
CLASS
1
RASTERVARIABLES
2
AcDbRasterVariables
3
ISM
90
0
280
0
281
0
0
ENDSEC
0
SECTION
2
TABLES
0
TABLE
2
VPORT
5
2a2
100
AcDbSymbolTable
0
VPORT
5
1
100
AcDbSymbolTableRecord
100
AcDbViewportTableRecord
2
*Active
70
0
10
0
20
0
11
1
21
1
12
-1
22
1
13
0
23
0
14
0.5
24
0.5
15
10
25
10
16
0
26
0
36
1
17
0
27
0
37
0
0
ENDTAB
0
TABLE
2
LTYPE
5
2a3
100
AcDbSymbolTable
0
LTYPE
5
14
100
AcDbSymbolTableRecord
100
AcDbLinetypeTableRecord
70
0
2
ByBlock
3

72
65
73
0
40
0
0
LTYPE
5
15
100
AcDbSymbolTableRecord
100
AcDbLinetypeTableRecord
70
0
2
ByLayer
3

72
65
73
0
40
0
0
LTYPE
5
16
100
AcDbSymbolTableRecord
100
AcDbLinetypeTableRecord
70
0
2
Continuous
3
Solid line
72
65
73
0
40
0
0
LTYPE
5
6E
100
AcDbSymbolTableRecord
100
AcDbLinetypeTableRecord
70
0
2
CENTER
3
____ _ ____ _ ____ _ ____
72
65
73
4
40
47.5
49
22
74
0
49
-8.5
74
0
49
8.5
74
0
49
-8.5
74
0
0
LTYPE
5
6F
100
AcDbSymbolTableRecord
100
AcDbLinetypeTableRecord
70
0
2
DASHED
3
__ __ __ __ __ __ __ __ __
72
65
73
2
40
25.72
49
12.86
74
0
49
-12.86
74
0
0
ENDTAB
0
TABLE
2
LAYER
5
2a4
100
AcDbSymbolTable
0
LAYER
5
10
100
AcDbSymbolTableRecord
100
AcDbLayerTableRecord
2
0
70
0
62
7
6
Continuous
290
1
370
-3
390
0
0
LAYER
5
71
100
AcDbSymbolTableRecord
100
AcDbLayerTableRecord
2
2
70
0
62
7
6
Continuous
290
1
370
-3
390
0
0
LAYER
5
98
100
AcDbSymbolTableRecord
100
AcDbLayerTableRecord
2
81
70
0
62
-3
6
Continuous
290
1
370
-3
390
0
0
LAYER
5
9A
100
AcDbSymbolTableRecord
100
AcDbLayerTableRecord
2
80
70
0
62
-6
6
Continuous
290
1
370
-3
390
0
0
LAYER
5
9C
100
AcDbSymbolTableRecord
100
AcDbLayerTableRecord
2
1
70
0
62
4
6
Continuous
290
1
370
-3
390
0
0
LAYER
5
A2
100
AcDbSymbolTableRecord
100
AcDbLayerTableRecord
2
4
70
0
62
-2
6
CENTER
290
1
370
-3
390
0
0
LAYER
5
219
100
AcDbSymbolTableRecord
100
AcDbLayerTableRecord
2
Defpoints
70
0
62
7
6
Continuous
290
0
370
-3
390
0
0
LAYER
5
28e
100
AcDbSymbolTableRecord
100
AcDbLayerTableRecord
2
SK4
70
0
62
2
6
CENTER
290
1
370
-3
390
0
0
LAYER
5
28f
100
AcDbSymbolTableRecord
100
AcDbLayerTableRecord
2
SK1
70
0
62
4
6
Continuous
290
1
370
-3
390
0
0
LAYER
5
290
100
AcDbSymbolTableRecord
100
AcDbLayerTableRecord
2
SK2
70
0
62
7
6
Continuous
290
1
370
-3
390
0
0
LAYER
5
291
100
AcDbSymbolTableRecord
100
AcDbLayerTableRecord
2
SK6
70
0
62
5
6
Continuous
290
1
370
-3
390
0
0
ENDTAB
0
TABLE
2
STYLE
5
2a5
100
AcDbSymbolTable
0
STYLE
5
11
100
AcDbSymbolTableRecord
100
AcDbTextStyleTableRecord
2
Standard
3
txt
70
0
71
0
40
0
41
1
42
0
50
0
0
STYLE
5
1E9
100
AcDbSymbolTableRecord
100
AcDbTextStyleTableRecord
2
iso_b_vert
3
simplex.shx
70
0
71
0
40
0
41
1
42
0
50
0
0
STYLE
5
1EA
100
AcDbSymbolTableRecord
100
AcDbTextStyleTableRecord
2
DWGDirectTextStyle
3
simplex
70
0
71
0
40
0
41
1
42
0
50
0
0
ENDTAB
0
TABLE
2
DIMSTYLE
5
2a6
100
AcDbSymbolTable
100
AcDbDimStyleTable
0
DIMSTYLE
105
27
100
AcDbSymbolTableRecord
100
AcDbDimStyleTableRecord
2
Standard
70
0
3
<>
41
0.18
42
0.0625
44
0.18
140
0.18
147
0.09
73
0
74
0
77
1
271
2
275
0
278
52
280
0
340
11
0
ENDTAB
0
TABLE
2
VIEW
5
2a7
100
AcDbSymbolTable
0
ENDTAB
0
TABLE
2
UCS
5
2a8
100
AcDbSymbolTable
0
ENDTAB
0
TABLE
2
APPID
5
2a9
100
AcDbSymbolTable
0
APPID
5
12
100
AcDbSymbolTableRecord
100
AcDbRegAppTableRecord
2
ACAD
70
0
0
APPID
5
215
100
AcDbSymbolTableRecord
100
AcDbRegAppTableRecord
2
ACAD_DSTYLE_DIMBREAK
70
0
0
APPID
5
24D
100
AcDbSymbolTableRecord
100
AcDbRegAppTableRecord
2
ACAD_DSTYLE_DIM_LINETYPE
70
0
0
APPID
5
24E
100
AcDbSymbolTableRecord
100
AcDbRegAppTableRecord
2
ACAD_DSTYLE_DIM_EXT1_LINETYPE
70
0
0
APPID
5
24F
100
AcDbSymbolTableRecord
100
AcDbRegAppTableRecord
2
ACAD_DSTYLE_DIM_EXT2_LINETYPE
70
0
0
APPID
5
28A
100
AcDbSymbolTableRecord
100
AcDbRegAppTableRecord
2
ACAD_MLEADERVER
70
0
0
ENDTAB
0
TABLE
2
BLOCK_RECORD
5
2aa
100
AcDbSymbolTable
0
BLOCK_RECORD
5
1F
100
AcDbSymbolTableRecord
100
AcDbBlockTableRecord
2
*Model_Space
340
0
70
0
0
BLOCK_RECORD
5
1B
100
AcDbSymbolTableRecord
100
AcDbBlockTableRecord
2
*Paper_Space
340
0
70
0
0
BLOCK_RECORD
5
23
100
AcDbSymbolTableRecord
100
AcDbBlockTableRecord
2
*Paper_Space0
340
0
70
0
0
BLOCK_RECORD
5
21A
100
AcDbSymbolTableRecord
100
AcDbBlockTableRecord
2
*D1
340
0
70
0
0
BLOCK_RECORD
5
226
100
AcDbSymbolTableRecord
100
AcDbBlockTableRecord
2
_U0
340
0
70
0
0
ENDTAB
0
ENDSEC
0
SECTION
2
BLOCKS
0
BLOCK
5
20
100
AcDbEntity
8
0
100
AcDbBlockBegin
2
*Model_Space
70
0
10
0
20
0
30
0
3
*Model_Space
0
ENDBLK
5
21
100
AcDbEntity
8
0
100
AcDbBlockEnd
0
BLOCK
5
1C
100
AcDbEntity
8
0
100
AcDbBlockBegin
2
*Paper_Space
70
0
10
0
20
0
30
0
3
*Paper_Space
0
ENDBLK
5
1D
100
AcDbEntity
8
0
100
AcDbBlockEnd
0
BLOCK
5
24
100
AcDbEntity
8
0
100
AcDbBlockBegin
2
*Paper_Space0
70
0
10
0
20
0
30
0
3
*Paper_Space0
0
ENDBLK
5
25
100
AcDbEntity
8
0
100
AcDbBlockEnd
0
BLOCK
5
21B
100
AcDbEntity
8
0
100
AcDbBlockBegin
2
*D1
70
1
10
0
20
0
30
0
3
*D1
0
LINE
5
21D
100
AcDbEntity
8
0
62
256
6
ByLayer
370
-2
48
1
60
0
100
AcDbLine
10
36
20
-31.5875
30
0
11
36
21
-55.1
31
0
39
0
210
0
220
0
230
1
0
LINE
5
21E
100
AcDbEntity
8
0
62
256
6
ByLayer
370
-2
48
1
60
0
100
AcDbLine
10
448
20
28.4125
30
0
11
448
21
-55.1
31
0
39
0
210
0
220
0
230
1
0
LINE
5
21F
100
AcDbEntity
8
0
62
256
6
ByLayer
370
-2
48
1
60
0
100
AcDbLine
10
39.5
20
-53.1
30
0
11
444.5
21
-53.1
31
0
39
0
210
0
220
0
230
1
0
SOLID
5
220
100
AcDbEntity
8
0
62
256
6
ByLayer
370
-1
48
1
60
0
100
AcDbTrace
10
39.5
20
-52.516667
30
0
11
39.5
21
-53.683333
31
0
12
36
22
-53.1
32
0
13
36
23
-53.1
33
0
39
0
210
0
220
0
230
1
0
SOLID
5
221
100
AcDbEntity
8
0
62
256
6
ByLayer
370
-1
48
1
60
0
100
AcDbTrace
10
444.5
20
-53.683333
30
0
11
444.5
21
-52.516667
31
0
12
448
22
-53.1
32
0
13
448
23
-53.1
33
0
39
0
210
0
220
0
230
1
0
MTEXT
5
222
100
AcDbEntity
8
0
62
256
6
ByLayer
370
18
48
1
60
0
100
AcDbMText
10
242
20
-46.1
30
0
210
0
220
0
230
1
1
\A1;412
40
3.5
41
0
44
1
50
0
71
5
72
5
7
iso_b_vert
0
POINT
5
223
100
AcDbEntity
8
Defpoints
62
0
6
ByLayer
370
-1
48
1
60
0
100
AcDbPoint
10
36
20
-30
30
0
39
0
210
0
220
0
230
1
50
360
0
POINT
5
224
100
AcDbEntity
8
Defpoints
62
0
6
ByLayer
370
-1
48
1
60
0
100
AcDbPoint
10
448
20
30
30
0
39
0
210
0
220
0
230
1
50
360
0
POINT
5
225
100
AcDbEntity
8
Defpoints
62
0
6
ByLayer
370
-1
48
1
60
0
100
AcDbPoint
10
448
20
-53.1
30
0
39
0
210
0
220
0
230
1
50
360
0
ENDBLK
5
21C
100
AcDbEntity
8
0
100
AcDbBlockEnd
0
BLOCK
5
22D
100
AcDbEntity
8
0
100
AcDbBlockBegin
2
_U0
70
0
10
0
20
0
30
0
3
_U0
0
MTEXT
5
227
100
AcDbEntity
8
SK2
62
256
6
ByLayer
370
18
48
1
60
0
100
AcDbMText
10
239.040467
20
-52.067366
30
0
210
0
220
0
230
1
1
\W0.6620;412
40
3.5
41
0
44
1.084337
50
0
71
7
72
5
7
iso_b_vert
0
LINE
5
228
100
AcDbEntity
8
SK2
62
256
6
ByLayer
370
13
48
1
60
0
100
AcDbLine
10
36
20
-31.5875
30
0
11
36
21
-55.1
31
0
39
0
210
0
220
0
230
1
0
LINE
5
229
100
AcDbEntity
8
SK2
62
256
6
ByLayer
370
13
48
1
60
0
100
AcDbLine
10
448
20
28.4125
30
0
11
448
21
-55.1
31
0
39
0
210
0
220
0
230
1
0
LINE
5
22A
100
AcDbEntity
8
SK2
62
256
6
ByLayer
370
13
48
1
60
0
100
AcDbLine
10
36
20
-53.1
30
0
11
448
21
-53.1
31
0
39
0
210
0
220
0
230
1
0
SOLID
5
22B
100
AcDbEntity
8
SK2
62
256
6
ByLayer
370
18
48
1
60
0
100
AcDbTrace
10
36
20
-53.1
30
0
11
39.499998
21
-52.639216
31
0
12
39.500002
22
-53.560784
32
0
13
39.500002
23
-53.560784
33
0
39
0
210
0
220
0
230
1
0
SOLID
5
22C
100
AcDbEntity
8
SK2
62
256
6
ByLayer
370
18
48
1
60
0
100
AcDbTrace
10
448
20
-53.1
30
0
11
444.500002
21
-53.560784
31
0
12
444.499998
22
-52.639216
32
0
13
444.499998
23
-52.639216
33
0
39
0
210
0
220
0
230
1
0
ENDBLK
5
22E
100
AcDbEntity
8
0
100
AcDbBlockEnd
0
ENDSEC
0
SECTION
2
ENTITIES
0
ARC
5
15B
100
AcDbEntity
8
1
62
256
6
ByLayer
370
18
48
1
60
0
100
AcDbCircle
39
0
10
443.8
20
-29.8
30
0
40
0.2
210
0
220
0
230
1
100
AcDbArc
50
270
51
360
0
ARC
5
15C
100
AcDbEntity
8
1
62
256
6
ByLayer
370
18
48
1
60
0
100
AcDbCircle
39
0
10
443.8
20
29.8
30
0
40
0.2
210
0
220
0
230
1
100
AcDbArc
50
360
51
90
0
ARC
5
15D
100
AcDbEntity
8
1
62
256
6
ByLayer
370
18
48
1
60
0
100
AcDbCircle
39
0
10
36
20
36
30
0
40
6
210
0
220
0
230
1
100
AcDbArc
50
180
51
270
0
ARC
5
15E
100
AcDbEntity
8
1
62
256
6
ByLayer
370
18
48
1
60
0
100
AcDbCircle
39
0
10
36
20
-36
30
0
40
6
210
0
220
0
230
1
100
AcDbArc
50
90
51
180
0
ARC
5
15F
100
AcDbEntity
8
1
62
256
6
ByLayer
370
18
48
1
60
0
100
AcDbCircle
39
0
10
29.5
20
-39.5
30
0
40
0.5
210
0
220
0
230
1
100
AcDbArc
50
270
51
360
0
ARC
5
160
100
AcDbEntity
8
1
62
256
6
ByLayer
370
18
48
1
60
0
100
AcDbCircle
39
0
10
29.5
20
39.5
30
0
40
0.5
210
0
220
0
230
1
100
AcDbArc
50
360
51
90
0
ARC
5
161
100
AcDbEntity
8
SK1
62
256
6
ByLayer
370
18
48
1
60
0
100
AcDbCircle
39
0
10
-0.6
20
29.6
30
0
40
0.999999999999994
210
0
220
0
230
1
100
AcDbArc
50
293.578178
51
306.869898
0
ARC
5
162
100
AcDbEntity
8
SK1
62
256
6
ByLayer
370
18
48
1
60
0
100
AcDbCircle
39
0
10
-0.6
20
-29.6
30
0
40
0.999999999999994
210
0
220
0
230
1
100
AcDbArc
50
53.130102
51
66.421822
0
ARC
5
163
100
AcDbEntity
8
1
62
256
6
ByLayer
370
18
48
1
60
0
100
AcDbCircle
39
0
10
452.8
20
-3.099495
30
0
40
0.2
210
0
220
0
230
1
100
AcDbArc
50
0
51
90
0
ARC
5
164
100
AcDbEntity
8
1
62
256
6
ByLayer
370
18
48
1
60
0
100
AcDbCircle
39
0
10
452.8
20
3.300505
30
0
40
0.2
210
0
220
0
230
1
100
AcDbArc
50
270
51
0
0
ARC
5
165
100
AcDbEntity
8
1
62
256
6
ByLayer
370
18
48
1
60
0
100
AcDbCircle
39
0
10
458.4
20
-4.299495
30
0
40
0.6
210
0
220
0
230
1
100
AcDbArc
50
270
51
360
0
ARC
5
166
100
AcDbEntity
8
1
62
256
6
ByLayer
370
18
48
1
60
0
100
AcDbCircle
39
0
10
458.4
20
4.500505
30
0
40
0.6
210
0
220
0
230
1
100
AcDbArc
50
360
51
90
0
ARC
5
167
100
AcDbEntity
8
1
62
256
6
ByLayer
370
18
48
1
60
0
100
AcDbCircle
39
0
10
446.5
20
-10.5
30
0
40
0.5
210
0
220
0
230
1
100
AcDbArc
50
90
51
180
0
ARC
5
168
100
AcDbEntity
8
1
62
256
6
ByLayer
370
18
48
1
60
0
100
AcDbCircle
39
0
10
444.2
20
-29.8
30
0
40
0.2
210
0
220
0
230
1
100
AcDbArc
50
180
51
270
0
ARC
5
169
100
AcDbEntity
8
1
62
256
6
ByLayer
370
18
48
1
60
0
100
AcDbCircle
39
0
10
444.2
20
29.8
30
0
40
0.2
210
0
220
0
230
1
100
AcDbArc
50
90
51
180
0
ARC
5
16A
100
AcDbEntity
8
1
62
256
6
ByLayer
370
18
48
1
60
0
100
AcDbCircle
39
0
10
452.8
20
16.699495
30
0
40
0.2
210
0
220
0
230
1
100
AcDbArc
50
0
51
90
0
ARC
5
16B
100
AcDbEntity
8
1
62
256
6
ByLayer
370
18
48
1
60
0
100
AcDbCircle
39
0
10
452.8
20
23.099495
30
0
40
0.2
210
0
220
0
230
1
100
AcDbArc
50
270
51
0
0
ARC
5
16C
100
AcDbEntity
8
1
62
256
6
ByLayer
370
18
48
1
60
0
100
AcDbCircle
39
0
10
458.4
20
15.499495
30
0
40
0.6
210
0
220
0
230
1
100
AcDbArc
50
270
51
360
0
ARC
5
16D
100
AcDbEntity
8
1
62
256
6
ByLayer
370
18
48
1
60
0
100
AcDbCircle
39
0
10
458.4
20
24.299495
30
0
40
0.6
210
0
220
0
230
1
100
AcDbArc
50
360
51
90
0
ELLIPSE
5
16E
100
AcDbEntity
8
1
62
256
6
ByLayer
370
18
48
1
60
0
100
AcDbEllipse
10
-6.763884
20
0
30
0
11
18.73483575957
21
39.483498305508
31
0
210
0
220
0
230
1
40
0.341999
41
-1.08794676716915
42
-0.161099005228925
0
ELLIPSE
5
16F
100
AcDbEntity
8
1
62
256
6
ByLayer
370
18
48
1
60
0
100
AcDbEllipse
10
30.763884
20
0
30
0
11
18.7348357595645
21
-39.4834983055007
31
0
210
0
220
0
230
1
40
0.341999
41
-2.98049364836085
42
-2.0536458864205
0
ELLIPSE
5
170
100
AcDbEntity
8
1
62
256
6
ByLayer
370
18
48
1
60
0
100
AcDbEllipse
10
30.763884
20
0
30
0
11
18.7348357595636
21
39.4834983054995
31
0
210
0
220
0
230
1
40
0.341999
41
2.05364588642048
42
2.98049364836085
0
ELLIPSE
5
171
100
AcDbEntity
8
1
62
256
6
ByLayer
370
18
48
1
60
0
100
AcDbEllipse
10
-6.763884
20
0
30
0
11
18.7348357595657
21
-39.4834983055026
31
0
210
0
220
0
230
1
40
0.341999
41
0.161099005228939
42
1.08794676716926
0
ELLIPSE
5
172
100
AcDbEntity
8
1
62
256
6
ByLayer
370
13
48
1
60
0
100
AcDbEllipse
10
446.5
20
28.9875
30
0
11
-0.5
21
1.83758715709137E-15
31
0
210
0
220
0
230
1
40
0.92622
41
0.528297440320207
42
1.5707963267949
0
POINT
5
70
100
AcDbEntity
8
2
62
256
6
ByLayer
370
18
48
1
60
0
100
AcDbPoint
10
407.5
20
21
30
0
39
0
210
0
220
0
230
1
50
360
0
POINT
5
72
100
AcDbEntity
8
2
62
256
6
ByLayer
370
18
48
1
60
0
100
AcDbPoint
10
449
20
0.100505
30
0
39
0
210
0
220
0
230
1
50
360
0
POINT
5
73
100
AcDbEntity
8
2
62
256
6
ByLayer
370
18
48
1
60
0
100
AcDbPoint
10
453
20
19.899495
30
0
39
0
210
0
220
0
230
1
50
360
0
POINT
5
74
100
AcDbEntity
8
2
62
256
6
ByLayer
370
18
48
1
60
0
100
AcDbPoint
10
449
20
0.100505
30
0
39
0
210
0
220
0
230
1
50
360
0
POINT
5
75
100
AcDbEntity
8
2
62
256
6
ByLayer
370
18
48
1
60
0
100
AcDbPoint
10
433
20
0
30
0
39
0
210
0
220
0
230
1
50
360
0
POINT
5
76
100
AcDbEntity
8
2
62
256
6
ByLayer
370
18
48
1
60
0
100
AcDbPoint
10
334
20
0
30
0
39
0
210
0
220
0
230
1
50
360
0
POINT
5
77
100
AcDbEntity
8
2
62
256
6
ByLayer
370
18
48
1
60
0
100
AcDbPoint
10
383.5
20
0
30
0
39
0
210
0
220
0
230
1
50
360
0
POINT
5
78
100
AcDbEntity
8
2
62
256
6
ByLayer
370
18
48
1
60
0
100
AcDbPoint
10
445.37476
20
10
30
0
39
0
210
0
220
0
230
1
50
360
0
POINT
5
79
100
AcDbEntity
8
2
62
256
6
ByLayer
370
50
48
1
60
0
100
AcDbPoint
10
427
20
0
30
0
39
0
210
0
220
0
230
1
50
360
0
POINT
5
7A
100
AcDbEntity
8
2
62
256
6
ByLayer
370
18
48
1
60
0
100
AcDbPoint
10
426.5
20
0
30
0
39
0
210
0
220
0
230
1
50
360
0
POINT
5
7B
100
AcDbEntity
8
2
62
256
6
ByLayer
370
50
48
1
60
0
100
AcDbPoint
10
453
20
0
30
0
39
0
210
0
220
0
230
1
50
360
0
POINT
5
7C
100
AcDbEntity
8
2
62
256
6
ByLayer
370
18
48
1
60
0
100
AcDbPoint
10
444
20
0
30
0
39
0
210
0
220
0
230
1
50
360
0
POINT
5
7D
100
AcDbEntity
8
2
62
256
6
ByLayer
370
18
48
1
60
0
100
AcDbPoint
10
433
20
0
30
0
39
0
210
0
220
0
230
1
50
360
0
POINT
5
7E
100
AcDbEntity
8
2
62
256
6
ByLayer
370
18
48
1
60
0
100
AcDbPoint
10
448
20
10
30
0
39
0
210
0
220
0
230
1
50
360
0
POINT
5
7F
100
AcDbEntity
8
2
62
256
6
ByLayer
370
18
48
1
60
0
100
AcDbPoint
10
444
20
0
30
0
39
0
210
0
220
0
230
1
50
360
0
POINT
5
80
100
AcDbEntity
8
2
62
256
6
ByLayer
370
18
48
1
60
0
100
AcDbPoint
10
417
20
0
30
0
39
0
210
0
220
0
230
1
50
360
0
POINT
5
81
100
AcDbEntity
8
2
62
256
6
ByLayer
370
18
48
1
60
0
100
AcDbPoint
10
445.37476
20
10
30
0
39
0
210
0
220
0
230
1
50
360
0
POINT
5
82
100
AcDbEntity
8
2
62
256
6
ByLayer
370
18
48
1
60
0
100
AcDbPoint
10
448
20
10
30
0
39
0
210
0
220
0
230
1
50
360
0
POINT
5
83
100
AcDbEntity
8
2
62
256
6
ByLayer
370
18
48
1
60
0
100
AcDbPoint
10
449
20
19.899495
30
0
39
0
210
0
220
0
230
1
50
360
0
POINT
5
84
100
AcDbEntity
8
2
62
256
6
ByLayer
370
18
48
1
60
0
100
AcDbPoint
10
357.5
20
21
30
0
39
0
210
0
220
0
230
1
50
360
0
POINT
5
85
100
AcDbEntity
8
2
62
256
6
ByLayer
370
18
48
1
60
0
100
AcDbPoint
10
433
20
0
30
0
39
0
210
0
220
0
230
1
50
360
0
POINT
5
86
100
AcDbEntity
8
2
62
256
6
ByLayer
370
18
48
1
60
0
100
AcDbPoint
10
453
20
19.899495
30
0
39
0
210
0
220
0
230
1
50
360
0
POINT
5
87
100
AcDbEntity
8
2
62
256
6
ByLayer
370
18
48
1
60
0
100
AcDbPoint
10
426.5
20
0
30
0
39
0
210
0
220
0
230
1
50
360
0
POINT
5
88
100
AcDbEntity
8
2
62
256
6
ByLayer
370
18
48
1
60
0
100
AcDbPoint
10
338.5
20
0
30
0
39
0
210
0
220
0
230
1
50
360
0
POINT
5
89
100
AcDbEntity
8
2
62
256
6
ByLayer
370
18
48
1
60
0
100
AcDbPoint
10
338.5
20
0
30
0
39
0
210
0
220
0
230
1
50
360
0
POINT
5
8A
100
AcDbEntity
8
2
62
256
6
ByLayer
370
18
48
1
60
0
100
AcDbPoint
10
426.5
20
0
30
0
39
0
210
0
220
0
230
1
50
360
0
POINT
5
8B
100
AcDbEntity
8
2
62
256
6
ByLayer
370
18
48
1
60
0
100
AcDbPoint
10
421
20
0
30
0
39
0
210
0
220
0
230
1
50
360
0
POINT
5
8C
100
AcDbEntity
8
2
62
256
6
ByLayer
370
18
48
1
60
0
100
AcDbPoint
10
382.5
20
0
30
0
39
0
210
0
220
0
230
1
50
360
0
POINT
5
8D
100
AcDbEntity
8
2
62
256
6
ByLayer
370
18
48
1
60
0
100
AcDbPoint
10
426.5
20
0
30
0
39
0
210
0
220
0
230
1
50
360
0
POINT
5
8E
100
AcDbEntity
8
2
62
256
6
ByLayer
370
18
48
1
60
0
100
AcDbPoint
10
344
20
0
30
0
39
0
210
0
220
0
230
1
50
360
0
POINT
5
8F
100
AcDbEntity
8
2
62
256
6
ByLayer
370
18
48
1
60
0
100
AcDbPoint
10
407.5
20
21
30
0
39
0
210
0
220
0
230
1
50
360
0
POINT
5
90
100
AcDbEntity
8
2
62
256
6
ByLayer
370
18
48
1
60
0
100
AcDbPoint
10
357.5
20
21
30
0
39
0
210
0
220
0
230
1
50
360
0
POINT
5
91
100
AcDbEntity
8
2
62
256
6
ByLayer
370
18
48
1
60
0
100
AcDbPoint
10
338.5
20
0
30
0
39
0
210
0
220
0
230
1
50
360
0
POINT
5
92
100
AcDbEntity
8
2
62
256
6
ByLayer
370
18
48
1
60
0
100
AcDbPoint
10
327.2
20
0
30
0
39
0
210
0
220
0
230
1
50
360
0
POINT
5
93
100
AcDbEntity
8
2
62
256
6
ByLayer
370
18
48
1
60
0
100
AcDbPoint
10
327.2
20
0
30
0
39
0
210
0
220
0
230
1
50
360
0
POINT
5
94
100
AcDbEntity
8
2
62
256
6
ByLayer
370
18
48
1
60
0
100
AcDbPoint
10
332.85
20
0
30
0
39
0
210
0
220
0
230
1
50
360
0
POINT
5
95
100
AcDbEntity
8
2
62
256
6
ByLayer
370
18
48
1
60
0
100
AcDbPoint
10
332.6
20
0
30
0
39
0
210
0
220
0
230
1
50
360
0
POINT
5
96
100
AcDbEntity
8
2
62
256
6
ByLayer
370
18
48
1
60
0
100
AcDbPoint
10
338
20
0
30
0
39
0
210
0
220
0
230
1
50
360
0
POINT
5
97
100
AcDbEntity
8
81
62
256
6
ByLayer
370
18
48
1
60
0
100
AcDbPoint
10
448
20
10
30
0
39
0
210
0
220
0
230
1
50
360
0
POINT
5
99
100
AcDbEntity
8
80
62
256
6
ByLayer
370
18
48
1
60
0
100
AcDbPoint
10
0
20
0
30
0
39
0
210
0
220
0
230
1
50
360
0
POINT
5
9B
100
AcDbEntity
8
1
62
256
6
ByLayer
370
18
48
1
60
1
100
AcDbPoint
10
36
20
-30
30
0
39
0
210
0
220
0
230
1
50
360
0
POINT
5
9D
100
AcDbEntity
8
1
62
256
6
ByLayer
370
18
48
1
60
1
100
AcDbPoint
10
448
20
30
30
0
39
0
210
0
220
0
230
1
50
360
0
SPLINE
5
173
100
AcDbEntity
8
1
62
256
6
ByLayer
370
18
48
1
60
0
100
AcDbSpline
70
4
71
3
72
26
73
22
40
0
40
0
40
0
40
0
40
0.062500000000011
40
0.062500000000011
40
0.0937500000000124
40
0.0937500000000124
40
0.125000000000014
40
0.125000000000014
40
0.25000000000001
40
0.25000000000001
40
0.375000000000006
40
0.375000000000006
40
0.437500000000003
40
0.437500000000003
40
0.500000000000001
40
0.500000000000001
40
0.625000000000003
40
0.625000000000003
40
0.750000000000004
40
0.750000000000004
40
1
40
1
40
1
40
1
41
1
10
13.4613248654053
20
38.1154578595254
30
0
41
1
10
13.4771575420864
20
38.1154578595254
30
0
41
1
10
13.492696782916
20
38.1149630443688
30
0
41
1
10
13.5156051329864
20
38.1135446782955
30
0
41
1
10
13.5231743077462
20
38.1129588629861
30
0
41
1
10
13.5381834149645
20
38.1115687100729
30
0
41
1
10
13.5456561777208
20
38.1107596566994
30
0
41
1
10
13.5820585103618
20
38.1062685963606
30
0
41
1
10
13.6085397975368
20
38.101260466828
30
0
41
1
10
13.6577471021954
20
38.0892687952497
30
0
41
1
10
13.679582863524
20
38.0825033540054
30
0
41
1
10
13.7096051321545
20
38.0715750854947
30
0
41
1
10
13.7191444204646
20
38.0677988367432
30
0
41
1
10
13.7374189069212
20
38.0600136207933
30
0
41
1
10
13.746168017513
20
38.0559959802046
30
0
41
1
10
13.7710680782537
20
38.0437782351316
30
0
41
1
10
13.7859982057653
20
38.035372109362
30
0
41
1
10
13.8133554924886
20
38.0181487945758
30
0
41
1
10
13.825773750339
20
38.0093303853474
30
0
41
1
10
13.8599678398713
20
37.9823481941391
30
0
41
1
10
13.8787504379152
20
37.9636126331776
30
0
41
1
10
13.8943375672975
20
37.9445010117191
30
0
0
SPLINE
5
174
100
AcDbEntity
8
1
62
256
6
ByLayer
370
18
48
1
60
0
100
AcDbSpline
70
4
71
3
72
32
73
28
40
0
40
0
40
0
40
0
40
0.249999999999985
40
0.249999999999985
40
0.374999999999975
40
0.374999999999975
40
0.437499999999971
40
0.437499999999971
40
0.499999999999967
40
0.499999999999967
40
0.624999999999967
40
0.624999999999967
40
0.68749999999997
40
0.68749999999997
40
0.749999999999972
40
0.749999999999972
40
0.812499999999975
40
0.812499999999975
40
0.843749999999977
40
0.843749999999977
40
0.874999999999978
40
0.874999999999978
40
0.93749999999999
40
0.93749999999999
40
0.968749999999995
40
0.968749999999995
40
1
40
1
40
1
40
1
41
1
10
13.8943375672973
20
12.6576002058703
30
0
41
1
10
13.8787561873887
20
12.6003292036662
30
0
41
1
10
13.8601238798742
20
12.5441499637055
30
0
41
1
10
13.8260027135196
20
12.4621216159939
30
0
41
1
10
13.8135898550187
20
12.4351561290446
30
0
41
1
10
13.7930183318667
20
12.3954218364663
30
0
41
1
10
13.785833939305
20
12.3822967529509
30
0
41
1
10
13.7707119348146
20
12.3563230389551
30
0
41
1
10
13.762764024215
20
12.3434618357381
30
0
41
1
10
13.7378358829827
20
12.3057192432196
30
0
41
1
10
13.7197379933358
20
12.2815531796602
30
0
41
1
10
13.6895137280946
20
12.247383834662
30
0
41
1
10
13.6789130531145
20
12.2363474443951
30
0
41
1
10
13.6568189855007
20
12.2154741288522
30
0
41
1
10
13.6452904427558
20
12.2055929865223
30
0
41
1
10
13.6210819432585
20
12.1871605631486
30
0
41
1
10
13.6084039311046
20
12.1786070311293
30
0
41
1
10
13.5883100345542
20
12.1670216512236
30
0
41
1
10
13.5814016237712
20
12.1633555796794
30
0
41
1
10
13.567396336243
20
12.1566022539999
30
0
41
1
10
13.5602871584325
20
12.1535051719201
30
0
41
1
10
13.538618852768
20
12.1451084576003
30
0
41
1
10
13.5237210688637
20
12.1406978104911
30
0
41
1
10
13.5005803004527
20
12.136167104575
30
0
41
1
10
13.492756294697
20
12.1350139079813
30
0
41
1
10
13.4770952538461
20
12.1334785049663
30
0
41
1
10
13.4692285817718
20
12.1330899674706
30
0
41
1
10
13.4613248654052
20
12.1330899674706
30
0
0
SPLINE
5
175
100
AcDbEntity
8
1
62
256
6
ByLayer
370
18
48
1
60
0
100
AcDbSpline
70
4
71
3
72
26
73
22
40
0
40
0
40
0
40
0
40
0.0625000000000004
40
0.0625000000000004
40
0.0937500000000013
40
0.0937500000000013
40
0.125000000000002
40
0.125000000000002
40
0.249999999999996
40
0.249999999999996
40
0.37499999999999
40
0.37499999999999
40
0.437499999999988
40
0.437499999999988
40
0.499999999999986
40
0.499999999999986
40
0.624999999999991
40
0.624999999999991
40
0.749999999999996
40
0.749999999999996
40
1
40
1
40
1
40
1
41
1
10
10.5386751345949
20
12.1330899674707
30
0
41
1
10
10.5228424579138
20
12.1330899674707
30
0
41
1
10
10.5073032170842
20
12.1346446934811
30
0
41
1
10
10.4843948670137
20
12.1390985861071
30
0
41
1
10
10.4768256922539
20
12.1409378530103
30
0
41
1
10
10.4618165850357
20
12.1453009719696
30
0
41
1
10
10.4543438222794
20
12.1478396076276
30
0
41
1
10
10.4179414896384
20
12.1619255694047
30
0
41
1
10
10.3914602024634
20
12.177616249759
30
0
41
1
10
10.3422528978048
20
12.2150722196259
30
0
41
1
10
10.3204171364762
20
12.2361555816479
30
0
41
1
10
10.2903948678456
20
12.2700982796011
30
0
41
1
10
10.2808555795356
20
12.2818098068951
30
0
41
1
10
10.2625810930789
20
12.3059141713455
30
0
41
1
10
10.2538319824871
20
12.3183336732122
30
0
41
1
10
10.2289319217464
20
12.3560364080031
30
0
41
1
10
10.2140017942348
20
12.3818915830841
30
0
41
1
10
10.1866445075115
20
12.4346746200445
30
0
41
1
10
10.1742262496611
20
12.4616063758702
30
0
41
1
10
10.1400321601288
20
12.5437053894649
30
0
41
1
10
10.1212495620849
20
12.6003080708704
30
0
41
1
10
10.1056624327026
20
12.6576002058703
30
0
0
SPLINE
5
176
100
AcDbEntity
8
1
62
256
6
ByLayer
370
18
48
1
60
0
100
AcDbSpline
70
4
71
3
72
32
73
28
40
0
40
0
40
0
40
0
40
0.249999999999999
40
0.249999999999999
40
0.374999999999999
40
0.374999999999999
40
0.437499999999999
40
0.437499999999999
40
0.499999999999999
40
0.499999999999999
40
0.625000000000002
40
0.625000000000002
40
0.687500000000005
40
0.687500000000005
40
0.750000000000007
40
0.750000000000007
40
0.81250000000001
40
0.81250000000001
40
0.843750000000008
40
0.843750000000008
40
0.875000000000006
40
0.875000000000006
40
0.937500000000006
40
0.937500000000006
40
0.968750000000003
40
0.968750000000003
40
1
40
1
40
1
40
1
41
1
10
10.1056624327028
20
37.9445010117191
30
0
41
1
10
10.1212438126114
20
37.9636055836586
30
0
41
1
10
10.1398761201259
20
37.9822012953861
30
0
41
1
10
10.1739972864806
20
38.0091614379608
30
0
41
1
10
10.1864101449815
20
38.0179913785433
30
0
41
1
10
10.2069816681334
20
38.0309572795536
30
0
41
1
10
10.2141660606951
20
38.0352325300315
30
0
41
1
10
10.2292880651856
20
38.0436784163768
30
0
41
1
10
10.2372359757851
20
38.0478530906642
30
0
41
1
10
10.2621641170175
20
38.0600837295902
30
0
41
1
10
10.2802620066644
20
38.0678870466104
30
0
41
1
10
10.3104862719056
20
38.0788882765902
30
0
41
1
10
10.3210869468856
20
38.0824358644267
30
0
41
1
10
10.3431810144995
20
38.0891364033824
30
0
41
1
10
10.3547095572443
20
38.0923035991792
30
0
41
1
10
10.3789180567416
20
38.0982048271663
30
0
41
1
10
10.3915960688956
20
38.1009395753102
30
0
41
1
10
10.4116899654459
20
38.1046401449179
30
0
41
1
10
10.418598376229
20
38.1058104966308
30
0
41
1
10
10.4326036637572
20
38.1079654954302
30
0
41
1
10
10.4397128415676
20
38.1089532874669
30
0
41
1
10
10.4613811472322
20
38.1116304436586
30
0
41
1
10
10.4762789311365
20
38.1130353910943
30
0
41
1
10
10.4994196995475
20
38.114478227072
30
0
41
1
10
10.5072437053032
20
38.1148453768633
30
0
41
1
10
10.522904746154
20
38.1153341847952
30
0
41
1
10
10.5307714182284
20
38.1154578595255
30
0
41
1
10
10.5386751345949
20
38.1154578595255
30
0
0
SPLINE
5
177
100
AcDbEntity
8
1
62
256
6
ByLayer
370
18
48
1
60
0
100
AcDbSpline
70
4
71
3
72
26
73
22
40
0
40
0
40
0
40
0
40
0.0624999999999947
40
0.0624999999999947
40
0.0937499999999948
40
0.0937499999999948
40
0.124999999999995
40
0.124999999999995
40
0.249999999999995
40
0.249999999999995
40
0.374999999999994
40
0.374999999999994
40
0.437499999999995
40
0.437499999999995
40
0.499999999999995
40
0.499999999999995
40
0.624999999999997
40
0.624999999999997
40
0.749999999999998
40
0.749999999999998
40
1
40
1
40
1
40
1
41
1
10
10.5386751345947
20
-38.1154578595255
30
0
41
1
10
10.5228424579136
20
-38.1154578595255
30
0
41
1
10
10.507303217084
20
-38.1149630443689
30
0
41
1
10
10.4843948670135
20
-38.1135446782956
30
0
41
1
10
10.4768256922537
20
-38.1129588629862
30
0
41
1
10
10.4618165850355
20
-38.111568710073
30
0
41
1
10
10.4543438222792
20
-38.1107596566995
30
0
41
1
10
10.4179414896382
20
-38.1062685963607
30
0
41
1
10
10.3914602024632
20
-38.1012604668281
30
0
41
1
10
10.3422528978046
20
-38.0892687952498
30
0
41
1
10
10.320417136476
20
-38.0825033540055
30
0
41
1
10
10.2903948678454
20
-38.0715750854947
30
0
41
1
10
10.2808555795354
20
-38.0677988367433
30
0
41
1
10
10.2625810930788
20
-38.0600136207934
30
0
41
1
10
10.2538319824869
20
-38.0559959802047
30
0
41
1
10
10.2289319217462
20
-38.0437782351317
30
0
41
1
10
10.2140017942346
20
-38.0353721093621
30
0
41
1
10
10.1866445075113
20
-38.0181487945759
30
0
41
1
10
10.1742262496609
20
-38.0093303853475
30
0
41
1
10
10.1400321601286
20
-37.9823481941393
30
0
41
1
10
10.1212495620847
20
-37.9636126331777
30
0
41
1
10
10.1056624327024
20
-37.9445010117191
30
0
0
SPLINE
5
178
100
AcDbEntity
8
1
62
256
6
ByLayer
370
18
48
1
60
0
100
AcDbSpline
70
4
71
3
72
32
73
28
40
0
40
0
40
0
40
0
40
0.249999999999995
40
0.249999999999995
40
0.374999999999993
40
0.374999999999993
40
0.437499999999992
40
0.437499999999992
40
0.499999999999991
40
0.499999999999991
40
0.625000000000001
40
0.625000000000001
40
0.687500000000001
40
0.687500000000001
40
0.75
40
0.75
40
0.8125
40
0.8125
40
0.843749999999997
40
0.843749999999997
40
0.874999999999993
40
0.874999999999993
40
0.937499999999993
40
0.937499999999993
40
0.968749999999996
40
0.968749999999996
40
1
40
1
40
1
40
1
41
1
10
10.1056624327026
20
-12.6576002058704
30
0
41
1
10
10.1212438126112
20
-12.6003292036663
30
0
41
1
10
10.1398761201257
20
-12.5441499637055
30
0
41
1
10
10.1739972864804
20
-12.4621216159939
30
0
41
1
10
10.1864101449813
20
-12.4351561290447
30
0
41
1
10
10.2069816681333
20
-12.3954218364663
30
0
41
1
10
10.2141660606949
20
-12.3822967529509
30
0
41
1
10
10.2292880651854
20
-12.3563230389551
30
0
41
1
10
10.2372359757849
20
-12.3434618357381
30
0
41
1
10
10.2621641170173
20
-12.3057192432196
30
0
41
1
10
10.2802620066642
20
-12.2815531796602
30
0
41
1
10
10.3104862719054
20
-12.2473838346621
30
0
41
1
10
10.3210869468855
20
-12.2363474443951
30
0
41
1
10
10.3431810144993
20
-12.2154741288523
30
0
41
1
10
10.3547095572441
20
-12.2055929865223
30
0
41
1
10
10.3789180567414
20
-12.1871605631486
30
0
41
1
10
10.3915960688954
20
-12.1786070311293
30
0
41
1
10
10.4116899654458
20
-12.1670216512237
30
0
41
1
10
10.4185983762288
20
-12.1633555796794
30
0
41
1
10
10.432603663757
20
-12.1566022539999
30
0
41
1
10
10.4397128415675
20
-12.1535051719201
30
0
41
1
10
10.461381147232
20
-12.1451084576003
30
0
41
1
10
10.4762789311363
20
-12.140697810491
30
0
41
1
10
10.4994196995473
20
-12.136167104575
30
0
41
1
10
10.507243705303
20
-12.1350139079813
30
0
41
1
10
10.5229047461538
20
-12.1334785049663
30
0
41
1
10
10.5307714182282
20
-12.1330899674706
30
0
41
1
10
10.5386751345947
20
-12.1330899674706
30
0
0
SPLINE
5
179
100
AcDbEntity
8
1
62
256
6
ByLayer
370
18
48
1
60
0
100
AcDbSpline
70
4
71
3
72
26
73
22
40
0
40
0
40
0
40
0
40
0.0624999999999906
40
0.0624999999999906
40
0.0937499999999865
40
0.0937499999999865
40
0.124999999999983
40
0.124999999999983
40
0.249999999999983
40
0.249999999999983
40
0.374999999999984
40
0.374999999999984
40
0.437499999999981
40
0.437499999999981
40
0.499999999999978
40
0.499999999999978
40
0.624999999999982
40
0.624999999999982
40
0.749999999999985
40
0.749999999999985
40
1
40
1
40
1
40
1
41
1
10
13.4613248654051
20
-12.1330899674708
30
0
41
1
10
13.4771575420862
20
-12.1330899674708
30
0
41
1
10
13.4926967829158
20
-12.1346446934812
30
0
41
1
10
13.5156051329863
20
-12.1390985861072
30
0
41
1
10
13.5231743077461
20
-12.1409378530104
30
0
41
1
10
13.5381834149643
20
-12.1453009719697
30
0
41
1
10
13.5456561777206
20
-12.1478396076277
30
0
41
1
10
13.5820585103616
20
-12.1619255694048
30
0
41
1
10
13.6085397975366
20
-12.1776162497591
30
0
41
1
10
13.6577471021952
20
-12.215072219626
30
0
41
1
10
13.6795828635238
20
-12.236155581648
30
0
41
1
10
13.7096051321543
20
-12.2700982796012
30
0
41
1
10
13.7191444204643
20
-12.2818098068952
30
0
41
1
10
13.737418906921
20
-12.3059141713456
30
0
41
1
10
13.7461680175128
20
-12.3183336732123
30
0
41
1
10
13.7710680782535
20
-12.3560364080032
30
0
41
1
10
13.7859982057651
20
-12.3818915830842
30
0
41
1
10
13.8133554924884
20
-12.4346746200446
30
0
41
1
10
13.8257737503388
20
-12.4616063758703
30
0
41
1
10
13.8599678398711
20
-12.543705389465
30
0
41
1
10
13.878750437915
20
-12.6003080708705
30
0
41
1
10
13.8943375672973
20
-12.6576002058704
30
0
0
SPLINE
5
17A
100
AcDbEntity
8
1
62
256
6
ByLayer
370
18
48
1
60
0
100
AcDbSpline
70
4
71
3
72
32
73
28
40
0
40
0
40
0
40
0
40
0.25
40
0.25
40
0.375000000000003
40
0.375000000000003
40
0.437500000000008
40
0.437500000000008
40
0.500000000000012
40
0.500000000000012
40
0.625000000000023
40
0.625000000000023
40
0.687500000000024
40
0.687500000000024
40
0.750000000000025
40
0.750000000000025
40
0.812500000000025
40
0.812500000000025
40
0.843750000000021
40
0.843750000000021
40
0.875000000000016
40
0.875000000000016
40
0.937500000000011
40
0.937500000000011
40
0.968750000000006
40
0.968750000000006
40
1
40
1
40
1
40
1
41
1
10
13.8943375672972
20
-37.9445010117191
30
0
41
1
10
13.8787561873886
20
-37.9636055836587
30
0
41
1
10
13.860123879874
20
-37.9822012953862
30
0
41
1
10
13.8260027135193
20
-38.0091614379609
30
0
41
1
10
13.8135898550184
20
-38.0179913785433
30
0
41
1
10
13.7930183318665
20
-38.0309572795537
30
0
41
1
10
13.7858339393048
20
-38.0352325300316
30
0
41
1
10
13.7707119348144
20
-38.0436784163768
30
0
41
1
10
13.7627640242148
20
-38.0478530906643
30
0
41
1
10
13.7378358829825
20
-38.0600837295903
30
0
41
1
10
13.7197379933356
20
-38.0678870466105
30
0
41
1
10
13.6895137280944
20
-38.0788882765902
30
0
41
1
10
13.6789130531143
20
-38.0824358644268
30
0
41
1
10
13.6568189855005
20
-38.0891364033825
30
0
41
1
10
13.6452904427556
20
-38.0923035991792
30
0
41
1
10
13.6210819432583
20
-38.0982048271663
30
0
41
1
10
13.6084039311044
20
-38.1009395753102
30
0
41
1
10
13.588310034554
20
-38.1046401449179
30
0
41
1
10
13.581401623771
20
-38.1058104966309
30
0
41
1
10
13.5673963362428
20
-38.1079654954303
30
0
41
1
10
13.5602871584323
20
-38.1089532874669
30
0
41
1
10
13.5386188527678
20
-38.1116304436586
30
0
41
1
10
13.5237210688635
20
-38.1130353910944
30
0
41
1
10
13.5005803004525
20
-38.1144782270721
30
0
41
1
10
13.4927562946968
20
-38.1148453768633
30
0
41
1
10
13.477095253846
20
-38.1153341847953
30
0
41
1
10
13.4692285817716
20
-38.1154578595255
30
0
41
1
10
13.461324865405
20
-38.1154578595255
30
0
0
SPLINE
5
17B
100
AcDbEntity
8
SK1
62
256
6
ByLayer
370
18
48
1
60
0
100
AcDbSpline
70
4
71
3
72
53
73
49
40
0
40
0
40
0
40
0
40
0.0274824286140573
40
0.0552770743808226
40
0.083071720147588
40
0.0969690430309707
40
0.110866365914353
40
0.138661011681119
40
0.166455657447884
40
0.19425030321465
40
0.222044948981415
40
0.24983959474818
40
0.277634240514946
40
0.305428886281711
40
0.333223532048476
40
0.361018177815242
40
0.388812823582007
40
0.416607469348772
40
0.430504792232155
40
0.444402115115538
40
0.45829943799892
40
0.472196760882303
40
0.486094083765686
40
0.493042745207377
40
0.499991406649068
40
0.50694006809076
40
0.513888729532451
40
0.527786052415834
40
0.541683375299216
40
0.555580698182599
40
0.569478021065982
40
0.583375343949365
40
0.61116998971613
40
0.638964635482895
40
0.666759281249661
40
0.694553927016426
40
0.722348572783191
40
0.750143218549957
40
0.777937864316722
40
0.805732510083487
40
0.833527155850253
40
0.861321801617018
40
0.889116447383783
40
0.903013770267166
40
0.916911093150549
40
0.944705738917314
40
0.97250038468408
40
1
40
1
40
1
40
1
41
1
10
-48.0000000000001
20
-25.5414480482168
30
0
41
1
10
-48.0000000000001
20
-25.54256181555
30
0
41
1
10
-48.0000000000001
20
-25.4640636433493
30
0
41
1
10
-48.0000000000001
20
-25.1322425192966
30
0
41
1
10
-48.0000000000001
20
-24.6943789872258
30
0
41
1
10
-48.0000000000001
20
-24.2527507958701
30
0
41
1
10
-48.0000000000001
20
-23.7534965427188
30
0
41
1
10
-48.0000000000001
20
-23.030309772166
30
0
41
1
10
-48.0000000000001
20
-22.0048954887129
30
0
41
1
10
-48.0000000000001
20
-20.8328487199719
30
0
41
1
10
-48.0000000000001
20
-19.5200996220051
30
0
41
1
10
-48.0000000000001
20
-18.0723511216475
30
0
41
1
10
-48.0000000000001
20
-16.4949784354154
30
0
41
1
10
-48.0000000000001
20
-14.7914034442657
30
0
41
1
10
-48
20
-12.9663998685648
30
0
41
1
10
-48
20
-11.0239134221953
30
0
41
1
10
-48
20
-8.96950823728517
30
0
41
1
10
-48
20
-7.1768657739093
30
0
41
1
10
-48
20
-5.68399982568371
30
0
41
1
10
-48
20
-4.55359781560853
30
0
41
1
10
-48
20
-3.41075035191318
30
0
41
1
10
-48
20
-2.26472549180232
30
0
41
1
10
-48
20
-1.32161475247139
30
0
41
1
10
-48
20
-0.561042317499073
30
0
41
1
10
-48
20
5.827934615E-07
30
0
41
1
10
-48
20
0.561043122290187
30
0
41
1
10
-48
20
1.32161426869393
30
0
41
1
10
-48
20
2.26472380030242
30
0
41
1
10
-48
20
3.41075020779331
30
0
41
1
10
-48
20
4.55359888251658
30
0
41
1
10
-48
20
5.683999612619
30
0
41
1
10
-48
20
7.17686534047022
30
0
41
1
10
-48
20
8.96950825544081
30
0
41
1
10
-48
20
11.023913502029
30
0
41
1
10
-47.9999999999999
20
12.9663999896203
30
0
41
1
10
-47.9999999999999
20
14.7914038739655
30
0
41
1
10
-47.9999999999999
20
16.494978782605
30
0
41
1
10
-47.9999999999999
20
18.0723510721557
30
0
41
1
10
-47.9999999999999
20
19.5200990771866
30
0
41
1
10
-47.9999999999999
20
20.832848699864
30
0
41
1
10
-47.9999999999999
20
22.0048965474212
30
0
41
1
10
-47.9999999999999
20
23.0303087127376
30
0
41
1
10
-47.9999999999999
20
23.7534935831731
30
0
41
1
10
-47.9999999999999
20
24.2527492082179
30
0
41
1
10
-47.9999999999999
20
24.6943791914989
30
0
41
1
10
-47.9999999999999
20
25.1322422668057
30
0
41
1
10
-47.9999999999999
20
25.4641323658227
30
0
41
1
10
-47.9999999999999
20
25.5426108014168
30
0
41
1
10
-47.9999999999999
20
25.5414458990014
30
0
0
SPLINE
5
17C
100
AcDbEntity
8
SK1
62
256
6
ByLayer
370
18
48
1
60
0
100
AcDbSpline
70
4
71
3
72
34
73
30
40
0
40
0
40
0
40
0
40
0.249999999999994
40
0.249999999999994
40
0.374999999999992
40
0.374999999999992
40
0.499999999999991
40
0.499999999999991
40
0.624999999999989
40
0.624999999999989
40
0.687499999999989
40
0.687499999999989
40
0.749999999999989
40
0.749999999999989
40
0.812499999999989
40
0.812499999999989
40
0.843749999999991
40
0.843749999999991
40
0.874999999999993
40
0.874999999999993
40
0.906249999999995
40
0.906249999999995
40
0.921874999999995
40
0.921874999999995
40
0.937499999999996
40
0.937499999999996
40
0.968749999999998
40
0.968749999999998
40
1
40
1
40
1
40
1
41
1
10
-0.200000000000031
20
-6.55227712232499
30
0
41
1
10
-0.200337167165472
20
-6.48813612986376
30
0
41
1
10
-0.202001510499912
20
-6.42391230321647
30
0
41
1
10
-0.207302963817355
20
-6.32744107363933
30
0
41
1
10
-0.209543235203583
20
-6.29526142118729
30
0
41
1
10
-0.215252325213172
20
-6.23085553749689
30
0
41
1
10
-0.218714447593314
20
-6.1986292664013
30
0
41
1
10
-0.227377685184052
20
-6.13412972903618
30
0
41
1
10
-0.232547642906638
20
-6.10194739347912
30
0
41
1
10
-0.242355179803226
20
-6.05395477419654
30
0
41
1
10
-0.245978726317844
20
-6.03797456128353
30
0
41
1
10
-0.254174420408106
20
-6.00627164279564
30
0
41
1
10
-0.258730367644148
20
-5.99057839566009
30
0
41
1
10
-0.269245267236315
20
-5.95968016956064
30
0
41
1
10
-0.275173744753246
20
-5.94446441589301
30
0
41
1
10
-0.285980482524806
20
-5.92231143869839
30
0
41
1
10
-0.289905978981693
20
-5.91504038952883
30
0
41
1
10
-0.298797923188019
20
-5.9008642672645
30
0
41
1
10
-0.303674067400877
20
-5.89408804025422
30
0
41
1
10
-0.314848838487905
20
-5.88165454576179
30
0
41
1
10
-0.321040616956637
20
-5.87610899057307
30
0
41
1
10
-0.331681166148485
20
-5.86978149468351
30
0
41
1
10
-0.335493722017034
20
-5.86801034282462
30
0
41
1
10
-0.343284951652976
20
-5.86552288649176
30
0
41
1
10
-0.347371812910453
20
-5.86477563679694
30
0
41
1
10
-0.359534957572208
20
-5.86423711805918
30
0
41
1
10
-0.367571007865081
20
-5.86616228333773
30
0
41
1
10
-0.382101750029406
20
-5.87272803663092
30
0
41
1
10
-0.38879099572209
20
-5.87734923192875
30
0
41
1
10
-0.39491379981132
20
-5.8825856729909
30
0
0
SPLINE
5
17D
100
AcDbEntity
8
SK1
62
256
6
ByLayer
370
18
48
1
60
0
100
AcDbSpline
70
4
71
3
72
38
73
34
40
0
40
0
40
0
40
0
40
0.0156249999999991
40
0.0156249999999991
40
0.0312499999999981
40
0.0312499999999981
40
0.0468749999999972
40
0.0468749999999972
40
0.0624999999999963
40
0.0624999999999963
40
0.0781249999999953
40
0.0781249999999953
40
0.0937499999999944
40
0.0937499999999944
40
0.124999999999994
40
0.124999999999994
40
0.156249999999994
40
0.156249999999994
40
0.187499999999994
40
0.187499999999994
40
0.249999999999994
40
0.249999999999994
40
0.312499999999995
40
0.312499999999995
40
0.374999999999995
40
0.374999999999995
40
0.499999999999995
40
0.499999999999995
40
0.624999999999996
40
0.624999999999996
40
0.749999999999996
40
0.749999999999996
40
1
40
1
40
1
40
1
41
1
10
-0.394913799811263
20
5.88258733498483
30
0
41
1
10
-0.391855475614122
20
5.87997174517943
30
0
41
1
10
-0.388679953698315
20
5.87753166439151
30
0
41
1
10
-0.38202389492271
20
5.87310852950293
30
0
41
1
10
-0.378520660678419
20
5.87111352959076
30
0
41
1
10
-0.371204411524758
20
5.86780375001044
30
0
41
1
10
-0.367430305230172
20
5.86650268448449
30
0
41
1
10
-0.359586250878621
20
5.86480236632462
30
0
41
1
10
-0.355491062365687
20
5.86442041571942
30
0
41
1
10
-0.347419400494331
20
5.86477259204992
30
0
41
1
10
-0.343334353292633
20
5.86551178963006
30
0
41
1
10
-0.335509573653155
20
5.86800393240807
30
0
41
1
10
-0.331763154935672
20
5.86973798480329
30
0
41
1
10
-0.320994194999415
20
5.87613112177445
30
0
41
1
10
-0.314813212304585
20
5.88168816956662
30
0
41
1
10
-0.303617390374825
20
5.89416050242841
30
0
41
1
10
-0.298778631313411
20
5.90089959919405
30
0
41
1
10
-0.289962744453817
20
5.91494866899558
30
0
41
1
10
-0.285986366953054
20
5.92229535303829
30
0
41
1
10
-0.275047927332906
20
5.94473551098559
30
0
41
1
10
-0.269098119985031
20
5.96006824141105
30
0
41
1
10
-0.258566536361073
20
5.99110891560568
30
0
41
1
10
-0.254019815815184
20
6.00682672168014
30
0
41
1
10
-0.24585182011306
20
6.03851342290761
30
0
41
1
10
-0.242238444719007
20
6.05448453988956
30
0
41
1
10
-0.232418188950845
20
6.10267140648355
30
0
41
1
10
-0.227272492676192
20
6.13483454456517
30
0
41
1
10
-0.21865930907525
20
6.19912309063815
30
0
41
1
10
-0.215212061754784
20
6.23126348879507
30
0
41
1
10
-0.209524252435429
20
6.29552574618916
30
0
41
1
10
-0.207290131858187
20
6.32764778181934
30
0
41
1
10
-0.202001043985874
20
6.42397958323193
30
0
41
1
10
-0.200337078752142
20
6.48815453706865
30
0
41
1
10
-0.199999999999974
20
6.55227865789465
30
0
0
SPLINE
5
17E
100
AcDbEntity
8
SK1
62
256
6
ByLayer
370
13
48
1
60
0
100
AcDbSpline
70
4
71
3
72
25
73
21
40
0
40
0
40
0
40
0
40
0.0145587295661183
40
0.0464029852819555
40
0.11009149671363
40
0.173780008145305
40
0.237468519576979
40
0.301157031008653
40
0.364845542440328
40
0.428534053872002
40
0.492222565303677
40
0.555911076735352
40
0.619599588167026
40
0.6832880995987
40
0.746976611030375
40
0.778820866746212
40
0.810665122462049
40
0.874353633893724
40
0.938042145325398
40
1
40
1
40
1
40
1
41
1
10
-0.39491379981132
20
-5.88258567299192
30
0
41
1
10
-0.39491379981132
20
-6.07052405947675
30
0
41
1
10
-0.39491379981132
20
-6.66606717738506
30
0
41
1
10
-0.39491379981132
20
-8.05259623229938
30
0
41
1
10
-0.394913799811334
20
-9.97566753154939
30
0
41
1
10
-0.394913799811334
20
-12.1534974735354
30
0
41
1
10
-0.394913799811349
20
-14.2008618261791
30
0
41
1
10
-0.394913799811349
20
-16.1168447823444
30
0
41
1
10
-0.394913799811363
20
-17.9007381804523
30
0
41
1
10
-0.394913799811363
20
-19.549694005804
30
0
41
1
10
-0.394913799811377
20
-21.0615461829413
30
0
41
1
10
-0.394913799811377
20
-22.432052288855
30
0
41
1
10
-0.394913799811377
20
-23.6558233145232
30
0
41
1
10
-0.394913799811377
20
-24.7273078069339
30
0
41
1
10
-0.394913799811391
20
-25.4857549542384
30
0
41
1
10
-0.394913799811391
20
-26.0073865712911
30
0
41
1
10
-0.394913799811391
20
-26.4695479101472
30
0
41
1
10
-0.394913799811391
20
-26.9317121751432
30
0
41
1
10
-0.394913799811405
20
-27.2808223654308
30
0
41
1
10
-0.394913799811391
20
-27.365231338085
30
0
41
1
10
-0.394913799811391
20
-27.3654106729233
30
0
0
SPLINE
5
17F
100
AcDbEntity
8
SK1
62
256
6
ByLayer
370
18
48
1
60
0
100
AcDbSpline
70
4
71
3
72
49
73
45
40
0
40
0
40
0
40
0
40
0.0312500000000038
40
0.0312500000000038
40
0.0468750000000048
40
0.0468750000000048
40
0.0625000000000058
40
0.0781250000000069
40
0.0781250000000069
40
0.0859375000000073
40
0.0859375000000073
40
0.0937500000000077
40
0.109375000000009
40
0.117187500000009
40
0.117187500000009
40
0.125000000000009
40
0.125000000000009
40
0.15625000000001
40
0.15625000000001
40
0.171875000000011
40
0.171875000000011
40
0.187500000000011
40
0.187500000000011
40
0.218750000000012
40
0.218750000000012
40
0.234375000000012
40
0.234375000000012
40
0.250000000000012
40
0.250000000000012
40
0.31250000000001
40
0.31250000000001
40
0.375000000000009
40
0.375000000000009
40
0.437500000000007
40
0.437500000000007
40
0.500000000000006
40
0.500000000000006
40
0.625000000000004
40
0.625000000000004
40
0.750000000000003
40
0.750000000000003
40
0.875000000000001
40
0.875000000000001
40
1
40
1
40
1
40
1
41
1
10
-0.39491379981132
20
-5.88258567299192
30
0
41
1
10
-0.411179767739867
20
-5.89649691057778
30
0
41
1
10
-0.428385528731525
20
-5.90924654958064
30
0
41
1
10
-0.456220231625195
20
-5.92587726264904
30
0
41
1
10
-0.465900558107379
20
-5.93102514312227
30
0
41
1
10
-0.485699188913244
20
-5.94009851027181
30
0
41
1
10
-0.50595990233073
20
-5.94797987906676
30
0
41
1
10
-0.52727632439516
20
-5.95314074745056
30
0
41
1
10
-0.543724271296682
20
-5.9558251558885
30
0
41
1
10
-0.549307626346618
20
-5.95652193855128
30
0
41
1
10
-0.56040225407024
20
-5.95747179112044
30
0
41
1
10
-0.577005048576765
20
-5.95824738974093
30
0
41
1
10
-0.598988113232082
20
-5.95672779936984
30
0
41
1
10
-0.615363151583253
20
-5.953726487664
30
0
41
1
10
-0.626255188472399
20
-5.95131675596099
30
0
41
1
10
-0.631686913413517
20
-5.94990548753631
30
0
41
1
10
-0.658283686674324
20
-5.94201343342041
30
0
41
1
10
-0.678213101083699
20
-5.93297784531563
30
0
41
1
10
-0.706655485452217
20
-5.91648780259627
30
0
41
1
10
-0.715834603579097
20
-5.91052268984234
30
0
41
1
10
-0.733450676613359
20
-5.89799413410989
30
0
41
1
10
-0.741931675642988
20
-5.89140462063131
30
0
41
1
10
-0.766568398283454
20
-5.87083261121123
30
0
41
1
10
-0.781926636665673
20
-5.85605532307281
30
0
41
1
10
-0.803808427400909
20
-5.8327319572052
30
0
41
1
10
-0.810909537595492
20
-5.82475689909123
30
0
41
1
10
-0.824642187820515
20
-5.80862406976092
30
0
41
1
10
-0.831293292074733
20
-5.8004459091575
30
0
41
1
10
-0.863632300216551
20
-5.75907701915665
30
0
41
1
10
-0.886653206455151
20
-5.72449384855278
30
0
41
1
10
-0.929268994496837
20
-5.65349793311387
30
0
41
1
10
-0.948821917963443
20
-5.61706391416035
30
0
41
1
10
-0.9854903268116
20
-5.54286169997806
30
0
41
1
10
-1.00262576586447
20
-5.50500475294339
30
0
41
1
10
-1.0348108500766
20
-5.42880990558518
30
0
41
1
10
-1.04987958840802
20
-5.39043436268409
30
0
41
1
10
-1.09271831790771
20
-5.27463055419162
30
0
41
1
10
-1.11815612697548
20
-5.1965332099478
30
0
41
1
10
-1.16484869971204
20
-5.03900155537229
30
0
41
1
10
-1.18607375956302
20
-4.95956033007349
30
0
41
1
10
-1.22537042104101
20
-4.79955772182797
30
0
41
1
10
-1.24343193354569
20
-4.71899405044132
30
0
41
1
10
-1.27704610356759
20
-4.55687629477117
30
0
41
1
10
-1.29259442759719
20
-4.47532122975804
30
0
41
1
10
-1.30710678118656
20
-4.39331221032487
30
0
0
SPLINE
5
180
100
AcDbEntity
8
SK1
62
256
6
ByLayer
370
18
48
1
60
0
100
AcDbSpline
70
4
71
3
72
50
73
46
40
0
40
0
40
0
40
0
40
0.124999999999998
40
0.124999999999998
40
0.249999999999996
40
0.249999999999996
40
0.312499999999996
40
0.312499999999996
40
0.374999999999996
40
0.374999999999996
40
0.499999999999996
40
0.499999999999996
40
0.562499999999996
40
0.562499999999996
40
0.624999999999997
40
0.624999999999997
40
0.687499999999997
40
0.687499999999997
40
0.718749999999997
40
0.718749999999997
40
0.749999999999997
40
0.749999999999997
40
0.781249999999998
40
0.781249999999998
40
0.812499999999998
40
0.812499999999998
40
0.843749999999998
40
0.843749999999998
40
0.859374999999998
40
0.859374999999998
40
0.874999999999998
40
0.890624999999998
40
0.890624999999998
40
0.898437499999998
40
0.898437499999998
40
0.906249999999998
40
0.921874999999998
40
0.921874999999998
40
0.937499999999999
40
0.937499999999999
40
0.968749999999999
40
0.968749999999999
40
0.984375
40
0.984375
40
1
40
1
40
1
40
1
41
1
10
-1.30710678118652
20
4.39330887788606
30
0
41
1
10
-1.29259057630256
20
4.47534003310412
30
0
41
1
10
-1.27702923965072
20
4.55696714625805
30
0
41
1
10
-1.24335659670558
20
4.71934352683385
30
0
41
1
10
-1.22524991683203
20
4.80009364705947
30
0
41
1
10
-1.19566654622427
20
4.92047732721875
30
0
41
1
10
-1.18539939501377
20
4.96048124175471
30
0
41
1
10
-1.16392950861754
20
5.04022016000795
30
0
41
1
10
-1.15271909218826
20
5.07998178339514
30
0
41
1
10
-1.11752093416872
20
5.19855796010594
30
0
41
1
10
-1.09200642706725
20
5.27670114460136
30
0
41
1
10
-1.0492407274256
20
5.39208696039736
30
0
41
1
10
-1.03422852656959
20
5.43024134229668
30
0
41
1
10
-1.00227006366245
20
5.50579467647674
30
0
41
1
10
-0.985329895267597
20
5.54319570602496
30
0
41
1
10
-0.948842305699031
20
5.61701592648748
30
0
41
1
10
-0.929311633153432
20
5.65344083322157
30
0
41
1
10
-0.897134039200722
20
5.70702849131604
30
0
41
1
10
-0.885889244318051
20
5.72475996992927
30
0
41
1
10
-0.862388317867428
20
5.75943238422735
30
0
41
1
10
-0.850124764431285
20
5.77639487115229
30
0
41
1
10
-0.824286187770213
20
5.80937247929978
30
0
41
1
10
-0.810714993566975
20
5.82539030326046
30
0
41
1
10
-0.781810520162324
20
5.85616212382189
30
0
41
1
10
-0.766480020681499
20
5.87092930527115
30
0
41
1
10
-0.733280688453021
20
5.89860840862804
30
0
41
1
10
-0.715743791280261
20
5.91124847506274
30
0
41
1
10
-0.68741628460927
20
5.92762938506613
30
0
41
1
10
-0.677572371948386
20
5.93267724259607
30
0
41
1
10
-0.657498098822899
20
5.94150365482599
30
0
41
1
10
-0.636988070186447
20
5.94910381427817
30
0
41
1
10
-0.615487385337133
20
5.9539180373385
30
0
41
1
10
-0.598932162610765
20
5.95632074310808
30
0
41
1
10
-0.593335497469852
20
5.95691733339831
30
0
41
1
10
-0.58224137494102
20
5.95766809286985
30
0
41
1
10
-0.565657821584423
20
5.95814654054257
30
0
41
1
10
-0.54924370449001
20
5.95672090529089
30
0
41
1
10
-0.527503554619585
20
5.95318620141708
30
0
41
1
10
-0.516622342716403
20
5.95056688400257
30
0
41
1
10
-0.485210602129968
20
5.94070326229377
30
0
41
1
10
-0.465634608434925
20
5.93149511928672
30
0
41
1
10
-0.437740327393655
20
5.91484188421759
30
0
41
1
10
-0.428752255076858
20
5.90884528223492
30
0
41
1
10
-0.411413024584249
20
5.89619973179913
30
0
41
1
10
-0.403039329106406
20
5.88953658242153
30
0
41
1
10
-0.394913799811263
20
5.88258733498481
30
0
0
SPLINE
5
181
100
AcDbEntity
8
SK1
62
256
6
ByLayer
370
13
48
1
60
0
100
AcDbSpline
70
4
71
3
72
25
73
21
40
0
40
0
40
0
40
0
40
0.0621299289368519
40
0.12580676026982
40
0.189483591602789
40
0.221322007269273
40
0.253160422935758
40
0.316837254268726
40
0.380514085601695
40
0.444190916934663
40
0.507867748267632
40
0.5715445796006
40
0.635221410933569
40
0.698898242266538
40
0.762575073599506
40
0.826251904932475
40
0.889928736265443
40
0.953605567598412
40
0.985443983264896
40
1
40
1
40
1
40
1
41
1
10
-0.394913799811206
20
27.3654111757364
30
0
41
1
10
-0.394913799811206
20
27.3654777309173
30
0
41
1
10
-0.394913799811192
20
27.2811607187438
30
0
41
1
10
-0.394913799811192
20
26.931711914563
30
0
41
1
10
-0.394913799811192
20
26.4695479228793
30
0
41
1
10
-0.394913799811192
20
26.0073845707252
30
0
41
1
10
-0.394913799811192
20
25.4857521565205
30
0
41
1
10
-0.394913799811192
20
24.7273073402748
30
0
41
1
10
-0.394913799811206
20
23.6558244102428
30
0
41
1
10
-0.394913799811206
20
22.4320519750209
30
0
41
1
10
-0.394913799811206
20
21.061545739767
30
0
41
1
10
-0.394913799811221
20
19.5496941631405
30
0
41
1
10
-0.394913799811221
20
17.9007385657829
30
0
41
1
10
-0.394913799811235
20
16.116845123771
30
0
41
1
10
-0.394913799811235
20
14.2008618153781
30
0
41
1
10
-0.394913799811249
20
12.153497457354
30
0
41
1
10
-0.394913799811249
20
9.97566741413243
30
0
41
1
10
-0.394913799811263
20
8.05259596592001
30
0
41
1
10
-0.394913799811263
20
6.66606769858655
30
0
41
1
10
-0.394913799811263
20
6.07052516538181
30
0
41
1
10
-0.394913799811263
20
5.88258733498483
30
0
0
SPLINE
5
182
100
AcDbEntity
8
SK1
62
256
6
ByLayer
370
18
48
1
60
0
100
AcDbSpline
70
4
71
3
72
36
73
32
40
0
40
0
40
0
40
0
40
0.0625000000000002
40
0.0625000000000002
40
0.125
40
0.125
40
0.250000000000001
40
0.250000000000001
40
0.312500000000001
40
0.312500000000001
40
0.343750000000001
40
0.343750000000001
40
0.375000000000001
40
0.375000000000001
40
0.437500000000001
40
0.437500000000001
40
0.500000000000001
40
0.5625
40
0.5625
40
0.625
40
0.625
40
0.6875
40
0.71875
40
0.71875
40
0.75
40
0.75
40
0.875
40
0.875
40
0.9375
40
0.9375
40
1
40
1
40
1
40
1
41
1
10
-1.30710678118656
20
-4.39331221032489
30
0
41
1
10
-1.33832612741193
20
-4.21689231016722
30
0
41
1
10
-1.36851092390376
20
-4.03973122982887
30
0
41
1
10
-1.42649811963089
20
-3.68381684447201
30
0
41
1
10
-1.45429466041942
20
-3.50506155058414
30
0
41
1
10
-1.53342175503582
20
-2.96616199669305
30
0
41
1
10
-1.58051371000481
20
-2.60339474516388
30
0
41
1
10
-1.63969017396079
20
-2.05289759168917
30
0
41
1
10
-1.65749856469556
20
-1.86833789193395
30
0
41
1
10
-1.68090524760893
20
-1.58974420341144
30
0
41
1
10
-1.68815609252624
20
-1.4965870997257
30
0
41
1
10
-1.70147805604537
20
-1.30965819488989
30
0
41
1
10
-1.70755165689623
20
-1.21581541728392
30
0
41
1
10
-1.72381183076918
20
-0.934723518861318
30
0
41
1
10
-1.73206493494847
20
-0.747501097942717
30
0
41
1
10
-1.7429848038179
20
-0.373418392454084
30
0
41
1
10
-1.748391829433
20
0.0003055804815801
30
0
41
1
10
-1.74297993884852
20
0.373323280942145
30
0
41
1
10
-1.73211744010526
20
0.745986303504452
30
0
41
1
10
-1.72392517749429
20
0.932138827990201
30
0
41
1
10
-1.70248074969007
20
1.30410713450161
30
0
41
1
10
-1.68260948363638
20
1.58283112758753
30
0
41
1
10
-1.65757931062798
20
1.86120029185437
30
0
41
1
10
-1.63980474419279
20
2.04670347397035
30
0
41
1
10
-1.63039580544411
20
2.1391828740305
30
0
41
1
10
-1.58095222331164
20
2.60000741581413
30
0
41
1
10
-1.53372925180183
20
2.96395482764058
30
0
41
1
10
-1.45444775249804
20
3.50406852662027
30
0
41
1
10
-1.42660609580413
20
3.68313524459486
30
0
41
1
10
-1.36854874276651
20
4.03950797751688
30
0
41
1
10
-1.33833886963824
20
4.21681617087032
30
0
41
1
10
-1.30710678118653
20
4.39330887788606
30
0
0
SPLINE
5
183
100
AcDbEntity
8
SK1
62
256
6
ByLayer
370
13
48
1
60
0
100
AcDbSpline
70
4
71
3
72
53
73
49
40
0
40
0
40
0
40
0
40
0.0270895961209028
40
0.0549066092947938
40
0.0827236224686848
40
0.0966321290556302
40
0.110540635642576
40
0.138357648816467
40
0.166174661990358
40
0.193991675164249
40
0.22180868833814
40
0.249625701512031
40
0.277442714685922
40
0.305259727859813
40
0.333076741033703
40
0.360893754207595
40
0.388710767381486
40
0.416527780555376
40
0.430436287142322
40
0.444344793729268
40
0.458253300316213
40
0.472161806903159
40
0.486070313490104
40
0.493024566783577
40
0.499978820077049
40
0.506933073370522
40
0.513887326663995
40
0.52779583325094
40
0.541704339837886
40
0.555612846424831
40
0.569521353011777
40
0.583429859598722
40
0.611246872772613
40
0.639063885946504
40
0.666880899120395
40
0.694697912294286
40
0.722514925468177
40
0.750331938642068
40
0.778148951815959
40
0.80596596498985
40
0.833782978163741
40
0.861599991337632
40
0.889417004511523
40
0.903325511098469
40
0.917234017685414
40
0.945051030859305
40
0.972868044033196
40
1
40
1
40
1
40
1
41
1
10
-1.9950399779392
20
27.3252179108184
30
0
41
1
10
-1.9950399779392
20
27.3251258435758
30
0
41
1
10
-1.9950399779392
20
27.2408685519871
30
0
41
1
10
-1.9950399779392
20
26.8920579638066
30
0
41
1
10
-1.9950399779392
20
26.4304294784276
30
0
41
1
10
-1.9950399779392
20
25.9687186091476
30
0
41
1
10
-1.9950399779392
20
25.4475793002846
30
0
41
1
10
-1.9950399779392
20
24.6899114886171
30
0
41
1
10
-1.99503997793921
20
23.619443795401
30
0
41
1
10
-1.99503997793921
20
22.3968111872691
30
0
41
1
10
-1.99503997793921
20
21.0275777036138
30
0
41
1
10
-1.99503997793923
20
19.5171387431293
30
0
41
1
10
-1.99503997793923
20
17.8697605888624
30
0
41
1
10
-1.99503997793924
20
16.0876370834377
30
0
41
1
10
-1.99503997793924
20
14.1736586399813
30
0
41
1
10
-1.99503997793926
20
12.1286054195275
30
0
41
1
10
-1.99503997793926
20
9.95349522257501
30
0
41
1
10
-1.99503997793927
20
8.03329795823163
30
0
41
1
10
-1.99503997793927
20
6.43152354524267
30
0
41
1
10
-1.99503997793928
20
5.19920324116256
30
0
41
1
10
-1.99503997793928
20
3.93622738701507
30
0
41
1
10
-1.99503997793928
20
2.64495367748941
30
0
41
1
10
-1.99503997793928
20
1.54951551889729
30
0
41
1
10
-1.9950399779393
20
0.6647912077417
30
0
41
1
10
-1.9950399779393
20
-1.48582728E-08
30
0
41
1
10
-1.9950399779393
20
-0.664791253601607
30
0
41
1
10
-1.9950399779393
20
-1.549515656636
30
0
41
1
10
-1.99503997793931
20
-2.64495403942521
30
0
41
1
10
-1.99503997793931
20
-3.93622781621519
30
0
41
1
10
-1.99503997793931
20
-5.19920320851571
30
0
41
1
10
-1.99503997793933
20
-6.43152352997811
30
0
41
1
10
-1.99503997793933
20
-8.03329822829241
30
0
41
1
10
-1.99503997793933
20
-9.95349533700443
30
0
41
1
10
-1.99503997793934
20
-12.1286054335931
30
0
41
1
10
-1.99503997793936
20
-14.1736586478766
30
0
41
1
10
-1.99503997793936
20
-16.0876367400659
30
0
41
1
10
-1.99503997793937
20
-17.8697602043723
30
0
41
1
10
-1.99503997793937
20
-19.5171385903506
30
0
41
1
10
-1.99503997793937
20
-21.027578149028
30
0
41
1
10
-1.99503997793939
20
-22.3968114946305
30
0
41
1
10
-1.99503997793939
20
-23.6194427004969
30
0
41
1
10
-1.99503997793939
20
-24.6899119683388
30
0
41
1
10
-1.9950399779394
20
-25.4475821015686
30
0
41
1
10
-1.9950399779394
20
-25.9687206006143
30
0
41
1
10
-1.9950399779394
20
-26.4304294614745
30
0
41
1
10
-1.9950399779394
20
-26.8920582242086
30
0
41
1
10
-1.9950399779394
20
-27.2410471091908
30
0
41
1
10
-1.99503997793939
20
-27.3252555669116
30
0
41
1
10
-1.9950399779394
20
-27.3252180382781
30
0
0
SPLINE
5
184
100
AcDbEntity
8
SK1
62
256
6
ByLayer
370
18
48
1
60
0
100
AcDbSpline
70
4
71
3
72
53
73
49
40
0
40
0
40
0
40
0
40
0.0183862523534559
40
0.0467164708210932
40
0.0750466892887304
40
0.0892117985225491
40
0.103376907756368
40
0.131707126224005
40
0.160037344691642
40
0.188367563159279
40
0.216697781626917
40
0.245028000094554
40
0.273358218562191
40
0.301688437029829
40
0.330018655497466
40
0.358348873965103
40
0.386679092432741
40
0.415009310900378
40
0.429174420134196
40
0.443339529368015
40
0.457504638601834
40
0.471669747835652
40
0.485834857069471
40
0.49291741168638
40
0.49999996630329
40
0.507082520920199
40
0.514165075537108
40
0.528330184770927
40
0.542495294004746
40
0.556660403238564
40
0.570825512472383
40
0.584990621706201
40
0.613320840173839
40
0.641651058641476
40
0.669981277109113
40
0.698311495576751
40
0.726641714044388
40
0.754971932512025
40
0.783302150979662
40
0.8116323694473
40
0.839962587914937
40
0.868292806382574
40
0.896623024850212
40
0.91078813408403
40
0.924953243317849
40
0.953283461785486
40
0.981613680253123
40
1
40
1
40
1
40
1
41
1
10
-2.19999999999989
20
27.5062744588374
30
0
41
1
10
-2.19999999999989
20
27.4880697257487
30
0
41
1
10
-2.19999999999989
20
27.3968430126444
30
0
41
1
10
-2.1999999999999
20
27.0843206529938
30
0
41
1
10
-2.1999999999999
20
26.6200957584238
30
0
41
1
10
-2.1999999999999
20
26.156191020121
30
0
41
1
10
-2.1999999999999
20
25.6326608836802
30
0
41
1
10
-2.1999999999999
20
24.8712257553423
30
0
41
1
10
-2.19999999999992
20
23.7958356733944
30
0
41
1
10
-2.19999999999992
20
22.5676765989873
30
0
41
1
10
-2.19999999999992
20
21.1922721628705
30
0
41
1
10
-2.19999999999993
20
19.6749841148914
30
0
41
1
10
-2.19999999999993
20
18.0199577075533
30
0
41
1
10
-2.19999999999995
20
16.229252641869
30
0
41
1
10
-2.19999999999995
20
14.3055535850363
30
0
41
1
10
-2.19999999999996
20
12.2492947844102
30
0
41
1
10
-2.19999999999996
20
10.0609973779136
30
0
41
1
10
-2.19999999999997
20
8.12686459619212
30
0
41
1
10
-2.19999999999997
20
6.51319173456665
30
0
41
1
10
-2.19999999999997
20
5.269736553461
30
0
41
1
10
-2.19999999999999
20
3.99363661217191
30
0
41
1
10
-2.19999999999999
20
2.68649440179473
30
0
41
1
10
-2.19999999999999
20
1.57441409623579
30
0
41
1
10
-2.2
20
0.676125852580327
30
0
41
1
10
-2.2
20
-8.01526596E-08
30
0
41
1
10
-2.2
20
-0.676125991375187
30
0
41
1
10
-2.2
20
-1.57441419616916
30
0
41
1
10
-2.20000000000002
20
-2.68649461847349
30
0
41
1
10
-2.20000000000002
20
-3.99363707251749
30
0
41
1
10
-2.20000000000002
20
-5.26973663380881
30
0
41
1
10
-2.20000000000003
20
-6.51319169435675
30
0
41
1
10
-2.20000000000003
20
-8.1268648484035
30
0
41
1
10
-2.20000000000003
20
-10.0609975068282
30
0
41
1
10
-2.20000000000005
20
-12.2492948087344
30
0
41
1
10
-2.20000000000006
20
-14.3055536070197
30
0
41
1
10
-2.20000000000006
20
-16.2292523079286
30
0
41
1
10
-2.20000000000007
20
-18.0199573189881
30
0
41
1
10
-2.20000000000007
20
-19.6749839400142
30
0
41
1
10
-2.20000000000007
20
-21.1922725974247
30
0
41
1
10
-2.20000000000009
20
-22.5676769377316
30
0
41
1
10
-2.20000000000009
20
-23.7958345745359
30
0
41
1
10
-2.20000000000009
20
-24.87122617173
30
0
41
1
10
-2.2000000000001
20
-25.6326636676739
30
0
41
1
10
-2.2000000000001
20
-26.156193055705
30
0
41
1
10
-2.2000000000001
20
-26.6200957619357
30
0
41
1
10
-2.2000000000001
20
-27.0843209142601
30
0
41
1
10
-2.2000000000001
20
-27.3968432731315
30
0
41
1
10
-2.2000000000001
20
-27.4880698405002
30
0
41
1
10
-2.2000000000001
20
-27.5062745412071
30
0
0
SPLINE
5
185
100
AcDbEntity
8
SK1
62
256
6
ByLayer
370
18
48
1
60
0
100
AcDbSpline
70
4
71
3
72
53
73
49
40
0
40
0
40
0
40
0
40
0.0184049971945341
40
0.0467338366993152
40
0.0750626762040963
40
0.0892270959564869
40
0.103391515708877
40
0.131720355213658
40
0.16004919471844
40
0.188378034223221
40
0.216706873728002
40
0.245035713232783
40
0.273364552737564
40
0.301693392242345
40
0.330022231747126
40
0.358351071251907
40
0.386679910756689
40
0.41500875026147
40
0.42917317001386
40
0.443337589766251
40
0.457502009518641
40
0.471666429271032
40
0.485830849023422
40
0.492913058899618
40
0.499995268775813
40
0.507077478652008
40
0.514159688528203
40
0.528324108280594
40
0.542488528032985
40
0.556652947785375
40
0.570817367537765
40
0.584981787290156
40
0.613310626794937
40
0.641639466299718
40
0.6699683058045
40
0.698297145309281
40
0.726625984814061
40
0.754954824318843
40
0.783283663823624
40
0.811612503328405
40
0.839941342833186
40
0.868270182337967
40
0.896599021842748
40
0.910763441595139
40
0.924927861347529
40
0.953256700852311
40
0.981585540357091
40
1
40
1
40
1
40
1
41
1
10
-46.4999999999999
20
26.39409106452
30
0
41
1
10
-46.4999999999999
20
26.3765864106677
30
0
41
1
10
-46.4999999999999
20
26.2887289432155
30
0
41
1
10
-46.4999999999999
20
25.9864884679326
30
0
41
1
10
-46.4999999999999
20
25.5370892350004
30
0
41
1
10
-46.4999999999999
20
25.0857116283693
30
0
41
1
10
-46.4999999999999
20
24.5758332694778
30
0
41
1
10
-46.4999999999999
20
23.835909758967
30
0
41
1
10
-46.4999999999999
20
22.7886268297895
30
0
41
1
10
-46.4999999999999
20
21.5920242293513
30
0
41
1
10
-46.4999999999999
20
20.2518563243234
30
0
41
1
10
-46.4999999999999
20
18.7736770016082
30
0
41
1
10
-46.4999999999999
20
17.1623226058106
30
0
41
1
10
-46.4999999999999
20
15.420618795081
30
0
41
1
10
-46.5
20
13.5524250589534
30
0
41
1
10
-46.5
20
11.5601508338968
30
0
41
1
10
-46.5
20
9.44715323273326
30
0
41
1
10
-46.5
20
7.59259314167733
30
0
41
1
10
-46.5
20
6.04686117862479
30
0
41
1
10
-46.5
20
4.86698685362302
30
0
41
1
10
-46.5
20
3.66582628473373
30
0
41
1
10
-46.5
20
2.44929422361187
30
0
41
1
10
-46.5
20
1.43224163583824
30
0
41
1
10
-46.5
20
0.611404309556747
30
0
41
1
10
-46.5
20
2.926826426E-07
30
0
41
1
10
-46.5
20
-0.611403917686772
30
0
41
1
10
-46.5
20
-1.43224195164211
30
0
41
1
10
-46.5
20
-2.44929526971728
30
0
41
1
10
-46.5
20
-3.66582656723654
30
0
41
1
10
-46.5
20
-4.86698628876383
30
0
41
1
10
-46.5
20
-6.04686128085422
30
0
41
1
10
-46.5
20
-7.5925934958095
30
0
41
1
10
-46.5
20
-9.44715327893661
30
0
41
1
10
-46.5
20
-11.5601507996433
30
0
41
1
10
-46.5000000000001
20
-13.5524250004929
30
0
41
1
10
-46.5000000000001
20
-15.4206184072862
30
0
41
1
10
-46.5000000000001
20
-17.1623222405145
30
0
41
1
10
-46.5000000000001
20
-18.7736769529141
30
0
41
1
10
-46.5000000000001
20
-20.2518568208891
30
0
41
1
10
-46.5000000000001
20
-21.5920243888971
30
0
41
1
10
-46.5000000000001
20
-22.7886257535109
30
0
41
1
10
-46.5000000000001
20
-23.8359105369951
30
0
41
1
10
-46.5000000000001
20
-24.5758361522003
30
0
41
1
10
-46.5000000000001
20
-25.0857134120401
30
0
41
1
10
-46.5000000000001
20
-25.5370891216556
30
0
41
1
10
-46.5000000000001
20
-25.9864887242635
30
0
41
1
10
-46.5000000000001
20
-26.2887670151803
30
0
41
1
10
-46.5000000000001
20
-26.3766218382146
30
0
41
1
10
-46.5000000000001
20
-26.3941179356088
30
0
0
SPLINE
5
186
100
AcDbEntity
8
1
62
256
6
ByLayer
370
18
48
1
60
0
100
AcDbSpline
70
4
71
3
72
87
73
83
40
0
40
0
40
0
40
0
40
0.0095957382389179
40
0.0190531073342745
40
0.0284807905637321
40
0.0378776849257357
40
0.0472437149774232
40
0.0565790211131453
40
0.0658837411126445
40
0.0751580101812428
40
0.0844019609892108
40
0.0936157237100802
40
0.10279942605806
40
0.111953193324579
40
0.121077148413944
40
0.13017141187815
40
0.139236101950884
40
0.148271334580714
40
0.157277223463514
40
0.166253880074124
40
0.175201413697285
40
0.18411993145785
40
0.193009538350305
40
0.201870337267621
40
0.210702429029417
40
0.219505912409508
40
0.22828088416288
40
0.237027439051878
40
0.245745669872041
40
0.254435667477185
40
0.263096829595862
40
0.271726598949722
40
0.28032483273552
40
0.288891649815006
40
0.29742716674422
40
0.305931497807615
40
0.314404755051431
40
0.32284704831582
40
0.33125848526704
40
0.339639171428508
40
0.347989210210967
40
0.35630870294256
40
0.364597748897864
40
0.372856445326122
40
0.38108488747928
40
0.389283168639182
40
0.397451380144217
40
0.4055896114154
40
0.413697949981882
40
0.421776481505943
40
0.429825289807422
40
0.437844456887649
40
0.44583406295286
40
0.453794186437128
40
0.461724904024803
40
0.469626290672487
40
0.477498419630546
40
0.485341362464175
40
0.493155189074021
40
0.500939967716379
40
0.528420087677465
40
0.555455307869905
40
0.582048101822831
40
0.608200657238951
40
0.633914888860847
40
0.659192450569731
40
0.684023037479464
40
0.708373252877995
40
0.73224395697332
40
0.755638241432196
40
0.778558923891713
40
0.80100856250027
40
0.822989469590273
40
0.844503724556919
40
0.865553186010639
40
0.886139503265006
40
0.906264127217008
40
0.925928320672626
40
0.945133168167572
40
0.963879585330894
40
0.982168327838052
40
1
40
1
40
1
40
1
41
1
10
446
20
29.9999999999983
30
0
41
1
10
446.000664165404
20
29.9999777691849
30
0
41
1
10
446.001982919045
20
29.9999336281232
30
0
41
1
10
446.003953830956
20
29.9995791934409
30
0
41
1
10
446.005909950125
20
29.9990198289531
30
0
41
1
10
446.007858150994
20
29.998235798507
30
0
41
1
10
446.009797787049
20
29.9972347894389
30
0
41
1
10
446.011728315206
20
29.9960175104299
30
0
41
1
10
446.013649216743
20
29.9945864978256
30
0
41
1
10
446.01555998383
20
29.9929437769181
30
0
41
1
10
446.017460118667
20
29.9910914875062
30
0
41
1
10
446.019349133308
20
29.9890317174612
30
0
41
1
10
446.021226549306
20
29.986766547461
30
0
41
1
10
446.02309189743
20
29.9842980394148
30
0
41
1
10
446.02494471736
20
29.9816282398974
30
0
41
1
10
446.026784557413
20
29.9787591795776
30
0
41
1
10
446.028610974264
20
29.9756928737106
30
0
41
1
10
446.030423532677
20
29.9724313223419
30
0
41
1
10
446.032221805251
20
29.968976510585
30
0
41
1
10
446.034005372169
20
29.9653304088748
30
0
41
1
10
446.035773820948
20
29.9614949732233
30
0
41
1
10
446.037526746213
20
29.9574721454715
30
0
41
1
10
446.039263749457
20
29.9532638535375
30
0
41
1
10
446.040984438827
20
29.9488720116625
30
0
41
1
10
446.042688428901
20
29.9442985206533
30
0
41
1
10
446.044375340483
20
29.9395452681214
30
0
41
1
10
446.046044800391
20
29.9346141287215
30
0
41
1
10
446.047696441276
20
29.9295069643805
30
0
41
1
10
446.049329901387
20
29.9242256245421
30
0
41
1
10
446.050944781687
20
29.9187720909461
30
0
41
1
10
446.052540527294
20
29.9131489282525
30
0
41
1
10
446.054116596478
20
29.9073588445869
30
0
41
1
10
446.055672492078
20
29.9014044789225
30
0
41
1
10
446.057207890179
20
29.8952878820652
30
0
41
1
10
446.058722487742
20
29.8890110302846
30
0
41
1
10
446.060215987144
20
29.8825758844456
30
0
41
1
10
446.06168809578
20
29.8759843903437
30
0
41
1
10
446.063138525982
20
29.8692384789564
30
0
41
1
10
446.064566994813
20
29.8623400667247
30
0
41
1
10
446.065973223921
20
29.8552910558168
30
0
41
1
10
446.067356939397
20
29.8480933343846
30
0
41
1
10
446.068717871603
20
29.8407487768273
30
0
41
1
10
446.070055755041
20
29.8332592440437
30
0
41
1
10
446.071370328213
20
29.8256265836768
30
0
41
1
10
446.072661333481
20
29.817852630364
30
0
41
1
10
446.073928516933
20
29.8099392059769
30
0
41
1
10
446.075171628256
20
29.8018881198593
30
0
41
1
10
446.07639042061
20
29.7937011690616
30
0
41
1
10
446.077584650504
20
29.7853801385712
30
0
41
1
10
446.078754077679
20
29.7769268015397
30
0
41
1
10
446.079898464993
20
29.7683429195068
30
0
41
1
10
446.081017578308
20
29.7596302426203
30
0
41
1
10
446.082111186381
20
29.7507905098526
30
0
41
1
10
446.083179060755
20
29.7418254492173
30
0
41
1
10
446.084220975657
20
29.7327367779683
30
0
41
1
10
446.085236707916
20
29.7235262028515
30
0
41
1
10
446.086226036766
20
29.7141954201421
30
0
41
1
10
446.087188744138
20
29.704746116469
30
0
41
1
10
446.088124613117
20
29.6951799667003
30
0
41
1
10
446.08980099136
20
29.6773221305056
30
0
41
1
10
446.092080204567
20
29.6505874266459
30
0
41
1
10
446.094733934436
20
29.6139555135314
30
0
41
1
10
446.097019467198
20
29.5761585965043
30
0
41
1
10
446.098931576391
20
29.537283307203
30
0
41
1
10
446.100465618447
20
29.4974145489635
30
0
41
1
10
446.101617298037
20
29.4566419395208
30
0
41
1
10
446.102382817281
20
29.4150739163419
30
0
41
1
10
446.102761192118
20
29.3728205933713
30
0
41
1
10
446.102751778669
20
29.3299867912709
30
0
41
1
10
446.102355145333
20
29.2866545337625
30
0
41
1
10
446.101572318649
20
29.2429023961684
30
0
41
1
10
446.100404848263
20
29.1988069865143
30
0
41
1
10
446.098854787356
20
29.1544430432361
30
0
41
1
10
446.096924692066
20
29.1098834854977
30
0
41
1
10
446.094617660379
20
29.0651995303556
30
0
41
1
10
446.09193722085
20
29.0204605514185
30
0
41
1
10
446.088887785283
20
28.9757348329528
30
0
41
1
10
446.085473080858
20
28.9310870632139
30
0
41
1
10
446.081701881918
20
28.8865875516458
30
0
41
1
10
446.077567462013
20
28.8422791843838
30
0
41
1
10
446.073121653596
20
28.7982964685762
30
0
41
1
10
446.069804385459
20
28.7686827219329
30
0
41
1
10
446.068166739865
20
28.7540632158594
30
0
0
SPLINE
5
187
100
AcDbEntity
8
1
62
256
6
ByLayer
370
13
48
1
60
0
100
AcDbSpline
70
4
71
1
72
4
73
2
40
0
40
0
40
1
40
1
41
1
10
445.636333479731
20
29.0040268797154
30
0
41
1
10
446.068166739865
20
28.7540632158594
30
0
0
SPLINE
5
188
100
AcDbEntity
8
1
62
256
6
ByLayer
370
18
48
1
60
0
100
AcDbSpline
70
4
71
3
72
36
73
32
40
0
40
0
40
0
40
0
40
0.122294168925351
40
0.122294168925351
40
0.19543632151491
40
0.19543632151491
40
0.232007397809687
40
0.232007397809687
40
0.268578474104464
40
0.268578474104464
40
0.341720626694017
40
0.341720626694017
40
0.378291702988794
40
0.378291702988794
40
0.414862779283571
40
0.414862779283571
40
0.488004931873124
40
0.488004931873124
40
0.524576008167901
40
0.524576008167901
40
0.561147084462678
40
0.561147084462678
40
0.634289237052232
40
0.634289237052232
40
0.707431389641786
40
0.707431389641786
40
0.78057354223134
40
0.78057354223134
40
0.853715694820894
40
0.853715694820894
40
1
40
1
40
1
40
1
41
1
10
447.60772961459
20
-9.71653231841847
30
0
41
1
10
447.598295176106
20
-9.72603531402783
30
0
41
1
10
447.589548040495
20
-9.73485269376096
30
0
41
1
10
447.576962978984
20
-9.74754554779142
30
0
41
1
10
447.572665768936
20
-9.75188121992113
30
0
41
1
10
447.566937041454
20
-9.7576626687904
30
0
41
1
10
447.565146159727
20
-9.75947030348499
30
0
41
1
10
447.561821741835
20
-9.76282620130016
30
0
41
1
10
447.560285385347
20
-9.76437731324791
30
0
41
1
10
447.556170769704
20
-9.76853182457927
30
0
41
1
10
447.554054662599
20
-9.77066898424809
30
0
41
1
10
447.551904777518
20
-9.77284038556715
30
0
41
1
10
447.551358069514
20
-9.77339260144939
30
0
41
1
10
447.550642684802
20
-9.77411520325853
30
0
41
1
10
447.550471174801
20
-9.77428845045844
30
0
41
1
10
447.550501778366
20
-9.77425753736534
30
0
41
1
10
447.551246131199
20
-9.77350561707343
30
0
41
1
10
447.553449587003
20
-9.77128011912168
30
0
41
1
10
447.554366440456
20
-9.770354133148
30
0
41
1
10
447.556507437831
20
-9.76819200729102
30
0
41
1
10
447.557735591993
20
-9.76695181711196
30
0
41
1
10
447.561863192775
20
-9.76278423520026
30
0
41
1
10
447.565218581561
20
-9.75939689923337
30
0
41
1
10
447.572951716672
20
-9.75159268784904
30
0
41
1
10
447.577252302461
20
-9.74725369068622
30
0
41
1
10
447.586584704884
20
-9.73784146922881
30
0
41
1
10
447.591617667416
20
-9.73276708578982
30
0
41
1
10
447.602342916788
20
-9.72195815563711
30
0
41
1
10
447.607954623723
20
-9.7163048356897
30
0
41
1
10
447.625296915117
20
-9.69884175314988
30
0
41
1
10
447.637586054382
20
-9.68647708464715
30
0
41
1
10
447.650480947162
20
-9.67351614771229
30
0
0
SPLINE
5
189
100
AcDbEntity
8
1
62
256
6
ByLayer
370
18
48
1
60
0
100
AcDbSpline
70
4
71
3
72
8
73
4
40
0
40
0
40
0
40
0
40
1
40
1
40
1
40
1
41
1
10
447.650480947162
20
-9.67351614771229
30
0
41
1
10
447.875830405165
20
-9.44701251070137
30
0
41
1
10
448.100607863251
20
-9.21975466987254
30
0
41
1
10
448.324759526419
20
-8.99167169445764
30
0
0
SPLINE
5
18A
100
AcDbEntity
8
1
62
256
6
ByLayer
370
18
48
1
60
0
100
AcDbSpline
70
4
71
3
72
8
73
4
40
0
40
0
40
0
40
0
40
1
40
1
40
1
40
1
41
1
10
448.324759526419
20
-8.97685679321165
30
0
41
1
10
448.100458994954
20
-9.19503327622976
30
0
41
1
10
447.875685997486
20
-9.41255891076852
30
0
41
1
10
447.650480947162
20
-9.62948936820737
30
0
0
SPLINE
5
18B
100
AcDbEntity
8
1
62
256
6
ByLayer
370
18
48
1
60
0
100
AcDbSpline
70
4
71
3
72
36
73
32
40
0
40
0
40
0
40
0
40
0.0625000000000001
40
0.0625000000000001
40
0.125
40
0.125
40
0.1875
40
0.1875
40
0.25
40
0.25
40
0.3125
40
0.3125
40
0.375
40
0.375
40
0.4375
40
0.4375
40
0.5
40
0.5
40
0.5625
40
0.5625
40
0.625
40
0.625
40
0.6875
40
0.6875
40
0.75
40
0.75
40
0.812500000000001
40
0.812500000000001
40
0.875000000000001
40
0.875000000000001
40
1
40
1
40
1
40
1
41
1
10
447.650480947162
20
-9.62948936820737
30
0
41
1
10
447.643862084188
20
-9.63586503771612
30
0
41
1
10
447.63736815804
20
-9.64208549394087
30
0
41
1
10
447.624658212001
20
-9.65417951440455
30
0
41
1
10
447.618465781099
20
-9.66003024657536
30
0
41
1
10
447.606614451507
20
-9.67113177605177
30
0
41
1
10
447.600930365741
20
-9.67640669120928
30
0
41
1
10
447.590113554064
20
-9.68632465815372
30
0
41
1
10
447.584944456052
20
-9.69100002973565
30
0
41
1
10
447.575462300344
20
-9.69941575654343
30
0
41
1
10
447.571165979257
20
-9.70314262332897
30
0
41
1
10
447.563582231134
20
-9.7095025996347
30
0
41
1
10
447.560295493777
20
-9.71213143841663
30
0
41
1
10
447.555115656292
20
-9.71594958104379
30
0
41
1
10
447.55318093426
20
-9.7171751733822
30
0
41
1
10
447.550745513604
20
-9.71812863957581
30
0
41
1
10
447.550291079597
20
-9.71783638379657
30
0
41
1
10
447.550812662286
20
-9.71581840714919
30
0
41
1
10
447.551796471514
20
-9.7140793421232
30
0
41
1
10
447.555138387984
20
-9.70923886667137
30
0
41
1
10
447.557446708715
20
-9.70620514956175
30
0
41
1
10
447.563158317433
20
-9.69908462041849
30
0
41
1
10
447.566592406128
20
-9.69496234484524
30
0
41
1
10
447.57432482138
20
-9.68591712910487
30
0
41
1
10
447.578590882068
20
-9.68102998219263
30
0
41
1
10
447.587802061849
20
-9.67063807328859
30
0
41
1
10
447.592748132286
20
-9.66513244064976
30
0
41
1
10
447.60325464834
20
-9.65356394564586
30
0
41
1
10
447.608756349683
20
-9.64756608451225
30
0
41
1
10
447.625757992912
20
-9.62918191521678
30
0
41
1
10
447.63781344554
20
-9.61633815057064
30
0
41
1
10
447.650480947162
20
-9.6030003410709
30
0
0
SPLINE
5
18C
100
AcDbEntity
8
1
62
256
6
ByLayer
370
18
48
1
60
0
100
AcDbSpline
70
4
71
3
72
8
73
4
40
0
40
0
40
0
40
0
40
1
40
1
40
1
40
1
41
1
10
447.650480947162
20
-9.60300034107087
30
0
41
1
10
447.876008003165
20
-9.36553939574017
30
0
41
1
10
448.100791090601
20
-9.12714334966682
30
0
41
1
10
448.324759526419
20
-8.88772336069286
30
0
0
SPLINE
5
18D
100
AcDbEntity
8
1
62
256
6
ByLayer
370
18
48
1
60
0
100
AcDbSpline
70
4
71
3
72
8
73
4
40
0
40
0
40
0
40
0
40
1
40
1
40
1
40
1
41
1
10
448.324759526419
20
-8.84299853393995
30
0
41
1
10
448.10033706691
20
-9.05252988602322
30
0
41
1
10
447.875567648883
20
-9.26156385841526
30
0
41
1
10
447.650480947162
20
-9.47014299122728
30
0
0
SPLINE
5
18E
100
AcDbEntity
8
1
62
256
6
ByLayer
370
18
48
1
60
0
100
AcDbSpline
70
4
71
3
72
38
73
34
40
0
40
0
40
0
40
0
40
0.0625000000000004
40
0.0625000000000004
40
0.125000000000001
40
0.125000000000001
40
0.187500000000001
40
0.187500000000001
40
0.250000000000002
40
0.250000000000002
40
0.312500000000003
40
0.312500000000003
40
0.375000000000003
40
0.375000000000003
40
0.437500000000004
40
0.437500000000004
40
0.500000000000004
40
0.500000000000004
40
0.531250000000002
40
0.531250000000002
40
0.5625
40
0.5625
40
0.624999999999999
40
0.624999999999999
40
0.687499999999999
40
0.687499999999999
40
0.749999999999999
40
0.749999999999999
40
0.812499999999998
40
0.812499999999998
40
0.874999999999998
40
0.874999999999998
40
1
40
1
40
1
40
1
41
1
10
447.650480947162
20
-9.47014299122728
30
0
41
1
10
447.643726881463
20
-9.47640172244294
30
0
41
1
10
447.637098160743
20
-9.48246759842786
30
0
41
1
10
447.624121587645
20
-9.49416536458742
30
0
41
1
10
447.617742143976
20
-9.49982427039404
30
0
41
1
10
447.605562970483
20
-9.51041364088042
30
0
41
1
10
447.599742695575
20
-9.5153637999656
30
0
41
1
10
447.588714807944
20
-9.52447763543611
30
0
41
1
10
447.583471678807
20
-9.52866871468854
30
0
41
1
10
447.573894168183
20
-9.53596728090497
30
0
41
1
10
447.569604727196
20
-9.53904307630202
30
0
41
1
10
447.562140118258
20
-9.54391162876354
30
0
41
1
10
447.558968752714
20
-9.54569252126061
30
0
41
1
10
447.55412676766
20
-9.54768938933435
30
0
41
1
10
447.552408786091
20
-9.54793946069685
30
0
41
1
10
447.550449968655
20
-9.54686494801112
30
0
41
1
10
447.550243871428
20
-9.54555320166418
30
0
41
1
10
447.550991933076
20
-9.5425459103038
30
0
41
1
10
447.551417710024
20
-9.54136883684347
30
0
41
1
10
447.552612851189
20
-9.53867451681492
30
0
41
1
10
447.553385026571
20
-9.53715395741176
30
0
41
1
10
447.556141299637
20
-9.53220317401309
30
0
41
1
10
447.558572250332
20
-9.52836011374595
30
0
41
1
10
447.56445428438
20
-9.51974187542407
30
0
41
1
10
447.567937837454
20
-9.51492531016524
30
0
41
1
10
447.575648799551
20
-9.50468923349297
30
0
41
1
10
447.579874304902
20
-9.49926807007589
30
0
41
1
10
447.588959245089
20
-9.48790759078784
30
0
41
1
10
447.593819464948
20
-9.48196763019268
30
0
41
1
10
447.604115964568
20
-9.46961815492011
30
0
41
1
10
447.609513235996
20
-9.46325617344081
30
0
41
1
10
447.6261921918
20
-9.44387850617474
30
0
41
1
10
447.638027080278
20
-9.43048819086226
30
0
41
1
10
447.650480947162
20
-9.41669403193433
30
0
0
SPLINE
5
18F
100
AcDbEntity
8
1
62
256
6
ByLayer
370
18
48
1
60
0
100
AcDbSpline
70
4
71
3
72
8
73
4
40
0
40
0
40
0
40
0
40
1
40
1
40
1
40
1
41
1
10
447.650480947162
20
-9.41669403193433
30
0
41
1
10
447.876228917632
20
-9.16665093997653
30
0
41
1
10
448.101019214676
20
-8.9154654531782
30
0
41
1
10
448.324759526419
20
-8.66302745403496
30
0
0
SPLINE
5
190
100
AcDbEntity
8
1
62
256
6
ByLayer
370
18
48
1
60
0
100
AcDbSpline
70
4
71
3
72
8
73
4
40
0
40
0
40
0
40
0
40
1
40
1
40
1
40
1
41
1
10
448.324759526419
20
-8.58752521854544
30
0
41
1
10
448.100236859786
20
-8.78957038043083
30
0
41
1
10
447.875470342809
20
-8.99125322517457
30
0
41
1
10
447.650480947162
20
-9.19260491285917
30
0
0
SPLINE
5
191
100
AcDbEntity
8
1
62
256
6
ByLayer
370
18
48
1
60
0
100
AcDbSpline
70
4
71
3
72
39
73
35
40
0
40
0
40
0
40
0
40
0.0624999999999981
40
0.0624999999999981
40
0.124999999999996
40
0.124999999999996
40
0.187499999999994
40
0.187499999999994
40
0.249999999999992
40
0.249999999999992
40
0.312499999999991
40
0.312499999999991
40
0.34374999999999
40
0.34374999999999
40
0.37499999999999
40
0.40624999999999
40
0.40624999999999
40
0.43749999999999
40
0.43749999999999
40
0.499999999999991
40
0.499999999999991
40
0.562499999999993
40
0.562499999999993
40
0.624999999999994
40
0.624999999999994
40
0.687499999999996
40
0.687499999999996
40
0.749999999999997
40
0.749999999999997
40
0.812499999999998
40
0.812499999999998
40
0.875
40
0.875
40
1
40
1
40
1
40
1
41
1
10
447.650480947162
20
-9.1926049128592
30
0
41
1
10
447.643561481925
20
-9.19879740917301
30
0
41
1
10
447.636760597053
20
-9.20475945603098
30
0
41
1
10
447.623428732478
20
-9.21615687320642
30
0
41
1
10
447.616868043973
20
-9.22161492234468
30
0
41
1
10
447.604372494835
20
-9.23165711743908
30
0
41
1
10
447.598405523108
20
-9.23627050850075
30
0
41
1
10
447.587120780066
20
-9.24455136609674
30
0
41
1
10
447.581757911793
20
-9.2482452222626
30
0
41
1
10
447.572161291115
20
-9.25426188299872
30
0
41
1
10
447.567898801765
20
-9.25661132072858
30
0
41
1
10
447.562409953693
20
-9.25901971111082
30
0
41
1
10
447.56074024976
20
-9.25963014183387
30
0
41
1
10
447.557792033825
20
-9.26043826005829
30
0
41
1
10
447.555212841065
20
-9.26084392994667
30
0
41
1
10
447.553367705005
20
-9.26044824980991
30
0
41
1
10
447.551893890274
20
-9.25964684781368
30
0
41
1
10
447.551341802858
20
-9.25903712749411
30
0
41
1
10
447.550274927363
20
-9.25664302764912
30
0
41
1
10
447.550326458122
20
-9.25430287060519
30
0
41
1
10
447.551787967949
20
-9.24829597919319
30
0
41
1
10
447.553220516283
20
-9.24459649567305
30
0
41
1
10
447.557185296634
20
-9.23629105924405
30
0
41
1
10
447.559719213955
20
-9.2316610587593
30
0
41
1
10
447.565737405588
20
-9.22157887828857
30
0
41
1
10
447.569244994022
20
-9.21609568532404
30
0
41
1
10
447.576918114054
20
-9.20468295418215
30
0
41
1
10
447.581098727558
20
-9.19872551352725
30
0
41
1
10
447.590054837743
20
-9.18637742361508
30
0
41
1
10
447.594830979835
20
-9.17998630294304
30
0
41
1
10
447.604926584524
20
-9.16680948261305
30
0
41
1
10
447.61022432905
20
-9.16005339217227
30
0
41
1
10
447.626598565669
20
-9.13957880338646
30
0
41
1
10
447.638226288089
20
-9.1255569553056
30
0
41
1
10
447.650480947162
20
-9.11121115700107
30
0
0
SPLINE
5
192
100
AcDbEntity
8
1
62
256
6
ByLayer
370
18
48
1
60
0
100
AcDbSpline
70
4
71
3
72
8
73
4
40
0
40
0
40
0
40
0
40
1
40
1
40
1
40
1
41
1
10
447.650480947162
20
-9.11121115700107
30
0
41
1
10
447.876507770666
20
-8.84661503872778
30
0
41
1
10
448.101307459449
20
-8.58063653669055
30
0
41
1
10
448.324759526419
20
-8.31313992056144
30
0
0
SPLINE
5
193
100
AcDbEntity
8
1
62
256
6
ByLayer
370
18
48
1
60
0
100
AcDbSpline
70
4
71
3
72
8
73
4
40
0
40
0
40
0
40
0
40
1
40
1
40
1
40
1
41
1
10
448.324759526419
20
-8.20531773274121
30
0
41
1
10
448.100154848045
20
-8.40099561220845
30
0
41
1
10
447.875390693943
20
-8.59642895894888
30
0
41
1
10
447.650480947162
20
-8.7916390605869
30
0
0
SPLINE
5
194
100
AcDbEntity
8
1
62
256
6
ByLayer
370
18
48
1
60
0
100
AcDbSpline
70
4
71
3
72
32
73
28
40
0
40
0
40
0
40
0
40
0.125000000000002
40
0.125000000000002
40
0.1875
40
0.1875
40
0.249999999999999
40
0.249999999999999
40
0.312499999999997
40
0.312499999999997
40
0.374999999999995
40
0.374999999999995
40
0.437499999999994
40
0.437499999999994
40
0.499999999999992
40
0.499999999999992
40
0.562499999999991
40
0.562499999999991
40
0.624999999999989
40
0.624999999999989
40
0.749999999999988
40
0.749999999999988
40
0.812499999999989
40
0.812499999999989
40
0.87499999999999
40
0.87499999999999
40
1
40
1
40
1
40
1
41
1
10
447.650480947162
20
-8.7916390605869
30
0
41
1
10
447.636218452344
20
-8.80401817311028
30
0
41
1
10
447.622240264368
20
-8.8154173152063
30
0
41
1
10
447.602992291188
20
-8.82961530428247
30
0
41
1
10
447.596826112669
20
-8.83389454015477
30
0
41
1
10
447.585150324815
20
-8.84130944123515
30
0
41
1
10
447.579802545074
20
-8.84434192833092
30
0
41
1
10
447.570193548697
20
-8.84890585164007
30
0
41
1
10
447.565917359672
20
-8.85042533678728
30
0
41
1
10
447.5589614839
20
-8.85167539867592
30
0
41
1
10
447.556219248358
20
-8.85144369332735
30
0
41
1
10
447.552246458667
20
-8.8492156646227
30
0
41
1
10
447.551085390741
20
-8.84725167717664
30
0
41
1
10
447.550241537347
20
-8.84186141945528
30
0
41
1
10
447.550569080283
20
-8.83838297276864
30
0
41
1
10
447.552511726574
20
-8.83033441718604
30
0
41
1
10
447.554109567751
20
-8.82577081875709
30
0
41
1
10
447.558360917358
20
-8.81573420419446
30
0
41
1
10
447.56103952816
20
-8.81021890292018
30
0
41
1
10
447.570274220005
20
-8.79285792318595
30
0
41
1
10
447.578003306719
20
-8.78017499677517
30
0
41
1
10
447.591401058081
20
-8.7598818429388
30
0
41
1
10
447.59613953536
20
-8.75295527660742
30
0
41
1
10
447.605993559771
20
-8.73896416602031
30
0
41
1
10
447.611125160039
20
-8.7318756087943
30
0
41
1
10
447.627074672477
20
-8.71035906210193
30
0
41
1
10
447.638441494712
20
-8.69568280905406
30
0
41
1
10
447.650480947162
20
-8.68070599964599
30
0
0
SPLINE
5
195
100
AcDbEntity
8
1
62
256
6
ByLayer
370
18
48
1
60
0
100
AcDbSpline
70
4
71
3
72
8
73
4
40
0
40
0
40
0
40
0
40
1
40
1
40
1
40
1
41
1
10
447.650480947162
20
-8.68070599964599
30
0
41
1
10
447.876866272618
20
-8.39908772122143
30
0
41
1
10
448.101678442285
20
-8.1158055554865
30
0
41
1
10
448.324759526419
20
-7.83069246412094
30
0
0
SPLINE
5
196
100
AcDbEntity
8
1
62
256
6
ByLayer
370
18
48
1
60
0
100
AcDbSpline
70
4
71
3
72
8
73
4
40
0
40
0
40
0
40
0
40
1
40
1
40
1
40
1
41
1
10
448.324759526419
20
-7.68816253176286
30
0
41
1
10
448.100089025132
20
-7.87862050590408
30
0
41
1
10
447.875326782244
20
-8.06893402132721
30
0
41
1
10
447.650480947162
20
-8.25911591029654
30
0
0
SPLINE
5
197
100
AcDbEntity
8
1
62
256
6
ByLayer
370
18
48
1
60
0
100
AcDbSpline
70
4
71
3
72
41
73
37
40
0
40
0
40
0
40
0
40
0.0625000000000008
40
0.0625000000000008
40
0.125000000000002
40
0.125000000000002
40
0.156250000000005
40
0.156250000000005
40
0.187500000000008
40
0.187500000000008
40
0.250000000000017
40
0.250000000000017
40
0.281250000000021
40
0.281250000000021
40
0.312500000000026
40
0.343750000000031
40
0.343750000000031
40
0.375000000000036
40
0.375000000000036
40
0.43750000000004
40
0.43750000000004
40
0.468750000000043
40
0.468750000000043
40
0.500000000000045
40
0.500000000000045
40
0.562500000000041
40
0.562500000000041
40
0.625000000000037
40
0.625000000000037
40
0.687500000000032
40
0.687500000000032
40
0.750000000000028
40
0.750000000000028
40
0.875000000000014
40
0.875000000000014
40
1
40
1
40
1
40
1
41
1
10
447.650480947162
20
-8.25911591029654
30
0
41
1
10
447.643120671969
20
-8.26534146941731
30
0
41
1
10
447.635804695087
20
-8.27127735885395
30
0
41
1
10
447.621558337367
20
-8.28223636023642
30
0
41
1
10
447.614658110684
20
-8.28723989058128
30
0
41
1
10
447.604698216193
20
-8.29390870638306
30
0
41
1
10
447.601443651369
20
-8.29599151952115
30
0
41
1
10
447.595080260981
20
-8.29984422411687
30
0
41
1
10
447.591968194618
20
-8.30161422204836
30
0
41
1
10
447.583076629913
20
-8.30629453677636
30
0
41
1
10
447.577668862641
20
-8.30862467462225
30
0
41
1
10
447.570442806861
20
-8.31076958636115
30
0
41
1
10
447.568202442333
20
-8.31124983167567
30
0
41
1
10
447.564140466581
20
-8.3117249114444
30
0
41
1
10
447.560469603166
20
-8.31172328666415
30
0
41
1
10
447.557572696077
20
-8.31077697094574
30
0
41
1
10
447.555065784551
20
-8.30935396384572
30
0
41
1
10
447.554012412702
20
-8.30840103005622
30
0
41
1
10
447.551498718449
20
-8.30493182516835
30
0
41
1
10
447.550641696582
20
-8.30179287449297
30
0
41
1
10
447.550431296051
20
-8.29599719885471
30
0
41
1
10
447.550543891767
20
-8.29387711956878
30
0
41
1
10
447.551097439142
20
-8.28938356069671
30
0
41
1
10
447.55153724686
20
-8.28700083368622
30
0
41
1
10
447.553295887259
20
-8.27948610445196
30
0
41
1
10
447.555051097323
20
-8.27398989737733
30
0
41
1
10
447.559557801758
20
-8.2621650826909
30
0
41
1
10
447.562301249488
20
-8.25586842562271
30
0
41
1
10
447.568507240897
20
-8.24285911980903
30
0
41
1
10
447.571983861287
20
-8.2361109336986
30
0
41
1
10
447.579584891849
20
-8.22219257178818
30
0
41
1
10
447.583728003621
20
-8.21499226194015
30
0
41
1
10
447.59691541842
20
-8.19302844745383
30
0
41
1
10
447.606613261902
20
-8.17804922558403
30
0
41
1
10
447.627467863824
20
-8.14755399765875
30
0
41
1
10
447.638630045339
20
-8.13203595639686
30
0
41
1
10
447.650480947162
20
-8.11626786628352
30
0
0
SPLINE
5
198
100
AcDbEntity
8
1
62
256
6
ByLayer
370
18
48
1
60
0
100
AcDbSpline
70
4
71
3
72
8
73
4
40
0
40
0
40
0
40
0
40
1
40
1
40
1
40
1
41
1
10
447.650480947162
20
-8.11626786628352
30
0
41
1
10
447.877337890168
20
-7.81442579774296
30
0
41
1
10
448.102167049584
20
-7.51058417610105
30
0
41
1
10
448.324759526419
20
-7.20453701062769
30
0
0
SPLINE
5
199
100
AcDbEntity
8
1
62
256
6
ByLayer
370
18
48
1
60
0
100
AcDbSpline
70
4
71
3
72
8
73
4
40
0
40
0
40
0
40
0
40
1
40
1
40
1
40
1
41
1
10
448.324759526419
20
-7.02376555730422
30
0
41
1
10
448.100039125586
20
-7.21026872787925
30
0
41
1
10
447.87527835498
20
-7.39670705634256
30
0
41
1
10
447.650480947162
20
-7.58308644885514
30
0
0
SPLINE
5
19A
100
AcDbEntity
8
1
62
256
6
ByLayer
370
18
48
1
60
0
100
AcDbSpline
70
4
71
3
72
39
73
35
40
0
40
0
40
0
40
0
40
0.0625000000000077
40
0.0625000000000077
40
0.125000000000015
40
0.125000000000015
40
0.187500000000023
40
0.187500000000023
40
0.218750000000031
40
0.218750000000031
40
0.250000000000038
40
0.250000000000038
40
0.312500000000044
40
0.312500000000044
40
0.343750000000047
40
0.343750000000047
40
0.37500000000005
40
0.406250000000052
40
0.406250000000052
40
0.437500000000055
40
0.437500000000055
40
0.50000000000005
40
0.50000000000005
40
0.562500000000044
40
0.562500000000044
40
0.625000000000039
40
0.625000000000039
40
0.687500000000033
40
0.687500000000033
40
0.750000000000028
40
0.750000000000028
40
0.875000000000014
40
0.875000000000014
40
1
40
1
40
1
40
1
41
1
10
447.650480947162
20
-7.58308644885514
30
0
41
1
10
447.642848465984
20
-7.58941453430356
30
0
41
1
10
447.635230044314
20
-7.59539066175168
30
0
41
1
10
447.620434193986
20
-7.60617795991422
30
0
41
1
10
447.613255140464
20
-7.61099748452651
30
0
41
1
10
447.599425158374
20
-7.61924599159039
30
0
41
1
10
447.592745263725
20
-7.62267227841133
30
0
41
1
10
447.583692680945
20
-7.6262998168306
30
0
41
1
10
447.580816760607
20
-7.62726970032608
30
0
41
1
10
447.575367399923
20
-7.62869737898882
30
0
41
1
10
447.572783455345
20
-7.629152798212
30
0
41
1
10
447.565725370173
20
-7.62968303014074
30
0
41
1
10
447.561864611698
20
-7.62895634321802
30
0
41
1
10
447.557292459269
20
-7.62630232284079
30
0
41
1
10
447.55596873654
20
-7.62514531140033
30
0
41
1
10
447.553784251942
20
-7.62238725098891
30
0
41
1
10
447.552040779151
20
-7.61918091878596
30
0
41
1
10
447.551098579189
20
-7.61515893161129
30
0
41
1
10
447.550528264205
20
-7.6107578663788
30
0
41
1
10
447.550430700683
20
-7.6083568813518
30
0
41
1
10
447.550654051541
20
-7.60076523529688
30
0
41
1
10
447.551475794025
20
-7.59515974963708
30
0
41
1
10
447.554198267888
20
-7.58307378544913
30
0
41
1
10
447.556114381686
20
-7.57655576543996
30
0
41
1
10
447.560823333971
20
-7.56292982112575
30
0
41
1
10
447.563597798464
20
-7.55586289141738
30
0
41
1
10
447.569844713144
20
-7.54130661080589
30
0
41
1
10
447.573318283136
20
-7.53381659100825
30
0
41
1
10
447.580882685558
20
-7.51846307267513
30
0
41
1
10
447.584984596991
20
-7.5105829559694
30
0
41
1
10
447.597909096523
20
-7.48684300276804
30
0
41
1
10
447.60740422431
20
-7.47075182661394
30
0
41
1
10
447.627855969026
20
-7.43813389250238
30
0
41
1
10
447.638816630045
20
-7.42160590353089
30
0
41
1
10
447.650480947162
20
-7.40487133421746
30
0
0
SPLINE
5
19B
100
AcDbEntity
8
1
62
256
6
ByLayer
370
18
48
1
60
0
100
AcDbSpline
70
4
71
3
72
8
73
4
40
0
40
0
40
0
40
0
40
1
40
1
40
1
40
1
41
1
10
447.650480947162
20
-7.40487133421746
30
0
41
1
10
447.87797677687
20
-7.07848748397893
30
0
41
1
10
448.10282976625
20
-6.74969542669237
30
0
41
1
10
448.324759526419
20
-6.41823966660419
30
0
0
SPLINE
5
19C
100
AcDbEntity
8
1
62
256
6
ByLayer
370
18
48
1
60
0
100
AcDbSpline
70
4
71
3
72
8
73
4
40
0
40
0
40
0
40
0
40
1
40
1
40
1
40
1
41
1
10
448.324759526419
20
-6.1940141333165
30
0
41
1
10
448.100007511727
20
-6.3780816494083
30
0
41
1
10
447.875247737629
20
-6.56213653340467
30
0
41
1
10
447.650480947162
20
-6.74617999157363
30
0
0
SPLINE
5
19D
100
AcDbEntity
8
1
62
256
6
ByLayer
370
18
48
1
60
0
100
AcDbSpline
70
4
71
3
72
39
73
35
40
0
40
0
40
0
40
0
40
0.0625000000000104
40
0.0625000000000104
40
0.125000000000021
40
0.125000000000021
40
0.156250000000027
40
0.156250000000027
40
0.187500000000033
40
0.187500000000033
40
0.218750000000039
40
0.218750000000039
40
0.250000000000045
40
0.281250000000051
40
0.281250000000051
40
0.312500000000057
40
0.312500000000057
40
0.375000000000061
40
0.375000000000061
40
0.406250000000061
40
0.406250000000061
40
0.437500000000062
40
0.437500000000062
40
0.500000000000055
40
0.500000000000055
40
0.562500000000048
40
0.562500000000048
40
0.62500000000004
40
0.62500000000004
40
0.750000000000027
40
0.750000000000027
40
0.875000000000013
40
0.875000000000013
40
1
40
1
40
1
40
1
41
1
10
447.650480947162
20
-6.74617999157365
30
0
41
1
10
447.642517355018
20
-6.75270073707358
30
0
41
1
10
447.63453440989
20
-6.75878159165228
30
0
41
1
10
447.619042460543
20
-6.76946231516879
30
0
41
1
10
447.611511726718
20
-6.77408959518374
30
0
41
1
10
447.600621370502
20
-6.77968068062717
30
0
41
1
10
447.597061556649
20
-6.78131246213889
30
0
41
1
10
447.590290341915
20
-6.78398567944819
30
0
41
1
10
447.587053841966
20
-6.78504091901058
30
0
41
1
10
447.58089623758
20
-6.78655511880891
30
0
41
1
10
447.577954952722
20
-6.78701454672569
30
0
41
1
10
447.572512587958
20
-6.78728427633061
30
0
41
1
10
447.567547431314
20
-6.78691345563951
30
0
41
1
10
447.56348717482
20
-6.78532586277882
30
0
41
1
10
447.559865561372
20
-6.78314737202797
30
0
41
1
10
447.558264729514
20
-6.78174880183386
30
0
41
1
10
447.554196953588
20
-6.7767917693823
30
0
41
1
10
447.552440567205
20
-6.77250792575461
30
0
41
1
10
447.550959029724
20
-6.76489635645731
30
0
41
1
10
447.550660070545
20
-6.76214610672719
30
0
41
1
10
447.550422720308
20
-6.75638207547479
30
0
41
1
10
447.550481076441
20
-6.75336117180782
30
0
41
1
10
447.551119474506
20
-6.74393435785601
30
0
41
1
10
447.552159177103
20
-6.73716718747807
30
0
41
1
10
447.555239798449
20
-6.72284376907277
30
0
41
1
10
447.557290439547
20
-6.71527469724199
30
0
41
1
10
447.562146245543
20
-6.69978534925045
30
0
41
1
10
447.564959968858
20
-6.69182339839224
30
0
41
1
10
447.574383518436
20
-6.6673835167677
30
0
41
1
10
447.582020418221
20
-6.65026269122572
30
0
41
1
10
447.598905986321
20
-6.61584943637348
30
0
41
1
10
447.608200334979
20
-6.59843529348566
30
0
41
1
10
447.628249215424
20
-6.56325479016976
30
0
41
1
10
447.639006636006
20
-6.54548771527038
30
0
41
1
10
447.650480947162
20
-6.52755066301086
30
0
0
SPLINE
5
19E
100
AcDbEntity
8
1
62
256
6
ByLayer
370
18
48
1
60
0
100
AcDbSpline
70
4
71
3
72
8
73
4
40
0
40
0
40
0
40
0
40
1
40
1
40
1
40
1
41
1
10
447.650480947162
20
-6.52755066301086
30
0
41
1
10
447.878876276632
20
-6.17051494166017
30
0
41
1
10
448.103764009202
20
-5.81055984951772
30
0
41
1
10
448.324759526419
20
-5.44736526887522
30
0
0
SPLINE
5
19F
100
AcDbEntity
8
1
62
256
6
ByLayer
370
18
48
1
60
0
100
AcDbSpline
70
4
71
3
72
8
73
4
40
0
40
0
40
0
40
0
40
1
40
1
40
1
40
1
41
1
10
448.324759526419
20
-5.17180258736749
30
0
41
1
10
448.10000187134
20
-5.35544727349739
30
0
41
1
10
447.875242279349
20
-5.53908879895016
30
0
41
1
10
447.650480947162
20
-5.72272748451897
30
0
0
SPLINE
5
1A0
100
AcDbEntity
8
1
62
256
6
ByLayer
370
18
48
1
60
0
100
AcDbSpline
70
4
71
3
72
38
73
34
40
0
40
0
40
0
40
0
40
0.0624999999999863
40
0.0624999999999863
40
0.0937499999999828
40
0.0937499999999828
40
0.124999999999979
40
0.124999999999979
40
0.187499999999972
40
0.187499999999972
40
0.249999999999965
40
0.249999999999965
40
0.281249999999962
40
0.281249999999962
40
0.312499999999958
40
0.312499999999958
40
0.374999999999962
40
0.374999999999962
40
0.437499999999966
40
0.437499999999966
40
0.49999999999997
40
0.49999999999997
40
0.562499999999974
40
0.562499999999974
40
0.624999999999978
40
0.624999999999978
40
0.687499999999982
40
0.687499999999982
40
0.749999999999986
40
0.749999999999986
40
0.874999999999993
40
0.874999999999993
40
1
40
1
40
1
40
1
41
1
10
447.650480947162
20
-5.72272748451897
30
0
41
1
10
447.642084189611
20
-5.72958795960437
30
0
41
1
10
447.633635577278
20
-5.73587307783626
30
0
41
1
10
447.621331349082
20
-5.74385427794473
30
0
41
1
10
447.617278610407
20
-5.74628415462189
30
0
41
1
10
447.609284196945
20
-5.75061672255836
30
0
41
1
10
447.605312533919
20
-5.75253096411419
30
0
41
1
10
447.59384949108
20
-5.75724042347548
30
0
41
1
10
447.586793021271
20
-5.75902617700879
30
0
41
1
10
447.574217814694
20
-5.75947418594842
30
0
41
1
10
447.568995280752
20
-5.75813911091356
30
0
41
1
10
447.562595860953
20
-5.75402834981853
30
0
41
1
10
447.560701051961
20
-5.75229118755135
30
0
41
1
10
447.557471003325
20
-5.74826785950333
30
0
41
1
10
447.556116901746
20
-5.74597366751431
30
0
41
1
10
447.552741344183
20
-5.73834591417238
30
0
41
1
10
447.551412871276
20
-5.73221371650712
30
0
41
1
10
447.550260898918
20
-5.71896225516059
30
0
41
1
10
447.550404629695
20
-5.71178511454718
30
0
41
1
10
447.551786707427
20
-5.69658868130301
30
0
41
1
10
447.55302900844
20
-5.68856640109044
30
0
41
1
10
447.556428844899
20
-5.67181535037034
30
0
41
1
10
447.558575785074
20
-5.66315319947475
30
0
41
1
10
447.563557184201
20
-5.64553843947695
30
0
41
1
10
447.566399025425
20
-5.63655452303325
30
0
41
1
10
447.5726862554
20
-5.61828257421107
30
0
41
1
10
447.576143791446
20
-5.60896563047874
30
0
41
1
10
447.58354639268
20
-5.5902008455673
30
0
41
1
10
447.587481021919
20
-5.58077547210539
30
0
41
1
10
447.599905559109
20
-5.55238513745539
30
0
41
1
10
447.609009839549
20
-5.5333070438366
30
0
41
1
10
447.628661740995
20
-5.4948880043361
30
0
41
1
10
447.639211392285
20
-5.47554667574823
30
0
41
1
10
447.650480947162
20
-5.45607698208431
30
0
0
SPLINE
5
1A1
100
AcDbEntity
8
1
62
256
6
ByLayer
370
18
48
1
60
0
100
AcDbSpline
70
4
71
3
72
8
73
4
40
0
40
0
40
0
40
0
40
1
40
1
40
1
40
1
41
1
10
447.650480947162
20
-5.45607698208431
30
0
41
1
10
447.880211532645
20
-5.0591860512821
30
0
41
1
10
448.105152654041
20
-4.658712324222
30
0
41
1
10
448.324759526419
20
-4.25424827025429
30
0
0
SPLINE
5
1A2
100
AcDbEntity
8
1
62
256
6
ByLayer
370
18
48
1
60
0
100
AcDbSpline
70
4
71
3
72
8
73
4
40
0
40
0
40
0
40
0
40
1
40
1
40
1
40
1
41
1
10
448.324759526419
20
-3.91477968744195
30
0
41
1
10
448.10004293855
20
-4.10099187453025
30
0
41
1
10
447.87528177088
20
-4.2871322907628
30
0
41
1
10
447.650480947162
20
-4.47320886309305
30
0
0
SPLINE
5
1A3
100
AcDbEntity
8
1
62
256
6
ByLayer
370
18
48
1
60
0
100
AcDbSpline
70
4
71
3
72
34
73
30
40
0
40
0
40
0
40
0
40
0.0624999999999989
40
0.0624999999999989
40
0.0937499999999981
40
0.0937499999999981
40
0.124999999999997
40
0.124999999999997
40
0.187499999999997
40
0.187499999999997
40
0.249999999999997
40
0.249999999999997
40
0.281249999999996
40
0.281249999999996
40
0.312499999999995
40
0.312499999999995
40
0.374999999999996
40
0.374999999999996
40
0.437499999999998
40
0.437499999999998
40
0.5
40
0.5
40
0.625
40
0.625
40
0.75
40
0.75
40
0.875
40
0.875
40
1
40
1
40
1
40
1
41
1
10
447.650480947162
20
-4.47320886309396
30
0
41
1
10
447.641610746045
20
-4.48055108094002
30
0
41
1
10
447.632717594853
20
-4.48709742601554
30
0
41
1
10
447.619328414583
20
-4.49520539499136
30
0
41
1
10
447.614948765931
20
-4.49756171194889
30
0
41
1
10
447.606376490094
20
-4.50149614591021
30
0
41
1
10
447.602156895126
20
-4.50308185095827
30
0
41
1
10
447.590005767027
20
-4.50643292619787
30
0
41
1
10
447.582819857639
20
-4.50675740049167
30
0
41
1
10
447.570335823892
20
-4.50344855594713
30
0
41
1
10
447.565449926247
20
-4.49992936231001
30
0
41
1
10
447.559738856258
20
-4.49254380095843
30
0
41
1
10
447.558096977763
20
-4.48970101832219
30
0
41
1
10
447.555363676397
20
-4.48351861218734
30
0
41
1
10
447.554261456695
20
-4.48017426130573
30
0
41
1
10
447.551618606382
20
-4.46950406988694
30
0
41
1
10
447.55074024509
20
-4.4614886218109
30
0
41
1
10
447.550322100162
20
-4.4446421416514
30
0
41
1
10
447.550767880496
20
-4.43576934561287
30
0
41
1
10
447.552650600946
20
-4.41733960157805
30
0
41
1
10
447.554097560382
20
-4.40774830411868
30
0
41
1
10
447.559624326733
20
-4.37836229807127
30
0
41
1
10
447.564840271179
20
-4.35804580031731
30
0
41
1
10
447.57746663017
20
-4.31641517319076
30
0
41
1
10
447.584781622077
20
-4.29544451247583
30
0
41
1
10
447.600983403359
20
-4.25325825027349
30
0
41
1
10
447.609876729726
20
-4.23204169530322
30
0
41
1
10
447.629096511696
20
-4.1893876202453
30
0
41
1
10
447.639424130324
20
-4.16794990812335
30
0
41
1
10
447.650480947162
20
-4.14640238484122
30
0
0
SPLINE
5
1A4
100
AcDbEntity
8
1
62
256
6
ByLayer
370
18
48
1
60
0
100
AcDbSpline
70
4
71
3
72
8
73
4
40
0
40
0
40
0
40
0
40
1
40
1
40
1
40
1
41
1
10
447.650480947162
20
-4.14640238484122
30
0
41
1
10
447.882352997816
20
-3.6945301612804
30
0
41
1
10
448.107382666912
20
-3.23816651619876
30
0
41
1
10
448.324759526419
20
-2.77677947489283
30
0
0
SPLINE
5
1A5
100
AcDbEntity
8
1
62
256
6
ByLayer
370
18
48
1
60
0
100
AcDbSpline
70
4
71
3
72
8
73
4
40
0
40
0
40
0
40
0
40
1
40
1
40
1
40
1
41
1
10
448.324759526419
20
-2.35146119898539
30
0
41
1
10
448.100191536751
20
-2.54535781735228
30
0
41
1
10
447.875423713527
20
-2.7389451074599
30
0
41
1
10
447.650480947162
20
-2.93226159791783
30
0
0
SPLINE
5
1A6
100
AcDbEntity
8
1
62
256
6
ByLayer
370
18
48
1
60
0
100
AcDbSpline
70
4
71
3
72
39
73
35
40
0
40
0
40
0
40
0
40
0.0312499999999997
40
0.0312499999999997
40
0.0624999999999994
40
0.0624999999999994
40
0.0937499999999991
40
0.0937499999999991
40
0.124999999999999
40
0.124999999999999
40
0.156249999999999
40
0.156249999999999
40
0.187499999999998
40
0.187499999999998
40
0.218749999999998
40
0.218749999999998
40
0.249999999999998
40
0.249999999999998
40
0.281249999999997
40
0.281249999999997
40
0.312499999999997
40
0.312499999999997
40
0.374999999999995
40
0.374999999999995
40
0.499999999999998
40
0.499999999999998
40
0.562499999999998
40
0.562499999999998
40
0.624999999999998
40
0.624999999999998
40
0.749999999999999
40
0.749999999999999
40
0.874999999999999
40
1
40
1
40
1
40
1
41
1
10
447.650480947162
20
-2.93226159791968
30
0
41
1
10
447.645659559596
20
-2.93640511290514
30
0
41
1
10
447.640801078904
20
-2.94027527253522
30
0
41
1
10
447.630992180374
20
-2.94733665601669
30
0
41
1
10
447.626006027204
20
-2.95054470916861
30
0
41
1
10
447.616213206618
20
-2.95591984139097
30
0
41
1
10
447.611384546088
20
-2.95810902100823
30
0
41
1
10
447.601890289183
20
-2.96128445215496
30
0
41
1
10
447.597355810905
20
-2.96222048374688
30
0
41
1
10
447.588820720175
20
-2.96271895541551
30
0
41
1
10
447.584759371
20
-2.96226588251702
30
0
41
1
10
447.577453125654
20
-2.96002560259549
30
0
41
1
10
447.574191909539
20
-2.95826207512508
30
0
41
1
10
447.568356163976
20
-2.95360470919147
30
0
41
1
10
447.565807208947
20
-2.95071591730221
30
0
41
1
10
447.561457307646
20
-2.94421632214662
30
0
41
1
10
447.559626662752
20
-2.94058162684576
30
0
41
1
10
447.556523269337
20
-2.93268665844585
30
0
41
1
10
447.555247510152
20
-2.92840352998886
30
0
41
1
10
447.55319751331
20
-2.91944341403459
30
0
41
1
10
447.552418485904
20
-2.91476360895086
30
0
41
1
10
447.550682498191
20
-2.90023434939656
30
0
41
1
10
447.550325735067
20
-2.88985561337012
30
0
41
1
10
447.550966789172
20
-2.85799228261894
30
0
41
1
10
447.553590221519
20
-2.8355866876137
30
0
41
1
10
447.559524476594
20
-2.80090260273207
30
0
41
1
10
447.561860927053
20
-2.78911380619064
30
0
41
1
10
447.567088729835
20
-2.76542058685229
30
0
41
1
10
447.569973709317
20
-2.75353553285998
30
0
41
1
10
447.579321527427
20
-2.71778098688935
30
0
41
1
10
447.58646953122
20
-2.69381309105537
30
0
41
1
10
447.602267862415
20
-2.6456594779354
30
0
41
1
10
447.619577003328
20
-2.59728693312235
30
0
41
1
10
447.639694160572
20
-2.54851064618634
30
0
41
1
10
447.650480947162
20
-2.52402032861517
30
0
0
SPLINE
5
1A7
100
AcDbEntity
8
1
62
256
6
ByLayer
370
18
48
1
60
0
100
AcDbSpline
70
4
71
3
72
8
73
4
40
0
40
0
40
0
40
0
40
1
40
1
40
1
40
1
41
1
10
447.650480947162
20
-2.52402032861517
30
0
41
1
10
447.886241901321
20
-1.9887487173439
30
0
41
1
10
448.111437539985
20
-1.44762852173631
30
0
41
1
10
448.324759526419
20
-0.899935492930069
30
0
0
SPLINE
5
1A8
100
AcDbEntity
8
1
62
256
6
ByLayer
370
18
48
1
60
0
100
AcDbSpline
70
4
71
3
72
8
73
4
40
0
40
0
40
0
40
0
40
1
40
1
40
1
40
1
41
1
10
448.324759526419
20
-0.343891615346479
30
0
41
1
10
448.100672937923
20
-0.556162591908844
30
0
41
1
10
447.875878259423
20
-0.767429388534083
30
0
41
1
10
447.650480947162
20
-0.977841558304817
30
0
0
SPLINE
5
1A9
100
AcDbEntity
8
1
62
256
6
ByLayer
370
18
48
1
60
0
100
AcDbSpline
70
4
71
3
72
39
73
35
40
0
40
0
40
0
40
0
40
0.0312499999999983
40
0.0312499999999983
40
0.0624999999999968
40
0.0624999999999968
40
0.0781249999999954
40
0.0781249999999954
40
0.093749999999994
40
0.093749999999994
40
0.124999999999992
40
0.124999999999992
40
0.156249999999991
40
0.156249999999991
40
0.187499999999989
40
0.187499999999989
40
0.218749999999987
40
0.218749999999987
40
0.249999999999986
40
0.249999999999986
40
0.281249999999984
40
0.281249999999984
40
0.312499999999982
40
0.312499999999982
40
0.374999999999987
40
0.374999999999987
40
0.49999999999999
40
0.49999999999999
40
0.624999999999992
40
0.624999999999992
40
0.749999999999995
40
0.749999999999995
40
0.874999999999997
40
1
40
1
40
1
40
1
41
1
10
447.650480947162
20
-0.977841558306579
30
0
41
1
10
447.645070573186
20
-0.982892233118008
30
0
41
1
10
447.639513106979
20
-0.987579228838968
30
0
41
1
10
447.628225225349
20
-0.995759799515383
30
0
41
1
10
447.622572736455
20
-0.99920331417357
30
0
41
1
10
447.614077225303
20
-1.00309188104009
30
0
41
1
10
447.611222335286
20
-1.00417688359693
30
0
41
1
10
447.605677702528
20
-1.00579678088164
30
0
41
1
10
447.602973531995
20
-1.00634145162778
30
0
41
1
10
447.595073068045
20
-1.00714902252361
30
0
41
1
10
447.590031566255
20
-1.0065324890351
30
0
41
1
10
447.581193349521
20
-1.00322100252274
30
0
41
1
10
447.577280359417
20
-1.00054314112643
30
0
41
1
10
447.570434037439
20
-0.993612958908756
30
0
41
1
10
447.567567506173
20
-0.989455460237167
30
0
41
1
10
447.562642849808
20
-0.980131183635194
30
0
41
1
10
447.560603852079
20
-0.974976493192827
30
0
41
1
10
447.557229405652
20
-0.964197752235464
30
0
41
1
10
447.555875895449
20
-0.958533659730193
30
0
41
1
10
447.553672457203
20
-0.946789017017409
30
0
41
1
10
447.552823959493
20
-0.940707304259973
30
0
41
1
10
447.551532822405
20
-0.928206679929446
30
0
41
1
10
447.551090778585
20
-0.921769186528707
30
0
41
1
10
447.550280304693
20
-0.902257823363357
30
0
41
1
10
447.550409275107
20
-0.888933626275588
30
0
41
1
10
447.552194406003
20
-0.848291376272869
30
0
41
1
10
447.555225580055
20
-0.820314330222487
30
0
41
1
10
447.56364088965
20
-0.763207265474733
30
0
41
1
10
447.568989094997
20
-0.734484531174246
30
0
41
1
10
447.581324248186
20
-0.676891721787939
30
0
41
1
10
447.588324868774
20
-0.647999173382999
30
0
41
1
10
447.603732419277
20
-0.590048407196235
30
0
41
1
10
447.620551977068
20
-0.531931418669245
30
0
41
1
10
447.640038964387
20
-0.473501799808702
30
0
41
1
10
447.650480947162
20
-0.444207483063906
30
0
0
SPLINE
5
1AA
100
AcDbEntity
8
1
62
256
6
ByLayer
370
18
48
1
60
0
100
AcDbSpline
70
4
71
3
72
8
73
4
40
0
40
0
40
0
40
0
40
1
40
1
40
1
40
1
41
1
10
447.650480947162
20
-0.444207483063906
30
0
41
1
10
447.895186418447
20
0.242298110686931
30
0
41
1
10
448.120774732857
20
0.937045595654666
30
0
41
1
10
448.324759526419
20
1.64110690641229
30
0
0
SPLINE
5
1AB
100
AcDbEntity
8
1
62
256
6
ByLayer
370
18
48
1
60
0
100
AcDbSpline
70
4
71
3
72
8
73
4
40
0
40
0
40
0
40
0
40
1
40
1
40
1
40
1
41
1
10
448.324759526419
20
2.45456470771728
30
0
41
1
10
448.102856207575
20
2.19187060693179
30
0
41
1
10
447.87789393872
20
1.93271052174535
30
0
41
1
10
447.650480947162
20
1.67638176503112
30
0
0
SPLINE
5
1AC
100
AcDbEntity
8
1
62
256
6
ByLayer
370
18
48
1
60
0
100
AcDbSpline
70
4
71
3
72
38
73
34
40
0
40
0
40
0
40
0
40
0.031250000000003
40
0.031250000000003
40
0.0468750000000068
40
0.0468750000000068
40
0.0625000000000107
40
0.0625000000000107
40
0.0781250000000144
40
0.0781250000000144
40
0.0937500000000182
40
0.0937500000000182
40
0.109375000000022
40
0.109375000000022
40
0.125000000000026
40
0.125000000000026
40
0.156250000000027
40
0.156250000000027
40
0.187500000000028
40
0.187500000000028
40
0.250000000000024
40
0.250000000000024
40
0.31250000000002
40
0.31250000000002
40
0.375000000000016
40
0.375000000000016
40
0.500000000000012
40
0.500000000000012
40
0.625000000000009
40
0.625000000000009
40
0.750000000000005
40
0.750000000000005
40
1
40
1
40
1
40
1
41
1
10
447.650480947163
20
1.6763817650278
30
0
41
1
10
447.643984522043
20
1.66905931364636
30
0
41
1
10
447.637087099727
20
1.66231875587624
30
0
41
1
10
447.626354747428
20
1.65431929894174
30
0
41
1
10
447.622672786077
20
1.65198024807864
30
0
41
1
10
447.615227174174
20
1.64830359301715
30
0
41
1
10
447.611531397854
20
1.64699544836648
30
0
41
1
10
447.604203715131
20
1.64563392472851
30
0
41
1
10
447.600638398742
20
1.64561065531888
30
0
41
1
10
447.593959541195
20
1.64685932334609
30
0
41
1
10
447.590782123263
20
1.64815201330541
30
0
41
1
10
447.58507026222
20
1.65171792672842
30
0
41
1
10
447.582488099225
20
1.65398866350432
30
0
41
1
10
447.577753050436
20
1.65929668580068
30
0
41
1
10
447.575612489275
20
1.66232946069113
30
0
41
1
10
447.569849274635
20
1.67207971328582
30
0
41
1
10
447.566789889395
20
1.67956456217649
30
0
41
1
10
447.561775920044
20
1.69522279654956
30
0
41
1
10
447.559797491318
20
1.7034573747072
30
0
41
1
10
447.554893629213
20
1.72895805758847
30
0
41
1
10
447.552983754743
20
1.74711581875366
30
0
41
1
10
447.550722421526
20
1.78361208320203
30
0
41
1
10
447.550369579247
20
1.8021001415498
30
0
41
1
10
447.550648562
20
1.83938773594721
30
0
41
1
10
447.551290415845
20
1.85819022626569
30
0
41
1
10
447.5543116466
20
1.91495236498562
30
0
41
1
10
447.557768451239
20
1.95326129889097
30
0
41
1
10
447.566574464434
20
2.03052082889829
30
0
41
1
10
447.571943356467
20
2.06947722862165
30
0
41
1
10
447.584191791777
20
2.14791859569101
30
0
41
1
10
447.591049423945
20
2.18722891010239
30
0
41
1
10
447.613451439318
20
2.30514039385582
30
0
41
1
10
447.630794068013
20
2.38384383757074
30
0
41
1
10
447.650480947162
20
2.46263609031595
30
0
0
SPLINE
5
1AD
100
AcDbEntity
8
1
62
256
6
ByLayer
370
18
48
1
60
0
100
AcDbSpline
70
4
71
3
72
8
73
4
40
0
40
0
40
0
40
0
40
1
40
1
40
1
40
1
41
1
10
447.650480947162
20
2.46263609031592
30
0
41
1
10
447.936650314553
20
3.6079638466021
30
0
41
1
10
448.164101740032
20
4.76844481811082
30
0
41
1
10
448.324759526419
20
5.94616308295292
30
0
0
SPLINE
5
1AE
100
AcDbEntity
8
1
62
256
6
ByLayer
370
18
48
1
60
0
100
AcDbSpline
70
4
71
3
72
10
73
6
40
0
40
0
40
0
40
0
40
0.5
40
0.5
40
1
40
1
40
1
40
1
41
1
10
448.324759526416
20
8.46016437563725
30
0
41
1
10
448.25334363749
20
8.08605222484692
30
0
41
1
10
448.158489259992
20
7.72177884436826
30
0
41
1
10
447.9309865447
20
7.00909684761595
30
0
41
1
10
447.798334418939
20
6.66068982141704
30
0
41
1
10
447.650480947162
20
6.31866386161744
30
0
0
SPLINE
5
1AF
100
AcDbEntity
8
1
62
256
6
ByLayer
370
18
48
1
60
0
100
AcDbSpline
70
4
71
3
72
57
73
53
40
0
40
0
40
0
40
0
40
0.125
40
0.125
40
0.249999999999999
40
0.374999999999999
40
0.374999999999999
40
0.499999999999999
40
0.499999999999999
40
0.624999999999999
40
0.624999999999999
40
0.687499999999999
40
0.687499999999999
40
0.749999999999999
40
0.749999999999999
40
0.812499999999999
40
0.812499999999999
40
0.874999999999998
40
0.874999999999998
40
0.906249999999998
40
0.906249999999998
40
0.921874999999997
40
0.921874999999997
40
0.937499999999996
40
0.937499999999996
40
0.945312499999996
40
0.945312499999996
40
0.953124999999996
40
0.953124999999996
40
0.960937499999995
40
0.960937499999995
40
0.964843749999995
40
0.964843749999995
40
0.968749999999995
40
0.968749999999995
40
0.972656249999994
40
0.972656249999994
40
0.976562499999994
40
0.976562499999994
40
0.978515624999994
40
0.978515624999994
40
0.980468749999994
40
0.980468749999994
40
0.982421874999994
40
0.982421874999994
40
0.984374999999994
40
0.984374999999994
40
0.988281249999995
40
0.988281249999995
40
0.992187499999997
40
0.992187499999997
40
1
40
1
40
1
40
1
41
1
10
447.650480947162
20
9.79447758099766
30
0
41
1
10
447.649474914009
20
9.64257282307841
30
0
41
1
10
447.647352403027
20
9.49068193356101
30
0
41
1
10
447.641079448038
20
9.18692895768595
30
0
41
1
10
447.632780577668
20
8.88320479550947
30
0
41
1
10
447.621220285853
20
8.57954243457684
30
0
41
1
10
447.608599227805
20
8.2759140378534
30
0
41
1
10
447.601754923346
20
8.12411680115821
30
0
41
1
10
447.587790157286
20
7.82056059262666
30
0
41
1
10
447.580656945611
20
7.66880154760798
30
0
41
1
10
447.570656270951
20
7.44119674680141
30
0
41
1
10
447.567443146172
20
7.36533413035187
30
0
41
1
10
447.561508805656
20
7.21362161662208
30
0
41
1
10
447.558783648494
20
7.13774767313768
30
0
41
1
10
447.554227791731
20
6.98639807764732
30
0
41
1
10
447.552384521753
20
6.9108820826838
30
0
41
1
10
447.550304819929
20
6.76030544060905
30
0
41
1
10
447.550017507499
20
6.68523525994709
30
0
41
1
10
447.552116127572
20
6.57321938096953
30
0
41
1
10
447.553241725102
20
6.53597982306417
30
0
41
1
10
447.556066196098
20
6.48036217479046
30
0
41
1
10
447.557199844787
20
6.46186376712586
30
0
41
1
10
447.560032561575
20
6.42498249381998
30
0
41
1
10
447.561724621638
20
6.40659831536215
30
0
41
1
10
447.564962866512
20
6.37916042457741
30
0
41
1
10
447.566160648091
20
6.37003783743182
30
0
41
1
10
447.568892543204
20
6.35185807401942
30
0
41
1
10
447.570429233634
20
6.34277298098601
30
0
41
1
10
447.574003223349
20
6.32482961050107
30
0
41
1
10
447.576022559128
20
6.31601943191012
30
0
41
1
10
447.579665375541
20
6.30322695536546
30
0
41
1
10
447.580983473112
20
6.29903429870916
30
0
41
1
10
447.583925806698
20
6.29085903674297
30
0
41
1
10
447.585555704597
20
6.28686312506443
30
0
41
1
10
447.589214864265
20
6.27940680909776
30
0
41
1
10
447.591242911041
20
6.27591802146273
30
0
41
1
10
447.596024190781
20
6.26981277473834
30
0
41
1
10
447.598791925149
20
6.26720744962256
30
0
41
1
10
447.603585192062
20
6.26497186906363
30
0
41
1
10
447.605238544653
20
6.26453095266106
30
0
41
1
10
447.608667422955
20
6.26431709371172
30
0
41
1
10
447.61045752744
20
6.26455966997193
30
0
41
1
10
447.613936585578
20
6.26566676014573
30
0
41
1
10
447.615671884936
20
6.26653771797149
30
0
41
1
10
447.61899339339
20
6.26871155501991
30
0
41
1
10
447.620581409002
20
6.27000587963354
30
0
41
1
10
447.625186557665
20
6.27434154931808
30
0
41
1
10
447.628021131566
20
6.27780990186901
30
0
41
1
10
447.633249794904
20
6.28514751172378
30
0
41
1
10
447.635679061346
20
6.28906668055981
30
0
41
1
10
447.642616772462
20
6.30129666549752
30
0
41
1
10
447.646685962344
20
6.30988501246981
30
0
41
1
10
447.650480947162
20
6.31866386161741
30
0
0
SPLINE
5
1B0
100
AcDbEntity
8
1
62
256
6
ByLayer
370
18
48
1
60
0
100
AcDbSpline
70
4
71
3
72
8
73
4
40
0
40
0
40
0
40
0
40
1
40
1
40
1
40
1
41
1
10
447.650480947162
20
9.79447758099766
30
0
41
1
10
447.651388368233
20
9.93149252699811
30
0
41
1
10
447.651388368233
20
10.0685074729986
30
0
41
1
10
447.650480947162
20
10.205522418999
30
0
0
SPLINE
5
1B1
100
AcDbEntity
8
1
62
256
6
ByLayer
370
18
48
1
60
0
100
AcDbSpline
70
4
71
3
72
59
73
55
40
0
40
0
40
0
40
0
40
0.125000000000001
40
0.125000000000001
40
0.250000000000001
40
0.375000000000002
40
0.375000000000002
40
0.500000000000003
40
0.500000000000003
40
0.625000000000004
40
0.625000000000004
40
0.687500000000004
40
0.687500000000004
40
0.750000000000005
40
0.750000000000005
40
0.812500000000006
40
0.812500000000006
40
0.843750000000007
40
0.843750000000007
40
0.875000000000008
40
0.875000000000008
40
0.906250000000008
40
0.906250000000008
40
0.921875000000008
40
0.921875000000008
40
0.937500000000008
40
0.937500000000008
40
0.945312500000008
40
0.945312500000008
40
0.953125000000007
40
0.953125000000007
40
0.960937500000006
40
0.960937500000006
40
0.964843750000006
40
0.964843750000006
40
0.968750000000005
40
0.968750000000005
40
0.972656250000005
40
0.972656250000005
40
0.976562500000005
40
0.976562500000005
40
0.978515625000004
40
0.978515625000004
40
0.980468750000004
40
0.980468750000004
40
0.982421875000004
40
0.982421875000004
40
0.984375000000004
40
0.984375000000004
40
0.988281250000003
40
0.988281250000003
40
0.992187500000002
40
0.992187500000002
40
1
40
1
40
1
40
1
41
1
10
447.650480947162
20
10.205522418999
30
0
41
1
10
447.649474529164
20
10.3574852861165
30
0
41
1
10
447.647350571744
20
10.5094620343167
30
0
41
1
10
447.641070593963
20
10.8134443933786
30
0
41
1
10
447.632760419544
20
11.1174556232804
30
0
41
1
10
447.621178756172
20
11.4215288641191
30
0
41
1
10
447.608531759673
20
11.7256362295752
30
0
41
1
10
447.601672191193
20
11.8777069546593
30
0
41
1
10
447.587676377915
20
12.1818869200866
30
0
41
1
10
447.580530180473
20
12.3339457376455
30
0
41
1
10
447.570536139854
20
12.5616080984825
30
0
41
1
10
447.567328862803
20
12.6374390773316
30
0
41
1
10
447.561413484972
20
12.788969085746
30
0
41
1
10
447.558701689912
20
12.864668398128
30
0
41
1
10
447.554167978853
20
13.0159053359216
30
0
41
1
10
447.552334555853
20
13.0914438406996
30
0
41
1
10
447.550799054594
20
13.2045885463235
30
0
41
1
10
447.550492739193
20
13.2422760369084
30
0
41
1
10
447.550469812771
20
13.317582542785
30
0
41
1
10
447.550750183483
20
13.355238866551
30
0
41
1
10
447.552208755407
20
13.4302326217126
30
0
41
1
10
447.553373181025
20
13.4675729768539
30
0
41
1
10
447.556275212278
20
13.523198907203
30
0
41
1
10
447.557437968645
20
13.5416759343062
30
0
41
1
10
447.560336644401
20
13.5784457108339
30
0
41
1
10
447.562065629678
20
13.596740529959
30
0
41
1
10
447.565365531574
20
13.6239620454214
30
0
41
1
10
447.566584913132
20
13.6329985979245
30
0
41
1
10
447.569361551694
20
13.6509675743063
30
0
41
1
10
447.570921073671
20
13.6599191615212
30
0
41
1
10
447.574516938715
20
13.6774537645157
30
0
41
1
10
447.576547962152
20
13.6860599634277
30
0
41
1
10
447.58021552862
20
13.6985438125866
30
0
41
1
10
447.581543102687
20
13.7026331396174
30
0
41
1
10
447.584510409302
20
13.7105987392358
30
0
41
1
10
447.586161611328
20
13.7145039643804
30
0
41
1
10
447.589888240219
20
13.7217777673933
30
0
41
1
10
447.591955510826
20
13.7251627485099
30
0
41
1
10
447.59684579735
20
13.7310016203009
30
0
41
1
10
447.599637337106
20
13.7333837176053
30
0
41
1
10
447.604411839463
20
13.7352706160966
30
0
41
1
10
447.606061767277
20
13.735601958645
30
0
41
1
10
447.609492008734
20
13.7356009926026
30
0
41
1
10
447.611227428267
20
13.7352622784845
30
0
41
1
10
447.61463552521
20
13.7340069946688
30
0
41
1
10
447.616332222931
20
13.7330796461126
30
0
41
1
10
447.61955483406
20
13.7308482353862
30
0
41
1
10
447.621102908113
20
13.7295383311078
30
0
41
1
10
447.62560527577
20
13.7251733572536
30
0
41
1
10
447.628363216431
20
13.7217476448418
30
0
41
1
10
447.633516183583
20
13.7144363213675
30
0
41
1
10
447.635914818984
20
13.710536261482
30
0
41
1
10
447.642693644436
20
13.6985283928813
30
0
41
1
10
447.646722359183
20
13.6900307915768
30
0
41
1
10
447.650480947162
20
13.6813361383808
30
0
0
SPLINE
5
1B2
100
AcDbEntity
8
1
62
256
6
ByLayer
370
18
48
1
60
0
100
AcDbSpline
70
4
71
3
72
10
73
6
40
0
40
0
40
0
40
0
40
0.5
40
0.5
40
1
40
1
40
1
40
1
41
1
10
447.650480947161
20
13.6813361383806
30
0
41
1
10
447.798334418938
20
13.3393101785811
30
0
41
1
10
447.9309865447
20
12.9909031523824
30
0
41
1
10
448.158489259991
20
12.2782211556304
30
0
41
1
10
448.253343637489
20
11.9139477751519
30
0
41
1
10
448.324759526416
20
11.5398356243618
30
0
0
SPLINE
5
1B3
100
AcDbEntity
8
1
62
256
6
ByLayer
370
18
48
1
60
0
100
AcDbSpline
70
4
71
3
72
8
73
4
40
0
40
0
40
0
40
0
40
1
40
1
40
1
40
1
41
1
10
448.324759526419
20
14.0538369170437
30
0
41
1
10
448.164101740032
20
15.2315551818858
30
0
41
1
10
447.936650314553
20
16.3920361533945
30
0
41
1
10
447.650480947162
20
17.5373639096807
30
0
0
SPLINE
5
1B4
100
AcDbEntity
8
1
62
256
6
ByLayer
370
18
48
1
60
0
100
AcDbSpline
70
4
71
3
72
42
73
38
40
0
40
0
40
0
40
0
40
0.250000000000002
40
0.250000000000002
40
0.375000000000008
40
0.375000000000008
40
0.500000000000014
40
0.500000000000014
40
0.62500000000002
40
0.62500000000002
40
0.687500000000026
40
0.687500000000026
40
0.750000000000032
40
0.750000000000032
40
0.781250000000028
40
0.781250000000028
40
0.812500000000023
40
0.812500000000023
40
0.843750000000019
40
0.843750000000019
40
0.859375000000017
40
0.859375000000017
40
0.875000000000015
40
0.875000000000015
40
0.890625000000013
40
0.890625000000013
40
0.906250000000012
40
0.906250000000012
40
0.92187500000001
40
0.92187500000001
40
0.937500000000008
40
0.937500000000008
40
0.953125000000006
40
0.953125000000006
40
0.968750000000004
40
0.968750000000004
40
1
40
1
40
1
40
1
41
1
10
447.650480947161
20
17.5373639096807
30
0
41
1
10
447.63076897837
20
17.6162565780107
30
0
41
1
10
447.61346059995
20
17.6948483875478
30
0
41
1
10
447.591140780514
20
17.8122718609798
30
0
41
1
10
447.584320719394
20
17.8513346156626
30
0
41
1
10
447.572124668301
20
17.9292847102209
30
0
41
1
10
447.566742521326
20
17.9681725752498
30
0
41
1
10
447.557864378318
20
18.0457341654553
30
0
41
1
10
447.55434285781
20
18.0844400879725
30
0
41
1
10
447.551271377319
20
18.1421780618715
30
0
41
1
10
447.550630005146
20
18.1612308644041
30
0
41
1
10
447.550377159459
20
18.1988263852369
30
0
41
1
10
447.550757044976
20
18.2173731419197
30
0
41
1
10
447.552486535079
20
18.244629840014
30
0
41
1
10
447.553258656099
20
18.2536204028751
30
0
41
1
10
447.555324288495
20
18.2713507168472
30
0
41
1
10
447.556619146011
20
18.2801132325747
30
0
41
1
10
447.559941779673
20
18.2971873027492
30
0
41
1
10
447.56194845637
20
18.3054174754375
30
0
41
1
10
447.565733288872
20
18.3170790955413
30
0
41
1
10
447.567125496084
20
18.3208510908126
30
0
41
1
10
447.570248978874
20
18.3280968735344
30
0
41
1
10
447.571992418154
20
18.3315905985689
30
0
41
1
10
447.575857623531
20
18.3380349923338
30
0
41
1
10
447.577978928924
20
18.3409948006515
30
0
41
1
10
447.582717557109
20
18.3462264145757
30
0
41
1
10
447.58536880188
20
18.34851669927
30
0
41
1
10
447.591140283969
20
18.3520175053918
30
0
41
1
10
447.594278886941
20
18.3532465409784
30
0
41
1
10
447.601038610781
20
18.3544128086463
30
0
41
1
10
447.604547324229
20
18.3543357984641
30
0
41
1
10
447.611812347963
20
18.3529157629818
30
0
41
1
10
447.615579957294
20
18.351549892669
30
0
41
1
10
447.622949675614
20
18.3478528590439
30
0
41
1
10
447.626634528599
20
18.3454932373666
30
0
41
1
10
447.637401170667
20
18.3374023255895
30
0
41
1
10
447.644079218297
20
18.3308339493778
30
0
41
1
10
447.650480947162
20
18.3236182349655
30
0
0
SPLINE
5
1B5
100
AcDbEntity
8
1
62
256
6
ByLayer
370
18
48
1
60
0
100
AcDbSpline
70
4
71
3
72
8
73
4
40
0
40
0
40
0
40
0
40
1
40
1
40
1
40
1
41
1
10
447.650480947162
20
18.3236182349655
30
0
41
1
10
447.877893938717
20
18.0672894782546
30
0
41
1
10
448.102856207569
20
17.8081293930715
30
0
41
1
10
448.324759526411
20
17.5454352922894
30
0
0
SPLINE
5
1B6
100
AcDbEntity
8
1
62
256
6
ByLayer
370
18
48
1
60
0
100
AcDbSpline
70
4
71
3
72
8
73
4
40
0
40
0
40
0
40
0
40
1
40
1
40
1
40
1
41
1
10
448.324759526419
20
18.3588930935844
30
0
41
1
10
448.120774732857
20
19.062954404342
30
0
41
1
10
447.895186418447
20
19.7577018893097
30
0
41
1
10
447.650480947162
20
20.4442074830605
30
0
0
SPLINE
5
1B7
100
AcDbEntity
8
1
62
256
6
ByLayer
370
18
48
1
60
0
100
AcDbSpline
70
4
71
3
72
40
73
36
40
0
40
0
40
0
40
0
40
0.125000000000006
40
0.125000000000006
40
0.250000000000012
40
0.250000000000012
40
0.375000000000018
40
0.375000000000018
40
0.500000000000025
40
0.500000000000025
40
0.562500000000019
40
0.562500000000019
40
0.625000000000012
40
0.625000000000012
40
0.687500000000006
40
0.687500000000006
40
0.75
40
0.75
40
0.781249999999997
40
0.781249999999997
40
0.812499999999993
40
0.812499999999993
40
0.84374999999999
40
0.84374999999999
40
0.874999999999986
40
0.874999999999986
40
0.906249999999982
40
0.906249999999982
40
0.921874999999981
40
0.921874999999981
40
0.937499999999979
40
0.937499999999979
40
0.968749999999989
40
0.968749999999989
40
1
40
1
40
1
40
1
41
1
10
447.650480947162
20
20.4442074830605
30
0
41
1
10
447.640025010736
20
20.4735409458811
30
0
41
1
10
447.630210989746
20
20.5029673076429
30
0
41
1
10
447.611958545041
20
20.5616002322829
30
0
41
1
10
447.603523410692
20
20.5907865528433
30
0
41
1
10
447.588102337403
20
20.6488854928149
30
0
41
1
10
447.581113785878
20
20.6777985452102
30
0
41
1
10
447.5688291768
20
20.7353093306306
30
0
41
1
10
447.56352332279
20
20.7639086554225
30
0
41
1
10
447.557268698593
20
20.806499146668
30
0
41
1
10
447.555468305322
20
20.8206822963937
30
0
41
1
10
447.552619223369
20
20.8486113407308
30
0
41
1
10
447.551563972929
20
20.8623801284257
30
0
41
1
10
447.550399909879
20
20.8894214732825
30
0
41
1
10
447.550285829804
20
20.9026966836876
30
0
41
1
10
447.55138586223
20
20.9285585052081
30
0
41
1
10
447.552608640832
20
20.9412331302674
30
0
41
1
10
447.555948456209
20
20.9588608230566
30
0
41
1
10
447.557314290988
20
20.9645185412785
30
0
41
1
10
447.560709973981
20
20.9752629426473
30
0
41
1
10
447.562757184409
20
20.9803881681497
30
0
41
1
10
447.567691285185
20
20.9896473096823
30
0
41
1
10
447.570555797839
20
20.9937603959153
30
0
41
1
10
447.577358112121
20
21.0005969404034
30
0
41
1
10
447.581328265331
20
21.003299552667
30
0
41
1
10
447.590209516905
20
21.0065701580031
30
0
41
1
10
447.595238130169
20
21.0071547338811
30
0
41
1
10
447.603144568994
20
21.006312124208
30
0
41
1
10
447.605853809948
20
21.0057558877126
30
0
41
1
10
447.611415566325
20
21.004109146666
30
0
41
1
10
447.614249175209
20
21.0030206655186
30
0
41
1
10
447.622685087213
20
20.9991362853461
30
0
41
1
10
447.628307688267
20
20.995704689144
30
0
41
1
10
447.639550729521
20
20.9875472607235
30
0
41
1
10
447.645089621271
20
20.9828744514083
30
0
41
1
10
447.650480947162
20
20.9778415583032
30
0
0
SPLINE
5
1B8
100
AcDbEntity
8
1
62
256
6
ByLayer
370
18
48
1
60
0
100
AcDbSpline
70
4
71
3
72
8
73
4
40
0
40
0
40
0
40
0
40
1
40
1
40
1
40
1
41
1
10
447.650480947162
20
20.9778415583015
30
0
41
1
10
447.875878259423
20
20.7674293885307
30
0
41
1
10
448.100672937923
20
20.5561625919055
30
0
41
1
10
448.324759526419
20
20.3438916153431
30
0
0
SPLINE
5
1B9
100
AcDbEntity
8
1
62
256
6
ByLayer
370
18
48
1
60
0
100
AcDbSpline
70
4
71
3
72
8
73
4
40
0
40
0
40
0
40
0
40
1
40
1
40
1
40
1
41
1
10
448.324759526419
20
20.8999354929267
30
0
41
1
10
448.111437539985
20
21.4476285217329
30
0
41
1
10
447.886241901321
20
21.9887487173405
30
0
41
1
10
447.650480947162
20
22.5240203286118
30
0
0
SPLINE
5
1BA
100
AcDbEntity
8
1
62
256
6
ByLayer
370
18
48
1
60
0
100
AcDbSpline
70
4
71
3
72
40
73
36
40
0
40
0
40
0
40
0
40
0.125000000000001
40
0.125000000000001
40
0.250000000000002
40
0.250000000000002
40
0.375000000000003
40
0.375000000000003
40
0.500000000000004
40
0.500000000000004
40
0.5625
40
0.5625
40
0.624999999999996
40
0.624999999999996
40
0.687499999999992
40
0.687499999999992
40
0.718749999999992
40
0.718749999999992
40
0.749999999999993
40
0.749999999999993
40
0.781249999999994
40
0.781249999999994
40
0.812499999999995
40
0.812499999999995
40
0.843749999999996
40
0.843749999999996
40
0.874999999999997
40
0.874999999999997
40
0.906249999999997
40
0.906249999999997
40
0.937499999999998
40
0.937499999999998
40
0.968749999999999
40
0.968749999999999
40
1
40
1
40
1
40
1
41
1
10
447.650480947162
20
22.5240203286118
30
0
41
1
10
447.639690471916
20
22.5485190209077
30
0
41
1
10
447.629613916005
20
22.5729486554871
30
0
41
1
10
447.610849297583
20
22.6216689381403
30
0
41
1
10
447.602160592807
20
22.645959662294
30
0
41
1
10
447.586289625029
20
22.6943887125283
30
0
41
1
10
447.579096154492
20
22.7185525224899
30
0
41
1
10
447.566584682111
20
22.7665924147549
30
0
41
1
10
447.561339273704
20
22.7901565661226
30
0
41
1
10
447.555481361028
20
22.8246060554284
30
0
41
1
10
447.553867302615
20
22.8359382479901
30
0
41
1
10
447.551487852271
20
22.8582271487078
30
0
41
1
10
447.550718615151
20
22.8692396521936
30
0
41
1
10
447.550336211257
20
22.8904892822451
30
0
41
1
10
447.550714779598
20
22.9006787514818
30
0
41
1
10
447.552465551096
20
22.9150655650463
30
0
41
1
10
447.553248182532
20
22.9197101977641
30
0
41
1
10
447.555309097648
20
22.9286248501667
30
0
41
1
10
447.556593904736
20
22.932901099503
30
0
41
1
10
447.559717301251
20
22.9407756166937
30
0
41
1
10
447.561559358519
20
22.9444002494726
30
0
41
1
10
447.565937706079
20
22.9508777423311
30
0
41
1
10
447.568504767017
20
22.9537519025166
30
0
41
1
10
447.574349248947
20
22.9583575070402
30
0
41
1
10
447.577621102576
20
22.9601034727087
30
0
41
1
10
447.584977180313
20
22.9623048822321
30
0
41
1
10
447.589008029016
20
22.9627276846821
30
0
41
1
10
447.597554413792
20
22.9621883066373
30
0
41
1
10
447.602165047508
20
22.9612103113977
30
0
41
1
10
447.61156352127
20
22.958030527812
30
0
41
1
10
447.616343834585
20
22.9558532438595
30
0
41
1
10
447.626039774226
20
22.9505209964736
30
0
41
1
10
447.630992916635
20
22.9473363627034
30
0
41
1
10
447.640809613647
20
22.9402688914577
30
0
41
1
10
447.64566607499
20
22.936399513552
30
0
41
1
10
447.650480947162
20
22.9322615979155
30
0
0
SPLINE
5
1BB
100
AcDbEntity
8
1
62
256
6
ByLayer
370
18
48
1
60
0
100
AcDbSpline
70
4
71
3
72
8
73
4
40
0
40
0
40
0
40
0
40
1
40
1
40
1
40
1
41
1
10
447.650480947162
20
22.9322615979145
30
0
41
1
10
447.875423713527
20
22.7389451074565
30
0
41
1
10
448.100191536751
20
22.5453578173489
30
0
41
1
10
448.324759526419
20
22.351461198982
30
0
0
SPLINE
5
1BC
100
AcDbEntity
8
1
62
256
6
ByLayer
370
18
48
1
60
0
100
AcDbSpline
70
4
71
3
72
8
73
4
40
0
40
0
40
0
40
0
40
1
40
1
40
1
40
1
41
1
10
448.324759526419
20
22.7767794748895
30
0
41
1
10
448.107382666912
20
23.2381665161954
30
0
41
1
10
447.882352997816
20
23.694530161277
30
0
41
1
10
447.650480947162
20
24.1464023848379
30
0
0
SPLINE
5
1BD
100
AcDbEntity
8
1
62
256
6
ByLayer
370
18
48
1
60
0
100
AcDbSpline
70
4
71
3
72
40
73
36
40
0
40
0
40
0
40
0
40
0.125
40
0.125
40
0.249999999999999
40
0.249999999999999
40
0.374999999999999
40
0.374999999999999
40
0.437500000000001
40
0.437500000000001
40
0.500000000000003
40
0.500000000000003
40
0.562500000000006
40
0.562500000000006
40
0.625000000000008
40
0.625000000000008
40
0.68750000000001
40
0.68750000000001
40
0.718750000000007
40
0.718750000000007
40
0.750000000000004
40
0.750000000000004
40
0.781250000000002
40
0.781250000000002
40
0.812499999999999
40
0.812499999999999
40
0.843749999999997
40
0.843749999999997
40
0.874999999999994
40
0.874999999999994
40
0.93749999999999
40
0.93749999999999
40
0.968749999999995
40
0.968749999999995
40
1
40
1
40
1
40
1
41
1
10
447.650480947162
20
24.1464023848379
30
0
41
1
10
447.639414958228
20
24.1679677827002
30
0
41
1
10
447.629040809079
20
24.1894982781826
30
0
41
1
10
447.609683150239
20
24.2324844320539
30
0
41
1
10
447.600665700982
20
24.2540304822562
30
0
41
1
10
447.584409180772
20
24.2964716606367
30
0
41
1
10
447.577153956557
20
24.3173783954784
30
0
41
1
10
447.56784509696
20
24.3481740824693
30
0
41
1
10
447.565006721944
20
24.3583444727693
30
0
41
1
10
447.55994833633
20
24.3784644888756
30
0
41
1
10
447.557723039423
20
24.3884367390226
30
0
41
1
10
447.554054354314
20
24.4080137813783
30
0
41
1
10
447.552625671844
20
24.4175304795199
30
0
41
1
10
447.550759790623
20
24.4359026326856
30
0
41
1
10
447.550318779816
20
24.4447605718945
30
0
41
1
10
447.550749497916
20
24.4616056545862
30
0
41
1
10
447.551636822927
20
24.4696104377051
30
0
41
1
10
447.554281873644
20
24.4802400051811
30
0
41
1
10
447.555383473851
20
24.4835703154125
30
0
41
1
10
447.55811068237
20
24.4897250071946
30
0
41
1
10
447.559751087798
20
24.4925672484091
30
0
41
1
10
447.5635955558
20
24.4975235357764
30
0
41
1
10
447.565792502249
20
24.4996397405511
30
0
41
1
10
447.570810054821
20
24.503052441883
30
0
41
1
10
447.573662929114
20
24.5043510856049
30
0
41
1
10
447.579852338378
20
24.5059489374513
30
0
41
1
10
447.583198210382
20
24.5062662734099
30
0
41
1
10
447.59039654148
20
24.5059318013021
30
0
41
1
10
447.594295692839
20
24.5052651393148
30
0
41
1
10
447.606418497699
20
24.501874622436
30
0
41
1
10
447.61493133613
20
24.4978669254705
30
0
41
1
10
447.628201605806
20
24.4898327177062
30
0
41
1
10
447.632697891773
20
24.4868155998179
30
0
41
1
10
447.641605111238
20
24.4803478822276
30
0
41
1
10
447.646047713552
20
24.4768784266653
30
0
41
1
10
447.650480947162
20
24.4732088630903
30
0
0
SPLINE
5
1BE
100
AcDbEntity
8
1
62
256
6
ByLayer
370
18
48
1
60
0
100
AcDbSpline
70
4
71
3
72
8
73
4
40
0
40
0
40
0
40
0
40
1
40
1
40
1
40
1
41
1
10
447.650480947162
20
24.4732088630897
30
0
41
1
10
447.87528177088
20
24.2871322907595
30
0
41
1
10
448.10004293855
20
24.1009918745269
30
0
41
1
10
448.324759526419
20
23.9147796874386
30
0
0
SPLINE
5
1BF
100
AcDbEntity
8
1
62
256
6
ByLayer
370
18
48
1
60
0
100
AcDbSpline
70
4
71
3
72
8
73
4
40
0
40
0
40
0
40
0
40
1
40
1
40
1
40
1
41
1
10
448.324759526419
20
24.254248270251
30
0
41
1
10
448.105152654041
20
24.6587123242186
30
0
41
1
10
447.880211532645
20
25.0591860512787
30
0
41
1
10
447.650480947162
20
25.456076982081
30
0
0
SPLINE
5
1C0
100
AcDbEntity
8
1
62
256
6
ByLayer
370
18
48
1
60
0
100
AcDbSpline
70
4
71
3
72
39
73
35
40
0
40
0
40
0
40
0
40
0.125000000000004
40
0.125000000000004
40
0.250000000000007
40
0.250000000000007
40
0.375000000000011
40
0.375000000000011
40
0.437500000000005
40
0.437500000000005
40
0.5
40
0.5
40
0.562499999999994
40
0.562499999999994
40
0.593749999999991
40
0.593749999999991
40
0.624999999999988
40
0.624999999999988
40
0.68749999999999
40
0.68749999999999
40
0.718749999999991
40
0.718749999999991
40
0.749999999999992
40
0.749999999999992
40
0.781249999999993
40
0.781249999999993
40
0.812499999999994
40
0.843749999999995
40
0.843749999999995
40
0.874999999999996
40
0.874999999999996
40
0.937499999999998
40
0.937499999999998
40
1
40
1
40
1
40
1
41
1
10
447.650480947162
20
25.456076982081
30
0
41
1
10
447.639193035731
20
25.4755783891968
30
0
41
1
10
447.628590160519
20
25.4950150972984
30
0
41
1
10
447.608789608101
20
25.5337506274604
30
0
41
1
10
447.59955440175
20
25.5531394770003
30
0
41
1
10
447.582996045851
20
25.591073856901
30
0
41
1
10
447.575636447461
20
25.6096683647381
30
0
41
1
10
447.566297083473
20
25.6368716168535
30
0
41
1
10
447.563469944102
20
25.6458235796123
30
0
41
1
10
447.558498129876
20
25.663451932705
30
0
41
1
10
447.556355985995
20
25.672133887972
30
0
41
1
10
447.552992495483
20
25.688788072799
30
0
41
1
10
447.551755667217
20
25.6968054930657
30
0
41
1
10
447.550731607718
20
25.7082552465136
30
0
41
1
10
447.550529643809
20
25.7119751829294
30
0
41
1
10
447.550447718715
20
25.7191922642143
30
0
41
1
10
447.550569803588
20
25.7227031448445
30
0
41
1
10
447.551489172924
20
25.7326767960516
30
0
41
1
10
447.552823866437
20
25.7386266380564
30
0
41
1
10
447.556235634613
20
25.7461914297891
30
0
41
1
10
447.557622786118
20
25.7484972729612
30
0
41
1
10
447.560888621489
20
25.7524800239238
30
0
41
1
10
447.562763444322
20
25.7541622265601
30
0
41
1
10
447.567039967856
20
25.7568546457289
30
0
41
1
10
447.569461523802
20
25.757869144621
30
0
41
1
10
447.574799687778
20
25.7591280609574
30
0
41
1
10
447.580568003688
20
25.7596147416112
30
0
41
1
10
447.587174135165
20
25.7586005535319
30
0
41
1
10
447.594197904459
20
25.7568396148927
30
0
41
1
10
447.597925489672
20
25.7555764856663
30
0
41
1
10
447.609307892352
20
25.7508672481516
30
0
41
1
10
447.617324482498
20
25.7464633141763
30
0
41
1
10
447.63384879861
20
25.735724621498
30
0
41
1
10
447.642150093394
20
25.7295341136661
30
0
41
1
10
447.650480947162
20
25.722727484516
30
0
0
SPLINE
5
1C1
100
AcDbEntity
8
1
62
256
6
ByLayer
370
18
48
1
60
0
100
AcDbSpline
70
4
71
3
72
8
73
4
40
0
40
0
40
0
40
0
40
1
40
1
40
1
40
1
41
1
10
447.650480947162
20
25.7227274845156
30
0
41
1
10
447.875242279349
20
25.5390887989468
30
0
41
1
10
448.10000187134
20
25.355447273494
30
0
41
1
10
448.324759526419
20
25.1718025873641
30
0
0
SPLINE
5
1C2
100
AcDbEntity
8
1
62
256
6
ByLayer
370
18
48
1
60
0
100
AcDbSpline
70
4
71
3
72
8
73
4
40
0
40
0
40
0
40
0
40
1
40
1
40
1
40
1
41
1
10
448.324759526419
20
25.4473652688719
30
0
41
1
10
448.103764009202
20
25.8105598495144
30
0
41
1
10
447.878876276632
20
26.1705149416568
30
0
41
1
10
447.650480947162
20
26.5275506630075
30
0
0
SPLINE
5
1C3
100
AcDbEntity
8
1
62
256
6
ByLayer
370
18
48
1
60
0
100
AcDbSpline
70
4
71
3
72
41
73
37
40
0
40
0
40
0
40
0
40
0.124999999999994
40
0.124999999999994
40
0.187499999999996
40
0.187499999999996
40
0.249999999999999
40
0.249999999999999
40
0.375
40
0.375
40
0.437499999999996
40
0.437499999999996
40
0.499999999999993
40
0.499999999999993
40
0.56249999999999
40
0.56249999999999
40
0.624999999999987
40
0.624999999999987
40
0.656249999999985
40
0.656249999999985
40
0.687499999999984
40
0.687499999999984
40
0.718749999999982
40
0.718749999999982
40
0.749999999999981
40
0.749999999999981
40
0.812499999999977
40
0.812499999999977
40
0.843749999999978
40
0.843749999999978
40
0.87499999999998
40
0.906249999999981
40
0.906249999999981
40
0.937499999999983
40
0.937499999999983
40
1
40
1
40
1
40
1
41
1
10
447.650480947162
20
26.5275506630075
30
0
41
1
10
447.638981804677
20
26.5455265324855
30
0
41
1
10
447.62814548197
20
26.5634206151328
30
0
41
1
10
447.612939206481
20
26.590128184901
30
0
41
1
10
447.608042788563
20
26.5990169496355
30
0
41
1
10
447.598721928768
20
26.616564898293
30
0
41
1
10
447.594284643272
20
26.6252457634558
30
0
41
1
10
447.581686936374
20
26.6509896479127
30
0
41
1
10
447.574223281786
20
26.6677610781069
30
0
41
1
10
447.564837577099
20
26.6921604462424
30
0
41
1
10
447.562006278076
20
26.7001981661687
30
0
41
1
10
447.557184605239
20
26.715647708819
30
0
41
1
10
447.555179368067
20
26.7230904973047
30
0
41
1
10
447.552137250522
20
26.7373043165396
30
0
41
1
10
447.551097322754
20
26.7440774273173
30
0
41
1
10
447.550263647968
20
26.7567617390175
30
0
41
1
10
447.550482593648
20
26.7625191878577
30
0
41
1
10
447.551971457481
20
26.770061323012
30
0
41
1
10
447.552662227263
20
26.772393492826
30
0
41
1
10
447.554488589319
20
26.7766425722034
30
0
41
1
10
447.555629696968
20
26.7785582671357
30
0
41
1
10
447.558347744801
20
26.7818281742794
30
0
41
1
10
447.559929168047
20
26.7831969176463
30
0
41
1
10
447.563569638857
20
26.7853637195266
30
0
41
1
10
447.565645521329
20
26.7861647789768
30
0
41
1
10
447.572537810431
20
26.7876065271319
30
0
41
1
10
447.57792665398
20
26.7872966647589
30
0
41
1
10
447.587151619285
20
26.7850110816921
30
0
41
1
10
447.590446302725
20
26.7839313072058
30
0
41
1
10
447.597241521147
20
26.7812338486885
30
0
41
1
10
447.604247829043
20
26.7780072079667
30
0
41
1
10
447.61163322165
20
26.7738322488307
30
0
41
1
10
447.619193271317
20
26.7692211157906
30
0
41
1
10
447.623071327699
20
26.7666886267621
30
0
41
1
10
447.634714931172
20
26.7586489532177
30
0
41
1
10
447.642563586242
20
26.7526628820376
30
0
41
1
10
447.650480947162
20
26.7461799915705
30
0
0
SPLINE
5
1C4
100
AcDbEntity
8
1
62
256
6
ByLayer
370
18
48
1
60
0
100
AcDbSpline
70
4
71
3
72
8
73
4
40
0
40
0
40
0
40
0
40
1
40
1
40
1
40
1
41
1
10
447.650480947162
20
26.7461799915703
30
0
41
1
10
447.875247737629
20
26.5621365334013
30
0
41
1
10
448.100007511727
20
26.378081649405
30
0
41
1
10
448.324759526419
20
26.1940141333132
30
0
0
SPLINE
5
1C5
100
AcDbEntity
8
1
62
256
6
ByLayer
370
18
48
1
60
0
100
AcDbSpline
70
4
71
3
72
8
73
4
40
0
40
0
40
0
40
0
40
1
40
1
40
1
40
1
41
1
10
448.324759526419
20
26.4182396666008
30
0
41
1
10
448.10282976625
20
26.749695426689
30
0
41
1
10
447.87797677687
20
27.0784874839756
30
0
41
1
10
447.650480947162
20
27.4048713342141
30
0
0
SPLINE
5
1C6
100
AcDbEntity
8
1
62
256
6
ByLayer
370
18
48
1
60
0
100
AcDbSpline
70
4
71
3
72
34
73
30
40
0
40
0
40
0
40
0
40
0.125
40
0.125
40
0.250000000000001
40
0.250000000000001
40
0.312499999999991
40
0.312499999999991
40
0.374999999999981
40
0.374999999999981
40
0.499999999999975
40
0.499999999999975
40
0.562499999999972
40
0.562499999999972
40
0.624999999999968
40
0.624999999999968
40
0.687499999999965
40
0.687499999999965
40
0.718749999999965
40
0.718749999999965
40
0.749999999999966
40
0.749999999999966
40
0.812499999999974
40
0.812499999999974
40
0.874999999999983
40
0.874999999999983
40
0.937499999999991
40
0.937499999999991
40
1
40
1
40
1
40
1
41
1
10
447.650480947162
20
27.4048713342141
30
0
41
1
10
447.638779782576
20
27.421658767877
30
0
41
1
10
447.627693116502
20
27.438375886039
30
0
41
1
10
447.607002473869
20
27.4714107933065
30
0
41
1
10
447.597504579954
20
27.4875524832541
30
0
41
1
10
447.584701626499
20
27.5111204626919
30
0
41
1
10
447.580676613219
20
27.5188681596794
30
0
41
1
10
447.57317678391
20
27.5341175966363
30
0
41
1
10
447.569687169971
20
27.5416532144351
30
0
41
1
10
447.560306547286
20
27.5635746306845
30
0
41
1
10
447.555515793997
20
27.5771559030112
30
0
41
1
10
447.551444442405
20
27.5953340811024
30
0
41
1
10
447.550629414815
20
27.6010158296462
30
0
41
1
10
447.550369704542
20
27.6110410235741
30
0
41
1
10
447.550906911697
20
27.6154408318425
30
0
41
1
10
447.553649785601
20
27.622711930632
30
0
41
1
10
447.555833495619
20
27.6254796389073
30
0
41
1
10
447.560418657478
20
27.6281044544225
30
0
41
1
10
447.562180578905
20
27.6287302685914
30
0
41
1
10
447.56612484049
20
27.6294299988244
30
0
41
1
10
447.568286199411
20
27.629504301113
30
0
41
1
10
447.575316333567
20
27.6289333978011
30
0
41
1
10
447.580743615077
20
27.6274928474907
30
0
41
1
10
447.592956646791
20
27.622576026391
30
0
41
1
10
447.599500450861
20
27.6192044399124
30
0
41
1
10
447.613308831925
20
27.6109620758307
30
0
41
1
10
447.620630234375
20
27.6060417517643
30
0
41
1
10
447.635395579301
20
27.5952630873181
30
0
41
1
10
447.642891402848
20
27.5893789353731
30
0
41
1
10
447.650480947162
20
27.5830864488519
30
0
0
SPLINE
5
1C7
100
AcDbEntity
8
1
62
256
6
ByLayer
370
18
48
1
60
0
100
AcDbSpline
70
4
71
3
72
8
73
4
40
0
40
0
40
0
40
0
40
1
40
1
40
1
40
1
41
1
10
447.650480947162
20
27.5830864488518
30
0
41
1
10
447.87527835498
20
27.3967070563392
30
0
41
1
10
448.100039125586
20
27.2102687278759
30
0
41
1
10
448.324759526419
20
27.0237655573009
30
0
0
SPLINE
5
1C8
100
AcDbEntity
8
1
62
256
6
ByLayer
370
18
48
1
60
0
100
AcDbSpline
70
4
71
3
72
8
73
4
40
0
40
0
40
0
40
0
40
1
40
1
40
1
40
1
41
1
10
448.324759526419
20
27.2045370106243
30
0
41
1
10
448.102167049584
20
27.5105841760977
30
0
41
1
10
447.877337890168
20
27.8144257977396
30
0
41
1
10
447.650480947162
20
28.1162678662802
30
0
0
SPLINE
5
1C9
100
AcDbEntity
8
1
62
256
6
ByLayer
370
18
48
1
60
0
100
AcDbSpline
70
4
71
3
72
41
73
37
40
0
40
0
40
0
40
0
40
0.0625000000000042
40
0.0625000000000042
40
0.125000000000008
40
0.125000000000008
40
0.250000000000016
40
0.250000000000016
40
0.312500000000012
40
0.312500000000012
40
0.375000000000008
40
0.375000000000008
40
0.437500000000004
40
0.468750000000003
40
0.468750000000003
40
0.500000000000001
40
0.500000000000001
40
0.562500000000002
40
0.562500000000002
40
0.625000000000003
40
0.625000000000003
40
0.687500000000004
40
0.687500000000004
40
0.750000000000005
40
0.750000000000005
40
0.781250000000008
40
0.781250000000008
40
0.812500000000011
40
0.812500000000011
40
0.87500000000001
40
0.87500000000001
40
0.906250000000007
40
0.906250000000007
40
0.937500000000004
40
0.937500000000004
40
1
40
1
40
1
40
1
41
1
10
447.650480947162
20
28.1162678662802
30
0
41
1
10
447.644530707472
20
28.1241848937802
30
0
41
1
10
447.638734660478
20
28.1320661881946
30
0
41
1
10
447.627462614209
20
28.1477537676429
30
0
41
1
10
447.621983627572
20
28.155565585438
30
0
41
1
10
447.606226071217
20
28.1786319055679
30
0
41
1
10
447.59655639816
20
28.1936038516676
30
0
41
1
10
447.583525644729
20
28.2153410699501
30
0
41
1
10
447.579429881242
20
28.2224656317322
30
0
41
1
10
447.571814377828
20
28.2364325284509
30
0
41
1
10
447.568318980523
20
28.2432345542656
30
0
41
1
10
447.562151731737
20
28.2562021368552
30
0
41
1
10
447.558116055743
20
28.2654991328182
30
0
41
1
10
447.555124307769
20
28.2740375850826
30
0
41
1
10
447.553390593519
20
28.2795405045752
30
0
41
1
10
447.552653442229
20
28.2822028365395
30
0
41
1
10
447.550910298472
20
28.2897406107647
30
0
41
1
10
447.550352356246
20
28.2942147484451
30
0
41
1
10
447.550659068286
20
28.3018677379385
30
0
41
1
10
447.551551382701
20
28.3050594781865
30
0
41
1
10
447.554942046485
20
28.3096266601905
30
0
41
1
10
447.55744201508
20
28.3110502936684
30
0
41
1
10
447.564147905172
20
28.3119608702202
30
0
41
1
10
447.568227742826
20
28.3114399048512
30
0
41
1
10
447.575359496822
20
28.3093034854208
30
0
41
1
10
447.577906330663
20
28.30836428157
30
0
41
1
10
447.583336023074
20
28.3060366334091
30
0
41
1
10
447.58621229645
20
28.3046487760974
30
0
41
1
10
447.595094710497
20
28.299958511048
30
0
41
1
10
447.601422754011
20
28.2961049586596
30
0
41
1
10
447.611436330014
20
28.28939550448
30
0
41
1
10
447.614876803774
20
28.2869917365576
30
0
41
1
10
447.62181975771
20
28.2819650556357
30
0
41
1
10
447.625327553303
20
28.2793394829959
30
0
41
1
10
447.635948792471
20
28.2711611225113
30
0
41
1
10
447.643159471795
20
28.2653086512651
30
0
41
1
10
447.650480947162
20
28.2591159102933
30
0
0
SPLINE
5
1CA
100
AcDbEntity
8
1
62
256
6
ByLayer
370
18
48
1
60
0
100
AcDbSpline
70
4
71
3
72
8
73
4
40
0
40
0
40
0
40
0
40
1
40
1
40
1
40
1
41
1
10
447.650480947162
20
28.2591159102932
30
0
41
1
10
447.875326782245
20
28.0689340213239
30
0
41
1
10
448.100089025132
20
27.8786205059008
30
0
41
1
10
448.324759526419
20
27.6881625317595
30
0
0
SPLINE
5
1CB
100
AcDbEntity
8
1
62
256
6
ByLayer
370
18
48
1
60
0
100
AcDbSpline
70
4
71
3
72
8
73
4
40
0
40
0
40
0
40
0
40
1
40
1
40
1
40
1
41
1
10
448.324759526419
20
27.8306924641176
30
0
41
1
10
448.101678442285
20
28.1158055554831
30
0
41
1
10
447.876866272618
20
28.3990877212181
30
0
41
1
10
447.650480947162
20
28.6807059996427
30
0
0
SPLINE
5
1CC
100
AcDbEntity
8
1
62
256
6
ByLayer
370
18
48
1
60
0
100
AcDbSpline
70
4
71
3
72
38
73
34
40
0
40
0
40
0
40
0
40
0.0625000000000062
40
0.0625000000000062
40
0.125000000000012
40
0.125000000000012
40
0.250000000000011
40
0.250000000000011
40
0.312500000000009
40
0.312500000000009
40
0.375000000000008
40
0.375000000000008
40
0.437500000000006
40
0.437500000000006
40
0.500000000000004
40
0.500000000000004
40
0.562500000000003
40
0.562500000000003
40
0.625000000000001
40
0.625000000000001
40
0.6875
40
0.6875
40
0.749999999999998
40
0.749999999999998
40
0.781249999999995
40
0.781249999999995
40
0.812499999999993
40
0.812499999999993
40
0.874999999999995
40
0.874999999999995
40
0.937499999999998
40
0.937499999999998
40
1
40
1
40
1
40
1
41
1
10
447.650480947162
20
28.6807059996426
30
0
41
1
10
447.644435066045
20
28.6882269404472
30
0
41
1
10
447.638541009106
20
28.6956954835828
30
0
41
1
10
447.627070710279
20
28.7105219541028
30
0
41
1
10
447.621478397149
20
28.7179019338318
30
0
41
1
10
447.605382543492
20
28.7396367381087
30
0
41
1
10
447.59552307329
20
28.7536213176664
30
0
41
1
10
447.582291758194
20
28.7736882743309
30
0
41
1
10
447.5781434099
20
28.7802241905285
30
0
41
1
10
447.570463431254
20
28.7929350505254
30
0
41
1
10
447.566983467968
20
28.799026672499
30
0
41
1
10
447.560894095359
20
28.8105111646497
30
0
41
1
10
447.558273629461
20
28.8159211153944
30
0
41
1
10
447.554041861199
20
28.8259505318479
30
0
41
1
10
447.552432376485
20
28.830586424922
30
0
41
1
10
447.550538980103
20
28.838588933479
30
0
41
1
10
447.550233118891
20
28.8420039082246
30
0
41
1
10
447.551141496283
20
28.8474028832875
30
0
41
1
10
447.552342069686
20
28.8493113044671
30
0
41
1
10
447.556322566543
20
28.8514574493078
30
0
41
1
10
447.559156903261
20
28.8516693992399
30
0
41
1
10
447.566155193741
20
28.8503516061775
30
0
41
1
10
447.57032728413
20
28.8488516643675
30
0
41
1
10
447.57754044284
20
28.8454114743363
30
0
41
1
10
447.580121827421
20
28.8440551043968
30
0
41
1
10
447.585487525657
20
28.8410134790048
30
0
41
1
10
447.588275661537
20
28.8393280740406
30
0
41
1
10
447.596927885113
20
28.8338227337159
30
0
41
1
10
447.603078037699
20
28.8295564416236
30
0
41
1
10
447.616050433374
20
28.8199786606822
30
0
41
1
10
447.622764082909
20
28.8147458022586
30
0
41
1
10
447.636420273296
20
28.8036638171355
30
0
41
1
10
447.643389119659
20
28.7977944023922
30
0
41
1
10
447.650480947162
20
28.7916390605836
30
0
0
SPLINE
5
1CD
100
AcDbEntity
8
1
62
256
6
ByLayer
370
18
48
1
60
0
100
AcDbSpline
70
4
71
3
72
8
73
4
40
0
40
0
40
0
40
0
40
1
40
1
40
1
40
1
41
1
10
447.650480947162
20
28.7916390605836
30
0
41
1
10
447.875390693943
20
28.5964289589455
30
0
41
1
10
448.100154848045
20
28.4009956122051
30
0
41
1
10
448.324759526419
20
28.2053177327379
30
0
0
SPLINE
5
1CE
100
AcDbEntity
8
1
62
256
6
ByLayer
370
18
48
1
60
0
100
AcDbSpline
70
4
71
3
72
8
73
4
40
0
40
0
40
0
40
0
40
1
40
1
40
1
40
1
41
1
10
448.324759526419
20
28.3131399205581
30
0
41
1
10
448.101307459449
20
28.5806365366872
30
0
41
1
10
447.876507770666
20
28.8466150387245
30
0
41
1
10
447.650480947162
20
29.1112111569977
30
0
0
SPLINE
5
1CF
100
AcDbEntity
8
1
62
256
6
ByLayer
370
18
48
1
60
0
100
AcDbSpline
70
4
71
3
72
37
73
33
40
0
40
0
40
0
40
0
40
0.124999999999982
40
0.124999999999982
40
0.249999999999964
40
0.249999999999964
40
0.312499999999961
40
0.312499999999961
40
0.374999999999959
40
0.374999999999959
40
0.437499999999956
40
0.437499999999956
40
0.46874999999996
40
0.46874999999996
40
0.499999999999963
40
0.531249999999966
40
0.531249999999966
40
0.562499999999969
40
0.562499999999969
40
0.624999999999975
40
0.624999999999975
40
0.656249999999976
40
0.656249999999976
40
0.687499999999977
40
0.687499999999977
40
0.749999999999979
40
0.749999999999979
40
0.812499999999982
40
0.812499999999982
40
0.874999999999984
40
0.874999999999984
40
1
40
1
40
1
40
1
41
1
10
447.650480947162
20
29.1112111569977
30
0
41
1
10
447.638202144537
20
29.1255852187185
30
0
41
1
10
447.626485867576
20
29.1397144945005
30
0
41
1
10
447.604552320067
20
29.1671510631413
30
0
41
1
10
447.594502099815
20
29.1802445976562
30
0
41
1
10
447.581082092083
20
29.1987490698116
30
0
41
1
10
447.57688735265
20
29.2047260678883
30
0
41
1
10
447.569160111633
20
29.2162246159376
30
0
41
1
10
447.565703840037
20
29.2216334116325
30
0
41
1
10
447.559712993625
20
29.2316731893725
30
0
41
1
10
447.557175330865
20
29.2363077732494
30
0
41
1
10
447.554189582967
20
29.2425686008357
30
0
41
1
10
447.55333114082
20
29.2445439196825
30
0
41
1
10
447.551945089713
20
29.2481706791217
30
0
41
1
10
447.55088030604
20
29.2514915212518
30
0
41
1
10
447.550493173189
20
29.2541672783616
30
0
41
1
10
447.550469840073
20
29.2564968771599
30
0
41
1
10
447.55064329357
20
29.2574911476052
30
0
41
1
10
447.551729677775
20
29.2598627622574
30
0
41
1
10
447.553197894126
20
29.2606567256901
30
0
41
1
10
447.556546564706
20
29.2606368151017
30
0
41
1
10
447.557864176504
20
29.2604245190889
30
0
41
1
10
447.560849626481
20
29.2595937482381
30
0
41
1
10
447.562509311232
20
29.258979809963
30
0
41
1
10
447.567961306001
20
29.2565762330203
30
0
41
1
10
447.572230449554
20
29.2542238153643
30
0
41
1
10
447.581924074944
20
29.2481356233877
30
0
41
1
10
447.587203153222
20
29.2444931606356
30
0
41
1
10
447.598484907468
20
29.2362099822928
30
0
41
1
10
447.604518790299
20
29.2315432716213
30
0
41
1
10
447.623400016941
20
29.2163577993807
30
0
41
1
10
447.636681697517
20
29.2049543935808
30
0
41
1
10
447.650480947162
20
29.1926049128559
30
0
0
SPLINE
5
1D0
100
AcDbEntity
8
1
62
256
6
ByLayer
370
18
48
1
60
0
100
AcDbSpline
70
4
71
3
72
8
73
4
40
0
40
0
40
0
40
0
40
1
40
1
40
1
40
1
41
1
10
447.650480947162
20
29.1926049128558
30
0
41
1
10
447.875470342809
20
28.9912532251712
30
0
41
1
10
448.100236859786
20
28.7895703804275
30
0
41
1
10
448.324759526419
20
28.5875252185421
30
0
0
SPLINE
5
1D1
100
AcDbEntity
8
1
62
256
6
ByLayer
370
18
48
1
60
0
100
AcDbSpline
70
4
71
3
72
8
73
4
40
0
40
0
40
0
40
0
40
1
40
1
40
1
40
1
41
1
10
448.324759526419
20
28.6630274540316
30
0
41
1
10
448.101019214676
20
28.9154654531749
30
0
41
1
10
447.876228917632
20
29.1666509399732
30
0
41
1
10
447.650480947162
20
29.416694031931
30
0
0
SPLINE
5
1D2
100
AcDbEntity
8
1
62
256
6
ByLayer
370
18
48
1
60
0
100
AcDbSpline
70
4
71
3
72
37
73
33
40
0
40
0
40
0
40
0
40
0.0625000000000098
40
0.0625000000000098
40
0.12500000000002
40
0.12500000000002
40
0.250000000000025
40
0.250000000000025
40
0.312500000000028
40
0.312500000000028
40
0.375000000000031
40
0.406250000000033
40
0.406250000000033
40
0.437500000000034
40
0.437500000000034
40
0.500000000000034
40
0.500000000000034
40
0.531250000000031
40
0.531250000000031
40
0.562500000000028
40
0.562500000000028
40
0.625000000000024
40
0.625000000000024
40
0.68750000000002
40
0.68750000000002
40
0.750000000000016
40
0.750000000000016
40
0.812500000000012
40
0.812500000000012
40
0.875000000000008
40
0.875000000000008
40
1
40
1
40
1
40
1
41
1
10
447.650480947162
20
29.416694031931
30
0
41
1
10
447.644233516261
20
29.4236138148019
30
0
41
1
10
447.638128791671
20
29.4304472421303
30
0
41
1
10
447.626224587923
20
29.4439282469398
30
0
41
1
10
447.620408632679
20
29.4505953398439
30
0
41
1
10
447.603696944729
20
29.4700187730232
30
0
41
1
10
447.593459438986
20
29.4822776869175
30
0
41
1
10
447.579801977808
20
29.4993597909753
30
0
41
1
10
447.575513158026
20
29.5048653228652
30
0
41
1
10
447.56782727776
20
29.5150761747933
30
0
41
1
10
447.562698992221
20
29.5221718288942
30
0
41
1
10
447.55866279162
20
29.528300579294
30
0
41
1
10
447.556240243351
20
29.5321488241215
30
0
41
1
10
447.555161120897
20
29.5339584350342
30
0
41
1
10
447.552417952635
20
29.5389021635918
30
0
41
1
10
447.551221826354
20
29.5415884195267
30
0
41
1
10
447.550485616375
20
29.5445985953591
30
0
41
1
10
447.55041909126
20
29.5454340249241
30
0
41
1
10
447.550661814729
20
29.5467128369869
30
0
41
1
10
447.550968230583
20
29.5471605417446
30
0
41
1
10
447.55243913149
20
29.5479324593418
30
0
41
1
10
447.554154903999
20
29.5476875862845
30
0
41
1
10
447.559095757758
20
29.5456300292873
30
0
41
1
10
447.562230525272
20
29.5438567909972
30
0
41
1
10
447.569682176899
20
29.5389883407297
30
0
41
1
10
447.574051131848
20
29.5358516153733
30
0
41
1
10
447.583612877603
20
29.5285570395073
30
0
41
1
10
447.58879748384
20
29.5244110022459
30
0
41
1
10
447.599860114334
20
29.5152650369457
30
0
41
1
10
447.605784818522
20
29.5102235776674
30
0
41
1
10
447.624098620595
20
29.4942917137717
30
0
41
1
10
447.637015243457
20
29.4826211375563
30
0
41
1
10
447.650480947162
20
29.4701429912239
30
0
0
SPLINE
5
1D3
100
AcDbEntity
8
1
62
256
6
ByLayer
370
18
48
1
60
0
100
AcDbSpline
70
4
71
3
72
8
73
4
40
0
40
0
40
0
40
0
40
1
40
1
40
1
40
1
41
1
10
447.650480947162
20
29.4701429912239
30
0
41
1
10
447.875567648883
20
29.2615638584119
30
0
41
1
10
448.10033706691
20
29.0525298860199
30
0
41
1
10
448.324759526419
20
28.8429985339366
30
0
0
SPLINE
5
1D4
100
AcDbEntity
8
1
62
256
6
ByLayer
370
18
48
1
60
0
100
AcDbSpline
70
4
71
3
72
8
73
4
40
0
40
0
40
0
40
0
40
1
40
1
40
1
40
1
41
1
10
448.324759526419
20
28.8877233606895
30
0
41
1
10
448.100791090601
20
29.1271433496635
30
0
41
1
10
447.876008003165
20
29.3655393957369
30
0
41
1
10
447.650480947162
20
29.6030003410675
30
0
0
SPLINE
5
1D5
100
AcDbEntity
8
1
62
256
6
ByLayer
370
18
48
1
60
0
100
AcDbSpline
70
4
71
3
72
37
73
33
40
0
40
0
40
0
40
0
40
0.125000000000018
40
0.125000000000018
40
0.187500000000021
40
0.187500000000021
40
0.250000000000024
40
0.250000000000024
40
0.312500000000026
40
0.343750000000028
40
0.343750000000028
40
0.37500000000003
40
0.37500000000003
40
0.437500000000027
40
0.437500000000027
40
0.468750000000025
40
0.468750000000025
40
0.500000000000023
40
0.500000000000023
40
0.562500000000022
40
0.562500000000022
40
0.625000000000021
40
0.625000000000021
40
0.68750000000002
40
0.68750000000002
40
0.750000000000019
40
0.750000000000019
40
0.812500000000018
40
0.812500000000018
40
0.875000000000017
40
0.875000000000017
40
1
40
1
40
1
40
1
41
1
10
447.650480947162
20
29.6030003410675
30
0
41
1
10
447.637713524711
20
29.6164433587628
30
0
41
1
10
447.625555134204
20
29.629399084852
30
0
41
1
10
447.608569850311
20
29.6477688699756
30
0
41
1
10
447.603108564082
20
29.6537238617291
30
0
41
1
10
447.592645038061
20
29.6652469120368
30
0
41
1
10
447.587628553198
20
29.6708318448435
30
0
41
1
10
447.578394061833
20
29.6812540907365
30
0
41
1
10
447.572016535815
20
29.6885648297576
30
0
41
1
10
447.566579562048
20
29.6950058114131
30
0
41
1
10
447.563185659207
20
29.69908622913
30
0
41
1
10
447.561600856608
20
29.7010238889238
30
0
41
1
10
447.557303071354
20
29.7063893319164
30
0
41
1
10
447.555014755975
20
29.7094065301877
30
0
41
1
10
447.552553203198
20
29.7129894842033
30
0
41
1
10
447.551893247071
20
29.7140301161109
30
0
41
1
10
447.550941407315
20
29.7157401602269
30
0
41
1
10
447.550646743412
20
29.7164124694574
30
0
41
1
10
447.550307456757
20
29.7178803359892
30
0
41
1
10
447.550804218981
20
29.7181301453509
30
0
41
1
10
447.553323180194
20
29.7170929258172
30
0
41
1
10
447.555303382755
20
29.7158212919812
30
0
41
1
10
447.560517793468
20
29.7119566589425
30
0
41
1
10
447.563756830219
20
29.7093608740993
30
0
41
1
10
447.571431586465
20
29.7029148992632
30
0
41
1
10
447.575773222109
20
29.6991432590704
30
0
41
1
10
447.585223568068
20
29.6907486294521
30
0
41
1
10
447.59034747327
20
29.6861125346087
30
0
41
1
10
447.601310018783
20
29.6760560925472
30
0
41
1
10
447.607046357809
20
29.6707294245953
30
0
41
1
10
447.624771194315
20
29.6541190567995
30
0
41
1
10
447.637325338165
20
29.6421616074524
30
0
41
1
10
447.650480947162
20
29.6294893682041
30
0
0
SPLINE
5
1D6
100
AcDbEntity
8
1
62
256
6
ByLayer
370
18
48
1
60
0
100
AcDbSpline
70
4
71
3
72
8
73
4
40
0
40
0
40
0
40
0
40
1
40
1
40
1
40
1
41
1
10
447.650480947162
20
29.629489368204
30
0
41
1
10
447.875685997487
20
29.4125589107652
30
0
41
1
10
448.100458994954
20
29.1950332762264
30
0
41
1
10
448.324759526419
20
28.9768567932083
30
0
0
SPLINE
5
1D7
100
AcDbEntity
8
1
62
256
6
ByLayer
370
18
48
1
60
0
100
AcDbSpline
70
4
71
3
72
8
73
4
40
0
40
0
40
0
40
0
40
1
40
1
40
1
40
1
41
1
10
448.324759526419
20
28.9916716944543
30
0
41
1
10
448.100607863251
20
29.2197546698692
30
0
41
1
10
447.875830405165
20
29.447012510698
30
0
41
1
10
447.650480947162
20
29.6735161477089
30
0
0
SPLINE
5
1D8
100
AcDbEntity
8
1
62
256
6
ByLayer
370
18
48
1
60
0
100
AcDbSpline
70
2053
71
3
72
40
73
36
40
0
40
0
40
0
40
0
40
0.0624999999999939
40
0.0624999999999939
40
0.124999999999988
40
0.124999999999988
40
0.249999999999976
40
0.249999999999976
40
0.31249999999997
40
0.31249999999997
40
0.343749999999968
40
0.343749999999968
40
0.374999999999965
40
0.374999999999965
40
0.437499999999959
40
0.437499999999959
40
0.468749999999958
40
0.468749999999958
40
0.499999999999957
40
0.499999999999957
40
0.562499999999955
40
0.562499999999955
40
0.593749999999955
40
0.593749999999955
40
0.624999999999956
40
0.624999999999956
40
0.687499999999964
40
0.687499999999964
40
0.749999999999971
40
0.749999999999971
40
0.812499999999979
40
0.812499999999979
40
0.874999999999986
40
0.874999999999986
40
1
40
1
40
1
40
1
41
1
10
447.650480947162
20
29.6735161477089
30
0
41
1
10
447.643995528497
20
29.6800347829349
30
0
41
1
10
447.637641930968
20
29.6864240983008
30
0
41
1
10
447.625223781212
20
29.6989177330066
30
0
41
1
10
447.619159362558
20
29.7050219490489
30
0
41
1
10
447.601760540395
20
29.7225422830342
30
0
41
1
10
447.591092877904
20
29.7332946246368
30
0
41
1
10
447.576962978984
20
29.7475455477881
30
0
41
1
10
447.572665768936
20
29.7518812199178
30
0
41
1
10
447.566937041454
20
29.7576626687871
30
0
41
1
10
447.565146159727
20
29.7594703034816
30
0
41
1
10
447.561821741835
20
29.7628262012968
30
0
41
1
10
447.560285385348
20
29.7643773132446
30
0
41
1
10
447.556170769704
20
29.7685318245759
30
0
41
1
10
447.554054662599
20
29.7706689842447
30
0
41
1
10
447.551904777519
20
29.7728403855638
30
0
41
1
10
447.551358069514
20
29.773392601446
30
0
41
1
10
447.550642684802
20
29.7741152032552
30
0
41
1
10
447.550471174801
20
29.7742884504551
30
0
41
1
10
447.550501778366
20
29.774257537362
30
0
41
1
10
447.551246131199
20
29.7735056170701
30
0
41
1
10
447.553449587004
20
29.7712801191183
30
0
41
1
10
447.554366440456
20
29.7703541331447
30
0
41
1
10
447.556507437831
20
29.7681920072877
30
0
41
1
10
447.557735591993
20
29.7669518171086
30
0
41
1
10
447.561863192775
20
29.7627842351969
30
0
41
1
10
447.565218581561
20
29.75939689923
30
0
41
1
10
447.572951716672
20
29.7515926878457
30
0
41
1
10
447.577252302461
20
29.7472536906829
30
0
41
1
10
447.586584704884
20
29.7378414692255
30
0
41
1
10
447.591617667416
20
29.7327670857865
30
0
41
1
10
447.602342916789
20
29.7219581556338
30
0
41
1
10
447.607954623723
20
29.7163048356863
30
0
41
1
10
447.625296915117
20
29.6988417531465
30
0
41
1
10
447.637586054382
20
29.6864770846438
30
0
41
1
10
447.650480947162
20
29.6735161477089
30
0
0
SPLINE
5
1D9
100
AcDbEntity
8
1
62
256
6
ByLayer
370
13
48
1
60
0
100
AcDbSpline
70
4
71
3
72
30
73
26
40
0
40
0
40
0
40
0
40
0.03125
40
0.03125
40
0.0624999999999999
40
0.125
40
0.125
40
0.25
40
0.25
40
0.3125
40
0.3125
40
0.375
40
0.375
40
0.499999999999999
40
0.499999999999999
40
0.624999999999999
40
0.656249999999999
40
0.656249999999999
40
0.687499999999999
40
0.687499999999999
40
0.749999999999999
40
0.749999999999999
40
0.874999999999999
40
0.874999999999999
40
1
40
1
40
1
40
1
41
1
10
446
20
29.9999999999983
30
0
41
1
10
446.007362850041
20
29.9999999999983
30
0
41
1
10
446.014748318526
20
29.9995146855311
30
0
41
1
10
446.029491014814
20
29.9975721011371
30
0
41
1
10
446.051583615958
20
29.9932016118054
30
0
41
1
10
446.073568059289
20
29.9844669543454
30
0
41
1
10
446.11727434799
20
29.9611833545919
30
0
41
1
10
446.146063645186
20
29.9379123489122
30
0
41
1
10
446.188228866469
20
29.8913335735399
30
0
41
1
10
446.202101521617
20
29.8738730025943
30
0
41
1
10
446.229367974665
20
29.8351303445841
30
0
41
1
10
446.242766214032
20
29.8138435156941
30
0
41
1
10
446.282119345361
20
29.744250062324
30
0
41
1
10
446.307237698167
20
29.6902142228383
30
0
41
1
10
446.354415448542
20
29.5668448333301
30
0
41
1
10
446.381994302591
20
29.4801781976725
30
0
41
1
10
446.406382851588
20
29.3814505483887
30
0
41
1
10
446.415861533638
20
29.3409900334795
30
0
41
1
10
446.420463067925
20
29.3202742697882
30
0
41
1
10
446.433807020245
20
29.2567499092729
30
0
41
1
10
446.442095788348
20
29.2125395608454
30
0
41
1
10
446.464881574937
20
29.0743374473404
30
0
41
1
10
446.477322865052
20
28.9747784554291
30
0
41
1
10
446.494867295457
20
28.7607822397297
30
0
41
1
10
446.5
20
28.6463456924508
30
0
41
1
10
446.5
20
28.5243902439011
30
0
0
SPLINE
5
1DA
100
AcDbEntity
8
1
62
256
6
ByLayer
370
18
48
1
60
0
100
AcDbSpline
70
4
71
3
72
60
73
56
40
0
40
0
40
0
40
0
40
0.0216264738653171
40
0.0431475147276808
40
0.0645630933003096
40
0.0858731793361235
40
0.107077741645561
40
0.12817674811445
40
0.149170165721854
40
0.17005796055791
40
0.190840097841685
40
0.21151654193904
40
0.232087256380409
40
0.252552203878683
40
0.272911346346944
40
0.29316464491629
40
0.31331205995355
40
0.333353551079031
40
0.353289077184203
40
0.373118596449355
40
0.392842066361207
40
0.412459443730502
40
0.431970684709539
40
0.451375744809649
40
0.470674578918656
40
0.489867141318234
40
0.508953385701277
40
0.527933265189153
40
0.546806732348941
40
0.565573739210563
40
0.584234237283902
40
0.602788177575826
40
0.621235510607151
40
0.639576186429524
40
0.657810154642261
40
0.675937364409093
40
0.693957764474832
40
0.711871303181989
40
0.729677928487298
40
0.747377587978149
40
0.764970228888963
40
0.782455798117493
40
0.799834242241018
40
0.81710550753247
40
0.834269539976486
40
0.851326285285365
40
0.86827568891495
40
0.885117696080421
40
0.901852251772003
40
0.918479300770604
40
0.934998787663359
40
0.951410656859086
40
0.96771485260367
40
0.983911318995364
40
1
40
1
40
1
40
1
41
1
10
446.068166739865
20
28.7540632158594
30
0
41
1
10
446.067290919398
20
28.7465082804971
30
0
41
1
10
446.065543548248
20
28.7314352414598
30
0
41
1
10
446.062979282221
20
28.7086309250691
30
0
41
1
10
446.060464820122
20
28.6857575303787
30
0
41
1
10
446.058003726494
20
28.6628002463426
30
0
41
1
10
446.055595046242
20
28.6397669176146
30
0
41
1
10
446.053239016603
20
28.6166593427056
30
0
41
1
10
446.05093554802
20
28.5934809079974
30
0
41
1
10
446.048684628286
20
28.5702345574607
30
0
41
1
10
446.046486215167
20
28.5469233326952
30
0
41
1
10
446.044340265069
20
28.5235502293881
30
0
41
1
10
446.042246725527
20
28.5001182355623
30
0
41
1
10
446.04020553731
20
28.4766303214773
30
0
41
1
10
446.038216633975
20
28.4530894423851
30
0
41
1
10
446.036279942096
20
28.4294985378646
30
0
41
1
10
446.034395381317
20
28.405860532063
30
0
41
1
10
446.032562864448
20
28.3821783336935
30
0
41
1
10
446.030782297555
20
28.3584548360956
30
0
41
1
10
446.029053580048
20
28.3346929172755
30
0
41
1
10
446.027376604769
20
28.3108954399501
30
0
41
1
10
446.025751258088
20
28.2870652515868
30
0
41
1
10
446.024177419984
20
28.2632051844426
30
0
41
1
10
446.022654964144
20
28.2393180556006
30
0
41
1
10
446.021183758045
20
28.2154066670051
30
0
41
1
10
446.019763663054
20
28.191473805495
30
0
41
1
10
446.018394534507
20
28.1675222428346
30
0
41
1
10
446.017076221809
20
28.1435547357437
30
0
41
1
10
446.015808568519
20
28.1195740259255
30
0
41
1
10
446.014591412443
20
28.0955828400926
30
0
41
1
10
446.013424585724
20
28.0715838899922
30
0
41
1
10
446.01230791493
20
28.0475798724286
30
0
41
1
10
446.01124122115
20
28.0235734692851
30
0
41
1
10
446.010224320077
20
27.9995673475441
30
0
41
1
10
446.009257022105
20
27.9755641593053
30
0
41
1
10
446.008339132414
20
27.951566541803
30
0
41
1
10
446.007470451062
20
27.9275771174218
30
0
41
1
10
446.006650773076
20
27.9035984937109
30
0
41
1
10
446.005879888541
20
27.8796332633971
30
0
41
1
10
446.005157582686
20
27.8556840043966
30
0
41
1
10
446.004483635978
20
27.831753279825
30
0
41
1
10
446.003857824211
20
27.8078436380087
30
0
41
1
10
446.003279918592
20
27.7839576124844
30
0
41
1
10
446.002749685821
20
27.7600977220379
30
0
41
1
10
446.00226688823
20
27.7362664705915
30
0
41
1
10
446.00183128368
20
27.7124663476478
30
0
41
1
10
446.001442626356
20
27.6886998266692
30
0
41
1
10
446.001100664232
20
27.6649693710849
30
0
41
1
10
446.000805148853
20
27.6412774120969
30
0
41
1
10
446.000555799599
20
27.6176264307256
30
0
41
1
10
446.000352436163
20
27.5940186545617
30
0
41
1
10
446.00019448934
20
27.5704571785268
30
0
41
1
10
446.00008280936
20
27.5469418229847
30
0
41
1
10
446.000012983882
20
27.5234844394295
30
0
41
1
10
446.000004318317
20
27.50781070399
30
0
41
1
10
446
20
27.4999999999984
30
0
0
SPLINE
5
1DB
100
AcDbEntity
8
1
62
256
6
ByLayer
370
18
48
1
60
0
100
AcDbSpline
70
4
71
1
72
4
73
2
40
0
40
0
40
1
40
1
41
1
10
445.5
20
27.9661016949137
30
0
41
1
10
446
20
27.4999999999984
30
0
0
SPLINE
5
1DC
100
AcDbEntity
8
1
62
256
6
ByLayer
370
18
48
1
60
0
100
AcDbSpline
70
4
71
3
72
39
73
35
40
0
40
0
40
0
40
0
40
0.0225305296107975
40
0.045188766161115
40
0.0679748217919318
40
0.0908888067675377
40
0.11393082951567
40
0.137100996666513
40
0.160399413090782
40
0.183826181936832
40
0.207381404666827
40
0.231065181092024
40
0.254877609407088
40
0.278818786223698
40
0.302888806603183
40
0.327087764088445
40
0.351415750735031
40
0.375872857141485
40
0.400459172478941
40
0.425174784519986
40
0.450019779666844
40
0.474994242978865
40
0.500098258199346
40
0.543355153079006
40
0.587048671897727
40
0.631179209952526
40
0.675747150910974
40
0.72075286725326
40
0.766196720693911
40
0.812079062584293
40
0.858400234296833
40
0.905160567591976
40
0.952360384968781
40
1
40
1
40
1
40
1
41
1
10
445.5
20
27.9661016949137
30
0
41
1
10
445.500018521496
20
27.9752227793037
30
0
41
1
10
445.50005566947
20
27.9935166479681
30
0
41
1
10
445.500328278334
20
28.0208068894026
30
0
41
1
10
445.500759363252
20
28.0480815995938
30
0
41
1
10
445.501364750929
20
28.0753211132614
30
0
41
1
10
445.502140164816
20
28.1025265962786
30
0
41
1
10
445.503086760515
20
28.1296935577378
30
0
41
1
10
445.504204225852
20
28.156819007248
30
0
41
1
10
445.50549264523
20
28.1838995210205
30
0
41
1
10
445.506951995907
20
28.2109317643778
30
0
41
1
10
445.508582284087
20
28.237912350571
30
0
41
1
10
445.510383508153
20
28.2648378789134
30
0
41
1
10
445.512355668601
20
28.2917049244702
30
0
41
1
10
445.514498765352
20
28.3185100408379
30
0
41
1
10
445.516812798502
20
28.3452497593896
30
0
41
1
10
445.519297768023
20
28.3719205894736
30
0
41
1
10
445.521953674198
20
28.3985190183736
30
0
41
1
10
445.524780516189
20
28.4250415112666
30
0
41
1
10
445.527778297358
20
28.4514845114446
30
0
41
1
10
445.530947005265
20
28.4778444394836
30
0
41
1
10
445.53428668691
20
28.5041176963992
30
0
41
1
10
445.538637272387
20
28.5365665991391
30
0
41
1
10
445.544168631492
20
28.5750627660168
30
0
41
1
10
445.551085188887
20
28.6194090065336
30
0
41
1
10
445.558512098947
20
28.6634975232328
30
0
41
1
10
445.566449432072
20
28.7073067991023
30
0
41
1
10
445.574897212838
20
28.7508149632088
30
0
41
1
10
445.58385527486
20
28.794000352198
30
0
41
1
10
445.593324273791
20
28.8368393312498
30
0
41
1
10
445.603301725963
20
28.8793145603001
30
0
41
1
10
445.613797038971
20
28.921383698774
30
0
41
1
10
445.624774608892
20
28.9630978669441
30
0
41
1
10
445.632468629658
20
28.9903417628714
30
0
41
1
10
445.636333479731
20
29.0040268797154
30
0
0
SPLINE
5
1DD
100
AcDbEntity
8
1
62
256
6
ByLayer
370
18
48
1
60
0
100
AcDbSpline
70
4
71
3
72
43
73
39
40
0
40
0
40
0
40
0
40
0.010775667328879
40
0.0216711320006454
40
0.0326864104204931
40
0.0438215184639415
40
0.0550764714993314
40
0.0664512844091183
40
0.0779459716100843
40
0.0895605470725213
40
0.101295024338398
40
0.113149416538667
40
0.125123736409667
40
0.18470143346445
40
0.249983186248411
40
0.306239448234883
40
0.366572714788005
40
0.430983326352887
40
0.499471558437718
40
0.555203447718706
40
0.61545599432238
40
0.680229254200607
40
0.74952326678507
40
0.760814345749358
40
0.772877906057261
40
0.785713947832351
40
0.799322471149028
40
0.813703476041406
40
0.828856962509979
40
0.844782930526632
40
0.861481380038539
40
0.878952310971141
40
0.897195723230552
40
0.916211616705429
40
0.935999991268515
40
0.956560846777862
40
0.977894183077842
40
1
40
1
40
1
40
1
41
1
10
445.636333479731
20
29.0040268797154
30
0
41
1
10
445.638355622447
20
29.0111096197526
30
0
41
1
10
445.642422388837
20
29.0253538414409
30
0
41
1
10
445.64842281766
20
29.0465518594822
30
0
41
1
10
445.654393599167
20
29.0677677996945
30
0
41
1
10
445.660324829373
20
29.0889730843872
30
0
41
1
10
445.666219205376
20
29.110165360703
30
0
41
1
10
445.672075991905
20
29.1313350137129
30
0
41
1
10
445.677895390152
20
29.1524742858892
30
0
41
1
10
445.683677339546
20
29.1735747948014
30
0
41
1
10
445.689421876634
20
29.194628205153
30
0
41
1
10
445.695128913604
20
29.2156260596985
30
0
41
1
10
445.708293252098
20
29.2642302177691
30
0
41
1
10
445.72882318633
20
29.3408031663257
30
0
41
1
10
445.754176242387
20
29.4348008730411
30
0
41
1
10
445.778159661275
20
29.5219670931418
30
0
41
1
10
445.800795960519
20
29.6017959565427
30
0
41
1
10
445.823839383984
20
29.6790880206487
30
0
41
1
10
445.845366767885
20
29.7462651025459
30
0
41
1
10
445.86565863256
20
29.8043754456477
30
0
41
1
10
445.884974561573
20
29.8543618117887
30
0
41
1
10
445.905218749215
20
29.9000246627619
30
0
41
1
10
445.920027451057
20
29.9276951004304
30
0
41
1
10
445.929352713187
20
29.9428423406911
30
0
41
1
10
445.932980142271
20
29.9484774008573
30
0
41
1
10
445.936826996675
20
29.9541535232265
30
0
41
1
10
445.940892851665
20
29.9598111121666
30
0
41
1
10
445.945177823072
20
29.9653869606818
30
0
41
1
10
445.949681870094
20
29.9708142621107
30
0
41
1
10
445.954404998889
20
29.9760225986201
30
0
41
1
10
445.959347203186
20
29.9809379754169
30
0
41
1
10
445.964508480425
20
29.9854826895729
30
0
41
1
10
445.969888830355
20
29.9895758588741
30
0
41
1
10
445.975488241676
20
29.9931313274051
30
0
41
1
10
445.981306749888
20
29.9960659949479
30
0
41
1
10
445.987344206354
20
29.9982668515595
30
0
41
1
10
445.993601190963
20
29.9997212574858
30
0
41
1
10
445.997841925921
20
29.999905990787
30
0
41
1
10
446
20
29.9999999999983
30
0
0
SPLINE
5
1DE
100
AcDbEntity
8
SK1
62
256
6
ByLayer
370
18
48
1
60
0
100
AcDbSpline
70
4
71
3
72
11
73
7
40
0
40
0
40
0
40
0
40
0.238889349686206
40
0.497421607755318
40
0.757386725613672
40
1
40
1
40
1
40
1
41
1
10
-0.394913799811391
20
-27.3654112548763
30
0
41
1
10
-0.369683308142868
20
-27.3663394559984
30
0
41
1
10
-0.32111194427128
20
-27.3763891500634
30
0
41
1
10
-0.255177176288555
20
-27.4196125572156
30
0
41
1
10
-0.211247851191487
20
-27.4855974197866
30
0
41
1
10
-0.200957398531415
20
-27.5346319643648
30
0
41
1
10
-0.200000000000102
20
-27.5602884583737
30
0
0
SPLINE
5
1DF
100
AcDbEntity
8
SK1
62
256
6
ByLayer
370
18
48
1
60
0
100
AcDbSpline
70
4
71
3
72
11
73
7
40
0
40
0
40
0
40
0
40
0.242613274632026
40
0.502578392599612
40
0.761110650559891
40
1
40
1
40
1
40
1
41
1
10
-0.199999999999903
20
27.5602884593824
30
0
41
1
10
-0.200957398526043
20
27.5346319653142
30
0
41
1
10
-0.211247851186315
20
27.4855974206286
30
0
41
1
10
-0.255177176262023
20
27.4196125578968
30
0
41
1
10
-0.321111944249566
20
27.3763891506148
30
0
41
1
10
-0.36968330813734
20
27.3663394565247
30
0
41
1
10
-0.394913799811192
20
27.3654112553951
30
0
0
SPLINE
5
1E0
100
AcDbEntity
8
SK1
62
256
6
ByLayer
370
18
48
1
60
0
100
AcDbSpline
70
4
71
2
72
6
73
3
40
0
40
0
40
0
40
1
40
1
40
1
41
1
10
-46.4999999999999
20
26.4073080746202
30
0
41
1
10
-47.2500000380091
20
25.9743785821416
30
0
41
1
10
-47.9999999999999
20
25.541448947548
30
0
0
SPLINE
5
1E1
100
AcDbEntity
8
SK1
62
256
6
ByLayer
370
18
48
1
60
0
100
AcDbSpline
70
4
71
2
72
6
73
3
40
0
40
0
40
0
40
1
40
1
40
1
41
1
10
-48.0000000000001
20
-25.5414493215233
30
0
41
1
10
-47.2500000379547
20
-25.9743789770286
30
0
41
1
10
-46.5000000000001
20
-26.4073084920197
30
0
0
SPLINE
5
1E2
100
AcDbEntity
8
SK1
62
256
6
ByLayer
370
18
48
1
60
0
100
AcDbSpline
70
4
71
2
72
6
73
3
40
0
40
0
40
0
40
1
40
1
40
1
41
1
10
-0.394913799811192
20
27.3654109362823
30
0
41
1
10
-1.19497688887543
20
27.3453143410234
30
0
41
1
10
-1.9950399779392
20
27.3252177457659
30
0
0
SPLINE
5
1E3
100
AcDbEntity
8
SK1
62
256
6
ByLayer
370
18
48
1
60
0
100
AcDbSpline
70
4
71
2
72
6
73
3
40
0
40
0
40
0
40
1
40
1
40
1
41
1
10
-1.9950399779394
20
-27.3252177453533
30
0
41
1
10
-1.19497688887563
20
-27.3453143405603
30
0
41
1
10
-0.394913799811391
20
-27.3654109357686
30
0
0
SPLINE
5
1E4
100
AcDbEntity
8
SK1
62
256
6
ByLayer
370
18
48
1
60
0
100
AcDbSpline
70
4
71
3
72
13
73
9
40
0
40
0
40
0
40
0
40
0.239476651984635
40
0.368387280177935
40
0.500029253268045
40
0.631666356502875
40
0.760563560186411
40
1
40
1
40
1
40
1
41
1
10
-1.9950399779392
20
27.325218063952
30
0
41
1
10
-2.0211099020289
20
27.3248162470299
30
0
41
1
10
-2.05883986745019
20
27.3309874079684
30
0
41
1
10
-2.1062765532715
20
27.3540268959373
30
0
41
1
10
-2.13886325113751
20
27.37918954629
30
0
41
1
10
-2.16563551769416
20
27.4104653546574
30
0
41
1
10
-2.19103253553236
20
27.4566758426755
30
0
41
1
10
-2.19909167979034
20
27.4940420737146
30
0
41
1
10
-2.1999999999999
20
27.5200952679265
30
0
0
SPLINE
5
1E5
100
AcDbEntity
8
SK1
62
256
6
ByLayer
370
18
48
1
60
0
100
AcDbSpline
70
4
71
3
72
13
73
9
40
0
40
0
40
0
40
0
40
0.239436439566014
40
0.368333643169659
40
0.499970746376703
40
0.631612719497151
40
0.760523347771547
40
1
40
1
40
1
40
1
41
1
10
-2.2000000000001
20
-27.5200952670183
30
0
41
1
10
-2.19909167978666
20
-27.4940420728663
30
0
41
1
10
-2.19103253552868
20
-27.4566758419156
30
0
41
1
10
-2.16563551768938
20
-27.4104653540177
30
0
41
1
10
-2.13886325113109
20
-27.3791895457297
30
0
41
1
10
-2.10627655326452
20
-27.3540268954422
30
0
41
1
10
-2.05883986743983
20
-27.3309874075326
30
0
41
1
10
-2.02110990202361
20
-27.3248162466093
30
0
41
1
10
-1.9950399779394
20
-27.3252180635337
30
0
0
SPLINE
5
1E6
100
AcDbEntity
8
SK1
62
256
6
ByLayer
370
18
48
1
60
0
100
AcDbSpline
70
4
71
2
72
6
73
3
40
0
40
0
40
0
40
1
40
1
40
1
41
1
10
-2.1999999999999
20
27.5062670250574
30
0
41
1
10
-24.3500000023321
20
26.9501984522265
30
0
41
1
10
-46.4999999999999
20
26.3941258787021
30
0
0
SPLINE
5
1E7
100
AcDbEntity
8
SK1
62
256
6
ByLayer
370
18
48
1
60
0
100
AcDbSpline
70
4
71
2
72
6
73
3
40
0
40
0
40
0
40
1
40
1
40
1
41
1
10
-46.5000000000001
20
-26.39412588177
30
0
41
1
10
-24.3500000023322
20
-26.950198452504
30
0
41
1
10
-2.2000000000001
20
-27.5062670222795
30
0
0
LINE
5
9E
100
AcDbEntity
8
SK4
62
256
6
ByLayer
370
18
48
0.05
60
0
100
AcDbLine
10
4
20
0
30
0
11
444
21
0
31
0
39
0
210
0
220
0
230
1
0
LINE
5
A0
100
AcDbEntity
8
81
62
256
6
ByLayer
370
18
48
1
60
0
100
AcDbLine
10
448
20
10
30
0
11
453
21
10
31
0
39
0
210
0
220
0
230
1
0
LINE
5
A1
100
AcDbEntity
8
4
62
256
6
ByLayer
370
18
48
0.05
60
0
100
AcDbLine
10
444
20
10
30
0
11
448
21
10
31
0
39
0
210
0
220
0
230
1
0
LINE
5
A3
100
AcDbEntity
8
80
62
256
6
ByLayer
370
18
48
1
60
0
100
AcDbLine
10
0
20
0
30
0
11
-5
21
0
31
0
39
0
210
0
220
0
230
1
0
LINE
5
A4
100
AcDbEntity
8
1
62
256
6
ByLayer
370
18
48
1
60
0
100
AcDbLine
10
452.8
20
3.100505
30
0
11
452.8
21
-2.899495
31
0
39
0
210
0
220
0
230
1
0
LINE
5
A5
100
AcDbEntity
8
1
62
256
6
ByLayer
370
13
48
1
60
0
100
AcDbLine
10
448.324503
20
-2.344995
30
0
11
452.8
21
-2.344995
31
0
39
0
210
0
220
0
230
1
0
LINE
5
A6
100
AcDbEntity
8
1
62
256
6
ByLayer
370
13
48
1
60
0
100
AcDbLine
10
448.324503
20
2.546005
30
0
11
452.8
21
2.546005
31
0
39
0
210
0
220
0
230
1
0
LINE
5
A7
100
AcDbEntity
8
1
62
256
6
ByLayer
370
18
48
1
60
0
100
AcDbLine
10
452.8
20
22.899495
30
0
11
452.8
21
16.899495
31
0
39
0
210
0
220
0
230
1
0
LINE
5
A8
100
AcDbEntity
8
1
62
256
6
ByLayer
370
13
48
1
60
0
100
AcDbLine
10
448.324503
20
17.453995
30
0
11
452.8
21
17.453995
31
0
39
0
210
0
220
0
230
1
0
LINE
5
A9
100
AcDbEntity
8
1
62
256
6
ByLayer
370
13
48
1
60
0
100
AcDbLine
10
448.324503
20
22.344995
30
0
11
452.8
21
22.344995
31
0
39
0
210
0
220
0
230
1
0
LINE
5
AA
100
AcDbEntity
8
1
62
256
6
ByLayer
370
18
48
1
60
0
100
AcDbLine
10
444
20
29.8
30
0
11
444
21
-29.8
31
0
39
0
210
0
220
0
230
1
0
LINE
5
AB
100
AcDbEntity
8
1
62
256
6
ByLayer
370
13
48
1
60
0
100
AcDbLine
10
443.8
20
30
30
0
11
443.8
21
-30
31
0
39
0
210
0
220
0
230
1
0
LINE
5
AC
100
AcDbEntity
8
1
62
256
6
ByLayer
370
13
48
1
60
0
100
AcDbLine
10
36
20
-30
30
0
11
36
21
30
31
0
39
0
210
0
220
0
230
1
0
LINE
5
AD
100
AcDbEntity
8
1
62
256
6
ByLayer
370
13
48
1
60
0
100
AcDbLine
10
10.105662
20
37.944501
30
0
11
10.105662
21
12.6576
31
0
39
0
210
0
220
0
230
1
0
LINE
5
AE
100
AcDbEntity
8
1
62
256
6
ByLayer
370
13
48
1
60
0
100
AcDbLine
10
10.538675
20
38.115458
30
0
11
10.538675
21
12.13309
31
0
39
0
210
0
220
0
230
1
0
LINE
5
AF
100
AcDbEntity
8
1
62
256
6
ByLayer
370
13
48
1
60
0
100
AcDbLine
10
13.461325
20
-12.13309
30
0
11
13.461325
21
-38.115458
31
0
39
0
210
0
220
0
230
1
0
LINE
5
B0
100
AcDbEntity
8
1
62
256
6
ByLayer
370
13
48
1
60
0
100
AcDbLine
10
13.894338
20
-12.6576
30
0
11
13.894338
21
-37.944501
31
0
39
0
210
0
220
0
230
1
0
LINE
5
B1
100
AcDbEntity
8
1
62
256
6
ByLayer
370
13
48
1
60
0
100
AcDbLine
10
13.461325
20
38.115458
30
0
11
13.461325
21
12.13309
31
0
39
0
210
0
220
0
230
1
0
LINE
5
B2
100
AcDbEntity
8
1
62
256
6
ByLayer
370
13
48
1
60
0
100
AcDbLine
10
13.894338
20
37.944501
30
0
11
13.894338
21
12.6576
31
0
39
0
210
0
220
0
230
1
0
LINE
5
B3
100
AcDbEntity
8
1
62
256
6
ByLayer
370
13
48
1
60
0
100
AcDbLine
10
10.105662
20
-12.6576
30
0
11
10.105662
21
-37.944501
31
0
39
0
210
0
220
0
230
1
0
LINE
5
B4
100
AcDbEntity
8
1
62
256
6
ByLayer
370
13
48
1
60
0
100
AcDbLine
10
10.538675
20
-12.13309
30
0
11
10.538675
21
-38.115458
31
0
39
0
210
0
220
0
230
1
0
LINE
5
B5
100
AcDbEntity
8
1
62
256
6
ByLayer
370
18
48
1
60
0
100
AcDbLine
10
13.461325
20
12.13309
30
0
11
10.538675
21
12.13309
31
0
39
0
210
0
220
0
230
1
0
LINE
5
B6
100
AcDbEntity
8
1
62
256
6
ByLayer
370
18
48
1
60
0
100
AcDbLine
10
10.538675
20
38.115458
30
0
11
13.461325
21
38.115458
31
0
39
0
210
0
220
0
230
1
0
LINE
5
B7
100
AcDbEntity
8
1
62
256
6
ByLayer
370
18
48
1
60
0
100
AcDbLine
10
10.538675
20
-12.13309
30
0
11
13.461325
21
-12.13309
31
0
39
0
210
0
220
0
230
1
0
LINE
5
B8
100
AcDbEntity
8
1
62
256
6
ByLayer
370
18
48
1
60
0
100
AcDbLine
10
13.461325
20
-38.115458
30
0
11
10.538675
21
-38.115458
31
0
39
0
210
0
220
0
230
1
0
LINE
5
B9
100
AcDbEntity
8
1
62
256
6
ByLayer
370
18
48
1
60
0
100
AcDbLine
10
30
20
39.5
30
0
11
30
21
-39.5
31
0
39
0
210
0
220
0
230
1
0
LINE
5
BA
100
AcDbEntity
8
1
62
256
6
ByLayer
370
13
48
1
60
0
100
AcDbLine
10
29.5
20
40
30
0
11
29.5
21
-40
31
0
39
0
210
0
220
0
230
1
0
LINE
5
BB
100
AcDbEntity
8
1
62
256
6
ByLayer
370
18
48
1
60
0
100
AcDbLine
10
0.3
20
-40
30
0
11
0.3
21
40
31
0
39
0
210
0
220
0
230
1
0
LINE
5
BC
100
AcDbEntity
8
1
62
256
6
ByLayer
370
18
48
1
60
0
100
AcDbLine
10
0
20
-39.7
30
0
11
0
21
39.7
31
0
39
0
210
0
220
0
230
1
0
LINE
5
BD
100
AcDbEntity
8
SK1
62
256
6
ByLayer
370
18
48
1
60
0
100
AcDbLine
10
-0.2
20
-6.552277
30
0
11
-0.2
21
-28.683485
31
0
39
0
210
0
220
0
230
1
0
LINE
5
BF
100
AcDbEntity
8
SK1
62
256
6
ByLayer
370
18
48
1
60
0
100
AcDbLine
10
-0.2
20
28.683485
30
0
11
-0.2
21
6.552279
31
0
39
0
210
0
220
0
230
1
0
LINE
5
C0
100
AcDbEntity
8
SK1
62
256
6
ByLayer
370
13
48
1
60
0
100
AcDbLine
10
-1.307107
20
4.393309
30
0
11
-1.307107
21
-4.393312
31
0
39
0
210
0
220
0
230
1
0
LINE
5
C1
100
AcDbEntity
8
1
62
256
6
ByLayer
370
13
48
1
60
0
100
AcDbLine
10
452.8
20
3.100505
30
0
11
452.8
21
0.100505
31
0
39
0
210
0
220
0
230
1
0
LINE
5
C2
100
AcDbEntity
8
1
62
256
6
ByLayer
370
13
48
1
60
0
100
AcDbLine
10
452.8
20
0.100505
30
0
11
452.8
21
-2.899495
31
0
39
0
210
0
220
0
230
1
0
LINE
5
C3
100
AcDbEntity
8
1
62
256
6
ByLayer
370
18
48
1
60
0
100
AcDbLine
10
459
20
-4.299495
30
0
11
459
21
0.100505
31
0
39
0
210
0
220
0
230
1
0
LINE
5
C4
100
AcDbEntity
8
1
62
256
6
ByLayer
370
18
48
1
60
0
100
AcDbLine
10
459
20
0.100505
30
0
11
459
21
4.500505
31
0
39
0
210
0
220
0
230
1
0
LINE
5
C5
100
AcDbEntity
8
1
62
256
6
ByLayer
370
13
48
1
60
0
100
AcDbLine
10
458.4
20
5.100505
30
0
11
458.4
21
0.100505
31
0
39
0
210
0
220
0
230
1
0
LINE
5
C6
100
AcDbEntity
8
1
62
256
6
ByLayer
370
13
48
1
60
0
100
AcDbLine
10
458.4
20
0.100505
30
0
11
458.4
21
-4.899495
31
0
39
0
210
0
220
0
230
1
0
LINE
5
C7
100
AcDbEntity
8
1
62
256
6
ByLayer
370
18
48
1
60
0
100
AcDbLine
10
453
20
-4.899495
30
0
11
453
21
0.100505
31
0
39
0
210
0
220
0
230
1
0
LINE
5
C8
100
AcDbEntity
8
1
62
256
6
ByLayer
370
18
48
1
60
0
100
AcDbLine
10
453
20
0.100505
30
0
11
453
21
5.100505
31
0
39
0
210
0
220
0
230
1
0
LINE
5
C9
100
AcDbEntity
8
1
62
256
6
ByLayer
370
18
48
1
60
0
100
AcDbLine
10
448.32476
20
28.887542
30
0
11
448.32476
21
28.976857
31
0
39
0
210
0
220
0
230
1
0
LINE
5
CA
100
AcDbEntity
8
1
62
256
6
ByLayer
370
18
48
1
60
0
100
AcDbLine
10
448.32476
20
-8.976857
30
0
11
448.32476
21
-8.887542
31
0
39
0
210
0
220
0
230
1
0
LINE
5
CB
100
AcDbEntity
8
1
62
256
6
ByLayer
370
13
48
1
60
0
100
AcDbLine
10
447.650481
20
-9.629489
30
0
11
447.650481
21
-9.602807
31
0
39
0
210
0
220
0
230
1
0
LINE
5
CC
100
AcDbEntity
8
1
62
256
6
ByLayer
370
13
48
1
60
0
100
AcDbLine
10
447.650481
20
29.602807
30
0
11
447.650481
21
29.629489
31
0
39
0
210
0
220
0
230
1
0
LINE
5
CD
100
AcDbEntity
8
1
62
256
6
ByLayer
370
18
48
1
60
0
100
AcDbLine
10
448.32476
20
28.662842
30
0
11
448.32476
21
28.842999
31
0
39
0
210
0
220
0
230
1
0
LINE
5
CE
100
AcDbEntity
8
1
62
256
6
ByLayer
370
18
48
1
60
0
100
AcDbLine
10
448.32476
20
-8.842999
30
0
11
448.32476
21
-8.662842
31
0
39
0
210
0
220
0
230
1
0
LINE
5
CF
100
AcDbEntity
8
1
62
256
6
ByLayer
370
13
48
1
60
0
100
AcDbLine
10
447.650481
20
-9.470143
30
0
11
447.650481
21
-9.416627
31
0
39
0
210
0
220
0
230
1
0
LINE
5
D0
100
AcDbEntity
8
1
62
256
6
ByLayer
370
13
48
1
60
0
100
AcDbLine
10
447.650481
20
29.416627
30
0
11
447.650481
21
29.470143
31
0
39
0
210
0
220
0
230
1
0
LINE
5
D1
100
AcDbEntity
8
1
62
256
6
ByLayer
370
18
48
1
60
0
100
AcDbLine
10
448.32476
20
-8.587525
30
0
11
448.32476
21
-8.31313
31
0
39
0
210
0
220
0
230
1
0
LINE
5
D2
100
AcDbEntity
8
1
62
256
6
ByLayer
370
18
48
1
60
0
100
AcDbLine
10
448.32476
20
28.31313
30
0
11
448.32476
21
28.587525
31
0
39
0
210
0
220
0
230
1
0
LINE
5
D3
100
AcDbEntity
8
1
62
256
6
ByLayer
370
13
48
1
60
0
100
AcDbLine
10
447.650481
20
29.111162
30
0
11
447.650481
21
29.192605
31
0
39
0
210
0
220
0
230
1
0
LINE
5
D4
100
AcDbEntity
8
1
62
256
6
ByLayer
370
13
48
1
60
0
100
AcDbLine
10
447.650481
20
-9.192605
30
0
11
447.650481
21
-9.111162
31
0
39
0
210
0
220
0
230
1
0
LINE
5
D5
100
AcDbEntity
8
1
62
256
6
ByLayer
370
18
48
1
60
0
100
AcDbLine
10
448.32476
20
-8.205318
30
0
11
448.32476
21
-7.830489
31
0
39
0
210
0
220
0
230
1
0
LINE
5
D6
100
AcDbEntity
8
1
62
256
6
ByLayer
370
18
48
1
60
0
100
AcDbLine
10
448.32476
20
27.830489
30
0
11
448.32476
21
28.205318
31
0
39
0
210
0
220
0
230
1
0
LINE
5
D7
100
AcDbEntity
8
1
62
256
6
ByLayer
370
13
48
1
60
0
100
AcDbLine
10
447.650481
20
-8.791639
30
0
11
447.650481
21
-8.680651
31
0
39
0
210
0
220
0
230
1
0
LINE
5
D8
100
AcDbEntity
8
1
62
256
6
ByLayer
370
13
48
1
60
0
100
AcDbLine
10
447.650481
20
28.680651
30
0
11
447.650481
21
28.791639
31
0
39
0
210
0
220
0
230
1
0
LINE
5
D9
100
AcDbEntity
8
1
62
256
6
ByLayer
370
18
48
1
60
0
100
AcDbLine
10
448.32476
20
-7.688163
30
0
11
448.32476
21
-7.204449
31
0
39
0
210
0
220
0
230
1
0
LINE
5
DA
100
AcDbEntity
8
1
62
256
6
ByLayer
370
18
48
1
60
0
100
AcDbLine
10
448.32476
20
27.204449
30
0
11
448.32476
21
27.688163
31
0
39
0
210
0
220
0
230
1
0
LINE
5
DB
100
AcDbEntity
8
1
62
256
6
ByLayer
370
13
48
1
60
0
100
AcDbLine
10
447.650481
20
-8.259116
30
0
11
447.650481
21
-8.116188
31
0
39
0
210
0
220
0
230
1
0
LINE
5
DC
100
AcDbEntity
8
1
62
256
6
ByLayer
370
13
48
1
60
0
100
AcDbLine
10
447.650481
20
28.116188
30
0
11
447.650481
21
28.259116
31
0
39
0
210
0
220
0
230
1
0
LINE
5
DD
100
AcDbEntity
8
1
62
256
6
ByLayer
370
18
48
1
60
0
100
AcDbLine
10
448.32476
20
26.418191
30
0
11
448.32476
21
27.023766
31
0
39
0
210
0
220
0
230
1
0
LINE
5
DE
100
AcDbEntity
8
1
62
256
6
ByLayer
370
18
48
1
60
0
100
AcDbLine
10
448.32476
20
-7.023766
30
0
11
448.32476
21
-6.418191
31
0
39
0
210
0
220
0
230
1
0
LINE
5
DF
100
AcDbEntity
8
1
62
256
6
ByLayer
370
13
48
1
60
0
100
AcDbLine
10
447.650481
20
27.404844
30
0
11
447.650481
21
27.583086
31
0
39
0
210
0
220
0
230
1
0
LINE
5
E0
100
AcDbEntity
8
1
62
256
6
ByLayer
370
13
48
1
60
0
100
AcDbLine
10
447.650481
20
-7.583086
30
0
11
447.650481
21
-7.404844
31
0
39
0
210
0
220
0
230
1
0
LINE
5
E1
100
AcDbEntity
8
1
62
256
6
ByLayer
370
18
48
1
60
0
100
AcDbLine
10
448.32476
20
-6.194014
30
0
11
448.32476
21
-5.447336
31
0
39
0
210
0
220
0
230
1
0
LINE
5
E2
100
AcDbEntity
8
1
62
256
6
ByLayer
370
18
48
1
60
0
100
AcDbLine
10
448.32476
20
25.447336
30
0
11
448.32476
21
26.194014
31
0
39
0
210
0
220
0
230
1
0
LINE
5
E3
100
AcDbEntity
8
1
62
256
6
ByLayer
370
13
48
1
60
0
100
AcDbLine
10
447.650481
20
-6.74618
30
0
11
447.650481
21
-6.527523
31
0
39
0
210
0
220
0
230
1
0
LINE
5
E4
100
AcDbEntity
8
1
62
256
6
ByLayer
370
13
48
1
60
0
100
AcDbLine
10
447.650481
20
26.527523
30
0
11
447.650481
21
26.74618
31
0
39
0
210
0
220
0
230
1
0
LINE
5
E5
100
AcDbEntity
8
1
62
256
6
ByLayer
370
18
48
1
60
0
100
AcDbLine
10
448.32476
20
24.254246
30
0
11
448.32476
21
25.171803
31
0
39
0
210
0
220
0
230
1
0
LINE
5
E6
100
AcDbEntity
8
1
62
256
6
ByLayer
370
18
48
1
60
0
100
AcDbLine
10
448.32476
20
-5.171803
30
0
11
448.32476
21
-4.254246
31
0
39
0
210
0
220
0
230
1
0
LINE
5
E7
100
AcDbEntity
8
1
62
256
6
ByLayer
370
13
48
1
60
0
100
AcDbLine
10
447.650481
20
-5.722727
30
0
11
447.650481
21
-5.456027
31
0
39
0
210
0
220
0
230
1
0
LINE
5
E8
100
AcDbEntity
8
1
62
256
6
ByLayer
370
13
48
1
60
0
100
AcDbLine
10
447.650481
20
25.456027
30
0
11
447.650481
21
25.722727
31
0
39
0
210
0
220
0
230
1
0
LINE
5
E9
100
AcDbEntity
8
1
62
256
6
ByLayer
370
18
48
1
60
0
100
AcDbLine
10
448.32476
20
22.776776
30
0
11
448.32476
21
23.91478
31
0
39
0
210
0
220
0
230
1
0
LINE
5
EA
100
AcDbEntity
8
1
62
256
6
ByLayer
370
18
48
1
60
0
100
AcDbLine
10
448.32476
20
-3.91478
30
0
11
448.32476
21
-2.776776
31
0
39
0
210
0
220
0
230
1
0
LINE
5
EB
100
AcDbEntity
8
1
62
256
6
ByLayer
370
13
48
1
60
0
100
AcDbLine
10
447.650481
20
-4.473209
30
0
11
447.650481
21
-4.146205
31
0
39
0
210
0
220
0
230
1
0
LINE
5
EC
100
AcDbEntity
8
1
62
256
6
ByLayer
370
13
48
1
60
0
100
AcDbLine
10
447.650481
20
24.146205
30
0
11
447.650481
21
24.473209
31
0
39
0
210
0
220
0
230
1
0
LINE
5
ED
100
AcDbEntity
8
1
62
256
6
ByLayer
370
18
48
1
60
0
100
AcDbLine
10
448.32476
20
-2.351461
30
0
11
448.32476
21
-0.899779
31
0
39
0
210
0
220
0
230
1
0
LINE
5
EE
100
AcDbEntity
8
1
62
256
6
ByLayer
370
18
48
1
60
0
100
AcDbLine
10
448.32476
20
20.899779
30
0
11
448.32476
21
22.351461
31
0
39
0
210
0
220
0
230
1
0
LINE
5
EF
100
AcDbEntity
8
1
62
256
6
ByLayer
370
13
48
1
60
0
100
AcDbLine
10
447.650481
20
-2.932262
30
0
11
447.650481
21
-2.523683
31
0
39
0
210
0
220
0
230
1
0
LINE
5
F0
100
AcDbEntity
8
1
62
256
6
ByLayer
370
13
48
1
60
0
100
AcDbLine
10
447.650481
20
22.523683
30
0
11
447.650481
21
22.932262
31
0
39
0
210
0
220
0
230
1
0
LINE
5
F1
100
AcDbEntity
8
1
62
256
6
ByLayer
370
18
48
1
60
0
100
AcDbLine
10
448.32476
20
-0.343892
30
0
11
448.32476
21
1.641166
31
0
39
0
210
0
220
0
230
1
0
LINE
5
F2
100
AcDbEntity
8
1
62
256
6
ByLayer
370
18
48
1
60
0
100
AcDbLine
10
448.32476
20
18.358834
30
0
11
448.32476
21
20.343892
31
0
39
0
210
0
220
0
230
1
0
LINE
5
F3
100
AcDbEntity
8
1
62
256
6
ByLayer
370
13
48
1
60
0
100
AcDbLine
10
447.650481
20
-0.977842
30
0
11
447.650481
21
-0.444044
31
0
39
0
210
0
220
0
230
1
0
LINE
5
F4
100
AcDbEntity
8
1
62
256
6
ByLayer
370
13
48
1
60
0
100
AcDbLine
10
447.650481
20
20.444044
30
0
11
447.650481
21
20.977842
31
0
39
0
210
0
220
0
230
1
0
LINE
5
F5
100
AcDbEntity
8
1
62
256
6
ByLayer
370
18
48
1
60
0
100
AcDbLine
10
448.32476
20
2.454565
30
0
11
448.32476
21
5.946215
31
0
39
0
210
0
220
0
230
1
0
LINE
5
F6
100
AcDbEntity
8
1
62
256
6
ByLayer
370
18
48
1
60
0
100
AcDbLine
10
448.32476
20
14.053785
30
0
11
448.32476
21
17.545435
31
0
39
0
210
0
220
0
230
1
0
LINE
5
F7
100
AcDbEntity
8
1
62
256
6
ByLayer
370
13
48
1
60
0
100
AcDbLine
10
447.650481
20
1.676382
30
0
11
447.650481
21
2.462704
31
0
39
0
210
0
220
0
230
1
0
LINE
5
F8
100
AcDbEntity
8
1
62
256
6
ByLayer
370
13
48
1
60
0
100
AcDbLine
10
447.650481
20
17.537296
30
0
11
447.650481
21
18.323618
31
0
39
0
210
0
220
0
230
1
0
LINE
5
F9
100
AcDbEntity
8
1
62
256
6
ByLayer
370
18
48
1
60
0
100
AcDbLine
10
448.32476
20
8.460164
30
0
11
448.32476
21
11.539836
31
0
39
0
210
0
220
0
230
1
0
LINE
5
FA
100
AcDbEntity
8
1
62
256
6
ByLayer
370
13
48
1
60
0
100
AcDbLine
10
447.650481
20
6.318664
30
0
11
447.650481
21
9.790509
31
0
39
0
210
0
220
0
230
1
0
LINE
5
FB
100
AcDbEntity
8
1
62
256
6
ByLayer
370
13
48
1
60
0
100
AcDbLine
10
447.650481
20
10.209491
30
0
11
447.650481
21
13.681336
31
0
39
0
210
0
220
0
230
1
0
LINE
5
FC
100
AcDbEntity
8
1
62
256
6
ByLayer
370
18
48
1
60
0
100
AcDbLine
10
448.32476
20
-8.976857
30
0
11
448.32476
21
-8.991672
31
0
39
0
210
0
220
0
230
1
0
LINE
5
FD
100
AcDbEntity
8
1
62
256
6
ByLayer
370
18
48
1
60
0
100
AcDbLine
10
448.32476
20
-8.842999
30
0
11
448.32476
21
-8.887723
31
0
39
0
210
0
220
0
230
1
0
LINE
5
FE
100
AcDbEntity
8
1
62
256
6
ByLayer
370
18
48
1
60
0
100
AcDbLine
10
448.32476
20
-8.587525
30
0
11
448.32476
21
-8.663027
31
0
39
0
210
0
220
0
230
1
0
LINE
5
FF
100
AcDbEntity
8
1
62
256
6
ByLayer
370
18
48
1
60
0
100
AcDbLine
10
448.32476
20
-8.205318
30
0
11
448.32476
21
-8.31314
31
0
39
0
210
0
220
0
230
1
0
LINE
5
100
100
AcDbEntity
8
1
62
256
6
ByLayer
370
18
48
1
60
0
100
AcDbLine
10
448.32476
20
-7.688163
30
0
11
448.32476
21
-7.830692
31
0
39
0
210
0
220
0
230
1
0
LINE
5
101
100
AcDbEntity
8
1
62
256
6
ByLayer
370
18
48
1
60
0
100
AcDbLine
10
448.32476
20
-7.023766
30
0
11
448.32476
21
-7.204537
31
0
39
0
210
0
220
0
230
1
0
LINE
5
102
100
AcDbEntity
8
1
62
256
6
ByLayer
370
18
48
1
60
0
100
AcDbLine
10
448.32476
20
-6.194014
30
0
11
448.32476
21
-6.41824
31
0
39
0
210
0
220
0
230
1
0
LINE
5
103
100
AcDbEntity
8
1
62
256
6
ByLayer
370
18
48
1
60
0
100
AcDbLine
10
448.32476
20
-5.171803
30
0
11
448.32476
21
-5.447365
31
0
39
0
210
0
220
0
230
1
0
LINE
5
104
100
AcDbEntity
8
1
62
256
6
ByLayer
370
18
48
1
60
0
100
AcDbLine
10
448.32476
20
-3.91478
30
0
11
448.32476
21
-4.254248
31
0
39
0
210
0
220
0
230
1
0
LINE
5
105
100
AcDbEntity
8
1
62
256
6
ByLayer
370
18
48
1
60
0
100
AcDbLine
10
448.32476
20
-2.351461
30
0
11
448.32476
21
-2.776779
31
0
39
0
210
0
220
0
230
1
0
LINE
5
106
100
AcDbEntity
8
1
62
256
6
ByLayer
370
18
48
1
60
0
100
AcDbLine
10
448.32476
20
-0.343892
30
0
11
448.32476
21
-0.899935
31
0
39
0
210
0
220
0
230
1
0
LINE
5
107
100
AcDbEntity
8
1
62
256
6
ByLayer
370
18
48
1
60
0
100
AcDbLine
10
448.32476
20
2.454565
30
0
11
448.32476
21
1.641107
31
0
39
0
210
0
220
0
230
1
0
LINE
5
108
100
AcDbEntity
8
1
62
256
6
ByLayer
370
18
48
1
60
0
100
AcDbLine
10
448.32476
20
8.460164
30
0
11
448.32476
21
5.946163
31
0
39
0
210
0
220
0
230
1
0
LINE
5
109
100
AcDbEntity
8
1
62
256
6
ByLayer
370
18
48
1
60
0
100
AcDbLine
10
448.32476
20
14.053837
30
0
11
448.32476
21
11.539836
31
0
39
0
210
0
220
0
230
1
0
LINE
5
10A
100
AcDbEntity
8
1
62
256
6
ByLayer
370
18
48
1
60
0
100
AcDbLine
10
448.32476
20
18.358893
30
0
11
448.32476
21
17.545435
31
0
39
0
210
0
220
0
230
1
0
LINE
5
10B
100
AcDbEntity
8
1
62
256
6
ByLayer
370
18
48
1
60
0
100
AcDbLine
10
448.32476
20
20.899935
30
0
11
448.32476
21
20.343892
31
0
39
0
210
0
220
0
230
1
0
LINE
5
10C
100
AcDbEntity
8
1
62
256
6
ByLayer
370
18
48
1
60
0
100
AcDbLine
10
448.32476
20
22.776779
30
0
11
448.32476
21
22.351461
31
0
39
0
210
0
220
0
230
1
0
LINE
5
10D
100
AcDbEntity
8
1
62
256
6
ByLayer
370
18
48
1
60
0
100
AcDbLine
10
448.32476
20
24.254248
30
0
11
448.32476
21
23.91478
31
0
39
0
210
0
220
0
230
1
0
LINE
5
10E
100
AcDbEntity
8
1
62
256
6
ByLayer
370
18
48
1
60
0
100
AcDbLine
10
448.32476
20
25.447365
30
0
11
448.32476
21
25.171803
31
0
39
0
210
0
220
0
230
1
0
LINE
5
10F
100
AcDbEntity
8
1
62
256
6
ByLayer
370
18
48
1
60
0
100
AcDbLine
10
448.32476
20
26.41824
30
0
11
448.32476
21
26.194014
31
0
39
0
210
0
220
0
230
1
0
LINE
5
110
100
AcDbEntity
8
1
62
256
6
ByLayer
370
18
48
1
60
0
100
AcDbLine
10
448.32476
20
27.204537
30
0
11
448.32476
21
27.023766
31
0
39
0
210
0
220
0
230
1
0
LINE
5
111
100
AcDbEntity
8
1
62
256
6
ByLayer
370
18
48
1
60
0
100
AcDbLine
10
448.32476
20
27.830692
30
0
11
448.32476
21
27.688163
31
0
39
0
210
0
220
0
230
1
0
LINE
5
112
100
AcDbEntity
8
1
62
256
6
ByLayer
370
18
48
1
60
0
100
AcDbLine
10
448.32476
20
28.31314
30
0
11
448.32476
21
28.205318
31
0
39
0
210
0
220
0
230
1
0
LINE
5
113
100
AcDbEntity
8
1
62
256
6
ByLayer
370
18
48
1
60
0
100
AcDbLine
10
448.32476
20
28.663027
30
0
11
448.32476
21
28.587525
31
0
39
0
210
0
220
0
230
1
0
LINE
5
114
100
AcDbEntity
8
1
62
256
6
ByLayer
370
18
48
1
60
0
100
AcDbLine
10
448.32476
20
28.887723
30
0
11
448.32476
21
28.842999
31
0
39
0
210
0
220
0
230
1
0
LINE
5
115
100
AcDbEntity
8
1
62
256
6
ByLayer
370
18
48
1
60
0
100
AcDbLine
10
448.32476
20
28.991672
30
0
11
448.32476
21
28.976857
31
0
39
0
210
0
220
0
230
1
0
LINE
5
116
100
AcDbEntity
8
1
62
256
6
ByLayer
370
18
48
1
60
0
100
AcDbLine
10
447.32476
20
-10
30
0
11
447.32476
21
30
31
0
39
0
210
0
220
0
230
1
0
LINE
5
117
100
AcDbEntity
8
1
62
256
6
ByLayer
370
13
48
1
60
0
100
AcDbLine
10
446.5
20
-10
30
0
11
446.5
21
28.52439
31
0
39
0
210
0
220
0
230
1
0
LINE
5
118
100
AcDbEntity
8
1
62
256
6
ByLayer
370
18
48
1
60
0
100
AcDbLine
10
444
20
29.8
30
0
11
444
21
-29.8
31
0
39
0
210
0
220
0
230
1
0
LINE
5
119
100
AcDbEntity
8
1
62
256
6
ByLayer
370
18
48
1
60
0
100
AcDbLine
10
446
20
-29.5
30
0
11
446
21
27.5
31
0
39
0
210
0
220
0
230
1
0
LINE
5
11A
100
AcDbEntity
8
1
62
256
6
ByLayer
370
13
48
1
60
0
100
AcDbLine
10
444.2
20
30
30
0
11
444.2
21
-30
31
0
39
0
210
0
220
0
230
1
0
LINE
5
11B
100
AcDbEntity
8
1
62
256
6
ByLayer
370
18
48
1
60
0
100
AcDbLine
10
445.5
20
-30
30
0
11
445.5
21
27.966102
31
0
39
0
210
0
220
0
230
1
0
LINE
5
11C
100
AcDbEntity
8
1
62
256
6
ByLayer
370
13
48
1
60
0
100
AcDbLine
10
452.8
20
22.899495
30
0
11
452.8
21
16.899495
31
0
39
0
210
0
220
0
230
1
0
LINE
5
11D
100
AcDbEntity
8
1
62
256
6
ByLayer
370
18
48
1
60
0
100
AcDbLine
10
453
20
24.899495
30
0
11
453
21
14.899495
31
0
39
0
210
0
220
0
230
1
0
LINE
5
11E
100
AcDbEntity
8
1
62
256
6
ByLayer
370
13
48
1
60
0
100
AcDbLine
10
458.4
20
24.899495
30
0
11
458.4
21
14.899495
31
0
39
0
210
0
220
0
230
1
0
LINE
5
11F
100
AcDbEntity
8
1
62
256
6
ByLayer
370
18
48
1
60
0
100
AcDbLine
10
459
20
24.299495
30
0
11
459
21
15.499495
31
0
39
0
210
0
220
0
230
1
0
LINE
5
120
100
AcDbEntity
8
1
62
256
6
ByLayer
370
18
48
1
60
0
100
AcDbLine
10
443.8
20
30
30
0
11
36
21
30
31
0
39
0
210
0
220
0
230
1
0
LINE
5
121
100
AcDbEntity
8
1
62
256
6
ByLayer
370
18
48
1
60
0
100
AcDbLine
10
36
20
-30
30
0
11
443.8
21
-30
31
0
39
0
210
0
220
0
230
1
0
LINE
5
122
100
AcDbEntity
8
1
62
256
6
ByLayer
370
18
48
1
60
0
100
AcDbLine
10
29.5
20
40
30
0
11
0.3
21
40
31
0
39
0
210
0
220
0
230
1
0
LINE
5
123
100
AcDbEntity
8
1
62
256
6
ByLayer
370
18
48
1
60
0
100
AcDbLine
10
0.3
20
-40
30
0
11
29.5
21
-40
31
0
39
0
210
0
220
0
230
1
0
LINE
5
124
100
AcDbEntity
8
1
62
256
6
ByLayer
370
18
48
1
60
0
100
AcDbLine
10
0
20
-39.7
30
0
11
0.3
21
-40
31
0
39
0
210
0
220
0
230
1
0
LINE
5
125
100
AcDbEntity
8
1
62
256
6
ByLayer
370
18
48
1
60
0
100
AcDbLine
10
0.3
20
40
30
0
11
0
21
39.7
31
0
39
0
210
0
220
0
230
1
0
LINE
5
126
100
AcDbEntity
8
1
62
256
6
ByLayer
370
18
48
1
60
0
100
AcDbLine
10
448.324609
20
-2.899495
30
0
11
452.8
21
-2.899495
31
0
39
0
210
0
220
0
230
1
0
LINE
5
127
100
AcDbEntity
8
1
62
256
6
ByLayer
370
18
48
1
60
0
100
AcDbLine
10
452.8
20
3.100505
30
0
11
448.324609
21
3.100505
31
0
39
0
210
0
220
0
230
1
0
LINE
5
128
100
AcDbEntity
8
1
62
256
6
ByLayer
370
18
48
1
60
0
100
AcDbLine
10
453
20
-4.899495
30
0
11
458.4
21
-4.899495
31
0
39
0
210
0
220
0
230
1
0
LINE
5
129
100
AcDbEntity
8
1
62
256
6
ByLayer
370
18
48
1
60
0
100
AcDbLine
10
458.4
20
5.100505
30
0
11
453
21
5.100505
31
0
39
0
210
0
220
0
230
1
0
LINE
5
12A
100
AcDbEntity
8
1
62
256
6
ByLayer
370
18
48
1
60
0
100
AcDbLine
10
447.552123
20
29.772637
30
0
11
447.32476
21
30
31
0
39
0
210
0
220
0
230
1
0
LINE
5
12B
100
AcDbEntity
8
1
62
256
6
ByLayer
370
18
48
1
60
0
100
AcDbLine
10
447.32476
20
-10
30
0
11
447.552123
21
-9.772637
31
0
39
0
210
0
220
0
230
1
0
LINE
5
12C
100
AcDbEntity
8
1
62
256
6
ByLayer
370
18
48
1
60
0
100
AcDbLine
10
446.5
20
-10
30
0
11
447.32476
21
-10
31
0
39
0
210
0
220
0
230
1
0
LINE
5
12D
100
AcDbEntity
8
1
62
256
6
ByLayer
370
18
48
1
60
0
100
AcDbLine
10
447.32476
20
30
30
0
11
446
21
30
31
0
39
0
210
0
220
0
230
1
0
LINE
5
12E
100
AcDbEntity
8
1
62
256
6
ByLayer
370
18
48
1
60
0
100
AcDbLine
10
445.5
20
-30
30
0
11
446
21
-29.5
31
0
39
0
210
0
220
0
230
1
0
LINE
5
12F
100
AcDbEntity
8
1
62
256
6
ByLayer
370
18
48
1
60
0
100
AcDbLine
10
446.02
20
30
30
0
11
444.2
21
30
31
0
39
0
210
0
220
0
230
1
0
LINE
5
130
100
AcDbEntity
8
1
62
256
6
ByLayer
370
18
48
1
60
0
100
AcDbLine
10
444.2
20
-30
30
0
11
445.5
21
-30
31
0
39
0
210
0
220
0
230
1
0
LINE
5
131
100
AcDbEntity
8
1
62
256
6
ByLayer
370
18
48
1
60
0
100
AcDbLine
10
448.324609
20
16.899495
30
0
11
452.8
21
16.899495
31
0
39
0
210
0
220
0
230
1
0
LINE
5
132
100
AcDbEntity
8
1
62
256
6
ByLayer
370
18
48
1
60
0
100
AcDbLine
10
452.8
20
22.899495
30
0
11
448.324609
21
22.899495
31
0
39
0
210
0
220
0
230
1
0
LINE
5
133
100
AcDbEntity
8
1
62
256
6
ByLayer
370
18
48
1
60
0
100
AcDbLine
10
453
20
14.899495
30
0
11
458.4
21
14.899495
31
0
39
0
210
0
220
0
230
1
0
LINE
5
134
100
AcDbEntity
8
1
62
256
6
ByLayer
370
18
48
1
60
0
100
AcDbLine
10
458.4
20
24.899495
30
0
11
453
21
24.899495
31
0
39
0
210
0
220
0
230
1
0
LINE
5
135
100
AcDbEntity
8
1
62
256
6
ByLayer
370
13
48
0.05
60
0
100
AcDbLine
10
450.3
20
0
30
0
11
-6.5
21
0
31
0
39
0
210
0
220
0
230
1
0
LINE
5
136
100
AcDbEntity
8
SK2
62
256
6
ByLayer
370
18
48
1
60
0
100
AcDbLine
10
-54.6
20
-40
30
0
11
-54.6
21
40
31
0
39
0
210
0
220
0
230
1
0
LINE
5
138
100
AcDbEntity
8
SK2
62
256
6
ByLayer
370
18
48
1
60
0
100
AcDbLine
10
-1.2875
20
40
30
0
11
-56.6
21
40
31
0
39
0
210
0
220
0
230
1
0
LINE
5
139
100
AcDbEntity
8
SK2
62
256
6
ByLayer
370
18
48
1
60
0
100
AcDbLine
10
-1.2875
20
-40
30
0
11
-56.6
21
-40
31
0
39
0
210
0
220
0
230
1
0
LINE
5
13A
100
AcDbEntity
8
1
62
256
6
ByLayer
370
18
48
1
60
1
100
AcDbLine
10
-54.6
20
40
30
0
11
-54.139216
21
36.500002
31
0
39
0
210
0
220
0
230
1
0
LINE
5
13B
100
AcDbEntity
8
1
62
256
6
ByLayer
370
18
48
1
60
1
100
AcDbLine
10
-54.139216
20
36.500002
30
0
11
-55.060784
21
36.499998
31
0
39
0
210
0
220
0
230
1
0
LINE
5
13C
100
AcDbEntity
8
1
62
256
6
ByLayer
370
18
48
1
60
1
100
AcDbLine
10
-55.060784
20
36.499998
30
0
11
-54.6
21
40
31
0
39
0
210
0
220
0
230
1
0
LINE
5
13D
100
AcDbEntity
8
1
62
256
6
ByLayer
370
18
48
1
60
1
100
AcDbLine
10
-54.6
20
-40
30
0
11
-55.060784
21
-36.500002
31
0
39
0
210
0
220
0
230
1
0
LINE
5
13E
100
AcDbEntity
8
1
62
256
6
ByLayer
370
18
48
1
60
1
100
AcDbLine
10
-55.060784
20
-36.500002
30
0
11
-54.139216
21
-36.499998
31
0
39
0
210
0
220
0
230
1
0
LINE
5
13F
100
AcDbEntity
8
1
62
256
6
ByLayer
370
18
48
1
60
1
100
AcDbLine
10
-54.139216
20
-36.499998
30
0
11
-54.6
21
-40
31
0
39
0
210
0
220
0
230
1
0
LINE
5
140
100
AcDbEntity
8
SK2
62
256
6
ByLayer
370
18
48
1
60
0
100
AcDbLine
10
479.748181
20
-30
30
0
11
479.748181
21
30
31
0
39
0
210
0
220
0
230
1
0
LINE
5
141
100
AcDbEntity
8
SK2
62
256
6
ByLayer
370
18
48
1
60
0
100
AcDbLine
10
445.3875
20
30
30
0
11
481.748181
21
30
31
0
39
0
210
0
220
0
230
1
0
LINE
5
142
100
AcDbEntity
8
SK2
62
256
6
ByLayer
370
18
48
1
60
0
100
AcDbLine
10
445.3875
20
-30
30
0
11
481.748181
21
-30
31
0
39
0
210
0
220
0
230
1
0
LINE
5
143
100
AcDbEntity
8
1
62
256
6
ByLayer
370
18
48
1
60
1
100
AcDbLine
10
479.748181
20
30
30
0
11
480.208964
21
26.500002
31
0
39
0
210
0
220
0
230
1
0
LINE
5
144
100
AcDbEntity
8
1
62
256
6
ByLayer
370
18
48
1
60
1
100
AcDbLine
10
480.208964
20
26.500002
30
0
11
479.287397
21
26.499998
31
0
39
0
210
0
220
0
230
1
0
LINE
5
145
100
AcDbEntity
8
1
62
256
6
ByLayer
370
18
48
1
60
1
100
AcDbLine
10
479.287397
20
26.499998
30
0
11
479.748181
21
30
31
0
39
0
210
0
220
0
230
1
0
LINE
5
146
100
AcDbEntity
8
1
62
256
6
ByLayer
370
18
48
1
60
1
100
AcDbLine
10
479.748181
20
-30
30
0
11
479.287397
21
-26.500002
31
0
39
0
210
0
220
0
230
1
0
LINE
5
147
100
AcDbEntity
8
1
62
256
6
ByLayer
370
18
48
1
60
1
100
AcDbLine
10
479.287397
20
-26.500002
30
0
11
480.208964
21
-26.499998
31
0
39
0
210
0
220
0
230
1
0
LINE
5
148
100
AcDbEntity
8
1
62
256
6
ByLayer
370
18
48
1
60
1
100
AcDbLine
10
480.208964
20
-26.499998
30
0
11
479.748181
21
-30
31
0
39
0
210
0
220
0
230
1
0
LINE
5
149
100
AcDbEntity
8
SK2
62
256
6
ByLayer
370
13
48
1
60
0
100
AcDbLine
10
468.123181
20
30
30
0
11
468.123181
21
-19.299199
31
0
39
0
210
0
220
0
230
1
0
LINE
5
14A
100
AcDbEntity
8
SK2
62
256
6
ByLayer
370
13
48
1
60
0
100
AcDbLine
10
448.91226
20
-10
30
0
11
470.123181
21
-10
31
0
39
0
210
0
220
0
230
1
0
LINE
5
14B
100
AcDbEntity
8
SK2
62
256
6
ByLayer
370
13
48
1
60
0
100
AcDbLine
10
448.91226
20
30
30
0
11
470.123181
21
30
31
0
39
0
210
0
220
0
230
1
0
LINE
5
14C
100
AcDbEntity
8
1
62
256
6
ByLayer
370
18
48
1
60
1
100
AcDbLine
10
468.123181
20
-10
30
0
11
467.662397
21
-6.500002
31
0
39
0
210
0
220
0
230
1
0
LINE
5
14D
100
AcDbEntity
8
1
62
256
6
ByLayer
370
18
48
1
60
1
100
AcDbLine
10
467.662397
20
-6.500002
30
0
11
468.583964
21
-6.499998
31
0
39
0
210
0
220
0
230
1
0
LINE
5
14E
100
AcDbEntity
8
1
62
256
6
ByLayer
370
18
48
1
60
1
100
AcDbLine
10
468.583964
20
-6.499998
30
0
11
468.123181
21
-10
31
0
39
0
210
0
220
0
230
1
0
LINE
5
14F
100
AcDbEntity
8
1
62
256
6
ByLayer
370
18
48
1
60
1
100
AcDbLine
10
468.123181
20
30
30
0
11
468.583964
21
26.500002
31
0
39
0
210
0
220
0
230
1
0
LINE
5
150
100
AcDbEntity
8
1
62
256
6
ByLayer
370
18
48
1
60
1
100
AcDbLine
10
468.583964
20
26.500002
30
0
11
467.662397
21
26.499998
31
0
39
0
210
0
220
0
230
1
0
LINE
5
151
100
AcDbEntity
8
1
62
256
6
ByLayer
370
18
48
1
60
1
100
AcDbLine
10
467.662397
20
26.499998
30
0
11
468.123181
21
30
31
0
39
0
210
0
220
0
230
1
0
LINE
5
152
100
AcDbEntity
8
SK2
62
256
6
ByLayer
370
18
48
1
60
0
100
AcDbLine
10
0
20
45.6
30
0
11
448
21
45.6
31
0
39
0
210
0
220
0
230
1
0
LINE
5
153
100
AcDbEntity
8
SK2
62
256
6
ByLayer
370
18
48
1
60
0
100
AcDbLine
10
448
20
31.5875
30
0
11
448
21
47.6
31
0
39
0
210
0
220
0
230
1
0
LINE
5
154
100
AcDbEntity
8
SK2
62
256
6
ByLayer
370
18
48
1
60
0
100
AcDbLine
10
0
20
41.2875
30
0
11
0
21
47.6
31
0
39
0
210
0
220
0
230
1
0
LINE
5
155
100
AcDbEntity
8
1
62
256
6
ByLayer
370
18
48
1
60
1
100
AcDbLine
10
448
20
45.6
30
0
11
444.500002
21
45.139216
31
0
39
0
210
0
220
0
230
1
0
LINE
5
156
100
AcDbEntity
8
1
62
256
6
ByLayer
370
18
48
1
60
1
100
AcDbLine
10
444.500002
20
45.139216
30
0
11
444.499998
21
46.060784
31
0
39
0
210
0
220
0
230
1
0
LINE
5
157
100
AcDbEntity
8
1
62
256
6
ByLayer
370
18
48
1
60
1
100
AcDbLine
10
444.499998
20
46.060784
30
0
11
448
21
45.6
31
0
39
0
210
0
220
0
230
1
0
LINE
5
158
100
AcDbEntity
8
1
62
256
6
ByLayer
370
18
48
1
60
1
100
AcDbLine
10
0
20
45.6
30
0
11
3.499998
21
46.060784
31
0
39
0
210
0
220
0
230
1
0
LINE
5
159
100
AcDbEntity
8
1
62
256
6
ByLayer
370
18
48
1
60
1
100
AcDbLine
10
3.499998
20
46.060784
30
0
11
3.500002
21
45.139216
31
0
39
0
210
0
220
0
230
1
0
LINE
5
15A
100
AcDbEntity
8
1
62
256
6
ByLayer
370
18
48
1
60
1
100
AcDbLine
10
3.500002
20
45.139216
30
0
11
0
21
45.6
31
0
39
0
210
0
220
0
230
1
0
LINE
5
1EC
100
AcDbEntity
8
1
62
256
6
ByLayer
370
18
48
1
60
1
100
AcDbLine
10
-54.6
20
40
30
0
11
-54.139216
21
36.500002
31
0
39
0
210
0
220
0
230
1
0
LINE
5
1ED
100
AcDbEntity
8
1
62
256
6
ByLayer
370
18
48
1
60
1
100
AcDbLine
10
-54.139216
20
36.500002
30
0
11
-55.060784
21
36.499998
31
0
39
0
210
0
220
0
230
1
0
LINE
5
1EE
100
AcDbEntity
8
1
62
256
6
ByLayer
370
18
48
1
60
1
100
AcDbLine
10
-55.060784
20
36.499998
30
0
11
-54.6
21
40
31
0
39
0
210
0
220
0
230
1
0
LINE
5
1F0
100
AcDbEntity
8
1
62
256
6
ByLayer
370
18
48
1
60
1
100
AcDbLine
10
-54.6
20
-40
30
0
11
-55.060784
21
-36.500002
31
0
39
0
210
0
220
0
230
1
0
LINE
5
1F1
100
AcDbEntity
8
1
62
256
6
ByLayer
370
18
48
1
60
1
100
AcDbLine
10
-55.060784
20
-36.500002
30
0
11
-54.139216
21
-36.499998
31
0
39
0
210
0
220
0
230
1
0
LINE
5
1F2
100
AcDbEntity
8
1
62
256
6
ByLayer
370
18
48
1
60
1
100
AcDbLine
10
-54.139216
20
-36.499998
30
0
11
-54.6
21
-40
31
0
39
0
210
0
220
0
230
1
0
LINE
5
1F6
100
AcDbEntity
8
1
62
256
6
ByLayer
370
18
48
1
60
1
100
AcDbLine
10
479.748181
20
30
30
0
11
480.208964
21
26.500002
31
0
39
0
210
0
220
0
230
1
0
LINE
5
1F7
100
AcDbEntity
8
1
62
256
6
ByLayer
370
18
48
1
60
1
100
AcDbLine
10
480.208964
20
26.500002
30
0
11
479.287397
21
26.499998
31
0
39
0
210
0
220
0
230
1
0
LINE
5
1F8
100
AcDbEntity
8
1
62
256
6
ByLayer
370
18
48
1
60
1
100
AcDbLine
10
479.287397
20
26.499998
30
0
11
479.748181
21
30
31
0
39
0
210
0
220
0
230
1
0
LINE
5
1FA
100
AcDbEntity
8
1
62
256
6
ByLayer
370
18
48
1
60
1
100
AcDbLine
10
479.748181
20
-30
30
0
11
479.287397
21
-26.500002
31
0
39
0
210
0
220
0
230
1
0
LINE
5
1FB
100
AcDbEntity
8
1
62
256
6
ByLayer
370
18
48
1
60
1
100
AcDbLine
10
479.287397
20
-26.500002
30
0
11
480.208964
21
-26.499998
31
0
39
0
210
0
220
0
230
1
0
LINE
5
1FC
100
AcDbEntity
8
1
62
256
6
ByLayer
370
18
48
1
60
1
100
AcDbLine
10
480.208964
20
-26.499998
30
0
11
479.748181
21
-30
31
0
39
0
210
0
220
0
230
1
0
LINE
5
202
100
AcDbEntity
8
1
62
256
6
ByLayer
370
18
48
1
60
1
100
AcDbLine
10
468.123181
20
-10
30
0
11
467.662397
21
-6.500002
31
0
39
0
210
0
220
0
230
1
0
LINE
5
203
100
AcDbEntity
8
1
62
256
6
ByLayer
370
18
48
1
60
1
100
AcDbLine
10
467.662397
20
-6.500002
30
0
11
468.583964
21
-6.499998
31
0
39
0
210
0
220
0
230
1
0
LINE
5
204
100
AcDbEntity
8
1
62
256
6
ByLayer
370
18
48
1
60
1
100
AcDbLine
10
468.583964
20
-6.499998
30
0
11
468.123181
21
-10
31
0
39
0
210
0
220
0
230
1
0
LINE
5
206
100
AcDbEntity
8
1
62
256
6
ByLayer
370
18
48
1
60
1
100
AcDbLine
10
468.123181
20
30
30
0
11
468.583964
21
26.500002
31
0
39
0
210
0
220
0
230
1
0
LINE
5
207
100
AcDbEntity
8
1
62
256
6
ByLayer
370
18
48
1
60
1
100
AcDbLine
10
468.583964
20
26.500002
30
0
11
467.662397
21
26.499998
31
0
39
0
210
0
220
0
230
1
0
LINE
5
208
100
AcDbEntity
8
1
62
256
6
ByLayer
370
18
48
1
60
1
100
AcDbLine
10
467.662397
20
26.499998
30
0
11
468.123181
21
30
31
0
39
0
210
0
220
0
230
1
0
LINE
5
20B
100
AcDbEntity
8
1
62
256
6
ByLayer
370
18
48
1
60
1
100
AcDbLine
10
448
20
45.6
30
0
11
444.500002
21
45.139216
31
0
39
0
210
0
220
0
230
1
0
LINE
5
20C
100
AcDbEntity
8
1
62
256
6
ByLayer
370
18
48
1
60
1
100
AcDbLine
10
444.500002
20
45.139216
30
0
11
444.499998
21
46.060784
31
0
39
0
210
0
220
0
230
1
0
LINE
5
20D
100
AcDbEntity
8
1
62
256
6
ByLayer
370
18
48
1
60
1
100
AcDbLine
10
444.499998
20
46.060784
30
0
11
448
21
45.6
31
0
39
0
210
0
220
0
230
1
0
LINE
5
20F
100
AcDbEntity
8
1
62
256
6
ByLayer
370
18
48
1
60
1
100
AcDbLine
10
0
20
45.6
30
0
11
3.499998
21
46.060784
31
0
39
0
210
0
220
0
230
1
0
LINE
5
210
100
AcDbEntity
8
1
62
256
6
ByLayer
370
18
48
1
60
1
100
AcDbLine
10
3.499998
20
46.060784
30
0
11
3.500002
21
45.139216
31
0
39
0
210
0
220
0
230
1
0
LINE
5
211
100
AcDbEntity
8
1
62
256
6
ByLayer
370
18
48
1
60
1
100
AcDbLine
10
3.500002
20
45.139216
30
0
11
0
21
45.6
31
0
39
0
210
0
220
0
230
1
0
MTEXT
5
1E8
100
AcDbEntity
8
SK2
62
256
6
ByLayer
370
18
48
1
60
0
100
AcDbMText
10
-56.164634
20
-4.530622
30
0
210
0
220
0
230
1
1
%%c
40
3.5
41
0
44
1.084337
50
90
71
7
72
5
7
iso_b_vert
0
MTEXT
5
1EB
100
AcDbEntity
8
SK2
62
256
6
ByLayer
370
18
48
1
60
0
100
AcDbMText
10
-56.164634
20
2.442034
30
0
210
0
220
0
230
1
1
\W0.6740;80
40
3.5
41
0
44
1.084337
50
90
71
7
72
5
7
iso_b_vert
0
MTEXT
5
1F4
100
AcDbEntity
8
SK2
62
256
6
ByLayer
370
18
48
1
60
0
100
AcDbMText
10
478.183547
20
-4.530622
30
0
210
0
220
0
230
1
1
%%c
40
3.5
41
0
44
1.084337
50
90
71
7
72
5
7
iso_b_vert
0
MTEXT
5
1F5
100
AcDbEntity
8
SK2
62
256
6
ByLayer
370
18
48
1
60
0
100
AcDbMText
10
478.183547
20
2.442034
30
0
210
0
220
0
230
1
1
\W0.6740;60
40
3.5
41
0
44
1.084337
50
90
71
7
72
5
7
iso_b_vert
0
MTEXT
5
1FE
100
AcDbEntity
8
SK2
62
256
6
ByLayer
370
18
48
1
60
0
100
AcDbMText
10
465.902297
20
-3.392233
30
0
210
0
220
0
230
1
1
\W1.1313;{\H1.88x;)}
40
3.5
41
0
44
1.084337
50
90
71
7
72
5
7
iso_b_vert
0
MTEXT
5
1FF
100
AcDbEntity
8
SK2
62
256
6
ByLayer
370
18
48
1
60
0
100
AcDbMText
10
465.902297
20
-19.141699
30
0
210
0
220
0
230
1
1
\W1.1313;{\H1.88x;(}
40
3.5
41
0
44
1.084337
50
90
71
7
72
5
7
iso_b_vert
0
MTEXT
5
200
100
AcDbEntity
8
SK2
62
256
6
ByLayer
370
18
48
1
60
0
100
AcDbMText
10
465.902297
20
-14.914355
30
0
210
0
220
0
230
1
1
%%c
40
3.5
41
0
44
1.084337
50
90
71
7
72
5
7
iso_b_vert
0
MTEXT
5
201
100
AcDbEntity
8
SK2
62
256
6
ByLayer
370
18
48
1
60
0
100
AcDbMText
10
465.902297
20
-7.941699
30
0
210
0
220
0
230
1
1
\W0.7361;40
40
3.5
41
0
44
1.084337
50
90
71
7
72
5
7
iso_b_vert
0
MTEXT
5
20A
100
AcDbEntity
8
SK2
62
256
6
ByLayer
370
18
48
1
60
0
100
AcDbMText
10
220.418767
20
46.632634
30
0
210
0
220
0
230
1
1
\W0.7887;448
40
3.5
41
0
44
1.084337
50
0
71
7
72
5
7
iso_b_vert
0
MTEXT
5
213
100
AcDbEntity
8
SK6
62
256
6
ByLayer
370
18
48
1
60
0
100
AcDbMText
10
181.89936
20
-65.567366
30
0
210
0
220
0
230
1
1
\W0.7800;HT30D-C8 60 448R40
40
3.5
41
0
44
1.084337
50
0
71
7
72
5
7
iso_b_vert
0
HATCH
5
1EF
100
AcDbEntity
8
SK2
62
256
6
ByLayer
370
13
48
1
60
0
100
AcDbHatch
10
0
20
0
30
0
210
0
220
0
230
1
2
ANSI31
70
0
71
0
91
1
92
5
93
3
72
1
10
-54.6000000000002
20
39.9999999999999
11
-54.1392162584474
21
36.5000016925531
72
1
10
-54.1392162584474
20
36.5000016925531
11
-55.060783741553
21
36.4999983074467
72
1
10
-55.060783741553
20
36.4999983074467
11
-54.6000000000002
21
39.9999999999999
97
0
75
0
76
1
52
0
41
0.0062
77
0
78
1
53
45
43
0
44
0
45
-0.0139193969876572
46
0.0139193969876572
79
0
47
0
98
1
10
0
20
0
0
HATCH
5
1F3
100
AcDbEntity
8
SK2
62
256
6
ByLayer
370
13
48
1
60
0
100
AcDbHatch
10
0
20
0
30
0
210
0
220
0
230
1
2
ANSI31
70
0
71
0
91
1
92
5
93
3
72
1
10
-54.6000000000002
20
-40.0000000000001
11
-55.060783741553
21
-36.5000016925533
72
1
10
-55.060783741553
20
-36.5000016925533
11
-54.1392162584474
21
-36.4999983074469
72
1
10
-54.1392162584474
20
-36.4999983074469
11
-54.6000000000002
21
-40.0000000000001
97
0
75
0
76
1
52
0
41
0.0062
77
0
78
1
53
45
43
0
44
0
45
-0.0139193969876572
46
0.0139193969876572
79
0
47
0
98
1
10
0
20
0
0
HATCH
5
1F9
100
AcDbEntity
8
SK2
62
256
6
ByLayer
370
13
48
1
60
0
100
AcDbHatch
10
0
20
0
30
0
210
0
220
0
230
1
2
ANSI31
70
0
71
0
91
1
92
5
93
3
72
1
10
479.748180566759
20
29.9999999999984
11
480.208964308312
21
26.5000016925515
72
1
10
480.208964308312
20
26.5000016925515
11
479.287396825206
21
26.4999983074452
72
1
10
479.287396825206
20
26.4999983074452
11
479.748180566759
21
29.9999999999984
97
0
75
0
76
1
52
0
41
0.0062
77
0
78
1
53
45
43
0
44
0
45
-0.0139193969876572
46
0.0139193969876572
79
0
47
0
98
1
10
0
20
0
0
HATCH
5
1FD
100
AcDbEntity
8
SK2
62
256
6
ByLayer
370
13
48
1
60
0
100
AcDbHatch
10
0
20
0
30
0
210
0
220
0
230
1
2
ANSI31
70
0
71
0
91
1
92
5
93
3
72
1
10
479.748180566759
20
-30.0000000000017
11
479.287396825206
21
-26.5000016925549
72
1
10
479.287396825206
20
-26.5000016925549
11
480.208964308312
21
-26.4999983074485
72
1
10
480.208964308312
20
-26.4999983074485
11
479.748180566759
21
-30.0000000000017
97
0
75
0
76
1
52
0
41
0.0062
77
0
78
1
53
45
43
0
44
0
45
-0.0139193969876572
46
0.0139193969876572
79
0
47
0
98
1
10
0
20
0
0
HATCH
5
205
100
AcDbEntity
8
SK2
62
256
6
ByLayer
370
13
48
1
60
0
100
AcDbHatch
10
0
20
0
30
0
210
0
220
0
230
1
2
ANSI31
70
0
71
0
91
1
92
5
93
3
72
1
10
468.123180566759
20
-10.0000000000017
11
467.662396825206
21
-6.50000169255486
72
1
10
467.662396825206
20
-6.50000169255486
11
468.583964308312
21
-6.49999830744849
72
1
10
468.583964308312
20
-6.49999830744849
11
468.123180566759
21
-10.0000000000017
97
0
75
0
76
1
52
0
41
0.0062
77
0
78
1
53
45
43
0
44
0
45
-0.0139193969876572
46
0.0139193969876572
79
0
47
0
98
1
10
0
20
0
0
HATCH
5
209
100
AcDbEntity
8
SK2
62
256
6
ByLayer
370
13
48
1
60
0
100
AcDbHatch
10
0
20
0
30
0
210
0
220
0
230
1
2
ANSI31
70
0
71
0
91
1
92
5
93
3
72
1
10
468.123180566759
20
29.9999999999983
11
468.583964308312
21
26.5000016925515
72
1
10
468.583964308312
20
26.5000016925515
11
467.662396825206
21
26.4999983074451
72
1
10
467.662396825206
20
26.4999983074451
11
468.123180566759
21
29.9999999999983
97
0
75
0
76
1
52
0
41
0.0062
77
0
78
1
53
45
43
0
44
0
45
-0.0139193969876572
46
0.0139193969876572
79
0
47
0
98
1
10
0
20
0
0
HATCH
5
20E
100
AcDbEntity
8
SK2
62
256
6
ByLayer
370
13
48
1
60
0
100
AcDbHatch
10
0
20
0
30
0
210
0
220
0
230
1
2
ANSI31
70
0
71
0
91
1
92
5
93
3
72
1
10
448
20
45.6000000000002
11
444.500001692553
21
45.1392162584474
72
1
10
444.500001692553
20
45.1392162584474
11
444.499998307447
21
46.060783741553
72
1
10
444.499998307447
20
46.060783741553
11
448
21
45.6000000000002
97
0
75
0
76
1
52
0
41
0.0062
77
0
78
1
53
45
43
0
44
0
45
-0.0139193969876572
46
0.0139193969876572
79
0
47
0
98
1
10
0
20
0
0
HATCH
5
212
100
AcDbEntity
8
SK2
62
256
6
ByLayer
370
13
48
1
60
0
100
AcDbHatch
10
0
20
0
30
0
210
0
220
0
230
1
2
ANSI31
70
0
71
0
91
1
92
5
93
3
72
1
10
0
20
45.6000000000002
11
3.4999983074468
21
46.060783741553
72
1
10
3.4999983074468
20
46.060783741553
11
3.5000016925532
21
45.1392162584474
72
1
10
3.5000016925532
20
45.1392162584474
11
0
21
45.6000000000002
97
0
75
0
76
1
52
0
41
0.0062
77
0
78
1
53
45
43
0
44
0
45
-0.0139193969876572
46
0.0139193969876572
79
0
47
0
98
1
10
0
20
0
0
DIMENSION
5
216
100
AcDbEntity
8
SK2
62
256
6
ByLayer
370
18
48
1
60
0
100
AcDbDimension
2
_U0
10
448
20
-53.1
30
0
11
242
21
-53.1
31
0
70
32
71
1
72
1
41
1
210
0
220
0
230
1
3
Standard
100
AcDbAlignedDimension
13
36
23
-30
33
0
14
448
24
30
34
0
50
0
100
AcDbRotatedDimension
1001
ACAD
1000
DSTYLE
1002
{
1070
   371
1070
    13
1070
   372
1070
    13
1070
   170
1070
     0
1070
   144
1040
1.0
1070
   277
1070
     2
1070
   284
1070
     8
1070
   278
1070
    46
1070
   146
1040
1.0
1070
   345
1005
16
1070
   347
1005
16
1070
   346
1005
16
1070
   344
1005
0
1070
   343
1005
0
1070
   172
1070
     1
1070
    76
1070
     0
1070
    75
1070
     0
1070
   282
1070
     0
1070
   281
1070
     0
1070
    71
1070
     0
1070
    74
1070
     0
1070
   279
1070
     0
1070
   173
1070
     1
1070
   340
1005
1E9
1070
   271
1070
     2
1070
   272
1070
     2
1070
    77
1070
     1
1070
    73
1070
     1
1070
   171
1070
     3
1070
   274
1070
     4
1070
   177
1070
     2
1070
   176
1070
     2
1070
   178
1070
     2
1070
    78
1070
     8
1070
    48
1040
-0.1
1070
    41
1040
3.5
1070
   147
1040
1.75
1070
    42
1040
1.5875
1070
    44
1040
2.0
1070
   140
1040
3.5
1002
}
1001
ACAD_DSTYLE_DIM_LINETYPE
1070
   380
1005
16
1001
ACAD_DSTYLE_DIM_EXT1_LINETYPE
1070
   381
1005
16
1001
ACAD_DSTYLE_DIM_EXT2_LINETYPE
1070
   382
1005
16
0
ENDSEC
0
SECTION
2
OBJECTS
0
DICTIONARY
5
29f
330
0
100
AcDbDictionary
280
0
281
1
3
ACAD_GROUP
350
2a0
3
ACAD_MLINESTYLE
350
2a1
0
DICTIONARY
5
2a0
330
0
100
AcDbDictionary
280
0
281
1
0
DICTIONARY
5
2a1
330
0
100
AcDbDictionary
280
0
281
1
3
Standard
350
18
0
MLINESTYLE
5
18
330
2a1
100
AcDbMlineStyle
2
Standard
70
0
3

62
256
51
90
52
90
71
2
49
-0.5
62
256
6
ByLayer
49
0.5
62
256
6
ByLayer
0
RASTERVARIABLES
5
28d
330

100
AcDbRasterVariables
90
0
70
1
71
1
72
1
0
ENDSEC
0
EOF
