0
SECTION
2
HEADER
9
$ACADVER
1
AC1015
9
$DWGCODEPAGE
3
ANSI_1252
9
$HANDSEED
5
2b8
9
$ANGBASE
50
0
9
$ANGDIR
70
0
9
$ATTMODE
70
1
9
$AUNITS
70
0
9
$AUPREC
70
0
9
$CECOLOR
62
256
9
$CELTSCALE
40
1
9
$CELTYPE
6
ByLayer
9
$CELWEIGHT
370
18
9
$CLAYER
8
0
9
$CMLJUST
70
0
9
$CMLSCALE
40
1
9
$CMLSTYLE
2
Standard
9
$DIMSTYLE
2
Standard
9
$TEXTSIZE
40
0.2
9
$TEXTSTYLE
7
Standard
9
$LUNITS
70
2
9
$LUPREC
70
4
9
$EXTNAMES
290
1
9
$INSUNITS
70
4
9
$LTSCALE
40
1
9
$LWDISPLAY
290
1
9
$PDMODE
70
0
9
$PDSIZE
40
0
9
$PLINEGEN
70
0
0
ENDSEC
0
SECTION
2
CLASSES
0
CLASS
1
RASTERVARIABLES
2
AcDbRasterVariables
3
ISM
90
0
280
0
281
0
0
ENDSEC
0
SECTION
2
TABLES
0
TABLE
2
VPORT
5
2ae
100
AcDbSymbolTable
0
VPORT
5
1
100
AcDbSymbolTableRecord
100
AcDbViewportTableRecord
2
*Active
70
0
10
0
20
0
11
1
21
1
12
-1
22
1
13
0
23
0
14
0.5
24
0.5
15
10
25
10
16
0
26
0
36
1
17
0
27
0
37
0
0
ENDTAB
0
TABLE
2
LTYPE
5
2af
100
AcDbSymbolTable
0
LTYPE
5
14
100
AcDbSymbolTableRecord
100
AcDbLinetypeTableRecord
70
0
2
ByBlock
3

72
65
73
0
40
0
0
LTYPE
5
15
100
AcDbSymbolTableRecord
100
AcDbLinetypeTableRecord
70
0
2
ByLayer
3

72
65
73
0
40
0
0
LTYPE
5
16
100
AcDbSymbolTableRecord
100
AcDbLinetypeTableRecord
70
0
2
Continuous
3
Solid line
72
65
73
0
40
0
0
LTYPE
5
6E
100
AcDbSymbolTableRecord
100
AcDbLinetypeTableRecord
70
0
2
CENTER
3
____ _ ____ _ ____ _ ____
72
65
73
4
40
47.5
49
22
74
0
49
-8.5
74
0
49
8.5
74
0
49
-8.5
74
0
0
LTYPE
5
6F
100
AcDbSymbolTableRecord
100
AcDbLinetypeTableRecord
70
0
2
DASHED
3
__ __ __ __ __ __ __ __ __
72
65
73
2
40
25.72
49
12.86
74
0
49
-12.86
74
0
0
ENDTAB
0
TABLE
2
LAYER
5
2b0
100
AcDbSymbolTable
0
LAYER
5
10
100
AcDbSymbolTableRecord
100
AcDbLayerTableRecord
2
0
70
0
62
7
6
Continuous
290
1
370
-3
390
0
0
LAYER
5
71
100
AcDbSymbolTableRecord
100
AcDbLayerTableRecord
2
2
70
0
62
7
6
Continuous
290
1
370
-3
390
0
0
LAYER
5
98
100
AcDbSymbolTableRecord
100
AcDbLayerTableRecord
2
81
70
0
62
-3
6
Continuous
290
1
370
-3
390
0
0
LAYER
5
9A
100
AcDbSymbolTableRecord
100
AcDbLayerTableRecord
2
80
70
0
62
-6
6
Continuous
290
1
370
-3
390
0
0
LAYER
5
9C
100
AcDbSymbolTableRecord
100
AcDbLayerTableRecord
2
1
70
0
62
4
6
Continuous
290
1
370
-3
390
0
0
LAYER
5
AA
100
AcDbSymbolTableRecord
100
AcDbLayerTableRecord
2
4
70
0
62
-2
6
CENTER
290
1
370
-3
390
0
0
LAYER
5
225
100
AcDbSymbolTableRecord
100
AcDbLayerTableRecord
2
Defpoints
70
0
62
7
6
Continuous
290
0
370
-3
390
0
0
LAYER
5
29a
100
AcDbSymbolTableRecord
100
AcDbLayerTableRecord
2
SK4
70
0
62
2
6
CENTER
290
1
370
-3
390
0
0
LAYER
5
29b
100
AcDbSymbolTableRecord
100
AcDbLayerTableRecord
2
SK1
70
0
62
4
6
Continuous
290
1
370
-3
390
0
0
LAYER
5
29c
100
AcDbSymbolTableRecord
100
AcDbLayerTableRecord
2
SK2
70
0
62
7
6
Continuous
290
1
370
-3
390
0
0
LAYER
5
29d
100
AcDbSymbolTableRecord
100
AcDbLayerTableRecord
2
SK6
70
0
62
5
6
Continuous
290
1
370
-3
390
0
0
ENDTAB
0
TABLE
2
STYLE
5
2b1
100
AcDbSymbolTable
0
STYLE
5
11
100
AcDbSymbolTableRecord
100
AcDbTextStyleTableRecord
2
Standard
3
txt
70
0
71
0
40
0
41
1
42
0
50
0
0
STYLE
5
1F5
100
AcDbSymbolTableRecord
100
AcDbTextStyleTableRecord
2
iso_b_vert
3
simplex.shx
70
0
71
0
40
0
41
1
42
0
50
0
0
STYLE
5
1F6
100
AcDbSymbolTableRecord
100
AcDbTextStyleTableRecord
2
DWGDirectTextStyle
3
simplex
70
0
71
0
40
0
41
1
42
0
50
0
0
ENDTAB
0
TABLE
2
DIMSTYLE
5
2b2
100
AcDbSymbolTable
100
AcDbDimStyleTable
0
DIMSTYLE
105
27
100
AcDbSymbolTableRecord
100
AcDbDimStyleTableRecord
2
Standard
70
0
3
<>
41
0.18
42
0.0625
44
0.18
140
0.18
147
0.09
73
0
74
0
77
1
271
2
275
0
278
52
280
0
340
11
0
ENDTAB
0
TABLE
2
VIEW
5
2b3
100
AcDbSymbolTable
0
ENDTAB
0
TABLE
2
UCS
5
2b4
100
AcDbSymbolTable
0
ENDTAB
0
TABLE
2
APPID
5
2b5
100
AcDbSymbolTable
0
APPID
5
12
100
AcDbSymbolTableRecord
100
AcDbRegAppTableRecord
2
ACAD
70
0
0
APPID
5
221
100
AcDbSymbolTableRecord
100
AcDbRegAppTableRecord
2
ACAD_DSTYLE_DIMBREAK
70
0
0
APPID
5
259
100
AcDbSymbolTableRecord
100
AcDbRegAppTableRecord
2
ACAD_DSTYLE_DIM_LINETYPE
70
0
0
APPID
5
25A
100
AcDbSymbolTableRecord
100
AcDbRegAppTableRecord
2
ACAD_DSTYLE_DIM_EXT1_LINETYPE
70
0
0
APPID
5
25B
100
AcDbSymbolTableRecord
100
AcDbRegAppTableRecord
2
ACAD_DSTYLE_DIM_EXT2_LINETYPE
70
0
0
APPID
5
296
100
AcDbSymbolTableRecord
100
AcDbRegAppTableRecord
2
ACAD_MLEADERVER
70
0
0
ENDTAB
0
TABLE
2
BLOCK_RECORD
5
2b6
100
AcDbSymbolTable
0
BLOCK_RECORD
5
1F
100
AcDbSymbolTableRecord
100
AcDbBlockTableRecord
2
*Model_Space
340
0
70
0
0
BLOCK_RECORD
5
1B
100
AcDbSymbolTableRecord
100
AcDbBlockTableRecord
2
*Paper_Space
340
0
70
0
0
BLOCK_RECORD
5
23
100
AcDbSymbolTableRecord
100
AcDbBlockTableRecord
2
*Paper_Space0
340
0
70
0
0
BLOCK_RECORD
5
226
100
AcDbSymbolTableRecord
100
AcDbBlockTableRecord
2
*D1
340
0
70
0
0
BLOCK_RECORD
5
232
100
AcDbSymbolTableRecord
100
AcDbBlockTableRecord
2
_U0
340
0
70
0
0
ENDTAB
0
ENDSEC
0
SECTION
2
BLOCKS
0
BLOCK
5
20
100
AcDbEntity
8
0
100
AcDbBlockBegin
2
*Model_Space
70
0
10
0
20
0
30
0
3
*Model_Space
0
ENDBLK
5
21
100
AcDbEntity
8
0
100
AcDbBlockEnd
0
BLOCK
5
1C
100
AcDbEntity
8
0
100
AcDbBlockBegin
2
*Paper_Space
70
0
10
0
20
0
30
0
3
*Paper_Space
0
ENDBLK
5
1D
100
AcDbEntity
8
0
100
AcDbBlockEnd
0
BLOCK
5
24
100
AcDbEntity
8
0
100
AcDbBlockBegin
2
*Paper_Space0
70
0
10
0
20
0
30
0
3
*Paper_Space0
0
ENDBLK
5
25
100
AcDbEntity
8
0
100
AcDbBlockEnd
0
BLOCK
5
227
100
AcDbEntity
8
0
100
AcDbBlockBegin
2
*D1
70
1
10
0
20
0
30
0
3
*D1
0
LINE
5
229
100
AcDbEntity
8
0
62
256
6
ByLayer
370
-2
48
1
60
0
100
AcDbLine
10
36
20
-26.5875
30
0
11
36
21
-55.1
31
0
39
0
210
0
220
0
230
1
0
LINE
5
22A
100
AcDbEntity
8
0
62
256
6
ByLayer
370
-2
48
1
60
0
100
AcDbLine
10
368
20
23.4125
30
0
11
368
21
-55.1
31
0
39
0
210
0
220
0
230
1
0
LINE
5
22B
100
AcDbEntity
8
0
62
256
6
ByLayer
370
-2
48
1
60
0
100
AcDbLine
10
39.5
20
-53.1
30
0
11
364.5
21
-53.1
31
0
39
0
210
0
220
0
230
1
0
SOLID
5
22C
100
AcDbEntity
8
0
62
256
6
ByLayer
370
-1
48
1
60
0
100
AcDbTrace
10
39.5
20
-52.516667
30
0
11
39.5
21
-53.683333
31
0
12
36
22
-53.1
32
0
13
36
23
-53.1
33
0
39
0
210
0
220
0
230
1
0
SOLID
5
22D
100
AcDbEntity
8
0
62
256
6
ByLayer
370
-1
48
1
60
0
100
AcDbTrace
10
364.5
20
-53.683333
30
0
11
364.5
21
-52.516667
31
0
12
368
22
-53.1
32
0
13
368
23
-53.1
33
0
39
0
210
0
220
0
230
1
0
MTEXT
5
22E
100
AcDbEntity
8
0
62
256
6
ByLayer
370
18
48
1
60
0
100
AcDbMText
10
202
20
-46.1
30
0
210
0
220
0
230
1
1
\A1;332
40
3.5
41
0
44
1
50
0
71
5
72
5
7
iso_b_vert
0
POINT
5
22F
100
AcDbEntity
8
Defpoints
62
0
6
ByLayer
370
-1
48
1
60
0
100
AcDbPoint
10
36
20
-25
30
0
39
0
210
0
220
0
230
1
50
360
0
POINT
5
230
100
AcDbEntity
8
Defpoints
62
0
6
ByLayer
370
-1
48
1
60
0
100
AcDbPoint
10
368
20
25
30
0
39
0
210
0
220
0
230
1
50
360
0
POINT
5
231
100
AcDbEntity
8
Defpoints
62
0
6
ByLayer
370
-1
48
1
60
0
100
AcDbPoint
10
368
20
-53.1
30
0
39
0
210
0
220
0
230
1
50
360
0
ENDBLK
5
228
100
AcDbEntity
8
0
100
AcDbBlockEnd
0
BLOCK
5
239
100
AcDbEntity
8
0
100
AcDbBlockBegin
2
_U0
70
0
10
0
20
0
30
0
3
_U0
0
MTEXT
5
233
100
AcDbEntity
8
SK2
62
256
6
ByLayer
370
18
48
1
60
0
100
AcDbMText
10
198.787301
20
-52.067366
30
0
210
0
220
0
230
1
1
\W0.7138;332
40
3.5
41
0
44
1.084337
50
0
71
7
72
5
7
iso_b_vert
0
LINE
5
234
100
AcDbEntity
8
SK2
62
256
6
ByLayer
370
13
48
1
60
0
100
AcDbLine
10
36
20
-26.5875
30
0
11
36
21
-55.1
31
0
39
0
210
0
220
0
230
1
0
LINE
5
235
100
AcDbEntity
8
SK2
62
256
6
ByLayer
370
13
48
1
60
0
100
AcDbLine
10
368
20
23.4125
30
0
11
368
21
-55.1
31
0
39
0
210
0
220
0
230
1
0
LINE
5
236
100
AcDbEntity
8
SK2
62
256
6
ByLayer
370
13
48
1
60
0
100
AcDbLine
10
36
20
-53.1
30
0
11
368
21
-53.1
31
0
39
0
210
0
220
0
230
1
0
SOLID
5
237
100
AcDbEntity
8
SK2
62
256
6
ByLayer
370
18
48
1
60
0
100
AcDbTrace
10
36
20
-53.1
30
0
11
39.499998
21
-52.639216
31
0
12
39.500002
22
-53.560784
32
0
13
39.500002
23
-53.560784
33
0
39
0
210
0
220
0
230
1
0
SOLID
5
238
100
AcDbEntity
8
SK2
62
256
6
ByLayer
370
18
48
1
60
0
100
AcDbTrace
10
368
20
-53.1
30
0
11
364.500002
21
-53.560784
31
0
12
364.499998
22
-52.639216
32
0
13
364.499998
23
-52.639216
33
0
39
0
210
0
220
0
230
1
0
ENDBLK
5
23A
100
AcDbEntity
8
0
100
AcDbBlockEnd
0
ENDSEC
0
SECTION
2
ENTITIES
0
ARC
5
163
100
AcDbEntity
8
1
62
256
6
ByLayer
370
18
48
1
60
0
100
AcDbCircle
39
0
10
363.8
20
-24.8
30
0
40
0.2
210
0
220
0
230
1
100
AcDbArc
50
270
51
360
0
ARC
5
164
100
AcDbEntity
8
1
62
256
6
ByLayer
370
18
48
1
60
0
100
AcDbCircle
39
0
10
363.8
20
24.8
30
0
40
0.2
210
0
220
0
230
1
100
AcDbArc
50
360
51
90
0
ARC
5
165
100
AcDbEntity
8
1
62
256
6
ByLayer
370
18
48
1
60
0
100
AcDbCircle
39
0
10
36
20
31
30
0
40
6
210
0
220
0
230
1
100
AcDbArc
50
180
51
270
0
ARC
5
166
100
AcDbEntity
8
1
62
256
6
ByLayer
370
18
48
1
60
0
100
AcDbCircle
39
0
10
36
20
-31
30
0
40
6
210
0
220
0
230
1
100
AcDbArc
50
90
51
180
0
ARC
5
167
100
AcDbEntity
8
1
62
256
6
ByLayer
370
18
48
1
60
0
100
AcDbCircle
39
0
10
29.5
20
-39.5
30
0
40
0.5
210
0
220
0
230
1
100
AcDbArc
50
270
51
360
0
ARC
5
168
100
AcDbEntity
8
1
62
256
6
ByLayer
370
18
48
1
60
0
100
AcDbCircle
39
0
10
29.5
20
39.5
30
0
40
0.5
210
0
220
0
230
1
100
AcDbArc
50
360
51
90
0
ARC
5
169
100
AcDbEntity
8
SK1
62
256
6
ByLayer
370
18
48
1
60
0
100
AcDbCircle
39
0
10
-0.6
20
29.6
30
0
40
0.999999999999994
210
0
220
0
230
1
100
AcDbArc
50
293.578178
51
306.869898
0
ARC
5
16A
100
AcDbEntity
8
SK1
62
256
6
ByLayer
370
18
48
1
60
0
100
AcDbCircle
39
0
10
-0.6
20
-29.6
30
0
40
0.999999999999994
210
0
220
0
230
1
100
AcDbArc
50
53.130102
51
66.421822
0
ARC
5
16B
100
AcDbEntity
8
1
62
256
6
ByLayer
370
18
48
1
60
0
100
AcDbCircle
39
0
10
366.5
20
-15.5
30
0
40
0.5
210
0
220
0
230
1
100
AcDbArc
50
90
51
180
0
ARC
5
16C
100
AcDbEntity
8
1
62
256
6
ByLayer
370
18
48
1
60
0
100
AcDbCircle
39
0
10
364.2
20
-24.8
30
0
40
0.2
210
0
220
0
230
1
100
AcDbArc
50
180
51
270
0
ARC
5
16D
100
AcDbEntity
8
1
62
256
6
ByLayer
370
18
48
1
60
0
100
AcDbCircle
39
0
10
364.2
20
24.8
30
0
40
0.2
210
0
220
0
230
1
100
AcDbArc
50
90
51
180
0
ARC
5
16E
100
AcDbEntity
8
1
62
256
6
ByLayer
370
18
48
1
60
0
100
AcDbCircle
39
0
10
372.8
20
11.699495
30
0
40
0.2
210
0
220
0
230
1
100
AcDbArc
50
0
51
90
0
ARC
5
16F
100
AcDbEntity
8
1
62
256
6
ByLayer
370
18
48
1
60
0
100
AcDbCircle
39
0
10
372.8
20
18.099495
30
0
40
0.2
210
0
220
0
230
1
100
AcDbArc
50
270
51
0
0
ARC
5
170
100
AcDbEntity
8
1
62
256
6
ByLayer
370
18
48
1
60
0
100
AcDbCircle
39
0
10
378.4
20
10.499495
30
0
40
0.6
210
0
220
0
230
1
100
AcDbArc
50
270
51
360
0
ARC
5
171
100
AcDbEntity
8
1
62
256
6
ByLayer
370
18
48
1
60
0
100
AcDbCircle
39
0
10
378.4
20
19.299495
30
0
40
0.6
210
0
220
0
230
1
100
AcDbArc
50
360
51
90
0
ARC
5
172
100
AcDbEntity
8
1
62
256
6
ByLayer
370
18
48
1
60
0
100
AcDbCircle
39
0
10
372.8
20
-8.099495
30
0
40
0.2
210
0
220
0
230
1
100
AcDbArc
50
0
51
90
0
ARC
5
173
100
AcDbEntity
8
1
62
256
6
ByLayer
370
18
48
1
60
0
100
AcDbCircle
39
0
10
372.8
20
-1.699495
30
0
40
0.2
210
0
220
0
230
1
100
AcDbArc
50
270
51
0
0
ARC
5
174
100
AcDbEntity
8
1
62
256
6
ByLayer
370
18
48
1
60
0
100
AcDbCircle
39
0
10
378.4
20
-9.299495
30
0
40
0.6
210
0
220
0
230
1
100
AcDbArc
50
270
51
360
0
ARC
5
175
100
AcDbEntity
8
1
62
256
6
ByLayer
370
18
48
1
60
0
100
AcDbCircle
39
0
10
378.4
20
-0.499495
30
0
40
0.6
210
0
220
0
230
1
100
AcDbArc
50
360
51
90
0
ELLIPSE
5
176
100
AcDbEntity
8
1
62
256
6
ByLayer
370
18
48
1
60
0
100
AcDbEllipse
10
-6.763884
20
0
30
0
11
18.7348357595651
21
39.483498305502
31
0
210
0
220
0
230
1
40
0.341999
41
-1.08794676716927
42
-0.161099005228948
0
ELLIPSE
5
177
100
AcDbEntity
8
1
62
256
6
ByLayer
370
18
48
1
60
0
100
AcDbEllipse
10
30.763884
20
0
30
0
11
18.7348357595664
21
-39.4834983055031
31
0
210
0
220
0
230
1
40
0.341999
41
-2.98049364836086
42
-2.05364588642055
0
ELLIPSE
5
178
100
AcDbEntity
8
1
62
256
6
ByLayer
370
18
48
1
60
0
100
AcDbEllipse
10
30.763884
20
0
30
0
11
18.734835759564
21
39.4834983055001
31
0
210
0
220
0
230
1
40
0.341999
41
2.0536458864205
42
2.98049364836085
0
ELLIPSE
5
179
100
AcDbEntity
8
1
62
256
6
ByLayer
370
18
48
1
60
0
100
AcDbEllipse
10
-6.763884
20
0
30
0
11
18.7348357595646
21
-39.4834983055013
31
0
210
0
220
0
230
1
40
0.341999
41
0.161099005228946
42
1.08794676716928
0
ELLIPSE
5
17A
100
AcDbEntity
8
1
62
256
6
ByLayer
370
13
48
1
60
0
100
AcDbEllipse
10
366.5
20
22.975
30
0
11
-0.5
21
1.83758715709137E-15
31
0
210
0
220
0
230
1
40
0.876829
41
0.526344188063901
42
1.5707963267949
0
POINT
5
70
100
AcDbEntity
8
2
62
256
6
ByLayer
370
18
48
1
60
0
100
AcDbPoint
10
369
20
-4.899495
30
0
39
0
210
0
220
0
230
1
50
360
0
POINT
5
72
100
AcDbEntity
8
2
62
256
6
ByLayer
370
18
48
1
60
0
100
AcDbPoint
10
373
20
14.899495
30
0
39
0
210
0
220
0
230
1
50
360
0
POINT
5
73
100
AcDbEntity
8
2
62
256
6
ByLayer
370
18
48
1
60
0
100
AcDbPoint
10
355
20
0
30
0
39
0
210
0
220
0
230
1
50
360
0
POINT
5
74
100
AcDbEntity
8
2
62
256
6
ByLayer
370
18
48
1
60
0
100
AcDbPoint
10
272
20
0
30
0
39
0
210
0
220
0
230
1
50
360
0
POINT
5
75
100
AcDbEntity
8
2
62
256
6
ByLayer
370
18
48
1
60
0
100
AcDbPoint
10
313.5
20
0
30
0
39
0
210
0
220
0
230
1
50
360
0
POINT
5
76
100
AcDbEntity
8
2
62
256
6
ByLayer
370
18
48
1
60
0
100
AcDbPoint
10
365.37476
20
5
30
0
39
0
210
0
220
0
230
1
50
360
0
POINT
5
77
100
AcDbEntity
8
2
62
256
6
ByLayer
370
18
48
1
60
0
100
AcDbPoint
10
369
20
14.899495
30
0
39
0
210
0
220
0
230
1
50
360
0
POINT
5
78
100
AcDbEntity
8
2
62
256
6
ByLayer
370
18
48
1
60
0
100
AcDbPoint
10
369
20
-4.899495
30
0
39
0
210
0
220
0
230
1
50
360
0
POINT
5
79
100
AcDbEntity
8
2
62
256
6
ByLayer
370
18
48
1
60
0
100
AcDbPoint
10
330.8
20
17
30
0
39
0
210
0
220
0
230
1
50
360
0
POINT
5
7A
100
AcDbEntity
8
2
62
256
6
ByLayer
370
50
48
1
60
0
100
AcDbPoint
10
348.5
20
0
30
0
39
0
210
0
220
0
230
1
50
360
0
POINT
5
7B
100
AcDbEntity
8
2
62
256
6
ByLayer
370
18
48
1
60
0
100
AcDbPoint
10
348
20
0
30
0
39
0
210
0
220
0
230
1
50
360
0
POINT
5
7C
100
AcDbEntity
8
2
62
256
6
ByLayer
370
50
48
1
60
0
100
AcDbPoint
10
373
20
0
30
0
39
0
210
0
220
0
230
1
50
360
0
POINT
5
7D
100
AcDbEntity
8
2
62
256
6
ByLayer
370
18
48
1
60
0
100
AcDbPoint
10
364
20
0
30
0
39
0
210
0
220
0
230
1
50
360
0
POINT
5
7E
100
AcDbEntity
8
2
62
256
6
ByLayer
370
18
48
1
60
0
100
AcDbPoint
10
355
20
0
30
0
39
0
210
0
220
0
230
1
50
360
0
POINT
5
7F
100
AcDbEntity
8
2
62
256
6
ByLayer
370
18
48
1
60
0
100
AcDbPoint
10
368
20
5
30
0
39
0
210
0
220
0
230
1
50
360
0
POINT
5
80
100
AcDbEntity
8
2
62
256
6
ByLayer
370
18
48
1
60
0
100
AcDbPoint
10
364
20
0
30
0
39
0
210
0
220
0
230
1
50
360
0
POINT
5
81
100
AcDbEntity
8
2
62
256
6
ByLayer
370
18
48
1
60
0
100
AcDbPoint
10
340
20
0
30
0
39
0
210
0
220
0
230
1
50
360
0
POINT
5
82
100
AcDbEntity
8
2
62
256
6
ByLayer
370
18
48
1
60
0
100
AcDbPoint
10
365.37476
20
5
30
0
39
0
210
0
220
0
230
1
50
360
0
POINT
5
83
100
AcDbEntity
8
2
62
256
6
ByLayer
370
18
48
1
60
0
100
AcDbPoint
10
368
20
5
30
0
39
0
210
0
220
0
230
1
50
360
0
POINT
5
84
100
AcDbEntity
8
2
62
256
6
ByLayer
370
18
48
1
60
0
100
AcDbPoint
10
293.2
20
17
30
0
39
0
210
0
220
0
230
1
50
360
0
POINT
5
85
100
AcDbEntity
8
2
62
256
6
ByLayer
370
18
48
1
60
0
100
AcDbPoint
10
355
20
0
30
0
39
0
210
0
220
0
230
1
50
360
0
POINT
5
86
100
AcDbEntity
8
2
62
256
6
ByLayer
370
18
48
1
60
0
100
AcDbPoint
10
373
20
14.899495
30
0
39
0
210
0
220
0
230
1
50
360
0
POINT
5
87
100
AcDbEntity
8
2
62
256
6
ByLayer
370
18
48
1
60
0
100
AcDbPoint
10
348
20
0
30
0
39
0
210
0
220
0
230
1
50
360
0
POINT
5
88
100
AcDbEntity
8
2
62
256
6
ByLayer
370
18
48
1
60
0
100
AcDbPoint
10
338.8
20
0
30
0
39
0
210
0
220
0
230
1
50
360
0
POINT
5
89
100
AcDbEntity
8
2
62
256
6
ByLayer
370
18
48
1
60
0
100
AcDbPoint
10
312
20
0
30
0
39
0
210
0
220
0
230
1
50
360
0
POINT
5
8A
100
AcDbEntity
8
2
62
256
6
ByLayer
370
18
48
1
60
0
100
AcDbPoint
10
285.2
20
0
30
0
39
0
210
0
220
0
230
1
50
360
0
POINT
5
8B
100
AcDbEntity
8
2
62
256
6
ByLayer
370
18
48
1
60
0
100
AcDbPoint
10
276
20
0
30
0
39
0
210
0
220
0
230
1
50
360
0
POINT
5
8C
100
AcDbEntity
8
2
62
256
6
ByLayer
370
18
48
1
60
0
100
AcDbPoint
10
330.8
20
17
30
0
39
0
210
0
220
0
230
1
50
360
0
POINT
5
8D
100
AcDbEntity
8
2
62
256
6
ByLayer
370
18
48
1
60
0
100
AcDbPoint
10
293.2
20
17
30
0
39
0
210
0
220
0
230
1
50
360
0
POINT
5
8E
100
AcDbEntity
8
2
62
256
6
ByLayer
370
18
48
1
60
0
100
AcDbPoint
10
348
20
0
30
0
39
0
210
0
220
0
230
1
50
360
0
POINT
5
8F
100
AcDbEntity
8
2
62
256
6
ByLayer
370
18
48
1
60
0
100
AcDbPoint
10
276
20
0
30
0
39
0
210
0
220
0
230
1
50
360
0
POINT
5
90
100
AcDbEntity
8
2
62
256
6
ByLayer
370
18
48
1
60
0
100
AcDbPoint
10
348
20
0
30
0
39
0
210
0
220
0
230
1
50
360
0
POINT
5
91
100
AcDbEntity
8
2
62
256
6
ByLayer
370
18
48
1
60
0
100
AcDbPoint
10
267.1
20
0
30
0
39
0
210
0
220
0
230
1
50
360
0
POINT
5
92
100
AcDbEntity
8
2
62
256
6
ByLayer
370
18
48
1
60
0
100
AcDbPoint
10
271.3
20
0
30
0
39
0
210
0
220
0
230
1
50
360
0
POINT
5
93
100
AcDbEntity
8
2
62
256
6
ByLayer
370
18
48
1
60
0
100
AcDbPoint
10
275.5
20
0
30
0
39
0
210
0
220
0
230
1
50
360
0
POINT
5
94
100
AcDbEntity
8
2
62
256
6
ByLayer
370
18
48
1
60
0
100
AcDbPoint
10
267.1
20
0
30
0
39
0
210
0
220
0
230
1
50
360
0
POINT
5
95
100
AcDbEntity
8
2
62
256
6
ByLayer
370
18
48
1
60
0
100
AcDbPoint
10
276
20
0
30
0
39
0
210
0
220
0
230
1
50
360
0
POINT
5
96
100
AcDbEntity
8
2
62
256
6
ByLayer
370
18
48
1
60
0
100
AcDbPoint
10
271.55
20
0
30
0
39
0
210
0
220
0
230
1
50
360
0
POINT
5
97
100
AcDbEntity
8
81
62
256
6
ByLayer
370
18
48
1
60
0
100
AcDbPoint
10
368
20
5
30
0
39
0
210
0
220
0
230
1
50
360
0
POINT
5
99
100
AcDbEntity
8
80
62
256
6
ByLayer
370
18
48
1
60
0
100
AcDbPoint
10
0
20
0
30
0
39
0
210
0
220
0
230
1
50
360
0
POINT
5
9B
100
AcDbEntity
8
1
62
256
6
ByLayer
370
13
48
1
60
1
100
AcDbPoint
10
360.05
20
-4.899495
30
0
39
0
210
0
220
0
230
1
50
360
0
POINT
5
9D
100
AcDbEntity
8
1
62
256
6
ByLayer
370
13
48
1
60
1
100
AcDbPoint
10
379.9
20
-4.899495
30
0
39
0
210
0
220
0
230
1
50
360
0
POINT
5
9E
100
AcDbEntity
8
1
62
256
6
ByLayer
370
13
48
1
60
1
100
AcDbPoint
10
367.52
20
0
30
0
39
0
210
0
220
0
230
1
50
360
0
POINT
5
9F
100
AcDbEntity
8
1
62
256
6
ByLayer
370
13
48
1
60
1
100
AcDbPoint
10
362.7
20
0
30
0
39
0
210
0
220
0
230
1
50
360
0
POINT
5
A0
100
AcDbEntity
8
1
62
256
6
ByLayer
370
13
48
1
60
1
100
AcDbPoint
10
364.330172
20
5
30
0
39
0
210
0
220
0
230
1
50
360
0
POINT
5
A1
100
AcDbEntity
8
1
62
256
6
ByLayer
370
13
48
1
60
1
100
AcDbPoint
10
369.82476
20
5
30
0
39
0
210
0
220
0
230
1
50
360
0
POINT
5
A2
100
AcDbEntity
8
1
62
256
6
ByLayer
370
13
48
1
60
1
100
AcDbPoint
10
360.05
20
14.899495
30
0
39
0
210
0
220
0
230
1
50
360
0
POINT
5
A3
100
AcDbEntity
8
1
62
256
6
ByLayer
370
13
48
1
60
1
100
AcDbPoint
10
379.9
20
14.899495
30
0
39
0
210
0
220
0
230
1
50
360
0
POINT
5
A4
100
AcDbEntity
8
1
62
256
6
ByLayer
370
18
48
1
60
1
100
AcDbPoint
10
36
20
-25
30
0
39
0
210
0
220
0
230
1
50
360
0
POINT
5
A5
100
AcDbEntity
8
1
62
256
6
ByLayer
370
18
48
1
60
1
100
AcDbPoint
10
368
20
25
30
0
39
0
210
0
220
0
230
1
50
360
0
SPLINE
5
17B
100
AcDbEntity
8
1
62
256
6
ByLayer
370
18
48
1
60
0
100
AcDbSpline
70
4
71
3
72
26
73
22
40
0
40
0
40
0
40
0
40
0.0625000000000179
40
0.0625000000000179
40
0.0937500000000234
40
0.0937500000000234
40
0.125000000000029
40
0.125000000000029
40
0.250000000000028
40
0.250000000000028
40
0.375000000000026
40
0.375000000000026
40
0.43750000000002
40
0.43750000000002
40
0.500000000000013
40
0.500000000000013
40
0.625000000000011
40
0.625000000000011
40
0.75000000000001
40
0.75000000000001
40
1
40
1
40
1
40
1
41
1
10
13.4613248654053
20
38.1154578595254
30
0
41
1
10
13.4771575420864
20
38.1154578595254
30
0
41
1
10
13.4926967829161
20
38.1149630443687
30
0
41
1
10
13.5156051329865
20
38.1135446782954
30
0
41
1
10
13.5231743077463
20
38.112958862986
30
0
41
1
10
13.5381834149645
20
38.1115687100728
30
0
41
1
10
13.5456561777208
20
38.1107596566993
30
0
41
1
10
13.5820585103619
20
38.1062685963605
30
0
41
1
10
13.6085397975368
20
38.1012604668279
30
0
41
1
10
13.6577471021954
20
38.0892687952497
30
0
41
1
10
13.6795828635241
20
38.0825033540053
30
0
41
1
10
13.7096051321546
20
38.0715750854946
30
0
41
1
10
13.7191444204646
20
38.0677988367432
30
0
41
1
10
13.7374189069212
20
38.0600136207932
30
0
41
1
10
13.7461680175131
20
38.0559959802045
30
0
41
1
10
13.7710680782538
20
38.0437782351316
30
0
41
1
10
13.7859982057654
20
38.035372109362
30
0
41
1
10
13.8133554924887
20
38.0181487945758
30
0
41
1
10
13.8257737503391
20
38.0093303853474
30
0
41
1
10
13.8599678398713
20
37.9823481941391
30
0
41
1
10
13.8787504379153
20
37.9636126331775
30
0
41
1
10
13.8943375672975
20
37.944501011719
30
0
0
SPLINE
5
17C
100
AcDbEntity
8
1
62
256
6
ByLayer
370
18
48
1
60
0
100
AcDbSpline
70
4
71
3
72
32
73
28
40
0
40
0
40
0
40
0
40
0.249999999999991
40
0.249999999999991
40
0.374999999999984
40
0.374999999999984
40
0.437499999999982
40
0.437499999999982
40
0.499999999999981
40
0.499999999999981
40
0.624999999999986
40
0.624999999999986
40
0.687499999999986
40
0.687499999999986
40
0.749999999999985
40
0.749999999999985
40
0.812499999999985
40
0.812499999999985
40
0.843749999999985
40
0.843749999999985
40
0.874999999999985
40
0.874999999999985
40
0.937499999999996
40
0.937499999999996
40
0.968749999999998
40
0.968749999999998
40
1
40
1
40
1
40
1
41
1
10
13.8943375672974
20
12.6576002058705
30
0
41
1
10
13.8787561873888
20
12.6003292036664
30
0
41
1
10
13.8601238798743
20
12.5441499637057
30
0
41
1
10
13.8260027135196
20
12.4621216159941
30
0
41
1
10
13.8135898550187
20
12.4351561290448
30
0
41
1
10
13.7930183318667
20
12.3954218364665
30
0
41
1
10
13.7858339393051
20
12.3822967529511
30
0
41
1
10
13.7707119348146
20
12.3563230389552
30
0
41
1
10
13.762764024215
20
12.3434618357382
30
0
41
1
10
13.7378358829827
20
12.3057192432198
30
0
41
1
10
13.7197379933358
20
12.2815531796603
30
0
41
1
10
13.6895137280946
20
12.2473838346622
30
0
41
1
10
13.6789130531145
20
12.2363474443952
30
0
41
1
10
13.6568189855007
20
12.2154741288524
30
0
41
1
10
13.6452904427559
20
12.2055929865225
30
0
41
1
10
13.6210819432586
20
12.1871605631487
30
0
41
1
10
13.6084039311046
20
12.1786070311295
30
0
41
1
10
13.5883100345542
20
12.1670216512238
30
0
41
1
10
13.5814016237712
20
12.1633555796795
30
0
41
1
10
13.567396336243
20
12.1566022540001
30
0
41
1
10
13.5602871584325
20
12.1535051719202
30
0
41
1
10
13.538618852768
20
12.1451084576005
30
0
41
1
10
13.5237210688637
20
12.1406978104912
30
0
41
1
10
13.5005803004528
20
12.1361671045752
30
0
41
1
10
13.492756294697
20
12.1350139079815
30
0
41
1
10
13.4770952538462
20
12.1334785049664
30
0
41
1
10
13.4692285817719
20
12.1330899674707
30
0
41
1
10
13.4613248654053
20
12.1330899674707
30
0
0
SPLINE
5
17D
100
AcDbEntity
8
1
62
256
6
ByLayer
370
18
48
1
60
0
100
AcDbSpline
70
4
71
3
72
26
73
22
40
0
40
0
40
0
40
0
40
0.0624999999999971
40
0.0624999999999971
40
0.0937499999999963
40
0.0937499999999963
40
0.124999999999996
40
0.124999999999996
40
0.249999999999983
40
0.249999999999983
40
0.37499999999997
40
0.37499999999997
40
0.43749999999997
40
0.43749999999997
40
0.499999999999969
40
0.499999999999969
40
0.624999999999979
40
0.624999999999979
40
0.749999999999988
40
0.749999999999988
40
1
40
1
40
1
40
1
41
1
10
10.5386751345949
20
12.1330899674709
30
0
41
1
10
10.5228424579138
20
12.1330899674709
30
0
41
1
10
10.5073032170842
20
12.1346446934813
30
0
41
1
10
10.4843948670137
20
12.1390985861073
30
0
41
1
10
10.476825692254
20
12.1409378530104
30
0
41
1
10
10.4618165850357
20
12.1453009719697
30
0
41
1
10
10.4543438222794
20
12.1478396076278
30
0
41
1
10
10.4179414896384
20
12.1619255694049
30
0
41
1
10
10.3914602024634
20
12.1776162497591
30
0
41
1
10
10.3422528978048
20
12.2150722196261
30
0
41
1
10
10.3204171364762
20
12.2361555816481
30
0
41
1
10
10.2903948678457
20
12.2700982796013
30
0
41
1
10
10.2808555795357
20
12.2818098068952
30
0
41
1
10
10.262581093079
20
12.3059141713457
30
0
41
1
10
10.2538319824872
20
12.3183336732123
30
0
41
1
10
10.2289319217464
20
12.3560364080032
30
0
41
1
10
10.2140017942349
20
12.3818915830843
30
0
41
1
10
10.1866445075116
20
12.4346746200447
30
0
41
1
10
10.1742262496612
20
12.4616063758704
30
0
41
1
10
10.1400321601289
20
12.543705389465
30
0
41
1
10
10.1212495620849
20
12.6003080708705
30
0
41
1
10
10.1056624327026
20
12.6576002058704
30
0
0
SPLINE
5
17E
100
AcDbEntity
8
1
62
256
6
ByLayer
370
18
48
1
60
0
100
AcDbSpline
70
4
71
3
72
32
73
28
40
0
40
0
40
0
40
0
40
0.250000000000004
40
0.250000000000004
40
0.37500000000001
40
0.37500000000001
40
0.43750000000001
40
0.43750000000001
40
0.50000000000001
40
0.50000000000001
40
0.625000000000007
40
0.625000000000007
40
0.687500000000009
40
0.687500000000009
40
0.75000000000001
40
0.75000000000001
40
0.812500000000012
40
0.812500000000012
40
0.84375000000001
40
0.84375000000001
40
0.875000000000008
40
0.875000000000008
40
0.937500000000005
40
0.937500000000005
40
0.968750000000002
40
0.968750000000002
40
1
40
1
40
1
40
1
41
1
10
10.1056624327028
20
37.944501011719
30
0
41
1
10
10.1212438126114
20
37.9636055836586
30
0
41
1
10
10.1398761201259
20
37.982201295386
30
0
41
1
10
10.1739972864806
20
38.0091614379607
30
0
41
1
10
10.1864101449815
20
38.0179913785432
30
0
41
1
10
10.2069816681335
20
38.0309572795535
30
0
41
1
10
10.2141660606952
20
38.0352325300314
30
0
41
1
10
10.2292880651856
20
38.0436784163767
30
0
41
1
10
10.2372359757852
20
38.0478530906641
30
0
41
1
10
10.2621641170175
20
38.0600837295901
30
0
41
1
10
10.2802620066644
20
38.0678870466103
30
0
41
1
10
10.3104862719056
20
38.0788882765901
30
0
41
1
10
10.3210869468857
20
38.0824358644267
30
0
41
1
10
10.3431810144995
20
38.0891364033823
30
0
41
1
10
10.3547095572443
20
38.0923035991791
30
0
41
1
10
10.3789180567417
20
38.0982048271662
30
0
41
1
10
10.3915960688956
20
38.1009395753101
30
0
41
1
10
10.411689965446
20
38.1046401449178
30
0
41
1
10
10.418598376229
20
38.1058104966307
30
0
41
1
10
10.4326036637572
20
38.1079654954301
30
0
41
1
10
10.4397128415677
20
38.1089532874668
30
0
41
1
10
10.4613811472322
20
38.1116304436585
30
0
41
1
10
10.4762789311365
20
38.1130353910943
30
0
41
1
10
10.4994196995475
20
38.114478227072
30
0
41
1
10
10.5072437053032
20
38.1148453768632
30
0
41
1
10
10.522904746154
20
38.1153341847952
30
0
41
1
10
10.5307714182284
20
38.1154578595254
30
0
41
1
10
10.538675134595
20
38.1154578595254
30
0
0
SPLINE
5
17F
100
AcDbEntity
8
1
62
256
6
ByLayer
370
18
48
1
60
0
100
AcDbSpline
70
4
71
3
72
26
73
22
40
0
40
0
40
0
40
0
40
0.0624999999999911
40
0.0624999999999911
40
0.0937499999999866
40
0.0937499999999866
40
0.124999999999982
40
0.124999999999982
40
0.249999999999972
40
0.249999999999972
40
0.374999999999963
40
0.374999999999963
40
0.437499999999963
40
0.437499999999963
40
0.499999999999964
40
0.499999999999964
40
0.624999999999971
40
0.624999999999971
40
0.749999999999978
40
0.749999999999978
40
1
40
1
40
1
40
1
41
1
10
10.5386751345947
20
-38.1154578595254
30
0
41
1
10
10.5228424579136
20
-38.1154578595255
30
0
41
1
10
10.507303217084
20
-38.1149630443688
30
0
41
1
10
10.4843948670135
20
-38.1135446782955
30
0
41
1
10
10.4768256922537
20
-38.1129588629861
30
0
41
1
10
10.4618165850355
20
-38.1115687100729
30
0
41
1
10
10.4543438222792
20
-38.1107596566995
30
0
41
1
10
10.4179414896382
20
-38.1062685963607
30
0
41
1
10
10.3914602024632
20
-38.101260466828
30
0
41
1
10
10.3422528978046
20
-38.0892687952498
30
0
41
1
10
10.320417136476
20
-38.0825033540054
30
0
41
1
10
10.2903948678455
20
-38.0715750854947
30
0
41
1
10
10.2808555795355
20
-38.0677988367432
30
0
41
1
10
10.2625810930788
20
-38.0600136207933
30
0
41
1
10
10.253831982487
20
-38.0559959802046
30
0
41
1
10
10.2289319217462
20
-38.0437782351317
30
0
41
1
10
10.2140017942347
20
-38.0353721093621
30
0
41
1
10
10.1866445075114
20
-38.0181487945758
30
0
41
1
10
10.174226249661
20
-38.0093303853475
30
0
41
1
10
10.1400321601287
20
-37.9823481941392
30
0
41
1
10
10.1212495620847
20
-37.9636126331776
30
0
41
1
10
10.1056624327024
20
-37.944501011719
30
0
0
SPLINE
5
180
100
AcDbEntity
8
1
62
256
6
ByLayer
370
18
48
1
60
0
100
AcDbSpline
70
4
71
3
72
32
73
28
40
0
40
0
40
0
40
0
40
0.249999999999994
40
0.249999999999994
40
0.374999999999988
40
0.374999999999988
40
0.437499999999985
40
0.437499999999985
40
0.499999999999982
40
0.499999999999982
40
0.624999999999977
40
0.624999999999977
40
0.687499999999976
40
0.687499999999976
40
0.749999999999974
40
0.749999999999974
40
0.812499999999973
40
0.812499999999973
40
0.843749999999975
40
0.843749999999975
40
0.874999999999977
40
0.874999999999977
40
0.937499999999991
40
0.937499999999991
40
0.968749999999996
40
0.968749999999996
40
1
40
1
40
1
40
1
41
1
10
10.1056624327026
20
-12.6576002058707
30
0
41
1
10
10.1212438126112
20
-12.6003292036666
30
0
41
1
10
10.1398761201257
20
-12.5441499637057
30
0
41
1
10
10.1739972864804
20
-12.4621216159941
30
0
41
1
10
10.1864101449813
20
-12.4351561290448
30
0
41
1
10
10.2069816681333
20
-12.3954218364665
30
0
41
1
10
10.214166060695
20
-12.3822967529511
30
0
41
1
10
10.2292880651854
20
-12.3563230389552
30
0
41
1
10
10.237235975785
20
-12.3434618357382
30
0
41
1
10
10.2621641170173
20
-12.3057192432198
30
0
41
1
10
10.2802620066642
20
-12.2815531796603
30
0
41
1
10
10.3104862719054
20
-12.2473838346622
30
0
41
1
10
10.3210869468855
20
-12.2363474443953
30
0
41
1
10
10.3431810144993
20
-12.2154741288524
30
0
41
1
10
10.3547095572442
20
-12.2055929865225
30
0
41
1
10
10.3789180567415
20
-12.1871605631487
30
0
41
1
10
10.3915960688954
20
-12.1786070311295
30
0
41
1
10
10.4116899654458
20
-12.1670216512239
30
0
41
1
10
10.4185983762288
20
-12.1633555796796
30
0
41
1
10
10.432603663757
20
-12.1566022540001
30
0
41
1
10
10.4397128415675
20
-12.1535051719203
30
0
41
1
10
10.461381147232
20
-12.1451084576005
30
0
41
1
10
10.4762789311363
20
-12.1406978104913
30
0
41
1
10
10.4994196995473
20
-12.1361671045752
30
0
41
1
10
10.507243705303
20
-12.1350139079815
30
0
41
1
10
10.5229047461539
20
-12.1334785049664
30
0
41
1
10
10.5307714182282
20
-12.1330899674708
30
0
41
1
10
10.5386751345948
20
-12.1330899674708
30
0
0
SPLINE
5
181
100
AcDbEntity
8
1
62
256
6
ByLayer
370
18
48
1
60
0
100
AcDbSpline
70
4
71
3
72
26
73
22
40
0
40
0
40
0
40
0
40
0.0625000000000057
40
0.0625000000000057
40
0.0937500000000078
40
0.0937500000000078
40
0.12500000000001
40
0.12500000000001
40
0.250000000000009
40
0.250000000000009
40
0.375000000000008
40
0.375000000000008
40
0.437500000000007
40
0.437500000000007
40
0.500000000000006
40
0.500000000000006
40
0.625000000000007
40
0.625000000000007
40
0.750000000000008
40
0.750000000000008
40
1
40
1
40
1
40
1
41
1
10
13.4613248654051
20
-12.133089967471
30
0
41
1
10
13.4771575420862
20
-12.133089967471
30
0
41
1
10
13.4926967829159
20
-12.1346446934814
30
0
41
1
10
13.5156051329863
20
-12.1390985861074
30
0
41
1
10
13.5231743077461
20
-12.1409378530105
30
0
41
1
10
13.5381834149643
20
-12.1453009719698
30
0
41
1
10
13.5456561777206
20
-12.1478396076279
30
0
41
1
10
13.5820585103616
20
-12.161925569405
30
0
41
1
10
13.6085397975366
20
-12.1776162497592
30
0
41
1
10
13.6577471021952
20
-12.2150722196262
30
0
41
1
10
13.6795828635238
20
-12.2361555816482
30
0
41
1
10
13.7096051321544
20
-12.2700982796014
30
0
41
1
10
13.7191444204644
20
-12.2818098068953
30
0
41
1
10
13.7374189069211
20
-12.3059141713458
30
0
41
1
10
13.7461680175129
20
-12.3183336732124
30
0
41
1
10
13.7710680782536
20
-12.3560364080033
30
0
41
1
10
13.7859982057652
20
-12.3818915830844
30
0
41
1
10
13.8133554924884
20
-12.4346746200448
30
0
41
1
10
13.8257737503388
20
-12.4616063758705
30
0
41
1
10
13.8599678398711
20
-12.5437053894651
30
0
41
1
10
13.8787504379151
20
-12.6003080708706
30
0
41
1
10
13.8943375672974
20
-12.6576002058705
30
0
0
SPLINE
5
182
100
AcDbEntity
8
1
62
256
6
ByLayer
370
18
48
1
60
0
100
AcDbSpline
70
4
71
3
72
32
73
28
40
0
40
0
40
0
40
0
40
0.249999999999972
40
0.249999999999972
40
0.374999999999959
40
0.374999999999959
40
0.437499999999952
40
0.437499999999952
40
0.499999999999945
40
0.499999999999945
40
0.624999999999944
40
0.624999999999944
40
0.687499999999947
40
0.687499999999947
40
0.74999999999995
40
0.74999999999995
40
0.812499999999952
40
0.812499999999952
40
0.843749999999958
40
0.843749999999958
40
0.874999999999964
40
0.874999999999964
40
0.937499999999979
40
0.937499999999979
40
0.96874999999999
40
0.96874999999999
40
1
40
1
40
1
40
1
41
1
10
13.8943375672972
20
-37.9445010117191
30
0
41
1
10
13.8787561873886
20
-37.9636055836586
30
0
41
1
10
13.8601238798741
20
-37.9822012953861
30
0
41
1
10
13.8260027135194
20
-38.0091614379608
30
0
41
1
10
13.8135898550185
20
-38.0179913785433
30
0
41
1
10
13.7930183318665
20
-38.0309572795536
30
0
41
1
10
13.7858339393048
20
-38.0352325300315
30
0
41
1
10
13.7707119348144
20
-38.0436784163768
30
0
41
1
10
13.7627640242148
20
-38.0478530906643
30
0
41
1
10
13.7378358829825
20
-38.0600837295902
30
0
41
1
10
13.7197379933356
20
-38.0678870466104
30
0
41
1
10
13.6895137280944
20
-38.0788882765902
30
0
41
1
10
13.6789130531143
20
-38.0824358644267
30
0
41
1
10
13.6568189855005
20
-38.0891364033824
30
0
41
1
10
13.6452904427557
20
-38.0923035991792
30
0
41
1
10
13.6210819432584
20
-38.0982048271663
30
0
41
1
10
13.6084039311044
20
-38.1009395753102
30
0
41
1
10
13.588310034554
20
-38.1046401449179
30
0
41
1
10
13.581401623771
20
-38.1058104966308
30
0
41
1
10
13.5673963362428
20
-38.1079654954302
30
0
41
1
10
13.5602871584324
20
-38.1089532874669
30
0
41
1
10
13.5386188527678
20
-38.1116304436586
30
0
41
1
10
13.5237210688635
20
-38.1130353910944
30
0
41
1
10
13.5005803004525
20
-38.1144782270721
30
0
41
1
10
13.4927562946968
20
-38.1148453768633
30
0
41
1
10
13.477095253846
20
-38.1153341847952
30
0
41
1
10
13.4692285817716
20
-38.1154578595255
30
0
41
1
10
13.4613248654051
20
-38.1154578595255
30
0
0
SPLINE
5
183
100
AcDbEntity
8
SK1
62
256
6
ByLayer
370
18
48
1
60
0
100
AcDbSpline
70
4
71
3
72
53
73
49
40
0
40
0
40
0
40
0
40
0.027482431476404
40
0.055277077206678
40
0.0830717229369521
40
0.0969690458020891
40
0.110866368667226
40
0.1386610143975
40
0.166455660127774
40
0.194250305858048
40
0.222044951588322
40
0.249839597318596
40
0.27763424304887
40
0.305428888779144
40
0.333223534509418
40
0.361018180239692
40
0.388812825969966
40
0.41660747170024
40
0.430504794565377
40
0.444402117430514
40
0.458299440295651
40
0.472196763160788
40
0.486094086025925
40
0.493042747458494
40
0.499991408891062
40
0.506940070323631
40
0.513888731756199
40
0.527786054621336
40
0.541683377486473
40
0.55558070035161
40
0.569478023216747
40
0.583375346081884
40
0.611169991812158
40
0.638964637542432
40
0.666759283272706
40
0.69455392900298
40
0.722348574733254
40
0.750143220463528
40
0.777937866193802
40
0.805732511924076
40
0.83352715765435
40
0.861321803384624
40
0.889116449114898
40
0.903013771980036
40
0.916911094845172
40
0.944705740575446
40
0.97250038630572
40
1
40
1
40
1
40
1
41
1
10
-48.0000000000001
20
-25.5414480478645
30
0
41
1
10
-48.0000000000001
20
-25.5425618237821
30
0
41
1
10
-48.0000000000001
20
-25.4640636549268
30
0
41
1
10
-48.0000000000001
20
-25.1322425192966
30
0
41
1
10
-48.0000000000001
20
-24.6943789872259
30
0
41
1
10
-48.0000000000001
20
-24.2527507958701
30
0
41
1
10
-48.0000000000001
20
-23.7534965427188
30
0
41
1
10
-48.0000000000001
20
-23.030309772166
30
0
41
1
10
-48.0000000000001
20
-22.0048954887129
30
0
41
1
10
-48.0000000000001
20
-20.8328487199719
30
0
41
1
10
-48.0000000000001
20
-19.5200996220051
30
0
41
1
10
-48.0000000000001
20
-18.0723511216475
30
0
41
1
10
-48.0000000000001
20
-16.4949784354154
30
0
41
1
10
-48.0000000000001
20
-14.7914034442657
30
0
41
1
10
-48
20
-12.9663998685648
30
0
41
1
10
-48
20
-11.0239134221953
30
0
41
1
10
-48
20
-8.96950823728517
30
0
41
1
10
-48
20
-7.1768657739093
30
0
41
1
10
-48
20
-5.68399982568371
30
0
41
1
10
-48
20
-4.55359781560853
30
0
41
1
10
-48
20
-3.41075035191318
30
0
41
1
10
-48
20
-2.26472549180232
30
0
41
1
10
-48
20
-1.32161475247139
30
0
41
1
10
-48
20
-0.561042317499073
30
0
41
1
10
-48
20
5.827934615E-07
30
0
41
1
10
-48
20
0.561043122290187
30
0
41
1
10
-48
20
1.32161426869393
30
0
41
1
10
-48
20
2.26472380030242
30
0
41
1
10
-48
20
3.41075020779331
30
0
41
1
10
-48
20
4.55359888251658
30
0
41
1
10
-48
20
5.683999612619
30
0
41
1
10
-48
20
7.17686534047022
30
0
41
1
10
-48
20
8.96950825544081
30
0
41
1
10
-47.9999999999999
20
11.023913502029
30
0
41
1
10
-47.9999999999999
20
12.9663999896203
30
0
41
1
10
-47.9999999999999
20
14.7914038739655
30
0
41
1
10
-47.9999999999999
20
16.494978782605
30
0
41
1
10
-47.9999999999999
20
18.0723510721557
30
0
41
1
10
-47.9999999999999
20
19.5200990771865
30
0
41
1
10
-47.9999999999999
20
20.832848699864
30
0
41
1
10
-47.9999999999999
20
22.0048965474212
30
0
41
1
10
-47.9999999999999
20
23.0303087127376
30
0
41
1
10
-47.9999999999999
20
23.7534935831731
30
0
41
1
10
-47.9999999999999
20
24.2527492082179
30
0
41
1
10
-47.9999999999999
20
24.6943791914989
30
0
41
1
10
-47.9999999999999
20
25.1322422668057
30
0
41
1
10
-47.9999999999999
20
25.4641323594894
30
0
41
1
10
-47.9999999999999
20
25.5426107969161
30
0
41
1
10
-47.9999999999999
20
25.5414458992029
30
0
0
SPLINE
5
184
100
AcDbEntity
8
SK1
62
256
6
ByLayer
370
18
48
1
60
0
100
AcDbSpline
70
4
71
3
72
34
73
30
40
0
40
0
40
0
40
0
40
0.249999999999994
40
0.249999999999994
40
0.374999999999992
40
0.374999999999992
40
0.499999999999991
40
0.499999999999991
40
0.624999999999989
40
0.624999999999989
40
0.687499999999989
40
0.687499999999989
40
0.749999999999989
40
0.749999999999989
40
0.812499999999989
40
0.812499999999989
40
0.843749999999991
40
0.843749999999991
40
0.874999999999993
40
0.874999999999993
40
0.906249999999995
40
0.906249999999995
40
0.921874999999995
40
0.921874999999995
40
0.937499999999996
40
0.937499999999996
40
0.968749999999998
40
0.968749999999998
40
1
40
1
40
1
40
1
41
1
10
-0.200000000000017
20
-6.55227712232499
30
0
41
1
10
-0.200337167165458
20
-6.48813612986376
30
0
41
1
10
-0.202001510499912
20
-6.42391230321647
30
0
41
1
10
-0.207302963817341
20
-6.32744107363933
30
0
41
1
10
-0.209543235203569
20
-6.29526142118729
30
0
41
1
10
-0.215252325213157
20
-6.23085553749689
30
0
41
1
10
-0.218714447593328
20
-6.1986292664013
30
0
41
1
10
-0.227377685184052
20
-6.13412972903618
30
0
41
1
10
-0.232547642906638
20
-6.10194739347912
30
0
41
1
10
-0.242355179803241
20
-6.05395477419654
30
0
41
1
10
-0.245978726317844
20
-6.03797456128353
30
0
41
1
10
-0.254174420408106
20
-6.00627164279564
30
0
41
1
10
-0.258730367644148
20
-5.99057839566009
30
0
41
1
10
-0.2692452672363
20
-5.95968016956064
30
0
41
1
10
-0.275173744753232
20
-5.94446441589301
30
0
41
1
10
-0.285980482524792
20
-5.92231143869839
30
0
41
1
10
-0.289905978981693
20
-5.91504038952883
30
0
41
1
10
-0.298797923188033
20
-5.9008642672645
30
0
41
1
10
-0.303674067400891
20
-5.89408804025422
30
0
41
1
10
-0.314848838487905
20
-5.88165454576179
30
0
41
1
10
-0.321040616956623
20
-5.87610899057307
30
0
41
1
10
-0.331681166148485
20
-5.86978149468351
30
0
41
1
10
-0.33549372201702
20
-5.86801034282462
30
0
41
1
10
-0.343284951652976
20
-5.86552288649179
30
0
41
1
10
-0.347371812910438
20
-5.86477563679694
30
0
41
1
10
-0.359534957572208
20
-5.86423711805918
30
0
41
1
10
-0.367571007865081
20
-5.86616228333773
30
0
41
1
10
-0.38210175002942
20
-5.87272803663092
30
0
41
1
10
-0.388790995722076
20
-5.87734923192875
30
0
41
1
10
-0.39491379981132
20
-5.8825856729909
30
0
0
SPLINE
5
185
100
AcDbEntity
8
SK1
62
256
6
ByLayer
370
18
48
1
60
0
100
AcDbSpline
70
4
71
3
72
38
73
34
40
0
40
0
40
0
40
0
40
0.0156249999999991
40
0.0156249999999991
40
0.0312499999999981
40
0.0312499999999981
40
0.0468749999999972
40
0.0468749999999972
40
0.0624999999999963
40
0.0624999999999963
40
0.0781249999999953
40
0.0781249999999953
40
0.0937499999999944
40
0.0937499999999944
40
0.124999999999994
40
0.124999999999994
40
0.156249999999994
40
0.156249999999994
40
0.187499999999994
40
0.187499999999994
40
0.249999999999994
40
0.249999999999994
40
0.312499999999995
40
0.312499999999995
40
0.374999999999995
40
0.374999999999995
40
0.499999999999995
40
0.499999999999995
40
0.624999999999996
40
0.624999999999996
40
0.749999999999996
40
0.749999999999996
40
1
40
1
40
1
40
1
41
1
10
-0.394913799811263
20
5.88258733498483
30
0
41
1
10
-0.391855475614108
20
5.87997174517943
30
0
41
1
10
-0.388679953698329
20
5.87753166439151
30
0
41
1
10
-0.382023894922725
20
5.87310852950293
30
0
41
1
10
-0.378520660678419
20
5.87111352959076
30
0
41
1
10
-0.371204411524758
20
5.86780375001044
30
0
41
1
10
-0.367430305230187
20
5.86650268448449
30
0
41
1
10
-0.359586250878635
20
5.86480236632462
30
0
41
1
10
-0.355491062365672
20
5.86442041571942
30
0
41
1
10
-0.347419400494317
20
5.86477259204992
30
0
41
1
10
-0.343334353292619
20
5.86551178963006
30
0
41
1
10
-0.335509573653155
20
5.86800393240807
30
0
41
1
10
-0.331763154935658
20
5.86973798480327
30
0
41
1
10
-0.320994194999429
20
5.87613112177442
30
0
41
1
10
-0.314813212304585
20
5.88168816956662
30
0
41
1
10
-0.303617390374825
20
5.89416050242841
30
0
41
1
10
-0.298778631313411
20
5.90089959919405
30
0
41
1
10
-0.289962744453817
20
5.91494866899558
30
0
41
1
10
-0.285986366953068
20
5.92229535303829
30
0
41
1
10
-0.275047927332906
20
5.94473551098559
30
0
41
1
10
-0.269098119985017
20
5.96006824141105
30
0
41
1
10
-0.258566536361087
20
5.99110891560568
30
0
41
1
10
-0.254019815815184
20
6.00682672168014
30
0
41
1
10
-0.245851820113074
20
6.03851342290761
30
0
41
1
10
-0.242238444718993
20
6.05448453988956
30
0
41
1
10
-0.232418188950845
20
6.10267140648355
30
0
41
1
10
-0.227272492676178
20
6.13483454456517
30
0
41
1
10
-0.218659309075264
20
6.19912309063815
30
0
41
1
10
-0.215212061754784
20
6.23126348879507
30
0
41
1
10
-0.209524252435443
20
6.29552574618916
30
0
41
1
10
-0.207290131858201
20
6.32764778181934
30
0
41
1
10
-0.202001043985888
20
6.42397958323193
30
0
41
1
10
-0.200337078752142
20
6.48815453706865
30
0
41
1
10
-0.199999999999989
20
6.55227865789465
30
0
0
SPLINE
5
186
100
AcDbEntity
8
SK1
62
256
6
ByLayer
370
13
48
1
60
0
100
AcDbSpline
70
4
71
3
72
25
73
21
40
0
40
0
40
0
40
0
40
0.0145587298643186
40
0.0464029862324082
40
0.110091498968588
40
0.173780011704767
40
0.237468524440946
40
0.301157037177126
40
0.364845549913305
40
0.428534062649484
40
0.492222575385664
40
0.555911088121843
40
0.619599600858022
40
0.683288113594202
40
0.746976626330381
40
0.778820882698471
40
0.810665139066561
40
0.87435365180274
40
0.938042164538919
40
1
40
1
40
1
40
1
41
1
10
-0.39491379981132
20
-5.88258567299192
30
0
41
1
10
-0.39491379981132
20
-6.07052405947675
30
0
41
1
10
-0.39491379981132
20
-6.66606717738506
30
0
41
1
10
-0.39491379981132
20
-8.05259623229938
30
0
41
1
10
-0.39491379981132
20
-9.97566753154939
30
0
41
1
10
-0.394913799811349
20
-12.1534974735354
30
0
41
1
10
-0.394913799811349
20
-14.2008618261791
30
0
41
1
10
-0.394913799811349
20
-16.1168447823444
30
0
41
1
10
-0.394913799811349
20
-17.9007381804523
30
0
41
1
10
-0.394913799811377
20
-19.549694005804
30
0
41
1
10
-0.394913799811377
20
-21.0615461829413
30
0
41
1
10
-0.394913799811377
20
-22.432052288855
30
0
41
1
10
-0.394913799811377
20
-23.6558233145232
30
0
41
1
10
-0.394913799811377
20
-24.7273078069339
30
0
41
1
10
-0.394913799811377
20
-25.4857549542384
30
0
41
1
10
-0.394913799811377
20
-26.0073865712911
30
0
41
1
10
-0.394913799811377
20
-26.4695479101472
30
0
41
1
10
-0.394913799811405
20
-26.9317121751432
30
0
41
1
10
-0.394913799811405
20
-27.2808223276634
30
0
41
1
10
-0.394913799811405
20
-27.3652313105647
30
0
41
1
10
-0.394913799811405
20
-27.3654106727454
30
0
0
SPLINE
5
187
100
AcDbEntity
8
SK1
62
256
6
ByLayer
370
18
48
1
60
0
100
AcDbSpline
70
4
71
3
72
49
73
45
40
0
40
0
40
0
40
0
40
0.0312500000000038
40
0.0312500000000038
40
0.0468750000000048
40
0.0468750000000048
40
0.0625000000000058
40
0.0781250000000069
40
0.0781250000000069
40
0.0859375000000073
40
0.0859375000000073
40
0.0937500000000077
40
0.109375000000009
40
0.117187500000009
40
0.117187500000009
40
0.125000000000009
40
0.125000000000009
40
0.15625000000001
40
0.15625000000001
40
0.171875000000011
40
0.171875000000011
40
0.187500000000011
40
0.187500000000011
40
0.218750000000012
40
0.218750000000012
40
0.234375000000012
40
0.234375000000012
40
0.250000000000012
40
0.250000000000012
40
0.31250000000001
40
0.31250000000001
40
0.375000000000009
40
0.375000000000009
40
0.437500000000007
40
0.437500000000007
40
0.500000000000006
40
0.500000000000006
40
0.625000000000004
40
0.625000000000004
40
0.750000000000003
40
0.750000000000003
40
0.875000000000001
40
0.875000000000001
40
1
40
1
40
1
40
1
41
1
10
-0.39491379981132
20
-5.88258567299192
30
0
41
1
10
-0.411179767739867
20
-5.89649691057778
30
0
41
1
10
-0.428385528731525
20
-5.90924654958064
30
0
41
1
10
-0.456220231625195
20
-5.92587726264904
30
0
41
1
10
-0.465900558107364
20
-5.93102514312227
30
0
41
1
10
-0.48569918891323
20
-5.94009851027181
30
0
41
1
10
-0.505959902330716
20
-5.94797987906676
30
0
41
1
10
-0.52727632439516
20
-5.95314074745056
30
0
41
1
10
-0.543724271296696
20
-5.9558251558885
30
0
41
1
10
-0.549307626346632
20
-5.95652193855128
30
0
41
1
10
-0.560402254070254
20
-5.95747179112044
30
0
41
1
10
-0.577005048576751
20
-5.95824738974093
30
0
41
1
10
-0.598988113232082
20
-5.95672779936984
30
0
41
1
10
-0.615363151583267
20
-5.953726487664
30
0
41
1
10
-0.626255188472413
20
-5.95131675596099
30
0
41
1
10
-0.631686913413517
20
-5.94990548753631
30
0
41
1
10
-0.658283686674338
20
-5.94201343342041
30
0
41
1
10
-0.678213101083713
20
-5.93297784531563
30
0
41
1
10
-0.706655485452217
20
-5.91648780259627
30
0
41
1
10
-0.715834603579083
20
-5.91052268984234
30
0
41
1
10
-0.733450676613359
20
-5.89799413410989
30
0
41
1
10
-0.741931675642974
20
-5.89140462063131
30
0
41
1
10
-0.766568398283454
20
-5.87083261121123
30
0
41
1
10
-0.781926636665673
20
-5.85605532307281
30
0
41
1
10
-0.803808427400895
20
-5.8327319572052
30
0
41
1
10
-0.810909537595478
20
-5.82475689909123
30
0
41
1
10
-0.824642187820501
20
-5.80862406976092
30
0
41
1
10
-0.831293292074747
20
-5.8004459091575
30
0
41
1
10
-0.863632300216551
20
-5.75907701915665
30
0
41
1
10
-0.886653206455151
20
-5.72449384855278
30
0
41
1
10
-0.929268994496823
20
-5.65349793311387
30
0
41
1
10
-0.948821917963443
20
-5.61706391416035
30
0
41
1
10
-0.9854903268116
20
-5.54286169997809
30
0
41
1
10
-1.00262576586448
20
-5.50500475294339
30
0
41
1
10
-1.03481085007658
20
-5.42880990558518
30
0
41
1
10
-1.049879588408
20
-5.39043436268409
30
0
41
1
10
-1.0927183179077
20
-5.27463055419162
30
0
41
1
10
-1.11815612697546
20
-5.1965332099478
30
0
41
1
10
-1.16484869971205
20
-5.03900155537229
30
0
41
1
10
-1.18607375956302
20
-4.95956033007349
30
0
41
1
10
-1.22537042104099
20
-4.79955772182797
30
0
41
1
10
-1.24343193354571
20
-4.71899405044132
30
0
41
1
10
-1.27704610356759
20
-4.55687629477117
30
0
41
1
10
-1.29259442759721
20
-4.47532122975804
30
0
41
1
10
-1.30710678118655
20
-4.39331221032487
30
0
0
SPLINE
5
188
100
AcDbEntity
8
SK1
62
256
6
ByLayer
370
18
48
1
60
0
100
AcDbSpline
70
4
71
3
72
50
73
46
40
0
40
0
40
0
40
0
40
0.124999999999998
40
0.124999999999998
40
0.249999999999996
40
0.249999999999996
40
0.312499999999996
40
0.312499999999996
40
0.374999999999996
40
0.374999999999996
40
0.499999999999996
40
0.499999999999996
40
0.562499999999996
40
0.562499999999996
40
0.624999999999997
40
0.624999999999997
40
0.687499999999997
40
0.687499999999997
40
0.718749999999997
40
0.718749999999997
40
0.749999999999997
40
0.749999999999997
40
0.781249999999998
40
0.781249999999998
40
0.812499999999998
40
0.812499999999998
40
0.843749999999998
40
0.843749999999998
40
0.859374999999998
40
0.859374999999998
40
0.874999999999998
40
0.890624999999998
40
0.890624999999998
40
0.898437499999998
40
0.898437499999998
40
0.906249999999998
40
0.921874999999998
40
0.921874999999998
40
0.937499999999999
40
0.937499999999999
40
0.968749999999999
40
0.968749999999999
40
0.984375
40
0.984375
40
1
40
1
40
1
40
1
41
1
10
-1.30710678118652
20
4.39330887788606
30
0
41
1
10
-1.29259057630256
20
4.47534003310412
30
0
41
1
10
-1.27702923965072
20
4.55696714625805
30
0
41
1
10
-1.24335659670558
20
4.71934352683385
30
0
41
1
10
-1.22524991683201
20
4.80009364705947
30
0
41
1
10
-1.19566654622426
20
4.92047732721875
30
0
41
1
10
-1.18539939501377
20
4.96048124175471
30
0
41
1
10
-1.16392950861754
20
5.04022016000795
30
0
41
1
10
-1.15271909218828
20
5.07998178339514
30
0
41
1
10
-1.11752093416874
20
5.19855796010594
30
0
41
1
10
-1.09200642706725
20
5.27670114460136
30
0
41
1
10
-1.0492407274256
20
5.39208696039736
30
0
41
1
10
-1.03422852656959
20
5.43024134229668
30
0
41
1
10
-1.00227006366245
20
5.50579467647674
30
0
41
1
10
-0.985329895267597
20
5.54319570602496
30
0
41
1
10
-0.948842305699031
20
5.61701592648748
30
0
41
1
10
-0.929311633153418
20
5.65344083322157
30
0
41
1
10
-0.897134039200722
20
5.70702849131604
30
0
41
1
10
-0.885889244318037
20
5.72475996992927
30
0
41
1
10
-0.862388317867413
20
5.75943238422735
30
0
41
1
10
-0.850124764431285
20
5.77639487115229
30
0
41
1
10
-0.824286187770213
20
5.80937247929978
30
0
41
1
10
-0.81071499356699
20
5.82539030326046
30
0
41
1
10
-0.78181052016231
20
5.85616212382189
30
0
41
1
10
-0.766480020681485
20
5.87092930527115
30
0
41
1
10
-0.733280688453021
20
5.89860840862804
30
0
41
1
10
-0.715743791280261
20
5.91124847506274
30
0
41
1
10
-0.68741628460927
20
5.92762938506613
30
0
41
1
10
-0.677572371948372
20
5.93267724259607
30
0
41
1
10
-0.657498098822884
20
5.94150365482599
30
0
41
1
10
-0.636988070186447
20
5.94910381427817
30
0
41
1
10
-0.615487385337133
20
5.9539180373385
30
0
41
1
10
-0.598932162610765
20
5.95632074310808
30
0
41
1
10
-0.593335497469837
20
5.95691733339831
30
0
41
1
10
-0.58224137494102
20
5.95766809286985
30
0
41
1
10
-0.565657821584409
20
5.95814654054257
30
0
41
1
10
-0.54924370449001
20
5.95672090529089
30
0
41
1
10
-0.527503554619585
20
5.95318620141708
30
0
41
1
10
-0.516622342716403
20
5.95056688400257
30
0
41
1
10
-0.485210602129968
20
5.94070326229377
30
0
41
1
10
-0.465634608434925
20
5.93149511928672
30
0
41
1
10
-0.437740327393641
20
5.91484188421759
30
0
41
1
10
-0.428752255076858
20
5.90884528223492
30
0
41
1
10
-0.411413024584249
20
5.89619973179913
30
0
41
1
10
-0.403039329106406
20
5.88953658242153
30
0
41
1
10
-0.394913799811263
20
5.88258733498481
30
0
0
SPLINE
5
189
100
AcDbEntity
8
SK1
62
256
6
ByLayer
370
13
48
1
60
0
100
AcDbSpline
70
4
71
3
72
25
73
21
40
0
40
0
40
0
40
0
40
0.0621299015981847
40
0.125806734787316
40
0.189483567976448
40
0.221321984571014
40
0.253160401165579
40
0.316837234354711
40
0.380514067543842
40
0.444190900732974
40
0.507867733922106
40
0.571544567111237
40
0.635221400300369
40
0.6988982334895
40
0.762575066678632
40
0.826251899867763
40
0.889928733056895
40
0.953605566246026
40
0.985443982840592
40
1
40
1
40
1
40
1
41
1
10
-0.394913799811206
20
27.36541117583
30
0
41
1
10
-0.394913799811178
20
27.3654776918444
30
0
41
1
10
-0.394913799811178
20
27.2811606649855
30
0
41
1
10
-0.394913799811178
20
26.931711914563
30
0
41
1
10
-0.394913799811206
20
26.4695479228793
30
0
41
1
10
-0.394913799811206
20
26.0073845707252
30
0
41
1
10
-0.394913799811206
20
25.4857521565205
30
0
41
1
10
-0.394913799811206
20
24.7273073402748
30
0
41
1
10
-0.394913799811206
20
23.6558244102428
30
0
41
1
10
-0.394913799811206
20
22.4320519750209
30
0
41
1
10
-0.394913799811206
20
21.061545739767
30
0
41
1
10
-0.394913799811206
20
19.5496941631405
30
0
41
1
10
-0.394913799811235
20
17.9007385657829
30
0
41
1
10
-0.394913799811235
20
16.116845123771
30
0
41
1
10
-0.394913799811235
20
14.2008618153781
30
0
41
1
10
-0.394913799811235
20
12.153497457354
30
0
41
1
10
-0.394913799811263
20
9.97566741413243
30
0
41
1
10
-0.394913799811263
20
8.05259596592001
30
0
41
1
10
-0.394913799811263
20
6.66606769858655
30
0
41
1
10
-0.394913799811263
20
6.07052516538181
30
0
41
1
10
-0.394913799811263
20
5.88258733498483
30
0
0
SPLINE
5
18A
100
AcDbEntity
8
SK1
62
256
6
ByLayer
370
18
48
1
60
0
100
AcDbSpline
70
4
71
3
72
36
73
32
40
0
40
0
40
0
40
0
40
0.0625000000000002
40
0.0625000000000002
40
0.125
40
0.125
40
0.250000000000001
40
0.250000000000001
40
0.312500000000001
40
0.312500000000001
40
0.343750000000001
40
0.343750000000001
40
0.375000000000001
40
0.375000000000001
40
0.437500000000001
40
0.437500000000001
40
0.500000000000001
40
0.5625
40
0.5625
40
0.625
40
0.625
40
0.6875
40
0.71875
40
0.71875
40
0.75
40
0.75
40
0.875
40
0.875
40
0.9375
40
0.9375
40
1
40
1
40
1
40
1
41
1
10
-1.30710678118655
20
-4.39331221032489
30
0
41
1
10
-1.33832612741193
20
-4.21689231016722
30
0
41
1
10
-1.36851092390376
20
-4.03973122982887
30
0
41
1
10
-1.42649811963091
20
-3.68381684447201
30
0
41
1
10
-1.45429466041941
20
-3.50506155058414
30
0
41
1
10
-1.53342175503582
20
-2.96616199669305
30
0
41
1
10
-1.58051371000479
20
-2.60339474516388
30
0
41
1
10
-1.63969017396079
20
-2.05289759168917
30
0
41
1
10
-1.65749856469557
20
-1.86833789193395
30
0
41
1
10
-1.68090524760893
20
-1.58974420341144
30
0
41
1
10
-1.68815609252624
20
-1.4965870997257
30
0
41
1
10
-1.70147805604537
20
-1.30965819488989
30
0
41
1
10
-1.70755165689621
20
-1.21581541728392
30
0
41
1
10
-1.72381183076919
20
-0.934723518861318
30
0
41
1
10
-1.73206493494845
20
-0.747501097942717
30
0
41
1
10
-1.7429848038179
20
-0.373418392454084
30
0
41
1
10
-1.74839182943302
20
0.0003055804815801
30
0
41
1
10
-1.74297993884852
20
0.373323280942145
30
0
41
1
10
-1.73211744010527
20
0.745986303504452
30
0
41
1
10
-1.72392517749429
20
0.932138827990201
30
0
41
1
10
-1.70248074969007
20
1.30410713450161
30
0
41
1
10
-1.68260948363638
20
1.58283112758753
30
0
41
1
10
-1.65757931062797
20
1.86120029185437
30
0
41
1
10
-1.63980474419279
20
2.04670347397035
30
0
41
1
10
-1.63039580544412
20
2.1391828740305
30
0
41
1
10
-1.58095222331164
20
2.60000741581413
30
0
41
1
10
-1.53372925180182
20
2.96395482764058
30
0
41
1
10
-1.45444775249803
20
3.50406852662027
30
0
41
1
10
-1.42660609580415
20
3.68313524459486
30
0
41
1
10
-1.36854874276651
20
4.03950797751688
30
0
41
1
10
-1.33833886963825
20
4.21681617087032
30
0
41
1
10
-1.30710678118652
20
4.39330887788606
30
0
0
SPLINE
5
18B
100
AcDbEntity
8
SK1
62
256
6
ByLayer
370
13
48
1
60
0
100
AcDbSpline
70
4
71
3
72
53
73
49
40
0
40
0
40
0
40
0
40
0.0270897952492186
40
0.054906819075247
40
0.0827238429012754
40
0.0966323548142896
40
0.110540866727304
40
0.138357890553332
40
0.166174914379361
40
0.193991938205389
40
0.221808962031418
40
0.249625985857446
40
0.277443009683474
40
0.305260033509503
40
0.333077057335531
40
0.36089408116156
40
0.388711104987588
40
0.416528128813616
40
0.430436640726631
40
0.444345152639645
40
0.458253664552659
40
0.472162176465673
40
0.486070688378687
40
0.493024944335194
40
0.499979200291702
40
0.506933456248209
40
0.513887712204716
40
0.52779622411773
40
0.541704736030744
40
0.555613247943758
40
0.569521759856773
40
0.583430271769787
40
0.611247295595815
40
0.639064319421844
40
0.666881343247872
40
0.6946983670739
40
0.722515390899929
40
0.750332414725957
40
0.778149438551986
40
0.805966462378014
40
0.833783486204043
40
0.861600510030071
40
0.889417533856099
40
0.903326045769114
40
0.917234557682128
40
0.945051581508156
40
0.972868605334185
40
1
40
1
40
1
40
1
41
1
10
-1.9950399779392
20
27.3252179127369
30
0
41
1
10
-1.9950399779392
20
27.3251264228834
30
0
41
1
10
-1.9950399779392
20
27.2408693478857
30
0
41
1
10
-1.9950399779392
20
26.8920579638066
30
0
41
1
10
-1.9950399779392
20
26.4304294784276
30
0
41
1
10
-1.9950399779392
20
25.9687186091476
30
0
41
1
10
-1.9950399779392
20
25.4475793002846
30
0
41
1
10
-1.9950399779392
20
24.6899114886171
30
0
41
1
10
-1.9950399779392
20
23.619443795401
30
0
41
1
10
-1.9950399779392
20
22.3968111872691
30
0
41
1
10
-1.99503997793923
20
21.0275777036138
30
0
41
1
10
-1.99503997793923
20
19.5171387431293
30
0
41
1
10
-1.99503997793923
20
17.8697605888624
30
0
41
1
10
-1.99503997793923
20
16.0876370834377
30
0
41
1
10
-1.99503997793926
20
14.1736586399813
30
0
41
1
10
-1.99503997793926
20
12.1286054195275
30
0
41
1
10
-1.99503997793926
20
9.95349522257501
30
0
41
1
10
-1.99503997793926
20
8.03329795823163
30
0
41
1
10
-1.99503997793928
20
6.43152354524267
30
0
41
1
10
-1.99503997793928
20
5.19920324116256
30
0
41
1
10
-1.99503997793928
20
3.93622738701507
30
0
41
1
10
-1.99503997793928
20
2.64495367748941
30
0
41
1
10
-1.99503997793928
20
1.54951551889729
30
0
41
1
10
-1.99503997793928
20
0.6647912077417
30
0
41
1
10
-1.99503997793928
20
-1.48582728E-08
30
0
41
1
10
-1.99503997793931
20
-0.664791253601607
30
0
41
1
10
-1.99503997793931
20
-1.549515656636
30
0
41
1
10
-1.99503997793931
20
-2.64495403942521
30
0
41
1
10
-1.99503997793931
20
-3.93622781621519
30
0
41
1
10
-1.99503997793931
20
-5.19920320851571
30
0
41
1
10
-1.99503997793931
20
-6.43152352997811
30
0
41
1
10
-1.99503997793931
20
-8.03329822829241
30
0
41
1
10
-1.99503997793934
20
-9.95349533700443
30
0
41
1
10
-1.99503997793934
20
-12.1286054335931
30
0
41
1
10
-1.99503997793934
20
-14.1736586478766
30
0
41
1
10
-1.99503997793937
20
-16.0876367400659
30
0
41
1
10
-1.99503997793937
20
-17.8697602043723
30
0
41
1
10
-1.99503997793937
20
-19.5171385903506
30
0
41
1
10
-1.99503997793937
20
-21.027578149028
30
0
41
1
10
-1.99503997793937
20
-22.3968114946304
30
0
41
1
10
-1.9950399779394
20
-23.6194427004969
30
0
41
1
10
-1.9950399779394
20
-24.6899119683388
30
0
41
1
10
-1.9950399779394
20
-25.4475821015686
30
0
41
1
10
-1.9950399779394
20
-25.9687206006143
30
0
41
1
10
-1.9950399779394
20
-26.4304294614745
30
0
41
1
10
-1.9950399779394
20
-26.8920582242086
30
0
41
1
10
-1.9950399779394
20
-27.2410446986152
30
0
41
1
10
-1.9950399779394
20
-27.3252538146815
30
0
41
1
10
-1.9950399779394
20
-27.325218040595
30
0
0
SPLINE
5
18C
100
AcDbEntity
8
SK1
62
256
6
ByLayer
370
18
48
1
60
0
100
AcDbSpline
70
4
71
3
72
53
73
49
40
0
40
0
40
0
40
0
40
0.0183862533792003
40
0.0467164718518287
40
0.075046690324457
40
0.0892117995607712
40
0.103376908797085
40
0.131707127269714
40
0.160037345742342
40
0.188367564214971
40
0.216697782687599
40
0.245028001160227
40
0.273358219632856
40
0.301688438105484
40
0.330018656578112
40
0.358348875050741
40
0.386679093523369
40
0.415009311995997
40
0.429174421232311
40
0.443339530468626
40
0.45750463970494
40
0.471669748941254
40
0.485834858177568
40
0.492917412795725
40
0.499999967413882
40
0.50708252203204
40
0.514165076650197
40
0.528330185886511
40
0.542495295122825
40
0.556660404359139
40
0.570825513595453
40
0.584990622831768
40
0.613320841304396
40
0.641651059777024
40
0.669981278249653
40
0.698311496722281
40
0.726641715194909
40
0.754971933667538
40
0.783302152140166
40
0.811632370612795
40
0.839962589085423
40
0.868292807558051
40
0.89662302603068
40
0.910788135266994
40
0.924953244503308
40
0.953283462975936
40
0.981613681448565
40
1
40
1
40
1
40
1
41
1
10
-2.1999999999999
20
27.5062744618746
30
0
41
1
10
-2.19999999999987
20
27.4880697297422
30
0
41
1
10
-2.1999999999999
20
27.3968430169025
30
0
41
1
10
-2.1999999999999
20
27.0843206529938
30
0
41
1
10
-2.1999999999999
20
26.6200957584238
30
0
41
1
10
-2.1999999999999
20
26.156191020121
30
0
41
1
10
-2.1999999999999
20
25.6326608836802
30
0
41
1
10
-2.1999999999999
20
24.8712257553422
30
0
41
1
10
-2.1999999999999
20
23.7958356733944
30
0
41
1
10
-2.1999999999999
20
22.5676765989873
30
0
41
1
10
-2.19999999999993
20
21.1922721628705
30
0
41
1
10
-2.19999999999993
20
19.6749841148914
30
0
41
1
10
-2.19999999999993
20
18.0199577075533
30
0
41
1
10
-2.19999999999993
20
16.229252641869
30
0
41
1
10
-2.19999999999996
20
14.3055535850363
30
0
41
1
10
-2.19999999999996
20
12.2492947844102
30
0
41
1
10
-2.19999999999996
20
10.0609973779136
30
0
41
1
10
-2.19999999999996
20
8.12686459619212
30
0
41
1
10
-2.19999999999999
20
6.51319173456665
30
0
41
1
10
-2.19999999999999
20
5.269736553461
30
0
41
1
10
-2.19999999999999
20
3.99363661217191
30
0
41
1
10
-2.19999999999999
20
2.68649440179473
30
0
41
1
10
-2.19999999999999
20
1.57441409623579
30
0
41
1
10
-2.19999999999999
20
0.676125852580327
30
0
41
1
10
-2.19999999999999
20
-8.01526596E-08
30
0
41
1
10
-2.19999999999999
20
-0.676125991375187
30
0
41
1
10
-2.20000000000002
20
-1.57441419616916
30
0
41
1
10
-2.20000000000002
20
-2.68649461847349
30
0
41
1
10
-2.20000000000002
20
-3.99363707251749
30
0
41
1
10
-2.20000000000002
20
-5.26973663380881
30
0
41
1
10
-2.20000000000002
20
-6.51319169435675
30
0
41
1
10
-2.20000000000002
20
-8.1268648484035
30
0
41
1
10
-2.20000000000005
20
-10.0609975068282
30
0
41
1
10
-2.20000000000005
20
-12.2492948087344
30
0
41
1
10
-2.20000000000005
20
-14.3055536070197
30
0
41
1
10
-2.20000000000007
20
-16.2292523079286
30
0
41
1
10
-2.20000000000007
20
-18.0199573189881
30
0
41
1
10
-2.20000000000007
20
-19.6749839400142
30
0
41
1
10
-2.20000000000007
20
-21.1922725974247
30
0
41
1
10
-2.20000000000007
20
-22.5676769377316
30
0
41
1
10
-2.2000000000001
20
-23.7958345745359
30
0
41
1
10
-2.2000000000001
20
-24.87122617173
30
0
41
1
10
-2.2000000000001
20
-25.6326636676739
30
0
41
1
10
-2.2000000000001
20
-26.1561930557051
30
0
41
1
10
-2.2000000000001
20
-26.6200957619357
30
0
41
1
10
-2.2000000000001
20
-27.0843209142601
30
0
41
1
10
-2.2000000000001
20
-27.3968432681398
30
0
41
1
10
-2.2000000000001
20
-27.4880698358187
30
0
41
1
10
-2.2000000000001
20
-27.5062745376466
30
0
0
SPLINE
5
18D
100
AcDbEntity
8
SK1
62
256
6
ByLayer
370
18
48
1
60
0
100
AcDbSpline
70
4
71
3
72
53
73
49
40
0
40
0
40
0
40
0
40
0.0184049976846109
40
0.0467338371945424
40
0.075062676704474
40
0.0892270964594397
40
0.103391516214405
40
0.131720355724337
40
0.160049195234268
40
0.1883780347442
40
0.216706874254131
40
0.245035713764063
40
0.273364553273995
40
0.301693392783926
40
0.330022232293858
40
0.358351071803789
40
0.386679911313721
40
0.415008750823652
40
0.429173170578618
40
0.443337590333584
40
0.45750201008855
40
0.471666429843515
40
0.485830849598481
40
0.492913059475964
40
0.499995269353447
40
0.50707747923093
40
0.514159689108412
40
0.528324108863378
40
0.542488528618344
40
0.55665294837331
40
0.570817368128275
40
0.584981787883241
40
0.613310627393173
40
0.641639466903104
40
0.669968306413036
40
0.698297145922967
40
0.726625985432899
40
0.75495482494283
40
0.783283664452762
40
0.811612503962693
40
0.839941343472625
40
0.868270182982556
40
0.896599022492488
40
0.910763442247454
40
0.924927862002419
40
0.953256701512351
40
0.981585541022282
40
1
40
1
40
1
40
1
41
1
10
-46.4999999999999
20
26.3940910659088
30
0
41
1
10
-46.4999999999999
20
26.3765864124977
30
0
41
1
10
-46.4999999999999
20
26.2887289451754
30
0
41
1
10
-46.4999999999999
20
25.9864884679326
30
0
41
1
10
-46.4999999999999
20
25.5370892350004
30
0
41
1
10
-46.4999999999999
20
25.0857116283693
30
0
41
1
10
-46.4999999999999
20
24.5758332694778
30
0
41
1
10
-46.4999999999999
20
23.835909758967
30
0
41
1
10
-46.4999999999999
20
22.7886268297895
30
0
41
1
10
-46.4999999999999
20
21.5920242293513
30
0
41
1
10
-46.4999999999999
20
20.2518563243234
30
0
41
1
10
-46.4999999999999
20
18.7736770016082
30
0
41
1
10
-46.4999999999999
20
17.1623226058106
30
0
41
1
10
-46.4999999999999
20
15.420618795081
30
0
41
1
10
-46.4999999999999
20
13.5524250589534
30
0
41
1
10
-46.5
20
11.5601508338968
30
0
41
1
10
-46.5
20
9.44715323273326
30
0
41
1
10
-46.5
20
7.59259314167733
30
0
41
1
10
-46.5
20
6.04686117862479
30
0
41
1
10
-46.5
20
4.86698685362305
30
0
41
1
10
-46.5
20
3.66582628473373
30
0
41
1
10
-46.5
20
2.44929422361187
30
0
41
1
10
-46.5
20
1.43224163583824
30
0
41
1
10
-46.5
20
0.611404309556747
30
0
41
1
10
-46.5
20
2.926826426E-07
30
0
41
1
10
-46.5
20
-0.611403917686772
30
0
41
1
10
-46.5
20
-1.43224195164211
30
0
41
1
10
-46.5
20
-2.44929526971728
30
0
41
1
10
-46.5
20
-3.66582656723654
30
0
41
1
10
-46.5
20
-4.86698628876383
30
0
41
1
10
-46.5
20
-6.04686128085422
30
0
41
1
10
-46.5
20
-7.5925934958095
30
0
41
1
10
-46.5
20
-9.44715327893661
30
0
41
1
10
-46.5
20
-11.5601507996433
30
0
41
1
10
-46.5000000000001
20
-13.5524250004929
30
0
41
1
10
-46.5000000000001
20
-15.4206184072862
30
0
41
1
10
-46.5000000000001
20
-17.1623222405145
30
0
41
1
10
-46.5000000000001
20
-18.7736769529141
30
0
41
1
10
-46.5000000000001
20
-20.2518568208891
30
0
41
1
10
-46.5000000000001
20
-21.5920243888971
30
0
41
1
10
-46.5000000000001
20
-22.7886257535109
30
0
41
1
10
-46.5000000000001
20
-23.8359105369951
30
0
41
1
10
-46.5000000000001
20
-24.5758361522003
30
0
41
1
10
-46.5000000000001
20
-25.0857134120401
30
0
41
1
10
-46.5000000000001
20
-25.5370891216556
30
0
41
1
10
-46.5000000000001
20
-25.9864887242635
30
0
41
1
10
-46.5000000000001
20
-26.2887670124885
30
0
41
1
10
-46.5000000000001
20
-26.3766218357015
30
0
41
1
10
-46.5000000000001
20
-26.3941179337032
30
0
0
SPLINE
5
18E
100
AcDbEntity
8
1
62
256
6
ByLayer
370
18
48
1
60
0
100
AcDbSpline
70
4
71
3
72
74
73
70
40
0
40
0
40
0
40
0
40
0.0075024758933664
40
0.0148992199183553
40
0.0222838275355076
40
0.029655676465152
40
0.0370148586585027
40
0.044361484071623
40
0.0516956615374001
40
0.0590174987848201
40
0.0663271024572219
40
0.0736245781311402
40
0.0809100303340371
40
0.0881835625619989
40
0.0954452772970443
40
0.102695276024102
40
0.10993365924767
40
0.117160526508159
40
0.124375976397935
40
0.13158010657706
40
0.138773013788735
40
0.145954793874551
40
0.153125541789216
40
0.160285351615353
40
0.167434316577783
40
0.174572151227108
40
0.181696970112388
40
0.188808589599454
40
0.195907112467903
40
0.20299264037258
40
0.210065273861699
40
0.217125112394245
40
0.22417225435727
40
0.231206797082912
40
0.238228836864868
40
0.245238468974715
40
0.252235787677649
40
0.316747179426755
40
0.379892843275313
40
0.441730493081836
40
0.502156069324697
40
0.523556877992396
40
0.544685813032418
40
0.565545342093674
40
0.586137744176477
40
0.606465117787052
40
0.626529388577497
40
0.646332316515475
40
0.665875502622874
40
0.685160395319473
40
0.704179925308677
40
0.722921093945599
40
0.741385566936025
40
0.759575129005814
40
0.777491414198033
40
0.795135912582951
40
0.812509976600284
40
0.829614827063496
40
0.846451558853518
40
0.863021146326649
40
0.879324448459494
40
0.895362213751704
40
0.911135084905637
40
0.926643603300433
40
0.941878976062404
40
0.956831121297612
40
0.971501264692092
40
0.985890545639715
40
1
40
1
40
1
40
1
41
1
10
366
20
24.9999999999986
30
0
41
1
10
366.000521894441
20
24.9999752851218
30
0
41
1
10
366.001558328299
20
24.9999262036731
30
0
41
1
10
366.003108169379
20
24.9995318592566
30
0
41
1
10
366.004648351702
20
24.9989085727687
30
0
41
1
10
366.006185065585
20
24.9980330865692
30
0
41
1
10
366.007718001871
20
24.9969128186651
30
0
41
1
10
366.009246905404
20
24.995547402673
30
0
41
1
10
366.010771524938
20
24.9939385287227
30
0
41
1
10
366.012291611741
20
24.9920873194636
30
0
41
1
10
366.013806919526
20
24.9899950318013
30
0
41
1
10
366.015317204292
20
24.9876628695862
30
0
41
1
10
366.016822224263
20
24.985092033909
30
0
41
1
10
366.018321739772
20
24.9822837098885
30
0
41
1
10
366.019815513172
20
24.9792390704283
30
0
41
1
10
366.021303308735
20
24.9759592754358
30
0
41
1
10
366.022784892562
20
24.9724454722497
30
0
41
1
10
366.024260032486
20
24.9686987957408
30
0
41
1
10
366.025728497987
20
24.9647203684977
30
0
41
1
10
366.0271900601
20
24.9605113009854
30
0
41
1
10
366.028644491327
20
24.9560726917078
30
0
41
1
10
366.030091565543
20
24.9514056273689
30
0
41
1
10
366.031531057934
20
24.9465111830242
30
0
41
1
10
366.032962744856
20
24.9413904222463
30
0
41
1
10
366.034386378844
20
24.9360444914238
30
0
41
1
10
366.0358015828
20
24.93047505853
30
0
41
1
10
366.03720797058
20
24.9246839685814
30
0
41
1
10
366.038605182315
20
24.9186730674882
30
0
41
1
10
366.039992991908
20
24.9124436841497
30
0
41
1
10
366.041371193284
20
24.9059970565876
30
0
41
1
10
366.042739581549
20
24.8993344100556
30
0
41
1
10
366.044097952878
20
24.8924569571467
30
0
41
1
10
366.045446104451
20
24.8853658983198
30
0
41
1
10
366.046783834343
20
24.8780624208401
30
0
41
1
10
366.048110941536
20
24.8705477036165
30
0
41
1
10
366.049427225551
20
24.862822900062
30
0
41
1
10
366.054309407256
20
24.8331478192009
30
0
41
1
10
366.062388143041
20
24.7749692644822
30
0
41
1
10
366.07281073971
20
24.6748666979229
30
0
41
1
10
366.081896078651
20
24.5595370725069
30
0
41
1
10
366.087928966358
20
24.4570633246296
30
0
41
1
10
366.091685371151
20
24.3773807210488
30
0
41
1
10
366.093806849155
20
24.3263248100873
30
0
41
1
10
366.095704729602
20
24.2739799163066
30
0
41
1
10
366.097376750635
20
24.2204191936395
30
0
41
1
10
366.098820815325
20
24.1657144520237
30
0
41
1
10
366.100035001887
20
24.1099360799823
30
0
41
1
10
366.101017546611
20
24.0531531671389
30
0
41
1
10
366.101766858061
20
23.9954335498673
30
0
41
1
10
366.10228136734
20
23.93685241276
30
0
41
1
10
366.102559936066
20
23.8774994486159
30
0
41
1
10
366.102602362093
20
23.8174650047813
30
0
41
1
10
366.102408387515
20
23.7568309247206
30
0
41
1
10
366.1019781172
20
23.6956619164981
30
0
41
1
10
366.101311763977
20
23.6340211421295
30
0
41
1
10
366.100409693882
20
23.5719705350999
30
0
41
1
10
366.099272414568
20
23.5095708634597
30
0
41
1
10
366.097900579693
20
23.4468817772126
30
0
41
1
10
366.096294989944
20
23.3839618529136
30
0
41
1
10
366.094456596297
20
23.3208686407308
30
0
41
1
10
366.092386501994
20
23.2576586824069
30
0
41
1
10
366.090085971515
20
23.1943876195405
30
0
41
1
10
366.087556417522
20
23.1311099572201
30
0
41
1
10
366.084800018477
20
23.0678926210271
30
0
41
1
10
366.081819869085
20
23.0048141694066
30
0
41
1
10
366.078622596322
20
22.9419598728616
30
0
41
1
10
366.075204314262
20
22.8793747871976
30
0
41
1
10
366.071595695201
20
22.8171854602394
30
0
41
1
10
366.068973504201
20
22.7754259003023
30
0
41
1
10
366.067675282232
20
22.7547511370655
30
0
0
SPLINE
5
18F
100
AcDbEntity
8
1
62
256
6
ByLayer
370
13
48
1
60
0
100
AcDbSpline
70
4
71
1
72
4
73
2
40
0
40
0
40
1
40
1
41
1
10
365.635350564464
20
22.9943900756361
30
0
41
1
10
366.067675282232
20
22.7547511370654
30
0
0
SPLINE
5
190
100
AcDbEntity
8
1
62
256
6
ByLayer
370
13
48
1
60
0
100
AcDbSpline
70
4
71
3
72
34
73
30
40
0
40
0
40
0
40
0
40
0.0624999999999999
40
0.0624999999999999
40
0.125
40
0.15625
40
0.15625
40
0.1875
40
0.1875
40
0.25
40
0.25
40
0.375
40
0.40625
40
0.40625
40
0.4375
40
0.4375
40
0.5
40
0.5
40
0.625
40
0.625
40
0.6875
40
0.6875
40
0.75
40
0.75
40
0.875
40
0.875
40
0.9375
40
0.9375
40
1
40
1
40
1
40
1
41
1
10
366
20
24.9999999999986
30
0
41
1
10
366.014812739614
20
24.9999999999986
30
0
41
1
10
366.029622238173
20
24.9967241358782
30
0
41
1
10
366.059139800026
20
24.9836371974722
30
0
41
1
10
366.081206597765
20
24.9689207780147
30
0
41
1
10
366.103081239536
20
24.946849414933
30
0
41
1
10
366.117611926543
20
24.9304980568996
30
0
41
1
10
366.124852375046
20
24.9215017564254
30
0
41
1
10
366.146457520478
20
24.8920857452433
30
0
41
1
10
366.160712834101
20
24.8692332625322
30
0
41
1
10
366.20291630061
20
24.7909839098405
30
0
41
1
10
366.237152682465
20
24.7096352615526
30
0
41
1
10
366.269682158228
20
24.6080642925878
30
0
41
1
10
366.282544446913
20
24.5658113771961
30
0
41
1
10
366.288902986091
20
24.5438661551305
30
0
41
1
10
366.3077213716
20
24.4756414302035
30
0
41
1
10
366.31991839485
20
24.4269981302977
30
0
41
1
10
366.355312517614
20
24.2716211294433
30
0
41
1
10
366.377321211601
20
24.1554500642242
30
0
41
1
10
366.40722530712
20
23.9622722142647
30
0
41
1
10
366.41667329215
20
23.8947236348498
30
0
41
1
10
366.43437761318
20
23.7532778952795
30
0
41
1
10
366.442617490402
20
23.679511745155
30
0
41
1
10
366.465247523275
20
23.4491666082541
30
0
41
1
10
366.477575832709
20
23.2835274913176
30
0
41
1
10
366.490600456538
20
23.0169088242275
30
0
41
1
10
366.494026128838
20
22.9249759938852
30
0
41
1
10
366.498725623193
20
22.7351579663383
30
0
41
1
10
366.5
20
22.6373314104553
30
0
41
1
10
366.5
20
22.5365853658611
30
0
0
SPLINE
5
191
100
AcDbEntity
8
1
62
256
6
ByLayer
370
18
48
1
60
0
100
AcDbSpline
70
4
71
3
72
28
73
24
40
0
40
0
40
0
40
0
40
0.0281851353125855
40
0.0281851353125855
40
0.0821748500174418
40
0.0821748500174418
40
0.136164564722298
40
0.136164564722298
40
0.24414399413201
40
0.24414399413201
40
0.298133708836867
40
0.298133708836867
40
0.352123423541723
40
0.352123423541723
40
0.460102852951435
40
0.460102852951435
40
0.568082282361147
40
0.568082282361147
40
0.67606171177086
40
0.67606171177086
40
0.784041141180572
40
0.784041141180572
40
1
40
1
40
1
40
1
41
1
10
367.55388232597
20
-14.7708430820666
30
0
41
1
10
367.553416157084
20
-14.7713138885407
30
0
41
1
10
367.552995519122
20
-14.7717387277252
30
0
41
1
10
367.551904777518
20
-14.7728403855669
30
0
41
1
10
367.551358069514
20
-14.7733926014491
30
0
41
1
10
367.550642684802
20
-14.7741152032582
30
0
41
1
10
367.550471174801
20
-14.7742884504582
30
0
41
1
10
367.550501778366
20
-14.7742575373651
30
0
41
1
10
367.551246131199
20
-14.7735056170731
30
0
41
1
10
367.553449587003
20
-14.7712801191214
30
0
41
1
10
367.554366440456
20
-14.7703541331477
30
0
41
1
10
367.556507437831
20
-14.7681920072907
30
0
41
1
10
367.557735591993
20
-14.7669518171117
30
0
41
1
10
367.561863192775
20
-14.7627842351999
30
0
41
1
10
367.565218581561
20
-14.7593968992331
30
0
41
1
10
367.572951716672
20
-14.7515926878487
30
0
41
1
10
367.577252302461
20
-14.7472536906859
30
0
41
1
10
367.586584704884
20
-14.7378414692285
30
0
41
1
10
367.591617667416
20
-14.7327670857895
30
0
41
1
10
367.602342916788
20
-14.7219581556368
30
0
41
1
10
367.607954623723
20
-14.7163048356894
30
0
41
1
10
367.625296915117
20
-14.6988417531496
30
0
41
1
10
367.637586054382
20
-14.6864770846468
30
0
41
1
10
367.650480947162
20
-14.673516147712
30
0
0
SPLINE
5
192
100
AcDbEntity
8
1
62
256
6
ByLayer
370
18
48
1
60
0
100
AcDbSpline
70
4
71
3
72
8
73
4
40
0
40
0
40
0
40
0
40
1
40
1
40
1
40
1
41
1
10
367.650480947162
20
-14.673516147712
30
0
41
1
10
367.875830405165
20
-14.4470125107011
30
0
41
1
10
368.100607863251
20
-14.2197546698723
30
0
41
1
10
368.324759526419
20
-13.9916716944574
30
0
0
SPLINE
5
193
100
AcDbEntity
8
1
62
256
6
ByLayer
370
18
48
1
60
0
100
AcDbSpline
70
4
71
3
72
8
73
4
40
0
40
0
40
0
40
0
40
1
40
1
40
1
40
1
41
1
10
368.324759526419
20
-13.9768567932114
30
0
41
1
10
368.100458994954
20
-14.1950332762295
30
0
41
1
10
367.875685997486
20
-14.4125589107682
30
0
41
1
10
367.650480947162
20
-14.6294893682071
30
0
0
SPLINE
5
194
100
AcDbEntity
8
1
62
256
6
ByLayer
370
18
48
1
60
0
100
AcDbSpline
70
4
71
3
72
36
73
32
40
0
40
0
40
0
40
0
40
0.0624999999999999
40
0.0624999999999999
40
0.125
40
0.125
40
0.1875
40
0.1875
40
0.25
40
0.25
40
0.3125
40
0.3125
40
0.374999999999999
40
0.374999999999999
40
0.437499999999999
40
0.437499999999999
40
0.499999999999999
40
0.499999999999999
40
0.562499999999999
40
0.562499999999999
40
0.624999999999999
40
0.624999999999999
40
0.687499999999999
40
0.687499999999999
40
0.749999999999999
40
0.749999999999999
40
0.812499999999999
40
0.812499999999999
40
0.874999999999999
40
0.874999999999999
40
1
40
1
40
1
40
1
41
1
10
367.650480947162
20
-14.6294893682071
30
0
41
1
10
367.643862084188
20
-14.6358650377158
30
0
41
1
10
367.63736815804
20
-14.6420854939406
30
0
41
1
10
367.624658212001
20
-14.6541795144043
30
0
41
1
10
367.618465781099
20
-14.660030246575
30
0
41
1
10
367.606614451507
20
-14.6711317760514
30
0
41
1
10
367.600930365741
20
-14.676406691209
30
0
41
1
10
367.590113554064
20
-14.6863246581534
30
0
41
1
10
367.584944456052
20
-14.6910000297354
30
0
41
1
10
367.575462300344
20
-14.6994157565432
30
0
41
1
10
367.571165979257
20
-14.7031426233287
30
0
41
1
10
367.563582231134
20
-14.7095025996344
30
0
41
1
10
367.560295493777
20
-14.7121314384163
30
0
41
1
10
367.555115656292
20
-14.7159495810435
30
0
41
1
10
367.55318093426
20
-14.7171751733819
30
0
41
1
10
367.550745513604
20
-14.7181286395755
30
0
41
1
10
367.550291079597
20
-14.7178363837963
30
0
41
1
10
367.550812662286
20
-14.7158184071489
30
0
41
1
10
367.551796471514
20
-14.7140793421229
30
0
41
1
10
367.555138387984
20
-14.7092388666711
30
0
41
1
10
367.557446708715
20
-14.7062051495615
30
0
41
1
10
367.563158317433
20
-14.6990846204182
30
0
41
1
10
367.566592406128
20
-14.6949623448449
30
0
41
1
10
367.57432482138
20
-14.6859171291046
30
0
41
1
10
367.578590882068
20
-14.6810299821923
30
0
41
1
10
367.587802061849
20
-14.6706380732883
30
0
41
1
10
367.592748132286
20
-14.6651324406495
30
0
41
1
10
367.60325464834
20
-14.6535639456456
30
0
41
1
10
367.608756349684
20
-14.6475660845119
30
0
41
1
10
367.625757992912
20
-14.6291819152165
30
0
41
1
10
367.63781344554
20
-14.6163381505703
30
0
41
1
10
367.650480947162
20
-14.6030003410706
30
0
0
SPLINE
5
195
100
AcDbEntity
8
1
62
256
6
ByLayer
370
18
48
1
60
0
100
AcDbSpline
70
4
71
3
72
8
73
4
40
0
40
0
40
0
40
0
40
1
40
1
40
1
40
1
41
1
10
367.650480947162
20
-14.6030003410706
30
0
41
1
10
367.876008003165
20
-14.3655393957399
30
0
41
1
10
368.100791090601
20
-14.1271433496665
30
0
41
1
10
368.324759526419
20
-13.8877233606926
30
0
0
SPLINE
5
196
100
AcDbEntity
8
1
62
256
6
ByLayer
370
18
48
1
60
0
100
AcDbSpline
70
4
71
3
72
8
73
4
40
0
40
0
40
0
40
0
40
1
40
1
40
1
40
1
41
1
10
368.324759526419
20
-13.8429985339396
30
0
41
1
10
368.10033706691
20
-14.0525298860229
30
0
41
1
10
367.875567648883
20
-14.261563858415
30
0
41
1
10
367.650480947162
20
-14.470142991227
30
0
0
SPLINE
5
197
100
AcDbEntity
8
1
62
256
6
ByLayer
370
18
48
1
60
0
100
AcDbSpline
70
4
71
3
72
38
73
34
40
0
40
0
40
0
40
0
40
0.0625000000000002
40
0.0625000000000002
40
0.125
40
0.125
40
0.187500000000001
40
0.187500000000001
40
0.250000000000001
40
0.250000000000001
40
0.312500000000001
40
0.312500000000001
40
0.375000000000001
40
0.375000000000001
40
0.437500000000001
40
0.437500000000001
40
0.500000000000001
40
0.500000000000001
40
0.531250000000003
40
0.531250000000003
40
0.562500000000004
40
0.562500000000004
40
0.625000000000004
40
0.625000000000004
40
0.687500000000003
40
0.687500000000003
40
0.750000000000003
40
0.750000000000003
40
0.812500000000003
40
0.812500000000003
40
0.875000000000002
40
0.875000000000002
40
1
40
1
40
1
40
1
41
1
10
367.650480947162
20
-14.470142991227
30
0
41
1
10
367.643726881463
20
-14.4764017224426
30
0
41
1
10
367.637098160743
20
-14.4824675984276
30
0
41
1
10
367.624121587645
20
-14.4941653645871
30
0
41
1
10
367.617742143976
20
-14.4998242703937
30
0
41
1
10
367.605562970483
20
-14.5104136408801
30
0
41
1
10
367.599742695575
20
-14.5153637999653
30
0
41
1
10
367.588714807944
20
-14.5244776354358
30
0
41
1
10
367.583471678807
20
-14.5286687146882
30
0
41
1
10
367.573894168183
20
-14.5359672809047
30
0
41
1
10
367.569604727196
20
-14.5390430763017
30
0
41
1
10
367.562140118258
20
-14.5439116287633
30
0
41
1
10
367.558968752714
20
-14.5456925212603
30
0
41
1
10
367.55412676766
20
-14.5476893893341
30
0
41
1
10
367.552408786091
20
-14.5479394606966
30
0
41
1
10
367.550449968655
20
-14.5468649480108
30
0
41
1
10
367.550243871428
20
-14.5455532016639
30
0
41
1
10
367.550991933076
20
-14.5425459103035
30
0
41
1
10
367.551417710024
20
-14.5413688368432
30
0
41
1
10
367.552612851189
20
-14.5386745168146
30
0
41
1
10
367.553385026571
20
-14.5371539574115
30
0
41
1
10
367.556141299637
20
-14.5322031740128
30
0
41
1
10
367.558572250332
20
-14.5283601137457
30
0
41
1
10
367.56445428438
20
-14.5197418754238
30
0
41
1
10
367.567937837454
20
-14.5149253101649
30
0
41
1
10
367.575648799551
20
-14.5046892334927
30
0
41
1
10
367.579874304902
20
-14.4992680700756
30
0
41
1
10
367.588959245089
20
-14.4879075907876
30
0
41
1
10
367.593819464948
20
-14.4819676301924
30
0
41
1
10
367.604115964568
20
-14.4696181549198
30
0
41
1
10
367.609513235996
20
-14.4632561734405
30
0
41
1
10
367.6261921918
20
-14.4438785061745
30
0
41
1
10
367.638027080278
20
-14.430488190862
30
0
41
1
10
367.650480947162
20
-14.416694031934
30
0
0
SPLINE
5
198
100
AcDbEntity
8
1
62
256
6
ByLayer
370
18
48
1
60
0
100
AcDbSpline
70
4
71
3
72
8
73
4
40
0
40
0
40
0
40
0
40
1
40
1
40
1
40
1
41
1
10
367.650480947162
20
-14.416694031934
30
0
41
1
10
367.876228917632
20
-14.1666509399762
30
0
41
1
10
368.101019214675
20
-13.9154654531779
30
0
41
1
10
368.324759526419
20
-13.6630274540346
30
0
0
SPLINE
5
199
100
AcDbEntity
8
1
62
256
6
ByLayer
370
18
48
1
60
0
100
AcDbSpline
70
4
71
3
72
8
73
4
40
0
40
0
40
0
40
0
40
1
40
1
40
1
40
1
41
1
10
368.324759526419
20
-13.5875252185451
30
0
41
1
10
368.100236859786
20
-13.7895703804306
30
0
41
1
10
367.875470342809
20
-13.9912532251743
30
0
41
1
10
367.650480947162
20
-14.1926049128589
30
0
0
SPLINE
5
19A
100
AcDbEntity
8
1
62
256
6
ByLayer
370
18
48
1
60
0
100
AcDbSpline
70
4
71
3
72
39
73
35
40
0
40
0
40
0
40
0
40
0.0624999999999951
40
0.0624999999999951
40
0.12499999999999
40
0.12499999999999
40
0.187499999999985
40
0.187499999999985
40
0.24999999999998
40
0.24999999999998
40
0.312499999999975
40
0.312499999999975
40
0.343749999999974
40
0.343749999999974
40
0.374999999999972
40
0.406249999999971
40
0.406249999999971
40
0.437499999999969
40
0.437499999999969
40
0.499999999999973
40
0.499999999999973
40
0.562499999999976
40
0.562499999999976
40
0.62499999999998
40
0.62499999999998
40
0.687499999999984
40
0.687499999999984
40
0.749999999999988
40
0.749999999999988
40
0.812499999999991
40
0.812499999999991
40
0.874999999999995
40
0.874999999999995
40
1
40
1
40
1
40
1
41
1
10
367.650480947162
20
-14.1926049128589
30
0
41
1
10
367.643561481925
20
-14.1987974091727
30
0
41
1
10
367.636760597053
20
-14.2047594560307
30
0
41
1
10
367.623428732478
20
-14.2161568732061
30
0
41
1
10
367.616868043973
20
-14.2216149223444
30
0
41
1
10
367.604372494835
20
-14.2316571174388
30
0
41
1
10
367.598405523108
20
-14.2362705085005
30
0
41
1
10
367.587120780066
20
-14.2445513660965
30
0
41
1
10
367.581757911793
20
-14.2482452222623
30
0
41
1
10
367.572161291116
20
-14.2542618829984
30
0
41
1
10
367.567898801765
20
-14.2566113207283
30
0
41
1
10
367.562409953693
20
-14.2590197111105
30
0
41
1
10
367.56074024976
20
-14.2596301418336
30
0
41
1
10
367.557792033825
20
-14.260438260058
30
0
41
1
10
367.555212844325
20
-14.2608439260327
30
0
41
1
10
367.553367705005
20
-14.2604482498096
30
0
41
1
10
367.551893890274
20
-14.2596468478134
30
0
41
1
10
367.551341802858
20
-14.2590371274938
30
0
41
1
10
367.550274927363
20
-14.2566430276488
30
0
41
1
10
367.550326458122
20
-14.2543028706049
30
0
41
1
10
367.551787967949
20
-14.2482959791929
30
0
41
1
10
367.553220516283
20
-14.2445964956727
30
0
41
1
10
367.557185296634
20
-14.2362910592437
30
0
41
1
10
367.559719213955
20
-14.231661058759
30
0
41
1
10
367.565737405588
20
-14.2215788782883
30
0
41
1
10
367.569244994022
20
-14.2160956853238
30
0
41
1
10
367.576918114054
20
-14.2046829541818
30
0
41
1
10
367.581098727558
20
-14.1987255135269
30
0
41
1
10
367.590054837743
20
-14.1863774236148
30
0
41
1
10
367.594830979835
20
-14.1799863029427
30
0
41
1
10
367.604926584524
20
-14.1668094826127
30
0
41
1
10
367.61022432905
20
-14.160053392172
30
0
41
1
10
367.626598565669
20
-14.1395788033862
30
0
41
1
10
367.638226288089
20
-14.1255569553053
30
0
41
1
10
367.650480947162
20
-14.1112111570008
30
0
0
SPLINE
5
19B
100
AcDbEntity
8
1
62
256
6
ByLayer
370
18
48
1
60
0
100
AcDbSpline
70
4
71
3
72
8
73
4
40
0
40
0
40
0
40
0
40
1
40
1
40
1
40
1
41
1
10
367.650480947162
20
-14.1112111570008
30
0
41
1
10
367.876507770666
20
-13.8466150387275
30
0
41
1
10
368.101307459449
20
-13.5806365366902
30
0
41
1
10
368.324759526419
20
-13.3131399205612
30
0
0
SPLINE
5
19C
100
AcDbEntity
8
1
62
256
6
ByLayer
370
18
48
1
60
0
100
AcDbSpline
70
4
71
3
72
8
73
4
40
0
40
0
40
0
40
0
40
1
40
1
40
1
40
1
41
1
10
368.324759526419
20
-13.2053177327409
30
0
41
1
10
368.100154848045
20
-13.4009956122082
30
0
41
1
10
367.875390693943
20
-13.5964289589486
30
0
41
1
10
367.650480947162
20
-13.7916390605866
30
0
0
SPLINE
5
19D
100
AcDbEntity
8
1
62
256
6
ByLayer
370
18
48
1
60
0
100
AcDbSpline
70
4
71
3
72
32
73
28
40
0
40
0
40
0
40
0
40
0.125000000000005
40
0.125000000000005
40
0.187500000000008
40
0.187500000000008
40
0.250000000000011
40
0.250000000000011
40
0.312500000000014
40
0.312500000000014
40
0.375000000000017
40
0.375000000000017
40
0.437500000000021
40
0.437500000000021
40
0.500000000000024
40
0.500000000000024
40
0.562500000000027
40
0.562500000000027
40
0.62500000000003
40
0.62500000000003
40
0.750000000000026
40
0.750000000000026
40
0.812500000000022
40
0.812500000000022
40
0.875000000000017
40
0.875000000000017
40
1
40
1
40
1
40
1
41
1
10
367.650480947162
20
-13.7916390605866
30
0
41
1
10
367.636218452344
20
-13.80401817311
30
0
41
1
10
367.622240264368
20
-13.815417315206
30
0
41
1
10
367.602992291188
20
-13.8296153042822
30
0
41
1
10
367.596826112669
20
-13.8338945401545
30
0
41
1
10
367.585150324815
20
-13.8413094412349
30
0
41
1
10
367.579802545074
20
-13.8443419283306
30
0
41
1
10
367.570193548697
20
-13.8489058516398
30
0
41
1
10
367.565917359672
20
-13.850425336787
30
0
41
1
10
367.558961483899
20
-13.8516753986756
30
0
41
1
10
367.556219248358
20
-13.8514436933271
30
0
41
1
10
367.552246458667
20
-13.8492156646224
30
0
41
1
10
367.551085390741
20
-13.8472516771764
30
0
41
1
10
367.550241537347
20
-13.841861419455
30
0
41
1
10
367.550569080283
20
-13.8383829727683
30
0
41
1
10
367.552511726574
20
-13.8303344171857
30
0
41
1
10
367.554109567751
20
-13.8257708187568
30
0
41
1
10
367.558360917358
20
-13.8157342041941
30
0
41
1
10
367.56103952816
20
-13.8102189029199
30
0
41
1
10
367.570274220005
20
-13.7928579231857
30
0
41
1
10
367.578003306719
20
-13.7801749967749
30
0
41
1
10
367.591401058081
20
-13.7598818429385
30
0
41
1
10
367.59613953536
20
-13.7529552766071
30
0
41
1
10
367.605993559771
20
-13.73896416602
30
0
41
1
10
367.611125160039
20
-13.731875608794
30
0
41
1
10
367.627074672477
20
-13.7103590621016
30
0
41
1
10
367.638441494712
20
-13.6956828090537
30
0
41
1
10
367.650480947162
20
-13.6807059996457
30
0
0
SPLINE
5
19E
100
AcDbEntity
8
1
62
256
6
ByLayer
370
18
48
1
60
0
100
AcDbSpline
70
4
71
3
72
8
73
4
40
0
40
0
40
0
40
0
40
1
40
1
40
1
40
1
41
1
10
367.650480947162
20
-13.6807059996457
30
0
41
1
10
367.876866272618
20
-13.3990877212212
30
0
41
1
10
368.101678442285
20
-13.1158055554862
30
0
41
1
10
368.324759526419
20
-12.8306924641207
30
0
0
SPLINE
5
19F
100
AcDbEntity
8
1
62
256
6
ByLayer
370
18
48
1
60
0
100
AcDbSpline
70
4
71
3
72
8
73
4
40
0
40
0
40
0
40
0
40
1
40
1
40
1
40
1
41
1
10
368.324759526419
20
-12.6881625317625
30
0
41
1
10
368.100089025132
20
-12.8786205059038
30
0
41
1
10
367.875326782244
20
-13.0689340213269
30
0
41
1
10
367.650480947162
20
-13.2591159102963
30
0
0
SPLINE
5
1A0
100
AcDbEntity
8
1
62
256
6
ByLayer
370
18
48
1
60
0
100
AcDbSpline
70
4
71
3
72
41
73
37
40
0
40
0
40
0
40
0
40
0.0625000000000037
40
0.0625000000000037
40
0.125000000000007
40
0.125000000000007
40
0.156250000000008
40
0.156250000000008
40
0.187500000000008
40
0.187500000000008
40
0.250000000000009
40
0.250000000000009
40
0.281250000000011
40
0.281250000000011
40
0.312500000000012
40
0.343750000000014
40
0.343750000000014
40
0.375000000000016
40
0.375000000000016
40
0.437500000000017
40
0.437500000000017
40
0.468750000000015
40
0.468750000000015
40
0.500000000000013
40
0.500000000000013
40
0.56250000000001
40
0.56250000000001
40
0.625000000000006
40
0.625000000000006
40
0.687500000000003
40
0.687500000000003
40
0.749999999999999
40
0.749999999999999
40
0.875
40
0.875
40
1
40
1
40
1
40
1
41
1
10
367.650480947162
20
-13.2591159102963
30
0
41
1
10
367.643120671969
20
-13.265341469417
30
0
41
1
10
367.635804695087
20
-13.2712773588537
30
0
41
1
10
367.621558337367
20
-13.2822363602361
30
0
41
1
10
367.614658110684
20
-13.287239890581
30
0
41
1
10
367.604698216193
20
-13.2939087063827
30
0
41
1
10
367.601443651369
20
-13.2959915195208
30
0
41
1
10
367.595080260981
20
-13.2998442241165
30
0
41
1
10
367.591968194618
20
-13.3016142220481
30
0
41
1
10
367.583076629913
20
-13.3062945367761
30
0
41
1
10
367.577668862641
20
-13.308624674622
30
0
41
1
10
367.570442806861
20
-13.3107695863609
30
0
41
1
10
367.568202442333
20
-13.3112498316754
30
0
41
1
10
367.564140466581
20
-13.3117249114441
30
0
41
1
10
367.560469603166
20
-13.3117232866639
30
0
41
1
10
367.557572696077
20
-13.3107769709455
30
0
41
1
10
367.555065784551
20
-13.3093539638454
30
0
41
1
10
367.554012412702
20
-13.3084010300559
30
0
41
1
10
367.551498718449
20
-13.304931825168
30
0
41
1
10
367.550641696582
20
-13.3017928744927
30
0
41
1
10
367.550431296051
20
-13.2959971988544
30
0
41
1
10
367.550543891767
20
-13.2938771195685
30
0
41
1
10
367.551097439142
20
-13.2893835606964
30
0
41
1
10
367.55153724686
20
-13.2870008336859
30
0
41
1
10
367.553295887259
20
-13.2794861044517
30
0
41
1
10
367.555051097323
20
-13.273989897377
30
0
41
1
10
367.559557801758
20
-13.2621650826906
30
0
41
1
10
367.562301249488
20
-13.2558684256224
30
0
41
1
10
367.568507240897
20
-13.2428591198087
30
0
41
1
10
367.571983861287
20
-13.2361109336983
30
0
41
1
10
367.579584891849
20
-13.2221925717879
30
0
41
1
10
367.583728003621
20
-13.2149922619399
30
0
41
1
10
367.59691541842
20
-13.1930284474535
30
0
41
1
10
367.606613261902
20
-13.1780492255838
30
0
41
1
10
367.627467863824
20
-13.1475539976585
30
0
41
1
10
367.638630045339
20
-13.1320359563965
30
0
41
1
10
367.650480947162
20
-13.1162678662832
30
0
0
SPLINE
5
1A1
100
AcDbEntity
8
1
62
256
6
ByLayer
370
18
48
1
60
0
100
AcDbSpline
70
4
71
3
72
8
73
4
40
0
40
0
40
0
40
0
40
1
40
1
40
1
40
1
41
1
10
367.650480947162
20
-13.1162678662832
30
0
41
1
10
367.877337890168
20
-12.8144257977426
30
0
41
1
10
368.102167049584
20
-12.5105841761007
30
0
41
1
10
368.324759526419
20
-12.2045370106274
30
0
0
SPLINE
5
1A2
100
AcDbEntity
8
1
62
256
6
ByLayer
370
18
48
1
60
0
100
AcDbSpline
70
4
71
3
72
8
73
4
40
0
40
0
40
0
40
0
40
1
40
1
40
1
40
1
41
1
10
368.324759526419
20
-12.0237655573039
30
0
41
1
10
368.100039125586
20
-12.210268727879
30
0
41
1
10
367.875278354979
20
-12.3967070563423
30
0
41
1
10
367.650480947162
20
-12.5830864488548
30
0
0
SPLINE
5
1A3
100
AcDbEntity
8
1
62
256
6
ByLayer
370
18
48
1
60
0
100
AcDbSpline
70
4
71
3
72
39
73
35
40
0
40
0
40
0
40
0
40
0.0624999999999868
40
0.0624999999999868
40
0.124999999999974
40
0.124999999999974
40
0.187499999999961
40
0.187499999999961
40
0.218749999999959
40
0.218749999999959
40
0.249999999999958
40
0.249999999999958
40
0.312499999999954
40
0.312499999999954
40
0.343749999999951
40
0.343749999999951
40
0.374999999999948
40
0.406249999999945
40
0.406249999999945
40
0.437499999999942
40
0.437499999999942
40
0.49999999999995
40
0.49999999999995
40
0.562499999999957
40
0.562499999999957
40
0.624999999999965
40
0.624999999999965
40
0.687499999999973
40
0.687499999999973
40
0.74999999999998
40
0.74999999999998
40
0.87499999999999
40
0.87499999999999
40
1
40
1
40
1
40
1
41
1
10
367.650480947162
20
-12.5830864488549
30
0
41
1
10
367.642848465984
20
-12.5894145343033
30
0
41
1
10
367.635230044314
20
-12.5953906617514
30
0
41
1
10
367.620434193986
20
-12.6061779599139
30
0
41
1
10
367.613255140464
20
-12.6109974845262
30
0
41
1
10
367.599425158374
20
-12.6192459915901
30
0
41
1
10
367.592745263725
20
-12.622672278411
30
0
41
1
10
367.583692680945
20
-12.6262998168303
30
0
41
1
10
367.580816760607
20
-12.6272697003258
30
0
41
1
10
367.575367399923
20
-12.6286973789885
30
0
41
1
10
367.572783455345
20
-12.6291527982117
30
0
41
1
10
367.565725370173
20
-12.6296830301404
30
0
41
1
10
367.561864611698
20
-12.6289563432177
30
0
41
1
10
367.557292459269
20
-12.6263023228405
30
0
41
1
10
367.55596873654
20
-12.6251453114001
30
0
41
1
10
367.553784251942
20
-12.6223872509886
30
0
41
1
10
367.552040779151
20
-12.6191809187857
30
0
41
1
10
367.551098579189
20
-12.615158931611
30
0
41
1
10
367.550528264205
20
-12.6107578663785
30
0
41
1
10
367.550430700683
20
-12.6083568813515
30
0
41
1
10
367.550654051541
20
-12.6007652352966
30
0
41
1
10
367.551475794025
20
-12.5951597496368
30
0
41
1
10
367.554198267888
20
-12.5830737854488
30
0
41
1
10
367.556114381686
20
-12.5765557654397
30
0
41
1
10
367.560823333971
20
-12.5629298211255
30
0
41
1
10
367.563597798464
20
-12.5558628914171
30
0
41
1
10
367.569844713144
20
-12.5413066108056
30
0
41
1
10
367.573318283136
20
-12.5338165910079
30
0
41
1
10
367.580882685558
20
-12.5184630726748
30
0
41
1
10
367.584984596991
20
-12.5105829559691
30
0
41
1
10
367.597909096523
20
-12.4868430027678
30
0
41
1
10
367.60740422431
20
-12.4707518266136
30
0
41
1
10
367.627855969026
20
-12.4381338925021
30
0
41
1
10
367.638816630045
20
-12.4216059035306
30
0
41
1
10
367.650480947162
20
-12.4048713342171
30
0
0
SPLINE
5
1A4
100
AcDbEntity
8
1
62
256
6
ByLayer
370
18
48
1
60
0
100
AcDbSpline
70
4
71
3
72
8
73
4
40
0
40
0
40
0
40
0
40
1
40
1
40
1
40
1
41
1
10
367.650480947162
20
-12.4048713342171
30
0
41
1
10
367.87797677687
20
-12.0784874839786
30
0
41
1
10
368.10282976625
20
-11.7496954266921
30
0
41
1
10
368.324759526419
20
-11.4182396666039
30
0
0
SPLINE
5
1A5
100
AcDbEntity
8
1
62
256
6
ByLayer
370
18
48
1
60
0
100
AcDbSpline
70
4
71
3
72
8
73
4
40
0
40
0
40
0
40
0
40
1
40
1
40
1
40
1
41
1
10
368.324759526419
20
-11.1940141333162
30
0
41
1
10
368.100007511727
20
-11.378081649408
30
0
41
1
10
367.875247737629
20
-11.5621365334044
30
0
41
1
10
367.650480947162
20
-11.7461799915733
30
0
0
SPLINE
5
1A6
100
AcDbEntity
8
1
62
256
6
ByLayer
370
18
48
1
60
0
100
AcDbSpline
70
4
71
3
72
39
73
35
40
0
40
0
40
0
40
0
40
0.0625000000000189
40
0.0625000000000189
40
0.125000000000038
40
0.125000000000038
40
0.156250000000042
40
0.156250000000042
40
0.187500000000047
40
0.187500000000047
40
0.218750000000051
40
0.218750000000051
40
0.250000000000056
40
0.281250000000061
40
0.281250000000061
40
0.312500000000065
40
0.312500000000065
40
0.375000000000074
40
0.375000000000074
40
0.406250000000076
40
0.406250000000076
40
0.437500000000079
40
0.437500000000079
40
0.50000000000007
40
0.50000000000007
40
0.562500000000062
40
0.562500000000062
40
0.625000000000053
40
0.625000000000053
40
0.750000000000036
40
0.750000000000036
40
0.875000000000018
40
0.875000000000018
40
1
40
1
40
1
40
1
41
1
10
367.650480947162
20
-11.7461799915733
30
0
41
1
10
367.642517355018
20
-11.7527007370733
30
0
41
1
10
367.63453440989
20
-11.758781591652
30
0
41
1
10
367.619042460543
20
-11.7694623151685
30
0
41
1
10
367.611511726718
20
-11.7740895951834
30
0
41
1
10
367.600621370502
20
-11.7796806806268
30
0
41
1
10
367.597061556648
20
-11.7813124621386
30
0
41
1
10
367.590290341915
20
-11.7839856794479
30
0
41
1
10
367.587053841966
20
-11.7850409190103
30
0
41
1
10
367.58089623758
20
-11.7865551188086
30
0
41
1
10
367.577954952722
20
-11.7870145467254
30
0
41
1
10
367.572512587958
20
-11.7872842763303
30
0
41
1
10
367.567547431314
20
-11.7869134556392
30
0
41
1
10
367.56348717482
20
-11.7853258627785
30
0
41
1
10
367.559865561372
20
-11.7831473720277
30
0
41
1
10
367.558264729514
20
-11.7817488018336
30
0
41
1
10
367.554196953588
20
-11.776791769382
30
0
41
1
10
367.552440567205
20
-11.7725079257543
30
0
41
1
10
367.550959029724
20
-11.764896356457
30
0
41
1
10
367.550660070545
20
-11.7621461067269
30
0
41
1
10
367.550422720308
20
-11.7563820754745
30
0
41
1
10
367.550481076441
20
-11.7533611718075
30
0
41
1
10
367.551119474506
20
-11.7439343578557
30
0
41
1
10
367.552159177103
20
-11.7371671874778
30
0
41
1
10
367.555239798449
20
-11.7228437690724
30
0
41
1
10
367.557290439547
20
-11.7152746972417
30
0
41
1
10
367.562146245542
20
-11.6997853492502
30
0
41
1
10
367.564959968858
20
-11.6918233983919
30
0
41
1
10
367.574383518436
20
-11.6673835167674
30
0
41
1
10
367.582020418221
20
-11.6502626912254
30
0
41
1
10
367.598905986321
20
-11.6158494363732
30
0
41
1
10
367.608200334979
20
-11.5984352934854
30
0
41
1
10
367.628249215424
20
-11.5632547901695
30
0
41
1
10
367.639006636006
20
-11.5454877152701
30
0
41
1
10
367.650480947162
20
-11.5275506630106
30
0
0
SPLINE
5
1A7
100
AcDbEntity
8
1
62
256
6
ByLayer
370
18
48
1
60
0
100
AcDbSpline
70
4
71
3
72
8
73
4
40
0
40
0
40
0
40
0
40
1
40
1
40
1
40
1
41
1
10
367.650480947162
20
-11.5275506630106
30
0
41
1
10
367.878876276632
20
-11.1705149416599
30
0
41
1
10
368.103764009202
20
-10.8105598495174
30
0
41
1
10
368.324759526419
20
-10.4473652688749
30
0
0
SPLINE
5
1A8
100
AcDbEntity
8
1
62
256
6
ByLayer
370
18
48
1
60
0
100
AcDbSpline
70
4
71
3
72
8
73
4
40
0
40
0
40
0
40
0
40
1
40
1
40
1
40
1
41
1
10
368.324759526419
20
-10.1718025873672
30
0
41
1
10
368.10000187134
20
-10.3554472734971
30
0
41
1
10
367.875242279349
20
-10.5390887989498
30
0
41
1
10
367.650480947162
20
-10.7227274845187
30
0
0
SPLINE
5
1A9
100
AcDbEntity
8
1
62
256
6
ByLayer
370
18
48
1
60
0
100
AcDbSpline
70
4
71
3
72
38
73
34
40
0
40
0
40
0
40
0
40
0.0625000000000098
40
0.0625000000000098
40
0.0937500000000121
40
0.0937500000000121
40
0.125000000000014
40
0.125000000000014
40
0.187500000000015
40
0.187500000000015
40
0.250000000000016
40
0.250000000000016
40
0.281250000000015
40
0.281250000000015
40
0.312500000000015
40
0.312500000000015
40
0.375000000000015
40
0.375000000000015
40
0.437500000000014
40
0.437500000000014
40
0.500000000000013
40
0.500000000000013
40
0.562500000000013
40
0.562500000000013
40
0.625000000000012
40
0.625000000000012
40
0.687500000000012
40
0.687500000000012
40
0.750000000000011
40
0.750000000000011
40
0.875000000000006
40
0.875000000000006
40
1
40
1
40
1
40
1
41
1
10
367.650480947162
20
-10.7227274845187
30
0
41
1
10
367.642084189611
20
-10.7295879596041
30
0
41
1
10
367.633635577278
20
-10.735873077836
30
0
41
1
10
367.621331349082
20
-10.7438542779444
30
0
41
1
10
367.617278610407
20
-10.7462841546216
30
0
41
1
10
367.609284196944
20
-10.7506167225581
30
0
41
1
10
367.605312533919
20
-10.7525309641139
30
0
41
1
10
367.59384949108
20
-10.7572404234752
30
0
41
1
10
367.586793021271
20
-10.7590261770085
30
0
41
1
10
367.574217814694
20
-10.7594741859481
30
0
41
1
10
367.568995280752
20
-10.7581391109133
30
0
41
1
10
367.562595860953
20
-10.7540283498182
30
0
41
1
10
367.560701051961
20
-10.7522911875511
30
0
41
1
10
367.557471003325
20
-10.748267859503
30
0
41
1
10
367.556116901746
20
-10.745973667514
30
0
41
1
10
367.552741344183
20
-10.7383459141721
30
0
41
1
10
367.551412871276
20
-10.7322137165068
30
0
41
1
10
367.550260898918
20
-10.7189622551603
30
0
41
1
10
367.550404629694
20
-10.7117851145469
30
0
41
1
10
367.551786707427
20
-10.6965886813027
30
0
41
1
10
367.55302900844
20
-10.6885664010901
30
0
41
1
10
367.556428844899
20
-10.67181535037
30
0
41
1
10
367.558575785074
20
-10.6631531994744
30
0
41
1
10
367.563557184201
20
-10.6455384394767
30
0
41
1
10
367.566399025425
20
-10.6365545230329
30
0
41
1
10
367.5726862554
20
-10.6182825742108
30
0
41
1
10
367.576143791446
20
-10.6089656304784
30
0
41
1
10
367.58354639268
20
-10.590200845567
30
0
41
1
10
367.587481021919
20
-10.5807754721051
30
0
41
1
10
367.599905559109
20
-10.5523851374551
30
0
41
1
10
367.609009839549
20
-10.5333070438363
30
0
41
1
10
367.628661740995
20
-10.4948880043358
30
0
41
1
10
367.639211392285
20
-10.4755466757479
30
0
41
1
10
367.650480947162
20
-10.456076982084
30
0
0
SPLINE
5
1AA
100
AcDbEntity
8
1
62
256
6
ByLayer
370
18
48
1
60
0
100
AcDbSpline
70
4
71
3
72
8
73
4
40
0
40
0
40
0
40
0
40
1
40
1
40
1
40
1
41
1
10
367.650480947162
20
-10.456076982084
30
0
41
1
10
367.880211532645
20
-10.0591860512818
30
0
41
1
10
368.105152654041
20
-9.65871232422171
30
0
41
1
10
368.324759526419
20
-9.25424827025401
30
0
0
SPLINE
5
1AB
100
AcDbEntity
8
1
62
256
6
ByLayer
370
18
48
1
60
0
100
AcDbSpline
70
4
71
3
72
8
73
4
40
0
40
0
40
0
40
0
40
1
40
1
40
1
40
1
41
1
10
368.324759526419
20
-8.91477968744164
30
0
41
1
10
368.10004293855
20
-9.10099187452997
30
0
41
1
10
367.87528177088
20
-9.28713229076251
30
0
41
1
10
367.650480947162
20
-9.47320886309274
30
0
0
SPLINE
5
1AC
100
AcDbEntity
8
1
62
256
6
ByLayer
370
18
48
1
60
0
100
AcDbSpline
70
4
71
3
72
34
73
30
40
0
40
0
40
0
40
0
40
0.0625000000000157
40
0.0625000000000157
40
0.0937500000000254
40
0.0937500000000254
40
0.125000000000035
40
0.125000000000035
40
0.187500000000047
40
0.187500000000047
40
0.250000000000058
40
0.250000000000058
40
0.28125000000006
40
0.28125000000006
40
0.312500000000061
40
0.312500000000061
40
0.375000000000058
40
0.375000000000058
40
0.437500000000054
40
0.437500000000054
40
0.50000000000005
40
0.50000000000005
40
0.625000000000038
40
0.625000000000038
40
0.750000000000025
40
0.750000000000025
40
0.875000000000013
40
0.875000000000013
40
1
40
1
40
1
40
1
41
1
10
367.650480947162
20
-9.47320886309367
30
0
41
1
10
367.641610746045
20
-9.48055108093973
30
0
41
1
10
367.632717594853
20
-9.48709742601525
30
0
41
1
10
367.619328414583
20
-9.49520539499105
30
0
41
1
10
367.614948765931
20
-9.49756171194858
30
0
41
1
10
367.606376490094
20
-9.50149614590993
30
0
41
1
10
367.602156895126
20
-9.50308185095798
30
0
41
1
10
367.590005767027
20
-9.50643292619759
30
0
41
1
10
367.582819857639
20
-9.50675740049135
30
0
41
1
10
367.570335823892
20
-9.50344855594682
30
0
41
1
10
367.565449926247
20
-9.49992936230973
30
0
41
1
10
367.559738856258
20
-9.49254380095815
30
0
41
1
10
367.558096977763
20
-9.48970101832191
30
0
41
1
10
367.555363676397
20
-9.48351861218703
30
0
41
1
10
367.554261456695
20
-9.48017426130545
30
0
41
1
10
367.551618606382
20
-9.46950406988665
30
0
41
1
10
367.55074024509
20
-9.46148862181062
30
0
41
1
10
367.550322100162
20
-9.44464214165109
30
0
41
1
10
367.550767880496
20
-9.43576934561258
30
0
41
1
10
367.552650600946
20
-9.41733960157777
30
0
41
1
10
367.554097560382
20
-9.4077483041184
30
0
41
1
10
367.559624326733
20
-9.37836229807098
30
0
41
1
10
367.564840271178
20
-9.35804580031703
30
0
41
1
10
367.57746663017
20
-9.31641517319048
30
0
41
1
10
367.584781622077
20
-9.29544451247554
30
0
41
1
10
367.600983403359
20
-9.25325825027318
30
0
41
1
10
367.609876729726
20
-9.23204169530291
30
0
41
1
10
367.629096511696
20
-9.18938762024501
30
0
41
1
10
367.639424130324
20
-9.16794990812306
30
0
41
1
10
367.650480947162
20
-9.14640238484094
30
0
0
SPLINE
5
1AD
100
AcDbEntity
8
1
62
256
6
ByLayer
370
18
48
1
60
0
100
AcDbSpline
70
4
71
3
72
8
73
4
40
0
40
0
40
0
40
0
40
1
40
1
40
1
40
1
41
1
10
367.650480947162
20
-9.14640238484094
30
0
41
1
10
367.882352997816
20
-8.69453016128011
30
0
41
1
10
368.107382666912
20
-8.23816651619845
30
0
41
1
10
368.324759526419
20
-7.77677947489255
30
0
0
SPLINE
5
1AE
100
AcDbEntity
8
1
62
256
6
ByLayer
370
18
48
1
60
0
100
AcDbSpline
70
4
71
3
72
8
73
4
40
0
40
0
40
0
40
0
40
1
40
1
40
1
40
1
41
1
10
368.324759526419
20
-7.35146119898508
30
0
41
1
10
368.100191536751
20
-7.54535781735197
30
0
41
1
10
367.875423713527
20
-7.73894510745959
30
0
41
1
10
367.650480947162
20
-7.93226159791755
30
0
0
SPLINE
5
1AF
100
AcDbEntity
8
1
62
256
6
ByLayer
370
18
48
1
60
0
100
AcDbSpline
70
4
71
3
72
39
73
35
40
0
40
0
40
0
40
0
40
0.0312499999999999
40
0.0312499999999999
40
0.0624999999999997
40
0.0624999999999997
40
0.0937499999999993
40
0.0937499999999993
40
0.124999999999999
40
0.124999999999999
40
0.156249999999999
40
0.156249999999999
40
0.187499999999999
40
0.187499999999999
40
0.218749999999998
40
0.218749999999998
40
0.249999999999998
40
0.249999999999998
40
0.281249999999998
40
0.281249999999998
40
0.312499999999998
40
0.312499999999998
40
0.374999999999997
40
0.374999999999997
40
0.500000000000002
40
0.500000000000002
40
0.562500000000003
40
0.562500000000003
40
0.625000000000004
40
0.625000000000004
40
0.750000000000003
40
0.750000000000003
40
0.875000000000001
40
1
40
1
40
1
40
1
41
1
10
367.650480947162
20
-7.93226159791936
30
0
41
1
10
367.645659559596
20
-7.93640511290485
30
0
41
1
10
367.640801078904
20
-7.94027527253493
30
0
41
1
10
367.630992180374
20
-7.9473366560164
30
0
41
1
10
367.626006027204
20
-7.95054470916833
30
0
41
1
10
367.616213206618
20
-7.95591984139068
30
0
41
1
10
367.611384546088
20
-7.95810902100794
30
0
41
1
10
367.601890289183
20
-7.96128445215464
30
0
41
1
10
367.597355810905
20
-7.96222048374656
30
0
41
1
10
367.588820720175
20
-7.96271895541523
30
0
41
1
10
367.584759371
20
-7.96226588251673
30
0
41
1
10
367.577453125654
20
-7.96002560259518
30
0
41
1
10
367.574191909539
20
-7.95826207512479
30
0
41
1
10
367.568356163976
20
-7.95360470919115
30
0
41
1
10
367.565807208947
20
-7.95071591730192
30
0
41
1
10
367.561457307646
20
-7.94421632214633
30
0
41
1
10
367.559626662752
20
-7.94058162684544
30
0
41
1
10
367.556523269336
20
-7.93268665844556
30
0
41
1
10
367.555247510152
20
-7.92840352998854
30
0
41
1
10
367.55319751331
20
-7.9194434140343
30
0
41
1
10
367.552418485904
20
-7.91476360895055
30
0
41
1
10
367.550682498191
20
-7.90023434939624
30
0
41
1
10
367.550325735067
20
-7.88985561336983
30
0
41
1
10
367.550966789172
20
-7.85799228261862
30
0
41
1
10
367.553590221519
20
-7.83558668761341
30
0
41
1
10
367.559524476594
20
-7.80090260273178
30
0
41
1
10
367.561860927053
20
-7.78911380619036
30
0
41
1
10
367.567088729835
20
-7.765420586852
30
0
41
1
10
367.569973709317
20
-7.7535355328597
30
0
41
1
10
367.579321527427
20
-7.71778098688907
30
0
41
1
10
367.58646953122
20
-7.69381309105509
30
0
41
1
10
367.602267862415
20
-7.64565947793511
30
0
41
1
10
367.619577003328
20
-7.59728693312206
30
0
41
1
10
367.639694160572
20
-7.54851064618606
30
0
41
1
10
367.650480947162
20
-7.52402032861485
30
0
0
SPLINE
5
1B0
100
AcDbEntity
8
1
62
256
6
ByLayer
370
18
48
1
60
0
100
AcDbSpline
70
4
71
3
72
8
73
4
40
0
40
0
40
0
40
0
40
1
40
1
40
1
40
1
41
1
10
367.650480947162
20
-7.52402032861485
30
0
41
1
10
367.886241901321
20
-6.98874871734361
30
0
41
1
10
368.111437539985
20
-6.44762852173599
30
0
41
1
10
368.324759526419
20
-5.89993549292979
30
0
0
SPLINE
5
1B1
100
AcDbEntity
8
1
62
256
6
ByLayer
370
18
48
1
60
0
100
AcDbSpline
70
4
71
3
72
8
73
4
40
0
40
0
40
0
40
0
40
1
40
1
40
1
40
1
41
1
10
368.324759526419
20
-5.34389161534617
30
0
41
1
10
368.100672937923
20
-5.55616259190853
30
0
41
1
10
367.875878259423
20
-5.76742938853377
30
0
41
1
10
367.650480947162
20
-5.97784155830453
30
0
0
SPLINE
5
1B2
100
AcDbEntity
8
1
62
256
6
ByLayer
370
18
48
1
60
0
100
AcDbSpline
70
4
71
3
72
39
73
35
40
0
40
0
40
0
40
0
40
0.0312499999999968
40
0.0312499999999968
40
0.0624999999999937
40
0.0624999999999937
40
0.0781249999999926
40
0.0781249999999926
40
0.0937499999999915
40
0.0937499999999915
40
0.12499999999999
40
0.12499999999999
40
0.15624999999999
40
0.15624999999999
40
0.187499999999989
40
0.187499999999989
40
0.218749999999988
40
0.218749999999988
40
0.249999999999987
40
0.249999999999987
40
0.281249999999986
40
0.281249999999986
40
0.312499999999985
40
0.312499999999985
40
0.374999999999991
40
0.374999999999991
40
0.499999999999993
40
0.499999999999993
40
0.624999999999994
40
0.624999999999994
40
0.749999999999996
40
0.749999999999996
40
0.874999999999998
40
1
40
1
40
1
40
1
41
1
10
367.650480947162
20
-5.9778415583063
30
0
41
1
10
367.645070573186
20
-5.98289223311772
30
0
41
1
10
367.639513106979
20
-5.98757922883868
30
0
41
1
10
367.628225225349
20
-5.9957597995151
30
0
41
1
10
367.622572736455
20
-5.99920331417326
30
0
41
1
10
367.614077225303
20
-6.00309188103981
30
0
41
1
10
367.611222335286
20
-6.00417688359664
30
0
41
1
10
367.605677702528
20
-6.00579678088135
30
0
41
1
10
367.602973531995
20
-6.00634145162749
30
0
41
1
10
367.595073068045
20
-6.00714902252329
30
0
41
1
10
367.590031566255
20
-6.00653248903481
30
0
41
1
10
367.581193349521
20
-6.00322100252245
30
0
41
1
10
367.577280359417
20
-6.00054314112614
30
0
41
1
10
367.570434037439
20
-5.99361295890847
30
0
41
1
10
367.567567506173
20
-5.98945546023688
30
0
41
1
10
367.562642849808
20
-5.98013118363491
30
0
41
1
10
367.560603852079
20
-5.97497649319254
30
0
41
1
10
367.557229405652
20
-5.96419775223515
30
0
41
1
10
367.555875895449
20
-5.95853365972991
30
0
41
1
10
367.553672457203
20
-5.94678901701712
30
0
41
1
10
367.552823959493
20
-5.94070730425969
30
0
41
1
10
367.551532822405
20
-5.92820667992916
30
0
41
1
10
367.551090778585
20
-5.92176918652842
30
0
41
1
10
367.550280304693
20
-5.90225782336307
30
0
41
1
10
367.550409275107
20
-5.8889336262753
30
0
41
1
10
367.552194406003
20
-5.84829137627258
30
0
41
1
10
367.555225580055
20
-5.8203143302222
30
0
41
1
10
367.56364088965
20
-5.76320726547445
30
0
41
1
10
367.568989094997
20
-5.73448453117396
30
0
41
1
10
367.581324248186
20
-5.67689172178765
30
0
41
1
10
367.588324868774
20
-5.64799917338271
30
0
41
1
10
367.603732419277
20
-5.59004840719592
30
0
41
1
10
367.620551977068
20
-5.53193141866896
30
0
41
1
10
367.640038964386
20
-5.47350179980842
30
0
41
1
10
367.650480947162
20
-5.44420748306362
30
0
0
SPLINE
5
1B3
100
AcDbEntity
8
1
62
256
6
ByLayer
370
18
48
1
60
0
100
AcDbSpline
70
4
71
3
72
8
73
4
40
0
40
0
40
0
40
0
40
1
40
1
40
1
40
1
41
1
10
367.650480947162
20
-5.44420748306362
30
0
41
1
10
367.895186418447
20
-4.75770188931276
30
0
41
1
10
368.120774732857
20
-4.06295440434502
30
0
41
1
10
368.324759526419
20
-3.3588930935874
30
0
0
SPLINE
5
1B4
100
AcDbEntity
8
1
62
256
6
ByLayer
370
18
48
1
60
0
100
AcDbSpline
70
4
71
3
72
8
73
4
40
0
40
0
40
0
40
0
40
1
40
1
40
1
40
1
41
1
10
368.324759526419
20
-2.54543529228241
30
0
41
1
10
368.102856207575
20
-2.8081293930679
30
0
41
1
10
367.87789393872
20
-3.06728947825437
30
0
41
1
10
367.650480947162
20
-3.32361823496859
30
0
0
SPLINE
5
1B5
100
AcDbEntity
8
1
62
256
6
ByLayer
370
18
48
1
60
0
100
AcDbSpline
70
4
71
3
72
38
73
34
40
0
40
0
40
0
40
0
40
0.0312499999999951
40
0.0312499999999951
40
0.0468749999999927
40
0.0468749999999927
40
0.0624999999999903
40
0.0624999999999903
40
0.0781249999999879
40
0.0781249999999879
40
0.0937499999999855
40
0.0937499999999855
40
0.109374999999983
40
0.109374999999983
40
0.124999999999981
40
0.124999999999981
40
0.156249999999984
40
0.156249999999984
40
0.187499999999988
40
0.187499999999988
40
0.24999999999999
40
0.24999999999999
40
0.312499999999992
40
0.312499999999992
40
0.374999999999993
40
0.374999999999993
40
0.499999999999994
40
0.499999999999994
40
0.624999999999995
40
0.624999999999995
40
0.749999999999996
40
0.749999999999996
40
1
40
1
40
1
40
1
41
1
10
367.650480947163
20
-3.32361823497192
30
0
41
1
10
367.643984522043
20
-3.33094068635336
30
0
41
1
10
367.637087099727
20
-3.33768124412347
30
0
41
1
10
367.626354747428
20
-3.34568070105797
30
0
41
1
10
367.622672786077
20
-3.34801975192107
30
0
41
1
10
367.615227174174
20
-3.35169640698257
30
0
41
1
10
367.611531397854
20
-3.35300455163323
30
0
41
1
10
367.604203715131
20
-3.35436607527117
30
0
41
1
10
367.600638398742
20
-3.35438934468084
30
0
41
1
10
367.593959541195
20
-3.35314067665362
30
0
41
1
10
367.590782123263
20
-3.35184798669431
30
0
41
1
10
367.58507026222
20
-3.34828207327129
30
0
41
1
10
367.582488099225
20
-3.34601133649537
30
0
41
1
10
367.577753050436
20
-3.340703314199
30
0
41
1
10
367.575612489275
20
-3.33767053930859
30
0
41
1
10
367.569849274635
20
-3.32792028671389
30
0
41
1
10
367.566789889396
20
-3.32043543782322
30
0
41
1
10
367.561775920044
20
-3.30477720345016
30
0
41
1
10
367.559797491318
20
-3.29654262529252
30
0
41
1
10
367.554893629213
20
-3.27104194241124
30
0
41
1
10
367.552983754743
20
-3.25288418124606
30
0
41
1
10
367.550722421526
20
-3.21638791679769
30
0
41
1
10
367.550369579247
20
-3.19789985844992
30
0
41
1
10
367.550648562
20
-3.1606122640525
30
0
41
1
10
367.551290415845
20
-3.14180977373403
30
0
41
1
10
367.5543116466
20
-3.08504763501406
30
0
41
1
10
367.557768451239
20
-3.04673870110875
30
0
41
1
10
367.566574464434
20
-2.9694791711014
30
0
41
1
10
367.571943356467
20
-2.93052277137806
30
0
41
1
10
367.584191791777
20
-2.85208140430871
30
0
41
1
10
367.591049423945
20
-2.81277108989732
30
0
41
1
10
367.613451439318
20
-2.69485960614389
30
0
41
1
10
367.630794068013
20
-2.61615616242898
30
0
41
1
10
367.650480947162
20
-2.53736390968376
30
0
0
SPLINE
5
1B6
100
AcDbEntity
8
1
62
256
6
ByLayer
370
18
48
1
60
0
100
AcDbSpline
70
4
71
3
72
8
73
4
40
0
40
0
40
0
40
0
40
1
40
1
40
1
40
1
41
1
10
367.650480947162
20
-2.53736390968379
30
0
41
1
10
367.936650314553
20
-1.39203615339761
30
0
41
1
10
368.164101740032
20
-0.231555181888894
30
0
41
1
10
368.324759526419
20
0.946163082953206
30
0
0
SPLINE
5
1B7
100
AcDbEntity
8
1
62
256
6
ByLayer
370
18
48
1
60
0
100
AcDbSpline
70
4
71
3
72
10
73
6
40
0
40
0
40
0
40
0
40
0.5
40
0.5
40
1
40
1
40
1
40
1
41
1
10
368.324759526419
20
3.46016437565419
30
0
41
1
10
368.253343637493
20
3.08605222486082
30
0
41
1
10
368.158489259995
20
2.72177884437926
30
0
41
1
10
367.930986544702
20
2.00909684762141
30
0
41
1
10
367.79833441894
20
1.66068982141988
30
0
41
1
10
367.650480947162
20
1.31866386161772
30
0
0
SPLINE
5
1B8
100
AcDbEntity
8
1
62
256
6
ByLayer
370
18
48
1
60
0
100
AcDbSpline
70
4
71
3
72
57
73
53
40
0
40
0
40
0
40
0
40
0.125000000000001
40
0.125000000000001
40
0.250000000000002
40
0.375000000000003
40
0.375000000000003
40
0.500000000000004
40
0.500000000000004
40
0.625000000000005
40
0.625000000000005
40
0.687500000000005
40
0.687500000000005
40
0.750000000000005
40
0.750000000000005
40
0.812500000000006
40
0.812500000000006
40
0.875000000000006
40
0.875000000000006
40
0.906250000000006
40
0.906250000000006
40
0.921875000000006
40
0.921875000000006
40
0.937500000000006
40
0.937500000000006
40
0.945312500000007
40
0.945312500000007
40
0.953125000000007
40
0.953125000000007
40
0.960937500000007
40
0.960937500000007
40
0.964843750000007
40
0.964843750000007
40
0.968750000000007
40
0.968750000000007
40
0.972656250000007
40
0.972656250000007
40
0.976562500000007
40
0.976562500000007
40
0.978515625000006
40
0.978515625000006
40
0.980468750000005
40
0.980468750000005
40
0.982421875000004
40
0.982421875000004
40
0.984375000000003
40
0.984375000000003
40
0.988281250000003
40
0.988281250000003
40
0.992187500000002
40
0.992187500000002
40
1
40
1
40
1
40
1
41
1
10
367.650480947162
20
4.79447758099789
30
0
41
1
10
367.649474914009
20
4.64257282307861
30
0
41
1
10
367.647352403027
20
4.49068193356123
30
0
41
1
10
367.641079448038
20
4.18692895768615
30
0
41
1
10
367.632780463968
20
3.88320479353291
30
0
41
1
10
367.621220285853
20
3.57954243457704
30
0
41
1
10
367.608599227804
20
3.2759140378536
30
0
41
1
10
367.601754923346
20
3.12411680115838
30
0
41
1
10
367.587790157286
20
2.82056059262683
30
0
41
1
10
367.580656945611
20
2.66880154760816
30
0
41
1
10
367.570656270951
20
2.44119674680161
30
0
41
1
10
367.567443146172
20
2.36533413035207
30
0
41
1
10
367.561508805656
20
2.21362161662225
30
0
41
1
10
367.558783648494
20
2.13774767313785
30
0
41
1
10
367.554227791731
20
1.98639807764749
30
0
41
1
10
367.552384521753
20
1.91088208268397
30
0
41
1
10
367.550304819929
20
1.76030544060919
30
0
41
1
10
367.550017507499
20
1.68523525994721
30
0
41
1
10
367.552116127572
20
1.57321938096968
30
0
41
1
10
367.553241725102
20
1.53597982306431
30
0
41
1
10
367.556066196098
20
1.48036217479057
30
0
41
1
10
367.557199844787
20
1.46186376712598
30
0
41
1
10
367.560032561575
20
1.4249824938201
30
0
41
1
10
367.561724621638
20
1.40659831536226
30
0
41
1
10
367.564962866512
20
1.37916042457755
30
0
41
1
10
367.566160648091
20
1.37003783743197
30
0
41
1
10
367.568892543204
20
1.35185807401956
30
0
41
1
10
367.570429233634
20
1.34277298098613
30
0
41
1
10
367.574003223349
20
1.32482961050121
30
0
41
1
10
367.576022559128
20
1.31601943191026
30
0
41
1
10
367.579665375541
20
1.30322695536563
30
0
41
1
10
367.580983473112
20
1.29903429870933
30
0
41
1
10
367.583925806698
20
1.29085903674311
30
0
41
1
10
367.585555704597
20
1.28686312506457
30
0
41
1
10
367.589214864265
20
1.27940680909793
30
0
41
1
10
367.591242911041
20
1.2759180214629
30
0
41
1
10
367.596024190781
20
1.26981277473851
30
0
41
1
10
367.598791925149
20
1.26720744962273
30
0
41
1
10
367.603585192062
20
1.26497186906388
30
0
41
1
10
367.605238544653
20
1.26453095266132
30
0
41
1
10
367.608667422955
20
1.26431709371204
30
0
41
1
10
367.61045752744
20
1.26455966997224
30
0
41
1
10
367.613936585578
20
1.26566676014607
30
0
41
1
10
367.615671884936
20
1.26653771797186
30
0
41
1
10
367.61899339339
20
1.26871155502025
30
0
41
1
10
367.620581409002
20
1.27000587963391
30
0
41
1
10
367.625186557665
20
1.27434154931845
30
0
41
1
10
367.628021131566
20
1.27780990186937
30
0
41
1
10
367.633249794904
20
1.28514751172415
30
0
41
1
10
367.635679061346
20
1.28906668056018
30
0
41
1
10
367.642616772462
20
1.30129666549789
30
0
41
1
10
367.646685962344
20
1.30988501247015
30
0
41
1
10
367.650480947162
20
1.31866386161772
30
0
0
SPLINE
5
1B9
100
AcDbEntity
8
1
62
256
6
ByLayer
370
18
48
1
60
0
100
AcDbSpline
70
4
71
3
72
8
73
4
40
0
40
0
40
0
40
0
40
1
40
1
40
1
40
1
41
1
10
367.650480947162
20
4.79447758099789
30
0
41
1
10
367.651388368233
20
4.93149252699837
30
0
41
1
10
367.651388368233
20
5.06850747299887
30
0
41
1
10
367.650480947162
20
5.20552241899938
30
0
0
SPLINE
5
1BA
100
AcDbEntity
8
1
62
256
6
ByLayer
370
18
48
1
60
0
100
AcDbSpline
70
4
71
3
72
59
73
55
40
0
40
0
40
0
40
0
40
0.124999999999998
40
0.124999999999998
40
0.249999999999996
40
0.374999999999994
40
0.374999999999994
40
0.499999999999992
40
0.499999999999992
40
0.62499999999999
40
0.62499999999999
40
0.68749999999999
40
0.68749999999999
40
0.749999999999989
40
0.749999999999989
40
0.81249999999999
40
0.81249999999999
40
0.843749999999989
40
0.843749999999989
40
0.874999999999989
40
0.874999999999989
40
0.906249999999989
40
0.906249999999989
40
0.921874999999989
40
0.921874999999989
40
0.937499999999989
40
0.937499999999989
40
0.945312499999988
40
0.945312499999988
40
0.953124999999987
40
0.953124999999987
40
0.960937499999986
40
0.960937499999986
40
0.964843749999985
40
0.964843749999985
40
0.968749999999984
40
0.968749999999984
40
0.972656249999984
40
0.972656249999984
40
0.976562499999983
40
0.976562499999983
40
0.978515624999984
40
0.978515624999984
40
0.980468749999985
40
0.980468749999985
40
0.982421874999986
40
0.982421874999986
40
0.984374999999987
40
0.984374999999987
40
0.988281249999991
40
0.988281249999991
40
0.992187499999994
40
0.992187499999994
40
1
40
1
40
1
40
1
41
1
10
367.650480947162
20
5.20552241899938
30
0
41
1
10
367.649474529164
20
5.3574852861168
30
0
41
1
10
367.647350571744
20
5.50946203431704
30
0
41
1
10
367.641070593963
20
5.81344439337897
30
0
41
1
10
367.632760419544
20
6.1174556232807
30
0
41
1
10
367.621178756172
20
6.4215288641195
30
0
41
1
10
367.608531759673
20
6.72563622957557
30
0
41
1
10
367.601672191192
20
6.87770695465963
30
0
41
1
10
367.587676377915
20
7.1818869200869
30
0
41
1
10
367.580530180473
20
7.33394573764579
30
0
41
1
10
367.570536139854
20
7.56160809848276
30
0
41
1
10
367.567328862803
20
7.63743907733192
30
0
41
1
10
367.561413484972
20
7.78896908574634
30
0
41
1
10
367.558701689912
20
7.86466839812826
30
0
41
1
10
367.554167978853
20
8.01590533592193
30
0
41
1
10
367.552334555853
20
8.09144384069992
30
0
41
1
10
367.550799054594
20
8.20458854632381
30
0
41
1
10
367.550492739193
20
8.24227603690866
30
0
41
1
10
367.550469812772
20
8.31758254278529
30
0
41
1
10
367.550750183483
20
8.35523886655128
30
0
41
1
10
367.552208755407
20
8.43023262171286
30
0
41
1
10
367.553373181025
20
8.4675729768542
30
0
41
1
10
367.556275212278
20
8.52319890720335
30
0
41
1
10
367.557437968645
20
8.54167593430651
30
0
41
1
10
367.560336644401
20
8.57844571083419
30
0
41
1
10
367.562065629678
20
8.59674052995928
30
0
41
1
10
367.565365531574
20
8.62396204542168
30
0
41
1
10
367.566584913132
20
8.63299859792482
30
0
41
1
10
367.569361551694
20
8.65096757430655
30
0
41
1
10
367.570921073671
20
8.65991916152146
30
0
41
1
10
367.574516938715
20
8.67745376451597
30
0
41
1
10
367.576547962152
20
8.68605996342799
30
0
41
1
10
367.58021552862
20
8.69854381258691
30
0
41
1
10
367.581543102687
20
8.70263313961769
30
0
41
1
10
367.584510409302
20
8.71059873923605
30
0
41
1
10
367.586161611328
20
8.71450396438073
30
0
41
1
10
367.589888240219
20
8.72177776739355
30
0
41
1
10
367.591955510826
20
8.7251627485102
30
0
41
1
10
367.59684579735
20
8.73100162030119
30
0
41
1
10
367.599637337106
20
8.73338371760562
30
0
41
1
10
367.604411839463
20
8.73527061609693
30
0
41
1
10
367.606061767277
20
8.73560195864525
30
0
41
1
10
367.609492008734
20
8.73560099260288
30
0
41
1
10
367.611227428267
20
8.73526227848481
30
0
41
1
10
367.61463552521
20
8.7340069946691
30
0
41
1
10
367.616332222931
20
8.73307964611291
30
0
41
1
10
367.61955483406
20
8.7308482353865
30
0
41
1
10
367.621102908113
20
8.7295383311081
30
0
41
1
10
367.62560527577
20
8.72517335725391
30
0
41
1
10
367.628363216431
20
8.72174764484211
30
0
41
1
10
367.633516183583
20
8.71443632136786
30
0
41
1
10
367.635914818984
20
8.71053626148233
30
0
41
1
10
367.642693644436
20
8.6985283928816
30
0
41
1
10
367.646722359183
20
8.69003079157713
30
0
41
1
10
367.650480947162
20
8.68133613838111
30
0
0
SPLINE
5
1BB
100
AcDbEntity
8
1
62
256
6
ByLayer
370
18
48
1
60
0
100
AcDbSpline
70
4
71
3
72
10
73
6
40
0
40
0
40
0
40
0
40
0.5
40
0.5
40
1
40
1
40
1
40
1
41
1
10
367.650480947161
20
8.68133613838089
30
0
41
1
10
367.798334418938
20
8.3393101785814
30
0
41
1
10
367.9309865447
20
7.99090315238263
30
0
41
1
10
368.158489259991
20
7.27822115563063
30
0
41
1
10
368.253343637489
20
6.91394777515211
30
0
41
1
10
368.324759526416
20
6.53983562436198
30
0
0
SPLINE
5
1BC
100
AcDbEntity
8
1
62
256
6
ByLayer
370
18
48
1
60
0
100
AcDbSpline
70
4
71
3
72
8
73
4
40
0
40
0
40
0
40
0
40
1
40
1
40
1
40
1
41
1
10
368.324759526419
20
9.05383691704404
30
0
41
1
10
368.164101740032
20
10.2315551818861
30
0
41
1
10
367.936650314553
20
11.3920361533949
30
0
41
1
10
367.650480947162
20
12.537363909681
30
0
0
SPLINE
5
1BD
100
AcDbEntity
8
1
62
256
6
ByLayer
370
18
48
1
60
0
100
AcDbSpline
70
4
71
3
72
42
73
38
40
0
40
0
40
0
40
0
40
0.249999999999999
40
0.249999999999999
40
0.375000000000001
40
0.375000000000001
40
0.500000000000003
40
0.500000000000003
40
0.625000000000005
40
0.625000000000005
40
0.687500000000004
40
0.687500000000004
40
0.750000000000003
40
0.750000000000003
40
0.781250000000003
40
0.781250000000003
40
0.812500000000002
40
0.812500000000002
40
0.843750000000002
40
0.843750000000002
40
0.859375000000002
40
0.859375000000002
40
0.875000000000001
40
0.875000000000001
40
0.890625000000001
40
0.890625000000001
40
0.906250000000001
40
0.906250000000001
40
0.921875000000001
40
0.921875000000001
40
0.937500000000001
40
0.937500000000001
40
0.953125000000001
40
0.953125000000001
40
0.96875
40
0.96875
40
1
40
1
40
1
40
1
41
1
10
367.650480947161
20
12.537363909681
30
0
41
1
10
367.63076897837
20
12.616256578011
30
0
41
1
10
367.61346059995
20
12.6948483875481
30
0
41
1
10
367.591140780514
20
12.8122718609801
30
0
41
1
10
367.584320719394
20
12.8513346156629
30
0
41
1
10
367.572124668301
20
12.9292847102212
30
0
41
1
10
367.566742521326
20
12.9681725752501
30
0
41
1
10
367.557864378318
20
13.0457341654556
30
0
41
1
10
367.55434285781
20
13.0844400879728
30
0
41
1
10
367.551271377319
20
13.1421780618718
30
0
41
1
10
367.550630005146
20
13.1612308644044
30
0
41
1
10
367.550377159459
20
13.1988263852372
30
0
41
1
10
367.550757044976
20
13.21737314192
30
0
41
1
10
367.552486535079
20
13.2446298400143
30
0
41
1
10
367.553258656099
20
13.2536204028754
30
0
41
1
10
367.555324288495
20
13.2713507168475
30
0
41
1
10
367.556619146011
20
13.280113232575
30
0
41
1
10
367.559941779673
20
13.2971873027495
30
0
41
1
10
367.56194845637
20
13.3054174754378
30
0
41
1
10
367.565733288872
20
13.3170790955416
30
0
41
1
10
367.567125496084
20
13.320851090813
30
0
41
1
10
367.570248978874
20
13.3280968735348
30
0
41
1
10
367.571992418155
20
13.3315905985692
30
0
41
1
10
367.575857623531
20
13.3380349923341
30
0
41
1
10
367.577978928924
20
13.3409948006517
30
0
41
1
10
367.582717557109
20
13.3462264145759
30
0
41
1
10
367.58536880188
20
13.3485166992703
30
0
41
1
10
367.591140283969
20
13.3520175053921
30
0
41
1
10
367.594278886941
20
13.3532465409787
30
0
41
1
10
367.601038610781
20
13.3544128086466
30
0
41
1
10
367.604547324229
20
13.3543357984644
30
0
41
1
10
367.611812347963
20
13.3529157629821
30
0
41
1
10
367.615579957294
20
13.3515498926693
30
0
41
1
10
367.622949675614
20
13.3478528590442
30
0
41
1
10
367.626634528599
20
13.3454932373669
30
0
41
1
10
367.637401170667
20
13.3374023255898
30
0
41
1
10
367.644079218297
20
13.3308339493781
30
0
41
1
10
367.650480947162
20
13.3236182349658
30
0
0
SPLINE
5
1BE
100
AcDbEntity
8
1
62
256
6
ByLayer
370
18
48
1
60
0
100
AcDbSpline
70
4
71
3
72
8
73
4
40
0
40
0
40
0
40
0
40
1
40
1
40
1
40
1
41
1
10
367.650480947162
20
13.3236182349658
30
0
41
1
10
367.877893938717
20
13.0672894782548
30
0
41
1
10
368.102856207569
20
12.8081293930717
30
0
41
1
10
368.324759526411
20
12.5454352922895
30
0
0
SPLINE
5
1BF
100
AcDbEntity
8
1
62
256
6
ByLayer
370
18
48
1
60
0
100
AcDbSpline
70
4
71
3
72
8
73
4
40
0
40
0
40
0
40
0
40
1
40
1
40
1
40
1
41
1
10
368.324759526419
20
13.3588930935846
30
0
41
1
10
368.120774732857
20
14.0629544043423
30
0
41
1
10
367.895186418447
20
14.75770188931
30
0
41
1
10
367.650480947162
20
15.4442074830609
30
0
0
SPLINE
5
1C0
100
AcDbEntity
8
1
62
256
6
ByLayer
370
18
48
1
60
0
100
AcDbSpline
70
4
71
3
72
40
73
36
40
0
40
0
40
0
40
0
40
0.125000000000006
40
0.125000000000006
40
0.250000000000012
40
0.250000000000012
40
0.375000000000017
40
0.375000000000017
40
0.500000000000023
40
0.500000000000023
40
0.562500000000024
40
0.562500000000024
40
0.625000000000024
40
0.625000000000024
40
0.687500000000024
40
0.687500000000024
40
0.750000000000024
40
0.750000000000024
40
0.781250000000019
40
0.781250000000019
40
0.812500000000015
40
0.812500000000015
40
0.843750000000011
40
0.843750000000011
40
0.875000000000007
40
0.875000000000007
40
0.906250000000002
40
0.906250000000002
40
0.921875
40
0.921875
40
0.937499999999998
40
0.937499999999998
40
0.968749999999999
40
0.968749999999999
40
1
40
1
40
1
40
1
41
1
10
367.650480947162
20
15.4442074830609
30
0
41
1
10
367.640025010736
20
15.4735409458814
30
0
41
1
10
367.630210989746
20
15.5029673076432
30
0
41
1
10
367.611958545041
20
15.5616002322832
30
0
41
1
10
367.603523410692
20
15.5907865528436
30
0
41
1
10
367.588102337403
20
15.6488854928152
30
0
41
1
10
367.581113785878
20
15.6777985452105
30
0
41
1
10
367.5688291768
20
15.7353093306309
30
0
41
1
10
367.56352332279
20
15.7639086554228
30
0
41
1
10
367.557268698593
20
15.8064991466683
30
0
41
1
10
367.555468305322
20
15.820682296394
30
0
41
1
10
367.552619223369
20
15.8486113407311
30
0
41
1
10
367.551563972929
20
15.8623801284261
30
0
41
1
10
367.550399909879
20
15.8894214732828
30
0
41
1
10
367.550285829804
20
15.9026966836879
30
0
41
1
10
367.55138586223
20
15.9285585052084
30
0
41
1
10
367.552608640832
20
15.9412331302676
30
0
41
1
10
367.555948456209
20
15.9588608230569
30
0
41
1
10
367.557314290988
20
15.9645185412788
30
0
41
1
10
367.560709973981
20
15.9752629426476
30
0
41
1
10
367.562757184409
20
15.98038816815
30
0
41
1
10
367.567691285185
20
15.9896473096826
30
0
41
1
10
367.570555797839
20
15.9937603959156
30
0
41
1
10
367.577358112121
20
16.0005969404037
30
0
41
1
10
367.581328265331
20
16.0032995526673
30
0
41
1
10
367.590209516905
20
16.0065701580035
30
0
41
1
10
367.595238130169
20
16.0071547338814
30
0
41
1
10
367.603144568994
20
16.0063121242083
30
0
41
1
10
367.605853809948
20
16.0057558877129
30
0
41
1
10
367.611415566325
20
16.0041091466663
30
0
41
1
10
367.614249175209
20
16.0030206655189
30
0
41
1
10
367.622685087213
20
15.9991362853465
30
0
41
1
10
367.628307688267
20
15.9957046891443
30
0
41
1
10
367.639550729521
20
15.9875472607238
30
0
41
1
10
367.645089621271
20
15.9828744514086
30
0
41
1
10
367.650480947162
20
15.9778415583035
30
0
0
SPLINE
5
1C1
100
AcDbEntity
8
1
62
256
6
ByLayer
370
18
48
1
60
0
100
AcDbSpline
70
4
71
3
72
8
73
4
40
0
40
0
40
0
40
0
40
1
40
1
40
1
40
1
41
1
10
367.650480947162
20
15.9778415583018
30
0
41
1
10
367.875878259423
20
15.767429388531
30
0
41
1
10
368.100672937923
20
15.5561625919058
30
0
41
1
10
368.324759526419
20
15.3438916153434
30
0
0
SPLINE
5
1C2
100
AcDbEntity
8
1
62
256
6
ByLayer
370
18
48
1
60
0
100
AcDbSpline
70
4
71
3
72
8
73
4
40
0
40
0
40
0
40
0
40
1
40
1
40
1
40
1
41
1
10
368.324759526419
20
15.899935492927
30
0
41
1
10
368.111437539985
20
16.4476285217333
30
0
41
1
10
367.886241901321
20
16.9887487173409
30
0
41
1
10
367.650480947162
20
17.5240203286121
30
0
0
SPLINE
5
1C3
100
AcDbEntity
8
1
62
256
6
ByLayer
370
18
48
1
60
0
100
AcDbSpline
70
4
71
3
72
40
73
36
40
0
40
0
40
0
40
0
40
0.124999999999988
40
0.124999999999988
40
0.249999999999976
40
0.249999999999976
40
0.374999999999964
40
0.374999999999964
40
0.499999999999952
40
0.499999999999952
40
0.562499999999954
40
0.562499999999954
40
0.624999999999957
40
0.624999999999957
40
0.68749999999996
40
0.68749999999996
40
0.718749999999964
40
0.718749999999964
40
0.749999999999968
40
0.749999999999968
40
0.781249999999972
40
0.781249999999972
40
0.812499999999976
40
0.812499999999976
40
0.84374999999998
40
0.84374999999998
40
0.874999999999984
40
0.874999999999984
40
0.906249999999988
40
0.906249999999988
40
0.937499999999992
40
0.937499999999992
40
0.968749999999996
40
0.968749999999996
40
1
40
1
40
1
40
1
41
1
10
367.650480947162
20
17.5240203286121
30
0
41
1
10
367.639690471916
20
17.548519020908
30
0
41
1
10
367.629613916005
20
17.5729486554874
30
0
41
1
10
367.610849297583
20
17.6216689381406
30
0
41
1
10
367.602160592807
20
17.6459596622943
30
0
41
1
10
367.586289625029
20
17.6943887125286
30
0
41
1
10
367.579096154492
20
17.7185525224903
30
0
41
1
10
367.566584682111
20
17.7665924147552
30
0
41
1
10
367.561339273704
20
17.7901565661229
30
0
41
1
10
367.555481361028
20
17.8246060554287
30
0
41
1
10
367.553867302615
20
17.8359382479904
30
0
41
1
10
367.551487852271
20
17.8582271487081
30
0
41
1
10
367.550718615151
20
17.8692396521939
30
0
41
1
10
367.550336211257
20
17.8904892822454
30
0
41
1
10
367.550714779598
20
17.9006787514821
30
0
41
1
10
367.552465551096
20
17.9150655650466
30
0
41
1
10
367.553248182532
20
17.9197101977644
30
0
41
1
10
367.555309097648
20
17.928624850167
30
0
41
1
10
367.556593904736
20
17.9329010995033
30
0
41
1
10
367.559717301251
20
17.940775616694
30
0
41
1
10
367.561559358519
20
17.9444002494729
30
0
41
1
10
367.565937706079
20
17.9508777423314
30
0
41
1
10
367.568504767017
20
17.9537519025169
30
0
41
1
10
367.574349248947
20
17.9583575070405
30
0
41
1
10
367.577621102576
20
17.9601034727091
30
0
41
1
10
367.584977180313
20
17.9623048822324
30
0
41
1
10
367.589008029016
20
17.9627276846823
30
0
41
1
10
367.597554413792
20
17.9621883066376
30
0
41
1
10
367.602165047508
20
17.961210311398
30
0
41
1
10
367.61156352127
20
17.9580305278123
30
0
41
1
10
367.616343834585
20
17.9558532438598
30
0
41
1
10
367.626039774226
20
17.9505209964739
30
0
41
1
10
367.630992916634
20
17.9473363627037
30
0
41
1
10
367.640809613647
20
17.940268891458
30
0
41
1
10
367.64566607499
20
17.9363995135523
30
0
41
1
10
367.650480947162
20
17.9322615979158
30
0
0
SPLINE
5
1C4
100
AcDbEntity
8
1
62
256
6
ByLayer
370
18
48
1
60
0
100
AcDbSpline
70
4
71
3
72
8
73
4
40
0
40
0
40
0
40
0
40
1
40
1
40
1
40
1
41
1
10
367.650480947162
20
17.9322615979148
30
0
41
1
10
367.875423713527
20
17.7389451074568
30
0
41
1
10
368.100191536751
20
17.5453578173492
30
0
41
1
10
368.324759526419
20
17.3514611989823
30
0
0
SPLINE
5
1C5
100
AcDbEntity
8
1
62
256
6
ByLayer
370
18
48
1
60
0
100
AcDbSpline
70
4
71
3
72
8
73
4
40
0
40
0
40
0
40
0
40
1
40
1
40
1
40
1
41
1
10
368.324759526419
20
17.7767794748898
30
0
41
1
10
368.107382666912
20
18.2381665161957
30
0
41
1
10
367.882352997816
20
18.6945301612774
30
0
41
1
10
367.650480947162
20
19.1464023848382
30
0
0
SPLINE
5
1C6
100
AcDbEntity
8
1
62
256
6
ByLayer
370
18
48
1
60
0
100
AcDbSpline
70
4
71
3
72
40
73
36
40
0
40
0
40
0
40
0
40
0.125000000000006
40
0.125000000000006
40
0.250000000000012
40
0.250000000000012
40
0.375000000000018
40
0.375000000000018
40
0.437500000000024
40
0.437500000000024
40
0.500000000000029
40
0.500000000000029
40
0.562500000000035
40
0.562500000000035
40
0.62500000000004
40
0.62500000000004
40
0.687500000000045
40
0.687500000000045
40
0.71875000000004
40
0.71875000000004
40
0.750000000000034
40
0.750000000000034
40
0.781250000000028
40
0.781250000000028
40
0.812500000000023
40
0.812500000000023
40
0.843750000000017
40
0.843750000000017
40
0.875000000000012
40
0.875000000000012
40
0.9375
40
0.9375
40
0.96875
40
0.96875
40
1
40
1
40
1
40
1
41
1
10
367.650480947162
20
19.1464023848382
30
0
41
1
10
367.639414958228
20
19.1679677827005
30
0
41
1
10
367.629040809079
20
19.1894982781829
30
0
41
1
10
367.609683150239
20
19.2324844320542
30
0
41
1
10
367.600665700982
20
19.2540304822565
30
0
41
1
10
367.584409180772
20
19.296471660637
30
0
41
1
10
367.577153956557
20
19.3173783954788
30
0
41
1
10
367.56784509696
20
19.3481740824696
30
0
41
1
10
367.565006721944
20
19.3583444727696
30
0
41
1
10
367.55994833633
20
19.3784644888759
30
0
41
1
10
367.557723039423
20
19.388436739023
30
0
41
1
10
367.554054354314
20
19.4080137813786
30
0
41
1
10
367.552625671844
20
19.4175304795202
30
0
41
1
10
367.550759790623
20
19.4359026326859
30
0
41
1
10
367.550318779816
20
19.4447605718948
30
0
41
1
10
367.550749497916
20
19.4616056545865
30
0
41
1
10
367.551636822927
20
19.4696104377055
30
0
41
1
10
367.554281873644
20
19.4802400051814
30
0
41
1
10
367.555383473851
20
19.4835703154128
30
0
41
1
10
367.55811068237
20
19.4897250071949
30
0
41
1
10
367.559751087798
20
19.4925672484094
30
0
41
1
10
367.5635955558
20
19.4975235357768
30
0
41
1
10
367.565792502249
20
19.4996397405514
30
0
41
1
10
367.570810054821
20
19.5030524418833
30
0
41
1
10
367.573662929114
20
19.5043510856052
30
0
41
1
10
367.579852338377
20
19.5059489374516
30
0
41
1
10
367.583198210382
20
19.5062662734102
30
0
41
1
10
367.59039654148
20
19.5059318013024
30
0
41
1
10
367.594295692839
20
19.5052651393152
30
0
41
1
10
367.606418497699
20
19.5018746224363
30
0
41
1
10
367.61493133613
20
19.4978669254707
30
0
41
1
10
367.628201605806
20
19.4898327177065
30
0
41
1
10
367.632697891773
20
19.4868155998182
30
0
41
1
10
367.641605111237
20
19.4803478822279
30
0
41
1
10
367.646047713552
20
19.4768784266656
30
0
41
1
10
367.650480947162
20
19.4732088630906
30
0
0
SPLINE
5
1C7
100
AcDbEntity
8
1
62
256
6
ByLayer
370
18
48
1
60
0
100
AcDbSpline
70
4
71
3
72
8
73
4
40
0
40
0
40
0
40
0
40
1
40
1
40
1
40
1
41
1
10
367.650480947162
20
19.47320886309
30
0
41
1
10
367.87528177088
20
19.2871322907598
30
0
41
1
10
368.10004293855
20
19.1009918745272
30
0
41
1
10
368.324759526419
20
18.9147796874389
30
0
0
SPLINE
5
1C8
100
AcDbEntity
8
1
62
256
6
ByLayer
370
18
48
1
60
0
100
AcDbSpline
70
4
71
3
72
8
73
4
40
0
40
0
40
0
40
0
40
1
40
1
40
1
40
1
41
1
10
368.324759526419
20
19.2542482702512
30
0
41
1
10
368.105152654041
20
19.658712324219
30
0
41
1
10
367.880211532645
20
20.0591860512791
30
0
41
1
10
367.650480947162
20
20.4560769820813
30
0
0
SPLINE
5
1C9
100
AcDbEntity
8
1
62
256
6
ByLayer
370
18
48
1
60
0
100
AcDbSpline
70
4
71
3
72
39
73
35
40
0
40
0
40
0
40
0
40
0.125000000000003
40
0.125000000000003
40
0.250000000000006
40
0.250000000000006
40
0.375000000000009
40
0.375000000000009
40
0.437500000000003
40
0.437500000000003
40
0.499999999999998
40
0.499999999999998
40
0.562499999999992
40
0.562499999999992
40
0.59374999999999
40
0.59374999999999
40
0.624999999999987
40
0.624999999999987
40
0.687499999999989
40
0.687499999999989
40
0.71874999999999
40
0.71874999999999
40
0.749999999999991
40
0.749999999999991
40
0.781249999999991
40
0.781249999999991
40
0.812499999999992
40
0.843749999999993
40
0.843749999999993
40
0.874999999999994
40
0.874999999999994
40
0.937499999999997
40
0.937499999999997
40
1
40
1
40
1
40
1
41
1
10
367.650480947162
20
20.4560769820813
30
0
41
1
10
367.639193035731
20
20.475578389197
30
0
41
1
10
367.628590160519
20
20.4950150972988
30
0
41
1
10
367.608789608101
20
20.5337506274608
30
0
41
1
10
367.59955440175
20
20.5531394770007
30
0
41
1
10
367.582996045851
20
20.5910738569013
30
0
41
1
10
367.575636447461
20
20.6096683647384
30
0
41
1
10
367.566297083473
20
20.6368716168538
30
0
41
1
10
367.563469944102
20
20.6458235796126
30
0
41
1
10
367.558498129876
20
20.6634519327053
30
0
41
1
10
367.556355985995
20
20.6721338879723
30
0
41
1
10
367.552992495483
20
20.6887880727994
30
0
41
1
10
367.551755667217
20
20.696805493066
30
0
41
1
10
367.550731607718
20
20.7082552465139
30
0
41
1
10
367.550529643809
20
20.7119751829297
30
0
41
1
10
367.550447718715
20
20.7191922642146
30
0
41
1
10
367.550569803588
20
20.7227031448448
30
0
41
1
10
367.551489172924
20
20.7326767960519
30
0
41
1
10
367.552823866437
20
20.7386266380567
30
0
41
1
10
367.556235634613
20
20.7461914297894
30
0
41
1
10
367.557622786118
20
20.7484972729615
30
0
41
1
10
367.560888621489
20
20.7524800239241
30
0
41
1
10
367.562763444322
20
20.7541622265604
30
0
41
1
10
367.567039967856
20
20.7568546457292
30
0
41
1
10
367.569461523802
20
20.7578691446213
30
0
41
1
10
367.574799687778
20
20.7591280609578
30
0
41
1
10
367.580568003688
20
20.7596147416115
30
0
41
1
10
367.587174135165
20
20.7586005535322
30
0
41
1
10
367.594197904459
20
20.756839614893
30
0
41
1
10
367.597925489672
20
20.7555764856666
30
0
41
1
10
367.609307892352
20
20.7508672481519
30
0
41
1
10
367.617324482498
20
20.7464633141766
30
0
41
1
10
367.63384879861
20
20.7357246214983
30
0
41
1
10
367.642150093394
20
20.7295341136664
30
0
41
1
10
367.650480947162
20
20.7227274845163
30
0
0
SPLINE
5
1CA
100
AcDbEntity
8
1
62
256
6
ByLayer
370
18
48
1
60
0
100
AcDbSpline
70
4
71
3
72
8
73
4
40
0
40
0
40
0
40
0
40
1
40
1
40
1
40
1
41
1
10
367.650480947162
20
20.7227274845159
30
0
41
1
10
367.875242279349
20
20.5390887989471
30
0
41
1
10
368.10000187134
20
20.3554472734943
30
0
41
1
10
368.324759526419
20
20.1718025873645
30
0
0
SPLINE
5
1CB
100
AcDbEntity
8
1
62
256
6
ByLayer
370
18
48
1
60
0
100
AcDbSpline
70
4
71
3
72
8
73
4
40
0
40
0
40
0
40
0
40
1
40
1
40
1
40
1
41
1
10
368.324759526419
20
20.4473652688722
30
0
41
1
10
368.103764009202
20
20.8105598495147
30
0
41
1
10
367.878876276632
20
21.1705149416571
30
0
41
1
10
367.650480947162
20
21.5275506630078
30
0
0
SPLINE
5
1CC
100
AcDbEntity
8
1
62
256
6
ByLayer
370
18
48
1
60
0
100
AcDbSpline
70
4
71
3
72
41
73
37
40
0
40
0
40
0
40
0
40
0.125
40
0.125
40
0.187500000000001
40
0.187500000000001
40
0.250000000000003
40
0.250000000000003
40
0.375000000000011
40
0.375000000000011
40
0.437500000000012
40
0.437500000000012
40
0.500000000000013
40
0.500000000000013
40
0.562500000000014
40
0.562500000000014
40
0.625000000000015
40
0.625000000000015
40
0.656250000000011
40
0.656250000000011
40
0.687500000000007
40
0.687500000000007
40
0.718750000000003
40
0.718750000000003
40
0.749999999999999
40
0.749999999999999
40
0.8125
40
0.8125
40
0.843749999999999
40
0.843749999999999
40
0.874999999999997
40
0.906249999999995
40
0.906249999999995
40
0.937499999999994
40
0.937499999999994
40
1
40
1
40
1
40
1
41
1
10
367.650480947162
20
21.5275506630078
30
0
41
1
10
367.638981804677
20
21.5455265324858
30
0
41
1
10
367.62814548197
20
21.5634206151331
30
0
41
1
10
367.612939206481
20
21.5901281849013
30
0
41
1
10
367.608042788563
20
21.5990169496359
30
0
41
1
10
367.598721928768
20
21.6165648982933
30
0
41
1
10
367.594284643272
20
21.625245763456
30
0
41
1
10
367.581686936374
20
21.650989647913
30
0
41
1
10
367.574223281786
20
21.6677610781072
30
0
41
1
10
367.564837577099
20
21.6921604462427
30
0
41
1
10
367.562006278076
20
21.700198166169
30
0
41
1
10
367.557184605238
20
21.7156477088193
30
0
41
1
10
367.555179368067
20
21.7230904973049
30
0
41
1
10
367.552137250522
20
21.7373043165399
30
0
41
1
10
367.551097322754
20
21.7440774273176
30
0
41
1
10
367.550263647968
20
21.7567617390178
30
0
41
1
10
367.550482593648
20
21.762519187858
30
0
41
1
10
367.551971457481
20
21.7700613230122
30
0
41
1
10
367.552662227263
20
21.7723934928263
30
0
41
1
10
367.554488589318
20
21.7766425722037
30
0
41
1
10
367.555629696968
20
21.778558267136
30
0
41
1
10
367.558347744801
20
21.7818281742797
30
0
41
1
10
367.559929168047
20
21.7831969176465
30
0
41
1
10
367.563569638857
20
21.7853637195269
30
0
41
1
10
367.565645521329
20
21.7861647789771
30
0
41
1
10
367.572537810431
20
21.7876065271323
30
0
41
1
10
367.57792665398
20
21.7872966647592
30
0
41
1
10
367.587151619285
20
21.7850110816924
30
0
41
1
10
367.590446302725
20
21.7839313072061
30
0
41
1
10
367.597241521147
20
21.7812338486888
30
0
41
1
10
367.604247829043
20
21.778007207967
30
0
41
1
10
367.61163322165
20
21.773832248831
30
0
41
1
10
367.619193271317
20
21.7692211157909
30
0
41
1
10
367.623071327699
20
21.7666886267624
30
0
41
1
10
367.634714931172
20
21.758648953218
30
0
41
1
10
367.642563586242
20
21.7526628820379
30
0
41
1
10
367.650480947162
20
21.7461799915708
30
0
0
SPLINE
5
1CD
100
AcDbEntity
8
1
62
256
6
ByLayer
370
18
48
1
60
0
100
AcDbSpline
70
4
71
3
72
8
73
4
40
0
40
0
40
0
40
0
40
1
40
1
40
1
40
1
41
1
10
367.650480947162
20
21.7461799915706
30
0
41
1
10
367.875247737629
20
21.5621365334016
30
0
41
1
10
368.100007511727
20
21.3780816494053
30
0
41
1
10
368.324759526419
20
21.1940141333135
30
0
0
SPLINE
5
1CE
100
AcDbEntity
8
1
62
256
6
ByLayer
370
18
48
1
60
0
100
AcDbSpline
70
4
71
3
72
8
73
4
40
0
40
0
40
0
40
0
40
1
40
1
40
1
40
1
41
1
10
368.324759526419
20
21.4182396666011
30
0
41
1
10
368.10282976625
20
21.7496954266893
30
0
41
1
10
367.87797677687
20
22.0784874839759
30
0
41
1
10
367.650480947162
20
22.4048713342144
30
0
0
SPLINE
5
1CF
100
AcDbEntity
8
1
62
256
6
ByLayer
370
18
48
1
60
0
100
AcDbSpline
70
4
71
3
72
34
73
30
40
0
40
0
40
0
40
0
40
0.125000000000022
40
0.125000000000022
40
0.250000000000043
40
0.250000000000043
40
0.312500000000049
40
0.312500000000049
40
0.375000000000055
40
0.375000000000055
40
0.500000000000053
40
0.500000000000053
40
0.562500000000054
40
0.562500000000054
40
0.625000000000054
40
0.625000000000054
40
0.687500000000055
40
0.687500000000055
40
0.718750000000053
40
0.718750000000053
40
0.750000000000052
40
0.750000000000052
40
0.812500000000039
40
0.812500000000039
40
0.875000000000026
40
0.875000000000026
40
0.937500000000013
40
0.937500000000013
40
1
40
1
40
1
40
1
41
1
10
367.650480947162
20
22.4048713342144
30
0
41
1
10
367.638779782576
20
22.4216587678773
30
0
41
1
10
367.627693116502
20
22.4383758860393
30
0
41
1
10
367.607002473869
20
22.4714107933068
30
0
41
1
10
367.597504579954
20
22.4875524832544
30
0
41
1
10
367.584701626499
20
22.5111204626922
30
0
41
1
10
367.580676613219
20
22.5188681596797
30
0
41
1
10
367.57317678391
20
22.5341175966366
30
0
41
1
10
367.569687169971
20
22.5416532144355
30
0
41
1
10
367.560306547286
20
22.5635746306848
30
0
41
1
10
367.555515793997
20
22.5771559030115
30
0
41
1
10
367.551444442405
20
22.5953340811027
30
0
41
1
10
367.550629414815
20
22.6010158296465
30
0
41
1
10
367.550369704541
20
22.6110410235744
30
0
41
1
10
367.550906911697
20
22.6154408318429
30
0
41
1
10
367.553649785601
20
22.6227119306323
30
0
41
1
10
367.555833495619
20
22.6254796389076
30
0
41
1
10
367.560418657478
20
22.6281044544228
30
0
41
1
10
367.562180578905
20
22.6287302685917
30
0
41
1
10
367.56612484049
20
22.6294299988247
30
0
41
1
10
367.568286199411
20
22.6295043011133
30
0
41
1
10
367.575316333567
20
22.6289333978014
30
0
41
1
10
367.580743615077
20
22.6274928474911
30
0
41
1
10
367.592956646791
20
22.6225760263913
30
0
41
1
10
367.599500450861
20
22.6192044399127
30
0
41
1
10
367.613308831924
20
22.610962075831
30
0
41
1
10
367.620630234375
20
22.6060417517646
30
0
41
1
10
367.635395579301
20
22.5952630873184
30
0
41
1
10
367.642891402848
20
22.5893789353734
30
0
41
1
10
367.650480947162
20
22.5830864488522
30
0
0
SPLINE
5
1D0
100
AcDbEntity
8
1
62
256
6
ByLayer
370
18
48
1
60
0
100
AcDbSpline
70
4
71
3
72
8
73
4
40
0
40
0
40
0
40
0
40
1
40
1
40
1
40
1
41
1
10
367.650480947162
20
22.5830864488521
30
0
41
1
10
367.87527835498
20
22.3967070563395
30
0
41
1
10
368.100039125586
20
22.2102687278762
30
0
41
1
10
368.324759526419
20
22.0237655573012
30
0
0
SPLINE
5
1D1
100
AcDbEntity
8
1
62
256
6
ByLayer
370
18
48
1
60
0
100
AcDbSpline
70
4
71
3
72
8
73
4
40
0
40
0
40
0
40
0
40
1
40
1
40
1
40
1
41
1
10
368.324759526419
20
22.2045370106246
30
0
41
1
10
368.102167049584
20
22.510584176098
30
0
41
1
10
367.877337890168
20
22.8144257977399
30
0
41
1
10
367.650480947162
20
23.1162678662805
30
0
0
SPLINE
5
1D2
100
AcDbEntity
8
1
62
256
6
ByLayer
370
18
48
1
60
0
100
AcDbSpline
70
4
71
3
72
41
73
37
40
0
40
0
40
0
40
0
40
0.0624999999999952
40
0.0624999999999952
40
0.124999999999991
40
0.124999999999991
40
0.24999999999998
40
0.24999999999998
40
0.312499999999977
40
0.312499999999977
40
0.374999999999973
40
0.374999999999973
40
0.43749999999997
40
0.468749999999968
40
0.468749999999968
40
0.499999999999967
40
0.499999999999967
40
0.562499999999969
40
0.562499999999969
40
0.624999999999971
40
0.624999999999971
40
0.687499999999974
40
0.687499999999974
40
0.749999999999976
40
0.749999999999976
40
0.781249999999976
40
0.781249999999976
40
0.812499999999975
40
0.812499999999975
40
0.874999999999981
40
0.874999999999981
40
0.906249999999986
40
0.906249999999986
40
0.93749999999999
40
0.93749999999999
40
1
40
1
40
1
40
1
41
1
10
367.650480947162
20
23.1162678662805
30
0
41
1
10
367.644530707472
20
23.1241848937805
30
0
41
1
10
367.638734660478
20
23.1320661881949
30
0
41
1
10
367.627462614209
20
23.1477537676432
30
0
41
1
10
367.621983627572
20
23.1555655854383
30
0
41
1
10
367.606226071217
20
23.1786319055682
30
0
41
1
10
367.59655639816
20
23.1936038516679
30
0
41
1
10
367.583525644729
20
23.2153410699504
30
0
41
1
10
367.579429881242
20
23.2224656317326
30
0
41
1
10
367.571814377828
20
23.2364325284512
30
0
41
1
10
367.568318980523
20
23.2432345542659
30
0
41
1
10
367.562151731737
20
23.2562021368555
30
0
41
1
10
367.558116055743
20
23.2654991328185
30
0
41
1
10
367.555124307769
20
23.2740375850829
30
0
41
1
10
367.553390593519
20
23.2795405045755
30
0
41
1
10
367.552653442229
20
23.2822028365398
30
0
41
1
10
367.550910298472
20
23.289740610765
30
0
41
1
10
367.550352356246
20
23.2942147484454
30
0
41
1
10
367.550659068286
20
23.3018677379388
30
0
41
1
10
367.551551382702
20
23.3050594781868
30
0
41
1
10
367.554942046485
20
23.3096266601908
30
0
41
1
10
367.55744201508
20
23.3110502936686
30
0
41
1
10
367.564147905172
20
23.3119608702205
30
0
41
1
10
367.568227742826
20
23.3114399048515
30
0
41
1
10
367.575359496822
20
23.3093034854211
30
0
41
1
10
367.577906330663
20
23.3083642815703
30
0
41
1
10
367.583336023074
20
23.3060366334094
30
0
41
1
10
367.58621229645
20
23.3046487760977
30
0
41
1
10
367.595094710497
20
23.2999585110483
30
0
41
1
10
367.601422754011
20
23.2961049586599
30
0
41
1
10
367.611436330013
20
23.2893955044803
30
0
41
1
10
367.614876803774
20
23.2869917365579
30
0
41
1
10
367.62181975771
20
23.281965055636
30
0
41
1
10
367.625327553303
20
23.2793394829961
30
0
41
1
10
367.635948792471
20
23.2711611225116
30
0
41
1
10
367.643159471795
20
23.2653086512655
30
0
41
1
10
367.650480947162
20
23.2591159102936
30
0
0
SPLINE
5
1D3
100
AcDbEntity
8
1
62
256
6
ByLayer
370
18
48
1
60
0
100
AcDbSpline
70
4
71
3
72
8
73
4
40
0
40
0
40
0
40
0
40
1
40
1
40
1
40
1
41
1
10
367.650480947162
20
23.2591159102935
30
0
41
1
10
367.875326782245
20
23.0689340213242
30
0
41
1
10
368.100089025132
20
22.878620505901
30
0
41
1
10
368.324759526419
20
22.6881625317598
30
0
0
SPLINE
5
1D4
100
AcDbEntity
8
1
62
256
6
ByLayer
370
18
48
1
60
0
100
AcDbSpline
70
4
71
3
72
8
73
4
40
0
40
0
40
0
40
0
40
1
40
1
40
1
40
1
41
1
10
368.324759526419
20
22.8306924641179
30
0
41
1
10
368.101678442285
20
23.1158055554834
30
0
41
1
10
367.876866272618
20
23.3990877212184
30
0
41
1
10
367.650480947162
20
23.6807059996429
30
0
0
SPLINE
5
1D5
100
AcDbEntity
8
1
62
256
6
ByLayer
370
18
48
1
60
0
100
AcDbSpline
70
4
71
3
72
38
73
34
40
0
40
0
40
0
40
0
40
0.0624999999999957
40
0.0624999999999957
40
0.124999999999991
40
0.124999999999991
40
0.249999999999996
40
0.249999999999996
40
0.312499999999999
40
0.312499999999999
40
0.375000000000003
40
0.375000000000003
40
0.437500000000006
40
0.437500000000006
40
0.50000000000001
40
0.50000000000001
40
0.562500000000013
40
0.562500000000013
40
0.625000000000016
40
0.625000000000016
40
0.68750000000002
40
0.68750000000002
40
0.750000000000023
40
0.750000000000023
40
0.781250000000023
40
0.781250000000023
40
0.812500000000023
40
0.812500000000023
40
0.875000000000015
40
0.875000000000015
40
0.937500000000008
40
0.937500000000008
40
1
40
1
40
1
40
1
41
1
10
367.650480947162
20
23.6807059996429
30
0
41
1
10
367.644435066045
20
23.6882269404475
30
0
41
1
10
367.638541009106
20
23.6956954835831
30
0
41
1
10
367.627070710279
20
23.7105219541031
30
0
41
1
10
367.621478397149
20
23.7179019338321
30
0
41
1
10
367.605382543492
20
23.739636738109
30
0
41
1
10
367.59552307329
20
23.7536213176668
30
0
41
1
10
367.582291758194
20
23.7736882743312
30
0
41
1
10
367.5781434099
20
23.7802241905288
30
0
41
1
10
367.570463431254
20
23.7929350505257
30
0
41
1
10
367.566983467967
20
23.7990266724993
30
0
41
1
10
367.560894095359
20
23.81051116465
30
0
41
1
10
367.558273629461
20
23.8159211153947
30
0
41
1
10
367.554041861199
20
23.8259505318482
30
0
41
1
10
367.552432376485
20
23.8305864249223
30
0
41
1
10
367.550538980103
20
23.8385889334793
30
0
41
1
10
367.550233118891
20
23.8420039082249
30
0
41
1
10
367.551141496283
20
23.8474028832878
30
0
41
1
10
367.552342069686
20
23.8493113044673
30
0
41
1
10
367.556322566543
20
23.8514574493081
30
0
41
1
10
367.559156903261
20
23.8516693992402
30
0
41
1
10
367.566155193741
20
23.8503516061778
30
0
41
1
10
367.57032728413
20
23.8488516643677
30
0
41
1
10
367.57754044284
20
23.8454114743366
30
0
41
1
10
367.580121827421
20
23.8440551043971
30
0
41
1
10
367.585487525657
20
23.8410134790051
30
0
41
1
10
367.588275661537
20
23.8393280740409
30
0
41
1
10
367.596927885113
20
23.8338227337162
30
0
41
1
10
367.603078037699
20
23.8295564416239
30
0
41
1
10
367.616050433374
20
23.8199786606825
30
0
41
1
10
367.622764082909
20
23.8147458022589
30
0
41
1
10
367.636420273296
20
23.8036638171358
30
0
41
1
10
367.64338911966
20
23.7977944023925
30
0
41
1
10
367.650480947162
20
23.7916390605839
30
0
0
SPLINE
5
1D6
100
AcDbEntity
8
1
62
256
6
ByLayer
370
18
48
1
60
0
100
AcDbSpline
70
4
71
3
72
8
73
4
40
0
40
0
40
0
40
0
40
1
40
1
40
1
40
1
41
1
10
367.650480947162
20
23.7916390605839
30
0
41
1
10
367.875390693943
20
23.5964289589458
30
0
41
1
10
368.100154848045
20
23.4009956122054
30
0
41
1
10
368.324759526419
20
23.2053177327381
30
0
0
SPLINE
5
1D7
100
AcDbEntity
8
1
62
256
6
ByLayer
370
18
48
1
60
0
100
AcDbSpline
70
4
71
3
72
8
73
4
40
0
40
0
40
0
40
0
40
1
40
1
40
1
40
1
41
1
10
368.324759526419
20
23.3131399205584
30
0
41
1
10
368.101307459449
20
23.5806365366875
30
0
41
1
10
367.876507770666
20
23.8466150387247
30
0
41
1
10
367.650480947162
20
24.111211156998
30
0
0
SPLINE
5
1D8
100
AcDbEntity
8
1
62
256
6
ByLayer
370
18
48
1
60
0
100
AcDbSpline
70
4
71
3
72
37
73
33
40
0
40
0
40
0
40
0
40
0.125000000000008
40
0.125000000000008
40
0.250000000000017
40
0.250000000000017
40
0.312500000000026
40
0.312500000000026
40
0.375000000000035
40
0.375000000000035
40
0.437500000000044
40
0.437500000000044
40
0.468750000000044
40
0.468750000000044
40
0.500000000000044
40
0.531250000000044
40
0.531250000000044
40
0.562500000000044
40
0.562500000000044
40
0.625000000000045
40
0.625000000000045
40
0.656250000000042
40
0.656250000000042
40
0.687500000000039
40
0.687500000000039
40
0.750000000000033
40
0.750000000000033
40
0.812500000000027
40
0.812500000000027
40
0.87500000000002
40
0.87500000000002
40
1
40
1
40
1
40
1
41
1
10
367.650480947162
20
24.111211156998
30
0
41
1
10
367.638202144537
20
24.1255852187188
30
0
41
1
10
367.626485867576
20
24.1397144945008
30
0
41
1
10
367.604552320067
20
24.1671510631415
30
0
41
1
10
367.594502099815
20
24.1802445976565
30
0
41
1
10
367.581082092083
20
24.1987490698119
30
0
41
1
10
367.57688735265
20
24.2047260678886
30
0
41
1
10
367.569160111633
20
24.2162246159379
30
0
41
1
10
367.565703840037
20
24.2216334116328
30
0
41
1
10
367.559712993625
20
24.2316731893728
30
0
41
1
10
367.557175330865
20
24.2363077732497
30
0
41
1
10
367.554189582967
20
24.242568600836
30
0
41
1
10
367.55333114082
20
24.2445439196828
30
0
41
1
10
367.551945089713
20
24.248170679122
30
0
41
1
10
367.550880371976
20
24.2514914590531
30
0
41
1
10
367.550493173189
20
24.2541672783619
30
0
41
1
10
367.550469840073
20
24.2564968771601
30
0
41
1
10
367.55064329357
20
24.2574911476054
30
0
41
1
10
367.551729677775
20
24.2598627622577
30
0
41
1
10
367.553197894126
20
24.2606567256904
30
0
41
1
10
367.556546564706
20
24.260636815102
30
0
41
1
10
367.557864176504
20
24.2604245190892
30
0
41
1
10
367.560849626481
20
24.2595937482384
30
0
41
1
10
367.562509311232
20
24.2589798099633
30
0
41
1
10
367.567961306001
20
24.2565762330206
30
0
41
1
10
367.572230449554
20
24.2542238153646
30
0
41
1
10
367.581924074944
20
24.248135623388
30
0
41
1
10
367.587203153222
20
24.2444931606359
30
0
41
1
10
367.598484907468
20
24.2362099822931
30
0
41
1
10
367.604518790299
20
24.2315432716216
30
0
41
1
10
367.623400016941
20
24.2163577993809
30
0
41
1
10
367.636681697517
20
24.2049543935811
30
0
41
1
10
367.650480947162
20
24.1926049128562
30
0
0
SPLINE
5
1D9
100
AcDbEntity
8
1
62
256
6
ByLayer
370
18
48
1
60
0
100
AcDbSpline
70
4
71
3
72
8
73
4
40
0
40
0
40
0
40
0
40
1
40
1
40
1
40
1
41
1
10
367.650480947162
20
24.1926049128561
30
0
41
1
10
367.875470342809
20
23.9912532251715
30
0
41
1
10
368.100236859786
20
23.7895703804278
30
0
41
1
10
368.324759526419
20
23.5875252185424
30
0
0
SPLINE
5
1DA
100
AcDbEntity
8
1
62
256
6
ByLayer
370
18
48
1
60
0
100
AcDbSpline
70
4
71
3
72
8
73
4
40
0
40
0
40
0
40
0
40
1
40
1
40
1
40
1
41
1
10
368.324759526419
20
23.6630274540319
30
0
41
1
10
368.101019214676
20
23.9154654531751
30
0
41
1
10
367.876228917632
20
24.1666509399735
30
0
41
1
10
367.650480947162
20
24.4166940319313
30
0
0
SPLINE
5
1DB
100
AcDbEntity
8
1
62
256
6
ByLayer
370
18
48
1
60
0
100
AcDbSpline
70
4
71
3
72
37
73
33
40
0
40
0
40
0
40
0
40
0.0625000000000138
40
0.0625000000000138
40
0.125000000000027
40
0.125000000000027
40
0.250000000000041
40
0.250000000000041
40
0.312500000000046
40
0.312500000000046
40
0.375000000000052
40
0.406250000000053
40
0.406250000000053
40
0.437500000000055
40
0.437500000000055
40
0.500000000000054
40
0.500000000000054
40
0.531250000000052
40
0.531250000000052
40
0.56250000000005
40
0.56250000000005
40
0.625000000000042
40
0.625000000000042
40
0.687500000000035
40
0.687500000000035
40
0.750000000000028
40
0.750000000000028
40
0.81250000000002
40
0.81250000000002
40
0.875000000000013
40
0.875000000000013
40
1
40
1
40
1
40
1
41
1
10
367.650480947162
20
24.4166940319313
30
0
41
1
10
367.644233516261
20
24.4236138148022
30
0
41
1
10
367.638128791671
20
24.4304472421306
30
0
41
1
10
367.626224587922
20
24.4439282469401
30
0
41
1
10
367.620408632679
20
24.4505953398442
30
0
41
1
10
367.603696944729
20
24.4700187730235
30
0
41
1
10
367.593459438986
20
24.4822776869178
30
0
41
1
10
367.579801977808
20
24.4993597909756
30
0
41
1
10
367.575513158026
20
24.5048653228655
30
0
41
1
10
367.56782727776
20
24.5150761747936
30
0
41
1
10
367.562698992221
20
24.5221718288945
30
0
41
1
10
367.55866279162
20
24.5283005792942
30
0
41
1
10
367.556240243351
20
24.5321488241218
30
0
41
1
10
367.555161120897
20
24.5339584350345
30
0
41
1
10
367.552417952635
20
24.5389021635922
30
0
41
1
10
367.551221826354
20
24.541588419527
30
0
41
1
10
367.550485616375
20
24.5445985953594
30
0
41
1
10
367.55041909126
20
24.5454340249244
30
0
41
1
10
367.550661814729
20
24.5467128369872
30
0
41
1
10
367.550968230583
20
24.5471605417449
30
0
41
1
10
367.552439131489
20
24.5479324593421
30
0
41
1
10
367.554154903999
20
24.5476875862848
30
0
41
1
10
367.559095757758
20
24.5456300292876
30
0
41
1
10
367.562230525272
20
24.5438567909975
30
0
41
1
10
367.569682176899
20
24.53898834073
30
0
41
1
10
367.574051131848
20
24.5358516153736
30
0
41
1
10
367.583612877603
20
24.5285570395076
30
0
41
1
10
367.58879748384
20
24.5244110022462
30
0
41
1
10
367.599860114334
20
24.515265036946
30
0
41
1
10
367.605784818522
20
24.5102235776676
30
0
41
1
10
367.624098620595
20
24.494291713772
30
0
41
1
10
367.637015243457
20
24.4826211375566
30
0
41
1
10
367.650480947162
20
24.4701429912242
30
0
0
SPLINE
5
1DC
100
AcDbEntity
8
1
62
256
6
ByLayer
370
18
48
1
60
0
100
AcDbSpline
70
4
71
3
72
8
73
4
40
0
40
0
40
0
40
0
40
1
40
1
40
1
40
1
41
1
10
367.650480947162
20
24.4701429912242
30
0
41
1
10
367.875567648883
20
24.2615638584122
30
0
41
1
10
368.10033706691
20
24.0525298860202
30
0
41
1
10
368.324759526419
20
23.8429985339369
30
0
0
SPLINE
5
1DD
100
AcDbEntity
8
1
62
256
6
ByLayer
370
18
48
1
60
0
100
AcDbSpline
70
4
71
3
72
8
73
4
40
0
40
0
40
0
40
0
40
1
40
1
40
1
40
1
41
1
10
368.324759526419
20
23.8877233606898
30
0
41
1
10
368.100791090601
20
24.1271433496638
30
0
41
1
10
367.876008003165
20
24.3655393957371
30
0
41
1
10
367.650480947162
20
24.6030003410678
30
0
0
SPLINE
5
1DE
100
AcDbEntity
8
1
62
256
6
ByLayer
370
18
48
1
60
0
100
AcDbSpline
70
4
71
3
72
37
73
33
40
0
40
0
40
0
40
0
40
0.125000000000018
40
0.125000000000018
40
0.187500000000021
40
0.187500000000021
40
0.250000000000024
40
0.250000000000024
40
0.312500000000027
40
0.343750000000028
40
0.343750000000028
40
0.37500000000003
40
0.37500000000003
40
0.437500000000026
40
0.437500000000026
40
0.468750000000024
40
0.468750000000024
40
0.500000000000023
40
0.500000000000023
40
0.562500000000019
40
0.562500000000019
40
0.625000000000014
40
0.625000000000014
40
0.68750000000001
40
0.68750000000001
40
0.750000000000005
40
0.750000000000005
40
0.812500000000001
40
0.812500000000001
40
0.874999999999996
40
0.874999999999996
40
1
40
1
40
1
40
1
41
1
10
367.650480947162
20
24.6030003410678
30
0
41
1
10
367.637713524711
20
24.6164433587631
30
0
41
1
10
367.625555134204
20
24.6293990848523
30
0
41
1
10
367.608569850311
20
24.6477688699759
30
0
41
1
10
367.603108564082
20
24.6537238617294
30
0
41
1
10
367.592645038061
20
24.6652469120371
30
0
41
1
10
367.587628553198
20
24.6708318448438
30
0
41
1
10
367.578394061833
20
24.6812540907368
30
0
41
1
10
367.572016535815
20
24.6885648297579
30
0
41
1
10
367.566579562048
20
24.6950058114134
30
0
41
1
10
367.563185659207
20
24.6990862291304
30
0
41
1
10
367.561600856608
20
24.7010238889241
30
0
41
1
10
367.557303071354
20
24.7063893319167
30
0
41
1
10
367.555014755975
20
24.709406530188
30
0
41
1
10
367.552553203198
20
24.7129894842036
30
0
41
1
10
367.551893247071
20
24.7140301161112
30
0
41
1
10
367.550941407315
20
24.7157401602273
30
0
41
1
10
367.550646743412
20
24.7164124694577
30
0
41
1
10
367.550307456757
20
24.7178803359895
30
0
41
1
10
367.550804218982
20
24.7181301453512
30
0
41
1
10
367.553323180194
20
24.7170929258175
30
0
41
1
10
367.555303382755
20
24.7158212919815
30
0
41
1
10
367.560517793468
20
24.7119566589428
30
0
41
1
10
367.563756830219
20
24.7093608740996
30
0
41
1
10
367.571431586465
20
24.7029148992635
30
0
41
1
10
367.575773222109
20
24.6991432590707
30
0
41
1
10
367.585223568068
20
24.6907486294523
30
0
41
1
10
367.59034747327
20
24.686112534609
30
0
41
1
10
367.601310018783
20
24.6760560925474
30
0
41
1
10
367.607046357809
20
24.6707294245956
30
0
41
1
10
367.624771194315
20
24.6541190567998
30
0
41
1
10
367.637325338165
20
24.6421616074527
30
0
41
1
10
367.650480947162
20
24.6294893682044
30
0
0
SPLINE
5
1DF
100
AcDbEntity
8
1
62
256
6
ByLayer
370
18
48
1
60
0
100
AcDbSpline
70
4
71
3
72
8
73
4
40
0
40
0
40
0
40
0
40
1
40
1
40
1
40
1
41
1
10
367.650480947162
20
24.6294893682043
30
0
41
1
10
367.875685997487
20
24.4125589107655
30
0
41
1
10
368.100458994954
20
24.1950332762267
30
0
41
1
10
368.324759526419
20
23.9768567932086
30
0
0
SPLINE
5
1E0
100
AcDbEntity
8
1
62
256
6
ByLayer
370
18
48
1
60
0
100
AcDbSpline
70
4
71
3
72
8
73
4
40
0
40
0
40
0
40
0
40
1
40
1
40
1
40
1
41
1
10
368.324759526419
20
23.9916716944546
30
0
41
1
10
368.100607863251
20
24.2197546698695
30
0
41
1
10
367.875830405166
20
24.4470125106983
30
0
41
1
10
367.650480947162
20
24.6735161477093
30
0
0
SPLINE
5
1E1
100
AcDbEntity
8
1
62
256
6
ByLayer
370
18
48
1
60
0
100
AcDbSpline
70
2053
71
3
72
40
73
36
40
0
40
0
40
0
40
0
40
0.0624999999999998
40
0.0624999999999998
40
0.125
40
0.125
40
0.25
40
0.25
40
0.3125
40
0.3125
40
0.34375
40
0.34375
40
0.375
40
0.375
40
0.437500000000002
40
0.437500000000002
40
0.468750000000001
40
0.468750000000001
40
0.5
40
0.5
40
0.562499999999998
40
0.562499999999998
40
0.593749999999995
40
0.593749999999995
40
0.624999999999993
40
0.624999999999993
40
0.687499999999994
40
0.687499999999994
40
0.749999999999994
40
0.749999999999994
40
0.812499999999995
40
0.812499999999995
40
0.874999999999996
40
0.874999999999996
40
1
40
1
40
1
40
1
41
1
10
367.650480947162
20
24.6735161477093
30
0
41
1
10
367.643995528497
20
24.6800347829352
30
0
41
1
10
367.637641930968
20
24.6864240983011
30
0
41
1
10
367.625223781212
20
24.6989177330069
30
0
41
1
10
367.619159362558
20
24.7050219490492
30
0
41
1
10
367.601760540395
20
24.7225422830344
30
0
41
1
10
367.591092877904
20
24.7332946246371
30
0
41
1
10
367.576962978984
20
24.7475455477884
30
0
41
1
10
367.572665768936
20
24.7518812199181
30
0
41
1
10
367.566937041454
20
24.7576626687874
30
0
41
1
10
367.565146159727
20
24.759470303482
30
0
41
1
10
367.561821741835
20
24.7628262012971
30
0
41
1
10
367.560285385348
20
24.7643773132449
30
0
41
1
10
367.556170769704
20
24.7685318245762
30
0
41
1
10
367.554054662599
20
24.770668984245
30
0
41
1
10
367.551904777519
20
24.7728403855641
30
0
41
1
10
367.551358069514
20
24.7733926014464
30
0
41
1
10
367.550642684802
20
24.7741152032555
30
0
41
1
10
367.550471174801
20
24.7742884504554
30
0
41
1
10
367.550501778366
20
24.7742575373623
30
0
41
1
10
367.551246131199
20
24.7735056170704
30
0
41
1
10
367.553449587003
20
24.7712801191186
30
0
41
1
10
367.554366440456
20
24.770354133145
30
0
41
1
10
367.556507437831
20
24.768192007288
30
0
41
1
10
367.557735591993
20
24.7669518171089
30
0
41
1
10
367.561863192775
20
24.7627842351972
30
0
41
1
10
367.565218581561
20
24.7593968992303
30
0
41
1
10
367.572951716672
20
24.751592687846
30
0
41
1
10
367.577252302461
20
24.7472536906832
30
0
41
1
10
367.586584704884
20
24.7378414692257
30
0
41
1
10
367.591617667416
20
24.7327670857868
30
0
41
1
10
367.602342916789
20
24.7219581556341
30
0
41
1
10
367.607954623723
20
24.7163048356867
30
0
41
1
10
367.625296915117
20
24.6988417531468
30
0
41
1
10
367.637586054382
20
24.6864770846441
30
0
41
1
10
367.650480947162
20
24.6735161477093
30
0
0
SPLINE
5
1E2
100
AcDbEntity
8
1
62
256
6
ByLayer
370
18
48
1
60
0
100
AcDbSpline
70
4
71
3
72
73
73
69
40
0
40
0
40
0
40
0
40
0.0173685652626429
40
0.0346693658320719
40
0.0519023857450232
40
0.0690676086282236
40
0.0861650177047592
40
0.103194595800468
40
0.120156325350305
40
0.137050188404719
40
0.153876166636001
40
0.170634241344653
40
0.187324393465714
40
0.203946603575094
40
0.220500851895897
40
0.236987118304732
40
0.25340538233801
40
0.269755623198208
40
0.286037819760155
40
0.302251950577264
40
0.31839799388778
40
0.334475927620996
40
0.350485729403433
40
0.366427376565046
40
0.382300846145363
40
0.398106114899632
40
0.413843159304948
40
0.429511955566335
40
0.445112479622837
40
0.460644707153556
40
0.476108613583687
40
0.491504174090518
40
0.506831363609425
40
0.522090156839799
40
0.537280528250995
40
0.552402452088228
40
0.567455902378441
40
0.582440852936164
40
0.597357277369313
40
0.612205149084998
40
0.626984441295279
40
0.641695127022883
40
0.656337179106936
40
0.670910570208592
40
0.685415272816712
40
0.699851259253442
40
0.714218501679808
40
0.728516972101257
40
0.742746642373157
40
0.756907484206298
40
0.77099946917232
40
0.785022568709134
40
0.798976754126302
40
0.812861996610377
40
0.826678267230228
40
0.840425536942296
40
0.854103776595858
40
0.867712956938224
40
0.88125304861991
40
0.894724022199777
40
0.908125848150138
40
0.921458496861826
40
0.934721938649219
40
0.947916143755237
40
0.961041082356316
40
0.974096724567317
40
0.987083040446425
40
1
40
1
40
1
40
1
41
1
10
366.067675282232
20
22.7547511370654
30
0
41
1
10
366.066970994684
20
22.7437790593179
30
0
41
1
10
366.065565167416
20
22.721877712165
30
0
41
1
10
366.063493924058
20
22.6888038938657
30
0
41
1
10
366.061455391542
20
22.6556525193584
30
0
41
1
10
366.059451921734
20
22.6224061037298
30
0
41
1
10
366.057482862836
20
22.5890731214156
30
0
41
1
10
366.055548358859
20
22.5556551131822
30
0
41
1
10
366.053648337597
20
22.5221554478718
30
0
41
1
10
366.05178278024
20
22.4885769886017
30
0
41
1
10
366.049951649607
20
22.4549227144016
30
0
41
1
10
366.048154909302
20
22.4211955546526
30
0
41
1
10
366.046392518658
20
22.3873984331963
30
0
41
1
10
366.044664434127
20
22.3535342565995
30
0
41
1
10
366.042970608955
20
22.3196059172922
30
0
41
1
10
366.041310993316
20
22.2856162927453
30
0
41
1
10
366.039685534317
20
22.2515682457023
30
0
41
1
10
366.038094176042
20
22.2174646241304
30
0
41
1
10
366.036536859588
20
22.1833082612471
30
0
41
1
10
366.035013523098
20
22.1491019755262
30
0
41
1
10
366.033524101796
20
22.1148485707095
30
0
41
1
10
366.032068528028
20
22.0805508358172
30
0
41
1
10
366.030646731289
20
22.0462115451587
30
0
41
1
10
366.029258638265
20
22.0118334583432
30
0
41
1
10
366.027904172866
20
21.977419320291
30
0
41
1
10
366.026583256264
20
21.9429718612441
30
0
41
1
10
366.025295806922
20
21.9084937967776
30
0
41
1
10
366.02404174064
20
21.8739878278109
30
0
41
1
10
366.022820970579
20
21.8394566406189
30
0
41
1
10
366.021633407305
20
21.8049029068434
30
0
41
1
10
366.020478958822
20
21.770329283505
30
0
41
1
10
366.019357530603
20
21.7357384130144
30
0
41
1
10
366.018269025633
20
21.7011329231846
30
0
41
1
10
366.01721334444
20
21.6665154272426
30
0
41
1
10
366.016190385128
20
21.6318885238417
30
0
41
1
10
366.015200043416
20
21.5972547970735
30
0
41
1
10
366.014242212674
20
21.5626168164806
30
0
41
1
10
366.013316783953
20
21.5279771370692
30
0
41
1
10
366.012423646026
20
21.4933382993215
30
0
41
1
10
366.011562685417
20
21.4587028292089
30
0
41
1
10
366.01073378644
20
21.4240732382048
30
0
41
1
10
366.009936831233
20
21.3894520232984
30
0
41
1
10
366.009171699792
20
21.3548416670073
30
0
41
1
10
366.008438270005
20
21.3202446373921
30
0
41
1
10
366.007736417687
20
21.2856633880691
30
0
41
1
10
366.007066016616
20
21.2511003582255
30
0
41
1
10
366.006426938565
20
21.2165579726327
30
0
41
1
10
366.005819053336
20
21.1820386416612
30
0
41
1
10
366.005242228796
20
21.1475447612951
30
0
41
1
10
366.004696330911
20
21.1130787131468
30
0
41
1
10
366.004181223776
20
21.0786428644726
30
0
41
1
10
366.003696769654
20
21.0442395681872
30
0
41
1
10
366.003242829006
20
21.0098711628803
30
0
41
1
10
366.002819260525
20
20.9755399728307
30
0
41
1
10
366.002425921168
20
20.9412483080258
30
0
41
1
10
366.002062666196
20
20.9069984641681
30
0
41
1
10
366.001729349193
20
20.8727927227255
30
0
41
1
10
366.001425822132
20
20.8386333508229
30
0
41
1
10
366.001151935291
20
20.8045226017244
30
0
41
1
10
366.000907537724
20
20.7704627131267
30
0
41
1
10
366.000692475666
20
20.7364559135611
30
0
41
1
10
366.000506598586
20
20.7025043987671
30
0
41
1
10
366.000349736934
20
20.6686104192693
30
0
41
1
10
366.000221784686
20
20.6347759561656
30
0
41
1
10
366.000122393851
20
20.6010039217174
30
0
41
1
10
366.00005210575
20
20.5672937140432
30
0
41
1
10
366.000008162608
20
20.5336576759839
30
0
41
1
10
366.000002716008
20
20.511199181032
30
0
41
1
10
366
20
20.4999999999986
30
0
0
SPLINE
5
1E3
100
AcDbEntity
8
1
62
256
6
ByLayer
370
18
48
1
60
0
100
AcDbSpline
70
4
71
3
72
51
73
47
40
0
40
0
40
0
40
0
40
0.0163698658227556
40
0.0328016119007479
40
0.0492952623575901
40
0.0658508410462714
40
0.0824683715531076
40
0.0991478772015861
40
0.115889381056156
40
0.132692905925976
40
0.149558474368561
40
0.166486108693374
40
0.183475830965383
40
0.200527663008522
40
0.217641626409105
40
0.234817742519192
40
0.252056032459867
40
0.26935651712451
40
0.286719217181959
40
0.304144153079655
40
0.321631345046717
40
0.339180813096971
40
0.356792577031925
40
0.374466656443695
40
0.392203070717891
40
0.410001839036428
40
0.427862980380329
40
0.445786513532442
40
0.463772457080143
40
0.481820829417984
40
0.499931648750275
40
0.531729742561769
40
0.563747425027471
40
0.595984789744238
40
0.628441928408118
40
0.661118930864687
40
0.694015885157785
40
0.727132877576663
40
0.76046999270163
40
0.794027313448234
40
0.827804921110051
40
0.86180289540015
40
0.896021314491218
40
0.930460255054464
40
0.96511979229733
40
1
40
1
40
1
40
1
41
1
10
365.5
20
20.9183673469374
30
0
41
1
10
365.500010032665
20
20.9315221621946
30
0
41
1
10
365.50003013592
20
20.9578815196483
30
0
41
1
10
365.500172268434
20
20.9972726393055
30
0
41
1
10
365.500396275852
20
21.0366474215523
30
0
41
1
10
365.500710285225
20
21.075987546744
30
0
41
1
10
365.501112106629
20
21.1152949764777
30
0
41
1
10
365.501602330167
20
21.1545661901955
30
0
41
1
10
365.502180796846
20
21.1937991273879
30
0
41
1
10
365.50284754952
20
21.2329913169696
30
0
41
1
10
365.503602576652
20
21.2721403813094
30
0
41
1
10
365.504445881362
20
21.3112439004131
30
0
41
1
10
365.505377462823
20
21.3502994485103
30
0
41
1
10
365.506397321267
20
21.3893045841902
30
0
41
1
10
365.507505456644
20
21.428256853054
30
0
41
1
10
365.508701868979
20
21.4671537869962
30
0
41
1
10
365.509986558276
20
21.5059929043951
30
0
41
1
10
365.511359524545
20
21.5447717100598
30
0
41
1
10
365.512820767793
20
21.5834876952439
30
0
41
1
10
365.51437028803
20
21.6221383376427
30
0
41
1
10
365.516008085265
20
21.6607211013957
30
0
41
1
10
365.517734159505
20
21.6992334370896
30
0
41
1
10
365.519548510757
20
21.737672781761
30
0
41
1
10
365.521451139038
20
21.7760365589041
30
0
41
1
10
365.523442044323
20
21.8143221784679
30
0
41
1
10
365.525521226744
20
21.8525270368932
30
0
41
1
10
365.527688685842
20
21.8906485170093
30
0
41
1
10
365.529944423382
20
21.9286839884611
30
0
41
1
10
365.532288432771
20
21.9666308061489
30
0
41
1
10
365.53472073879
20
22.0044863161324
30
0
41
1
10
365.537873309971
20
22.0517171881026
30
0
41
1
10
365.541838989512
20
22.1081879219387
30
0
41
1
10
365.546731421531
20
22.1736906151837
30
0
41
1
10
365.551898535711
20
22.2389257212339
30
0
41
1
10
365.55734037521
20
22.3038766023255
30
0
41
1
10
365.563056928704
20
22.3685264772531
30
0
41
1
10
365.569048199042
20
22.432858402616
30
0
41
1
10
365.575314187376
20
22.4968552674559
30
0
41
1
10
365.58185488724
20
22.5604998357503
30
0
41
1
10
365.588670324646
20
22.6237745821815
30
0
41
1
10
365.595760402152
20
22.6866623144903
30
0
41
1
10
365.60312548785
20
22.7491438295749
30
0
41
1
10
365.610764195354
20
22.8112067491151
30
0
41
1
10
365.618681749719
20
22.8728122261406
30
0
41
1
10
365.626858463382
20
22.9340204025337
30
0
41
1
10
365.63251388199
20
22.9742243249021
30
0
41
1
10
365.635350564464
20
22.9943900756361
30
0
0
SPLINE
5
1E4
100
AcDbEntity
8
1
62
256
6
ByLayer
370
18
48
1
60
0
100
AcDbSpline
70
4
71
3
72
55
73
51
40
0
40
0
40
0
40
0
40
0.0079245655345783
40
0.0159114253084012
40
0.0239605829212847
40
0.0320720418900571
40
0.0402458056510963
40
0.0484818775627481
40
0.0567802609076743
40
0.0651409588951036
40
0.073563974662993
40
0.0820493112801276
40
0.0905969717481253
40
0.099206959003389
40
0.107879275918966
40
0.116613925306361
40
0.125410909917276
40
0.154479422763259
40
0.184954478282284
40
0.216836148163241
40
0.250124494582527
40
0.30630053375266
40
0.366464850257788
40
0.430617606472867
40
0.498758926831092
40
0.554560544510239
40
0.614775322165124
40
0.67940325612816
40
0.74844433078931
40
0.756529661225179
40
0.765004342929402
40
0.773868375905948
40
0.783121760149294
40
0.79276449564557
40
0.802796582373484
40
0.81321802030507
40
0.824028809406309
40
0.835228949637628
40
0.846818440954335
40
0.858797283306961
40
0.871165476641574
40
0.883923020900011
40
0.897069916020117
40
0.910606161935911
40
0.924531758577755
40
0.938846705872486
40
0.953551003743539
40
0.968644652111046
40
0.984127650891938
40
1
40
1
40
1
40
1
41
1
10
365.635350564464
20
22.9943900756361
30
0
41
1
10
365.636827231209
20
23.0048101163499
30
0
41
1
10
365.639792172631
20
23.0257321087046
30
0
41
1
10
365.644187677625
20
23.0569385932356
30
0
41
1
10
365.648567480635
20
23.088165073117
30
0
41
1
10
365.652926486448
20
23.1193839852765
30
0
41
1
10
365.657266076186
20
23.150595129885
30
0
41
1
10
365.661585875399
20
23.1817908172793
30
0
41
1
10
365.665885985496
20
23.2129653154653
30
0
41
1
10
365.670166378896
20
23.2441122893136
30
0
41
1
10
365.674427063057
20
23.275225494476
30
0
41
1
10
365.678668035641
20
23.3062985893315
30
0
41
1
10
365.682889298113
20
23.3373251855367
30
0
41
1
10
365.687090846582
20
23.3682988354847
30
0
41
1
10
365.691272694941
20
23.3992130309969
30
0
41
1
10
365.695434790658
20
23.4300612211192
30
0
41
1
10
365.702749531823
20
23.4844034635143
30
0
41
1
10
365.713202997964
20
23.5624587972585
30
0
41
1
10
365.726687452156
20
23.6634130587561
30
0
41
1
10
365.740315176372
20
23.7652105530388
30
0
41
1
10
365.757060675379
20
23.8892768552789
30
0
41
1
10
365.776818712095
20
24.0336161723121
30
0
41
1
10
365.799459956364
20
24.194064514483
30
0
41
1
10
365.82250506025
20
24.3494711028507
30
0
41
1
10
365.844080926517
20
24.4849394003187
30
0
41
1
10
365.864458435076
20
24.6024163086353
30
0
41
1
10
365.88388942393
20
24.7036775557655
30
0
41
1
10
365.904230575193
20
24.7961499467145
30
0
41
1
10
365.918777827684
20
24.8510224692609
30
0
41
1
10
365.927463692301
20
24.8797034882561
30
0
41
1
10
365.930035638374
20
24.887937925837
30
0
41
1
10
365.93271897357
20
24.8962394995722
30
0
41
1
10
365.935513501391
20
24.9045661803912
30
0
41
1
10
365.938419276188
20
24.9128740548774
30
0
41
1
10
365.94143628084
20
24.9211173469681
30
0
41
1
10
365.944564518854
20
24.9292484106834
30
0
41
1
10
365.947803988062
20
24.9372177315417
30
0
41
1
10
365.951154688067
20
24.9449739258938
30
0
41
1
10
365.954616618106
20
24.9524637415508
30
0
41
1
10
365.958189777629
20
24.9596320578182
30
0
41
1
10
365.961874166129
20
24.9664218893883
30
0
41
1
10
365.965669783141
20
24.9727743777795
30
0
41
1
10
365.969576628361
20
24.9786288341037
30
0
41
1
10
365.973594701092
20
24.9839225843714
30
0
41
1
10
365.977724002382
20
24.9885915879309
30
0
41
1
10
365.981964526669
20
24.9925680484322
30
0
41
1
10
365.986316294249
20
24.9957897271051
30
0
41
1
10
365.990779225129
20
24.998163790386
30
0
41
1
10
365.995353628535
20
24.9997071335417
30
0
41
1
10
365.998438441113
20
24.9999015730386
30
0
41
1
10
366
20
24.9999999999986
30
0
0
SPLINE
5
1E5
100
AcDbEntity
8
1
62
256
6
ByLayer
370
18
48
1
60
0
100
AcDbSpline
70
4
71
1
72
4
73
2
40
0
40
0
40
1
40
1
41
1
10
365.5
20
20.9183673469374
30
0
41
1
10
366
20
20.4999999999986
30
0
0
SPLINE
5
1E6
100
AcDbEntity
8
SK1
62
256
6
ByLayer
370
18
48
1
60
0
100
AcDbSpline
70
4
71
3
72
11
73
7
40
0
40
0
40
0
40
0
40
0.238889349686206
40
0.497421607755318
40
0.757386725613672
40
1
40
1
40
1
40
1
41
1
10
-0.394913799811405
20
-27.3654112548763
30
0
41
1
10
-0.369683308142868
20
-27.3663394559984
30
0
41
1
10
-0.32111194427128
20
-27.3763891500634
30
0
41
1
10
-0.255177176288555
20
-27.4196125572156
30
0
41
1
10
-0.211247851191473
20
-27.4855974197866
30
0
41
1
10
-0.200957398531415
20
-27.5346319643648
30
0
41
1
10
-0.200000000000102
20
-27.5602884583737
30
0
0
SPLINE
5
1E7
100
AcDbEntity
8
SK1
62
256
6
ByLayer
370
18
48
1
60
0
100
AcDbSpline
70
4
71
3
72
11
73
7
40
0
40
0
40
0
40
0
40
0.242613274632026
40
0.502578392599612
40
0.761110650559891
40
1
40
1
40
1
40
1
41
1
10
-0.199999999999903
20
27.5602884593824
30
0
41
1
10
-0.200957398526043
20
27.5346319653142
30
0
41
1
10
-0.2112478511863
20
27.4855974206286
30
0
41
1
10
-0.255177176262038
20
27.4196125578968
30
0
41
1
10
-0.321111944249566
20
27.3763891506148
30
0
41
1
10
-0.369683308137326
20
27.3663394565247
30
0
41
1
10
-0.394913799811178
20
27.3654112553951
30
0
0
SPLINE
5
1E8
100
AcDbEntity
8
SK1
62
256
6
ByLayer
370
18
48
1
60
0
100
AcDbSpline
70
4
71
2
72
6
73
3
40
0
40
0
40
0
40
1
40
1
40
1
41
1
10
-46.4999999999999
20
26.4073080746202
30
0
41
1
10
-47.2500000380091
20
25.9743785821416
30
0
41
1
10
-47.9999999999999
20
25.541448947548
30
0
0
SPLINE
5
1E9
100
AcDbEntity
8
SK1
62
256
6
ByLayer
370
18
48
1
60
0
100
AcDbSpline
70
4
71
2
72
6
73
3
40
0
40
0
40
0
40
1
40
1
40
1
41
1
10
-48.0000000000001
20
-25.5414493215233
30
0
41
1
10
-47.2500000379547
20
-25.9743789770286
30
0
41
1
10
-46.5000000000001
20
-26.4073084920197
30
0
0
SPLINE
5
1EA
100
AcDbEntity
8
SK1
62
256
6
ByLayer
370
18
48
1
60
0
100
AcDbSpline
70
4
71
2
72
6
73
3
40
0
40
0
40
0
40
1
40
1
40
1
41
1
10
-0.394913799811178
20
27.3654109362823
30
0
41
1
10
-1.19497688887543
20
27.3453143410234
30
0
41
1
10
-1.9950399779392
20
27.3252177457659
30
0
0
SPLINE
5
1EB
100
AcDbEntity
8
SK1
62
256
6
ByLayer
370
18
48
1
60
0
100
AcDbSpline
70
4
71
2
72
6
73
3
40
0
40
0
40
0
40
1
40
1
40
1
41
1
10
-1.9950399779394
20
-27.3252177453533
30
0
41
1
10
-1.19497688887563
20
-27.3453143405603
30
0
41
1
10
-0.394913799811405
20
-27.3654109357686
30
0
0
SPLINE
5
1EC
100
AcDbEntity
8
SK1
62
256
6
ByLayer
370
18
48
1
60
0
100
AcDbSpline
70
4
71
3
72
13
73
9
40
0
40
0
40
0
40
0
40
0.239476651984635
40
0.368387280177935
40
0.500029253268045
40
0.631666356502875
40
0.760563560186411
40
1
40
1
40
1
40
1
41
1
10
-1.9950399779392
20
27.325218063952
30
0
41
1
10
-2.02110990202891
20
27.3248162470299
30
0
41
1
10
-2.05883986745019
20
27.3309874079684
30
0
41
1
10
-2.1062765532715
20
27.3540268959373
30
0
41
1
10
-2.13886325113751
20
27.37918954629
30
0
41
1
10
-2.16563551769417
20
27.4104653546574
30
0
41
1
10
-2.19103253553237
20
27.4566758426755
30
0
41
1
10
-2.19909167979034
20
27.4940420737146
30
0
41
1
10
-2.1999999999999
20
27.5200952679265
30
0
0
SPLINE
5
1ED
100
AcDbEntity
8
SK1
62
256
6
ByLayer
370
18
48
1
60
0
100
AcDbSpline
70
4
71
3
72
13
73
9
40
0
40
0
40
0
40
0
40
0.239436439566014
40
0.368333643169659
40
0.499970746376703
40
0.631612719497151
40
0.760523347771547
40
1
40
1
40
1
40
1
41
1
10
-2.2000000000001
20
-27.5200952670183
30
0
41
1
10
-2.19909167978668
20
-27.4940420728663
30
0
41
1
10
-2.19103253552868
20
-27.4566758419156
30
0
41
1
10
-2.16563551768937
20
-27.4104653540177
30
0
41
1
10
-2.13886325113109
20
-27.3791895457297
30
0
41
1
10
-2.10627655326451
20
-27.3540268954422
30
0
41
1
10
-2.05883986743982
20
-27.3309874075326
30
0
41
1
10
-2.02110990202363
20
-27.3248162466093
30
0
41
1
10
-1.9950399779394
20
-27.3252180635337
30
0
0
SPLINE
5
1EE
100
AcDbEntity
8
SK1
62
256
6
ByLayer
370
18
48
1
60
0
100
AcDbSpline
70
4
71
2
72
6
73
3
40
0
40
0
40
0
40
1
40
1
40
1
41
1
10
-2.1999999999999
20
27.5062670250574
30
0
41
1
10
-24.3500000023321
20
26.9501984522265
30
0
41
1
10
-46.4999999999999
20
26.3941258787021
30
0
0
SPLINE
5
1EF
100
AcDbEntity
8
SK1
62
256
6
ByLayer
370
18
48
1
60
0
100
AcDbSpline
70
4
71
2
72
6
73
3
40
0
40
0
40
0
40
1
40
1
40
1
41
1
10
-46.5000000000001
20
-26.39412588177
30
0
41
1
10
-24.3500000023322
20
-26.950198452504
30
0
41
1
10
-2.2000000000001
20
-27.5062670222795
30
0
0
LINE
5
A6
100
AcDbEntity
8
SK4
62
256
6
ByLayer
370
18
48
0.05
60
0
100
AcDbLine
10
4
20
0
30
0
11
364
21
0
31
0
39
0
210
0
220
0
230
1
0
LINE
5
A8
100
AcDbEntity
8
81
62
256
6
ByLayer
370
18
48
1
60
0
100
AcDbLine
10
368
20
5
30
0
11
373
21
5
31
0
39
0
210
0
220
0
230
1
0
LINE
5
A9
100
AcDbEntity
8
4
62
256
6
ByLayer
370
18
48
0.05
60
0
100
AcDbLine
10
364
20
5
30
0
11
368
21
5
31
0
39
0
210
0
220
0
230
1
0
LINE
5
AB
100
AcDbEntity
8
80
62
256
6
ByLayer
370
18
48
1
60
0
100
AcDbLine
10
0
20
0
30
0
11
-5
21
0
31
0
39
0
210
0
220
0
230
1
0
LINE
5
AC
100
AcDbEntity
8
1
62
256
6
ByLayer
370
18
48
1
60
0
100
AcDbLine
10
372.8
20
17.899495
30
0
11
372.8
21
11.899495
31
0
39
0
210
0
220
0
230
1
0
LINE
5
AD
100
AcDbEntity
8
1
62
256
6
ByLayer
370
13
48
1
60
0
100
AcDbLine
10
368.324503
20
12.453995
30
0
11
372.8
21
12.453995
31
0
39
0
210
0
220
0
230
1
0
LINE
5
AE
100
AcDbEntity
8
1
62
256
6
ByLayer
370
13
48
1
60
0
100
AcDbLine
10
368.324503
20
17.344995
30
0
11
372.8
21
17.344995
31
0
39
0
210
0
220
0
230
1
0
LINE
5
AF
100
AcDbEntity
8
1
62
256
6
ByLayer
370
18
48
1
60
0
100
AcDbLine
10
372.8
20
-1.899495
30
0
11
372.8
21
-7.899495
31
0
39
0
210
0
220
0
230
1
0
LINE
5
B0
100
AcDbEntity
8
1
62
256
6
ByLayer
370
13
48
1
60
0
100
AcDbLine
10
368.324503
20
-7.344995
30
0
11
372.8
21
-7.344995
31
0
39
0
210
0
220
0
230
1
0
LINE
5
B1
100
AcDbEntity
8
1
62
256
6
ByLayer
370
13
48
1
60
0
100
AcDbLine
10
368.324503
20
-2.453995
30
0
11
372.8
21
-2.453995
31
0
39
0
210
0
220
0
230
1
0
LINE
5
B2
100
AcDbEntity
8
1
62
256
6
ByLayer
370
18
48
1
60
0
100
AcDbLine
10
364
20
24.8
30
0
11
364
21
-24.8
31
0
39
0
210
0
220
0
230
1
0
LINE
5
B3
100
AcDbEntity
8
1
62
256
6
ByLayer
370
13
48
1
60
0
100
AcDbLine
10
363.8
20
25
30
0
11
363.8
21
-25
31
0
39
0
210
0
220
0
230
1
0
LINE
5
B4
100
AcDbEntity
8
1
62
256
6
ByLayer
370
13
48
1
60
0
100
AcDbLine
10
36
20
-25
30
0
11
36
21
25
31
0
39
0
210
0
220
0
230
1
0
LINE
5
B5
100
AcDbEntity
8
1
62
256
6
ByLayer
370
13
48
1
60
0
100
AcDbLine
10
10.105662
20
37.944501
30
0
11
10.105662
21
12.6576
31
0
39
0
210
0
220
0
230
1
0
LINE
5
B6
100
AcDbEntity
8
1
62
256
6
ByLayer
370
13
48
1
60
0
100
AcDbLine
10
10.538675
20
38.115458
30
0
11
10.538675
21
12.13309
31
0
39
0
210
0
220
0
230
1
0
LINE
5
B7
100
AcDbEntity
8
1
62
256
6
ByLayer
370
13
48
1
60
0
100
AcDbLine
10
13.461325
20
-12.13309
30
0
11
13.461325
21
-38.115458
31
0
39
0
210
0
220
0
230
1
0
LINE
5
B8
100
AcDbEntity
8
1
62
256
6
ByLayer
370
13
48
1
60
0
100
AcDbLine
10
13.894338
20
-12.6576
30
0
11
13.894338
21
-37.944501
31
0
39
0
210
0
220
0
230
1
0
LINE
5
B9
100
AcDbEntity
8
1
62
256
6
ByLayer
370
13
48
1
60
0
100
AcDbLine
10
10.105662
20
-12.6576
30
0
11
10.105662
21
-37.944501
31
0
39
0
210
0
220
0
230
1
0
LINE
5
BA
100
AcDbEntity
8
1
62
256
6
ByLayer
370
13
48
1
60
0
100
AcDbLine
10
10.538675
20
-12.13309
30
0
11
10.538675
21
-38.115458
31
0
39
0
210
0
220
0
230
1
0
LINE
5
BB
100
AcDbEntity
8
1
62
256
6
ByLayer
370
13
48
1
60
0
100
AcDbLine
10
13.461325
20
38.115458
30
0
11
13.461325
21
12.13309
31
0
39
0
210
0
220
0
230
1
0
LINE
5
BC
100
AcDbEntity
8
1
62
256
6
ByLayer
370
13
48
1
60
0
100
AcDbLine
10
13.894338
20
37.944501
30
0
11
13.894338
21
12.6576
31
0
39
0
210
0
220
0
230
1
0
LINE
5
BD
100
AcDbEntity
8
1
62
256
6
ByLayer
370
18
48
1
60
0
100
AcDbLine
10
30
20
39.5
30
0
11
30
21
-39.5
31
0
39
0
210
0
220
0
230
1
0
LINE
5
BE
100
AcDbEntity
8
1
62
256
6
ByLayer
370
18
48
1
60
0
100
AcDbLine
10
0
20
-39.7
30
0
11
0
21
39.7
31
0
39
0
210
0
220
0
230
1
0
LINE
5
BF
100
AcDbEntity
8
1
62
256
6
ByLayer
370
13
48
1
60
0
100
AcDbLine
10
29.5
20
40
30
0
11
29.5
21
-40
31
0
39
0
210
0
220
0
230
1
0
LINE
5
C0
100
AcDbEntity
8
1
62
256
6
ByLayer
370
18
48
1
60
0
100
AcDbLine
10
0.3
20
-40
30
0
11
0.3
21
40
31
0
39
0
210
0
220
0
230
1
0
LINE
5
C1
100
AcDbEntity
8
1
62
256
6
ByLayer
370
18
48
1
60
0
100
AcDbLine
10
13.461325
20
12.13309
30
0
11
10.538675
21
12.13309
31
0
39
0
210
0
220
0
230
1
0
LINE
5
C2
100
AcDbEntity
8
1
62
256
6
ByLayer
370
18
48
1
60
0
100
AcDbLine
10
10.538675
20
38.115458
30
0
11
13.461325
21
38.115458
31
0
39
0
210
0
220
0
230
1
0
LINE
5
C3
100
AcDbEntity
8
1
62
256
6
ByLayer
370
18
48
1
60
0
100
AcDbLine
10
10.538675
20
-12.13309
30
0
11
13.461325
21
-12.13309
31
0
39
0
210
0
220
0
230
1
0
LINE
5
C4
100
AcDbEntity
8
1
62
256
6
ByLayer
370
18
48
1
60
0
100
AcDbLine
10
13.461325
20
-38.115458
30
0
11
10.538675
21
-38.115458
31
0
39
0
210
0
220
0
230
1
0
LINE
5
C5
100
AcDbEntity
8
SK1
62
256
6
ByLayer
370
18
48
1
60
0
100
AcDbLine
10
-0.2
20
-6.552277
30
0
11
-0.2
21
-28.683485
31
0
39
0
210
0
220
0
230
1
0
LINE
5
C7
100
AcDbEntity
8
SK1
62
256
6
ByLayer
370
18
48
1
60
0
100
AcDbLine
10
-0.2
20
28.683485
30
0
11
-0.2
21
6.552279
31
0
39
0
210
0
220
0
230
1
0
LINE
5
C8
100
AcDbEntity
8
SK1
62
256
6
ByLayer
370
13
48
1
60
0
100
AcDbLine
10
-1.307107
20
4.393309
30
0
11
-1.307107
21
-4.393312
31
0
39
0
210
0
220
0
230
1
0
LINE
5
C9
100
AcDbEntity
8
1
62
256
6
ByLayer
370
18
48
1
60
0
100
AcDbLine
10
368.32476
20
23.887542
30
0
11
368.32476
21
23.976857
31
0
39
0
210
0
220
0
230
1
0
LINE
5
CA
100
AcDbEntity
8
1
62
256
6
ByLayer
370
18
48
1
60
0
100
AcDbLine
10
368.32476
20
-13.976857
30
0
11
368.32476
21
-13.887542
31
0
39
0
210
0
220
0
230
1
0
LINE
5
CB
100
AcDbEntity
8
1
62
256
6
ByLayer
370
13
48
1
60
0
100
AcDbLine
10
367.650481
20
-14.629489
30
0
11
367.650481
21
-14.602807
31
0
39
0
210
0
220
0
230
1
0
LINE
5
CC
100
AcDbEntity
8
1
62
256
6
ByLayer
370
13
48
1
60
0
100
AcDbLine
10
367.650481
20
24.602807
30
0
11
367.650481
21
24.629489
31
0
39
0
210
0
220
0
230
1
0
LINE
5
CD
100
AcDbEntity
8
1
62
256
6
ByLayer
370
18
48
1
60
0
100
AcDbLine
10
368.32476
20
-13.842999
30
0
11
368.32476
21
-13.662842
31
0
39
0
210
0
220
0
230
1
0
LINE
5
CE
100
AcDbEntity
8
1
62
256
6
ByLayer
370
18
48
1
60
0
100
AcDbLine
10
368.32476
20
23.662842
30
0
11
368.32476
21
23.842999
31
0
39
0
210
0
220
0
230
1
0
LINE
5
CF
100
AcDbEntity
8
1
62
256
6
ByLayer
370
13
48
1
60
0
100
AcDbLine
10
367.650481
20
-14.470143
30
0
11
367.650481
21
-14.416627
31
0
39
0
210
0
220
0
230
1
0
LINE
5
D0
100
AcDbEntity
8
1
62
256
6
ByLayer
370
13
48
1
60
0
100
AcDbLine
10
367.650481
20
24.416627
30
0
11
367.650481
21
24.470143
31
0
39
0
210
0
220
0
230
1
0
LINE
5
D1
100
AcDbEntity
8
1
62
256
6
ByLayer
370
18
48
1
60
0
100
AcDbLine
10
368.32476
20
23.31313
30
0
11
368.32476
21
23.587525
31
0
39
0
210
0
220
0
230
1
0
LINE
5
D2
100
AcDbEntity
8
1
62
256
6
ByLayer
370
18
48
1
60
0
100
AcDbLine
10
368.32476
20
-13.587525
30
0
11
368.32476
21
-13.31313
31
0
39
0
210
0
220
0
230
1
0
LINE
5
D3
100
AcDbEntity
8
1
62
256
6
ByLayer
370
13
48
1
60
0
100
AcDbLine
10
367.650481
20
24.111162
30
0
11
367.650481
21
24.192605
31
0
39
0
210
0
220
0
230
1
0
LINE
5
D4
100
AcDbEntity
8
1
62
256
6
ByLayer
370
13
48
1
60
0
100
AcDbLine
10
367.650481
20
-14.192605
30
0
11
367.650481
21
-14.111162
31
0
39
0
210
0
220
0
230
1
0
LINE
5
D5
100
AcDbEntity
8
1
62
256
6
ByLayer
370
18
48
1
60
0
100
AcDbLine
10
368.32476
20
-13.205318
30
0
11
368.32476
21
-12.830489
31
0
39
0
210
0
220
0
230
1
0
LINE
5
D6
100
AcDbEntity
8
1
62
256
6
ByLayer
370
18
48
1
60
0
100
AcDbLine
10
368.32476
20
22.830489
30
0
11
368.32476
21
23.205318
31
0
39
0
210
0
220
0
230
1
0
LINE
5
D7
100
AcDbEntity
8
1
62
256
6
ByLayer
370
13
48
1
60
0
100
AcDbLine
10
367.650481
20
-13.791639
30
0
11
367.650481
21
-13.680651
31
0
39
0
210
0
220
0
230
1
0
LINE
5
D8
100
AcDbEntity
8
1
62
256
6
ByLayer
370
13
48
1
60
0
100
AcDbLine
10
367.650481
20
23.680651
30
0
11
367.650481
21
23.791639
31
0
39
0
210
0
220
0
230
1
0
LINE
5
D9
100
AcDbEntity
8
1
62
256
6
ByLayer
370
18
48
1
60
0
100
AcDbLine
10
368.32476
20
22.204449
30
0
11
368.32476
21
22.688163
31
0
39
0
210
0
220
0
230
1
0
LINE
5
DA
100
AcDbEntity
8
1
62
256
6
ByLayer
370
18
48
1
60
0
100
AcDbLine
10
368.32476
20
-12.688163
30
0
11
368.32476
21
-12.204449
31
0
39
0
210
0
220
0
230
1
0
LINE
5
DB
100
AcDbEntity
8
1
62
256
6
ByLayer
370
13
48
1
60
0
100
AcDbLine
10
367.650481
20
23.116188
30
0
11
367.650481
21
23.259116
31
0
39
0
210
0
220
0
230
1
0
LINE
5
DC
100
AcDbEntity
8
1
62
256
6
ByLayer
370
13
48
1
60
0
100
AcDbLine
10
367.650481
20
-13.259116
30
0
11
367.650481
21
-13.116188
31
0
39
0
210
0
220
0
230
1
0
LINE
5
DD
100
AcDbEntity
8
1
62
256
6
ByLayer
370
18
48
1
60
0
100
AcDbLine
10
368.32476
20
21.418191
30
0
11
368.32476
21
22.023766
31
0
39
0
210
0
220
0
230
1
0
LINE
5
DE
100
AcDbEntity
8
1
62
256
6
ByLayer
370
18
48
1
60
0
100
AcDbLine
10
368.32476
20
-12.023766
30
0
11
368.32476
21
-11.418191
31
0
39
0
210
0
220
0
230
1
0
LINE
5
DF
100
AcDbEntity
8
1
62
256
6
ByLayer
370
13
48
1
60
0
100
AcDbLine
10
367.650481
20
22.404844
30
0
11
367.650481
21
22.583086
31
0
39
0
210
0
220
0
230
1
0
LINE
5
E0
100
AcDbEntity
8
1
62
256
6
ByLayer
370
13
48
1
60
0
100
AcDbLine
10
367.650481
20
-12.583086
30
0
11
367.650481
21
-12.404844
31
0
39
0
210
0
220
0
230
1
0
LINE
5
E1
100
AcDbEntity
8
1
62
256
6
ByLayer
370
18
48
1
60
0
100
AcDbLine
10
368.32476
20
-11.194014
30
0
11
368.32476
21
-10.447336
31
0
39
0
210
0
220
0
230
1
0
LINE
5
E2
100
AcDbEntity
8
1
62
256
6
ByLayer
370
18
48
1
60
0
100
AcDbLine
10
368.32476
20
20.447336
30
0
11
368.32476
21
21.194014
31
0
39
0
210
0
220
0
230
1
0
LINE
5
E3
100
AcDbEntity
8
1
62
256
6
ByLayer
370
13
48
1
60
0
100
AcDbLine
10
367.650481
20
21.527523
30
0
11
367.650481
21
21.74618
31
0
39
0
210
0
220
0
230
1
0
LINE
5
E4
100
AcDbEntity
8
1
62
256
6
ByLayer
370
13
48
1
60
0
100
AcDbLine
10
367.650481
20
-11.74618
30
0
11
367.650481
21
-11.527523
31
0
39
0
210
0
220
0
230
1
0
LINE
5
E5
100
AcDbEntity
8
1
62
256
6
ByLayer
370
18
48
1
60
0
100
AcDbLine
10
368.32476
20
-10.171803
30
0
11
368.32476
21
-9.254246
31
0
39
0
210
0
220
0
230
1
0
LINE
5
E6
100
AcDbEntity
8
1
62
256
6
ByLayer
370
18
48
1
60
0
100
AcDbLine
10
368.32476
20
19.254246
30
0
11
368.32476
21
20.171803
31
0
39
0
210
0
220
0
230
1
0
LINE
5
E7
100
AcDbEntity
8
1
62
256
6
ByLayer
370
13
48
1
60
0
100
AcDbLine
10
367.650481
20
-10.722727
30
0
11
367.650481
21
-10.456027
31
0
39
0
210
0
220
0
230
1
0
LINE
5
E8
100
AcDbEntity
8
1
62
256
6
ByLayer
370
13
48
1
60
0
100
AcDbLine
10
367.650481
20
20.456027
30
0
11
367.650481
21
20.722727
31
0
39
0
210
0
220
0
230
1
0
LINE
5
E9
100
AcDbEntity
8
1
62
256
6
ByLayer
370
18
48
1
60
0
100
AcDbLine
10
368.32476
20
17.776776
30
0
11
368.32476
21
18.91478
31
0
39
0
210
0
220
0
230
1
0
LINE
5
EA
100
AcDbEntity
8
1
62
256
6
ByLayer
370
18
48
1
60
0
100
AcDbLine
10
368.32476
20
-8.91478
30
0
11
368.32476
21
-7.776776
31
0
39
0
210
0
220
0
230
1
0
LINE
5
EB
100
AcDbEntity
8
1
62
256
6
ByLayer
370
13
48
1
60
0
100
AcDbLine
10
367.650481
20
-9.473209
30
0
11
367.650481
21
-9.146205
31
0
39
0
210
0
220
0
230
1
0
LINE
5
EC
100
AcDbEntity
8
1
62
256
6
ByLayer
370
13
48
1
60
0
100
AcDbLine
10
367.650481
20
19.146205
30
0
11
367.650481
21
19.473209
31
0
39
0
210
0
220
0
230
1
0
LINE
5
ED
100
AcDbEntity
8
1
62
256
6
ByLayer
370
18
48
1
60
0
100
AcDbLine
10
368.32476
20
-7.351461
30
0
11
368.32476
21
-5.899779
31
0
39
0
210
0
220
0
230
1
0
LINE
5
EE
100
AcDbEntity
8
1
62
256
6
ByLayer
370
18
48
1
60
0
100
AcDbLine
10
368.32476
20
15.899779
30
0
11
368.32476
21
17.351461
31
0
39
0
210
0
220
0
230
1
0
LINE
5
EF
100
AcDbEntity
8
1
62
256
6
ByLayer
370
13
48
1
60
0
100
AcDbLine
10
367.650481
20
-7.932262
30
0
11
367.650481
21
-7.523683
31
0
39
0
210
0
220
0
230
1
0
LINE
5
F0
100
AcDbEntity
8
1
62
256
6
ByLayer
370
13
48
1
60
0
100
AcDbLine
10
367.650481
20
17.523683
30
0
11
367.650481
21
17.932262
31
0
39
0
210
0
220
0
230
1
0
LINE
5
F1
100
AcDbEntity
8
1
62
256
6
ByLayer
370
18
48
1
60
0
100
AcDbLine
10
368.32476
20
-5.343892
30
0
11
368.32476
21
-3.358834
31
0
39
0
210
0
220
0
230
1
0
LINE
5
F2
100
AcDbEntity
8
1
62
256
6
ByLayer
370
18
48
1
60
0
100
AcDbLine
10
368.32476
20
13.358834
30
0
11
368.32476
21
15.343892
31
0
39
0
210
0
220
0
230
1
0
LINE
5
F3
100
AcDbEntity
8
1
62
256
6
ByLayer
370
13
48
1
60
0
100
AcDbLine
10
367.650481
20
-5.977842
30
0
11
367.650481
21
-5.444044
31
0
39
0
210
0
220
0
230
1
0
LINE
5
F4
100
AcDbEntity
8
1
62
256
6
ByLayer
370
13
48
1
60
0
100
AcDbLine
10
367.650481
20
15.444044
30
0
11
367.650481
21
15.977842
31
0
39
0
210
0
220
0
230
1
0
LINE
5
F5
100
AcDbEntity
8
1
62
256
6
ByLayer
370
18
48
1
60
0
100
AcDbLine
10
368.32476
20
-2.545435
30
0
11
368.32476
21
0.946215
31
0
39
0
210
0
220
0
230
1
0
LINE
5
F6
100
AcDbEntity
8
1
62
256
6
ByLayer
370
18
48
1
60
0
100
AcDbLine
10
368.32476
20
9.053785
30
0
11
368.32476
21
12.545435
31
0
39
0
210
0
220
0
230
1
0
LINE
5
F7
100
AcDbEntity
8
1
62
256
6
ByLayer
370
13
48
1
60
0
100
AcDbLine
10
367.650481
20
-3.323618
30
0
11
367.650481
21
-2.537296
31
0
39
0
210
0
220
0
230
1
0
LINE
5
F8
100
AcDbEntity
8
1
62
256
6
ByLayer
370
13
48
1
60
0
100
AcDbLine
10
367.650481
20
12.537296
30
0
11
367.650481
21
13.323618
31
0
39
0
210
0
220
0
230
1
0
LINE
5
F9
100
AcDbEntity
8
1
62
256
6
ByLayer
370
18
48
1
60
0
100
AcDbLine
10
368.32476
20
3.460164
30
0
11
368.32476
21
6.539836
31
0
39
0
210
0
220
0
230
1
0
LINE
5
FA
100
AcDbEntity
8
1
62
256
6
ByLayer
370
13
48
1
60
0
100
AcDbLine
10
367.650481
20
1.318664
30
0
11
367.650481
21
4.790509
31
0
39
0
210
0
220
0
230
1
0
LINE
5
FB
100
AcDbEntity
8
1
62
256
6
ByLayer
370
13
48
1
60
0
100
AcDbLine
10
367.650481
20
5.209491
30
0
11
367.650481
21
8.681336
31
0
39
0
210
0
220
0
230
1
0
LINE
5
FC
100
AcDbEntity
8
1
62
256
6
ByLayer
370
18
48
1
60
0
100
AcDbLine
10
367.32476
20
-15
30
0
11
367.32476
21
25
31
0
39
0
210
0
220
0
230
1
0
LINE
5
FD
100
AcDbEntity
8
1
62
256
6
ByLayer
370
18
48
1
60
0
100
AcDbLine
10
368.32476
20
-13.976857
30
0
11
368.32476
21
-13.991672
31
0
39
0
210
0
220
0
230
1
0
LINE
5
FE
100
AcDbEntity
8
1
62
256
6
ByLayer
370
18
48
1
60
0
100
AcDbLine
10
368.32476
20
-13.842999
30
0
11
368.32476
21
-13.887723
31
0
39
0
210
0
220
0
230
1
0
LINE
5
FF
100
AcDbEntity
8
1
62
256
6
ByLayer
370
18
48
1
60
0
100
AcDbLine
10
368.32476
20
-13.587525
30
0
11
368.32476
21
-13.663027
31
0
39
0
210
0
220
0
230
1
0
LINE
5
100
100
AcDbEntity
8
1
62
256
6
ByLayer
370
18
48
1
60
0
100
AcDbLine
10
368.32476
20
-13.205318
30
0
11
368.32476
21
-13.31314
31
0
39
0
210
0
220
0
230
1
0
LINE
5
101
100
AcDbEntity
8
1
62
256
6
ByLayer
370
18
48
1
60
0
100
AcDbLine
10
368.32476
20
-12.688163
30
0
11
368.32476
21
-12.830692
31
0
39
0
210
0
220
0
230
1
0
LINE
5
102
100
AcDbEntity
8
1
62
256
6
ByLayer
370
18
48
1
60
0
100
AcDbLine
10
368.32476
20
-12.023766
30
0
11
368.32476
21
-12.204537
31
0
39
0
210
0
220
0
230
1
0
LINE
5
103
100
AcDbEntity
8
1
62
256
6
ByLayer
370
18
48
1
60
0
100
AcDbLine
10
368.32476
20
-11.194014
30
0
11
368.32476
21
-11.41824
31
0
39
0
210
0
220
0
230
1
0
LINE
5
104
100
AcDbEntity
8
1
62
256
6
ByLayer
370
18
48
1
60
0
100
AcDbLine
10
368.32476
20
-10.171803
30
0
11
368.32476
21
-10.447365
31
0
39
0
210
0
220
0
230
1
0
LINE
5
105
100
AcDbEntity
8
1
62
256
6
ByLayer
370
18
48
1
60
0
100
AcDbLine
10
368.32476
20
-8.91478
30
0
11
368.32476
21
-9.254248
31
0
39
0
210
0
220
0
230
1
0
LINE
5
106
100
AcDbEntity
8
1
62
256
6
ByLayer
370
18
48
1
60
0
100
AcDbLine
10
368.32476
20
-7.351461
30
0
11
368.32476
21
-7.776779
31
0
39
0
210
0
220
0
230
1
0
LINE
5
107
100
AcDbEntity
8
1
62
256
6
ByLayer
370
18
48
1
60
0
100
AcDbLine
10
368.32476
20
-5.343892
30
0
11
368.32476
21
-5.899935
31
0
39
0
210
0
220
0
230
1
0
LINE
5
108
100
AcDbEntity
8
1
62
256
6
ByLayer
370
18
48
1
60
0
100
AcDbLine
10
368.32476
20
-2.545435
30
0
11
368.32476
21
-3.358893
31
0
39
0
210
0
220
0
230
1
0
LINE
5
109
100
AcDbEntity
8
1
62
256
6
ByLayer
370
18
48
1
60
0
100
AcDbLine
10
368.32476
20
3.460164
30
0
11
368.32476
21
0.946163
31
0
39
0
210
0
220
0
230
1
0
LINE
5
10A
100
AcDbEntity
8
1
62
256
6
ByLayer
370
18
48
1
60
0
100
AcDbLine
10
368.32476
20
9.053837
30
0
11
368.32476
21
6.539836
31
0
39
0
210
0
220
0
230
1
0
LINE
5
10B
100
AcDbEntity
8
1
62
256
6
ByLayer
370
18
48
1
60
0
100
AcDbLine
10
368.32476
20
13.358893
30
0
11
368.32476
21
12.545435
31
0
39
0
210
0
220
0
230
1
0
LINE
5
10C
100
AcDbEntity
8
1
62
256
6
ByLayer
370
18
48
1
60
0
100
AcDbLine
10
368.32476
20
15.899935
30
0
11
368.32476
21
15.343892
31
0
39
0
210
0
220
0
230
1
0
LINE
5
10D
100
AcDbEntity
8
1
62
256
6
ByLayer
370
18
48
1
60
0
100
AcDbLine
10
368.32476
20
17.776779
30
0
11
368.32476
21
17.351461
31
0
39
0
210
0
220
0
230
1
0
LINE
5
10E
100
AcDbEntity
8
1
62
256
6
ByLayer
370
18
48
1
60
0
100
AcDbLine
10
368.32476
20
19.254248
30
0
11
368.32476
21
18.91478
31
0
39
0
210
0
220
0
230
1
0
LINE
5
10F
100
AcDbEntity
8
1
62
256
6
ByLayer
370
18
48
1
60
0
100
AcDbLine
10
368.32476
20
20.447365
30
0
11
368.32476
21
20.171803
31
0
39
0
210
0
220
0
230
1
0
LINE
5
110
100
AcDbEntity
8
1
62
256
6
ByLayer
370
18
48
1
60
0
100
AcDbLine
10
368.32476
20
21.41824
30
0
11
368.32476
21
21.194014
31
0
39
0
210
0
220
0
230
1
0
LINE
5
111
100
AcDbEntity
8
1
62
256
6
ByLayer
370
18
48
1
60
0
100
AcDbLine
10
368.32476
20
22.204537
30
0
11
368.32476
21
22.023766
31
0
39
0
210
0
220
0
230
1
0
LINE
5
112
100
AcDbEntity
8
1
62
256
6
ByLayer
370
18
48
1
60
0
100
AcDbLine
10
368.32476
20
22.830692
30
0
11
368.32476
21
22.688163
31
0
39
0
210
0
220
0
230
1
0
LINE
5
113
100
AcDbEntity
8
1
62
256
6
ByLayer
370
18
48
1
60
0
100
AcDbLine
10
368.32476
20
23.31314
30
0
11
368.32476
21
23.205318
31
0
39
0
210
0
220
0
230
1
0
LINE
5
114
100
AcDbEntity
8
1
62
256
6
ByLayer
370
18
48
1
60
0
100
AcDbLine
10
368.32476
20
23.663027
30
0
11
368.32476
21
23.587525
31
0
39
0
210
0
220
0
230
1
0
LINE
5
115
100
AcDbEntity
8
1
62
256
6
ByLayer
370
18
48
1
60
0
100
AcDbLine
10
368.32476
20
23.887723
30
0
11
368.32476
21
23.842999
31
0
39
0
210
0
220
0
230
1
0
LINE
5
116
100
AcDbEntity
8
1
62
256
6
ByLayer
370
18
48
1
60
0
100
AcDbLine
10
368.32476
20
23.991672
30
0
11
368.32476
21
23.976857
31
0
39
0
210
0
220
0
230
1
0
LINE
5
117
100
AcDbEntity
8
1
62
256
6
ByLayer
370
13
48
1
60
0
100
AcDbLine
10
366.5
20
-15
30
0
11
366.5
21
22.536585
31
0
39
0
210
0
220
0
230
1
0
LINE
5
118
100
AcDbEntity
8
1
62
256
6
ByLayer
370
18
48
1
60
0
100
AcDbLine
10
364
20
24.8
30
0
11
364
21
-24.8
31
0
39
0
210
0
220
0
230
1
0
LINE
5
119
100
AcDbEntity
8
1
62
256
6
ByLayer
370
13
48
1
60
0
100
AcDbLine
10
364.2
20
25
30
0
11
364.2
21
-25
31
0
39
0
210
0
220
0
230
1
0
LINE
5
11A
100
AcDbEntity
8
1
62
256
6
ByLayer
370
18
48
1
60
0
100
AcDbLine
10
366
20
-24.5
30
0
11
366
21
20.5
31
0
39
0
210
0
220
0
230
1
0
LINE
5
11B
100
AcDbEntity
8
1
62
256
6
ByLayer
370
18
48
1
60
0
100
AcDbLine
10
365.5
20
-25
30
0
11
365.5
21
20.918367
31
0
39
0
210
0
220
0
230
1
0
LINE
5
11C
100
AcDbEntity
8
1
62
256
6
ByLayer
370
13
48
1
60
0
100
AcDbLine
10
372.8
20
17.899495
30
0
11
372.8
21
11.899495
31
0
39
0
210
0
220
0
230
1
0
LINE
5
11D
100
AcDbEntity
8
1
62
256
6
ByLayer
370
18
48
1
60
0
100
AcDbLine
10
373
20
19.899495
30
0
11
373
21
9.899495
31
0
39
0
210
0
220
0
230
1
0
LINE
5
11E
100
AcDbEntity
8
1
62
256
6
ByLayer
370
13
48
1
60
0
100
AcDbLine
10
378.4
20
19.899495
30
0
11
378.4
21
9.899495
31
0
39
0
210
0
220
0
230
1
0
LINE
5
11F
100
AcDbEntity
8
1
62
256
6
ByLayer
370
18
48
1
60
0
100
AcDbLine
10
379
20
19.299495
30
0
11
379
21
10.499495
31
0
39
0
210
0
220
0
230
1
0
LINE
5
120
100
AcDbEntity
8
1
62
256
6
ByLayer
370
13
48
1
60
0
100
AcDbLine
10
372.8
20
-1.899495
30
0
11
372.8
21
-4.899495
31
0
39
0
210
0
220
0
230
1
0
LINE
5
121
100
AcDbEntity
8
1
62
256
6
ByLayer
370
13
48
1
60
0
100
AcDbLine
10
372.8
20
-4.899495
30
0
11
372.8
21
-7.899495
31
0
39
0
210
0
220
0
230
1
0
LINE
5
122
100
AcDbEntity
8
1
62
256
6
ByLayer
370
18
48
1
60
0
100
AcDbLine
10
373
20
-9.899495
30
0
11
373
21
-4.899495
31
0
39
0
210
0
220
0
230
1
0
LINE
5
123
100
AcDbEntity
8
1
62
256
6
ByLayer
370
18
48
1
60
0
100
AcDbLine
10
373
20
-4.899495
30
0
11
373
21
0.100505
31
0
39
0
210
0
220
0
230
1
0
LINE
5
124
100
AcDbEntity
8
1
62
256
6
ByLayer
370
13
48
1
60
0
100
AcDbLine
10
378.4
20
0.100505
30
0
11
378.4
21
-4.899495
31
0
39
0
210
0
220
0
230
1
0
LINE
5
125
100
AcDbEntity
8
1
62
256
6
ByLayer
370
13
48
1
60
0
100
AcDbLine
10
378.4
20
-4.899495
30
0
11
378.4
21
-9.899495
31
0
39
0
210
0
220
0
230
1
0
LINE
5
126
100
AcDbEntity
8
1
62
256
6
ByLayer
370
18
48
1
60
0
100
AcDbLine
10
379
20
-9.299495
30
0
11
379
21
-4.899495
31
0
39
0
210
0
220
0
230
1
0
LINE
5
127
100
AcDbEntity
8
1
62
256
6
ByLayer
370
18
48
1
60
0
100
AcDbLine
10
379
20
-4.899495
30
0
11
379
21
-0.499495
31
0
39
0
210
0
220
0
230
1
0
LINE
5
128
100
AcDbEntity
8
1
62
256
6
ByLayer
370
18
48
1
60
0
100
AcDbLine
10
363.8
20
25
30
0
11
36
21
25
31
0
39
0
210
0
220
0
230
1
0
LINE
5
129
100
AcDbEntity
8
1
62
256
6
ByLayer
370
18
48
1
60
0
100
AcDbLine
10
36
20
-25
30
0
11
363.8
21
-25
31
0
39
0
210
0
220
0
230
1
0
LINE
5
12A
100
AcDbEntity
8
1
62
256
6
ByLayer
370
18
48
1
60
0
100
AcDbLine
10
0
20
-39.7
30
0
11
0.3
21
-40
31
0
39
0
210
0
220
0
230
1
0
LINE
5
12B
100
AcDbEntity
8
1
62
256
6
ByLayer
370
18
48
1
60
0
100
AcDbLine
10
0.3
20
40
30
0
11
0
21
39.7
31
0
39
0
210
0
220
0
230
1
0
LINE
5
12C
100
AcDbEntity
8
1
62
256
6
ByLayer
370
18
48
1
60
0
100
AcDbLine
10
29.5
20
40
30
0
11
0.3
21
40
31
0
39
0
210
0
220
0
230
1
0
LINE
5
12D
100
AcDbEntity
8
1
62
256
6
ByLayer
370
18
48
1
60
0
100
AcDbLine
10
0.3
20
-40
30
0
11
29.5
21
-40
31
0
39
0
210
0
220
0
230
1
0
LINE
5
12E
100
AcDbEntity
8
1
62
256
6
ByLayer
370
18
48
1
60
0
100
AcDbLine
10
366.5
20
-15
30
0
11
367.32476
21
-15
31
0
39
0
210
0
220
0
230
1
0
LINE
5
12F
100
AcDbEntity
8
1
62
256
6
ByLayer
370
18
48
1
60
0
100
AcDbLine
10
367.32476
20
25
30
0
11
366
21
25
31
0
39
0
210
0
220
0
230
1
0
LINE
5
130
100
AcDbEntity
8
1
62
256
6
ByLayer
370
18
48
1
60
0
100
AcDbLine
10
367.552123
20
24.772637
30
0
11
367.32476
21
25
31
0
39
0
210
0
220
0
230
1
0
LINE
5
131
100
AcDbEntity
8
1
62
256
6
ByLayer
370
18
48
1
60
0
100
AcDbLine
10
367.32476
20
-15
30
0
11
367.552123
21
-14.772637
31
0
39
0
210
0
220
0
230
1
0
LINE
5
132
100
AcDbEntity
8
1
62
256
6
ByLayer
370
18
48
1
60
0
100
AcDbLine
10
366.02
20
25
30
0
11
364.2
21
25
31
0
39
0
210
0
220
0
230
1
0
LINE
5
133
100
AcDbEntity
8
1
62
256
6
ByLayer
370
18
48
1
60
0
100
AcDbLine
10
364.2
20
-25
30
0
11
365.5
21
-25
31
0
39
0
210
0
220
0
230
1
0
LINE
5
134
100
AcDbEntity
8
1
62
256
6
ByLayer
370
18
48
1
60
0
100
AcDbLine
10
365.5
20
-25
30
0
11
366
21
-24.5
31
0
39
0
210
0
220
0
230
1
0
LINE
5
135
100
AcDbEntity
8
1
62
256
6
ByLayer
370
18
48
1
60
0
100
AcDbLine
10
368.324609
20
11.899495
30
0
11
372.8
21
11.899495
31
0
39
0
210
0
220
0
230
1
0
LINE
5
136
100
AcDbEntity
8
1
62
256
6
ByLayer
370
18
48
1
60
0
100
AcDbLine
10
372.8
20
17.899495
30
0
11
368.324609
21
17.899495
31
0
39
0
210
0
220
0
230
1
0
LINE
5
137
100
AcDbEntity
8
1
62
256
6
ByLayer
370
18
48
1
60
0
100
AcDbLine
10
373
20
9.899495
30
0
11
378.4
21
9.899495
31
0
39
0
210
0
220
0
230
1
0
LINE
5
138
100
AcDbEntity
8
1
62
256
6
ByLayer
370
18
48
1
60
0
100
AcDbLine
10
378.4
20
19.899495
30
0
11
373
21
19.899495
31
0
39
0
210
0
220
0
230
1
0
LINE
5
139
100
AcDbEntity
8
1
62
256
6
ByLayer
370
18
48
1
60
0
100
AcDbLine
10
368.324609
20
-7.899495
30
0
11
372.8
21
-7.899495
31
0
39
0
210
0
220
0
230
1
0
LINE
5
13A
100
AcDbEntity
8
1
62
256
6
ByLayer
370
18
48
1
60
0
100
AcDbLine
10
372.8
20
-1.899495
30
0
11
368.324609
21
-1.899495
31
0
39
0
210
0
220
0
230
1
0
LINE
5
13B
100
AcDbEntity
8
1
62
256
6
ByLayer
370
18
48
1
60
0
100
AcDbLine
10
373
20
-9.899495
30
0
11
378.4
21
-9.899495
31
0
39
0
210
0
220
0
230
1
0
LINE
5
13C
100
AcDbEntity
8
1
62
256
6
ByLayer
370
18
48
1
60
0
100
AcDbLine
10
378.4
20
0.100505
30
0
11
373
21
0.100505
31
0
39
0
210
0
220
0
230
1
0
LINE
5
13D
100
AcDbEntity
8
1
62
256
6
ByLayer
370
13
48
0.05
60
0
100
AcDbLine
10
370.3
20
0
30
0
11
-6.5
21
0
31
0
39
0
210
0
220
0
230
1
0
LINE
5
13E
100
AcDbEntity
8
SK2
62
256
6
ByLayer
370
18
48
1
60
0
100
AcDbLine
10
-54.6
20
-40
30
0
11
-54.6
21
40
31
0
39
0
210
0
220
0
230
1
0
LINE
5
140
100
AcDbEntity
8
SK2
62
256
6
ByLayer
370
18
48
1
60
0
100
AcDbLine
10
-1.2875
20
40
30
0
11
-56.6
21
40
31
0
39
0
210
0
220
0
230
1
0
LINE
5
141
100
AcDbEntity
8
SK2
62
256
6
ByLayer
370
18
48
1
60
0
100
AcDbLine
10
-1.2875
20
-40
30
0
11
-56.6
21
-40
31
0
39
0
210
0
220
0
230
1
0
LINE
5
142
100
AcDbEntity
8
1
62
256
6
ByLayer
370
18
48
1
60
1
100
AcDbLine
10
-54.6
20
40
30
0
11
-54.139216
21
36.500002
31
0
39
0
210
0
220
0
230
1
0
LINE
5
143
100
AcDbEntity
8
1
62
256
6
ByLayer
370
18
48
1
60
1
100
AcDbLine
10
-54.139216
20
36.500002
30
0
11
-55.060784
21
36.499998
31
0
39
0
210
0
220
0
230
1
0
LINE
5
144
100
AcDbEntity
8
1
62
256
6
ByLayer
370
18
48
1
60
1
100
AcDbLine
10
-55.060784
20
36.499998
30
0
11
-54.6
21
40
31
0
39
0
210
0
220
0
230
1
0
LINE
5
145
100
AcDbEntity
8
1
62
256
6
ByLayer
370
18
48
1
60
1
100
AcDbLine
10
-54.6
20
-40
30
0
11
-55.060784
21
-36.500002
31
0
39
0
210
0
220
0
230
1
0
LINE
5
146
100
AcDbEntity
8
1
62
256
6
ByLayer
370
18
48
1
60
1
100
AcDbLine
10
-55.060784
20
-36.500002
30
0
11
-54.139216
21
-36.499998
31
0
39
0
210
0
220
0
230
1
0
LINE
5
147
100
AcDbEntity
8
1
62
256
6
ByLayer
370
18
48
1
60
1
100
AcDbLine
10
-54.139216
20
-36.499998
30
0
11
-54.6
21
-40
31
0
39
0
210
0
220
0
230
1
0
LINE
5
148
100
AcDbEntity
8
SK2
62
256
6
ByLayer
370
18
48
1
60
0
100
AcDbLine
10
399.748181
20
-25
30
0
11
399.748181
21
25
31
0
39
0
210
0
220
0
230
1
0
LINE
5
149
100
AcDbEntity
8
SK2
62
256
6
ByLayer
370
18
48
1
60
0
100
AcDbLine
10
365.3875
20
25
30
0
11
401.748181
21
25
31
0
39
0
210
0
220
0
230
1
0
LINE
5
14A
100
AcDbEntity
8
SK2
62
256
6
ByLayer
370
18
48
1
60
0
100
AcDbLine
10
365.3875
20
-25
30
0
11
401.748181
21
-25
31
0
39
0
210
0
220
0
230
1
0
LINE
5
14B
100
AcDbEntity
8
1
62
256
6
ByLayer
370
18
48
1
60
1
100
AcDbLine
10
399.748181
20
25
30
0
11
400.208964
21
21.500002
31
0
39
0
210
0
220
0
230
1
0
LINE
5
14C
100
AcDbEntity
8
1
62
256
6
ByLayer
370
18
48
1
60
1
100
AcDbLine
10
400.208964
20
21.500002
30
0
11
399.287397
21
21.499998
31
0
39
0
210
0
220
0
230
1
0
LINE
5
14D
100
AcDbEntity
8
1
62
256
6
ByLayer
370
18
48
1
60
1
100
AcDbLine
10
399.287397
20
21.499998
30
0
11
399.748181
21
25
31
0
39
0
210
0
220
0
230
1
0
LINE
5
14E
100
AcDbEntity
8
1
62
256
6
ByLayer
370
18
48
1
60
1
100
AcDbLine
10
399.748181
20
-25
30
0
11
399.287397
21
-21.500002
31
0
39
0
210
0
220
0
230
1
0
LINE
5
14F
100
AcDbEntity
8
1
62
256
6
ByLayer
370
18
48
1
60
1
100
AcDbLine
10
399.287397
20
-21.500002
30
0
11
400.208964
21
-21.499998
31
0
39
0
210
0
220
0
230
1
0
LINE
5
150
100
AcDbEntity
8
1
62
256
6
ByLayer
370
18
48
1
60
1
100
AcDbLine
10
400.208964
20
-21.499998
30
0
11
399.748181
21
-25
31
0
39
0
210
0
220
0
230
1
0
LINE
5
151
100
AcDbEntity
8
SK2
62
256
6
ByLayer
370
13
48
1
60
0
100
AcDbLine
10
388.123181
20
25
30
0
11
388.123181
21
-24.299199
31
0
39
0
210
0
220
0
230
1
0
LINE
5
152
100
AcDbEntity
8
SK2
62
256
6
ByLayer
370
13
48
1
60
0
100
AcDbLine
10
368.91226
20
-15
30
0
11
390.123181
21
-15
31
0
39
0
210
0
220
0
230
1
0
LINE
5
153
100
AcDbEntity
8
SK2
62
256
6
ByLayer
370
13
48
1
60
0
100
AcDbLine
10
368.91226
20
25
30
0
11
390.123181
21
25
31
0
39
0
210
0
220
0
230
1
0
LINE
5
154
100
AcDbEntity
8
1
62
256
6
ByLayer
370
18
48
1
60
1
100
AcDbLine
10
388.123181
20
-15
30
0
11
387.662397
21
-11.500002
31
0
39
0
210
0
220
0
230
1
0
LINE
5
155
100
AcDbEntity
8
1
62
256
6
ByLayer
370
18
48
1
60
1
100
AcDbLine
10
387.662397
20
-11.500002
30
0
11
388.583964
21
-11.499998
31
0
39
0
210
0
220
0
230
1
0
LINE
5
156
100
AcDbEntity
8
1
62
256
6
ByLayer
370
18
48
1
60
1
100
AcDbLine
10
388.583964
20
-11.499998
30
0
11
388.123181
21
-15
31
0
39
0
210
0
220
0
230
1
0
LINE
5
157
100
AcDbEntity
8
1
62
256
6
ByLayer
370
18
48
1
60
1
100
AcDbLine
10
388.123181
20
25
30
0
11
388.583964
21
21.500002
31
0
39
0
210
0
220
0
230
1
0
LINE
5
158
100
AcDbEntity
8
1
62
256
6
ByLayer
370
18
48
1
60
1
100
AcDbLine
10
388.583964
20
21.500002
30
0
11
387.662397
21
21.499998
31
0
39
0
210
0
220
0
230
1
0
LINE
5
159
100
AcDbEntity
8
1
62
256
6
ByLayer
370
18
48
1
60
1
100
AcDbLine
10
387.662397
20
21.499998
30
0
11
388.123181
21
25
31
0
39
0
210
0
220
0
230
1
0
LINE
5
15A
100
AcDbEntity
8
SK2
62
256
6
ByLayer
370
18
48
1
60
0
100
AcDbLine
10
0
20
45.6
30
0
11
368
21
45.6
31
0
39
0
210
0
220
0
230
1
0
LINE
5
15B
100
AcDbEntity
8
SK2
62
256
6
ByLayer
370
18
48
1
60
0
100
AcDbLine
10
368
20
26.5875
30
0
11
368
21
47.6
31
0
39
0
210
0
220
0
230
1
0
LINE
5
15C
100
AcDbEntity
8
SK2
62
256
6
ByLayer
370
18
48
1
60
0
100
AcDbLine
10
0
20
41.2875
30
0
11
0
21
47.6
31
0
39
0
210
0
220
0
230
1
0
LINE
5
15D
100
AcDbEntity
8
1
62
256
6
ByLayer
370
18
48
1
60
1
100
AcDbLine
10
368
20
45.6
30
0
11
364.500002
21
45.139216
31
0
39
0
210
0
220
0
230
1
0
LINE
5
15E
100
AcDbEntity
8
1
62
256
6
ByLayer
370
18
48
1
60
1
100
AcDbLine
10
364.500002
20
45.139216
30
0
11
364.499998
21
46.060784
31
0
39
0
210
0
220
0
230
1
0
LINE
5
15F
100
AcDbEntity
8
1
62
256
6
ByLayer
370
18
48
1
60
1
100
AcDbLine
10
364.499998
20
46.060784
30
0
11
368
21
45.6
31
0
39
0
210
0
220
0
230
1
0
LINE
5
160
100
AcDbEntity
8
1
62
256
6
ByLayer
370
18
48
1
60
1
100
AcDbLine
10
0
20
45.6
30
0
11
3.499998
21
46.060784
31
0
39
0
210
0
220
0
230
1
0
LINE
5
161
100
AcDbEntity
8
1
62
256
6
ByLayer
370
18
48
1
60
1
100
AcDbLine
10
3.499998
20
46.060784
30
0
11
3.500002
21
45.139216
31
0
39
0
210
0
220
0
230
1
0
LINE
5
162
100
AcDbEntity
8
1
62
256
6
ByLayer
370
18
48
1
60
1
100
AcDbLine
10
3.500002
20
45.139216
30
0
11
0
21
45.6
31
0
39
0
210
0
220
0
230
1
0
LINE
5
1F0
100
AcDbEntity
8
1
62
256
6
ByLayer
370
13
48
0.05
60
0
100
AcDbLine
10
355.05
20
-4.899495
30
0
11
384.9
21
-4.899495
31
0
39
0
210
0
220
0
230
1
0
LINE
5
1F1
100
AcDbEntity
8
1
62
256
6
ByLayer
370
13
48
0.05
60
0
100
AcDbLine
10
372.52
20
0
30
0
11
357.7
21
0
31
0
39
0
210
0
220
0
230
1
0
LINE
5
1F2
100
AcDbEntity
8
1
62
256
6
ByLayer
370
13
48
0.05
60
0
100
AcDbLine
10
359.330172
20
5
30
0
11
374.82476
21
5
31
0
39
0
210
0
220
0
230
1
0
LINE
5
1F3
100
AcDbEntity
8
1
62
256
6
ByLayer
370
13
48
0.05
60
0
100
AcDbLine
10
355.05
20
14.899495
30
0
11
384.9
21
14.899495
31
0
39
0
210
0
220
0
230
1
0
LINE
5
1F8
100
AcDbEntity
8
1
62
256
6
ByLayer
370
18
48
1
60
1
100
AcDbLine
10
-54.6
20
40
30
0
11
-54.139216
21
36.500002
31
0
39
0
210
0
220
0
230
1
0
LINE
5
1F9
100
AcDbEntity
8
1
62
256
6
ByLayer
370
18
48
1
60
1
100
AcDbLine
10
-54.139216
20
36.500002
30
0
11
-55.060784
21
36.499998
31
0
39
0
210
0
220
0
230
1
0
LINE
5
1FA
100
AcDbEntity
8
1
62
256
6
ByLayer
370
18
48
1
60
1
100
AcDbLine
10
-55.060784
20
36.499998
30
0
11
-54.6
21
40
31
0
39
0
210
0
220
0
230
1
0
LINE
5
1FC
100
AcDbEntity
8
1
62
256
6
ByLayer
370
18
48
1
60
1
100
AcDbLine
10
-54.6
20
-40
30
0
11
-55.060784
21
-36.500002
31
0
39
0
210
0
220
0
230
1
0
LINE
5
1FD
100
AcDbEntity
8
1
62
256
6
ByLayer
370
18
48
1
60
1
100
AcDbLine
10
-55.060784
20
-36.500002
30
0
11
-54.139216
21
-36.499998
31
0
39
0
210
0
220
0
230
1
0
LINE
5
1FE
100
AcDbEntity
8
1
62
256
6
ByLayer
370
18
48
1
60
1
100
AcDbLine
10
-54.139216
20
-36.499998
30
0
11
-54.6
21
-40
31
0
39
0
210
0
220
0
230
1
0
LINE
5
202
100
AcDbEntity
8
1
62
256
6
ByLayer
370
18
48
1
60
1
100
AcDbLine
10
399.748181
20
25
30
0
11
400.208964
21
21.500002
31
0
39
0
210
0
220
0
230
1
0
LINE
5
203
100
AcDbEntity
8
1
62
256
6
ByLayer
370
18
48
1
60
1
100
AcDbLine
10
400.208964
20
21.500002
30
0
11
399.287397
21
21.499998
31
0
39
0
210
0
220
0
230
1
0
LINE
5
204
100
AcDbEntity
8
1
62
256
6
ByLayer
370
18
48
1
60
1
100
AcDbLine
10
399.287397
20
21.499998
30
0
11
399.748181
21
25
31
0
39
0
210
0
220
0
230
1
0
LINE
5
206
100
AcDbEntity
8
1
62
256
6
ByLayer
370
18
48
1
60
1
100
AcDbLine
10
399.748181
20
-25
30
0
11
399.287397
21
-21.500002
31
0
39
0
210
0
220
0
230
1
0
LINE
5
207
100
AcDbEntity
8
1
62
256
6
ByLayer
370
18
48
1
60
1
100
AcDbLine
10
399.287397
20
-21.500002
30
0
11
400.208964
21
-21.499998
31
0
39
0
210
0
220
0
230
1
0
LINE
5
208
100
AcDbEntity
8
1
62
256
6
ByLayer
370
18
48
1
60
1
100
AcDbLine
10
400.208964
20
-21.499998
30
0
11
399.748181
21
-25
31
0
39
0
210
0
220
0
230
1
0
LINE
5
20E
100
AcDbEntity
8
1
62
256
6
ByLayer
370
18
48
1
60
1
100
AcDbLine
10
388.123181
20
-15
30
0
11
387.662397
21
-11.500002
31
0
39
0
210
0
220
0
230
1
0
LINE
5
20F
100
AcDbEntity
8
1
62
256
6
ByLayer
370
18
48
1
60
1
100
AcDbLine
10
387.662397
20
-11.500002
30
0
11
388.583964
21
-11.499998
31
0
39
0
210
0
220
0
230
1
0
LINE
5
210
100
AcDbEntity
8
1
62
256
6
ByLayer
370
18
48
1
60
1
100
AcDbLine
10
388.583964
20
-11.499998
30
0
11
388.123181
21
-15
31
0
39
0
210
0
220
0
230
1
0
LINE
5
212
100
AcDbEntity
8
1
62
256
6
ByLayer
370
18
48
1
60
1
100
AcDbLine
10
388.123181
20
25
30
0
11
388.583964
21
21.500002
31
0
39
0
210
0
220
0
230
1
0
LINE
5
213
100
AcDbEntity
8
1
62
256
6
ByLayer
370
18
48
1
60
1
100
AcDbLine
10
388.583964
20
21.500002
30
0
11
387.662397
21
21.499998
31
0
39
0
210
0
220
0
230
1
0
LINE
5
214
100
AcDbEntity
8
1
62
256
6
ByLayer
370
18
48
1
60
1
100
AcDbLine
10
387.662397
20
21.499998
30
0
11
388.123181
21
25
31
0
39
0
210
0
220
0
230
1
0
LINE
5
217
100
AcDbEntity
8
1
62
256
6
ByLayer
370
18
48
1
60
1
100
AcDbLine
10
368
20
45.6
30
0
11
364.500002
21
45.139216
31
0
39
0
210
0
220
0
230
1
0
LINE
5
218
100
AcDbEntity
8
1
62
256
6
ByLayer
370
18
48
1
60
1
100
AcDbLine
10
364.500002
20
45.139216
30
0
11
364.499998
21
46.060784
31
0
39
0
210
0
220
0
230
1
0
LINE
5
219
100
AcDbEntity
8
1
62
256
6
ByLayer
370
18
48
1
60
1
100
AcDbLine
10
364.499998
20
46.060784
30
0
11
368
21
45.6
31
0
39
0
210
0
220
0
230
1
0
LINE
5
21B
100
AcDbEntity
8
1
62
256
6
ByLayer
370
18
48
1
60
1
100
AcDbLine
10
0
20
45.6
30
0
11
3.499998
21
46.060784
31
0
39
0
210
0
220
0
230
1
0
LINE
5
21C
100
AcDbEntity
8
1
62
256
6
ByLayer
370
18
48
1
60
1
100
AcDbLine
10
3.499998
20
46.060784
30
0
11
3.500002
21
45.139216
31
0
39
0
210
0
220
0
230
1
0
LINE
5
21D
100
AcDbEntity
8
1
62
256
6
ByLayer
370
18
48
1
60
1
100
AcDbLine
10
3.500002
20
45.139216
30
0
11
0
21
45.6
31
0
39
0
210
0
220
0
230
1
0
MTEXT
5
1F4
100
AcDbEntity
8
SK2
62
256
6
ByLayer
370
18
48
1
60
0
100
AcDbMText
10
-56.164634
20
-4.530622
30
0
210
0
220
0
230
1
1
%%c
40
3.5
41
0
44
1.084337
50
90
71
7
72
5
7
iso_b_vert
0
MTEXT
5
1F7
100
AcDbEntity
8
SK2
62
256
6
ByLayer
370
18
48
1
60
0
100
AcDbMText
10
-56.164634
20
2.442034
30
0
210
0
220
0
230
1
1
\W0.6740;80
40
3.5
41
0
44
1.084337
50
90
71
7
72
5
7
iso_b_vert
0
MTEXT
5
200
100
AcDbEntity
8
SK2
62
256
6
ByLayer
370
18
48
1
60
0
100
AcDbMText
10
398.183547
20
-4.530622
30
0
210
0
220
0
230
1
1
%%c
40
3.5
41
0
44
1.084337
50
90
71
7
72
5
7
iso_b_vert
0
MTEXT
5
201
100
AcDbEntity
8
SK2
62
256
6
ByLayer
370
18
48
1
60
0
100
AcDbMText
10
398.183547
20
2.442034
30
0
210
0
220
0
230
1
1
\W0.6740;50
40
3.5
41
0
44
1.084337
50
90
71
7
72
5
7
iso_b_vert
0
MTEXT
5
20A
100
AcDbEntity
8
SK2
62
256
6
ByLayer
370
18
48
1
60
0
100
AcDbMText
10
385.902297
20
-8.392233
30
0
210
0
220
0
230
1
1
\W1.1313;{\H1.88x;)}
40
3.5
41
0
44
1.084337
50
90
71
7
72
5
7
iso_b_vert
0
MTEXT
5
20B
100
AcDbEntity
8
SK2
62
256
6
ByLayer
370
18
48
1
60
0
100
AcDbMText
10
385.902297
20
-24.141699
30
0
210
0
220
0
230
1
1
\W1.1313;{\H1.88x;(}
40
3.5
41
0
44
1.084337
50
90
71
7
72
5
7
iso_b_vert
0
MTEXT
5
20C
100
AcDbEntity
8
SK2
62
256
6
ByLayer
370
18
48
1
60
0
100
AcDbMText
10
385.902297
20
-19.914355
30
0
210
0
220
0
230
1
1
%%c
40
3.5
41
0
44
1.084337
50
90
71
7
72
5
7
iso_b_vert
0
MTEXT
5
20D
100
AcDbEntity
8
SK2
62
256
6
ByLayer
370
18
48
1
60
0
100
AcDbMText
10
385.902297
20
-12.941699
30
0
210
0
220
0
230
1
1
\W0.7361;40
40
3.5
41
0
44
1.084337
50
90
71
7
72
5
7
iso_b_vert
0
MTEXT
5
216
100
AcDbEntity
8
SK2
62
256
6
ByLayer
370
18
48
1
60
0
100
AcDbMText
10
180.787301
20
46.632634
30
0
210
0
220
0
230
1
1
\W0.7138;368
40
3.5
41
0
44
1.084337
50
0
71
7
72
5
7
iso_b_vert
0
MTEXT
5
21F
100
AcDbEntity
8
SK6
62
256
6
ByLayer
370
18
48
1
60
0
100
AcDbMText
10
142.267894
20
-65.567366
30
0
210
0
220
0
230
1
1
\W0.7674;HT30D-C8 50 368R40
40
3.5
41
0
44
1.084337
50
0
71
7
72
5
7
iso_b_vert
0
HATCH
5
1FB
100
AcDbEntity
8
SK2
62
256
6
ByLayer
370
13
48
1
60
0
100
AcDbHatch
10
0
20
0
30
0
210
0
220
0
230
1
2
ANSI31
70
0
71
0
91
1
92
5
93
3
72
1
10
-54.6000000000001
20
39.9999999999999
11
-54.1392162584474
21
36.5000016925531
72
1
10
-54.1392162584474
20
36.5000016925531
11
-55.0607837415529
21
36.4999983074467
72
1
10
-55.0607837415529
20
36.4999983074467
11
-54.6000000000001
21
39.9999999999999
97
0
75
0
76
1
52
0
41
0.0062
77
0
78
1
53
45
43
0
44
0
45
-0.0139193969876572
46
0.0139193969876572
79
0
47
0
98
1
10
0
20
0
0
HATCH
5
1FF
100
AcDbEntity
8
SK2
62
256
6
ByLayer
370
13
48
1
60
0
100
AcDbHatch
10
0
20
0
30
0
210
0
220
0
230
1
2
ANSI31
70
0
71
0
91
1
92
5
93
3
72
1
10
-54.6000000000001
20
-40.0000000000001
11
-55.0607837415529
21
-36.5000016925533
72
1
10
-55.0607837415529
20
-36.5000016925533
11
-54.1392162584474
21
-36.4999983074469
72
1
10
-54.1392162584474
20
-36.4999983074469
11
-54.6000000000001
21
-40.0000000000001
97
0
75
0
76
1
52
0
41
0.0062
77
0
78
1
53
45
43
0
44
0
45
-0.0139193969876572
46
0.0139193969876572
79
0
47
0
98
1
10
0
20
0
0
HATCH
5
205
100
AcDbEntity
8
SK2
62
256
6
ByLayer
370
13
48
1
60
0
100
AcDbHatch
10
0
20
0
30
0
210
0
220
0
230
1
2
ANSI31
70
0
71
0
91
1
92
5
93
3
72
1
10
399.748180566759
20
24.9999999999986
11
400.208964308312
21
21.5000016925518
72
1
10
400.208964308312
20
21.5000016925518
11
399.287396825206
21
21.4999983074454
72
1
10
399.287396825206
20
21.4999983074454
11
399.748180566759
21
24.9999999999986
97
0
75
0
76
1
52
0
41
0.0062
77
0
78
1
53
45
43
0
44
0
45
-0.0139193969876572
46
0.0139193969876572
79
0
47
0
98
1
10
0
20
0
0
HATCH
5
209
100
AcDbEntity
8
SK2
62
256
6
ByLayer
370
13
48
1
60
0
100
AcDbHatch
10
0
20
0
30
0
210
0
220
0
230
1
2
ANSI31
70
0
71
0
91
1
92
5
93
3
72
1
10
399.748180566759
20
-25.0000000000014
11
399.287396825206
21
-21.5000016925546
72
1
10
399.287396825206
20
-21.5000016925546
11
400.208964308312
21
-21.4999983074482
72
1
10
400.208964308312
20
-21.4999983074482
11
399.748180566759
21
-25.0000000000014
97
0
75
0
76
1
52
0
41
0.0062
77
0
78
1
53
45
43
0
44
0
45
-0.0139193969876572
46
0.0139193969876572
79
0
47
0
98
1
10
0
20
0
0
HATCH
5
211
100
AcDbEntity
8
SK2
62
256
6
ByLayer
370
13
48
1
60
0
100
AcDbHatch
10
0
20
0
30
0
210
0
220
0
230
1
2
ANSI31
70
0
71
0
91
1
92
5
93
3
72
1
10
388.123180566759
20
-15.0000000000014
11
387.662396825206
21
-11.5000016925546
72
1
10
387.662396825206
20
-11.5000016925546
11
388.583964308312
21
-11.4999983074482
72
1
10
388.583964308312
20
-11.4999983074482
11
388.123180566759
21
-15.0000000000014
97
0
75
0
76
1
52
0
41
0.0062
77
0
78
1
53
45
43
0
44
0
45
-0.0139193969876572
46
0.0139193969876572
79
0
47
0
98
1
10
0
20
0
0
HATCH
5
215
100
AcDbEntity
8
SK2
62
256
6
ByLayer
370
13
48
1
60
0
100
AcDbHatch
10
0
20
0
30
0
210
0
220
0
230
1
2
ANSI31
70
0
71
0
91
1
92
5
93
3
72
1
10
388.123180566759
20
24.9999999999986
11
388.583964308312
21
21.5000016925518
72
1
10
388.583964308312
20
21.5000016925518
11
387.662396825206
21
21.4999983074454
72
1
10
387.662396825206
20
21.4999983074454
11
388.123180566759
21
24.9999999999986
97
0
75
0
76
1
52
0
41
0.0062
77
0
78
1
53
45
43
0
44
0
45
-0.0139193969876572
46
0.0139193969876572
79
0
47
0
98
1
10
0
20
0
0
HATCH
5
21A
100
AcDbEntity
8
SK2
62
256
6
ByLayer
370
13
48
1
60
0
100
AcDbHatch
10
0
20
0
30
0
210
0
220
0
230
1
2
ANSI31
70
0
71
0
91
1
92
5
93
3
72
1
10
368
20
45.6000000000002
11
364.500001692553
21
45.1392162584474
72
1
10
364.500001692553
20
45.1392162584474
11
364.499998307447
21
46.060783741553
72
1
10
364.499998307447
20
46.060783741553
11
368
21
45.6000000000002
97
0
75
0
76
1
52
0
41
0.0062
77
0
78
1
53
45
43
0
44
0
45
-0.0139193969876572
46
0.0139193969876572
79
0
47
0
98
1
10
0
20
0
0
HATCH
5
21E
100
AcDbEntity
8
SK2
62
256
6
ByLayer
370
13
48
1
60
0
100
AcDbHatch
10
0
20
0
30
0
210
0
220
0
230
1
2
ANSI31
70
0
71
0
91
1
92
5
93
3
72
1
10
0
20
45.6000000000002
11
3.49999830744682
21
46.060783741553
72
1
10
3.49999830744682
20
46.060783741553
11
3.50000169255318
21
45.1392162584474
72
1
10
3.50000169255318
20
45.1392162584474
11
0
21
45.6000000000002
97
0
75
0
76
1
52
0
41
0.0062
77
0
78
1
53
45
43
0
44
0
45
-0.0139193969876572
46
0.0139193969876572
79
0
47
0
98
1
10
0
20
0
0
DIMENSION
5
222
100
AcDbEntity
8
SK2
62
256
6
ByLayer
370
18
48
1
60
0
100
AcDbDimension
2
_U0
10
368
20
-53.1
30
0
11
202
21
-53.1
31
0
70
32
71
1
72
1
41
1
210
0
220
0
230
1
3
Standard
100
AcDbAlignedDimension
13
36
23
-25
33
0
14
368
24
25
34
0
50
0
100
AcDbRotatedDimension
1001
ACAD
1000
DSTYLE
1002
{
1070
   371
1070
    13
1070
   372
1070
    13
1070
   170
1070
     0
1070
   144
1040
1.0
1070
   277
1070
     2
1070
   284
1070
     8
1070
   278
1070
    46
1070
   146
1040
1.0
1070
   345
1005
16
1070
   347
1005
16
1070
   346
1005
16
1070
   344
1005
0
1070
   343
1005
0
1070
   172
1070
     1
1070
    76
1070
     0
1070
    75
1070
     0
1070
   282
1070
     0
1070
   281
1070
     0
1070
    71
1070
     0
1070
    74
1070
     0
1070
   279
1070
     0
1070
   173
1070
     1
1070
   340
1005
1F5
1070
   271
1070
     2
1070
   272
1070
     2
1070
    77
1070
     1
1070
    73
1070
     1
1070
   171
1070
     3
1070
   274
1070
     4
1070
   177
1070
     2
1070
   176
1070
     2
1070
   178
1070
     2
1070
    78
1070
     8
1070
    48
1040
-0.1
1070
    41
1040
3.5
1070
   147
1040
1.75
1070
    42
1040
1.5875
1070
    44
1040
2.0
1070
   140
1040
3.5
1002
}
1001
ACAD_DSTYLE_DIM_LINETYPE
1070
   380
1005
16
1001
ACAD_DSTYLE_DIM_EXT1_LINETYPE
1070
   381
1005
16
1001
ACAD_DSTYLE_DIM_EXT2_LINETYPE
1070
   382
1005
16
0
ENDSEC
0
SECTION
2
OBJECTS
0
DICTIONARY
5
2ab
330
0
100
AcDbDictionary
280
0
281
1
3
ACAD_GROUP
350
2ac
3
ACAD_MLINESTYLE
350
2ad
0
DICTIONARY
5
2ac
330
0
100
AcDbDictionary
280
0
281
1
0
DICTIONARY
5
2ad
330
0
100
AcDbDictionary
280
0
281
1
3
Standard
350
18
0
MLINESTYLE
5
18
330
2ad
100
AcDbMlineStyle
2
Standard
70
0
3

62
256
51
90
52
90
71
2
49
-0.5
62
256
6
ByLayer
49
0.5
62
256
6
ByLayer
0
RASTERVARIABLES
5
299
330

100
AcDbRasterVariables
90
0
70
1
71
1
72
1
0
ENDSEC
0
EOF
