0
SECTION
2
HEADER
9
$ACADVER
1
AC1015
9
$DWGCODEPAGE
3
ANSI_1252
9
$HANDSEED
5
2b4
9
$ANGBASE
50
0
9
$ANGDIR
70
0
9
$ATTMODE
70
1
9
$AUNITS
70
0
9
$AUPREC
70
0
9
$CECOLOR
62
256
9
$CELTSCALE
40
1
9
$CELTYPE
6
ByLayer
9
$CELWEIGHT
370
18
9
$CLAYER
8
0
9
$CMLJUST
70
0
9
$CMLSCALE
40
1
9
$CMLSTYLE
2
Standard
9
$DIMSTYLE
2
Standard
9
$TEXTSIZE
40
0.2
9
$TEXTSTYLE
7
Standard
9
$LUNITS
70
2
9
$LUPREC
70
4
9
$EXTNAMES
290
1
9
$INSUNITS
70
4
9
$LTSCALE
40
1
9
$LWDISPLAY
290
1
9
$PDMODE
70
0
9
$PDSIZE
40
0
9
$PLINEGEN
70
0
0
ENDSEC
0
SECTION
2
CLASSES
0
CLASS
1
RASTERVARIABLES
2
AcDbRasterVariables
3
ISM
90
0
280
0
281
0
0
ENDSEC
0
SECTION
2
TABLES
0
TABLE
2
VPORT
5
2aa
100
AcDbSymbolTable
0
VPORT
5
1
100
AcDbSymbolTableRecord
100
AcDbViewportTableRecord
2
*Active
70
0
10
0
20
0
11
1
21
1
12
-1
22
1
13
0
23
0
14
0.5
24
0.5
15
10
25
10
16
0
26
0
36
1
17
0
27
0
37
0
0
ENDTAB
0
TABLE
2
LTYPE
5
2ab
100
AcDbSymbolTable
0
LTYPE
5
14
100
AcDbSymbolTableRecord
100
AcDbLinetypeTableRecord
70
0
2
ByBlock
3

72
65
73
0
40
0
0
LTYPE
5
15
100
AcDbSymbolTableRecord
100
AcDbLinetypeTableRecord
70
0
2
ByLayer
3

72
65
73
0
40
0
0
LTYPE
5
16
100
AcDbSymbolTableRecord
100
AcDbLinetypeTableRecord
70
0
2
Continuous
3
Solid line
72
65
73
0
40
0
0
LTYPE
5
6E
100
AcDbSymbolTableRecord
100
AcDbLinetypeTableRecord
70
0
2
CENTER
3
____ _ ____ _ ____ _ ____
72
65
73
4
40
47.5
49
22
74
0
49
-8.5
74
0
49
8.5
74
0
49
-8.5
74
0
0
LTYPE
5
6F
100
AcDbSymbolTableRecord
100
AcDbLinetypeTableRecord
70
0
2
DASHED
3
__ __ __ __ __ __ __ __ __
72
65
73
2
40
25.72
49
12.86
74
0
49
-12.86
74
0
0
ENDTAB
0
TABLE
2
LAYER
5
2ac
100
AcDbSymbolTable
0
LAYER
5
10
100
AcDbSymbolTableRecord
100
AcDbLayerTableRecord
2
0
70
0
62
7
6
Continuous
290
1
370
-3
390
0
0
LAYER
5
71
100
AcDbSymbolTableRecord
100
AcDbLayerTableRecord
2
2
70
0
62
7
6
Continuous
290
1
370
-3
390
0
0
LAYER
5
98
100
AcDbSymbolTableRecord
100
AcDbLayerTableRecord
2
81
70
0
62
-3
6
Continuous
290
1
370
-3
390
0
0
LAYER
5
9A
100
AcDbSymbolTableRecord
100
AcDbLayerTableRecord
2
80
70
0
62
-6
6
Continuous
290
1
370
-3
390
0
0
LAYER
5
9C
100
AcDbSymbolTableRecord
100
AcDbLayerTableRecord
2
1
70
0
62
4
6
Continuous
290
1
370
-3
390
0
0
LAYER
5
AA
100
AcDbSymbolTableRecord
100
AcDbLayerTableRecord
2
4
70
0
62
-2
6
CENTER
290
1
370
-3
390
0
0
LAYER
5
221
100
AcDbSymbolTableRecord
100
AcDbLayerTableRecord
2
Defpoints
70
0
62
7
6
Continuous
290
0
370
-3
390
0
0
LAYER
5
296
100
AcDbSymbolTableRecord
100
AcDbLayerTableRecord
2
SK4
70
0
62
2
6
CENTER
290
1
370
-3
390
0
0
LAYER
5
297
100
AcDbSymbolTableRecord
100
AcDbLayerTableRecord
2
SK1
70
0
62
4
6
Continuous
290
1
370
-3
390
0
0
LAYER
5
298
100
AcDbSymbolTableRecord
100
AcDbLayerTableRecord
2
SK2
70
0
62
7
6
Continuous
290
1
370
-3
390
0
0
LAYER
5
299
100
AcDbSymbolTableRecord
100
AcDbLayerTableRecord
2
SK6
70
0
62
5
6
Continuous
290
1
370
-3
390
0
0
ENDTAB
0
TABLE
2
STYLE
5
2ad
100
AcDbSymbolTable
0
STYLE
5
11
100
AcDbSymbolTableRecord
100
AcDbTextStyleTableRecord
2
Standard
3
txt
70
0
71
0
40
0
41
1
42
0
50
0
0
STYLE
5
1F1
100
AcDbSymbolTableRecord
100
AcDbTextStyleTableRecord
2
iso_b_vert
3
simplex.shx
70
0
71
0
40
0
41
1
42
0
50
0
0
STYLE
5
1F2
100
AcDbSymbolTableRecord
100
AcDbTextStyleTableRecord
2
DWGDirectTextStyle
3
simplex
70
0
71
0
40
0
41
1
42
0
50
0
0
ENDTAB
0
TABLE
2
DIMSTYLE
5
2ae
100
AcDbSymbolTable
100
AcDbDimStyleTable
0
DIMSTYLE
105
27
100
AcDbSymbolTableRecord
100
AcDbDimStyleTableRecord
2
Standard
70
0
3
<>
41
0.18
42
0.0625
44
0.18
140
0.18
147
0.09
73
0
74
0
77
1
271
2
275
0
278
52
280
0
340
11
0
ENDTAB
0
TABLE
2
VIEW
5
2af
100
AcDbSymbolTable
0
ENDTAB
0
TABLE
2
UCS
5
2b0
100
AcDbSymbolTable
0
ENDTAB
0
TABLE
2
APPID
5
2b1
100
AcDbSymbolTable
0
APPID
5
12
100
AcDbSymbolTableRecord
100
AcDbRegAppTableRecord
2
ACAD
70
0
0
APPID
5
21D
100
AcDbSymbolTableRecord
100
AcDbRegAppTableRecord
2
ACAD_DSTYLE_DIMBREAK
70
0
0
APPID
5
255
100
AcDbSymbolTableRecord
100
AcDbRegAppTableRecord
2
ACAD_DSTYLE_DIM_LINETYPE
70
0
0
APPID
5
256
100
AcDbSymbolTableRecord
100
AcDbRegAppTableRecord
2
ACAD_DSTYLE_DIM_EXT1_LINETYPE
70
0
0
APPID
5
257
100
AcDbSymbolTableRecord
100
AcDbRegAppTableRecord
2
ACAD_DSTYLE_DIM_EXT2_LINETYPE
70
0
0
APPID
5
292
100
AcDbSymbolTableRecord
100
AcDbRegAppTableRecord
2
ACAD_MLEADERVER
70
0
0
ENDTAB
0
TABLE
2
BLOCK_RECORD
5
2b2
100
AcDbSymbolTable
0
BLOCK_RECORD
5
1F
100
AcDbSymbolTableRecord
100
AcDbBlockTableRecord
2
*Model_Space
340
0
70
0
0
BLOCK_RECORD
5
1B
100
AcDbSymbolTableRecord
100
AcDbBlockTableRecord
2
*Paper_Space
340
0
70
0
0
BLOCK_RECORD
5
23
100
AcDbSymbolTableRecord
100
AcDbBlockTableRecord
2
*Paper_Space0
340
0
70
0
0
BLOCK_RECORD
5
222
100
AcDbSymbolTableRecord
100
AcDbBlockTableRecord
2
*D1
340
0
70
0
0
BLOCK_RECORD
5
22E
100
AcDbSymbolTableRecord
100
AcDbBlockTableRecord
2
_U0
340
0
70
0
0
ENDTAB
0
ENDSEC
0
SECTION
2
BLOCKS
0
BLOCK
5
20
100
AcDbEntity
8
0
100
AcDbBlockBegin
2
*Model_Space
70
0
10
0
20
0
30
0
3
*Model_Space
0
ENDBLK
5
21
100
AcDbEntity
8
0
100
AcDbBlockEnd
0
BLOCK
5
1C
100
AcDbEntity
8
0
100
AcDbBlockBegin
2
*Paper_Space
70
0
10
0
20
0
30
0
3
*Paper_Space
0
ENDBLK
5
1D
100
AcDbEntity
8
0
100
AcDbBlockEnd
0
BLOCK
5
24
100
AcDbEntity
8
0
100
AcDbBlockBegin
2
*Paper_Space0
70
0
10
0
20
0
30
0
3
*Paper_Space0
0
ENDBLK
5
25
100
AcDbEntity
8
0
100
AcDbBlockEnd
0
BLOCK
5
223
100
AcDbEntity
8
0
100
AcDbBlockBegin
2
*D1
70
1
10
0
20
0
30
0
3
*D1
0
LINE
5
225
100
AcDbEntity
8
0
62
256
6
ByLayer
370
-2
48
1
60
0
100
AcDbLine
10
23.4
20
-31.5875
30
0
11
23.4
21
-46.6
31
0
39
0
210
0
220
0
230
1
0
LINE
5
226
100
AcDbEntity
8
0
62
256
6
ByLayer
370
-2
48
1
60
0
100
AcDbLine
10
568
20
28.4125
30
0
11
568
21
-46.6
31
0
39
0
210
0
220
0
230
1
0
LINE
5
227
100
AcDbEntity
8
0
62
256
6
ByLayer
370
-2
48
1
60
0
100
AcDbLine
10
26.9
20
-44.6
30
0
11
564.5
21
-44.6
31
0
39
0
210
0
220
0
230
1
0
SOLID
5
228
100
AcDbEntity
8
0
62
256
6
ByLayer
370
-1
48
1
60
0
100
AcDbTrace
10
26.9
20
-44.016667
30
0
11
26.9
21
-45.183333
31
0
12
23.4
22
-44.6
32
0
13
23.4
23
-44.6
33
0
39
0
210
0
220
0
230
1
0
SOLID
5
229
100
AcDbEntity
8
0
62
256
6
ByLayer
370
-1
48
1
60
0
100
AcDbTrace
10
564.5
20
-45.183333
30
0
11
564.5
21
-44.016667
31
0
12
568
22
-44.6
32
0
13
568
23
-44.6
33
0
39
0
210
0
220
0
230
1
0
MTEXT
5
22A
100
AcDbEntity
8
0
62
256
6
ByLayer
370
18
48
1
60
0
100
AcDbMText
10
295.7
20
-37.6
30
0
210
0
220
0
230
1
1
\A1;544.6
40
3.5
41
0
44
1
50
0
71
5
72
5
7
iso_b_vert
0
POINT
5
22B
100
AcDbEntity
8
Defpoints
62
0
6
ByLayer
370
-1
48
1
60
0
100
AcDbPoint
10
23.4
20
-30
30
0
39
0
210
0
220
0
230
1
50
360
0
POINT
5
22C
100
AcDbEntity
8
Defpoints
62
0
6
ByLayer
370
-1
48
1
60
0
100
AcDbPoint
10
568
20
30
30
0
39
0
210
0
220
0
230
1
50
360
0
POINT
5
22D
100
AcDbEntity
8
Defpoints
62
0
6
ByLayer
370
-1
48
1
60
0
100
AcDbPoint
10
568
20
-44.6
30
0
39
0
210
0
220
0
230
1
50
360
0
ENDBLK
5
224
100
AcDbEntity
8
0
100
AcDbBlockEnd
0
BLOCK
5
235
100
AcDbEntity
8
0
100
AcDbBlockBegin
2
_U0
70
0
10
0
20
0
30
0
3
_U0
0
MTEXT
5
22F
100
AcDbEntity
8
SK2
62
256
6
ByLayer
370
18
48
1
60
0
100
AcDbMText
10
290.102034
20
-43.567366
30
0
210
0
220
0
230
1
1
\W0.7958;544.6
40
3.5
41
0
44
1.084337
50
0
71
7
72
5
7
iso_b_vert
0
LINE
5
230
100
AcDbEntity
8
SK2
62
256
6
ByLayer
370
13
48
1
60
0
100
AcDbLine
10
23.4
20
-31.5875
30
0
11
23.4
21
-46.6
31
0
39
0
210
0
220
0
230
1
0
LINE
5
231
100
AcDbEntity
8
SK2
62
256
6
ByLayer
370
13
48
1
60
0
100
AcDbLine
10
568
20
28.4125
30
0
11
568
21
-46.6
31
0
39
0
210
0
220
0
230
1
0
LINE
5
232
100
AcDbEntity
8
SK2
62
256
6
ByLayer
370
13
48
1
60
0
100
AcDbLine
10
23.4
20
-44.6
30
0
11
568
21
-44.6
31
0
39
0
210
0
220
0
230
1
0
SOLID
5
233
100
AcDbEntity
8
SK2
62
256
6
ByLayer
370
18
48
1
60
0
100
AcDbTrace
10
23.4
20
-44.6
30
0
11
26.899998
21
-44.139216
31
0
12
26.900002
22
-45.060784
32
0
13
26.900002
23
-45.060784
33
0
39
0
210
0
220
0
230
1
0
SOLID
5
234
100
AcDbEntity
8
SK2
62
256
6
ByLayer
370
18
48
1
60
0
100
AcDbTrace
10
568
20
-44.6
30
0
11
564.500002
21
-45.060784
31
0
12
564.499998
22
-44.139216
32
0
13
564.499998
23
-44.139216
33
0
39
0
210
0
220
0
230
1
0
ENDBLK
5
236
100
AcDbEntity
8
0
100
AcDbBlockEnd
0
ENDSEC
0
SECTION
2
ENTITIES
0
ARC
5
15F
100
AcDbEntity
8
1
62
256
6
ByLayer
370
18
48
1
60
0
100
AcDbCircle
39
0
10
563.8
20
-29.8
30
0
40
0.2
210
0
220
0
230
1
100
AcDbArc
50
270
51
0
0
ARC
5
160
100
AcDbEntity
8
1
62
256
6
ByLayer
370
18
48
1
60
0
100
AcDbCircle
39
0
10
563.8
20
29.8
30
0
40
0.2
210
0
220
0
230
1
100
AcDbArc
50
0
51
90
0
ARC
5
161
100
AcDbEntity
8
1
62
256
6
ByLayer
370
18
48
1
60
0
100
AcDbCircle
39
0
10
23.4
20
31.4
30
0
40
1.4
210
0
220
0
230
1
100
AcDbArc
50
192.153197
51
270
0
ARC
5
162
100
AcDbEntity
8
1
62
256
6
ByLayer
370
18
48
1
60
0
100
AcDbCircle
39
0
10
23.4
20
-31.4
30
0
40
1.4
210
0
220
0
230
1
100
AcDbArc
50
90
51
167.846803
0
ARC
5
163
100
AcDbEntity
8
1
62
256
6
ByLayer
370
18
48
1
60
0
100
AcDbCircle
39
0
10
21.542582
20
-31
30
0
40
0.5
210
0
220
0
230
1
100
AcDbArc
50
270
51
347.846803
0
ARC
5
164
100
AcDbEntity
8
1
62
256
6
ByLayer
370
18
48
1
60
0
100
AcDbCircle
39
0
10
21.542582
20
31
30
0
40
0.5
210
0
220
0
230
1
100
AcDbArc
50
12.153197
51
90
0
ARC
5
165
100
AcDbEntity
8
SK1
62
256
6
ByLayer
370
18
48
1
60
0
100
AcDbCircle
39
0
10
-0.6
20
23.45
30
0
40
0.999999999999994
210
0
220
0
230
1
100
AcDbArc
50
293.578178
51
306.869898
0
ARC
5
166
100
AcDbEntity
8
SK1
62
256
6
ByLayer
370
18
48
1
60
0
100
AcDbCircle
39
0
10
-0.6
20
-23.45
30
0
40
0.999999999999994
210
0
220
0
230
1
100
AcDbArc
50
53.130102
51
66.421822
0
ARC
5
167
100
AcDbEntity
8
1
62
256
6
ByLayer
370
18
48
1
60
0
100
AcDbCircle
39
0
10
572.8
20
-3.300505
30
0
40
0.2
210
0
220
0
230
1
100
AcDbArc
50
0
51
90
0
ARC
5
168
100
AcDbEntity
8
1
62
256
6
ByLayer
370
18
48
1
60
0
100
AcDbCircle
39
0
10
572.8
20
3.099495
30
0
40
0.2
210
0
220
0
230
1
100
AcDbArc
50
270
51
0
0
ARC
5
169
100
AcDbEntity
8
1
62
256
6
ByLayer
370
18
48
1
60
0
100
AcDbCircle
39
0
10
578.4
20
-4.500505
30
0
40
0.6
210
0
220
0
230
1
100
AcDbArc
50
270
51
0
0
ARC
5
16A
100
AcDbEntity
8
1
62
256
6
ByLayer
370
18
48
1
60
0
100
AcDbCircle
39
0
10
578.4
20
4.299495
30
0
40
0.6
210
0
220
0
230
1
100
AcDbArc
50
0
51
90
0
ARC
5
16B
100
AcDbEntity
8
1
62
256
6
ByLayer
370
18
48
1
60
0
100
AcDbCircle
39
0
10
566.5
20
10.5
30
0
40
0.5
210
0
220
0
230
1
100
AcDbArc
50
180
51
270
0
ARC
5
16C
100
AcDbEntity
8
1
62
256
6
ByLayer
370
18
48
1
60
0
100
AcDbCircle
39
0
10
564.2
20
-29.8
30
0
40
0.2
210
0
220
0
230
1
100
AcDbArc
50
180
51
270
0
ARC
5
16D
100
AcDbEntity
8
1
62
256
6
ByLayer
370
18
48
1
60
0
100
AcDbCircle
39
0
10
564.2
20
29.8
30
0
40
0.2
210
0
220
0
230
1
100
AcDbArc
50
90
51
180
0
ARC
5
16E
100
AcDbEntity
8
1
62
256
6
ByLayer
370
18
48
1
60
0
100
AcDbCircle
39
0
10
572.8
20
-23.099495
30
0
40
0.2
210
0
220
0
230
1
100
AcDbArc
50
0
51
90
0
ARC
5
16F
100
AcDbEntity
8
1
62
256
6
ByLayer
370
18
48
1
60
0
100
AcDbCircle
39
0
10
572.8
20
-16.699495
30
0
40
0.2
210
0
220
0
230
1
100
AcDbArc
50
270
51
0
0
ARC
5
170
100
AcDbEntity
8
1
62
256
6
ByLayer
370
18
48
1
60
0
100
AcDbCircle
39
0
10
578.4
20
-24.299495
30
0
40
0.6
210
0
220
0
230
1
100
AcDbArc
50
270
51
0
0
ARC
5
171
100
AcDbEntity
8
1
62
256
6
ByLayer
370
18
48
1
60
0
100
AcDbCircle
39
0
10
578.4
20
-15.499495
30
0
40
0.6
210
0
220
0
230
1
100
AcDbArc
50
0
51
90
0
ELLIPSE
5
172
100
AcDbEntity
8
1
62
256
6
ByLayer
370
18
48
1
60
0
100
AcDbEllipse
10
-2.347154
20
0
30
0
11
14.7536831606559
21
31.0932549155808
31
0
210
0
220
0
230
1
40
0.341999
41
-1.09123958575284
42
-0.157806186645435
0
ELLIPSE
5
173
100
AcDbEntity
8
1
62
256
6
ByLayer
370
18
48
1
60
0
100
AcDbEllipse
10
26.347154
20
0
30
0
11
14.7536831606556
21
-31.0932549155802
31
0
210
0
220
0
230
1
40
0.341999
41
-2.98378646694436
42
-2.05035306783694
0
ELLIPSE
5
174
100
AcDbEntity
8
1
62
256
6
ByLayer
370
18
48
1
60
0
100
AcDbEllipse
10
26.347154
20
0
30
0
11
14.7536831606559
21
31.0932549155804
31
0
210
0
220
0
230
1
40
0.341999
41
2.05035306783695
42
2.98378646694436
0
ELLIPSE
5
175
100
AcDbEntity
8
1
62
256
6
ByLayer
370
18
48
1
60
0
100
AcDbEllipse
10
-2.347154
20
0
30
0
11
14.7536831606561
21
-31.0932549155811
31
0
210
0
220
0
230
1
40
0.341999
41
0.157806186645429
42
1.09123958575283
0
ELLIPSE
5
176
100
AcDbEntity
8
1
62
256
6
ByLayer
370
13
48
1
60
0
100
AcDbEllipse
10
566.5
20
-28.9875
30
0
11
0.5
21
0
31
0
210
0
220
0
230
1
40
0.92622
41
1.5707963267949
42
2.61329521326978
0
POINT
5
70
100
AcDbEntity
8
2
62
256
6
ByLayer
370
18
48
1
60
0
100
AcDbPoint
10
573
20
-19.899495
30
0
39
0
210
0
220
0
230
1
50
360
0
POINT
5
72
100
AcDbEntity
8
2
62
256
6
ByLayer
370
18
48
1
60
0
100
AcDbPoint
10
565.37476
20
-10
30
0
39
0
210
0
220
0
230
1
50
360
0
POINT
5
73
100
AcDbEntity
8
2
62
256
6
ByLayer
370
18
48
1
60
0
100
AcDbPoint
10
569
20
-19.899495
30
0
39
0
210
0
220
0
230
1
50
360
0
POINT
5
74
100
AcDbEntity
8
2
62
256
6
ByLayer
370
18
48
1
60
0
100
AcDbPoint
10
569
20
-0.100505
30
0
39
0
210
0
220
0
230
1
50
360
0
POINT
5
75
100
AcDbEntity
8
2
62
256
6
ByLayer
370
18
48
1
60
0
100
AcDbPoint
10
453.5
20
-21
30
0
39
0
210
0
220
0
230
1
50
360
0
POINT
5
76
100
AcDbEntity
8
2
62
256
6
ByLayer
370
18
48
1
60
0
100
AcDbPoint
10
569
20
-0.100505
30
0
39
0
210
0
220
0
230
1
50
360
0
POINT
5
77
100
AcDbEntity
8
2
62
256
6
ByLayer
370
18
48
1
60
0
100
AcDbPoint
10
546.5
20
0
30
0
39
0
210
0
220
0
230
1
50
360
0
POINT
5
78
100
AcDbEntity
8
2
62
256
6
ByLayer
370
18
48
1
60
0
100
AcDbPoint
10
573
20
-19.899495
30
0
39
0
210
0
220
0
230
1
50
360
0
POINT
5
79
100
AcDbEntity
8
2
62
256
6
ByLayer
370
18
48
1
60
0
100
AcDbPoint
10
553
20
0
30
0
39
0
210
0
220
0
230
1
50
360
0
POINT
5
7A
100
AcDbEntity
8
2
62
256
6
ByLayer
370
18
48
1
60
0
100
AcDbPoint
10
527.5
20
-21
30
0
39
0
210
0
220
0
230
1
50
360
0
POINT
5
7B
100
AcDbEntity
8
2
62
256
6
ByLayer
370
18
48
1
60
0
100
AcDbPoint
10
434.5
20
0
30
0
39
0
210
0
220
0
230
1
50
360
0
POINT
5
7C
100
AcDbEntity
8
2
62
256
6
ByLayer
370
18
48
1
60
0
100
AcDbPoint
10
423.2
20
0
30
0
39
0
210
0
220
0
230
1
50
360
0
POINT
5
7D
100
AcDbEntity
8
2
62
256
6
ByLayer
370
18
48
1
60
0
100
AcDbPoint
10
434
20
0
30
0
39
0
210
0
220
0
230
1
50
360
0
POINT
5
7E
100
AcDbEntity
8
2
62
256
6
ByLayer
370
18
48
1
60
0
100
AcDbPoint
10
428.85
20
0
30
0
39
0
210
0
220
0
230
1
50
360
0
POINT
5
7F
100
AcDbEntity
8
2
62
256
6
ByLayer
370
18
48
1
60
0
100
AcDbPoint
10
428.6
20
0
30
0
39
0
210
0
220
0
230
1
50
360
0
POINT
5
80
100
AcDbEntity
8
2
62
256
6
ByLayer
370
18
48
1
60
0
100
AcDbPoint
10
423.2
20
0
30
0
39
0
210
0
220
0
230
1
50
360
0
POINT
5
81
100
AcDbEntity
8
2
62
256
6
ByLayer
370
18
48
1
60
0
100
AcDbPoint
10
491.5
20
0
30
0
39
0
210
0
220
0
230
1
50
360
0
POINT
5
82
100
AcDbEntity
8
2
62
256
6
ByLayer
370
18
48
1
60
0
100
AcDbPoint
10
553
20
0
30
0
39
0
210
0
220
0
230
1
50
360
0
POINT
5
83
100
AcDbEntity
8
2
62
256
6
ByLayer
370
18
48
1
60
0
100
AcDbPoint
10
430
20
0
30
0
39
0
210
0
220
0
230
1
50
360
0
POINT
5
84
100
AcDbEntity
8
2
62
256
6
ByLayer
370
18
48
1
60
0
100
AcDbPoint
10
453.5
20
-21
30
0
39
0
210
0
220
0
230
1
50
360
0
POINT
5
85
100
AcDbEntity
8
2
62
256
6
ByLayer
370
18
48
1
60
0
100
AcDbPoint
10
546.5
20
0
30
0
39
0
210
0
220
0
230
1
50
360
0
POINT
5
86
100
AcDbEntity
8
2
62
256
6
ByLayer
370
18
48
1
60
0
100
AcDbPoint
10
527.5
20
-21
30
0
39
0
210
0
220
0
230
1
50
360
0
POINT
5
87
100
AcDbEntity
8
2
62
256
6
ByLayer
370
18
48
1
60
0
100
AcDbPoint
10
434.5
20
0
30
0
39
0
210
0
220
0
230
1
50
360
0
POINT
5
88
100
AcDbEntity
8
2
62
256
6
ByLayer
370
18
48
1
60
0
100
AcDbPoint
10
546.5
20
0
30
0
39
0
210
0
220
0
230
1
50
360
0
POINT
5
89
100
AcDbEntity
8
2
62
256
6
ByLayer
370
18
48
1
60
0
100
AcDbPoint
10
434.5
20
0
30
0
39
0
210
0
220
0
230
1
50
360
0
POINT
5
8A
100
AcDbEntity
8
2
62
256
6
ByLayer
370
18
48
1
60
0
100
AcDbPoint
10
541
20
0
30
0
39
0
210
0
220
0
230
1
50
360
0
POINT
5
8B
100
AcDbEntity
8
2
62
256
6
ByLayer
370
18
48
1
60
0
100
AcDbPoint
10
490.5
20
0
30
0
39
0
210
0
220
0
230
1
50
360
0
POINT
5
8C
100
AcDbEntity
8
2
62
256
6
ByLayer
370
18
48
1
60
0
100
AcDbPoint
10
440
20
0
30
0
39
0
210
0
220
0
230
1
50
360
0
POINT
5
8D
100
AcDbEntity
8
2
62
256
6
ByLayer
370
18
48
1
60
0
100
AcDbPoint
10
565.37476
20
-10
30
0
39
0
210
0
220
0
230
1
50
360
0
POINT
5
8E
100
AcDbEntity
8
2
62
256
6
ByLayer
370
18
48
1
60
0
100
AcDbPoint
10
568
20
-10
30
0
39
0
210
0
220
0
230
1
50
360
0
POINT
5
8F
100
AcDbEntity
8
2
62
256
6
ByLayer
370
50
48
1
60
0
100
AcDbPoint
10
547
20
0
30
0
39
0
210
0
220
0
230
1
50
360
0
POINT
5
90
100
AcDbEntity
8
2
62
256
6
ByLayer
370
18
48
1
60
0
100
AcDbPoint
10
546.5
20
0
30
0
39
0
210
0
220
0
230
1
50
360
0
POINT
5
91
100
AcDbEntity
8
2
62
256
6
ByLayer
370
50
48
1
60
0
100
AcDbPoint
10
573
20
0
30
0
39
0
210
0
220
0
230
1
50
360
0
POINT
5
92
100
AcDbEntity
8
2
62
256
6
ByLayer
370
18
48
1
60
0
100
AcDbPoint
10
564
20
0
30
0
39
0
210
0
220
0
230
1
50
360
0
POINT
5
93
100
AcDbEntity
8
2
62
256
6
ByLayer
370
18
48
1
60
0
100
AcDbPoint
10
553
20
0
30
0
39
0
210
0
220
0
230
1
50
360
0
POINT
5
94
100
AcDbEntity
8
2
62
256
6
ByLayer
370
18
48
1
60
0
100
AcDbPoint
10
568
20
-10
30
0
39
0
210
0
220
0
230
1
50
360
0
POINT
5
95
100
AcDbEntity
8
2
62
256
6
ByLayer
370
18
48
1
60
0
100
AcDbPoint
10
564
20
0
30
0
39
0
210
0
220
0
230
1
50
360
0
POINT
5
96
100
AcDbEntity
8
2
62
256
6
ByLayer
370
18
48
1
60
0
100
AcDbPoint
10
537
20
0
30
0
39
0
210
0
220
0
230
1
50
360
0
POINT
5
97
100
AcDbEntity
8
81
62
256
6
ByLayer
370
18
48
1
60
0
100
AcDbPoint
10
568
20
-10
30
0
39
0
210
0
220
0
230
1
50
360
0
POINT
5
99
100
AcDbEntity
8
80
62
256
6
ByLayer
370
18
48
1
60
0
100
AcDbPoint
10
0
20
0
30
0
39
0
210
0
220
0
230
1
50
360
0
POINT
5
9B
100
AcDbEntity
8
1
62
256
6
ByLayer
370
13
48
1
60
1
100
AcDbPoint
10
560.05
20
-19.899495
30
0
39
0
210
0
220
0
230
1
50
360
0
POINT
5
9D
100
AcDbEntity
8
1
62
256
6
ByLayer
370
13
48
1
60
1
100
AcDbPoint
10
574.3
20
-19.899495
30
0
39
0
210
0
220
0
230
1
50
360
0
POINT
5
9E
100
AcDbEntity
8
1
62
256
6
ByLayer
370
13
48
1
60
1
100
AcDbPoint
10
564.244351
20
-10
30
0
39
0
210
0
220
0
230
1
50
360
0
POINT
5
9F
100
AcDbEntity
8
1
62
256
6
ByLayer
370
13
48
1
60
1
100
AcDbPoint
10
569.82476
20
-10
30
0
39
0
210
0
220
0
230
1
50
360
0
POINT
5
A0
100
AcDbEntity
8
1
62
256
6
ByLayer
370
13
48
1
60
1
100
AcDbPoint
10
560.05
20
-0.100505
30
0
39
0
210
0
220
0
230
1
50
360
0
POINT
5
A1
100
AcDbEntity
8
1
62
256
6
ByLayer
370
13
48
1
60
1
100
AcDbPoint
10
574.3
20
-0.100505
30
0
39
0
210
0
220
0
230
1
50
360
0
POINT
5
A2
100
AcDbEntity
8
1
62
256
6
ByLayer
370
13
48
1
60
1
100
AcDbPoint
10
567.52
20
0
30
0
39
0
210
0
220
0
230
1
50
360
0
POINT
5
A3
100
AcDbEntity
8
1
62
256
6
ByLayer
370
13
48
1
60
1
100
AcDbPoint
10
562.7
20
0
30
0
39
0
210
0
220
0
230
1
50
360
0
POINT
5
A4
100
AcDbEntity
8
1
62
256
6
ByLayer
370
18
48
1
60
1
100
AcDbPoint
10
23.4
20
-30
30
0
39
0
210
0
220
0
230
1
50
360
0
POINT
5
A5
100
AcDbEntity
8
1
62
256
6
ByLayer
370
18
48
1
60
1
100
AcDbPoint
10
568
20
30
30
0
39
0
210
0
220
0
230
1
50
360
0
SPLINE
5
177
100
AcDbEntity
8
1
62
256
6
ByLayer
370
18
48
1
60
0
100
AcDbSpline
70
4
71
3
72
30
73
26
40
0
40
0
40
0
40
0
40
0.0625000000000123
40
0.0625000000000123
40
0.0937500000000144
40
0.0937500000000144
40
0.125000000000016
40
0.125000000000016
40
0.250000000000016
40
0.250000000000016
40
0.312500000000016
40
0.312500000000016
40
0.375000000000017
40
0.375000000000017
40
0.437500000000017
40
0.437500000000017
40
0.500000000000018
40
0.500000000000018
40
0.625000000000013
40
0.625000000000013
40
0.750000000000009
40
0.750000000000009
40
0.875000000000004
40
0.875000000000004
40
1
40
1
40
1
40
1
41
1
10
13.4613248654051
20
30.0805927603169
30
0
41
1
10
13.4770644463612
20
30.0805927603169
30
0
41
1
10
13.4925182901835
20
30.0801205034908
30
0
41
1
10
13.5153082123101
20
30.0787652114225
30
0
41
1
10
13.5228395300831
20
30.0782053093477
30
0
41
1
10
13.5377759237479
20
30.0768761478221
30
0
41
1
10
13.5452163817752
20
30.0761022248719
30
0
41
1
10
13.5815263070002
20
30.0717959485601
30
0
41
1
10
13.6079581046675
20
30.0669872793661
30
0
41
1
10
13.6448606867708
20
30.0583172600356
30
0
41
1
10
13.6565013495867
20
30.0552244086802
30
0
41
1
10
13.6786197964871
20
30.0487371057378
30
0
41
1
10
13.6891167538207
20
30.0453372280741
30
0
41
1
10
13.7091749421593
20
30.0382729348065
30
0
41
1
10
13.7187352282342
20
30.0346082702024
30
0
41
1
10
13.737049765874
20
30.0270468182506
30
0
41
1
10
13.7458258793003
20
30.0231382884602
30
0
41
1
10
13.7708221243599
20
30.0112312950129
30
0
41
1
10
13.7858017072526
20
30.0030284643032
30
0
41
1
10
13.8132376332896
20
29.9862010424071
30
0
41
1
10
13.8256849705001
20
29.9775752500985
30
0
41
1
10
13.8485243776492
20
29.9599596837525
30
0
41
1
10
13.8589127955723
20
29.9509694256367
30
0
41
1
10
13.877931786983
20
29.9326601869321
30
0
41
1
10
13.8865409364123
20
29.9233580917139
30
0
41
1
10
13.8943375672973
20
29.9139548464691
30
0
0
SPLINE
5
178
100
AcDbEntity
8
1
62
256
6
ByLayer
370
18
48
1
60
0
100
AcDbSpline
70
4
71
3
72
32
73
28
40
0
40
0
40
0
40
0
40
0.249999999999989
40
0.249999999999989
40
0.374999999999982
40
0.374999999999982
40
0.437499999999979
40
0.437499999999979
40
0.499999999999976
40
0.499999999999976
40
0.624999999999972
40
0.624999999999972
40
0.68749999999997
40
0.68749999999997
40
0.749999999999967
40
0.749999999999967
40
0.812499999999964
40
0.812499999999964
40
0.843749999999966
40
0.843749999999966
40
0.874999999999967
40
0.874999999999967
40
0.93749999999998
40
0.93749999999998
40
0.96874999999999
40
0.96874999999999
40
1
40
1
40
1
40
1
41
1
10
13.8943375672973
20
9.86941261896624
30
0
41
1
10
13.8787501654511
20
9.81243201498808
30
0
41
1
10
13.8600981524863
20
9.75655023082976
30
0
41
1
10
13.8259097308548
20
9.67499387250797
30
0
41
1
10
13.8134681559941
20
9.64819007031207
30
0
41
1
10
13.7928415817069
20
9.60870778228679
30
0
41
1
10
13.785636838674
20
9.59566828989813
30
0
41
1
10
13.7704696456802
20
9.56986960560334
30
0
41
1
10
13.7624961131814
20
9.55709686534374
30
0
41
1
10
13.7374904471463
20
9.51963294536131
30
0
41
1
10
13.7193382950672
20
9.49566900868393
30
0
41
1
10
13.6890397943609
20
9.46183015552276
30
0
41
1
10
13.6784124135705
20
9.45090526429334
30
0
41
1
10
13.656277975813
20
9.43026612350769
30
0
41
1
10
13.6447350068563
20
9.42050719110841
30
0
41
1
10
13.6205171073693
20
9.40232505361263
30
0
41
1
10
13.6078439741679
20
9.3938997220439
30
0
41
1
10
13.5877822000581
20
9.38250456041442
30
0
41
1
10
13.5808872163667
20
9.37890069603395
30
0
41
1
10
13.5669060817703
20
9.37226208194022
30
0
41
1
10
13.5598136368109
20
9.3692206466792
30
0
41
1
10
13.5382117701415
20
9.36098178019489
30
0
41
1
10
13.5233796774591
20
9.35666472180208
30
0
41
1
10
13.5003821923575
20
9.35223451981227
30
0
41
1
10
13.4925919071141
20
9.35110433740232
30
0
41
1
10
13.4770081601071
20
9.34960123302488
30
0
41
1
10
13.4691833484066
20
9.34922131452515
30
0
41
1
10
13.4613248654051
20
9.34922131452515
30
0
0
SPLINE
5
179
100
AcDbEntity
8
1
62
256
6
ByLayer
370
18
48
1
60
0
100
AcDbSpline
70
4
71
3
72
30
73
26
40
0
40
0
40
0
40
0
40
0.0625000000000088
40
0.0625000000000088
40
0.0937500000000104
40
0.0937500000000104
40
0.125000000000012
40
0.125000000000012
40
0.250000000000012
40
0.250000000000012
40
0.312500000000012
40
0.312500000000012
40
0.375000000000011
40
0.375000000000011
40
0.43750000000001
40
0.43750000000001
40
0.500000000000009
40
0.500000000000009
40
0.625000000000007
40
0.625000000000007
40
0.750000000000004
40
0.750000000000004
40
0.875000000000002
40
0.875000000000002
40
1
40
1
40
1
40
1
41
1
10
10.5386751345948
20
9.3492213145251
30
0
41
1
10
10.5229355536388
20
9.3492213145251
30
0
41
1
10
10.5074817098165
20
9.35074113394285
30
0
41
1
10
10.4846917876898
20
9.35509944740028
30
0
41
1
10
10.4771604699169
20
9.35689961322663
30
0
41
1
10
10.462224076252
20
9.36117119765709
30
0
41
1
10
10.4547836182248
20
9.36365758390269
30
0
41
1
10
10.4184736929998
20
9.37748487924961
30
0
41
1
10
10.3920418953325
20
9.39290424748305
30
0
41
1
10
10.3551393132292
20
9.42059748954574
30
0
41
1
10
10.3434986504132
20
9.4304614349042
30
0
41
1
10
10.3213802035128
20
9.45111186483325
30
0
41
1
10
10.3108832461792
20
9.4619157044678
30
0
41
1
10
10.2908250578406
20
9.48431848058806
30
0
41
1
10
10.2812647717658
20
9.4959182257096
30
0
41
1
10
10.262950234126
20
9.51980127252978
30
0
41
1
10
10.2541741206997
20
9.53212142663466
30
0
41
1
10
10.22917787564
20
9.56957065273525
30
0
41
1
10
10.2141982927473
20
9.59526142127663
30
0
41
1
10
10.1867623667103
20
9.64772023935041
30
0
41
1
10
10.1743150294998
20
9.67449223197161
30
0
41
1
10
10.1514756223507
20
9.72890711075632
30
0
41
1
10
10.1410872044276
20
9.75655159685448
30
0
41
1
10
10.1220682130169
20
9.81257982037158
30
0
41
1
10
10.1134590635876
20
9.84091160634017
30
0
41
1
10
10.1056624327026
20
9.86941261896612
30
0
0
SPLINE
5
17A
100
AcDbEntity
8
1
62
256
6
ByLayer
370
18
48
1
60
0
100
AcDbSpline
70
4
71
3
72
32
73
28
40
0
40
0
40
0
40
0
40
0.249999999999996
40
0.249999999999996
40
0.374999999999996
40
0.374999999999996
40
0.437499999999999
40
0.437499999999999
40
0.500000000000003
40
0.500000000000003
40
0.625
40
0.625
40
0.687499999999998
40
0.687499999999998
40
0.749999999999995
40
0.749999999999995
40
0.812499999999993
40
0.812499999999993
40
0.843749999999992
40
0.843749999999992
40
0.87499999999999
40
0.87499999999999
40
0.937499999999996
40
0.937499999999996
40
0.968749999999998
40
0.968749999999998
40
1
40
1
40
1
40
1
41
1
10
10.1056624327026
20
29.9139548464691
30
0
41
1
10
10.1212498345488
20
29.9327542695085
30
0
41
1
10
10.1399018475136
20
29.9510098933135
30
0
41
1
10
10.1740902691451
20
29.977413331973
30
0
41
1
10
10.1865318440058
20
29.9860499646858
30
0
41
1
10
10.207158418293
20
29.9987154022301
30
0
41
1
10
10.214363161326
20
30.0028887514666
30
0
41
1
10
10.2295303543197
20
30.011127587853
30
0
41
1
10
10.2375038868186
20
30.0151973377028
30
0
41
1
10
10.2625095528537
20
30.0271090091071
30
0
41
1
10
10.2806617049328
20
30.0346937657148
30
0
41
1
10
10.310960205639
20
30.0453642012995
30
0
41
1
10
10.3215875864294
20
30.0488020840796
30
0
41
1
10
10.343722024187
20
30.055285688921
30
0
41
1
10
10.3552649931436
20
30.0583455135275
30
0
41
1
10
10.3794828926306
20
30.0640378913834
30
0
41
1
10
10.392156025832
20
30.0666711051738
30
0
41
1
10
10.4122177999419
20
30.0702282001224
30
0
41
1
10
10.4191127836333
20
30.0713523776808
30
0
41
1
10
10.4330939182297
20
30.0734220792404
30
0
41
1
10
10.4401863631891
20
30.0743696982575
30
0
41
1
10
10.4617882298585
20
30.0769355687271
30
0
41
1
10
10.4766203225409
20
30.0782784555614
30
0
41
1
10
10.4996178076424
20
30.0796561130287
30
0
41
1
10
10.5074080928859
20
30.0800074516351
30
0
41
1
10
10.5229918398929
20
30.0804746871261
30
0
41
1
10
10.5308166515934
20
30.080592760317
30
0
41
1
10
10.5386751345948
20
30.080592760317
30
0
0
SPLINE
5
17B
100
AcDbEntity
8
1
62
256
6
ByLayer
370
18
48
1
60
0
100
AcDbSpline
70
4
71
3
72
30
73
26
40
0
40
0
40
0
40
0
40
0.062499999999995
40
0.062499999999995
40
0.0937499999999963
40
0.0937499999999963
40
0.124999999999998
40
0.124999999999998
40
0.250000000000009
40
0.250000000000009
40
0.312500000000009
40
0.312500000000009
40
0.375000000000009
40
0.375000000000009
40
0.437500000000009
40
0.437500000000009
40
0.500000000000008
40
0.500000000000008
40
0.625000000000006
40
0.625000000000006
40
0.750000000000004
40
0.750000000000004
40
0.875000000000002
40
0.875000000000002
40
1
40
1
40
1
40
1
41
1
10
10.5386751345948
20
-30.0805927603169
30
0
41
1
10
10.5229355536388
20
-30.0805927603169
30
0
41
1
10
10.5074817098165
20
-30.0801205034908
30
0
41
1
10
10.4846917876898
20
-30.0787652114226
30
0
41
1
10
10.4771604699168
20
-30.0782053093478
30
0
41
1
10
10.462224076252
20
-30.0768761478221
30
0
41
1
10
10.4547836182248
20
-30.0761022248719
30
0
41
1
10
10.4184736929998
20
-30.0717959485601
30
0
41
1
10
10.3920418953324
20
-30.0669872793661
30
0
41
1
10
10.3551393132292
20
-30.0583172600356
30
0
41
1
10
10.3434986504132
20
-30.0552244086802
30
0
41
1
10
10.3213802035128
20
-30.0487371057379
30
0
41
1
10
10.3108832461792
20
-30.0453372280742
30
0
41
1
10
10.2908250578406
20
-30.0382729348065
30
0
41
1
10
10.2812647717657
20
-30.0346082702025
30
0
41
1
10
10.2629502341259
20
-30.0270468182507
30
0
41
1
10
10.2541741206996
20
-30.0231382884602
30
0
41
1
10
10.22917787564
20
-30.011231295013
30
0
41
1
10
10.2141982927473
20
-30.0030284643033
30
0
41
1
10
10.1867623667103
20
-29.9862010424072
30
0
41
1
10
10.1743150294998
20
-29.9775752500986
30
0
41
1
10
10.1514756223507
20
-29.9599596837525
30
0
41
1
10
10.1410872044276
20
-29.9509694256368
30
0
41
1
10
10.1220682130169
20
-29.9326601869321
30
0
41
1
10
10.1134590635876
20
-29.9233580917139
30
0
41
1
10
10.1056624327026
20
-29.9139548464691
30
0
0
SPLINE
5
17C
100
AcDbEntity
8
1
62
256
6
ByLayer
370
18
48
1
60
0
100
AcDbSpline
70
4
71
3
72
32
73
28
40
0
40
0
40
0
40
0
40
0.250000000000021
40
0.250000000000021
40
0.37500000000003
40
0.37500000000003
40
0.437500000000029
40
0.437500000000029
40
0.500000000000029
40
0.500000000000029
40
0.62500000000002
40
0.62500000000002
40
0.687500000000017
40
0.687500000000017
40
0.750000000000015
40
0.750000000000015
40
0.812500000000013
40
0.812500000000013
40
0.84375000000001
40
0.84375000000001
40
0.875000000000007
40
0.875000000000007
40
0.937500000000003
40
0.937500000000003
40
0.968750000000002
40
0.968750000000002
40
1
40
1
40
1
40
1
41
1
10
10.1056624327026
20
-9.86941261896618
30
0
41
1
10
10.1212498345488
20
-9.81243201498802
30
0
41
1
10
10.1399018475136
20
-9.75655023082965
30
0
41
1
10
10.1740902691451
20
-9.67499387250786
30
0
41
1
10
10.1865318440058
20
-9.64819007031196
30
0
41
1
10
10.207158418293
20
-9.60870778228667
30
0
41
1
10
10.2143631613259
20
-9.59566828989796
30
0
41
1
10
10.2295303543197
20
-9.56986960560317
30
0
41
1
10
10.2375038868186
20
-9.55709686534362
30
0
41
1
10
10.2625095528537
20
-9.5196329453612
30
0
41
1
10
10.2806617049328
20
-9.49566900868382
30
0
41
1
10
10.310960205639
20
-9.46183015552259
30
0
41
1
10
10.3215875864294
20
-9.45090526429323
30
0
41
1
10
10.343722024187
20
-9.43026612350752
30
0
41
1
10
10.3552649931436
20
-9.4205071911083
30
0
41
1
10
10.3794828926306
20
-9.40232505361246
30
0
41
1
10
10.392156025832
20
-9.39389972204373
30
0
41
1
10
10.4122177999419
20
-9.38250456041425
30
0
41
1
10
10.4191127836333
20
-9.37890069603384
30
0
41
1
10
10.4330939182297
20
-9.37226208194011
30
0
41
1
10
10.4401863631891
20
-9.36922064667908
30
0
41
1
10
10.4617882298584
20
-9.36098178019472
30
0
41
1
10
10.4766203225409
20
-9.35666472180196
30
0
41
1
10
10.4996178076424
20
-9.3522345198121
30
0
41
1
10
10.5074080928859
20
-9.35110433740215
30
0
41
1
10
10.5229918398929
20
-9.34960123302471
30
0
41
1
10
10.5308166515934
20
-9.34922131452498
30
0
41
1
10
10.5386751345948
20
-9.34922131452498
30
0
0
SPLINE
5
17D
100
AcDbEntity
8
1
62
256
6
ByLayer
370
18
48
1
60
0
100
AcDbSpline
70
4
71
3
72
30
73
26
40
0
40
0
40
0
40
0
40
0.0624999999999933
40
0.0624999999999933
40
0.0937499999999906
40
0.0937499999999906
40
0.124999999999988
40
0.124999999999988
40
0.249999999999985
40
0.249999999999985
40
0.312499999999986
40
0.312499999999986
40
0.374999999999986
40
0.374999999999986
40
0.437499999999987
40
0.437499999999987
40
0.499999999999987
40
0.499999999999987
40
0.62499999999999
40
0.62499999999999
40
0.749999999999994
40
0.749999999999994
40
0.874999999999997
40
0.874999999999997
40
1
40
1
40
1
40
1
41
1
10
13.4613248654051
20
-9.34922131452521
30
0
41
1
10
13.4770644463612
20
-9.34922131452521
30
0
41
1
10
13.4925182901835
20
-9.35074113394296
30
0
41
1
10
13.5153082123102
20
-9.35509944740039
30
0
41
1
10
13.5228395300831
20
-9.3568996132268
30
0
41
1
10
13.5377759237479
20
-9.3611711976572
30
0
41
1
10
13.5452163817752
20
-9.36365758390281
30
0
41
1
10
13.5815263070002
20
-9.37748487924972
30
0
41
1
10
13.6079581046675
20
-9.39290424748316
30
0
41
1
10
13.6448606867708
20
-9.42059748954586
30
0
41
1
10
13.6565013495867
20
-9.43046143490432
30
0
41
1
10
13.6786197964871
20
-9.45111186483337
30
0
41
1
10
13.6891167538207
20
-9.46191570446791
30
0
41
1
10
13.7091749421593
20
-9.48431848058812
30
0
41
1
10
13.7187352282342
20
-9.49591822570966
30
0
41
1
10
13.737049765874
20
-9.51980127252983
30
0
41
1
10
13.7458258793003
20
-9.53212142663472
30
0
41
1
10
13.7708221243599
20
-9.56957065273531
30
0
41
1
10
13.7858017072526
20
-9.59526142127669
30
0
41
1
10
13.8132376332896
20
-9.64772023935046
30
0
41
1
10
13.8256849705001
20
-9.67449223197173
30
0
41
1
10
13.8485243776492
20
-9.72890711075638
30
0
41
1
10
13.8589127955723
20
-9.75655159685454
30
0
41
1
10
13.877931786983
20
-9.81257982037164
30
0
41
1
10
13.8865409364123
20
-9.84091160634023
30
0
41
1
10
13.8943375672973
20
-9.86941261896618
30
0
0
SPLINE
5
17E
100
AcDbEntity
8
1
62
256
6
ByLayer
370
18
48
1
60
0
100
AcDbSpline
70
4
71
3
72
32
73
28
40
0
40
0
40
0
40
0
40
0.250000000000007
40
0.250000000000007
40
0.375000000000008
40
0.375000000000008
40
0.437500000000008
40
0.437500000000008
40
0.500000000000008
40
0.500000000000008
40
0.625000000000005
40
0.625000000000005
40
0.687500000000003
40
0.687500000000003
40
0.750000000000001
40
0.750000000000001
40
0.812499999999999
40
0.812499999999999
40
0.84375
40
0.84375
40
0.875
40
0.875
40
0.937500000000001
40
0.937500000000001
40
0.96875
40
0.96875
40
1
40
1
40
1
40
1
41
1
10
13.8943375672973
20
-29.9139548464691
30
0
41
1
10
13.8787501654511
20
-29.9327542695084
30
0
41
1
10
13.8600981524863
20
-29.9510098933135
30
0
41
1
10
13.8259097308548
20
-29.977413331973
30
0
41
1
10
13.8134681559941
20
-29.9860499646858
30
0
41
1
10
13.7928415817069
20
-29.9987154022301
30
0
41
1
10
13.785636838674
20
-30.0028887514666
30
0
41
1
10
13.7704696456802
20
-30.011127587853
30
0
41
1
10
13.7624961131814
20
-30.0151973377028
30
0
41
1
10
13.7374904471463
20
-30.0271090091071
30
0
41
1
10
13.7193382950671
20
-30.0346937657148
30
0
41
1
10
13.6890397943609
20
-30.0453642012994
30
0
41
1
10
13.6784124135705
20
-30.0488020840796
30
0
41
1
10
13.656277975813
20
-30.055285688921
30
0
41
1
10
13.6447350068563
20
-30.0583455135275
30
0
41
1
10
13.6205171073693
20
-30.0640378913834
30
0
41
1
10
13.6078439741679
20
-30.0666711051738
30
0
41
1
10
13.587782200058
20
-30.0702282001224
30
0
41
1
10
13.5808872163666
20
-30.0713523776808
30
0
41
1
10
13.5669060817702
20
-30.0734220792403
30
0
41
1
10
13.5598136368109
20
-30.0743696982574
30
0
41
1
10
13.5382117701415
20
-30.076935568727
30
0
41
1
10
13.5233796774591
20
-30.0782784555614
30
0
41
1
10
13.5003821923575
20
-30.0796561130286
30
0
41
1
10
13.492591907114
20
-30.0800074516351
30
0
41
1
10
13.4770081601071
20
-30.080474687126
30
0
41
1
10
13.4691833484066
20
-30.0805927603169
30
0
41
1
10
13.4613248654051
20
-30.0805927603169
30
0
0
SPLINE
5
17F
100
AcDbEntity
8
SK1
62
256
6
ByLayer
370
18
48
1
60
0
100
AcDbSpline
70
4
71
3
72
49
73
45
40
0
40
0
40
0
40
0
40
0.0158785469938576
40
0.0443562686200484
40
0.0728339902462392
40
0.10131171187243
40
0.129789433498621
40
0.158267155124811
40
0.215222598377193
40
0.243700320003384
40
0.272178041629575
40
0.300655763255766
40
0.329133484881956
40
0.357611206508147
40
0.386088928134338
40
0.414566649760529
40
0.428805510573624
40
0.44304437138672
40
0.457283232199815
40
0.47152209301291
40
0.485760953826006
40
0.492880384232554
40
0.499999814639101
40
0.507119245045649
40
0.514238675452197
40
0.528477536265292
40
0.542716397078388
40
0.556955257891483
40
0.571194118704578
40
0.585432979517674
40
0.613910701143865
40
0.642388422770055
40
0.670866144396246
40
0.699343866022437
40
0.727821587648628
40
0.756299309274819
40
0.784777030901009
40
0.841732474153391
40
0.870210195779582
40
0.898687917405773
40
0.927165639031963
40
0.955643360658154
40
0.984121082284345
40
1
40
1
40
1
40
1
41
1
10
-38
20
-20.290042351873
30
0
41
1
10
-38
20
-20.2838644568561
30
0
41
1
10
-38
20
-20.2387507174303
30
0
41
1
10
-38
20
-20.0459066437045
30
0
41
1
10
-38
20
-19.6579362347721
30
0
41
1
10
-38
20
-19.1216505379957
30
0
41
1
10
-38
20
-18.4471799717542
30
0
41
1
10
-38
20
-17.3708466567051
30
0
41
1
10
-38
20
-16.0627718728323
30
0
41
1
10
-38
20
-14.5156181768617
30
0
41
1
10
-38
20
-13.2517907463501
30
0
41
1
10
-38
20
-11.8841222937699
30
0
41
1
10
-38
20
-10.4165562193455
30
0
41
1
10
-38
20
-8.85372672313895
30
0
41
1
10
-38
20
-7.20134092284712
30
0
41
1
10
-38
20
-5.76201911469514
30
0
41
1
10
-38
20
-4.5640765607352
30
0
41
1
10
-38
20
-3.6588458373609
30
0
41
1
10
-38
20
-2.74483905839463
30
0
41
1
10
-38
20
-1.82748828650284
30
0
41
1
10
-38
20
-1.0694776760397
30
0
41
1
10
-38
20
-0.455018198724474
30
0
41
1
10
-38
20
4.514861303E-07
30
0
41
1
10
-38
20
0.455018630552104
30
0
41
1
10
-38
20
1.06947718042704
30
0
41
1
10
-38
20
1.82748862261292
30
0
41
1
10
-38
20
2.74483966025934
30
0
41
1
10
-38
20
3.65884523285217
30
0
41
1
10
-38
20
4.5640768814601
30
0
41
1
10
-38
20
5.76201962732222
30
0
41
1
10
-38
20
7.20134053529
30
0
41
1
10
-38
20
8.85372716578041
30
0
41
1
10
-38
20
10.4165563625368
30
0
41
1
10
-38
20
11.884121927153
30
0
41
1
10
-38
20
13.2517911056129
30
0
41
1
10
-38
20
14.5156182315173
30
0
41
1
10
-38
20
16.0627714181563
30
0
41
1
10
-38
20
17.3708469037194
30
0
41
1
10
-38
20
18.4471796582741
30
0
41
1
10
-38
20
19.121649880576
30
0
41
1
10
-38
20
19.6579364097435
30
0
41
1
10
-38
20
20.0459061788578
30
0
41
1
10
-38
20
20.2387510439769
30
0
41
1
10
-38
20
20.2838649875266
30
0
41
1
10
-38
20
20.290042648516
30
0
0
SPLINE
5
180
100
AcDbEntity
8
SK1
62
256
6
ByLayer
370
18
48
1
60
0
100
AcDbSpline
70
4
71
3
72
36
73
32
40
0
40
0
40
0
40
0
40
0.25
40
0.25
40
0.375
40
0.375
40
0.500000000000001
40
0.500000000000001
40
0.625000000000001
40
0.625000000000001
40
0.687500000000003
40
0.687500000000003
40
0.750000000000004
40
0.750000000000004
40
0.812500000000006
40
0.812500000000006
40
0.843750000000006
40
0.843750000000006
40
0.875000000000005
40
0.875000000000005
40
0.906250000000004
40
0.906250000000004
40
0.921875000000004
40
0.921875000000004
40
0.937500000000003
40
0.937500000000003
40
0.953125000000002
40
0.953125000000002
40
0.968750000000001
40
0.968750000000001
40
1
40
1
40
1
40
1
41
1
10
-0.199999999999989
20
-7.03415845154859
30
0
41
1
10
-0.200331074104724
20
-6.96758473110543
30
0
41
1
10
-0.201942367211274
20
-6.90082001004976
30
0
41
1
10
-0.20709199973129
20
-6.80034067321691
30
0
41
1
10
-0.209269492367326
20
-6.76679198902934
30
0
41
1
10
-0.214824426638131
20
-6.69957126003828
30
0
41
1
10
-0.218199150202423
20
-6.66587124141734
30
0
41
1
10
-0.226629907857131
20
-6.59846295366918
30
0
41
1
10
-0.231660540619799
20
-6.56479252713444
30
0
41
1
10
-0.241214598359505
20
-6.51440591854077
30
0
41
1
10
-0.244745205143772
20
-6.49760452342707
30
0
41
1
10
-0.252727620657907
20
-6.46421416849131
30
0
41
1
10
-0.257169431390366
20
-6.44763062016557
30
0
41
1
10
-0.267439101060688
20
-6.41481626716148
30
0
41
1
10
-0.273236212730893
20
-6.39857720931946
30
0
41
1
10
-0.283833370168821
20
-6.37471397159106
30
0
41
1
10
-0.287711149711299
20
-6.36680567292711
30
0
41
1
10
-0.296343527957532
20
-6.35152953268772
30
0
41
1
10
-0.301085882076308
20
-6.34414232274287
30
0
41
1
10
-0.312078412290077
20
-6.33025774259016
30
0
41
1
10
-0.318222328461644
20
-6.32386838427431
30
0
41
1
10
-0.329057935891058
20
-6.3161933816034
30
0
41
1
10
-0.33285965257511
20
-6.31402544311595
30
0
41
1
10
-0.340958863849067
20
-6.31070772605875
30
0
41
1
10
-0.345208124413205
20
-6.30960458427649
30
0
41
1
10
-0.353689154326105
20
-6.30870360354675
30
0
41
1
10
-0.358037716131321
20
-6.30890123768722
30
0
41
1
10
-0.366345960396416
20
-6.31042877188764
30
0
41
1
10
-0.370395826010139
20
-6.31175696012832
30
0
41
1
10
-0.381850124236109
20
-6.31686284615006
30
0
41
1
10
-0.388651860853344
20
-6.32169800880934
30
0
41
1
10
-0.394913799811292
20
-6.32721828439901
30
0
0
SPLINE
5
181
100
AcDbEntity
8
SK1
62
256
6
ByLayer
370
18
48
1
60
0
100
AcDbSpline
70
4
71
3
72
40
73
36
40
0
40
0
40
0
40
0
40
0.0156250000000007
40
0.0156250000000007
40
0.0312500000000013
40
0.0312500000000013
40
0.046875000000002
40
0.046875000000002
40
0.0625000000000027
40
0.0625000000000027
40
0.0781250000000033
40
0.0781250000000033
40
0.093750000000004
40
0.093750000000004
40
0.109375000000005
40
0.109375000000005
40
0.125000000000005
40
0.125000000000005
40
0.156250000000004
40
0.156250000000004
40
0.187500000000003
40
0.187500000000003
40
0.250000000000003
40
0.250000000000003
40
0.312500000000003
40
0.312500000000003
40
0.375000000000003
40
0.375000000000003
40
0.500000000000002
40
0.500000000000002
40
0.625000000000002
40
0.625000000000002
40
0.750000000000001
40
0.750000000000001
40
1
40
1
40
1
40
1
41
1
10
-0.394913799811292
20
6.32722135061289
30
0
41
1
10
-0.39176836682077
20
6.3244484603357
30
0
41
1
10
-0.388488406577153
20
6.32186168295425
30
0
41
1
10
-0.381566403142074
20
6.31718953975286
30
0
41
1
10
-0.377887007436811
20
6.31508659472502
30
0
41
1
10
-0.370224910817285
20
6.31169706442716
30
0
41
1
10
-0.366254804145285
20
6.31040674643401
30
0
41
1
10
-0.357946478024445
20
6.30889601700255
30
0
41
1
10
-0.353563907701812
20
6.30870335232464
30
0
41
1
10
-0.344995599835215
20
6.30964748810595
30
0
41
1
10
-0.340684924848574
20
6.31079560648988
30
0
41
1
10
-0.332576144960484
20
6.31417396688755
30
0
41
1
10
-0.328692242820864
20
6.31642240799493
30
0
41
1
10
-0.321489218115744
20
6.32159394569874
30
0
41
1
10
-0.318164476683364
20
6.32450219496945
30
0
41
1
10
-0.311908022590444
20
6.33077681434872
30
0
41
1
10
-0.308967085084589
20
6.33416203110187
30
0
41
1
10
-0.300766232707275
20
6.34461234463089
30
0
41
1
10
-0.296040108963893
20
6.35202357617777
30
0
41
1
10
-0.287432431444841
20
6.36735118199215
30
0
41
1
10
-0.283553316434819
20
6.37530507146664
30
0
41
1
10
-0.272955344086086
20
6.39930333387349
30
0
41
1
10
-0.267171029982649
20
6.41559723945676
30
0
41
1
10
-0.256929970956918
20
6.44848157748834
30
0
41
1
10
-0.252505023147847
20
6.46507959466754
30
0
41
1
10
-0.244556108211555
20
6.49847112557597
30
0
41
1
10
-0.241036901726602
20
6.51528035330199
30
0
41
1
10
-0.231491141946236
20
6.56582630636649
30
0
41
1
10
-0.226489017484454
20
6.59947291062446
30
0
41
1
10
-0.218114808322639
20
6.66667162394486
30
0
41
1
10
-0.214764318431065
20
6.70022371848017
30
0
41
1
10
-0.209239354999454
20
6.76723901782145
30
0
41
1
10
-0.207070996832954
20
6.80070221210866
30
0
41
1
10
-0.20194034925126
20
6.90096555412606
30
0
41
1
10
-0.200330815103371
20
6.96763966546087
30
0
41
1
10
-0.199999999999989
20
7.03416121607501
30
0
0
SPLINE
5
182
100
AcDbEntity
8
SK1
62
256
6
ByLayer
370
13
48
1
60
0
100
AcDbSpline
70
4
71
3
72
21
73
17
40
0
40
0
40
0
40
0
40
0.0620686616140792
40
0.130354572612859
40
0.198640483611639
40
0.266926394610419
40
0.335212305609199
40
0.403498216607979
40
0.471784127606759
40
0.608355949604319
40
0.6766418606031
40
0.74492777160188
40
0.81321368260066
40
0.88149959359944
40
0.94978550459822
40
1
40
1
40
1
40
1
41
1
10
-0.394913799811292
20
-6.32721828439901
30
0
41
1
10
-0.394913799811292
20
-6.90653762641449
30
0
41
1
10
-0.394913799811292
20
-8.09321756934105
30
0
41
1
10
-0.394913799811292
20
-9.80498157314139
30
0
41
1
10
-0.394913799811292
20
-11.4638140893219
30
0
41
1
10
-0.394913799811292
20
-13.0147246633634
30
0
41
1
10
-0.394913799811292
20
-14.4558606687731
30
0
41
1
10
-0.394913799811292
20
-15.7849097442956
30
0
41
1
10
-0.394913799811292
20
-17.4047594204778
30
0
41
1
10
-0.394913799811292
20
-18.7870404111632
30
0
41
1
10
-0.394913799811292
20
-19.9145928494951
30
0
41
1
10
-0.394913799811292
20
-20.6247618481558
30
0
41
1
10
-0.394913799811292
20
-21.1908658435729
30
0
41
1
10
-0.394913799811292
20
-21.6019834098091
30
0
41
1
10
-0.394913799811292
20
-21.8217920962233
30
0
41
1
10
-0.394913799811292
20
-21.8658541695372
30
0
41
1
10
-0.394913799811292
20
-21.8654696412017
30
0
0
SPLINE
5
183
100
AcDbEntity
8
SK1
62
256
6
ByLayer
370
18
48
1
60
0
100
AcDbSpline
70
4
71
3
72
51
73
47
40
0
40
0
40
0
40
0
40
0.0312500000000006
40
0.0312500000000006
40
0.0468750000000016
40
0.0468750000000016
40
0.0625000000000026
40
0.0625000000000026
40
0.0781250000000036
40
0.0781250000000036
40
0.0937500000000046
40
0.101562500000005
40
0.101562500000005
40
0.109375000000005
40
0.109375000000005
40
0.125000000000006
40
0.125000000000006
40
0.140625000000007
40
0.140625000000007
40
0.156250000000007
40
0.156250000000007
40
0.171875000000008
40
0.171875000000008
40
0.187500000000009
40
0.187500000000009
40
0.218750000000009
40
0.218750000000009
40
0.25000000000001
40
0.25000000000001
40
0.28125000000001
40
0.28125000000001
40
0.312500000000011
40
0.312500000000011
40
0.375000000000011
40
0.375000000000011
40
0.437500000000011
40
0.437500000000011
40
0.500000000000011
40
0.500000000000011
40
0.625000000000008
40
0.625000000000008
40
0.750000000000006
40
0.750000000000006
40
0.875000000000003
40
0.875000000000003
40
1
40
1
40
1
40
1
41
1
10
-0.394913799811292
20
-6.32721828439901
30
0
41
1
10
-0.411169702827039
20
-6.34154884003175
30
0
41
1
10
-0.428432689769124
20
-6.35475565889095
30
0
41
1
10
-0.456587609313431
20
-6.37205876567259
30
0
41
1
10
-0.466398416496645
20
-6.3774170277411
30
0
41
1
10
-0.486501972755633
20
-6.38684509374406
30
0
41
1
10
-0.496835484302608
20
-6.39094564046627
30
0
41
1
10
-0.518168362769302
20
-6.3976988542467
30
0
41
1
10
-0.529196261060889
20
-6.4003572033352
30
0
41
1
10
-0.551937271601957
20
-6.40390572644714
30
0
41
1
10
-0.569030850267808
20
-6.40516730683925
30
0
41
1
10
-0.586181679144261
20
-6.40431153762216
30
0
41
1
10
-0.597628364481892
20
-6.40326750190815
30
0
41
1
10
-0.603385608753428
20
-6.40250300130214
30
0
41
1
10
-0.620403474265572
20
-6.39954770653128
30
0
41
1
10
-0.631442528804882
20
-6.39670554026134
30
0
41
1
10
-0.652994271508675
20
-6.38952126343975
30
0
41
1
10
-0.6635762300306
20
-6.3851407916427
30
0
41
1
10
-0.6838456211714
20
-6.37529177227788
30
0
41
1
10
-0.693552428201002
20
-6.36983092851585
30
0
41
1
10
-0.712284737644694
20
-6.35805370019307
30
0
41
1
10
-0.721309333004712
20
-6.35173618101936
30
0
41
1
10
-0.738796592350639
20
-6.33839390811318
30
0
41
1
10
-0.747287558608093
20
-6.33134151096425
30
0
41
1
10
-0.771774774816237
20
-6.30953788138896
30
0
41
1
10
-0.786839616984622
20
-6.29414128632044
30
0
41
1
10
-0.815263156517972
20
-6.26217184383671
30
0
41
1
10
-0.82861191461663
20
-6.24559230293653
30
0
41
1
10
-0.854034688294348
20
-6.21154523857422
30
0
41
1
10
-0.866130482320528
20
-6.1940351189366
30
0
41
1
10
-0.889197260559286
20
-6.15850150199265
30
0
41
1
10
-0.90014045687775
20
-6.14052530360527
30
0
41
1
10
-0.931589886782064
20
-6.08609644673811
30
0
41
1
10
-0.950735693127655
20
-6.04915001273997
30
0
41
1
10
-0.986572619190127
20
-5.97432275637721
30
0
41
1
10
-1.00324847625177
20
-5.93643689983452
30
0
41
1
10
-1.03476146769921
20
-5.85992972493545
30
0
41
1
10
-1.04959296411107
20
-5.82130654980756
30
0
41
1
10
-1.09190951976353
20
-5.70451929766091
30
0
41
1
10
-1.11725974479191
20
-5.62540226977166
30
0
41
1
10
-1.1639578554223
20
-5.46549802550044
30
0
41
1
10
-1.18522246232584
20
-5.38492681950902
30
0
41
1
10
-1.22466451933835
20
-5.22271935203617
30
0
41
1
10
-1.2428321325454
20
-5.14108153540843
30
0
41
1
10
-1.27671142477865
20
-4.97683362134603
30
0
41
1
10
-1.29241814186358
20
-4.89422245258601
30
0
41
1
10
-1.30710678118655
20
-4.81115156937966
30
0
0
SPLINE
5
184
100
AcDbEntity
8
SK1
62
256
6
ByLayer
370
18
48
1
60
0
100
AcDbSpline
70
4
71
3
72
51
73
47
40
0
40
0
40
0
40
0
40
0.125000000000003
40
0.125000000000003
40
0.250000000000005
40
0.250000000000005
40
0.375000000000008
40
0.375000000000008
40
0.50000000000001
40
0.50000000000001
40
0.562500000000011
40
0.562500000000011
40
0.625000000000011
40
0.625000000000011
40
0.687500000000011
40
0.687500000000011
40
0.718750000000011
40
0.718750000000011
40
0.75000000000001
40
0.75000000000001
40
0.781250000000009
40
0.781250000000009
40
0.812500000000009
40
0.812500000000009
40
0.828125000000008
40
0.828125000000008
40
0.843750000000008
40
0.843750000000008
40
0.859375000000007
40
0.859375000000007
40
0.875000000000007
40
0.875000000000007
40
0.906250000000005
40
0.906250000000005
40
0.914062500000005
40
0.914062500000005
40
0.921875000000005
40
0.937500000000004
40
0.937500000000004
40
0.953125000000003
40
0.953125000000003
40
0.968750000000002
40
0.968750000000002
40
0.984375000000001
40
0.984375000000001
40
1
40
1
40
1
40
1
41
1
10
-1.30710678118655
20
4.81115177825143
30
0
41
1
10
-1.29243386166999
20
4.894133703916
30
0
41
1
10
-1.27674450029033
20
4.97666000857458
30
0
41
1
10
-1.24290388240135
20
5.14074733501747
30
0
41
1
10
-1.22475757478614
20
5.22230941297437
30
0
41
1
10
-1.18536324259088
20
5.38437609466149
30
0
41
1
10
-1.1641141016691
20
5.46491938757288
30
0
41
1
10
-1.11750013847291
20
5.62462479791714
30
0
41
1
10
-1.09222933922732
20
5.7035489452897
30
0
41
1
10
-1.05003902511504
20
5.82012130347704
30
0
41
1
10
-1.03525413522215
20
5.85867400558868
30
0
41
1
10
-1.00384791181236
20
5.93504366748635
30
0
41
1
10
-0.987232093239811
20
5.97286244830224
30
0
41
1
10
-0.951537336733765
20
6.04756122695227
30
0
41
1
10
-0.932473247849742
20
6.08444613540041
30
0
41
1
10
-0.901177592378616
20
6.13879101734136
30
0
41
1
10
-0.890290953598992
20
6.15674063815601
30
0
41
1
10
-0.867353405011528
20
6.19222552349748
30
0
41
1
10
-0.85525358147396
20
6.20982755187163
30
0
41
1
10
-0.829832017046698
20
6.24404146668815
30
0
41
1
10
-0.816508756328489
20
6.26067183093176
30
0
41
1
10
-0.78822917837428
20
6.29267436431064
30
0
41
1
10
-0.773280793926858
20
6.30805251056449
30
0
41
1
10
-0.749110346030392
20
6.32978409383838
30
0
41
1
10
-0.740759389627414
20
6.33680322085291
30
0
41
1
10
-0.723321143410601
20
6.35028083368093
30
0
41
1
10
-0.714177802118201
20
6.3567747780167
30
0
41
1
10
-0.695263535743464
20
6.36883407140749
30
0
41
1
10
-0.685506727928441
20
6.37439841042163
30
0
41
1
10
-0.665265234159847
20
6.38439885825289
30
0
41
1
10
-0.654728144683787
20
6.38885411254182
30
0
41
1
10
-0.622102468665219
20
6.39998734213981
30
0
41
1
10
-0.59968773121858
20
6.40423336369167
30
0
41
1
10
-0.570661631866017
20
6.40472651279043
30
0
41
1
10
-0.564821683089775
20
6.40457927715812
30
0
41
1
10
-0.553312890967476
20
6.40381092862668
30
0
41
1
10
-0.536205505855378
20
6.40195065166938
30
0
41
1
10
-0.519541799584147
20
6.39807453657346
30
0
41
1
10
-0.497682675631438
20
6.39127312214089
30
0
41
1
10
-0.487153207843107
20
6.38712350886505
30
0
41
1
10
-0.466917648563935
20
6.37769203793539
30
0
41
1
10
-0.457177342303623
20
6.37239779961379
30
0
41
1
10
-0.43831629492334
20
6.3608578974891
30
0
41
1
10
-0.429170091135489
20
6.35459039773457
30
0
41
1
10
-0.411568516590108
20
6.34138290087219
30
0
41
1
10
-0.403103547019441
20
6.33444111034481
30
0
41
1
10
-0.394913799811292
20
6.32722135062522
30
0
0
SPLINE
5
185
100
AcDbEntity
8
SK1
62
256
6
ByLayer
370
13
48
1
60
0
100
AcDbSpline
70
4
71
3
72
21
73
17
40
0
40
0
40
0
40
0
40
0.0502202375980979
40
0.118505742993371
40
0.186791248388644
40
0.255076753783917
40
0.32336225917919
40
0.391647764574463
40
0.528218775365009
40
0.596504280760282
40
0.664789786155555
40
0.733075291550828
40
0.8013607969461
40
0.869646302341373
40
0.937931807736646
40
1
40
1
40
1
40
1
41
1
10
-0.394913799811292
20
21.8654694310283
30
0
41
1
10
-0.394913799811263
20
21.8658585482538
30
0
41
1
10
-0.394913799811292
20
21.8217984968278
30
0
41
1
10
-0.394913799811292
20
21.6019829919256
30
0
41
1
10
-0.394913799811292
20
21.1908660117695
30
0
41
1
10
-0.394913799811292
20
20.6247611340725
30
0
41
1
10
-0.394913799811292
20
19.9145926563567
30
0
41
1
10
-0.394913799811292
20
18.7870406318774
30
0
41
1
10
-0.394913799811292
20
17.4047589502432
30
0
41
1
10
-0.394913799811292
20
15.7849099352292
30
0
41
1
10
-0.394913799811292
20
14.4558608746283
30
0
41
1
10
-0.394913799811292
20
13.014724351229
30
0
41
1
10
-0.394913799811292
20
11.4638144327396
30
0
41
1
10
-0.394913799811292
20
9.80498177095927
30
0
41
1
10
-0.394913799811292
20
8.09321828866484
30
0
41
1
10
-0.394913799811292
20
6.90653972901185
30
0
41
1
10
-0.394913799811292
20
6.32722135061289
30
0
0
SPLINE
5
186
100
AcDbEntity
8
SK1
62
256
6
ByLayer
370
18
48
1
60
0
100
AcDbSpline
70
4
71
3
72
40
73
36
40
0
40
0
40
0
40
0
40
0.125000000000001
40
0.125000000000001
40
0.187500000000001
40
0.187500000000001
40
0.250000000000001
40
0.250000000000001
40
0.312500000000001
40
0.312500000000001
40
0.328125000000001
40
0.328125000000001
40
0.343750000000001
40
0.375
40
0.375
40
0.4375
40
0.4375
40
0.5
40
0.5625
40
0.5625
40
0.625
40
0.625
40
0.640625
40
0.640625
40
0.65625
40
0.65625
40
0.6875
40
0.6875
40
0.75
40
0.75
40
0.8125
40
0.8125
40
0.875
40
0.875
40
1
40
1
40
1
40
1
41
1
10
-1.30710678118655
20
-4.8111515693796
30
0
41
1
10
-1.37464191770107
20
-4.42920989906065
30
0
41
1
10
-1.43848245106358
20
-4.04286538655003
30
0
41
1
10
-1.52581080346147
20
-3.45557094513868
30
0
41
1
10
-1.55350142719044
20
-3.25850341404765
30
0
41
1
10
-1.60546482604906
20
-2.86151288497598
30
0
41
1
10
-1.62973519898719
20
-2.66158901568747
30
0
41
1
10
-1.67414509281366
20
-2.25856982386534
30
0
41
1
10
-1.69427910225542
20
-2.05547235697082
30
0
41
1
10
-1.71638790779505
20
-1.79939862844844
30
0
41
1
10
-1.72065969674747
20
-1.74803956652659
30
0
41
1
10
-1.72887208385961
20
-1.64527687502965
30
0
41
1
10
-1.74069036277351
20
-1.49111947898439
30
0
41
1
10
-1.75097190728465
20
-1.33692150334684
30
0
41
1
10
-1.76938952483024
20
-1.02847005779319
30
0
41
1
10
-1.77881369580271
20
-0.822761881301403
30
0
41
1
10
-1.79137807494828
20
-0.411189125581416
30
0
41
1
10
-1.79754609551321
20
0.0005418097730967
30
0
41
1
10
-1.79135312802683
20
0.412582134739523
30
0
41
1
10
-1.77873477820947
20
0.824781359776068
30
0
41
1
10
-1.76926982289669
20
1.03095952328062
30
0
41
1
10
-1.75383938151629
20
1.28877539719627
30
0
41
1
10
-1.75057294247844
20
1.34034323750103
30
0
41
1
10
-1.74368713518695
20
1.44348814091279
30
0
41
1
10
-1.74006503391183
20
1.4951017046248
30
0
41
1
10
-1.72870229322061
20
1.64966999837918
30
0
41
1
10
-1.72047269473447
20
1.75227000555526
30
0
41
1
10
-1.69395938565037
20
2.05879746438529
30
0
41
1
10
-1.67384597566206
20
2.26145078101035
30
0
41
1
10
-1.629485287899
20
2.66369063393995
30
0
41
1
10
-1.60524340635007
20
2.86327920729121
30
0
41
1
10
-1.5533368167803
20
3.25969288493104
30
0
41
1
10
-1.52567448156807
20
3.45651882726707
30
0
41
1
10
-1.43842306954178
20
4.04321174825219
30
0
41
1
10
-1.374622793295
20
4.42931851789501
30
0
41
1
10
-1.3071067811866
20
4.81115177825131
30
0
0
SPLINE
5
187
100
AcDbEntity
8
SK1
62
256
6
ByLayer
370
13
48
1
60
0
100
AcDbSpline
70
4
71
3
72
49
73
45
40
0
40
0
40
0
40
0
40
0.0205807493418052
40
0.0487850474602137
40
0.0769893455786222
40
0.105193643697031
40
0.133397941815439
40
0.161602239933848
40
0.218010836170665
40
0.246215134289073
40
0.274419432407482
40
0.30262373052589
40
0.330828028644299
40
0.359032326762707
40
0.387236624881116
40
0.415440922999524
40
0.429543072058729
40
0.443645221117933
40
0.457747370177137
40
0.471849519236342
40
0.485951668295546
40
0.493002742825148
40
0.50005381735475
40
0.507104891884352
40
0.514155966413954
40
0.528258115473159
40
0.542360264532363
40
0.556462413591567
40
0.570564562650771
40
0.584666711709976
40
0.612871009828384
40
0.641075307946793
40
0.669279606065201
40
0.69748390418361
40
0.725688202302018
40
0.753892500420427
40
0.782096798538835
40
0.838505394775652
40
0.866709692894061
40
0.894913991012469
40
0.923118289130878
40
0.951322587249286
40
0.979526885367695
40
1
40
1
40
1
40
1
41
1
10
-1.99503997793928
20
21.8252861998355
30
0
41
1
10
-1.99503997793928
20
21.8253762650568
30
0
41
1
10
-1.99503997793928
20
21.7812241930116
30
0
41
1
10
-1.99503997793928
20
21.5622159608079
30
0
41
1
10
-1.99503997793928
20
21.1516905297669
30
0
41
1
10
-1.99503997793928
20
20.5863476884834
30
0
41
1
10
-1.99503997793928
20
19.8770915138249
30
0
41
1
10
-1.99503997793928
20
18.7508484467722
30
0
41
1
10
-1.99503997793928
20
17.370463175446
30
0
41
1
10
-1.99503997793928
20
15.752471971849
30
0
41
1
10
-1.99503997793928
20
14.4250897201646
30
0
41
1
10
-1.99503997793928
20
12.985830725026
30
0
41
1
10
-1.99503997793928
20
11.4370507512064
30
0
41
1
10
-1.99503997793928
20
9.78067154978811
30
0
41
1
10
-1.99503997793928
20
8.01821733349294
30
0
41
1
10
-1.99503997793928
20
6.46319635117561
30
0
41
1
10
-1.99503997793928
20
5.16749918372619
30
0
41
1
10
-1.99503997793928
20
4.17226659327741
30
0
41
1
10
-1.99503997793928
20
3.15436880408231
30
0
41
1
10
-1.99503997793928
20
2.11640247274795
30
0
41
1
10
-1.99503997793928
20
1.23881045451827
30
0
41
1
10
-1.99503997793928
20
0.53126948289281
30
0
41
1
10
-1.99503997793928
20
7.43625606E-08
30
0
41
1
10
-1.99503997793928
20
-0.53126937109505
30
0
41
1
10
-1.99503997793928
20
-1.23881043770962
30
0
41
1
10
-1.99503997793928
20
-2.11640245296422
30
0
41
1
10
-1.99503997793928
20
-3.15436853749509
30
0
41
1
10
-1.99503997793928
20
-4.17226658860136
30
0
41
1
10
-1.99503997793928
20
-5.16749921349111
30
0
41
1
10
-1.99503997793928
20
-6.46319592062628
30
0
41
1
10
-1.99503997793928
20
-8.01821749841287
30
0
41
1
10
-1.99503997793928
20
-9.78067134571353
30
0
41
1
10
-1.99503997793928
20
-11.4370504129058
30
0
41
1
10
-1.99503997793928
20
-12.9858310385527
30
0
41
1
10
-1.99503997793928
20
-14.4250895103889
30
0
41
1
10
-1.99503997793928
20
-15.7524717843982
30
0
41
1
10
-1.99503997793928
20
-17.370463645283
30
0
41
1
10
-1.99503997793928
20
-18.7508482253859
30
0
41
1
10
-1.99503997793928
20
-19.8770917100388
30
0
41
1
10
-1.99503997793928
20
-20.5863484011186
30
0
41
1
10
-1.99503997793928
20
-21.1516903613971
30
0
41
1
10
-1.99503997793928
20
-21.5622163798915
30
0
41
1
10
-1.99503997793928
20
-21.7809187150371
30
0
41
1
10
-1.99503997793928
20
-21.8251810982921
30
0
41
1
10
-1.99503997793931
20
-21.825286149943
30
0
0
SPLINE
5
188
100
AcDbEntity
8
SK1
62
256
6
ByLayer
370
18
48
1
60
0
100
AcDbSpline
70
4
71
3
72
49
73
45
40
0
40
0
40
0
40
0
40
0.0137305735024542
40
0.0423355140162271
40
0.0709404545300001
40
0.0995453950437731
40
0.128150335557546
40
0.156755276071319
40
0.213965157098865
40
0.242570097612638
40
0.271175038126411
40
0.299779978640184
40
0.328384919153957
40
0.35698985966773
40
0.385594800181503
40
0.414199740695276
40
0.428502210952162
40
0.442804681209049
40
0.457107151465935
40
0.471409621722822
40
0.485712091979708
40
0.492863327108152
40
0.500014562236595
40
0.507165797365038
40
0.514317032493481
40
0.528619502750368
40
0.542921973007254
40
0.557224443264141
40
0.571526913521027
40
0.585829383777914
40
0.614434324291687
40
0.64303926480546
40
0.671644205319233
40
0.700249145833006
40
0.728854086346779
40
0.757459026860551
40
0.786063967374324
40
0.84327384840187
40
0.871878788915643
40
0.900483729429416
40
0.929088669943189
40
0.957693610456962
40
0.986298550970735
40
1
40
1
40
1
40
1
41
1
10
-2.19999999999999
20
22.0136843384441
30
0
41
1
10
-2.19999999999999
20
22.0053951723019
30
0
41
1
10
-2.19999999999999
20
21.9555250268772
30
0
41
1
10
-2.19999999999999
20
21.7550269215783
30
0
41
1
10
-2.19999999999999
20
21.3416333570605
30
0
41
1
10
-2.19999999999999
20
20.7725957724454
30
0
41
1
10
-2.19999999999999
20
20.0589162847047
30
0
41
1
10
-2.19999999999999
20
18.9263267207688
30
0
41
1
10
-2.19999999999999
20
17.5367466797247
30
0
41
1
10
-2.19999999999999
20
15.9097478536278
30
0
41
1
10
-2.19999999999999
20
14.5742840575192
30
0
41
1
10
-2.19999999999999
20
13.1259218425112
30
0
41
1
10
-2.19999999999999
20
11.5668148046225
30
0
41
1
10
-2.19999999999999
20
9.89853996914991
30
0
41
1
10
-2.19999999999999
20
8.12208977576529
30
0
41
1
10
-2.19999999999999
20
6.55235660022589
30
0
41
1
10
-2.19999999999999
20
5.24422917335971
30
0
41
1
10
-2.19999999999999
20
4.23755224068407
30
0
41
1
10
-2.19999999999999
20
3.20644372216566
30
0
41
1
10
-2.19999999999999
20
2.15314018801405
30
0
41
1
10
-2.19999999999999
20
1.26034253962155
30
0
41
1
10
-2.19999999999999
20
0.540965390862539
30
0
41
1
10
-2.19999999999999
20
2.64082587E-08
30
0
41
1
10
-2.19999999999999
20
-0.540965319759152
30
0
41
1
10
-2.19999999999999
20
-1.26034245765442
30
0
41
1
10
-2.19999999999999
20
-2.15314020845369
30
0
41
1
10
-2.19999999999999
20
-3.20644349821168
30
0
41
1
10
-2.19999999999999
20
-4.23755215854527
30
0
41
1
10
-2.19999999999999
20
-5.24422924769226
30
0
41
1
10
-2.19999999999999
20
-6.55235618011341
30
0
41
1
10
-2.19999999999999
20
-8.12208991237515
30
0
41
1
10
-2.19999999999999
20
-9.89853979541101
30
0
41
1
10
-2.19999999999999
20
-11.5668144415121
30
0
41
1
10
-2.19999999999999
20
-13.1259221492871
30
0
41
1
10
-2.19999999999999
20
-14.574283866752
30
0
41
1
10
-2.19999999999999
20
-15.909747649291
30
0
41
1
10
-2.19999999999999
20
-17.5367471514895
30
0
41
1
10
-2.19999999999999
20
-18.9263265026412
30
0
41
1
10
-2.19999999999999
20
-20.0589164660072
30
0
41
1
10
-2.19999999999999
20
-20.7725964921017
30
0
41
1
10
-2.19999999999999
20
-21.3416331895302
30
0
41
1
10
-2.19999999999999
20
-21.7550273348429
30
0
41
1
10
-2.19999999999999
20
-21.955443396464
30
0
41
1
10
-2.19999999999999
20
-22.0053267960088
30
0
41
1
10
-2.19999999999999
20
-22.013631661254
30
0
0
SPLINE
5
189
100
AcDbEntity
8
SK1
62
256
6
ByLayer
370
18
48
1
60
0
100
AcDbSpline
70
4
71
3
72
49
73
45
40
0
40
0
40
0
40
0
40
0.02707058553052
40
0.0548899445326209
40
0.0827093035347219
40
0.110528662536823
40
0.138348021538924
40
0.166167380541025
40
0.221806098545227
40
0.249625457547328
40
0.277444816549429
40
0.30526417555153
40
0.33308353455363
40
0.360902893555732
40
0.388722252557832
40
0.416541611559933
40
0.430451291060984
40
0.444360970562034
40
0.458270650063085
40
0.472180329564135
40
0.486090009065186
40
0.493044848815711
40
0.499999688566236
40
0.506954528316761
40
0.513909368067287
40
0.527819047568337
40
0.541728727069388
40
0.555638406570438
40
0.569548086071488
40
0.583457765572539
40
0.61127712457464
40
0.639096483576741
40
0.666915842578842
40
0.694735201580943
40
0.722554560583044
40
0.750373919585145
40
0.778193278587246
40
0.833831996591447
40
0.861651355593549
40
0.88947071459565
40
0.91729007359775
40
0.945109432599852
40
0.972928791601952
40
1
40
1
40
1
40
1
41
1
10
-36.5
20
21.1524573648926
30
0
41
1
10
-36.5
20
21.1689783565626
30
0
41
1
10
-36.5
20
21.134875923279
30
0
41
1
10
-36.5
20
20.9025884164263
30
0
41
1
10
-36.5
20
20.5018751860753
30
0
41
1
10
-36.5
20
19.9491724688865
30
0
41
1
10
-36.5
20
19.2550489357272
30
0
41
1
10
-36.5
20
18.1505179338898
30
0
41
1
10
-36.5
20
16.8015889830236
30
0
41
1
10
-36.5
20
15.2144138486304
30
0
41
1
10
-36.5
20
13.9146794509994
30
0
41
1
10
-36.5
20
12.5065635742002
30
0
41
1
10
-36.5
20
10.9931136245939
30
0
41
1
10
-36.5
20
9.37743069816281
30
0
41
1
10
-36.5
20
7.66285826183417
30
0
41
1
10
-36.5
20
6.15816931379931
30
0
41
1
10
-36.5
20
4.9049974336175
30
0
41
1
10
-36.5
20
3.94891719908253
30
0
41
1
10
-36.5
20
2.97621477071243
30
0
41
1
10
-36.5
20
1.99071870036124
30
0
41
1
10
-36.5
20
1.16514681856438
30
0
41
1
10
-36.5
20
0.49809871324851
30
0
41
1
10
-36.5
20
2.384194886E-07
30
0
41
1
10
-36.5
20
-0.498098462230814
30
0
41
1
10
-36.5
20
-1.16514702467009
30
0
41
1
10
-36.5
20
-1.99071854296869
30
0
41
1
10
-36.5
20
-2.97621435827227
30
0
41
1
10
-36.5
20
-3.94891745941499
30
0
41
1
10
-36.5
20
-4.90499731091177
30
0
41
1
10
-36.5
20
-6.1581688475444
30
0
41
1
10
-36.5
20
-7.66285852360613
30
0
41
1
10
-36.5
20
-9.37743039030653
30
0
41
1
10
-36.5
20
-10.9931133711701
30
0
41
1
10
-36.5
20
-12.5065639108223
30
0
41
1
10
-36.5
20
-13.9146791761936
30
0
41
1
10
-36.5
20
-15.2144137189484
30
0
41
1
10
-36.5
20
-16.8015894462653
30
0
41
1
10
-36.5
20
-18.1505177013548
30
0
41
1
10
-36.5
20
-19.2550491829544
30
0
41
1
10
-36.5
20
-19.9491731575017
30
0
41
1
10
-36.5
20
-20.5018750148337
30
0
41
1
10
-36.5
20
-20.9025888554179
30
0
41
1
10
-36.5
20
-21.1348783844248
30
0
41
1
10
-36.5
20
-21.1689790744875
30
0
41
1
10
-36.5
20
-21.1524563323631
30
0
0
SPLINE
5
18A
100
AcDbEntity
8
1
62
256
6
ByLayer
370
18
48
1
60
0
100
AcDbSpline
70
4
71
3
72
82
73
78
40
0
40
0
40
0
40
0
40
0.0084631898077216
40
0.017031865832451
40
0.0257060820496172
40
0.0344858999088611
40
0.0433713885460608
40
0.0523626249986196
40
0.0614596944243408
40
0.0706626903241728
40
0.0799717147691222
40
0.0893868786316189
40
0.0989083018216137
40
0.108536113527692
40
0.118270452463483
40
0.128111467119655
40
0.138059316021772
40
0.148114167994317
40
0.158276202431165
40
0.168545609572833
40
0.17892259079079
40
0.189407358879188
40
0.200000138354309
40
0.210701165762111
40
0.22151068999421
40
0.232428972612685
40
0.243456288184095
40
0.254592924623107
40
0.265839183546187
40
0.277195380635776
40
0.288661846015429
40
0.300238924636423
40
0.31192697667632
40
0.323726377950059
40
0.335637222945679
40
0.347652007335729
40
0.359767423335246
40
0.371983625059262
40
0.38430077970024
40
0.396719067810891
40
0.409238683594916
40
0.421859835205876
40
0.434582745054901
40
0.447407650127367
40
0.460334802309061
40
0.473364468722368
40
0.486496932072241
40
0.499732491004451
40
0.515332434254057
40
0.531047112024258
40
0.546877091109722
40
0.562822964879724
40
0.578885353945173
40
0.595064906854576
40
0.611362300820416
40
0.627778242477121
40
0.644313468672554
40
0.660968747295035
40
0.677744878136772
40
0.694642693796074
40
0.711663060619716
40
0.728806879691843
40
0.746074736180003
40
0.76345781348962
40
0.780952464425577
40
0.798559437263613
40
0.816279511585645
40
0.834113499115646
40
0.852062244589573
40
0.870126626670359
40
0.888307558904806
40
0.906605990726671
40
0.92502290850851
40
0.943559336663341
40
0.962216338804209
40
0.980994796124946
40
1
40
1
40
1
40
1
41
1
10
566.068166739865
20
-28.7540632158608
30
0
41
1
10
566.068955399123
20
-28.7610201147557
30
0
41
1
10
566.070542547582
20
-28.7750206241712
30
0
41
1
10
566.072803576513
20
-28.7959302554079
30
0
41
1
10
566.074995215249
20
-28.8169309053988
30
0
41
1
10
566.077106667214
20
-28.8379999979081
30
0
41
1
10
566.079139835903
20
-28.8591352424548
30
0
41
1
10
566.081093204993
20
-28.8803287104948
30
0
41
1
10
566.08296623585
20
-28.9015739087588
30
0
41
1
10
566.084758166844
20
-28.9228638491067
30
0
41
1
10
566.086468339896
20
-28.9441915744135
30
0
41
1
10
566.088096110544
20
-28.965550014495
30
0
41
1
10
566.089640871625
20
-28.9869320246277
30
0
41
1
10
566.091102046038
20
-29.0083303741898
30
0
41
1
10
566.092479087995
20
-29.0297377488011
30
0
41
1
10
566.093771482002
20
-29.0511467486843
30
0
41
1
10
566.094978742514
20
-29.0725498879568
30
0
41
1
10
566.096100413463
20
-29.093939593566
30
0
41
1
10
566.097136067866
20
-29.1153082042206
30
0
41
1
10
566.098085307466
20
-29.1366479692167
30
0
41
1
10
566.098947762416
20
-29.1579510471871
30
0
41
1
10
566.099723091006
20
-29.1792095047625
30
0
41
1
10
566.100410979426
20
-29.2004153151462
30
0
41
1
10
566.101011141572
20
-29.2215603565995
30
0
41
1
10
566.101523318904
20
-29.242636410836
30
0
41
1
10
566.101947280331
20
-29.2636351613231
30
0
41
1
10
566.102282822154
20
-29.2845481914856
30
0
41
1
10
566.102529768041
20
-29.3053669828199
30
0
41
1
10
566.102687969082
20
-29.3260829128793
30
0
41
1
10
566.102757303755
20
-29.346687253262
30
0
41
1
10
566.10273767846
20
-29.3671711670925
30
0
41
1
10
566.102629026139
20
-29.3875257079139
30
0
41
1
10
566.102431312374
20
-29.4077418127142
30
0
41
1
10
566.102144515828
20
-29.4278101480241
30
0
41
1
10
566.10176879682
20
-29.4477168145367
30
0
41
1
10
566.101304192085
20
-29.4674463351355
30
0
41
1
10
566.100751098198
20
-29.486983471222
30
0
41
1
10
566.100109954731
20
-29.50631726715
30
0
41
1
10
566.099381169264
20
-29.525438587551
30
0
41
1
10
566.098565182427
20
-29.5443382119736
30
0
41
1
10
566.097662462903
20
-29.5630068369691
30
0
41
1
10
566.096673509409
20
-29.5814350728265
30
0
41
1
10
566.095598850926
20
-29.5996134416187
30
0
41
1
10
566.094439047273
20
-29.6175323748674
30
0
41
1
10
566.093194690436
20
-29.6351822108606
30
0
41
1
10
566.091866402863
20
-29.6525531931958
30
0
41
1
10
566.090454847684
20
-29.669635464128
30
0
41
1
10
566.088875614838
20
-29.6873747604392
30
0
41
1
10
566.087114518131
20
-29.7056741383206
30
0
41
1
10
566.085157545369
20
-29.7244279912497
30
0
41
1
10
566.083095388407
20
-29.7426988078611
30
0
41
1
10
566.080929857854
20
-29.7604731800479
30
0
41
1
10
566.078662794025
20
-29.7777375401126
30
0
41
1
10
566.076296082041
20
-29.7944781462188
30
0
41
1
10
566.073831652105
20
-29.8106810776936
30
0
41
1
10
566.07127148401
20
-29.8263322274093
30
0
41
1
10
566.068617610764
20
-29.8414172946845
30
0
41
1
10
566.06587212273
20
-29.8559217777594
30
0
41
1
10
566.063037171972
20
-29.8698309660858
30
0
41
1
10
566.060114976579
20
-29.8831299324311
30
0
41
1
10
566.057107826387
20
-29.8958035244557
30
0
41
1
10
566.054018105649
20
-29.9078362748457
30
0
41
1
10
566.05084889215
20
-29.9192103441978
30
0
41
1
10
566.047603640202
20
-29.9299073594418
30
0
41
1
10
566.044285999349
20
-29.939909655029
30
0
41
1
10
566.040899152111
20
-29.9492017409378
30
0
41
1
10
566.037446097301
20
-29.9577688217609
30
0
41
1
10
566.033929931489
20
-29.9655958962832
30
0
41
1
10
566.03035385472
20
-29.9726677381212
30
0
41
1
10
566.026721177998
20
-29.978968933051
30
0
41
1
10
566.023035330905
20
-29.9844837007714
30
0
41
1
10
566.019299869204
20
-29.9891965284017
30
0
41
1
10
566.015518485251
20
-29.9930897440709
30
0
41
1
10
566.011695010143
20
-29.9961526205075
30
0
41
1
10
566.007833464761
20
-29.9983470184897
30
0
41
1
10
566.003930756042
20
-29.9997393796081
30
0
41
1
10
566.001315483588
20
-29.9999127796677
30
0
41
1
10
566
20
-30
30
0
0
SPLINE
5
18B
100
AcDbEntity
8
1
62
256
6
ByLayer
370
13
48
1
60
0
100
AcDbSpline
70
4
71
1
72
4
73
2
40
0
40
0
40
1
40
1
41
1
10
565.636333479731
20
-29.0040268797168
30
0
41
1
10
566.068166739865
20
-28.7540632158608
30
0
0
SPLINE
5
18C
100
AcDbEntity
8
1
62
256
6
ByLayer
370
18
48
1
60
0
100
AcDbSpline
70
4
71
3
72
36
73
32
40
0
40
0
40
0
40
0
40
0.0625000000000001
40
0.0625000000000001
40
0.125
40
0.125
40
0.1875
40
0.1875
40
0.25
40
0.25
40
0.3125
40
0.3125
40
0.375
40
0.375
40
0.4375
40
0.4375
40
0.5
40
0.5
40
0.5625
40
0.5625
40
0.625
40
0.625
40
0.6875
40
0.6875
40
0.75
40
0.75
40
0.812500000000001
40
0.812500000000001
40
0.875000000000001
40
0.875000000000001
40
1
40
1
40
1
40
1
41
1
10
567.650480947162
20
-29.6294893682057
30
0
41
1
10
567.643862084188
20
-29.6358650377145
30
0
41
1
10
567.637368158041
20
-29.6420854939392
30
0
41
1
10
567.624658212001
20
-29.6541795144029
30
0
41
1
10
567.618465781099
20
-29.6600302465737
30
0
41
1
10
567.606614451507
20
-29.6711317760501
30
0
41
1
10
567.600930365741
20
-29.6764066912076
30
0
41
1
10
567.590113554064
20
-29.6863246581521
30
0
41
1
10
567.584944456052
20
-29.691000029734
30
0
41
1
10
567.575462300344
20
-29.6994157565418
30
0
41
1
10
567.571165979257
20
-29.7031426233273
30
0
41
1
10
567.563582231134
20
-29.7095025996331
30
0
41
1
10
567.560295493777
20
-29.712131438415
30
0
41
1
10
567.555115656292
20
-29.7159495810421
30
0
41
1
10
567.55318093426
20
-29.7171751733806
30
0
41
1
10
567.550745513604
20
-29.7181286395742
30
0
41
1
10
567.550291079597
20
-29.7178363837949
30
0
41
1
10
567.550812662286
20
-29.7158184071475
30
0
41
1
10
567.551796471514
20
-29.7140793421216
30
0
41
1
10
567.555138387984
20
-29.7092388666698
30
0
41
1
10
567.557446708715
20
-29.7062051495601
30
0
41
1
10
567.563158317433
20
-29.6990846204168
30
0
41
1
10
567.566592406128
20
-29.6949623448436
30
0
41
1
10
567.57432482138
20
-29.6859171291032
30
0
41
1
10
567.578590882068
20
-29.681029982191
30
0
41
1
10
567.587802061849
20
-29.6706380732869
30
0
41
1
10
567.592748132286
20
-29.6651324406481
30
0
41
1
10
567.60325464834
20
-29.6535639456442
30
0
41
1
10
567.608756349684
20
-29.6475660845106
30
0
41
1
10
567.625757992912
20
-29.6291819152152
30
0
41
1
10
567.63781344554
20
-29.616338150569
30
0
41
1
10
567.650480947162
20
-29.6030003410692
30
0
0
SPLINE
5
18D
100
AcDbEntity
8
1
62
256
6
ByLayer
370
18
48
1
60
0
100
AcDbSpline
70
4
71
3
72
8
73
4
40
0
40
0
40
0
40
0
40
1
40
1
40
1
40
1
41
1
10
567.650480947162
20
-29.6030003410692
30
0
41
1
10
567.876008003165
20
-29.3655393957386
30
0
41
1
10
568.100791090601
20
-29.1271433496652
30
0
41
1
10
568.324759526419
20
-28.8877233606912
30
0
0
SPLINE
5
18E
100
AcDbEntity
8
1
62
256
6
ByLayer
370
18
48
1
60
0
100
AcDbSpline
70
4
71
3
72
8
73
4
40
0
40
0
40
0
40
0
40
1
40
1
40
1
40
1
41
1
10
568.324759526419
20
-28.8429985339383
30
0
41
1
10
568.10033706691
20
-29.0525298860216
30
0
41
1
10
567.875567648883
20
-29.2615638584136
30
0
41
1
10
567.650480947162
20
-29.4701429912257
30
0
0
SPLINE
5
18F
100
AcDbEntity
8
1
62
256
6
ByLayer
370
18
48
1
60
0
100
AcDbSpline
70
4
71
3
72
38
73
34
40
0
40
0
40
0
40
0
40
0.0624999999999974
40
0.0624999999999974
40
0.124999999999995
40
0.124999999999995
40
0.187499999999992
40
0.187499999999992
40
0.24999999999999
40
0.24999999999999
40
0.312499999999987
40
0.312499999999987
40
0.374999999999985
40
0.374999999999985
40
0.437499999999982
40
0.437499999999982
40
0.49999999999998
40
0.49999999999998
40
0.531249999999978
40
0.531249999999978
40
0.562499999999977
40
0.562499999999977
40
0.624999999999983
40
0.624999999999983
40
0.687499999999988
40
0.687499999999988
40
0.749999999999993
40
0.749999999999993
40
0.812499999999998
40
0.812499999999998
40
0.875000000000004
40
0.875000000000004
40
1
40
1
40
1
40
1
41
1
10
567.650480947162
20
-29.4701429912257
30
0
41
1
10
567.643726881463
20
-29.4764017224413
30
0
41
1
10
567.637098160743
20
-29.4824675984262
30
0
41
1
10
567.624121587645
20
-29.4941653645858
30
0
41
1
10
567.617742143976
20
-29.4998242703924
30
0
41
1
10
567.605562970484
20
-29.5104136408788
30
0
41
1
10
567.599742695575
20
-29.515363799964
30
0
41
1
10
567.588714807944
20
-29.5244776354345
30
0
41
1
10
567.583471678807
20
-29.5286687146869
30
0
41
1
10
567.573894168183
20
-29.5359672809033
30
0
41
1
10
567.569604727196
20
-29.5390430763004
30
0
41
1
10
567.562140118258
20
-29.5439116287619
30
0
41
1
10
567.558968752714
20
-29.545692521259
30
0
41
1
10
567.55412676766
20
-29.5476893893327
30
0
41
1
10
567.552408786091
20
-29.5479394606953
30
0
41
1
10
567.550449968655
20
-29.5468649480095
30
0
41
1
10
567.550243871428
20
-29.5455532016625
30
0
41
1
10
567.550991933076
20
-29.5425459103022
30
0
41
1
10
567.551417710024
20
-29.5413688368419
30
0
41
1
10
567.552612851189
20
-29.5386745168133
30
0
41
1
10
567.553385026571
20
-29.5371539574101
30
0
41
1
10
567.556141299637
20
-29.5322031740114
30
0
41
1
10
567.558572250333
20
-29.5283601137443
30
0
41
1
10
567.56445428438
20
-29.5197418754224
30
0
41
1
10
567.567937837454
20
-29.5149253101636
30
0
41
1
10
567.575648799551
20
-29.5046892334913
30
0
41
1
10
567.579874304902
20
-29.4992680700743
30
0
41
1
10
567.588959245089
20
-29.4879075907862
30
0
41
1
10
567.593819464948
20
-29.481967630191
30
0
41
1
10
567.604115964568
20
-29.4696181549185
30
0
41
1
10
567.609513235996
20
-29.4632561734392
30
0
41
1
10
567.6261921918
20
-29.4438785061731
30
0
41
1
10
567.638027080278
20
-29.4304881908606
30
0
41
1
10
567.650480947162
20
-29.4166940319327
30
0
0
SPLINE
5
190
100
AcDbEntity
8
1
62
256
6
ByLayer
370
18
48
1
60
0
100
AcDbSpline
70
4
71
3
72
8
73
4
40
0
40
0
40
0
40
0
40
1
40
1
40
1
40
1
41
1
10
567.650480947162
20
-29.4166940319327
30
0
41
1
10
567.876228917632
20
-29.1666509399749
30
0
41
1
10
568.101019214676
20
-28.9154654531765
30
0
41
1
10
568.324759526419
20
-28.6630274540333
30
0
0
SPLINE
5
191
100
AcDbEntity
8
1
62
256
6
ByLayer
370
18
48
1
60
0
100
AcDbSpline
70
4
71
3
72
8
73
4
40
0
40
0
40
0
40
0
40
1
40
1
40
1
40
1
41
1
10
568.324759526419
20
-28.5875252185438
30
0
41
1
10
568.100236859786
20
-28.7895703804292
30
0
41
1
10
567.875470342809
20
-28.991253225173
30
0
41
1
10
567.650480947162
20
-29.1926049128575
30
0
0
SPLINE
5
192
100
AcDbEntity
8
1
62
256
6
ByLayer
370
18
48
1
60
0
100
AcDbSpline
70
4
71
3
72
39
73
35
40
0
40
0
40
0
40
0
40
0.0625000000000107
40
0.0625000000000107
40
0.125000000000021
40
0.125000000000021
40
0.187500000000032
40
0.187500000000032
40
0.250000000000043
40
0.250000000000043
40
0.312500000000053
40
0.312500000000053
40
0.343750000000055
40
0.343750000000055
40
0.375000000000056
40
0.406250000000057
40
0.406250000000057
40
0.437500000000058
40
0.437500000000058
40
0.500000000000052
40
0.500000000000052
40
0.562500000000046
40
0.562500000000046
40
0.62500000000004
40
0.62500000000004
40
0.687500000000034
40
0.687500000000034
40
0.750000000000027
40
0.750000000000027
40
0.812500000000021
40
0.812500000000021
40
0.875000000000015
40
0.875000000000015
40
1
40
1
40
1
40
1
41
1
10
567.650480947162
20
-29.1926049128575
30
0
41
1
10
567.643561481925
20
-29.1987974091714
30
0
41
1
10
567.636760597053
20
-29.2047594560294
30
0
41
1
10
567.623428732479
20
-29.2161568732048
30
0
41
1
10
567.616868043973
20
-29.2216149223431
30
0
41
1
10
567.604372494835
20
-29.2316571174374
30
0
41
1
10
567.598405523108
20
-29.2362705084991
30
0
41
1
10
567.587120780066
20
-29.2445513660951
30
0
41
1
10
567.581757911793
20
-29.248245222261
30
0
41
1
10
567.572161291116
20
-29.2542618829971
30
0
41
1
10
567.567898801765
20
-29.2566113207269
30
0
41
1
10
567.562409953693
20
-29.2590197111092
30
0
41
1
10
567.56074024976
20
-29.2596301418322
30
0
41
1
10
567.557792033825
20
-29.2604382600567
30
0
41
1
10
567.555212844325
20
-29.2608439260314
30
0
41
1
10
567.553367705005
20
-29.2604482498083
30
0
41
1
10
567.551893890274
20
-29.2596468478121
30
0
41
1
10
567.551341802858
20
-29.2590371274925
30
0
41
1
10
567.550274927363
20
-29.2566430276475
30
0
41
1
10
567.550326458122
20
-29.2543028706036
30
0
41
1
10
567.551787967949
20
-29.2482959791915
30
0
41
1
10
567.553220516284
20
-29.2445964956714
30
0
41
1
10
567.557185296634
20
-29.2362910592424
30
0
41
1
10
567.559719213955
20
-29.2316610587576
30
0
41
1
10
567.565737405588
20
-29.2215788782869
30
0
41
1
10
567.569244994022
20
-29.2160956853224
30
0
41
1
10
567.576918114054
20
-29.2046829541805
30
0
41
1
10
567.581098727558
20
-29.1987255135256
30
0
41
1
10
567.590054837743
20
-29.1863774236135
30
0
41
1
10
567.594830979835
20
-29.1799863029414
30
0
41
1
10
567.604926584524
20
-29.1668094826114
30
0
41
1
10
567.61022432905
20
-29.1600533921706
30
0
41
1
10
567.626598565669
20
-29.1395788033848
30
0
41
1
10
567.638226288089
20
-29.1255569553039
30
0
41
1
10
567.650480947162
20
-29.1112111569994
30
0
0
SPLINE
5
193
100
AcDbEntity
8
1
62
256
6
ByLayer
370
18
48
1
60
0
100
AcDbSpline
70
4
71
3
72
8
73
4
40
0
40
0
40
0
40
0
40
1
40
1
40
1
40
1
41
1
10
567.650480947162
20
-29.1112111569994
30
0
41
1
10
567.876507770666
20
-28.8466150387262
30
0
41
1
10
568.101307459449
20
-28.5806365366889
30
0
41
1
10
568.324759526419
20
-28.3131399205598
30
0
0
SPLINE
5
194
100
AcDbEntity
8
1
62
256
6
ByLayer
370
18
48
1
60
0
100
AcDbSpline
70
4
71
3
72
8
73
4
40
0
40
0
40
0
40
0
40
1
40
1
40
1
40
1
41
1
10
568.324759526419
20
-28.2053177327396
30
0
41
1
10
568.100154848045
20
-28.4009956122068
30
0
41
1
10
567.875390693943
20
-28.5964289589472
30
0
41
1
10
567.650480947162
20
-28.7916390605853
30
0
0
SPLINE
5
195
100
AcDbEntity
8
1
62
256
6
ByLayer
370
18
48
1
60
0
100
AcDbSpline
70
4
71
3
72
32
73
28
40
0
40
0
40
0
40
0
40
0.125000000000004
40
0.125000000000004
40
0.1875
40
0.1875
40
0.249999999999996
40
0.249999999999996
40
0.312499999999993
40
0.312499999999993
40
0.374999999999989
40
0.374999999999989
40
0.437499999999985
40
0.437499999999985
40
0.499999999999981
40
0.499999999999981
40
0.562499999999977
40
0.562499999999977
40
0.624999999999974
40
0.624999999999974
40
0.749999999999966
40
0.749999999999966
40
0.812499999999971
40
0.812499999999971
40
0.874999999999975
40
0.874999999999975
40
1
40
1
40
1
40
1
41
1
10
567.650480947162
20
-28.7916390605853
30
0
41
1
10
567.636218452344
20
-28.8040181731087
30
0
41
1
10
567.622240264368
20
-28.8154173152047
30
0
41
1
10
567.602992291188
20
-28.8296153042808
30
0
41
1
10
567.596826112669
20
-28.8338945401532
30
0
41
1
10
567.585150324815
20
-28.8413094412335
30
0
41
1
10
567.579802545074
20
-28.8443419283293
30
0
41
1
10
567.570193548697
20
-28.8489058516384
30
0
41
1
10
567.565917359672
20
-28.8504253367856
30
0
41
1
10
567.558961483899
20
-28.8516753986743
30
0
41
1
10
567.556219248358
20
-28.8514436933257
30
0
41
1
10
567.552246458667
20
-28.8492156646211
30
0
41
1
10
567.551085390741
20
-28.847251677175
30
0
41
1
10
567.550241537347
20
-28.8418614194536
30
0
41
1
10
567.550569080283
20
-28.838382972767
30
0
41
1
10
567.552511726574
20
-28.8303344171844
30
0
41
1
10
567.554109567751
20
-28.8257708187554
30
0
41
1
10
567.558360917358
20
-28.8157342041928
30
0
41
1
10
567.56103952816
20
-28.8102189029186
30
0
41
1
10
567.570274220005
20
-28.7928579231843
30
0
41
1
10
567.578003306719
20
-28.7801749967736
30
0
41
1
10
567.591401058081
20
-28.7598818429372
30
0
41
1
10
567.59613953536
20
-28.7529552766058
30
0
41
1
10
567.605993559771
20
-28.7389641660187
30
0
41
1
10
567.611125160039
20
-28.7318756087926
30
0
41
1
10
567.627074672477
20
-28.7103590621003
30
0
41
1
10
567.638441494712
20
-28.6956828090524
30
0
41
1
10
567.650480947162
20
-28.6807059996444
30
0
0
SPLINE
5
196
100
AcDbEntity
8
1
62
256
6
ByLayer
370
18
48
1
60
0
100
AcDbSpline
70
4
71
3
72
8
73
4
40
0
40
0
40
0
40
0
40
1
40
1
40
1
40
1
41
1
10
567.650480947162
20
-28.6807059996444
30
0
41
1
10
567.876866272618
20
-28.3990877212198
30
0
41
1
10
568.101678442285
20
-28.1158055554848
30
0
41
1
10
568.324759526419
20
-27.8306924641193
30
0
0
SPLINE
5
197
100
AcDbEntity
8
1
62
256
6
ByLayer
370
18
48
1
60
0
100
AcDbSpline
70
4
71
3
72
8
73
4
40
0
40
0
40
0
40
0
40
1
40
1
40
1
40
1
41
1
10
568.324759526419
20
-27.6881625317612
30
0
41
1
10
568.100089025132
20
-27.8786205059025
30
0
41
1
10
567.875326782245
20
-28.0689340213256
30
0
41
1
10
567.650480947162
20
-28.2591159102949
30
0
0
SPLINE
5
198
100
AcDbEntity
8
1
62
256
6
ByLayer
370
18
48
1
60
0
100
AcDbSpline
70
4
71
3
72
41
73
37
40
0
40
0
40
0
40
0
40
0.0625000000000054
40
0.0625000000000054
40
0.125000000000011
40
0.125000000000011
40
0.156250000000013
40
0.156250000000013
40
0.187500000000015
40
0.187500000000015
40
0.250000000000012
40
0.250000000000012
40
0.281250000000012
40
0.281250000000012
40
0.312500000000011
40
0.343750000000011
40
0.343750000000011
40
0.37500000000001
40
0.37500000000001
40
0.437500000000009
40
0.437500000000009
40
0.468750000000011
40
0.468750000000011
40
0.500000000000013
40
0.500000000000013
40
0.562500000000007
40
0.562500000000007
40
0.625000000000001
40
0.625000000000001
40
0.687499999999995
40
0.687499999999995
40
0.749999999999989
40
0.749999999999989
40
0.874999999999995
40
0.874999999999995
40
1
40
1
40
1
40
1
41
1
10
567.650480947162
20
-28.2591159102949
30
0
41
1
10
567.64312067197
20
-28.2653414694157
30
0
41
1
10
567.635804695087
20
-28.2712773588523
30
0
41
1
10
567.621558337367
20
-28.2822363602348
30
0
41
1
10
567.614658110684
20
-28.2872398905797
30
0
41
1
10
567.604698216193
20
-28.2939087063814
30
0
41
1
10
567.601443651369
20
-28.2959915195195
30
0
41
1
10
567.595080260982
20
-28.2998442241153
30
0
41
1
10
567.591968194618
20
-28.3016142220467
30
0
41
1
10
567.583076629913
20
-28.3062945367747
30
0
41
1
10
567.577668862641
20
-28.3086246746206
30
0
41
1
10
567.570442806861
20
-28.3107695863595
30
0
41
1
10
567.568202442333
20
-28.3112498316741
30
0
41
1
10
567.564140466581
20
-28.3117249114427
30
0
41
1
10
567.560469601455
20
-28.3117232880414
30
0
41
1
10
567.557572696077
20
-28.3107769709441
30
0
41
1
10
567.555065784551
20
-28.3093539638441
30
0
41
1
10
567.554012412702
20
-28.3084010300546
30
0
41
1
10
567.551498718449
20
-28.3049318251667
30
0
41
1
10
567.550641696581
20
-28.3017928744914
30
0
41
1
10
567.550431296051
20
-28.2959971988531
30
0
41
1
10
567.550543891767
20
-28.2938771195671
30
0
41
1
10
567.551097439142
20
-28.2893835606951
30
0
41
1
10
567.55153724686
20
-28.2870008336845
30
0
41
1
10
567.553295887259
20
-28.2794861044503
30
0
41
1
10
567.555051097323
20
-28.2739898973757
30
0
41
1
10
567.559557801758
20
-28.2621650826893
30
0
41
1
10
567.562301249488
20
-28.2558684256211
30
0
41
1
10
567.568507240897
20
-28.2428591198074
30
0
41
1
10
567.571983861287
20
-28.236110933697
30
0
41
1
10
567.579584891849
20
-28.2221925717865
30
0
41
1
10
567.583728003621
20
-28.2149922619385
30
0
41
1
10
567.59691541842
20
-28.1930284474522
30
0
41
1
10
567.606613261902
20
-28.1780492255824
30
0
41
1
10
567.627467863824
20
-28.1475539976571
30
0
41
1
10
567.638630045339
20
-28.1320359563952
30
0
41
1
10
567.650480947162
20
-28.1162678662819
30
0
0
SPLINE
5
199
100
AcDbEntity
8
1
62
256
6
ByLayer
370
18
48
1
60
0
100
AcDbSpline
70
4
71
3
72
8
73
4
40
0
40
0
40
0
40
0
40
1
40
1
40
1
40
1
41
1
10
567.650480947162
20
-28.1162678662819
30
0
41
1
10
567.877337890168
20
-27.8144257977413
30
0
41
1
10
568.102167049584
20
-27.5105841760994
30
0
41
1
10
568.324759526419
20
-27.204537010626
30
0
0
SPLINE
5
19A
100
AcDbEntity
8
1
62
256
6
ByLayer
370
18
48
1
60
0
100
AcDbSpline
70
4
71
3
72
8
73
4
40
0
40
0
40
0
40
0
40
1
40
1
40
1
40
1
41
1
10
568.324759526419
20
-27.0237655573026
30
0
41
1
10
568.100039125586
20
-27.2102687278776
30
0
41
1
10
567.875278354979
20
-27.3967070563409
30
0
41
1
10
567.650480947162
20
-27.5830864488535
30
0
0
SPLINE
5
19B
100
AcDbEntity
8
1
62
256
6
ByLayer
370
18
48
1
60
0
100
AcDbSpline
70
4
71
3
72
39
73
35
40
0
40
0
40
0
40
0
40
0.0625000000000091
40
0.0625000000000091
40
0.125000000000018
40
0.125000000000018
40
0.187500000000027
40
0.187500000000027
40
0.218750000000029
40
0.218750000000029
40
0.250000000000031
40
0.250000000000031
40
0.312500000000026
40
0.312500000000026
40
0.343750000000025
40
0.343750000000025
40
0.375000000000024
40
0.406250000000023
40
0.406250000000023
40
0.437500000000021
40
0.437500000000021
40
0.500000000000019
40
0.500000000000019
40
0.562500000000016
40
0.562500000000016
40
0.625000000000014
40
0.625000000000014
40
0.687500000000011
40
0.687500000000011
40
0.750000000000008
40
0.750000000000008
40
0.875000000000004
40
0.875000000000004
40
1
40
1
40
1
40
1
41
1
10
567.650480947162
20
-27.5830864488535
30
0
41
1
10
567.642848465984
20
-27.589414534302
30
0
41
1
10
567.635230044314
20
-27.59539066175
30
0
41
1
10
567.620434193986
20
-27.6061779599126
30
0
41
1
10
567.613255140464
20
-27.6109974845249
30
0
41
1
10
567.599425158374
20
-27.6192459915887
30
0
41
1
10
567.592745263725
20
-27.6226722784097
30
0
41
1
10
567.583692680945
20
-27.6262998168289
30
0
41
1
10
567.580816760607
20
-27.6272697003245
30
0
41
1
10
567.575367399923
20
-27.6286973789872
30
0
41
1
10
567.572783455345
20
-27.6291527982104
30
0
41
1
10
567.565725370173
20
-27.6296830301391
30
0
41
1
10
567.561864611698
20
-27.6289563432164
30
0
41
1
10
567.557292459269
20
-27.6263023228391
30
0
41
1
10
567.555968736541
20
-27.6251453113987
30
0
41
1
10
567.553784251942
20
-27.6223872509873
30
0
41
1
10
567.552040779151
20
-27.6191809187843
30
0
41
1
10
567.551098579189
20
-27.6151589316096
30
0
41
1
10
567.550528264205
20
-27.6107578663772
30
0
41
1
10
567.550430700683
20
-27.6083568813502
30
0
41
1
10
567.550654051541
20
-27.6007652352952
30
0
41
1
10
567.551475794025
20
-27.5951597496355
30
0
41
1
10
567.554198267888
20
-27.5830737854475
30
0
41
1
10
567.556114381686
20
-27.5765557654383
30
0
41
1
10
567.560823333971
20
-27.5629298211241
30
0
41
1
10
567.563597798464
20
-27.5558628914158
30
0
41
1
10
567.569844713144
20
-27.5413066108043
30
0
41
1
10
567.573318283136
20
-27.5338165910066
30
0
41
1
10
567.580882685559
20
-27.5184630726735
30
0
41
1
10
567.584984596991
20
-27.5105829559677
30
0
41
1
10
567.597909096523
20
-27.4868430027664
30
0
41
1
10
567.60740422431
20
-27.4707518266123
30
0
41
1
10
567.627855969026
20
-27.4381338925007
30
0
41
1
10
567.638816630046
20
-27.4216059035293
30
0
41
1
10
567.650480947162
20
-27.4048713342158
30
0
0
SPLINE
5
19C
100
AcDbEntity
8
1
62
256
6
ByLayer
370
18
48
1
60
0
100
AcDbSpline
70
4
71
3
72
8
73
4
40
0
40
0
40
0
40
0
40
1
40
1
40
1
40
1
41
1
10
567.650480947162
20
-27.4048713342158
30
0
41
1
10
567.87797677687
20
-27.0784874839773
30
0
41
1
10
568.10282976625
20
-26.7496954266907
30
0
41
1
10
568.324759526419
20
-26.4182396666025
30
0
0
SPLINE
5
19D
100
AcDbEntity
8
1
62
256
6
ByLayer
370
18
48
1
60
0
100
AcDbSpline
70
4
71
3
72
8
73
4
40
0
40
0
40
0
40
0
40
1
40
1
40
1
40
1
41
1
10
568.324759526419
20
-26.1940141333149
30
0
41
1
10
568.100007511727
20
-26.3780816494067
30
0
41
1
10
567.875247737629
20
-26.562136533403
30
0
41
1
10
567.650480947162
20
-26.746179991572
30
0
0
SPLINE
5
19E
100
AcDbEntity
8
1
62
256
6
ByLayer
370
18
48
1
60
0
100
AcDbSpline
70
4
71
3
72
39
73
35
40
0
40
0
40
0
40
0
40
0.0625000000000137
40
0.0625000000000137
40
0.125000000000027
40
0.125000000000027
40
0.156250000000031
40
0.156250000000031
40
0.187500000000034
40
0.187500000000034
40
0.218750000000038
40
0.218750000000038
40
0.250000000000042
40
0.281250000000045
40
0.281250000000045
40
0.312500000000049
40
0.312500000000049
40
0.375000000000047
40
0.375000000000047
40
0.406250000000046
40
0.406250000000046
40
0.437500000000045
40
0.437500000000045
40
0.500000000000035
40
0.500000000000035
40
0.562500000000025
40
0.562500000000025
40
0.625000000000015
40
0.625000000000015
40
0.75000000000001
40
0.75000000000001
40
0.875000000000005
40
0.875000000000005
40
1
40
1
40
1
40
1
41
1
10
567.650480947162
20
-26.746179991572
30
0
41
1
10
567.642517355019
20
-26.752700737072
30
0
41
1
10
567.63453440989
20
-26.7587815916506
30
0
41
1
10
567.619042460543
20
-26.7694623151672
30
0
41
1
10
567.611511726718
20
-26.7740895951821
30
0
41
1
10
567.600621370502
20
-26.7796806806255
30
0
41
1
10
567.597061556649
20
-26.7813124621372
30
0
41
1
10
567.590290341915
20
-26.7839856794466
30
0
41
1
10
567.587053841966
20
-26.785040919009
30
0
41
1
10
567.58089623758
20
-26.7865551188073
30
0
41
1
10
567.577954952722
20
-26.787014546724
30
0
41
1
10
567.572512587958
20
-26.7872842763289
30
0
41
1
10
567.567547360096
20
-26.7869135499842
30
0
41
1
10
567.56348717482
20
-26.7853258627772
30
0
41
1
10
567.559865561372
20
-26.7831473720263
30
0
41
1
10
567.558264729514
20
-26.7817488018322
30
0
41
1
10
567.554196953588
20
-26.7767917693807
30
0
41
1
10
567.552440567205
20
-26.772507925753
30
0
41
1
10
567.550959029724
20
-26.7648963564557
30
0
41
1
10
567.550660070545
20
-26.7621461067255
30
0
41
1
10
567.550422720308
20
-26.7563820754731
30
0
41
1
10
567.550481076441
20
-26.7533611718062
30
0
41
1
10
567.551119474506
20
-26.7439343578544
30
0
41
1
10
567.552159177103
20
-26.7371671874764
30
0
41
1
10
567.555239798449
20
-26.7228437690711
30
0
41
1
10
567.557290439547
20
-26.7152746972403
30
0
41
1
10
567.562146245543
20
-26.6997853492488
30
0
41
1
10
567.564959968858
20
-26.6918233983906
30
0
41
1
10
567.574383518436
20
-26.6673835167661
30
0
41
1
10
567.582020418222
20
-26.650262691224
30
0
41
1
10
567.598905986321
20
-26.6158494363718
30
0
41
1
10
567.608200334979
20
-26.598435293484
30
0
41
1
10
567.628249215424
20
-26.5632547901681
30
0
41
1
10
567.639006636006
20
-26.5454877152687
30
0
41
1
10
567.650480947162
20
-26.5275506630092
30
0
0
SPLINE
5
19F
100
AcDbEntity
8
1
62
256
6
ByLayer
370
18
48
1
60
0
100
AcDbSpline
70
4
71
3
72
8
73
4
40
0
40
0
40
0
40
0
40
1
40
1
40
1
40
1
41
1
10
567.650480947162
20
-26.5275506630092
30
0
41
1
10
567.878876276632
20
-26.1705149416585
30
0
41
1
10
568.103764009202
20
-25.8105598495161
30
0
41
1
10
568.324759526419
20
-25.4473652688736
30
0
0
SPLINE
5
1A0
100
AcDbEntity
8
1
62
256
6
ByLayer
370
18
48
1
60
0
100
AcDbSpline
70
4
71
3
72
8
73
4
40
0
40
0
40
0
40
0
40
1
40
1
40
1
40
1
41
1
10
568.324759526419
20
-25.1718025873659
30
0
41
1
10
568.10000187134
20
-25.3554472734958
30
0
41
1
10
567.875242279349
20
-25.5390887989485
30
0
41
1
10
567.650480947162
20
-25.7227274845174
30
0
0
SPLINE
5
1A1
100
AcDbEntity
8
1
62
256
6
ByLayer
370
18
48
1
60
0
100
AcDbSpline
70
4
71
3
72
38
73
34
40
0
40
0
40
0
40
0
40
0.0624999999999972
40
0.0624999999999972
40
0.0937499999999983
40
0.0937499999999983
40
0.124999999999999
40
0.124999999999999
40
0.187500000000005
40
0.187500000000005
40
0.250000000000011
40
0.250000000000011
40
0.281250000000015
40
0.281250000000015
40
0.31250000000002
40
0.31250000000002
40
0.375000000000021
40
0.375000000000021
40
0.437500000000021
40
0.437500000000021
40
0.500000000000023
40
0.500000000000023
40
0.562500000000024
40
0.562500000000024
40
0.625000000000024
40
0.625000000000024
40
0.687500000000025
40
0.687500000000025
40
0.750000000000026
40
0.750000000000026
40
0.875000000000013
40
0.875000000000013
40
1
40
1
40
1
40
1
41
1
10
567.650480947162
20
-25.7227274845174
30
0
41
1
10
567.642084189611
20
-25.7295879596027
30
0
41
1
10
567.633635577278
20
-25.7358730778346
30
0
41
1
10
567.621331349082
20
-25.7438542779431
30
0
41
1
10
567.617278610407
20
-25.7462841546202
30
0
41
1
10
567.609284196945
20
-25.7506167225567
30
0
41
1
10
567.605312533919
20
-25.7525309641126
30
0
41
1
10
567.59384949108
20
-25.7572404234738
30
0
41
1
10
567.586793021272
20
-25.7590261770072
30
0
41
1
10
567.574217814694
20
-25.7594741859468
30
0
41
1
10
567.568995280752
20
-25.7581391109119
30
0
41
1
10
567.562595860953
20
-25.7540283498169
30
0
41
1
10
567.560701051961
20
-25.7522911875497
30
0
41
1
10
567.557471003325
20
-25.7482678595016
30
0
41
1
10
567.556116901746
20
-25.7459736675127
30
0
41
1
10
567.552741344183
20
-25.7383459141707
30
0
41
1
10
567.551412871276
20
-25.7322137165055
30
0
41
1
10
567.550260898918
20
-25.7189622551589
30
0
41
1
10
567.550404629695
20
-25.7117851145455
30
0
41
1
10
567.551786707426
20
-25.6965886813014
30
0
41
1
10
567.55302900844
20
-25.6885664010888
30
0
41
1
10
567.556428844899
20
-25.6718153503687
30
0
41
1
10
567.558575785074
20
-25.6631531994731
30
0
41
1
10
567.563557184201
20
-25.6455384394753
30
0
41
1
10
567.566399025425
20
-25.6365545230316
30
0
41
1
10
567.5726862554
20
-25.6182825742094
30
0
41
1
10
567.576143791446
20
-25.6089656304771
30
0
41
1
10
567.58354639268
20
-25.5902008455657
30
0
41
1
10
567.587481021919
20
-25.5807754721038
30
0
41
1
10
567.599905559109
20
-25.5523851374537
30
0
41
1
10
567.609009839549
20
-25.5333070438349
30
0
41
1
10
567.628661740995
20
-25.4948880043345
30
0
41
1
10
567.639211392285
20
-25.4755466757466
30
0
41
1
10
567.650480947162
20
-25.4560769820827
30
0
0
SPLINE
5
1A2
100
AcDbEntity
8
1
62
256
6
ByLayer
370
18
48
1
60
0
100
AcDbSpline
70
4
71
3
72
8
73
4
40
0
40
0
40
0
40
0
40
1
40
1
40
1
40
1
41
1
10
567.650480947162
20
-25.4560769820827
30
0
41
1
10
567.880211532645
20
-25.0591860512804
30
0
41
1
10
568.105152654041
20
-24.6587123242204
30
0
41
1
10
568.324759526419
20
-24.2542482702527
30
0
0
SPLINE
5
1A3
100
AcDbEntity
8
1
62
256
6
ByLayer
370
18
48
1
60
0
100
AcDbSpline
70
4
71
3
72
8
73
4
40
0
40
0
40
0
40
0
40
1
40
1
40
1
40
1
41
1
10
568.324759526419
20
-23.9147796874403
30
0
41
1
10
568.10004293855
20
-24.1009918745286
30
0
41
1
10
567.87528177088
20
-24.2871322907612
30
0
41
1
10
567.650480947162
20
-24.4732088630914
30
0
0
SPLINE
5
1A4
100
AcDbEntity
8
1
62
256
6
ByLayer
370
18
48
1
60
0
100
AcDbSpline
70
4
71
3
72
34
73
30
40
0
40
0
40
0
40
0
40
0.0625000000000049
40
0.0625000000000049
40
0.093750000000008
40
0.093750000000008
40
0.125000000000011
40
0.125000000000011
40
0.187500000000014
40
0.187500000000014
40
0.250000000000018
40
0.250000000000018
40
0.281250000000016
40
0.281250000000016
40
0.312500000000013
40
0.312500000000013
40
0.375000000000012
40
0.375000000000012
40
0.437500000000011
40
0.437500000000011
40
0.50000000000001
40
0.50000000000001
40
0.625000000000008
40
0.625000000000008
40
0.750000000000005
40
0.750000000000005
40
0.875000000000003
40
0.875000000000003
40
1
40
1
40
1
40
1
41
1
10
567.650480947162
20
-24.4732088630923
30
0
41
1
10
567.641610746045
20
-24.4805510809384
30
0
41
1
10
567.632717594853
20
-24.4870974260139
30
0
41
1
10
567.619328414583
20
-24.4952053949897
30
0
41
1
10
567.614948765932
20
-24.4975617119472
30
0
41
1
10
567.606376490095
20
-24.5014961459086
30
0
41
1
10
567.602156895126
20
-24.5030818509566
30
0
41
1
10
567.590005767027
20
-24.5064329261962
30
0
41
1
10
567.582819857639
20
-24.50675740049
30
0
41
1
10
567.570335823892
20
-24.5034485559455
30
0
41
1
10
567.565449926247
20
-24.4999293623084
30
0
41
1
10
567.559738856258
20
-24.4925438009568
30
0
41
1
10
567.558096977763
20
-24.4897010183205
30
0
41
1
10
567.555363676397
20
-24.4835186121857
30
0
41
1
10
567.554261456695
20
-24.4801742613041
30
0
41
1
10
567.551618606382
20
-24.4695040698853
30
0
41
1
10
567.55074024509
20
-24.4614886218093
30
0
41
1
10
567.550322100162
20
-24.4446421416498
30
0
41
1
10
567.550767880496
20
-24.4357693456112
30
0
41
1
10
567.552650600946
20
-24.4173396015764
30
0
41
1
10
567.554097560382
20
-24.407748304117
30
0
41
1
10
567.559624326733
20
-24.3783622980697
30
0
41
1
10
567.564840271178
20
-24.3580458003157
30
0
41
1
10
567.57746663017
20
-24.3164151731891
30
0
41
1
10
567.584781622077
20
-24.2954445124742
30
0
41
1
10
567.600983403359
20
-24.2532582502719
30
0
41
1
10
567.609876729726
20
-24.2320416953016
30
0
41
1
10
567.629096511696
20
-24.1893876202437
30
0
41
1
10
567.639424130324
20
-24.1679499081217
30
0
41
1
10
567.650480947162
20
-24.1464023848396
30
0
0
SPLINE
5
1A5
100
AcDbEntity
8
1
62
256
6
ByLayer
370
18
48
1
60
0
100
AcDbSpline
70
4
71
3
72
8
73
4
40
0
40
0
40
0
40
0
40
1
40
1
40
1
40
1
41
1
10
567.650480947162
20
-24.1464023848396
30
0
41
1
10
567.882352997816
20
-23.6945301612787
30
0
41
1
10
568.107382666912
20
-23.2381665161971
30
0
41
1
10
568.324759526419
20
-22.7767794748912
30
0
0
SPLINE
5
1A6
100
AcDbEntity
8
1
62
256
6
ByLayer
370
18
48
1
60
0
100
AcDbSpline
70
4
71
3
72
8
73
4
40
0
40
0
40
0
40
0
40
1
40
1
40
1
40
1
41
1
10
568.324759526419
20
-22.3514611989838
30
0
41
1
10
568.100191536751
20
-22.5453578173506
30
0
41
1
10
567.875423713527
20
-22.7389451074582
30
0
41
1
10
567.650480947162
20
-22.9322615979162
30
0
0
SPLINE
5
1A7
100
AcDbEntity
8
1
62
256
6
ByLayer
370
18
48
1
60
0
100
AcDbSpline
70
4
71
3
72
39
73
35
40
0
40
0
40
0
40
0
40
0.0312500000000017
40
0.0312500000000017
40
0.0625000000000033
40
0.0625000000000033
40
0.093750000000005
40
0.093750000000005
40
0.125000000000007
40
0.125000000000007
40
0.156250000000008
40
0.156250000000008
40
0.18750000000001
40
0.18750000000001
40
0.218750000000012
40
0.218750000000012
40
0.250000000000013
40
0.250000000000013
40
0.281250000000015
40
0.281250000000015
40
0.312500000000016
40
0.312500000000016
40
0.375000000000009
40
0.375000000000009
40
0.499999999999999
40
0.499999999999999
40
0.562500000000003
40
0.562500000000003
40
0.625000000000007
40
0.625000000000007
40
0.750000000000004
40
0.750000000000004
40
0.875000000000002
40
1
40
1
40
1
40
1
41
1
10
567.650480947162
20
-22.9322615979181
30
0
41
1
10
567.645659559596
20
-22.9364051129035
30
0
41
1
10
567.640801078904
20
-22.9402752725336
30
0
41
1
10
567.630992180374
20
-22.9473366560151
30
0
41
1
10
567.626006027204
20
-22.950544709167
30
0
41
1
10
567.616213206618
20
-22.9559198413893
30
0
41
1
10
567.611384546088
20
-22.9581090210066
30
0
41
1
10
567.601890289183
20
-22.9612844521533
30
0
41
1
10
567.597355810905
20
-22.9622204837452
30
0
41
1
10
567.588820720175
20
-22.9627189554139
30
0
41
1
10
567.584759371
20
-22.9622658825154
30
0
41
1
10
567.577453125654
20
-22.9600256025939
30
0
41
1
10
567.574191909539
20
-22.9582620751235
30
0
41
1
10
567.568356163976
20
-22.9536047091898
30
0
41
1
10
567.565807208947
20
-22.9507159173006
30
0
41
1
10
567.561457307646
20
-22.944216322145
30
0
41
1
10
567.559626662752
20
-22.9405816268441
30
0
41
1
10
567.556523269337
20
-22.9326866584442
30
0
41
1
10
567.555247510152
20
-22.9284035299872
30
0
41
1
10
567.55319751331
20
-22.919443414033
30
0
41
1
10
567.552418485904
20
-22.9147636089492
30
0
41
1
10
567.550682498191
20
-22.9002343493949
30
0
41
1
10
567.550325735067
20
-22.8898556133685
30
0
41
1
10
567.550966789172
20
-22.8579922826173
30
0
41
1
10
567.553590221519
20
-22.8355866876121
30
0
41
1
10
567.559524476594
20
-22.8009026027304
30
0
41
1
10
567.561860927053
20
-22.789113806189
30
0
41
1
10
567.567088729835
20
-22.7654205868507
30
0
41
1
10
567.569973709317
20
-22.7535355328583
30
0
41
1
10
567.579321527427
20
-22.7177809868877
30
0
41
1
10
567.58646953122
20
-22.6938130910538
30
0
41
1
10
567.602267862415
20
-22.6456594779338
30
0
41
1
10
567.619577003328
20
-22.5972869331207
30
0
41
1
10
567.639694160572
20
-22.5485106461847
30
0
41
1
10
567.650480947162
20
-22.5240203286135
30
0
0
SPLINE
5
1A8
100
AcDbEntity
8
1
62
256
6
ByLayer
370
18
48
1
60
0
100
AcDbSpline
70
4
71
3
72
8
73
4
40
0
40
0
40
0
40
0
40
1
40
1
40
1
40
1
41
1
10
567.650480947162
20
-22.5240203286135
30
0
41
1
10
567.886241901321
20
-21.9887487173423
30
0
41
1
10
568.111437539985
20
-21.4476285217347
30
0
41
1
10
568.324759526419
20
-20.8999354929284
30
0
0
SPLINE
5
1A9
100
AcDbEntity
8
1
62
256
6
ByLayer
370
18
48
1
60
0
100
AcDbSpline
70
4
71
3
72
8
73
4
40
0
40
0
40
0
40
0
40
1
40
1
40
1
40
1
41
1
10
568.324759526419
20
-20.3438916153448
30
0
41
1
10
568.100672937923
20
-20.5561625919072
30
0
41
1
10
567.875878259423
20
-20.7674293885324
30
0
41
1
10
567.650480947162
20
-20.9778415583032
30
0
0
SPLINE
5
1AA
100
AcDbEntity
8
1
62
256
6
ByLayer
370
18
48
1
60
0
100
AcDbSpline
70
4
71
3
72
39
73
35
40
0
40
0
40
0
40
0
40
0.0312499999999959
40
0.0312499999999959
40
0.0624999999999917
40
0.0624999999999917
40
0.0781249999999918
40
0.0781249999999918
40
0.0937499999999919
40
0.0937499999999919
40
0.124999999999991
40
0.124999999999991
40
0.15624999999999
40
0.15624999999999
40
0.187499999999989
40
0.187499999999989
40
0.218749999999988
40
0.218749999999988
40
0.249999999999987
40
0.249999999999987
40
0.281249999999986
40
0.281249999999986
40
0.312499999999985
40
0.312499999999985
40
0.374999999999983
40
0.374999999999983
40
0.499999999999987
40
0.499999999999987
40
0.62499999999999
40
0.62499999999999
40
0.749999999999993
40
0.749999999999993
40
0.874999999999997
40
1
40
1
40
1
40
1
41
1
10
567.650480947162
20
-20.9778415583049
30
0
41
1
10
567.645070573186
20
-20.9828922331164
30
0
41
1
10
567.639513106979
20
-20.9875792288373
30
0
41
1
10
567.628225225349
20
-20.9957597995137
30
0
41
1
10
567.622572736454
20
-20.9992033141719
30
0
41
1
10
567.614077225303
20
-21.0030918810385
30
0
41
1
10
567.611222335286
20
-21.0041768835953
30
0
41
1
10
567.605677702528
20
-21.00579678088
30
0
41
1
10
567.602973531995
20
-21.0063414516262
30
0
41
1
10
567.595073068045
20
-21.007149022522
30
0
41
1
10
567.590031566255
20
-21.0065324890334
30
0
41
1
10
567.581193349521
20
-21.0032210025211
30
0
41
1
10
567.577280359417
20
-21.0005431411248
30
0
41
1
10
567.570434037439
20
-20.9936129589071
30
0
41
1
10
567.567567506173
20
-20.9894554602356
30
0
41
1
10
567.562642849808
20
-20.9801311836335
30
0
41
1
10
567.560603852079
20
-20.9749764931912
30
0
41
1
10
567.557229405652
20
-20.9641977522338
30
0
41
1
10
567.555875895449
20
-20.9585336597286
30
0
41
1
10
567.553672457203
20
-20.9467890170158
30
0
41
1
10
567.552823959493
20
-20.9407073042584
30
0
41
1
10
567.551532822405
20
-20.9282066799278
30
0
41
1
10
567.551090778585
20
-20.9217691865271
30
0
41
1
10
567.550280304693
20
-20.9022578233617
30
0
41
1
10
567.550409275107
20
-20.888933626274
30
0
41
1
10
567.552194406003
20
-20.8482913762712
30
0
41
1
10
567.555225580056
20
-20.8203143302209
30
0
41
1
10
567.56364088965
20
-20.7632072654731
30
0
41
1
10
567.568989094997
20
-20.7344845311726
30
0
41
1
10
567.581324248186
20
-20.6768917217863
30
0
41
1
10
567.588324868774
20
-20.6479991733814
30
0
41
1
10
567.603732419277
20
-20.5900484071946
30
0
41
1
10
567.620551977068
20
-20.5319314186676
30
0
41
1
10
567.640038964386
20
-20.4735017998071
30
0
41
1
10
567.650480947162
20
-20.4442074830623
30
0
0
SPLINE
5
1AB
100
AcDbEntity
8
1
62
256
6
ByLayer
370
18
48
1
60
0
100
AcDbSpline
70
4
71
3
72
8
73
4
40
0
40
0
40
0
40
0
40
1
40
1
40
1
40
1
41
1
10
567.650480947162
20
-20.4442074830623
30
0
41
1
10
567.895186418447
20
-19.7577018893114
30
0
41
1
10
568.120774732857
20
-19.0629544043437
30
0
41
1
10
568.324759526419
20
-18.3588930935861
30
0
0
SPLINE
5
1AC
100
AcDbEntity
8
1
62
256
6
ByLayer
370
18
48
1
60
0
100
AcDbSpline
70
4
71
3
72
8
73
4
40
0
40
0
40
0
40
0
40
1
40
1
40
1
40
1
41
1
10
568.324759526419
20
-17.5454352922811
30
0
41
1
10
568.102856207575
20
-17.8081293930666
30
0
41
1
10
567.87789393872
20
-18.067289478253
30
0
41
1
10
567.650480947162
20
-18.3236182349672
30
0
0
SPLINE
5
1AD
100
AcDbEntity
8
1
62
256
6
ByLayer
370
18
48
1
60
0
100
AcDbSpline
70
4
71
3
72
38
73
34
40
0
40
0
40
0
40
0
40
0.0312499999999901
40
0.0312499999999901
40
0.046874999999988
40
0.046874999999988
40
0.0624999999999858
40
0.0624999999999858
40
0.0781249999999836
40
0.0781249999999836
40
0.0937499999999813
40
0.0937499999999813
40
0.109374999999979
40
0.109374999999979
40
0.124999999999977
40
0.124999999999977
40
0.15624999999998
40
0.15624999999998
40
0.187499999999983
40
0.187499999999983
40
0.24999999999999
40
0.24999999999999
40
0.312499999999996
40
0.312499999999996
40
0.375000000000003
40
0.375000000000003
40
0.500000000000002
40
0.500000000000002
40
0.625000000000001
40
0.625000000000001
40
0.75
40
0.75
40
1
40
1
40
1
40
1
41
1
10
567.650480947163
20
-18.3236182349706
30
0
41
1
10
567.643984522043
20
-18.3309406863521
30
0
41
1
10
567.637087099727
20
-18.3376812441221
30
0
41
1
10
567.626354747428
20
-18.3456807010566
30
0
41
1
10
567.622672786077
20
-18.3480197519197
30
0
41
1
10
567.615227174174
20
-18.3516964069812
30
0
41
1
10
567.611531397854
20
-18.3530045516319
30
0
41
1
10
567.604203715131
20
-18.3543660752699
30
0
41
1
10
567.600638398742
20
-18.3543893446795
30
0
41
1
10
567.593959541195
20
-18.3531406766523
30
0
41
1
10
567.590782123263
20
-18.351847986693
30
0
41
1
10
567.58507026222
20
-18.34828207327
30
0
41
1
10
567.582488099225
20
-18.346011336494
30
0
41
1
10
567.577753050436
20
-18.3407033141977
30
0
41
1
10
567.575612489275
20
-18.3376705393072
30
0
41
1
10
567.569849274635
20
-18.3279202867126
30
0
41
1
10
567.566789889395
20
-18.3204354378219
30
0
41
1
10
567.561775920044
20
-18.3047772034488
30
0
41
1
10
567.559797491318
20
-18.2965426252912
30
0
41
1
10
567.554893629213
20
-18.2710419424099
30
0
41
1
10
567.552983754743
20
-18.2528841812447
30
0
41
1
10
567.550722421526
20
-18.2163879167964
30
0
41
1
10
567.550369579247
20
-18.1978998584486
30
0
41
1
10
567.550648562
20
-18.1606122640512
30
0
41
1
10
567.551290415845
20
-18.1418097737327
30
0
41
1
10
567.5543116466
20
-18.0850476350128
30
0
41
1
10
567.557768451239
20
-18.0467387011074
30
0
41
1
10
567.566574464434
20
-17.9694791711
30
0
41
1
10
567.571943356467
20
-17.9305227713767
30
0
41
1
10
567.584191791777
20
-17.8520814043073
30
0
41
1
10
567.591049423945
20
-17.812771089896
30
0
41
1
10
567.613451439318
20
-17.6948596061425
30
0
41
1
10
567.630794068013
20
-17.6161561624276
30
0
41
1
10
567.650480947162
20
-17.5373639096824
30
0
0
SPLINE
5
1AE
100
AcDbEntity
8
1
62
256
6
ByLayer
370
18
48
1
60
0
100
AcDbSpline
70
4
71
3
72
8
73
4
40
0
40
0
40
0
40
0
40
1
40
1
40
1
40
1
41
1
10
567.650480947162
20
-17.5373639096824
30
0
41
1
10
567.936650314553
20
-16.3920361533963
30
0
41
1
10
568.164101740032
20
-15.2315551818875
30
0
41
1
10
568.324759526419
20
-14.0538369170455
30
0
0
SPLINE
5
1AF
100
AcDbEntity
8
1
62
256
6
ByLayer
370
18
48
1
60
0
100
AcDbSpline
70
4
71
3
72
10
73
6
40
0
40
0
40
0
40
0
40
0.5
40
0.5
40
1
40
1
40
1
40
1
41
1
10
568.324759526419
20
-11.5398356243445
30
0
41
1
10
568.253343637493
20
-11.9139477751378
30
0
41
1
10
568.158489259995
20
-12.2782211556194
30
0
41
1
10
567.930986544702
20
-12.9909031523773
30
0
41
1
10
567.79833441894
20
-13.3393101785788
30
0
41
1
10
567.650480947162
20
-13.6813361383809
30
0
0
SPLINE
5
1B0
100
AcDbEntity
8
1
62
256
6
ByLayer
370
18
48
1
60
0
100
AcDbSpline
70
4
71
3
72
57
73
53
40
0
40
0
40
0
40
0
40
0.124999999999997
40
0.124999999999997
40
0.249999999999995
40
0.374999999999992
40
0.374999999999992
40
0.49999999999999
40
0.49999999999999
40
0.624999999999987
40
0.624999999999987
40
0.687499999999986
40
0.687499999999986
40
0.749999999999985
40
0.749999999999985
40
0.812499999999985
40
0.812499999999985
40
0.874999999999984
40
0.874999999999984
40
0.906249999999984
40
0.906249999999984
40
0.921874999999985
40
0.921874999999985
40
0.937499999999986
40
0.937499999999986
40
0.945312499999987
40
0.945312499999987
40
0.953124999999988
40
0.953124999999988
40
0.960937499999989
40
0.960937499999989
40
0.964843749999989
40
0.964843749999989
40
0.968749999999989
40
0.968749999999989
40
0.972656249999988
40
0.972656249999988
40
0.976562499999988
40
0.976562499999988
40
0.978515624999989
40
0.978515624999989
40
0.98046874999999
40
0.98046874999999
40
0.982421874999991
40
0.982421874999991
40
0.984374999999992
40
0.984374999999992
40
0.988281249999994
40
0.988281249999994
40
0.992187499999996
40
0.992187499999996
40
1
40
1
40
1
40
1
41
1
10
567.650480947162
20
-10.2055224190004
30
0
41
1
10
567.649474914009
20
-10.3574271769197
30
0
41
1
10
567.647352403027
20
-10.5093180664371
30
0
41
1
10
567.641079448038
20
-10.8130710423122
30
0
41
1
10
567.632780577668
20
-11.1167952044886
30
0
41
1
10
567.621220285853
20
-11.4204575654213
30
0
41
1
10
567.608599227804
20
-11.7240859621448
30
0
41
1
10
567.601754923346
20
-11.87588319884
30
0
41
1
10
567.587790157286
20
-12.1794394073716
30
0
41
1
10
567.580656945611
20
-12.3311984523902
30
0
41
1
10
567.570656270951
20
-12.5588032531968
30
0
41
1
10
567.567443146172
20
-12.6346658696463
30
0
41
1
10
567.561508805656
20
-12.7863783833761
30
0
41
1
10
567.558783648494
20
-12.8622523268605
30
0
41
1
10
567.554227791731
20
-13.0136019223509
30
0
41
1
10
567.552384521753
20
-13.0891179173144
30
0
41
1
10
567.550304819929
20
-13.2396945593891
30
0
41
1
10
567.550017507499
20
-13.3147647400511
30
0
41
1
10
567.552116127572
20
-13.4267806190286
30
0
41
1
10
567.553241725102
20
-13.464020176934
30
0
41
1
10
567.556066196098
20
-13.5196378252078
30
0
41
1
10
567.557199844787
20
-13.5381362328724
30
0
41
1
10
567.560032561575
20
-13.5750175061783
30
0
41
1
10
567.561724621638
20
-13.5934016846361
30
0
41
1
10
567.564962866511
20
-13.6208395754208
30
0
41
1
10
567.566160648091
20
-13.6299621625664
30
0
41
1
10
567.568892543204
20
-13.6481419259788
30
0
41
1
10
567.570429233634
20
-13.6572270190122
30
0
41
1
10
567.574003223349
20
-13.6751703894972
30
0
41
1
10
567.576022559128
20
-13.6839805680881
30
0
41
1
10
567.579665375541
20
-13.6967730446328
30
0
41
1
10
567.580983473112
20
-13.7009657012891
30
0
41
1
10
567.583925806698
20
-13.7091409632553
30
0
41
1
10
567.585555704597
20
-13.7131368749338
30
0
41
1
10
567.589214864265
20
-13.7205931909005
30
0
41
1
10
567.59124291104
20
-13.7240819785355
30
0
41
1
10
567.596024190781
20
-13.73018722526
30
0
41
1
10
567.598791925149
20
-13.7327925503757
30
0
41
1
10
567.603585192061
20
-13.7350281309347
30
0
41
1
10
567.605238544653
20
-13.7354690473373
30
0
41
1
10
567.608667422954
20
-13.7356829062866
30
0
41
1
10
567.61045752744
20
-13.7354403300264
30
0
41
1
10
567.613936585578
20
-13.7343332398526
30
0
41
1
10
567.615671884936
20
-13.7334622820269
30
0
41
1
10
567.618993393389
20
-13.7312884449785
30
0
41
1
10
567.620581409002
20
-13.7299941203648
30
0
41
1
10
567.625186557665
20
-13.7256584506803
30
0
41
1
10
567.628021131565
20
-13.7221900981294
30
0
41
1
10
567.633249794903
20
-13.7148524882746
30
0
41
1
10
567.635679061346
20
-13.7109333194385
30
0
41
1
10
567.642616772461
20
-13.6987033345009
30
0
41
1
10
567.646685962344
20
-13.6901149875286
30
0
41
1
10
567.650480947162
20
-13.6813361383809
30
0
0
SPLINE
5
1B1
100
AcDbEntity
8
1
62
256
6
ByLayer
370
18
48
1
60
0
100
AcDbSpline
70
4
71
3
72
8
73
4
40
0
40
0
40
0
40
0
40
1
40
1
40
1
40
1
41
1
10
567.650480947162
20
-10.2055224190004
30
0
41
1
10
567.651388368233
20
-10.0685074730002
30
0
41
1
10
567.651388368233
20
-9.93149252699988
30
0
41
1
10
567.650480947162
20
-9.79447758099963
30
0
0
SPLINE
5
1B2
100
AcDbEntity
8
1
62
256
6
ByLayer
370
18
48
1
60
0
100
AcDbSpline
70
4
71
3
72
59
73
55
40
0
40
0
40
0
40
0
40
0.125
40
0.125
40
0.249999999999999
40
0.374999999999999
40
0.374999999999999
40
0.499999999999998
40
0.499999999999998
40
0.625
40
0.625
40
0.6875
40
0.6875
40
0.750000000000001
40
0.750000000000001
40
0.812500000000002
40
0.812500000000002
40
0.843750000000004
40
0.843750000000004
40
0.875000000000005
40
0.875000000000005
40
0.906250000000006
40
0.906250000000006
40
0.921875000000005
40
0.921875000000005
40
0.937500000000005
40
0.937500000000005
40
0.945312500000005
40
0.945312500000005
40
0.953125000000005
40
0.953125000000005
40
0.960937500000004
40
0.960937500000004
40
0.964843750000004
40
0.964843750000004
40
0.968750000000004
40
0.968750000000004
40
0.972656250000003
40
0.972656250000003
40
0.976562500000003
40
0.976562500000003
40
0.978515625000003
40
0.978515625000003
40
0.980468750000003
40
0.980468750000003
40
0.982421875000002
40
0.982421875000002
40
0.984375000000002
40
0.984375000000002
40
0.988281250000001
40
0.988281250000001
40
0.992187500000001
40
0.992187500000001
40
1
40
1
40
1
40
1
41
1
10
567.650480947162
20
-9.79447758099963
30
0
41
1
10
567.649474529164
20
-9.64251471388218
30
0
41
1
10
567.647350571744
20
-9.49053796568194
30
0
41
1
10
567.641070593963
20
-9.18655560661995
30
0
41
1
10
567.632760419544
20
-8.88254437671822
30
0
41
1
10
567.621178756172
20
-8.5784711358794
30
0
41
1
10
567.608531759673
20
-8.27436377042329
30
0
41
1
10
567.601672191192
20
-8.12229304533923
30
0
41
1
10
567.587676377915
20
-7.81811307991194
30
0
41
1
10
567.580530180473
20
-7.66605426235304
30
0
41
1
10
567.570536139854
20
-7.43839190151607
30
0
41
1
10
567.567328862802
20
-7.36256092266689
30
0
41
1
10
567.561413484972
20
-7.21103091425243
30
0
41
1
10
567.558701689912
20
-7.13533160187052
30
0
41
1
10
567.554167978853
20
-6.98409466407685
30
0
41
1
10
567.552334555853
20
-6.90855615929883
30
0
41
1
10
567.550799054594
20
-6.79541145367494
30
0
41
1
10
567.550492739192
20
-6.75772396309009
30
0
41
1
10
567.550469812771
20
-6.68241745721349
30
0
41
1
10
567.550750183483
20
-6.6447611334475
30
0
41
1
10
567.552208755407
20
-6.56976737828586
30
0
41
1
10
567.553373181025
20
-6.53242702314452
30
0
41
1
10
567.556275212278
20
-6.47680109279537
30
0
41
1
10
567.557437968645
20
-6.45832406569224
30
0
41
1
10
567.560336644401
20
-6.42155428916453
30
0
41
1
10
567.562065629678
20
-6.40325947003942
30
0
41
1
10
567.565365531574
20
-6.37603795457704
30
0
41
1
10
567.566584913132
20
-6.36700140207387
30
0
41
1
10
567.569361551694
20
-6.3490324256922
30
0
41
1
10
567.570921073671
20
-6.34008083847726
30
0
41
1
10
567.574516938715
20
-6.32254623548278
30
0
41
1
10
567.576547962152
20
-6.31394003657073
30
0
41
1
10
567.58021552862
20
-6.30145618741182
30
0
41
1
10
567.581543102687
20
-6.29736686038103
30
0
41
1
10
567.584510409302
20
-6.28940126076265
30
0
41
1
10
567.586161611328
20
-6.285496035618
30
0
41
1
10
567.589888240219
20
-6.27822223260517
30
0
41
1
10
567.591955510826
20
-6.27483725148852
30
0
41
1
10
567.59684579735
20
-6.26899837969751
30
0
41
1
10
567.599637337106
20
-6.26661628239304
30
0
41
1
10
567.604411839463
20
-6.26472938390174
30
0
41
1
10
567.606061767276
20
-6.26439804135345
30
0
41
1
10
567.609492008733
20
-6.26439900739581
30
0
41
1
10
567.611227428267
20
-6.26473772151382
30
0
41
1
10
567.61463552521
20
-6.26599300532956
30
0
41
1
10
567.616332222931
20
-6.26692035388578
30
0
41
1
10
567.61955483406
20
-6.26915176461216
30
0
41
1
10
567.621102908113
20
-6.27046166889056
30
0
41
1
10
567.62560527577
20
-6.27482664274476
30
0
41
1
10
567.62836321643
20
-6.27825235515655
30
0
41
1
10
567.633516183583
20
-6.28556367863081
30
0
41
1
10
567.635914818984
20
-6.28946373851636
30
0
41
1
10
567.642693644436
20
-6.30147160711709
30
0
41
1
10
567.646722359183
20
-6.30996920842153
30
0
41
1
10
567.650480947162
20
-6.31866386161755
30
0
0
SPLINE
5
1B3
100
AcDbEntity
8
1
62
256
6
ByLayer
370
18
48
1
60
0
100
AcDbSpline
70
4
71
3
72
10
73
6
40
0
40
0
40
0
40
0
40
0.5
40
0.5
40
1
40
1
40
1
40
1
41
1
10
567.650480947161
20
-6.31866386161784
30
0
41
1
10
567.798334418938
20
-6.66068982141695
30
0
41
1
10
567.9309865447
20
-7.00909684761535
30
0
41
1
10
568.158489259991
20
-7.72177884436661
30
0
41
1
10
568.253343637489
20
-8.08605222484471
30
0
41
1
10
568.324759526415
20
-8.46016437563446
30
0
0
SPLINE
5
1B4
100
AcDbEntity
8
1
62
256
6
ByLayer
370
18
48
1
60
0
100
AcDbSpline
70
4
71
3
72
8
73
4
40
0
40
0
40
0
40
0
40
1
40
1
40
1
40
1
41
1
10
568.324759526419
20
-5.94616308295463
30
0
41
1
10
568.164101740032
20
-4.76844481811253
30
0
41
1
10
567.936650314553
20
-3.60796384660381
30
0
41
1
10
567.650480947162
20
-2.46263609031763
30
0
0
SPLINE
5
1B5
100
AcDbEntity
8
1
62
256
6
ByLayer
370
18
48
1
60
0
100
AcDbSpline
70
4
71
3
72
42
73
38
40
0
40
0
40
0
40
0
40
0.249999999999995
40
0.249999999999995
40
0.374999999999993
40
0.374999999999993
40
0.499999999999991
40
0.499999999999991
40
0.624999999999989
40
0.624999999999989
40
0.687499999999988
40
0.687499999999988
40
0.749999999999987
40
0.749999999999987
40
0.781249999999989
40
0.781249999999989
40
0.812499999999991
40
0.812499999999991
40
0.843749999999992
40
0.843749999999992
40
0.859374999999993
40
0.859374999999993
40
0.874999999999994
40
0.874999999999994
40
0.890624999999995
40
0.890624999999995
40
0.906249999999996
40
0.906249999999996
40
0.921874999999997
40
0.921874999999997
40
0.937499999999997
40
0.937499999999997
40
0.953124999999998
40
0.953124999999998
40
0.968749999999999
40
0.968749999999999
40
1
40
1
40
1
40
1
41
1
10
567.650480947161
20
-2.46263609031763
30
0
41
1
10
567.63076897837
20
-2.38374342198767
30
0
41
1
10
567.61346059995
20
-2.30515161245052
30
0
41
1
10
567.591140780514
20
-2.18772813901859
30
0
41
1
10
567.584320719394
20
-2.14866538433574
30
0
41
1
10
567.572124668301
20
-2.07071528977747
30
0
41
1
10
567.566742521326
20
-2.03182742474854
30
0
41
1
10
567.557864378318
20
-1.95426583454309
30
0
41
1
10
567.55434285781
20
-1.91555991202586
30
0
41
1
10
567.551271377319
20
-1.85782193812685
30
0
41
1
10
567.550630005146
20
-1.83876913559425
30
0
41
1
10
567.550377159459
20
-1.80117361476147
30
0
41
1
10
567.550757044975
20
-1.78262685807863
30
0
41
1
10
567.552486535079
20
-1.75537015998435
30
0
41
1
10
567.553258656099
20
-1.74637959712328
30
0
41
1
10
567.555324288495
20
-1.72864928315113
30
0
41
1
10
567.556619146011
20
-1.71988676742365
30
0
41
1
10
567.559941779673
20
-1.7028126972491
30
0
41
1
10
567.56194845637
20
-1.69458252456087
30
0
41
1
10
567.565733288872
20
-1.68292090445709
30
0
41
1
10
567.567125496084
20
-1.6791489091857
30
0
41
1
10
567.570248978874
20
-1.67190312646392
30
0
41
1
10
567.571992418155
20
-1.66840940142942
30
0
41
1
10
567.575857623531
20
-1.66196500766461
30
0
41
1
10
567.577978928924
20
-1.65900519934689
30
0
41
1
10
567.582717557109
20
-1.6537735854227
30
0
41
1
10
567.58536880188
20
-1.65148330072833
30
0
41
1
10
567.591140283969
20
-1.64798249460648
30
0
41
1
10
567.594278886941
20
-1.64675345901992
30
0
41
1
10
567.601038610781
20
-1.64558719135204
30
0
41
1
10
567.604547324229
20
-1.64566420153426
30
0
41
1
10
567.611812347963
20
-1.64708423701654
30
0
41
1
10
567.615579957293
20
-1.64845010732932
30
0
41
1
10
567.622949675614
20
-1.65214714095453
30
0
41
1
10
567.626634528598
20
-1.6545067626318
30
0
41
1
10
567.637401170667
20
-1.6625976744088
30
0
41
1
10
567.644079218297
20
-1.66916605062062
30
0
41
1
10
567.650480947162
20
-1.67638176503283
30
0
0
SPLINE
5
1B6
100
AcDbEntity
8
1
62
256
6
ByLayer
370
18
48
1
60
0
100
AcDbSpline
70
4
71
3
72
8
73
4
40
0
40
0
40
0
40
0
40
1
40
1
40
1
40
1
41
1
10
567.650480947162
20
-1.67638176503283
30
0
41
1
10
567.877893938717
20
-1.93271052174379
30
0
41
1
10
568.102856207569
20
-2.1918706069269
30
0
41
1
10
568.324759526411
20
-2.45456470770893
30
0
0
SPLINE
5
1B7
100
AcDbEntity
8
1
62
256
6
ByLayer
370
18
48
1
60
0
100
AcDbSpline
70
4
71
3
72
8
73
4
40
0
40
0
40
0
40
0
40
1
40
1
40
1
40
1
41
1
10
568.324759526419
20
-1.64110690641399
30
0
41
1
10
568.120774732857
20
-0.9370455956564
30
0
41
1
10
567.895186418447
20
-0.242298110688637
30
0
41
1
10
567.650480947162
20
0.4442074830622
30
0
0
SPLINE
5
1B8
100
AcDbEntity
8
1
62
256
6
ByLayer
370
18
48
1
60
0
100
AcDbSpline
70
4
71
3
72
40
73
36
40
0
40
0
40
0
40
0
40
0.125000000000006
40
0.125000000000006
40
0.250000000000012
40
0.250000000000012
40
0.375000000000017
40
0.375000000000017
40
0.500000000000023
40
0.500000000000023
40
0.562500000000023
40
0.562500000000023
40
0.625000000000023
40
0.625000000000023
40
0.687500000000024
40
0.687500000000024
40
0.750000000000024
40
0.750000000000024
40
0.781250000000019
40
0.781250000000019
40
0.812500000000015
40
0.812500000000015
40
0.84375000000001
40
0.84375000000001
40
0.875000000000005
40
0.875000000000005
40
0.90625
40
0.90625
40
0.921874999999998
40
0.921874999999998
40
0.937499999999995
40
0.937499999999995
40
0.968749999999998
40
0.968749999999998
40
1
40
1
40
1
40
1
41
1
10
567.650480947162
20
0.4442074830622
30
0
41
1
10
567.640025010736
20
0.473540945882689
30
0
41
1
10
567.630210989745
20
0.502967307644553
30
0
41
1
10
567.611958545041
20
0.561600232284491
30
0
41
1
10
567.603523410692
20
0.590786552844975
30
0
41
1
10
567.588102337403
20
0.648885492816532
30
0
41
1
10
567.581113785878
20
0.677798545211886
30
0
41
1
10
567.5688291768
20
0.735309330632276
30
0
41
1
10
567.56352332279
20
0.763908655424132
30
0
41
1
10
567.557268698592
20
0.80649914666958
30
0
41
1
10
567.555468305322
20
0.820682296395375
30
0
41
1
10
567.552619223369
20
0.848611340732418
30
0
41
1
10
567.551563972929
20
0.86238012842739
30
0
41
1
10
567.550399909879
20
0.889421473284131
30
0
41
1
10
567.550285829804
20
0.902696683689214
30
0
41
1
10
567.55138586223
20
0.928558505209764
30
0
41
1
10
567.552608640832
20
0.941233130268984
30
0
41
1
10
567.555948456209
20
0.958860823058217
30
0
41
1
10
567.557314290988
20
0.964518541280142
30
0
41
1
10
567.560709973981
20
0.975262942648953
30
0
41
1
10
567.562757184409
20
0.980388168151308
30
0
41
1
10
567.567691285185
20
0.989647309683903
30
0
41
1
10
567.570555797839
20
0.993760395916922
30
0
41
1
10
567.57735811212
20
1.0005969404051
30
0
41
1
10
567.581328265331
20
1.00329955266864
30
0
41
1
10
567.590209516905
20
1.00657015800476
30
0
41
1
10
567.595238130169
20
1.00715473388271
30
0
41
1
10
567.603144568994
20
1.00631212420967
30
0
41
1
10
567.605853809947
20
1.0057558877142
30
0
41
1
10
567.611415566325
20
1.00410914666765
30
0
41
1
10
567.614249175209
20
1.00302066552024
30
0
41
1
10
567.622685087213
20
0.999136285347788
30
0
41
1
10
567.628307688267
20
0.995704689145612
30
0
41
1
10
567.639550729521
20
0.987547260725137
30
0
41
1
10
567.645089621271
20
0.982874451409941
30
0
41
1
10
567.650480947162
20
0.977841558304874
30
0
0
SPLINE
5
1B9
100
AcDbEntity
8
1
62
256
6
ByLayer
370
18
48
1
60
0
100
AcDbSpline
70
4
71
3
72
8
73
4
40
0
40
0
40
0
40
0
40
1
40
1
40
1
40
1
41
1
10
567.650480947162
20
0.977841558303112
30
0
41
1
10
567.875878259423
20
0.767429388532378
30
0
41
1
10
568.100672937923
20
0.556162591907139
30
0
41
1
10
568.324759526419
20
0.343891615344774
30
0
0
SPLINE
5
1BA
100
AcDbEntity
8
1
62
256
6
ByLayer
370
18
48
1
60
0
100
AcDbSpline
70
4
71
3
72
8
73
4
40
0
40
0
40
0
40
0
40
1
40
1
40
1
40
1
41
1
10
568.324759526419
20
0.899935492928364
30
0
41
1
10
568.111437539985
20
1.4476285217346
30
0
41
1
10
567.886241901321
20
1.98874871734216
30
0
41
1
10
567.650480947162
20
2.52402032861346
30
0
0
SPLINE
5
1BB
100
AcDbEntity
8
1
62
256
6
ByLayer
370
18
48
1
60
0
100
AcDbSpline
70
4
71
3
72
40
73
36
40
0
40
0
40
0
40
0
40
0.125000000000007
40
0.125000000000007
40
0.250000000000013
40
0.250000000000013
40
0.37500000000002
40
0.37500000000002
40
0.500000000000026
40
0.500000000000026
40
0.562500000000027
40
0.562500000000027
40
0.625000000000027
40
0.625000000000027
40
0.687500000000027
40
0.687500000000027
40
0.718750000000024
40
0.718750000000024
40
0.750000000000022
40
0.750000000000022
40
0.781250000000019
40
0.781250000000019
40
0.812500000000016
40
0.812500000000016
40
0.843750000000014
40
0.843750000000014
40
0.875000000000011
40
0.875000000000011
40
0.906250000000008
40
0.906250000000008
40
0.937500000000005
40
0.937500000000005
40
0.968750000000003
40
0.968750000000003
40
1
40
1
40
1
40
1
41
1
10
567.650480947162
20
2.52402032861346
30
0
41
1
10
567.639690471916
20
2.54851902090934
30
0
41
1
10
567.629613916005
20
2.57294865548874
30
0
41
1
10
567.610849297583
20
2.62166893814191
30
0
41
1
10
567.602160592807
20
2.64595966229558
30
0
41
1
10
567.586289625029
20
2.69438871252987
30
0
41
1
10
567.579096154492
20
2.71855252249156
30
0
41
1
10
567.566584682111
20
2.76659241475653
30
0
41
1
10
567.561339273704
20
2.79015656612427
30
0
41
1
10
567.555481361028
20
2.82460605543008
30
0
41
1
10
567.553867302615
20
2.83593824799169
30
0
41
1
10
567.551487852271
20
2.85822714870943
30
0
41
1
10
567.550718615151
20
2.86923965219523
30
0
41
1
10
567.550336211257
20
2.89048928224679
30
0
41
1
10
567.550714779598
20
2.90067875148344
30
0
41
1
10
567.552465551096
20
2.915065565048
30
0
41
1
10
567.553248182532
20
2.91971019776577
30
0
41
1
10
567.555309097648
20
2.92862485016838
30
0
41
1
10
567.556593904736
20
2.93290109950459
30
0
41
1
10
567.559717301251
20
2.94077561669531
30
0
41
1
10
567.561559358519
20
2.94440024947426
30
0
41
1
10
567.565937706079
20
2.95087774233281
30
0
41
1
10
567.568504767017
20
2.95375190251821
30
0
41
1
10
567.574349248947
20
2.95835750704185
30
0
41
1
10
567.577621102576
20
2.96010347271039
30
0
41
1
10
567.584977180313
20
2.96230488223375
30
0
41
1
10
567.589008029016
20
2.96272768468367
30
0
41
1
10
567.597554413792
20
2.96218830663901
30
0
41
1
10
567.602165047507
20
2.96121031139938
30
0
41
1
10
567.61156352127
20
2.95803052781361
30
0
41
1
10
567.616343834585
20
2.95585324386116
30
0
41
1
10
567.626039774226
20
2.95052099647523
30
0
41
1
10
567.630992916634
20
2.94733636270502
30
0
41
1
10
567.640809613647
20
2.94026889145937
30
0
41
1
10
567.64566607499
20
2.93639951355362
30
0
41
1
10
567.650480947162
20
2.93226159791715
30
0
0
SPLINE
5
1BC
100
AcDbEntity
8
1
62
256
6
ByLayer
370
18
48
1
60
0
100
AcDbSpline
70
4
71
3
72
8
73
4
40
0
40
0
40
0
40
0
40
1
40
1
40
1
40
1
41
1
10
567.650480947162
20
2.93226159791612
30
0
41
1
10
567.875423713527
20
2.73894510745816
30
0
41
1
10
568.100191536751
20
2.54535781735058
30
0
41
1
10
568.324759526419
20
2.35146119898371
30
0
0
SPLINE
5
1BD
100
AcDbEntity
8
1
62
256
6
ByLayer
370
18
48
1
60
0
100
AcDbSpline
70
4
71
3
72
8
73
4
40
0
40
0
40
0
40
0
40
1
40
1
40
1
40
1
41
1
10
568.324759526419
20
2.77677947489116
30
0
41
1
10
568.107382666912
20
3.23816651619706
30
0
41
1
10
567.882352997816
20
3.69453016127869
30
0
41
1
10
567.650480947162
20
4.14640238483952
30
0
0
SPLINE
5
1BE
100
AcDbEntity
8
1
62
256
6
ByLayer
370
18
48
1
60
0
100
AcDbSpline
70
4
71
3
72
40
73
36
40
0
40
0
40
0
40
0
40
0.124999999999995
40
0.124999999999995
40
0.249999999999989
40
0.249999999999989
40
0.374999999999984
40
0.374999999999984
40
0.437499999999982
40
0.437499999999982
40
0.49999999999998
40
0.49999999999998
40
0.562499999999977
40
0.562499999999977
40
0.624999999999975
40
0.624999999999975
40
0.687499999999972
40
0.687499999999972
40
0.718749999999975
40
0.718749999999975
40
0.749999999999978
40
0.749999999999978
40
0.78124999999998
40
0.78124999999998
40
0.812499999999983
40
0.812499999999983
40
0.843749999999985
40
0.843749999999985
40
0.874999999999988
40
0.874999999999988
40
0.937499999999992
40
0.937499999999992
40
0.968749999999996
40
0.968749999999996
40
1
40
1
40
1
40
1
41
1
10
567.650480947162
20
4.14640238483952
30
0
41
1
10
567.639414958228
20
4.16796778270179
30
0
41
1
10
567.629040809078
20
4.1894982781842
30
0
41
1
10
567.609683150239
20
4.23248443205551
30
0
41
1
10
567.600665700982
20
4.25403048225786
30
0
41
1
10
567.584409180772
20
4.29647166063836
30
0
41
1
10
567.577153956557
20
4.31737839548009
30
0
41
1
10
567.56784509696
20
4.34817408247091
30
0
41
1
10
567.565006721943
20
4.35834447277091
30
0
41
1
10
567.55994833633
20
4.37846448887723
30
0
41
1
10
567.557723039423
20
4.38843673902426
30
0
41
1
10
567.554054354314
20
4.40801378137996
30
0
41
1
10
567.552625671844
20
4.41753047952153
30
0
41
1
10
567.550759790623
20
4.43590263268726
30
0
41
1
10
567.550318779816
20
4.4447605718961
30
0
41
1
10
567.550749497916
20
4.4616056545878
30
0
41
1
10
567.551636822927
20
4.46961043770676
30
0
41
1
10
567.554281873644
20
4.48024000518274
30
0
41
1
10
567.555383473851
20
4.48357031541411
30
0
41
1
10
567.55811068237
20
4.48972500719628
30
0
41
1
10
567.559751087798
20
4.49256724841069
30
0
41
1
10
567.5635955558
20
4.4975235357781
30
0
41
1
10
567.565792502249
20
4.49963974055277
30
0
41
1
10
567.570810054821
20
4.50305244188468
30
0
41
1
10
567.573662929114
20
4.50435108560652
30
0
41
1
10
567.579852338377
20
4.50594893745296
30
0
41
1
10
567.583198210382
20
4.50626627341148
30
0
41
1
10
567.59039654148
20
4.50593180130374
30
0
41
1
10
567.594295692839
20
4.50526513931652
30
0
41
1
10
567.606418497699
20
4.50187462243764
30
0
41
1
10
567.61493133613
20
4.49786692547207
30
0
41
1
10
567.628201605806
20
4.48983271770783
30
0
41
1
10
567.632697891774
20
4.48681559981952
30
0
41
1
10
567.641605111237
20
4.48034788222924
30
0
41
1
10
567.646047713552
20
4.47687842666693
30
0
41
1
10
567.650480947162
20
4.47320886309188
30
0
0
SPLINE
5
1BF
100
AcDbEntity
8
1
62
256
6
ByLayer
370
18
48
1
60
0
100
AcDbSpline
70
4
71
3
72
8
73
4
40
0
40
0
40
0
40
0
40
1
40
1
40
1
40
1
41
1
10
567.650480947162
20
4.47320886309132
30
0
41
1
10
567.87528177088
20
4.28713229076112
30
0
41
1
10
568.10004293855
20
4.10099187452852
30
0
41
1
10
568.324759526419
20
3.91477968744022
30
0
0
SPLINE
5
1C0
100
AcDbEntity
8
1
62
256
6
ByLayer
370
18
48
1
60
0
100
AcDbSpline
70
4
71
3
72
8
73
4
40
0
40
0
40
0
40
0
40
1
40
1
40
1
40
1
41
1
10
568.324759526419
20
4.25424827025262
30
0
41
1
10
568.105152654041
20
4.65871232422029
30
0
41
1
10
567.880211532645
20
5.05918605128039
30
0
41
1
10
567.650480947162
20
5.45607698208261
30
0
0
SPLINE
5
1C1
100
AcDbEntity
8
1
62
256
6
ByLayer
370
18
48
1
60
0
100
AcDbSpline
70
4
71
3
72
39
73
35
40
0
40
0
40
0
40
0
40
0.124999999999995
40
0.124999999999995
40
0.249999999999989
40
0.249999999999989
40
0.374999999999984
40
0.374999999999984
40
0.437499999999981
40
0.437499999999981
40
0.499999999999979
40
0.499999999999979
40
0.562499999999976
40
0.562499999999976
40
0.593749999999975
40
0.593749999999975
40
0.624999999999973
40
0.624999999999973
40
0.687499999999978
40
0.687499999999978
40
0.718749999999981
40
0.718749999999981
40
0.749999999999983
40
0.749999999999983
40
0.781249999999986
40
0.781249999999986
40
0.812499999999988
40
0.843749999999991
40
0.843749999999991
40
0.874999999999993
40
0.874999999999993
40
0.937499999999997
40
0.937499999999997
40
1
40
1
40
1
40
1
41
1
10
567.650480947162
20
5.45607698208261
30
0
41
1
10
567.639193035731
20
5.4755783891984
30
0
41
1
10
567.628590160519
20
5.4950150973001
30
0
41
1
10
567.608789608101
20
5.5337506274621
30
0
41
1
10
567.59955440175
20
5.55313947700199
30
0
41
1
10
567.58299604585
20
5.5910738569026
30
0
41
1
10
567.575636447461
20
5.60966836473972
30
0
41
1
10
567.566297083473
20
5.63687161685516
30
0
41
1
10
567.563469944102
20
5.64582357961399
30
0
41
1
10
567.558498129876
20
5.66345193270666
30
0
41
1
10
567.556355985995
20
5.67213388797364
30
0
41
1
10
567.552992495483
20
5.68878807280066
30
0
41
1
10
567.551755667217
20
5.69680549306736
30
0
41
1
10
567.550731607718
20
5.70825524651519
30
0
41
1
10
567.550529643809
20
5.71197518293104
30
0
41
1
10
567.550447718715
20
5.71919226421591
30
0
41
1
10
567.550569803588
20
5.72270314484615
30
0
41
1
10
567.551489172924
20
5.73267679605323
30
0
41
1
10
567.552823866437
20
5.73862663805801
30
0
41
1
10
567.556235634613
20
5.74619142979077
30
0
41
1
10
567.557622786118
20
5.74849727296282
30
0
41
1
10
567.560888621489
20
5.75248002392544
30
0
41
1
10
567.562763444322
20
5.75416222656168
30
0
41
1
10
567.567039967856
20
5.75685464573058
30
0
41
1
10
567.569461523802
20
5.75786914462259
30
0
41
1
10
567.574799687778
20
5.75912806095909
30
0
41
1
10
567.580568003688
20
5.75961474161289
30
0
41
1
10
567.587174135165
20
5.75860055353348
30
0
41
1
10
567.594197904459
20
5.75683961489432
30
0
41
1
10
567.597925489672
20
5.75557648566792
30
0
41
1
10
567.609307892352
20
5.75086724815321
30
0
41
1
10
567.617324482498
20
5.7464633141779
30
0
41
1
10
567.63384879861
20
5.73572462149968
30
0
41
1
10
567.642150093394
20
5.72953411366774
30
0
41
1
10
567.650480947162
20
5.72272748451758
30
0
0
SPLINE
5
1C2
100
AcDbEntity
8
1
62
256
6
ByLayer
370
18
48
1
60
0
100
AcDbSpline
70
4
71
3
72
8
73
4
40
0
40
0
40
0
40
0
40
1
40
1
40
1
40
1
41
1
10
567.650480947162
20
5.72272748451724
30
0
41
1
10
567.875242279349
20
5.53908879894846
30
0
41
1
10
568.10000187134
20
5.35544727349566
30
0
41
1
10
568.324759526419
20
5.17180258736579
30
0
0
SPLINE
5
1C3
100
AcDbEntity
8
1
62
256
6
ByLayer
370
18
48
1
60
0
100
AcDbSpline
70
4
71
3
72
8
73
4
40
0
40
0
40
0
40
0
40
1
40
1
40
1
40
1
41
1
10
568.324759526419
20
5.44736526887351
30
0
41
1
10
568.103764009202
20
5.81055984951604
30
0
41
1
10
567.878876276632
20
6.17051494165844
30
0
41
1
10
567.650480947162
20
6.52755066300915
30
0
0
SPLINE
5
1C4
100
AcDbEntity
8
1
62
256
6
ByLayer
370
18
48
1
60
0
100
AcDbSpline
70
4
71
3
72
41
73
37
40
0
40
0
40
0
40
0
40
0.125000000000012
40
0.125000000000012
40
0.187500000000016
40
0.187500000000016
40
0.25000000000002
40
0.25000000000002
40
0.375000000000023
40
0.375000000000023
40
0.437500000000019
40
0.437500000000019
40
0.500000000000017
40
0.500000000000017
40
0.562500000000014
40
0.562500000000014
40
0.625000000000011
40
0.625000000000011
40
0.656250000000009
40
0.656250000000009
40
0.687500000000008
40
0.687500000000008
40
0.718750000000006
40
0.718750000000006
40
0.750000000000004
40
0.750000000000004
40
0.812500000000002
40
0.812500000000002
40
0.843750000000002
40
0.843750000000002
40
0.875000000000001
40
0.906250000000001
40
0.906250000000001
40
0.937500000000001
40
0.937500000000001
40
1
40
1
40
1
40
1
41
1
10
567.650480947162
20
6.52755066300915
30
0
41
1
10
567.638981804677
20
6.54552653248714
30
0
41
1
10
567.62814548197
20
6.56342061513442
30
0
41
1
10
567.612939206481
20
6.5901281849026
30
0
41
1
10
567.608042788563
20
6.59901694963719
30
0
41
1
10
567.598721928768
20
6.6165648982946
30
0
41
1
10
567.594284643271
20
6.62524576345737
30
0
41
1
10
567.581686936374
20
6.65098964791429
30
0
41
1
10
567.574223281786
20
6.66776107810853
30
0
41
1
10
567.564837577099
20
6.69216044624409
30
0
41
1
10
567.562006278076
20
6.70019816617037
30
0
41
1
10
567.557184605238
20
6.71564770882065
30
0
41
1
10
567.555179368067
20
6.72309049730632
30
0
41
1
10
567.552137250522
20
6.73730431654121
30
0
41
1
10
567.551097322754
20
6.74407742731887
30
0
41
1
10
567.550263647968
20
6.75676173901911
30
0
41
1
10
567.550482593648
20
6.76251918785931
30
0
41
1
10
567.551971457481
20
6.77006132301358
30
0
41
1
10
567.552662227263
20
6.77239349282763
30
0
41
1
10
567.554488589318
20
6.77664257220505
30
0
41
1
10
567.555629696968
20
6.77855826713733
30
0
41
1
10
567.558347744801
20
6.78182817428103
30
0
41
1
10
567.559929168047
20
6.7831969176479
30
0
41
1
10
567.563569638857
20
6.78536371952828
30
0
41
1
10
567.565645521329
20
6.78616477897845
30
0
41
1
10
567.572537810431
20
6.78760652713356
30
0
41
1
10
567.57792665398
20
6.78729666476056
30
0
41
1
10
567.587151619285
20
6.78501108169377
30
0
41
1
10
567.590446302725
20
6.78393130720747
30
0
41
1
10
567.597241521147
20
6.78123384869014
30
0
41
1
10
567.604247829043
20
6.77800720796836
30
0
41
1
10
567.61163322165
20
6.77383224883232
30
0
41
1
10
567.619193271317
20
6.76922111579222
30
0
41
1
10
567.623071327699
20
6.76668862676377
30
0
41
1
10
567.634714931172
20
6.75864895321933
30
0
41
1
10
567.642563586242
20
6.7526628820392
30
0
41
1
10
567.650480947162
20
6.74617999157215
30
0
0
SPLINE
5
1C5
100
AcDbEntity
8
1
62
256
6
ByLayer
370
18
48
1
60
0
100
AcDbSpline
70
4
71
3
72
8
73
4
40
0
40
0
40
0
40
0
40
1
40
1
40
1
40
1
41
1
10
567.650480947162
20
6.74617999157192
30
0
41
1
10
567.875247737629
20
6.56213653340296
30
0
41
1
10
568.100007511727
20
6.37808164940662
30
0
41
1
10
568.324759526419
20
6.19401413331479
30
0
0
SPLINE
5
1C6
100
AcDbEntity
8
1
62
256
6
ByLayer
370
18
48
1
60
0
100
AcDbSpline
70
4
71
3
72
8
73
4
40
0
40
0
40
0
40
0
40
1
40
1
40
1
40
1
41
1
10
568.324759526419
20
6.41823966660246
30
0
41
1
10
568.10282976625
20
6.74969542669066
30
0
41
1
10
567.87797677687
20
7.0784874839772
30
0
41
1
10
567.650480947162
20
7.40487133421573
30
0
0
SPLINE
5
1C7
100
AcDbEntity
8
1
62
256
6
ByLayer
370
18
48
1
60
0
100
AcDbSpline
70
4
71
3
72
34
73
30
40
0
40
0
40
0
40
0
40
0.124999999999989
40
0.124999999999989
40
0.249999999999977
40
0.249999999999977
40
0.312499999999973
40
0.312499999999973
40
0.374999999999968
40
0.374999999999968
40
0.499999999999959
40
0.499999999999959
40
0.56249999999996
40
0.56249999999996
40
0.624999999999961
40
0.624999999999961
40
0.687499999999962
40
0.687499999999962
40
0.718749999999963
40
0.718749999999963
40
0.749999999999964
40
0.749999999999964
40
0.812499999999973
40
0.812499999999973
40
0.874999999999982
40
0.874999999999982
40
0.937499999999991
40
0.937499999999991
40
1
40
1
40
1
40
1
41
1
10
567.650480947162
20
7.40487133421573
30
0
41
1
10
567.638779782576
20
7.42165876787863
30
0
41
1
10
567.627693116502
20
7.43837588604066
30
0
41
1
10
567.607002473869
20
7.47141079330811
30
0
41
1
10
567.597504579954
20
7.48755248325574
30
0
41
1
10
567.584701626499
20
7.51112046269355
30
0
41
1
10
567.580676613219
20
7.51886815968101
30
0
41
1
10
567.57317678391
20
7.53411759663794
30
0
41
1
10
567.569687169971
20
7.54165321443679
30
0
41
1
10
567.560306547285
20
7.56357463068611
30
0
41
1
10
567.555515793997
20
7.57715590301285
30
0
41
1
10
567.551444442405
20
7.595334081104
30
0
41
1
10
567.550629414815
20
7.60101582964785
30
0
41
1
10
567.550369704541
20
7.61104102357569
30
0
41
1
10
567.550906911697
20
7.61544083184418
30
0
41
1
10
567.553649785601
20
7.62271193063361
30
0
41
1
10
567.555833495619
20
7.62547963890898
30
0
41
1
10
567.560418657478
20
7.6281044544242
30
0
41
1
10
567.562180578905
20
7.62873026859307
30
0
41
1
10
567.56612484049
20
7.62942999882603
30
0
41
1
10
567.568286199411
20
7.62950430111471
30
0
41
1
10
567.575316333567
20
7.62893339780271
30
0
41
1
10
567.580743615076
20
7.62749284749236
30
0
41
1
10
567.592956646791
20
7.62257602639267
30
0
41
1
10
567.599500450861
20
7.61920443991403
30
0
41
1
10
567.613308831924
20
7.61096207583233
30
0
41
1
10
567.620630234375
20
7.60604175176593
30
0
41
1
10
567.635395579301
20
7.59526308731972
30
0
41
1
10
567.642891402848
20
7.58937893537473
30
0
41
1
10
567.650480947162
20
7.58308644885358
30
0
0
SPLINE
5
1C8
100
AcDbEntity
8
1
62
256
6
ByLayer
370
18
48
1
60
0
100
AcDbSpline
70
4
71
3
72
8
73
4
40
0
40
0
40
0
40
0
40
1
40
1
40
1
40
1
41
1
10
567.650480947162
20
7.58308644885341
30
0
41
1
10
567.875278354979
20
7.39670705634086
30
0
41
1
10
568.100039125586
20
7.21026872787752
30
0
41
1
10
568.324759526419
20
7.02376555730251
30
0
0
SPLINE
5
1C9
100
AcDbEntity
8
1
62
256
6
ByLayer
370
18
48
1
60
0
100
AcDbSpline
70
4
71
3
72
8
73
4
40
0
40
0
40
0
40
0
40
1
40
1
40
1
40
1
41
1
10
568.324759526419
20
7.20453701062598
30
0
41
1
10
568.102167049584
20
7.51058417609931
30
0
41
1
10
567.877337890168
20
7.81442579774125
30
0
41
1
10
567.650480947162
20
8.11626786628182
30
0
0
SPLINE
5
1CA
100
AcDbEntity
8
1
62
256
6
ByLayer
370
18
48
1
60
0
100
AcDbSpline
70
4
71
3
72
41
73
37
40
0
40
0
40
0
40
0
40
0.0625000000000042
40
0.0625000000000042
40
0.125000000000008
40
0.125000000000008
40
0.250000000000024
40
0.250000000000024
40
0.312500000000029
40
0.312500000000029
40
0.375000000000034
40
0.375000000000034
40
0.437500000000039
40
0.468750000000041
40
0.468750000000041
40
0.500000000000044
40
0.500000000000044
40
0.56250000000004
40
0.56250000000004
40
0.625000000000035
40
0.625000000000035
40
0.687500000000031
40
0.687500000000031
40
0.750000000000027
40
0.750000000000027
40
0.781250000000026
40
0.781250000000026
40
0.812500000000024
40
0.812500000000024
40
0.875000000000019
40
0.875000000000019
40
0.906250000000012
40
0.906250000000012
40
0.937500000000006
40
0.937500000000006
40
1
40
1
40
1
40
1
41
1
10
567.650480947162
20
8.11626786628182
30
0
41
1
10
567.644530707472
20
8.12418489378183
30
0
41
1
10
567.638734660478
20
8.13206618819623
30
0
41
1
10
567.627462614209
20
8.14775376764453
30
0
41
1
10
567.621983627572
20
8.15556558543966
30
0
41
1
10
567.606226071217
20
8.17863190556955
30
0
41
1
10
567.59655639816
20
8.19360385166925
30
0
41
1
10
567.583525644729
20
8.21534106995176
30
0
41
1
10
567.579429881241
20
8.22246563173388
30
0
41
1
10
567.571814377828
20
8.23643252845255
30
0
41
1
10
567.568318980523
20
8.24323455426725
30
0
41
1
10
567.562151731737
20
8.25620213685681
30
0
41
1
10
567.558116055743
20
8.2654991328198
30
0
41
1
10
567.555124307769
20
8.27403758508422
30
0
41
1
10
567.553390593519
20
8.27954050457686
30
0
41
1
10
567.552653442229
20
8.28220283654116
30
0
41
1
10
567.550910298472
20
8.28974061076633
30
0
41
1
10
567.550352356246
20
8.29421474844673
30
0
41
1
10
567.550659068286
20
8.3018677379402
30
0
41
1
10
567.551551382701
20
8.30505947818813
30
0
41
1
10
567.554942046485
20
8.30962666019212
30
0
41
1
10
567.55744201508
20
8.31105029366995
30
0
41
1
10
567.564147905172
20
8.31196087022187
30
0
41
1
10
567.568227742826
20
8.31143990485288
30
0
41
1
10
567.575359496822
20
8.30930348542245
30
0
41
1
10
567.577906330663
20
8.30836428157164
30
0
41
1
10
567.583336023074
20
8.30603663341071
30
0
41
1
10
567.586212296449
20
8.30464877609904
30
0
41
1
10
567.595094710497
20
8.29995851104962
30
0
41
1
10
567.601422754011
20
8.29610495866126
30
0
41
1
10
567.611436330013
20
8.28939550448166
30
0
41
1
10
567.614876803774
20
8.28699173655929
30
0
41
1
10
567.62181975771
20
8.28196505563733
30
0
41
1
10
567.625327553302
20
8.2793394829975
30
0
41
1
10
567.635948792471
20
8.27116112251292
30
0
41
1
10
567.643159471795
20
8.26530865126676
30
0
41
1
10
567.650480947162
20
8.25911591029495
30
0
0
SPLINE
5
1CB
100
AcDbEntity
8
1
62
256
6
ByLayer
370
18
48
1
60
0
100
AcDbSpline
70
4
71
3
72
8
73
4
40
0
40
0
40
0
40
0
40
1
40
1
40
1
40
1
41
1
10
567.650480947162
20
8.25911591029484
30
0
41
1
10
567.875326782245
20
8.0689340213255
30
0
41
1
10
568.100089025132
20
7.8786205059024
30
0
41
1
10
568.324759526419
20
7.68816253176112
30
0
0
SPLINE
5
1CC
100
AcDbEntity
8
1
62
256
6
ByLayer
370
18
48
1
60
0
100
AcDbSpline
70
4
71
3
72
8
73
4
40
0
40
0
40
0
40
0
40
1
40
1
40
1
40
1
41
1
10
568.324759526419
20
7.83069246411924
30
0
41
1
10
568.101678442285
20
8.11580555548477
30
0
41
1
10
567.876866272618
20
8.39908772121976
30
0
41
1
10
567.650480947162
20
8.68070599964432
30
0
0
SPLINE
5
1CD
100
AcDbEntity
8
1
62
256
6
ByLayer
370
18
48
1
60
0
100
AcDbSpline
70
4
71
3
72
38
73
34
40
0
40
0
40
0
40
0
40
0.0625000000000018
40
0.0625000000000018
40
0.125000000000004
40
0.125000000000004
40
0.250000000000006
40
0.250000000000006
40
0.312500000000005
40
0.312500000000005
40
0.375000000000004
40
0.375000000000004
40
0.437500000000003
40
0.437500000000003
40
0.500000000000002
40
0.500000000000002
40
0.562500000000001
40
0.562500000000001
40
0.625
40
0.625
40
0.687499999999998
40
0.687499999999998
40
0.749999999999997
40
0.749999999999997
40
0.781249999999996
40
0.781249999999996
40
0.812499999999995
40
0.812499999999995
40
0.874999999999997
40
0.874999999999997
40
0.937499999999998
40
0.937499999999998
40
1
40
1
40
1
40
1
41
1
10
567.650480947162
20
8.68070599964432
30
0
41
1
10
567.644435066044
20
8.68822694044883
30
0
41
1
10
567.638541009106
20
8.69569548358447
30
0
41
1
10
567.627070710279
20
8.71052195410442
30
0
41
1
10
567.621478397149
20
8.71790193383345
30
0
41
1
10
567.605382543492
20
8.73963673811033
30
0
41
1
10
567.59552307329
20
8.75362131766809
30
0
41
1
10
567.582291758194
20
8.77368827433253
30
0
41
1
10
567.578143409899
20
8.78022419053013
30
0
41
1
10
567.570463431254
20
8.79293505052698
30
0
41
1
10
567.566983467967
20
8.79902667250065
30
0
41
1
10
567.560894095359
20
8.8105111646513
30
0
41
1
10
567.558273629461
20
8.81592111539601
30
0
41
1
10
567.554041861198
20
8.82595053184951
30
0
41
1
10
567.552432376484
20
8.83058642492358
30
0
41
1
10
567.550538980103
20
8.83858893348059
30
0
41
1
10
567.550233118891
20
8.84200390822627
30
0
41
1
10
567.551141496283
20
8.84740288328919
30
0
41
1
10
567.552342069685
20
8.8493113044687
30
0
41
1
10
567.556322566542
20
8.85145744930946
30
0
41
1
10
567.559156903261
20
8.85166939924153
30
0
41
1
10
567.566155193741
20
8.85035160617912
30
0
41
1
10
567.570327284129
20
8.84885166436908
30
0
41
1
10
567.57754044284
20
8.84541147433794
30
0
41
1
10
567.580121827421
20
8.84405510439842
30
0
41
1
10
567.585487525657
20
8.84101347900645
30
0
41
1
10
567.588275661537
20
8.83932807404227
30
0
41
1
10
567.596927885113
20
8.83382273371751
30
0
41
1
10
567.603078037699
20
8.82955644162524
30
0
41
1
10
567.616050433374
20
8.81997866068383
30
0
41
1
10
567.622764082909
20
8.81474580226023
30
0
41
1
10
567.636420273296
20
8.80366381713714
30
0
41
1
10
567.643389119659
20
8.79779440239378
30
0
41
1
10
567.650480947162
20
8.79163906058523
30
0
0
SPLINE
5
1CE
100
AcDbEntity
8
1
62
256
6
ByLayer
370
18
48
1
60
0
100
AcDbSpline
70
4
71
3
72
8
73
4
40
0
40
0
40
0
40
0
40
1
40
1
40
1
40
1
41
1
10
567.650480947162
20
8.79163906058523
30
0
41
1
10
567.875390693943
20
8.59642895894717
30
0
41
1
10
568.100154848045
20
8.40099561220677
30
0
41
1
10
568.324759526419
20
8.2053177327395
30
0
0
SPLINE
5
1CF
100
AcDbEntity
8
1
62
256
6
ByLayer
370
18
48
1
60
0
100
AcDbSpline
70
4
71
3
72
8
73
4
40
0
40
0
40
0
40
0
40
1
40
1
40
1
40
1
41
1
10
568.324759526419
20
8.31313992055976
30
0
41
1
10
568.101307459449
20
8.58063653668881
30
0
41
1
10
567.876507770666
20
8.8466150387261
30
0
41
1
10
567.650480947162
20
9.11121115699939
30
0
0
SPLINE
5
1D0
100
AcDbEntity
8
1
62
256
6
ByLayer
370
18
48
1
60
0
100
AcDbSpline
70
4
71
3
72
37
73
33
40
0
40
0
40
0
40
0
40
0.124999999999993
40
0.124999999999993
40
0.249999999999985
40
0.249999999999985
40
0.312499999999982
40
0.312499999999982
40
0.374999999999978
40
0.374999999999978
40
0.437499999999974
40
0.437499999999974
40
0.468749999999973
40
0.468749999999973
40
0.499999999999971
40
0.531249999999969
40
0.531249999999969
40
0.562499999999967
40
0.562499999999967
40
0.624999999999965
40
0.624999999999965
40
0.656249999999966
40
0.656249999999966
40
0.687499999999968
40
0.687499999999968
40
0.749999999999975
40
0.749999999999975
40
0.812499999999981
40
0.812499999999981
40
0.874999999999987
40
0.874999999999987
40
1
40
1
40
1
40
1
41
1
10
567.650480947162
20
9.11121115699939
30
0
41
1
10
567.638202144537
20
9.12558521872012
30
0
41
1
10
567.626485867576
20
9.13971449450213
30
0
41
1
10
567.604552320067
20
9.16715106314291
30
0
41
1
10
567.594502099815
20
9.18024459765786
30
0
41
1
10
567.581082092083
20
9.19874906981323
30
0
41
1
10
567.57688735265
20
9.20472606788996
30
0
41
1
10
567.569160111633
20
9.21622461593921
30
0
41
1
10
567.565703840036
20
9.22163341163412
30
0
41
1
10
567.559712993625
20
9.23167318937419
30
0
41
1
10
567.557175330865
20
9.23630777325104
30
0
41
1
10
567.554189582967
20
9.24256860083733
30
0
41
1
10
567.55333114082
20
9.24454391968413
30
0
41
1
10
567.551945089713
20
9.24817067912335
30
0
41
1
10
567.550880306039
20
9.25149152125351
30
0
41
1
10
567.550493173189
20
9.25416727836318
30
0
41
1
10
567.550469840073
20
9.25649687716151
30
0
41
1
10
567.55064329357
20
9.2574911476068
30
0
41
1
10
567.551729677775
20
9.25986276225905
30
0
41
1
10
567.553197894126
20
9.26065672569172
30
0
41
1
10
567.556546564706
20
9.26063681510328
30
0
41
1
10
567.557864176504
20
9.26042451909052
30
0
41
1
10
567.56084962648
20
9.25959374823969
30
0
41
1
10
567.562509311231
20
9.25897980996456
30
0
41
1
10
567.567961306
20
9.25657623302197
30
0
41
1
10
567.572230449554
20
9.254223815366
30
0
41
1
10
567.581924074944
20
9.24813562338932
30
0
41
1
10
567.587203153222
20
9.24449316063721
30
0
41
1
10
567.598484907468
20
9.23620998229444
30
0
41
1
10
567.604518790299
20
9.23154327162297
30
0
41
1
10
567.623400016941
20
9.21635779938231
30
0
41
1
10
567.636681697516
20
9.20495439358245
30
0
41
1
10
567.650480947162
20
9.19260491285752
30
0
0
SPLINE
5
1D1
100
AcDbEntity
8
1
62
256
6
ByLayer
370
18
48
1
60
0
100
AcDbSpline
70
4
71
3
72
8
73
4
40
0
40
0
40
0
40
0
40
1
40
1
40
1
40
1
41
1
10
567.650480947162
20
9.19260491285746
30
0
41
1
10
567.875470342809
20
8.9912532251729
30
0
41
1
10
568.100236859786
20
8.78957038042915
30
0
41
1
10
568.324759526419
20
8.5875252185437
30
0
0
SPLINE
5
1D2
100
AcDbEntity
8
1
62
256
6
ByLayer
370
18
48
1
60
0
100
AcDbSpline
70
4
71
3
72
8
73
4
40
0
40
0
40
0
40
0
40
1
40
1
40
1
40
1
41
1
10
568.324759526419
20
8.66302745403323
30
0
41
1
10
568.101019214676
20
8.91546545317647
30
0
41
1
10
567.876228917632
20
9.16665093997483
30
0
41
1
10
567.650480947162
20
9.41669403193259
30
0
0
SPLINE
5
1D3
100
AcDbEntity
8
1
62
256
6
ByLayer
370
18
48
1
60
0
100
AcDbSpline
70
4
71
3
72
37
73
33
40
0
40
0
40
0
40
0
40
0.0624999999999979
40
0.0624999999999979
40
0.124999999999996
40
0.124999999999996
40
0.249999999999991
40
0.249999999999991
40
0.312499999999993
40
0.312499999999993
40
0.374999999999994
40
0.406249999999993
40
0.406249999999993
40
0.437499999999991
40
0.437499999999991
40
0.499999999999988
40
0.499999999999988
40
0.531249999999988
40
0.531249999999988
40
0.562499999999988
40
0.562499999999988
40
0.624999999999991
40
0.624999999999991
40
0.687499999999993
40
0.687499999999993
40
0.749999999999996
40
0.749999999999996
40
0.812499999999998
40
0.812499999999998
40
0.875000000000001
40
0.875000000000001
40
1
40
1
40
1
40
1
41
1
10
567.650480947162
20
9.41669403193259
30
0
41
1
10
567.644233516261
20
9.4236138148035
30
0
41
1
10
567.638128791671
20
9.43044724213195
30
0
41
1
10
567.626224587922
20
9.44392824694143
30
0
41
1
10
567.620408632679
20
9.45059533984551
30
0
41
1
10
567.603696944729
20
9.47001877302483
30
0
41
1
10
567.593459438986
20
9.48227768691913
30
0
41
1
10
567.579801977808
20
9.49935979097694
30
0
41
1
10
567.575513158025
20
9.50486532286681
30
0
41
1
10
567.567827277759
20
9.5150761747949
30
0
41
1
10
567.562698992221
20
9.52217182889586
30
0
41
1
10
567.55866279162
20
9.5283005792956
30
0
41
1
10
567.556240243351
20
9.53214882412317
30
0
41
1
10
567.555161120897
20
9.5339584350358
30
0
41
1
10
567.552417952635
20
9.53890216359349
30
0
41
1
10
567.551221826353
20
9.54158841952835
30
0
41
1
10
567.550485616375
20
9.54459859536075
30
0
41
1
10
567.55041909126
20
9.54543402492573
30
0
41
1
10
567.550661814729
20
9.54671283698849
30
0
41
1
10
567.550968230582
20
9.54716054174628
30
0
41
1
10
567.552439131489
20
9.54793245934343
30
0
41
1
10
567.554154903999
20
9.54768758628614
30
0
41
1
10
567.559095757758
20
9.54563002928893
30
0
41
1
10
567.562230525272
20
9.5438567909988
30
0
41
1
10
567.569682176899
20
9.53898834073135
30
0
41
1
10
567.574051131848
20
9.53585161537495
30
0
41
1
10
567.583612877603
20
9.52855703950894
30
0
41
1
10
567.58879748384
20
9.52441100224752
30
0
41
1
10
567.599860114334
20
9.51526503694737
30
0
41
1
10
567.605784818522
20
9.51022357766897
30
0
41
1
10
567.624098620595
20
9.49429171377335
30
0
41
1
10
567.637015243456
20
9.48262113755794
30
0
41
1
10
567.650480947162
20
9.4701429912256
30
0
0
SPLINE
5
1D4
100
AcDbEntity
8
1
62
256
6
ByLayer
370
18
48
1
60
0
100
AcDbSpline
70
4
71
3
72
8
73
4
40
0
40
0
40
0
40
0
40
1
40
1
40
1
40
1
41
1
10
567.650480947162
20
9.47014299122554
30
0
41
1
10
567.875567648883
20
9.26156385841358
30
0
41
1
10
568.10033706691
20
9.05252988602149
30
0
41
1
10
568.324759526419
20
8.84299853393827
30
0
0
SPLINE
5
1D5
100
AcDbEntity
8
1
62
256
6
ByLayer
370
18
48
1
60
0
100
AcDbSpline
70
4
71
3
72
8
73
4
40
0
40
0
40
0
40
0
40
1
40
1
40
1
40
1
41
1
10
568.324759526419
20
8.88772336069115
30
0
41
1
10
568.100791090601
20
9.12714334966512
30
0
41
1
10
567.876008003165
20
9.36553939573849
30
0
41
1
10
567.650480947162
20
9.60300034106916
30
0
0
SPLINE
5
1D6
100
AcDbEntity
8
1
62
256
6
ByLayer
370
18
48
1
60
0
100
AcDbSpline
70
4
71
3
72
37
73
33
40
0
40
0
40
0
40
0
40
0.125000000000009
40
0.125000000000009
40
0.187500000000011
40
0.187500000000011
40
0.250000000000014
40
0.250000000000014
40
0.312500000000016
40
0.343750000000017
40
0.343750000000017
40
0.375000000000019
40
0.375000000000019
40
0.437500000000019
40
0.437500000000019
40
0.468750000000018
40
0.468750000000018
40
0.500000000000016
40
0.500000000000016
40
0.562500000000014
40
0.562500000000014
40
0.625000000000012
40
0.625000000000012
40
0.68750000000001
40
0.68750000000001
40
0.750000000000007
40
0.750000000000007
40
0.812500000000005
40
0.812500000000005
40
0.875000000000003
40
0.875000000000003
40
1
40
1
40
1
40
1
41
1
10
567.650480947162
20
9.60300034106916
30
0
41
1
10
567.637713524711
20
9.61644335876446
30
0
41
1
10
567.625555134204
20
9.62939908485367
30
0
41
1
10
567.60856985031
20
9.64776886997726
30
0
41
1
10
567.603108564082
20
9.65372386173073
30
0
41
1
10
567.592645038061
20
9.66524691203847
30
0
41
1
10
567.587628553198
20
9.67083184484511
30
0
41
1
10
567.578394061832
20
9.68125409073809
30
0
41
1
10
567.572016535815
20
9.68856482975923
30
0
41
1
10
567.566579562048
20
9.69500581141472
30
0
41
1
10
567.563185659207
20
9.69908622913169
30
0
41
1
10
567.561600856608
20
9.70102388892548
30
0
41
1
10
567.557303071354
20
9.70638933191805
30
0
41
1
10
567.555014755975
20
9.70940653018931
30
0
41
1
10
567.552553203198
20
9.71298948420491
30
0
41
1
10
567.551893247071
20
9.71403011611255
30
0
41
1
10
567.550941407315
20
9.71574016022862
30
0
41
1
10
567.550646743411
20
9.71641246945904
30
0
41
1
10
567.550307456757
20
9.71788033599086
30
0
41
1
10
567.550804218981
20
9.71813014535252
30
0
41
1
10
567.553323180194
20
9.7170929258188
30
0
41
1
10
567.555303382755
20
9.71582129198282
30
0
41
1
10
567.560517793468
20
9.71195665894413
30
0
41
1
10
567.563756830219
20
9.70936087410092
30
0
41
1
10
567.571431586465
20
9.70291489926484
30
0
41
1
10
567.575773222109
20
9.699143259072
30
0
41
1
10
567.585223568068
20
9.69074862945371
30
0
41
1
10
567.59034747327
20
9.68611253461034
30
0
41
1
10
567.601310018783
20
9.67605609254878
30
0
41
1
10
567.607046357809
20
9.67072942459697
30
0
41
1
10
567.624771194315
20
9.65411905680111
30
0
41
1
10
567.637325338164
20
9.642161607454
30
0
41
1
10
567.650480947162
20
9.62948936820567
30
0
0
SPLINE
5
1D7
100
AcDbEntity
8
1
62
256
6
ByLayer
370
18
48
1
60
0
100
AcDbSpline
70
4
71
3
72
8
73
4
40
0
40
0
40
0
40
0
40
1
40
1
40
1
40
1
41
1
10
567.650480947162
20
9.62948936820567
30
0
41
1
10
567.875685997486
20
9.41255891076685
30
0
41
1
10
568.100458994954
20
9.19503327622806
30
0
41
1
10
568.324759526419
20
8.97685679320995
30
0
0
SPLINE
5
1D8
100
AcDbEntity
8
1
62
256
6
ByLayer
370
18
48
1
60
0
100
AcDbSpline
70
4
71
3
72
8
73
4
40
0
40
0
40
0
40
0
40
1
40
1
40
1
40
1
41
1
10
568.324759526419
20
8.99167169445593
30
0
41
1
10
568.100607863251
20
9.21975466987084
30
0
41
1
10
567.875830405165
20
9.44701251069966
30
0
41
1
10
567.650480947162
20
9.67351614771059
30
0
0
SPLINE
5
1D9
100
AcDbEntity
8
1
62
256
6
ByLayer
370
18
48
1
60
0
100
AcDbSpline
70
2053
71
3
72
40
73
36
40
0
40
0
40
0
40
0
40
0.0624999999999956
40
0.0624999999999956
40
0.124999999999991
40
0.124999999999991
40
0.249999999999982
40
0.249999999999982
40
0.312499999999979
40
0.312499999999979
40
0.343749999999979
40
0.343749999999979
40
0.37499999999998
40
0.37499999999998
40
0.43749999999998
40
0.43749999999998
40
0.46874999999998
40
0.46874999999998
40
0.499999999999981
40
0.499999999999981
40
0.562499999999981
40
0.562499999999981
40
0.593749999999981
40
0.593749999999981
40
0.624999999999982
40
0.624999999999982
40
0.687499999999984
40
0.687499999999984
40
0.749999999999987
40
0.749999999999987
40
0.81249999999999
40
0.81249999999999
40
0.874999999999993
40
0.874999999999993
40
1
40
1
40
1
40
1
41
1
10
567.650480947162
20
9.67351614771059
30
0
41
1
10
567.643995528497
20
9.6800347829365
30
0
41
1
10
567.637641930967
20
9.68642409830244
30
0
41
1
10
567.625223781212
20
9.69891773300827
30
0
41
1
10
567.619159362558
20
9.70502194905055
30
0
41
1
10
567.601760540395
20
9.72254228303581
30
0
41
1
10
567.591092877904
20
9.73329462463846
30
0
41
1
10
567.576962978984
20
9.74754554778968
30
0
41
1
10
567.572665768936
20
9.75188121991943
30
0
41
1
10
567.566937041454
20
9.75766266878873
30
0
41
1
10
567.565146159727
20
9.75947030348328
30
0
41
1
10
567.561821741835
20
9.76282620129842
30
0
41
1
10
567.560285385347
20
9.7643773132462
30
0
41
1
10
567.556170769704
20
9.76853182457756
30
0
41
1
10
567.554054662599
20
9.77066898424636
30
0
41
1
10
567.551904777518
20
9.77284038556547
30
0
41
1
10
567.551358069514
20
9.77339260144765
30
0
41
1
10
567.550642684802
20
9.77411520325683
30
0
41
1
10
567.550471174801
20
9.77428845045677
30
0
41
1
10
567.550501778366
20
9.77425753736367
30
0
41
1
10
567.551246131199
20
9.77350561707175
30
0
41
1
10
567.553449587003
20
9.77128011911998
30
0
41
1
10
567.554366440456
20
9.77035413314627
30
0
41
1
10
567.556507437831
20
9.76819200728931
30
0
41
1
10
567.557735591993
20
9.76695181711023
30
0
41
1
10
567.561863192775
20
9.76278423519852
30
0
41
1
10
567.565218581561
20
9.75939689923166
30
0
41
1
10
567.572951716672
20
9.75159268784734
30
0
41
1
10
567.577252302461
20
9.74725369068449
30
0
41
1
10
567.586584704884
20
9.73784146922708
30
0
41
1
10
567.591617667416
20
9.73276708578811
30
0
41
1
10
567.602342916789
20
9.72195815563538
30
0
41
1
10
567.607954623723
20
9.71630483568799
30
0
41
1
10
567.625296915117
20
9.6988417531482
30
0
41
1
10
567.637586054382
20
9.68647708464545
30
0
41
1
10
567.650480947162
20
9.67351614771059
30
0
0
SPLINE
5
1DA
100
AcDbEntity
8
1
62
256
6
ByLayer
370
18
48
1
60
0
100
AcDbSpline
70
4
71
3
72
24
73
20
40
0
40
0
40
0
40
0
40
0.0032691599463277
40
0.0032691599463277
40
0.127860514953034
40
0.127860514953034
40
0.190156192456383
40
0.190156192456383
40
0.252451869959733
40
0.252451869959733
40
0.377043224966445
40
0.377043224966445
40
0.501634579973157
40
0.501634579973157
40
0.626225934979868
40
0.626225934979868
40
0.75081728998658
40
0.75081728998658
40
1
40
1
40
1
40
1
41
1
10
567.550481724958
20
-29.7742777935635
30
0
41
1
10
567.550480102094
20
-29.7742794328036
30
0
41
1
10
567.550481293724
20
-29.7742782291897
30
0
41
1
10
567.550501778366
20
-29.7742575373637
30
0
41
1
10
567.551246131199
20
-29.7735056170718
30
0
41
1
10
567.553449587003
20
-29.77128011912
30
0
41
1
10
567.554366440456
20
-29.7703541331464
30
0
41
1
10
567.556507437831
20
-29.7681920072894
30
0
41
1
10
567.557735591993
20
-29.7669518171103
30
0
41
1
10
567.561863192775
20
-29.7627842351986
30
0
41
1
10
567.565218581561
20
-29.7593968992317
30
0
41
1
10
567.572951716672
20
-29.7515926878474
30
0
41
1
10
567.577252302461
20
-29.7472536906846
30
0
41
1
10
567.586584704884
20
-29.7378414692272
30
0
41
1
10
567.591617667416
20
-29.7327670857882
30
0
41
1
10
567.602342916789
20
-29.7219581556355
30
0
41
1
10
567.607954623723
20
-29.716304835688
30
0
41
1
10
567.625296915117
20
-29.6988417531483
30
0
41
1
10
567.637586054382
20
-29.6864770846455
30
0
41
1
10
567.650480947162
20
-29.6735161477106
30
0
0
SPLINE
5
1DB
100
AcDbEntity
8
1
62
256
6
ByLayer
370
18
48
1
60
0
100
AcDbSpline
70
4
71
3
72
8
73
4
40
0
40
0
40
0
40
0
40
1
40
1
40
1
40
1
41
1
10
567.650480947162
20
-29.6735161477106
30
0
41
1
10
567.875830405165
20
-29.4470125106997
30
0
41
1
10
568.100607863251
20
-29.2197546698709
30
0
41
1
10
568.324759526419
20
-28.991671694456
30
0
0
SPLINE
5
1DC
100
AcDbEntity
8
1
62
256
6
ByLayer
370
18
48
1
60
0
100
AcDbSpline
70
4
71
3
72
8
73
4
40
0
40
0
40
0
40
0
40
1
40
1
40
1
40
1
41
1
10
568.324759526419
20
-28.97685679321
30
0
41
1
10
568.100458994954
20
-29.1950332762281
30
0
41
1
10
567.875685997486
20
-29.4125589107669
30
0
41
1
10
567.650480947162
20
-29.6294893682057
30
0
0
SPLINE
5
1DD
100
AcDbEntity
8
1
62
256
6
ByLayer
370
13
48
1
60
0
100
AcDbSpline
70
4
71
3
72
30
73
26
40
0
40
0
40
0
40
0
40
0.124999999999999
40
0.124999999999999
40
0.249999999999998
40
0.249999999999998
40
0.312499999999997
40
0.312499999999997
40
0.343749999999997
40
0.343749999999997
40
0.374999999999997
40
0.499999999999997
40
0.499999999999997
40
0.624999999999998
40
0.624999999999998
40
0.687499999999998
40
0.687499999999998
40
0.749999999999999
40
0.749999999999999
40
0.874999999999999
40
0.874999999999999
40
0.9375
40
0.96875
40
0.96875
40
1
40
1
40
1
40
1
41
1
10
566.5
20
-28.5243902439025
30
0
41
1
10
566.5
20
-28.6463456924521
30
0
41
1
10
566.494867295457
20
-28.7607822397311
30
0
41
1
10
566.477322865052
20
-28.9747784554307
30
0
41
1
10
566.464881574937
20
-29.074337447342
30
0
41
1
10
566.442095788348
20
-29.2125395608472
30
0
41
1
10
566.433807020244
20
-29.2567499092746
30
0
41
1
10
566.420463067924
20
-29.3202742697901
30
0
41
1
10
566.415861533638
20
-29.3409900334813
30
0
41
1
10
566.406382851588
20
-29.3814505483905
30
0
41
1
10
566.38199430259
20
-29.4801781976742
30
0
41
1
10
566.354415448542
20
-29.5668448333317
30
0
41
1
10
566.307237698167
20
-29.69021422284
30
0
41
1
10
566.282119345361
20
-29.7442500623257
30
0
41
1
10
566.242766214032
20
-29.8138435156958
30
0
41
1
10
566.229367974665
20
-29.8351303445858
30
0
41
1
10
566.202101521617
20
-29.873873002596
30
0
41
1
10
566.188228866469
20
-29.8913335735417
30
0
41
1
10
566.146063645186
20
-29.9379123489139
30
0
41
1
10
566.11727434799
20
-29.9611833545936
30
0
41
1
10
566.073568059289
20
-29.9844669543471
30
0
41
1
10
566.051583615958
20
-29.9932016118071
30
0
41
1
10
566.029491014814
20
-29.9975721011389
30
0
41
1
10
566.014748318526
20
-29.9995146855327
30
0
41
1
10
566.007362850041
20
-30.0000000000001
30
0
41
1
10
566
20
-30.0000000000001
30
0
0
SPLINE
5
1DE
100
AcDbEntity
8
1
62
256
6
ByLayer
370
18
48
1
60
0
100
AcDbSpline
70
4
71
3
72
47
73
43
40
0
40
0
40
0
40
0
40
0.021311360117809
40
0.0428134407979936
40
0.0645061106855082
40
0.0863892388418617
40
0.108462694808147
40
0.130726348668607
40
0.153180071114673
40
0.175823733509406
40
0.198657207952497
40
0.221680367345687
40
0.244893085458671
40
0.268295236995495
40
0.291886697661385
40
0.315667344230103
40
0.33963705461166
40
0.363795707920597
40
0.388143184544621
40
0.41267936621371
40
0.43740413606967
40
0.46231737873603
40
0.487418980388429
40
0.512708828825325
40
0.538186813539102
40
0.56385282578754
40
0.589706758665628
40
0.615748507177699
40
0.641977968309867
40
0.668395041102763
40
0.694999626724556
40
0.721791628544192
40
0.748770952204875
40
0.775937505697775
40
0.803291199435886
40
0.830831946328057
40
0.858559661853168
40
0.886474264134407
40
0.914575674013598
40
0.942863815125661
40
0.971338613973012
40
1
40
1
40
1
40
1
41
1
10
566
20
-27.5
30
0
41
1
10
566.000007579926
20
-27.5103417325867
30
0
41
1
10
566.000022807611
20
-27.5311177484485
30
0
41
1
10
566.000145362203
20
-27.5621888190227
30
0
41
1
10
566.000341515512
20
-27.5933617739163
30
0
41
1
10
566.000619208126
20
-27.6246143301132
30
0
41
1
10
566.000977091687
20
-27.6559453880466
30
0
41
1
10
566.001416325027
20
-27.6873480382084
30
0
41
1
10
566.001937371168
20
-27.7188168896261
30
0
41
1
10
566.002540866338
20
-27.7503460804953
30
0
41
1
10
566.003227383641
20
-27.7819298181436
30
0
41
1
10
566.003997496727
20
-27.8135622324809
30
0
41
1
10
566.004851762051
20
-27.8452374157521
30
0
41
1
10
566.005790723216
20
-27.8769494117301
30
0
41
1
10
566.006814909324
20
-27.9086922186182
30
0
41
1
10
566.007924834949
20
-27.9404597882257
30
0
41
1
10
566.009120999672
20
-27.9722460261457
30
0
41
1
10
566.010403887732
20
-28.0040447916534
30
0
41
1
10
566.011773967637
20
-28.0358498976702
30
0
41
1
10
566.013231691796
20
-28.0676551107012
30
0
41
1
10
566.014777496138
20
-28.09945415077
30
0
41
1
10
566.016411799732
20
-28.1312406913445
30
0
41
1
10
566.018135004408
20
-28.1630083592544
30
0
41
1
10
566.01994749438
20
-28.1947507346003
30
0
41
1
10
566.021849635862
20
-28.2264613506542
30
0
41
1
10
566.023841776691
20
-28.2581336937508
30
0
41
1
10
566.025924245945
20
-28.2897612031693
30
0
41
1
10
566.028097353566
20
-28.3213372710053
30
0
41
1
10
566.030361389973
20
-28.3528552420382
30
0
41
1
10
566.032716625693
20
-28.3843084135614
30
0
41
1
10
566.035163310965
20
-28.4156900353108
30
0
41
1
10
566.037701675421
20
-28.4469933089697
30
0
41
1
10
566.040331927472
20
-28.4782113892197
30
0
41
1
10
566.043054254851
20
-28.5093373789123
30
0
41
1
10
566.045868820756
20
-28.5403643463536
30
0
41
1
10
566.048775776611
20
-28.5712852591558
30
0
41
1
10
566.051775212181
20
-28.6020932326115
30
0
41
1
10
566.05486734187
20
-28.6327805922161
30
0
41
1
10
566.058051800644
20
-28.6633424066278
30
0
41
1
10
566.061330296339
20
-28.6937631688568
30
0
41
1
10
566.064696610654
20
-28.7240669971798
30
0
41
1
10
566.067007514588
20
-28.7440427316684
30
0
41
1
10
566.068166739865
20
-28.7540632158608
30
0
0
SPLINE
5
1DF
100
AcDbEntity
8
1
62
256
6
ByLayer
370
18
48
1
60
0
100
AcDbSpline
70
4
71
3
72
52
73
48
40
0
40
0
40
0
40
0
40
0.0115037001653285
40
0.0228013760983472
40
0.0338930277966258
40
0.0447786552581892
40
0.0554582584815539
40
0.0659318374657531
40
0.0761993922103435
40
0.0862609227154882
40
0.0961164289819321
40
0.105765911011085
40
0.11520936880505
40
0.124446802366678
40
0.133478211699606
40
0.142303596808343
40
0.150922957698321
40
0.159336294375975
40
0.16754360684883
40
0.175544895125598
40
0.183340159216294
40
0.19092939913235
40
0.198312614886764
40
0.205489806494265
40
0.212460973971494
40
0.219226117337225
40
0.225785236612609
40
0.232138331821475
40
0.238285402990647
40
0.244226450150367
40
0.249961473334745
40
0.319250859977133
40
0.384016815933333
40
0.444259380381691
40
0.499978608979819
40
0.568598638551499
40
0.633132927555391
40
0.693581752360902
40
0.749945454496686
40
0.815296275454503
40
0.874973188290421
40
0.896821275125538
40
0.918265134536693
40
0.939304847920228
40
0.959940501459513
40
0.980172186506172
40
1
40
1
40
1
40
1
41
1
10
566
20
-30.0000000000001
30
0
41
1
10
565.998877124457
20
-29.999974507006
30
0
41
1
10
565.996651483385
20
-29.9999239775818
30
0
41
1
10
565.99334078887
20
-29.9995208377595
30
0
41
1
10
565.990088652029
20
-29.9988943275866
30
0
41
1
10
565.986894909806
20
-29.998034916128
30
0
41
1
10
565.983759604746
20
-29.9969621650895
30
0
41
1
10
565.980682725821
20
-29.9956877350033
30
0
41
1
10
565.977664275962
20
-29.9942250232453
30
0
41
1
10
565.97470425447
20
-29.9925866539419
30
0
41
1
10
565.971802661596
20
-29.9907851309345
30
0
41
1
10
565.968959497352
20
-29.9888326676657
30
0
41
1
10
565.966174761817
20
-29.9867412311579
30
0
41
1
10
565.963448455058
20
-29.9845225303742
30
0
41
1
10
565.960780577157
20
-29.982188019054
30
0
41
1
10
565.9581711282
20
-29.9797488948169
30
0
41
1
10
565.955620108282
20
-29.9772160992585
30
0
41
1
10
565.953127517506
20
-29.9746003178132
30
0
41
1
10
565.950693355988
20
-29.9719119796982
30
0
41
1
10
565.948317623855
20
-29.969161257857
30
0
41
1
10
565.946000321245
20
-29.9663580689222
30
0
41
1
10
565.94374144832
20
-29.9635120731905
30
0
41
1
10
565.941541005237
20
-29.9606326746124
30
0
41
1
10
565.939398992243
20
-29.9577290207903
30
0
41
1
10
565.937315409364
20
-29.9548100029955
30
0
41
1
10
565.935290257527
20
-29.9518842561725
30
0
41
1
10
565.933323534568
20
-29.9489601590299
30
0
41
1
10
565.931415249476
20
-29.946045833865
30
0
41
1
10
565.929565371761
20
-29.943149147373
30
0
41
1
10
565.927774011273
20
-29.9402777079928
30
0
41
1
10
565.919617589734
20
-29.9269184266654
30
0
41
1
10
565.905380084974
20
-29.9003561064729
30
0
41
1
10
565.885141699302
20
-29.8547661045818
30
0
41
1
10
565.865833778151
20
-29.8048519037222
30
0
41
1
10
565.845535602448
20
-29.7467736841385
30
0
41
1
10
565.823986625326
20
-29.6795705634216
30
0
41
1
10
565.800904574335
20
-29.6021755481121
30
0
41
1
10
565.778229300571
20
-29.5222219797334
30
0
41
1
10
565.754211476298
20
-29.4349306762757
30
0
41
1
10
565.728821213604
20
-29.3407942687475
30
0
41
1
10
565.706781822636
20
-29.2585971124348
30
0
41
1
10
565.690418449534
20
-29.1982581862056
30
0
41
1
10
565.679877733222
20
-29.1596602566231
30
0
41
1
10
565.669214084522
20
-29.1209304090267
30
0
41
1
10
565.658418298702
20
-29.0820999592277
30
0
41
1
10
565.64752450959
20
-29.0432901855791
30
0
41
1
10
565.64003866611
20
-29.0170263862791
30
0
41
1
10
565.636333479731
20
-29.0040268797168
30
0
0
SPLINE
5
1E0
100
AcDbEntity
8
1
62
256
6
ByLayer
370
18
48
1
60
0
100
AcDbSpline
70
4
71
3
72
39
73
35
40
0
40
0
40
0
40
0
40
0.025016466443557
40
0.0499123525218187
40
0.0746877024929438
40
0.0993425612642401
40
0.12387697440468
40
0.148290988157689
40
0.172584649454271
40
0.196758005926396
40
0.220811105920791
40
0.244743998512988
40
0.268556733521727
40
0.292249361523767
40
0.315821933868958
40
0.339274502695781
40
0.362607120947193
40
0.385819842386933
40
0.408912721616143
40
0.431885814090525
40
0.454739176137797
40
0.477472864975682
40
0.500086938730301
40
0.547876336617836
40
0.595195284766624
40
0.642044377779919
40
0.68842422833329
40
0.734335467889402
40
0.779778747447111
40
0.824754738326818
40
0.869264132994079
40
0.913307645923636
40
0.956886014506146
40
1
40
1
40
1
40
1
41
1
10
565.636333479731
20
-29.0040268797168
30
0
41
1
10
565.634294315688
20
-28.9968604625754
30
0
41
1
10
565.630225816454
20
-28.9825621707088
30
0
41
1
10
565.62427789504
20
-28.960878499479
30
0
41
1
10
565.618462284667
20
-28.9390913163089
30
0
41
1
10
565.612788897707
20
-28.917183341817
30
0
41
1
10
565.607255097409
20
-28.8951633888609
30
0
41
1
10
565.601861585089
20
-28.873033306631
30
0
41
1
10
565.596608174166
20
-28.850796773433
30
0
41
1
10
565.591494914223
20
-28.8284569578737
30
0
41
1
10
565.586521792029
20
-28.8060171409152
30
0
41
1
10
565.58168881106
20
-28.7834805504027
30
0
41
1
10
565.576995970347
20
-28.760850405053
30
0
41
1
10
565.5724432701
20
-28.7381299027355
30
0
41
1
10
565.568030710223
20
-28.7153222235717
30
0
41
1
10
565.563758290679
20
-28.6924305290932
30
0
41
1
10
565.559626011486
20
-28.6694579624571
30
0
41
1
10
565.555633872389
20
-28.6464076483542
30
0
41
1
10
565.551781874154
20
-28.6232826931042
30
0
41
1
10
565.548070013764
20
-28.6000861843178
30
0
41
1
10
565.544498302206
20
-28.5768211921015
30
0
41
1
10
565.541066698608
20
-28.5534907645744
30
0
41
1
10
565.536548181862
20
-28.5213759707899
30
0
41
1
10
565.53116989927
20
-28.4802853963204
30
0
41
1
10
565.525242021858
20
-28.429925294255
30
0
41
1
10
565.519936544425
20
-28.3792722792293
30
0
41
1
10
565.515253361126
20
-28.3283510121804
30
0
41
1
10
565.511192579571
20
-28.2771857288182
30
0
41
1
10
565.507753871888
20
-28.2258008022965
30
0
41
1
10
565.50493841835
20
-28.174218754909
30
0
41
1
10
565.502741881849
20
-28.1224675434422
30
0
41
1
10
565.50118018936
20
-28.0705537984755
30
0
41
1
10
565.500194830789
20
-28.0185611303559
30
0
41
1
10
565.50006471126
20
-27.9835256153963
30
0
41
1
10
565.5
20
-27.9661016949153
30
0
0
SPLINE
5
1E1
100
AcDbEntity
8
1
62
256
6
ByLayer
370
18
48
1
60
0
100
AcDbSpline
70
4
71
3
72
8
73
4
40
0
40
0
40
0
40
0
40
1
40
1
40
1
40
1
41
1
10
565.5
20
-27.9661016949153
30
0
41
1
10
565.666666666667
20
-27.8107344632768
30
0
41
1
10
565.833333333333
20
-27.6553672316384
30
0
41
1
10
566
20
-27.5
30
0
0
SPLINE
5
1E2
100
AcDbEntity
8
SK1
62
256
6
ByLayer
370
18
48
1
60
0
100
AcDbSpline
70
4
71
3
72
11
73
7
40
0
40
0
40
0
40
0
40
0.242601372898441
40
0.502561214665702
40
0.761098879312109
40
1
40
1
40
1
40
1
41
1
10
-0.199999999999989
20
22.0603316233171
30
0
41
1
10
-0.200957649232635
20
22.0346776345707
30
0
41
1
10
-0.211248088565327
20
21.9856476021511
30
0
41
1
10
-0.255178473897075
20
21.9196695750856
30
0
41
1
10
-0.321112940269984
20
21.8764518787732
30
0
41
1
10
-0.369683556830267
20
21.8664032520323
30
0
41
1
10
-0.394913799811292
20
21.8654753908016
30
0
0
SPLINE
5
1E3
100
AcDbEntity
8
SK1
62
256
6
ByLayer
370
18
48
1
60
0
100
AcDbSpline
70
4
71
3
72
11
73
7
40
0
40
0
40
0
40
0
40
0.23890112120024
40
0.497438786084605
40
0.757398627621531
40
1
40
1
40
1
40
1
41
1
10
-0.394913799811292
20
-21.8654754627471
30
0
41
1
10
-0.369683556841096
20
-21.8664033239634
30
0
41
1
10
-0.321112940313128
20
-21.8764519506626
30
0
41
1
10
-0.255178473954402
20
-21.9196696467454
30
0
41
1
10
-0.211248088575928
20
-21.9856476735437
30
0
41
1
10
-0.200957649243719
20
-22.0346777057895
30
0
41
1
10
-0.199999999999989
20
-22.0603316944386
30
0
0
SPLINE
5
1E4
100
AcDbEntity
8
SK1
62
256
6
ByLayer
370
18
48
1
60
0
100
AcDbSpline
70
4
71
2
72
6
73
3
40
0
40
0
40
0
40
1
40
1
40
1
41
1
10
-36.5
20
21.1556411500792
30
0
41
1
10
-37.2500000202692
20
20.7228363924584
30
0
41
1
10
-38
20
20.2900294978113
30
0
0
SPLINE
5
1E5
100
AcDbEntity
8
SK1
62
256
6
ByLayer
370
18
48
1
60
0
100
AcDbSpline
70
4
71
2
72
6
73
3
40
0
40
0
40
0
40
1
40
1
40
1
41
1
10
-38
20
-20.2900295032223
30
0
41
1
10
-37.2500000202654
20
-20.7228363958853
30
0
41
1
10
-36.5
20
-21.1556411516461
30
0
0
SPLINE
5
1E6
100
AcDbEntity
8
SK1
62
256
6
ByLayer
370
18
48
1
60
0
100
AcDbSpline
70
4
71
2
72
6
73
3
40
0
40
0
40
0
40
1
40
1
40
1
41
1
10
-0.394913799811292
20
21.8654705382346
30
0
41
1
10
-1.19497688887515
20
21.8453761190377
30
0
41
1
10
-1.99503997793928
20
21.8252816998361
30
0
0
SPLINE
5
1E7
100
AcDbEntity
8
SK1
62
256
6
ByLayer
370
18
48
1
60
0
100
AcDbSpline
70
4
71
2
72
6
73
3
40
0
40
0
40
0
40
1
40
1
40
1
41
1
10
-1.99503997793928
20
-21.8252817664983
30
0
41
1
10
-1.19497688887515
20
-21.8453761856051
30
0
41
1
10
-0.394913799811292
20
-21.8654706047071
30
0
0
SPLINE
5
1E8
100
AcDbEntity
8
SK1
62
256
6
ByLayer
370
18
48
1
60
0
100
AcDbSpline
70
4
71
3
72
13
73
9
40
0
40
0
40
0
40
0
40
0.239488446613139
40
0.368403116187249
40
0.500046645745247
40
0.631682415479622
40
0.760575689762793
40
1
40
1
40
1
40
1
41
1
10
-1.99503997793928
20
21.825286524797
30
0
41
1
10
-2.0211096495122
20
21.8248845959364
30
0
41
1
10
-2.05883938576716
20
21.8310551084546
30
0
41
1
10
-2.1062761997685
20
21.8540920367489
30
0
41
1
10
-2.1388629218354
20
21.8792518859041
30
0
41
1
10
-2.16563526915769
20
21.9105242864783
30
0
41
1
10
-2.19103234710849
20
21.9567296167895
30
0
41
1
10
-2.19909149085342
20
21.9940920912339
30
0
41
1
10
-2.19999999999999
20
22.0201427571469
30
0
0
SPLINE
5
1E9
100
AcDbEntity
8
SK1
62
256
6
ByLayer
370
18
48
1
60
0
100
AcDbSpline
70
4
71
3
72
13
73
9
40
0
40
0
40
0
40
0
40
0.239424309709105
40
0.36831758382101
40
0.499953353497804
40
0.631596883124593
40
0.760511552875627
40
1
40
1
40
1
40
1
41
1
10
-2.19999999999999
20
-22.0201428284389
30
0
41
1
10
-2.19909149084521
20
-21.994092162624
30
0
41
1
10
-2.19103234710033
20
-21.956729688326
30
0
41
1
10
-2.1656352691468
20
-21.910524358218
30
0
41
1
10
-2.13886292182099
20
-21.8792519577777
30
0
41
1
10
-2.1062761997531
20
-21.8540921087329
30
0
41
1
10
-2.05883938574669
20
-21.8310551805396
30
0
41
1
10
-2.02110964950145
20
-21.8248846680468
30
0
41
1
10
-1.99503997793928
20
-21.8252865969123
30
0
0
SPLINE
5
1EA
100
AcDbEntity
8
SK1
62
256
6
ByLayer
370
18
48
1
60
0
100
AcDbSpline
70
4
71
2
72
6
73
3
40
0
40
0
40
0
40
1
40
1
40
1
41
1
10
-2.19999999999999
20
22.0136642719968
30
0
41
1
10
-19.3500000008246
20
21.5830599810351
30
0
41
1
10
-36.5
20
21.1524539804128
30
0
0
SPLINE
5
1EB
100
AcDbEntity
8
SK1
62
256
6
ByLayer
370
18
48
1
60
0
100
AcDbSpline
70
4
71
2
72
6
73
3
40
0
40
0
40
0
40
1
40
1
40
1
41
1
10
-36.5
20
-21.152454254977
30
0
41
1
10
-19.3500000008244
20
-21.5830602558515
30
0
41
1
10
-2.19999999999999
20
-22.0136645469338
30
0
0
LINE
5
A6
100
AcDbEntity
8
SK4
62
256
6
ByLayer
370
18
48
0.05
60
0
100
AcDbLine
10
4
20
0
30
0
11
564
21
0
31
0
39
0
210
0
220
0
230
1
0
LINE
5
A8
100
AcDbEntity
8
81
62
256
6
ByLayer
370
18
48
1
60
0
100
AcDbLine
10
568
20
-10
30
0
11
573
21
-10
31
0
39
0
210
0
220
0
230
1
0
LINE
5
A9
100
AcDbEntity
8
4
62
256
6
ByLayer
370
18
48
0.05
60
0
100
AcDbLine
10
564
20
-10
30
0
11
568
21
-10
31
0
39
0
210
0
220
0
230
1
0
LINE
5
AB
100
AcDbEntity
8
80
62
256
6
ByLayer
370
18
48
1
60
0
100
AcDbLine
10
0
20
0
30
0
11
-5
21
0
31
0
39
0
210
0
220
0
230
1
0
LINE
5
AC
100
AcDbEntity
8
1
62
256
6
ByLayer
370
18
48
1
60
0
100
AcDbLine
10
572.8
20
2.899495
30
0
11
572.8
21
-3.100505
31
0
39
0
210
0
220
0
230
1
0
LINE
5
AD
100
AcDbEntity
8
1
62
256
6
ByLayer
370
13
48
1
60
0
100
AcDbLine
10
568.324503
20
-2.546005
30
0
11
572.8
21
-2.546005
31
0
39
0
210
0
220
0
230
1
0
LINE
5
AE
100
AcDbEntity
8
1
62
256
6
ByLayer
370
13
48
1
60
0
100
AcDbLine
10
568.324503
20
2.344995
30
0
11
572.8
21
2.344995
31
0
39
0
210
0
220
0
230
1
0
LINE
5
AF
100
AcDbEntity
8
1
62
256
6
ByLayer
370
18
48
1
60
0
100
AcDbLine
10
572.8
20
-16.899495
30
0
11
572.8
21
-22.899495
31
0
39
0
210
0
220
0
230
1
0
LINE
5
B0
100
AcDbEntity
8
1
62
256
6
ByLayer
370
13
48
1
60
0
100
AcDbLine
10
568.324503
20
-22.344995
30
0
11
572.8
21
-22.344995
31
0
39
0
210
0
220
0
230
1
0
LINE
5
B1
100
AcDbEntity
8
1
62
256
6
ByLayer
370
13
48
1
60
0
100
AcDbLine
10
568.324503
20
-17.453995
30
0
11
572.8
21
-17.453995
31
0
39
0
210
0
220
0
230
1
0
LINE
5
B2
100
AcDbEntity
8
1
62
256
6
ByLayer
370
18
48
1
60
0
100
AcDbLine
10
564
20
29.8
30
0
11
564
21
-29.8
31
0
39
0
210
0
220
0
230
1
0
LINE
5
B3
100
AcDbEntity
8
1
62
256
6
ByLayer
370
13
48
1
60
0
100
AcDbLine
10
563.8
20
30
30
0
11
563.8
21
-30
31
0
39
0
210
0
220
0
230
1
0
LINE
5
B4
100
AcDbEntity
8
1
62
256
6
ByLayer
370
13
48
1
60
0
100
AcDbLine
10
10.105662
20
29.913955
30
0
11
10.105662
21
9.869413
31
0
39
0
210
0
220
0
230
1
0
LINE
5
B5
100
AcDbEntity
8
1
62
256
6
ByLayer
370
13
48
1
60
0
100
AcDbLine
10
10.538675
20
30.080593
30
0
11
10.538675
21
9.349221
31
0
39
0
210
0
220
0
230
1
0
LINE
5
B6
100
AcDbEntity
8
1
62
256
6
ByLayer
370
13
48
1
60
0
100
AcDbLine
10
13.461325
20
-9.349221
30
0
11
13.461325
21
-30.080593
31
0
39
0
210
0
220
0
230
1
0
LINE
5
B7
100
AcDbEntity
8
1
62
256
6
ByLayer
370
13
48
1
60
0
100
AcDbLine
10
13.894338
20
-9.869413
30
0
11
13.894338
21
-29.913955
31
0
39
0
210
0
220
0
230
1
0
LINE
5
B8
100
AcDbEntity
8
1
62
256
6
ByLayer
370
13
48
1
60
0
100
AcDbLine
10
10.105662
20
-9.869413
30
0
11
10.105662
21
-29.913955
31
0
39
0
210
0
220
0
230
1
0
LINE
5
B9
100
AcDbEntity
8
1
62
256
6
ByLayer
370
13
48
1
60
0
100
AcDbLine
10
10.538675
20
-9.349221
30
0
11
10.538675
21
-30.080593
31
0
39
0
210
0
220
0
230
1
0
LINE
5
BA
100
AcDbEntity
8
1
62
256
6
ByLayer
370
13
48
1
60
0
100
AcDbLine
10
13.461325
20
30.080593
30
0
11
13.461325
21
9.349221
31
0
39
0
210
0
220
0
230
1
0
LINE
5
BB
100
AcDbEntity
8
1
62
256
6
ByLayer
370
13
48
1
60
0
100
AcDbLine
10
13.894338
20
29.913955
30
0
11
13.894338
21
9.869413
31
0
39
0
210
0
220
0
230
1
0
LINE
5
BC
100
AcDbEntity
8
1
62
256
6
ByLayer
370
13
48
1
60
0
100
AcDbLine
10
23.4
20
-30
30
0
11
23.4
21
30
31
0
39
0
210
0
220
0
230
1
0
LINE
5
BD
100
AcDbEntity
8
1
62
256
6
ByLayer
370
18
48
1
60
0
100
AcDbLine
10
13.461325
20
9.349221
30
0
11
10.538675
21
9.349221
31
0
39
0
210
0
220
0
230
1
0
LINE
5
BE
100
AcDbEntity
8
1
62
256
6
ByLayer
370
18
48
1
60
0
100
AcDbLine
10
10.538675
20
30.080593
30
0
11
13.461325
21
30.080593
31
0
39
0
210
0
220
0
230
1
0
LINE
5
BF
100
AcDbEntity
8
1
62
256
6
ByLayer
370
18
48
1
60
0
100
AcDbLine
10
10.538675
20
-9.349221
30
0
11
13.461325
21
-9.349221
31
0
39
0
210
0
220
0
230
1
0
LINE
5
C0
100
AcDbEntity
8
1
62
256
6
ByLayer
370
18
48
1
60
0
100
AcDbLine
10
13.461325
20
-30.080593
30
0
11
10.538675
21
-30.080593
31
0
39
0
210
0
220
0
230
1
0
LINE
5
C1
100
AcDbEntity
8
1
62
256
6
ByLayer
370
18
48
1
60
0
100
AcDbLine
10
0.3
20
-31.5
30
0
11
0.3
21
31.5
31
0
39
0
210
0
220
0
230
1
0
LINE
5
C2
100
AcDbEntity
8
1
62
256
6
ByLayer
370
18
48
1
60
0
100
AcDbLine
10
0
20
-31.2
30
0
11
0
21
31.2
31
0
39
0
210
0
220
0
230
1
0
LINE
5
C3
100
AcDbEntity
8
1
62
256
6
ByLayer
370
13
48
1
60
0
100
AcDbLine
10
22.031377
20
31.105263
30
0
11
22.031377
21
-31.105263
31
0
39
0
210
0
220
0
230
1
0
LINE
5
C4
100
AcDbEntity
8
1
62
256
6
ByLayer
370
13
48
1
60
0
100
AcDbLine
10
21.542582
20
31.5
30
0
11
21.542582
21
-31.5
31
0
39
0
210
0
220
0
230
1
0
LINE
5
C5
100
AcDbEntity
8
SK1
62
256
6
ByLayer
370
18
48
1
60
0
100
AcDbLine
10
-0.2
20
-7.034158
30
0
11
-0.2
21
-22.533485
31
0
39
0
210
0
220
0
230
1
0
LINE
5
C7
100
AcDbEntity
8
SK1
62
256
6
ByLayer
370
18
48
1
60
0
100
AcDbLine
10
-0.2
20
22.533485
30
0
11
-0.2
21
7.034161
31
0
39
0
210
0
220
0
230
1
0
LINE
5
C8
100
AcDbEntity
8
SK1
62
256
6
ByLayer
370
13
48
1
60
0
100
AcDbLine
10
-1.307107
20
4.811152
30
0
11
-1.307107
21
-4.811152
31
0
39
0
210
0
220
0
230
1
0
LINE
5
C9
100
AcDbEntity
8
1
62
256
6
ByLayer
370
13
48
1
60
0
100
AcDbLine
10
572.8
20
2.899495
30
0
11
572.8
21
-3.100505
31
0
39
0
210
0
220
0
230
1
0
LINE
5
CA
100
AcDbEntity
8
1
62
256
6
ByLayer
370
18
48
1
60
0
100
AcDbLine
10
573
20
4.899495
30
0
11
573
21
-5.100505
31
0
39
0
210
0
220
0
230
1
0
LINE
5
CB
100
AcDbEntity
8
1
62
256
6
ByLayer
370
13
48
1
60
0
100
AcDbLine
10
578.4
20
4.899495
30
0
11
578.4
21
-5.100505
31
0
39
0
210
0
220
0
230
1
0
LINE
5
CC
100
AcDbEntity
8
1
62
256
6
ByLayer
370
18
48
1
60
0
100
AcDbLine
10
579
20
4.299495
30
0
11
579
21
-4.500505
31
0
39
0
210
0
220
0
230
1
0
LINE
5
CD
100
AcDbEntity
8
1
62
256
6
ByLayer
370
18
48
1
60
0
100
AcDbLine
10
568.32476
20
-28.976857
30
0
11
568.32476
21
-28.887542
31
0
39
0
210
0
220
0
230
1
0
LINE
5
CE
100
AcDbEntity
8
1
62
256
6
ByLayer
370
18
48
1
60
0
100
AcDbLine
10
568.32476
20
8.887542
30
0
11
568.32476
21
8.976857
31
0
39
0
210
0
220
0
230
1
0
LINE
5
CF
100
AcDbEntity
8
1
62
256
6
ByLayer
370
13
48
1
60
0
100
AcDbLine
10
567.650481
20
9.602807
30
0
11
567.650481
21
9.629489
31
0
39
0
210
0
220
0
230
1
0
LINE
5
D0
100
AcDbEntity
8
1
62
256
6
ByLayer
370
13
48
1
60
0
100
AcDbLine
10
567.650481
20
-29.629489
30
0
11
567.650481
21
-29.602807
31
0
39
0
210
0
220
0
230
1
0
LINE
5
D1
100
AcDbEntity
8
1
62
256
6
ByLayer
370
18
48
1
60
0
100
AcDbLine
10
568.32476
20
-28.842999
30
0
11
568.32476
21
-28.662842
31
0
39
0
210
0
220
0
230
1
0
LINE
5
D2
100
AcDbEntity
8
1
62
256
6
ByLayer
370
18
48
1
60
0
100
AcDbLine
10
568.32476
20
8.662842
30
0
11
568.32476
21
8.842999
31
0
39
0
210
0
220
0
230
1
0
LINE
5
D3
100
AcDbEntity
8
1
62
256
6
ByLayer
370
13
48
1
60
0
100
AcDbLine
10
567.650481
20
-29.470143
30
0
11
567.650481
21
-29.416627
31
0
39
0
210
0
220
0
230
1
0
LINE
5
D4
100
AcDbEntity
8
1
62
256
6
ByLayer
370
13
48
1
60
0
100
AcDbLine
10
567.650481
20
9.416627
30
0
11
567.650481
21
9.470143
31
0
39
0
210
0
220
0
230
1
0
LINE
5
D5
100
AcDbEntity
8
1
62
256
6
ByLayer
370
18
48
1
60
0
100
AcDbLine
10
568.32476
20
8.31313
30
0
11
568.32476
21
8.587525
31
0
39
0
210
0
220
0
230
1
0
LINE
5
D6
100
AcDbEntity
8
1
62
256
6
ByLayer
370
18
48
1
60
0
100
AcDbLine
10
568.32476
20
-28.587525
30
0
11
568.32476
21
-28.31313
31
0
39
0
210
0
220
0
230
1
0
LINE
5
D7
100
AcDbEntity
8
1
62
256
6
ByLayer
370
13
48
1
60
0
100
AcDbLine
10
567.650481
20
-29.192605
30
0
11
567.650481
21
-29.111162
31
0
39
0
210
0
220
0
230
1
0
LINE
5
D8
100
AcDbEntity
8
1
62
256
6
ByLayer
370
13
48
1
60
0
100
AcDbLine
10
567.650481
20
9.111162
30
0
11
567.650481
21
9.192605
31
0
39
0
210
0
220
0
230
1
0
LINE
5
D9
100
AcDbEntity
8
1
62
256
6
ByLayer
370
18
48
1
60
0
100
AcDbLine
10
568.32476
20
-28.205318
30
0
11
568.32476
21
-27.830489
31
0
39
0
210
0
220
0
230
1
0
LINE
5
DA
100
AcDbEntity
8
1
62
256
6
ByLayer
370
18
48
1
60
0
100
AcDbLine
10
568.32476
20
7.830489
30
0
11
568.32476
21
8.205318
31
0
39
0
210
0
220
0
230
1
0
LINE
5
DB
100
AcDbEntity
8
1
62
256
6
ByLayer
370
13
48
1
60
0
100
AcDbLine
10
567.650481
20
-28.791639
30
0
11
567.650481
21
-28.680651
31
0
39
0
210
0
220
0
230
1
0
LINE
5
DC
100
AcDbEntity
8
1
62
256
6
ByLayer
370
13
48
1
60
0
100
AcDbLine
10
567.650481
20
8.680651
30
0
11
567.650481
21
8.791639
31
0
39
0
210
0
220
0
230
1
0
LINE
5
DD
100
AcDbEntity
8
1
62
256
6
ByLayer
370
18
48
1
60
0
100
AcDbLine
10
568.32476
20
7.204449
30
0
11
568.32476
21
7.688163
31
0
39
0
210
0
220
0
230
1
0
LINE
5
DE
100
AcDbEntity
8
1
62
256
6
ByLayer
370
18
48
1
60
0
100
AcDbLine
10
568.32476
20
-27.688163
30
0
11
568.32476
21
-27.204449
31
0
39
0
210
0
220
0
230
1
0
LINE
5
DF
100
AcDbEntity
8
1
62
256
6
ByLayer
370
13
48
1
60
0
100
AcDbLine
10
567.650481
20
-28.259116
30
0
11
567.650481
21
-28.116188
31
0
39
0
210
0
220
0
230
1
0
LINE
5
E0
100
AcDbEntity
8
1
62
256
6
ByLayer
370
13
48
1
60
0
100
AcDbLine
10
567.650481
20
8.116188
30
0
11
567.650481
21
8.259116
31
0
39
0
210
0
220
0
230
1
0
LINE
5
E1
100
AcDbEntity
8
1
62
256
6
ByLayer
370
18
48
1
60
0
100
AcDbLine
10
568.32476
20
6.418191
30
0
11
568.32476
21
7.023766
31
0
39
0
210
0
220
0
230
1
0
LINE
5
E2
100
AcDbEntity
8
1
62
256
6
ByLayer
370
18
48
1
60
0
100
AcDbLine
10
568.32476
20
-27.023766
30
0
11
568.32476
21
-26.418191
31
0
39
0
210
0
220
0
230
1
0
LINE
5
E3
100
AcDbEntity
8
1
62
256
6
ByLayer
370
13
48
1
60
0
100
AcDbLine
10
567.650481
20
-27.583086
30
0
11
567.650481
21
-27.404844
31
0
39
0
210
0
220
0
230
1
0
LINE
5
E4
100
AcDbEntity
8
1
62
256
6
ByLayer
370
13
48
1
60
0
100
AcDbLine
10
567.650481
20
7.404844
30
0
11
567.650481
21
7.583086
31
0
39
0
210
0
220
0
230
1
0
LINE
5
E5
100
AcDbEntity
8
1
62
256
6
ByLayer
370
18
48
1
60
0
100
AcDbLine
10
568.32476
20
5.447336
30
0
11
568.32476
21
6.194014
31
0
39
0
210
0
220
0
230
1
0
LINE
5
E6
100
AcDbEntity
8
1
62
256
6
ByLayer
370
18
48
1
60
0
100
AcDbLine
10
568.32476
20
-26.194014
30
0
11
568.32476
21
-25.447336
31
0
39
0
210
0
220
0
230
1
0
LINE
5
E7
100
AcDbEntity
8
1
62
256
6
ByLayer
370
13
48
1
60
0
100
AcDbLine
10
567.650481
20
6.527523
30
0
11
567.650481
21
6.74618
31
0
39
0
210
0
220
0
230
1
0
LINE
5
E8
100
AcDbEntity
8
1
62
256
6
ByLayer
370
13
48
1
60
0
100
AcDbLine
10
567.650481
20
-26.74618
30
0
11
567.650481
21
-26.527523
31
0
39
0
210
0
220
0
230
1
0
LINE
5
E9
100
AcDbEntity
8
1
62
256
6
ByLayer
370
18
48
1
60
0
100
AcDbLine
10
568.32476
20
4.254246
30
0
11
568.32476
21
5.171803
31
0
39
0
210
0
220
0
230
1
0
LINE
5
EA
100
AcDbEntity
8
1
62
256
6
ByLayer
370
18
48
1
60
0
100
AcDbLine
10
568.32476
20
-25.171803
30
0
11
568.32476
21
-24.254246
31
0
39
0
210
0
220
0
230
1
0
LINE
5
EB
100
AcDbEntity
8
1
62
256
6
ByLayer
370
13
48
1
60
0
100
AcDbLine
10
567.650481
20
5.456027
30
0
11
567.650481
21
5.722727
31
0
39
0
210
0
220
0
230
1
0
LINE
5
EC
100
AcDbEntity
8
1
62
256
6
ByLayer
370
13
48
1
60
0
100
AcDbLine
10
567.650481
20
-25.722727
30
0
11
567.650481
21
-25.456027
31
0
39
0
210
0
220
0
230
1
0
LINE
5
ED
100
AcDbEntity
8
1
62
256
6
ByLayer
370
18
48
1
60
0
100
AcDbLine
10
568.32476
20
2.776776
30
0
11
568.32476
21
3.91478
31
0
39
0
210
0
220
0
230
1
0
LINE
5
EE
100
AcDbEntity
8
1
62
256
6
ByLayer
370
18
48
1
60
0
100
AcDbLine
10
568.32476
20
-23.91478
30
0
11
568.32476
21
-22.776776
31
0
39
0
210
0
220
0
230
1
0
LINE
5
EF
100
AcDbEntity
8
1
62
256
6
ByLayer
370
13
48
1
60
0
100
AcDbLine
10
567.650481
20
-24.473209
30
0
11
567.650481
21
-24.146205
31
0
39
0
210
0
220
0
230
1
0
LINE
5
F0
100
AcDbEntity
8
1
62
256
6
ByLayer
370
13
48
1
60
0
100
AcDbLine
10
567.650481
20
4.146205
30
0
11
567.650481
21
4.473209
31
0
39
0
210
0
220
0
230
1
0
LINE
5
F1
100
AcDbEntity
8
1
62
256
6
ByLayer
370
18
48
1
60
0
100
AcDbLine
10
568.32476
20
-22.351461
30
0
11
568.32476
21
-20.899779
31
0
39
0
210
0
220
0
230
1
0
LINE
5
F2
100
AcDbEntity
8
1
62
256
6
ByLayer
370
18
48
1
60
0
100
AcDbLine
10
568.32476
20
0.899779
30
0
11
568.32476
21
2.351461
31
0
39
0
210
0
220
0
230
1
0
LINE
5
F3
100
AcDbEntity
8
1
62
256
6
ByLayer
370
13
48
1
60
0
100
AcDbLine
10
567.650481
20
-22.932262
30
0
11
567.650481
21
-22.523683
31
0
39
0
210
0
220
0
230
1
0
LINE
5
F4
100
AcDbEntity
8
1
62
256
6
ByLayer
370
13
48
1
60
0
100
AcDbLine
10
567.650481
20
2.523683
30
0
11
567.650481
21
2.932262
31
0
39
0
210
0
220
0
230
1
0
LINE
5
F5
100
AcDbEntity
8
1
62
256
6
ByLayer
370
18
48
1
60
0
100
AcDbLine
10
568.32476
20
-20.343892
30
0
11
568.32476
21
-18.358834
31
0
39
0
210
0
220
0
230
1
0
LINE
5
F6
100
AcDbEntity
8
1
62
256
6
ByLayer
370
18
48
1
60
0
100
AcDbLine
10
568.32476
20
-1.641166
30
0
11
568.32476
21
0.343892
31
0
39
0
210
0
220
0
230
1
0
LINE
5
F7
100
AcDbEntity
8
1
62
256
6
ByLayer
370
13
48
1
60
0
100
AcDbLine
10
567.650481
20
-20.977842
30
0
11
567.650481
21
-20.444044
31
0
39
0
210
0
220
0
230
1
0
LINE
5
F8
100
AcDbEntity
8
1
62
256
6
ByLayer
370
13
48
1
60
0
100
AcDbLine
10
567.650481
20
0.444044
30
0
11
567.650481
21
0.977842
31
0
39
0
210
0
220
0
230
1
0
LINE
5
F9
100
AcDbEntity
8
1
62
256
6
ByLayer
370
18
48
1
60
0
100
AcDbLine
10
568.32476
20
-17.545435
30
0
11
568.32476
21
-14.053785
31
0
39
0
210
0
220
0
230
1
0
LINE
5
FA
100
AcDbEntity
8
1
62
256
6
ByLayer
370
18
48
1
60
0
100
AcDbLine
10
568.32476
20
-5.946215
30
0
11
568.32476
21
-2.454565
31
0
39
0
210
0
220
0
230
1
0
LINE
5
FB
100
AcDbEntity
8
1
62
256
6
ByLayer
370
13
48
1
60
0
100
AcDbLine
10
567.650481
20
-18.323618
30
0
11
567.650481
21
-17.537296
31
0
39
0
210
0
220
0
230
1
0
LINE
5
FC
100
AcDbEntity
8
1
62
256
6
ByLayer
370
13
48
1
60
0
100
AcDbLine
10
567.650481
20
-2.462704
30
0
11
567.650481
21
-1.676382
31
0
39
0
210
0
220
0
230
1
0
LINE
5
FD
100
AcDbEntity
8
1
62
256
6
ByLayer
370
18
48
1
60
0
100
AcDbLine
10
568.32476
20
-11.539836
30
0
11
568.32476
21
-8.460164
31
0
39
0
210
0
220
0
230
1
0
LINE
5
FE
100
AcDbEntity
8
1
62
256
6
ByLayer
370
13
48
1
60
0
100
AcDbLine
10
567.650481
20
-13.681336
30
0
11
567.650481
21
-10.209491
31
0
39
0
210
0
220
0
230
1
0
LINE
5
FF
100
AcDbEntity
8
1
62
256
6
ByLayer
370
13
48
1
60
0
100
AcDbLine
10
567.650481
20
-9.790509
30
0
11
567.650481
21
-6.318664
31
0
39
0
210
0
220
0
230
1
0
LINE
5
100
100
AcDbEntity
8
1
62
256
6
ByLayer
370
18
48
1
60
0
100
AcDbLine
10
568.32476
20
-28.842999
30
0
11
568.32476
21
-28.887723
31
0
39
0
210
0
220
0
230
1
0
LINE
5
101
100
AcDbEntity
8
1
62
256
6
ByLayer
370
18
48
1
60
0
100
AcDbLine
10
568.32476
20
-28.587525
30
0
11
568.32476
21
-28.663027
31
0
39
0
210
0
220
0
230
1
0
LINE
5
102
100
AcDbEntity
8
1
62
256
6
ByLayer
370
18
48
1
60
0
100
AcDbLine
10
568.32476
20
-28.205318
30
0
11
568.32476
21
-28.31314
31
0
39
0
210
0
220
0
230
1
0
LINE
5
103
100
AcDbEntity
8
1
62
256
6
ByLayer
370
18
48
1
60
0
100
AcDbLine
10
568.32476
20
-27.688163
30
0
11
568.32476
21
-27.830692
31
0
39
0
210
0
220
0
230
1
0
LINE
5
104
100
AcDbEntity
8
1
62
256
6
ByLayer
370
18
48
1
60
0
100
AcDbLine
10
568.32476
20
-27.023766
30
0
11
568.32476
21
-27.204537
31
0
39
0
210
0
220
0
230
1
0
LINE
5
105
100
AcDbEntity
8
1
62
256
6
ByLayer
370
18
48
1
60
0
100
AcDbLine
10
568.32476
20
-26.194014
30
0
11
568.32476
21
-26.41824
31
0
39
0
210
0
220
0
230
1
0
LINE
5
106
100
AcDbEntity
8
1
62
256
6
ByLayer
370
18
48
1
60
0
100
AcDbLine
10
568.32476
20
-25.171803
30
0
11
568.32476
21
-25.447365
31
0
39
0
210
0
220
0
230
1
0
LINE
5
107
100
AcDbEntity
8
1
62
256
6
ByLayer
370
18
48
1
60
0
100
AcDbLine
10
568.32476
20
-23.91478
30
0
11
568.32476
21
-24.254248
31
0
39
0
210
0
220
0
230
1
0
LINE
5
108
100
AcDbEntity
8
1
62
256
6
ByLayer
370
18
48
1
60
0
100
AcDbLine
10
568.32476
20
-22.351461
30
0
11
568.32476
21
-22.776779
31
0
39
0
210
0
220
0
230
1
0
LINE
5
109
100
AcDbEntity
8
1
62
256
6
ByLayer
370
18
48
1
60
0
100
AcDbLine
10
568.32476
20
-20.343892
30
0
11
568.32476
21
-20.899935
31
0
39
0
210
0
220
0
230
1
0
LINE
5
10A
100
AcDbEntity
8
1
62
256
6
ByLayer
370
18
48
1
60
0
100
AcDbLine
10
568.32476
20
-17.545435
30
0
11
568.32476
21
-18.358893
31
0
39
0
210
0
220
0
230
1
0
LINE
5
10B
100
AcDbEntity
8
1
62
256
6
ByLayer
370
18
48
1
60
0
100
AcDbLine
10
568.32476
20
-11.539836
30
0
11
568.32476
21
-14.053837
31
0
39
0
210
0
220
0
230
1
0
LINE
5
10C
100
AcDbEntity
8
1
62
256
6
ByLayer
370
18
48
1
60
0
100
AcDbLine
10
568.32476
20
-5.946163
30
0
11
568.32476
21
-8.460164
31
0
39
0
210
0
220
0
230
1
0
LINE
5
10D
100
AcDbEntity
8
1
62
256
6
ByLayer
370
18
48
1
60
0
100
AcDbLine
10
568.32476
20
-1.641107
30
0
11
568.32476
21
-2.454565
31
0
39
0
210
0
220
0
230
1
0
LINE
5
10E
100
AcDbEntity
8
1
62
256
6
ByLayer
370
18
48
1
60
0
100
AcDbLine
10
568.32476
20
0.899935
30
0
11
568.32476
21
0.343892
31
0
39
0
210
0
220
0
230
1
0
LINE
5
10F
100
AcDbEntity
8
1
62
256
6
ByLayer
370
18
48
1
60
0
100
AcDbLine
10
568.32476
20
2.776779
30
0
11
568.32476
21
2.351461
31
0
39
0
210
0
220
0
230
1
0
LINE
5
110
100
AcDbEntity
8
1
62
256
6
ByLayer
370
18
48
1
60
0
100
AcDbLine
10
568.32476
20
4.254248
30
0
11
568.32476
21
3.91478
31
0
39
0
210
0
220
0
230
1
0
LINE
5
111
100
AcDbEntity
8
1
62
256
6
ByLayer
370
18
48
1
60
0
100
AcDbLine
10
568.32476
20
5.447365
30
0
11
568.32476
21
5.171803
31
0
39
0
210
0
220
0
230
1
0
LINE
5
112
100
AcDbEntity
8
1
62
256
6
ByLayer
370
18
48
1
60
0
100
AcDbLine
10
568.32476
20
6.41824
30
0
11
568.32476
21
6.194014
31
0
39
0
210
0
220
0
230
1
0
LINE
5
113
100
AcDbEntity
8
1
62
256
6
ByLayer
370
18
48
1
60
0
100
AcDbLine
10
568.32476
20
7.204537
30
0
11
568.32476
21
7.023766
31
0
39
0
210
0
220
0
230
1
0
LINE
5
114
100
AcDbEntity
8
1
62
256
6
ByLayer
370
18
48
1
60
0
100
AcDbLine
10
568.32476
20
7.830692
30
0
11
568.32476
21
7.688163
31
0
39
0
210
0
220
0
230
1
0
LINE
5
115
100
AcDbEntity
8
1
62
256
6
ByLayer
370
18
48
1
60
0
100
AcDbLine
10
568.32476
20
8.31314
30
0
11
568.32476
21
8.205318
31
0
39
0
210
0
220
0
230
1
0
LINE
5
116
100
AcDbEntity
8
1
62
256
6
ByLayer
370
18
48
1
60
0
100
AcDbLine
10
568.32476
20
8.663027
30
0
11
568.32476
21
8.587525
31
0
39
0
210
0
220
0
230
1
0
LINE
5
117
100
AcDbEntity
8
1
62
256
6
ByLayer
370
18
48
1
60
0
100
AcDbLine
10
568.32476
20
8.887723
30
0
11
568.32476
21
8.842999
31
0
39
0
210
0
220
0
230
1
0
LINE
5
118
100
AcDbEntity
8
1
62
256
6
ByLayer
370
18
48
1
60
0
100
AcDbLine
10
568.32476
20
8.991672
30
0
11
568.32476
21
8.976857
31
0
39
0
210
0
220
0
230
1
0
LINE
5
119
100
AcDbEntity
8
1
62
256
6
ByLayer
370
18
48
1
60
0
100
AcDbLine
10
568.32476
20
-28.976857
30
0
11
568.32476
21
-28.991672
31
0
39
0
210
0
220
0
230
1
0
LINE
5
11A
100
AcDbEntity
8
1
62
256
6
ByLayer
370
18
48
1
60
0
100
AcDbLine
10
567.32476
20
10
30
0
11
567.32476
21
-30
31
0
39
0
210
0
220
0
230
1
0
LINE
5
11B
100
AcDbEntity
8
1
62
256
6
ByLayer
370
13
48
1
60
0
100
AcDbLine
10
566.5
20
10
30
0
11
566.5
21
-28.52439
31
0
39
0
210
0
220
0
230
1
0
LINE
5
11C
100
AcDbEntity
8
1
62
256
6
ByLayer
370
18
48
1
60
0
100
AcDbLine
10
564
20
-29.8
30
0
11
564
21
29.8
31
0
39
0
210
0
220
0
230
1
0
LINE
5
11D
100
AcDbEntity
8
1
62
256
6
ByLayer
370
13
48
1
60
0
100
AcDbLine
10
564.2
20
-30
30
0
11
564.2
21
30
31
0
39
0
210
0
220
0
230
1
0
LINE
5
11E
100
AcDbEntity
8
1
62
256
6
ByLayer
370
18
48
1
60
0
100
AcDbLine
10
566
20
29.5
30
0
11
566
21
-27.5
31
0
39
0
210
0
220
0
230
1
0
LINE
5
11F
100
AcDbEntity
8
1
62
256
6
ByLayer
370
18
48
1
60
0
100
AcDbLine
10
565.5
20
30
30
0
11
565.5
21
-27.966102
31
0
39
0
210
0
220
0
230
1
0
LINE
5
120
100
AcDbEntity
8
1
62
256
6
ByLayer
370
13
48
1
60
0
100
AcDbLine
10
572.8
20
-22.899495
30
0
11
572.8
21
-16.899495
31
0
39
0
210
0
220
0
230
1
0
LINE
5
121
100
AcDbEntity
8
1
62
256
6
ByLayer
370
18
48
1
60
0
100
AcDbLine
10
579
20
-24.299495
30
0
11
579
21
-15.499495
31
0
39
0
210
0
220
0
230
1
0
LINE
5
122
100
AcDbEntity
8
1
62
256
6
ByLayer
370
13
48
1
60
0
100
AcDbLine
10
578.4
20
-24.899495
30
0
11
578.4
21
-14.899495
31
0
39
0
210
0
220
0
230
1
0
LINE
5
123
100
AcDbEntity
8
1
62
256
6
ByLayer
370
18
48
1
60
0
100
AcDbLine
10
573
20
-24.899495
30
0
11
573
21
-14.899495
31
0
39
0
210
0
220
0
230
1
0
LINE
5
124
100
AcDbEntity
8
1
62
256
6
ByLayer
370
18
48
1
60
0
100
AcDbLine
10
563.8
20
30
30
0
11
23.4
21
30
31
0
39
0
210
0
220
0
230
1
0
LINE
5
125
100
AcDbEntity
8
1
62
256
6
ByLayer
370
18
48
1
60
0
100
AcDbLine
10
23.4
20
-30
30
0
11
563.8
21
-30
31
0
39
0
210
0
220
0
230
1
0
LINE
5
126
100
AcDbEntity
8
1
62
256
6
ByLayer
370
18
48
1
60
0
100
AcDbLine
10
21.542582
20
31.5
30
0
11
0.3
21
31.5
31
0
39
0
210
0
220
0
230
1
0
LINE
5
127
100
AcDbEntity
8
1
62
256
6
ByLayer
370
18
48
1
60
0
100
AcDbLine
10
0.3
20
-31.5
30
0
11
21.542582
21
-31.5
31
0
39
0
210
0
220
0
230
1
0
LINE
5
128
100
AcDbEntity
8
1
62
256
6
ByLayer
370
18
48
1
60
0
100
AcDbLine
10
0
20
-31.2
30
0
11
0.3
21
-31.5
31
0
39
0
210
0
220
0
230
1
0
LINE
5
129
100
AcDbEntity
8
1
62
256
6
ByLayer
370
18
48
1
60
0
100
AcDbLine
10
0.3
20
31.5
30
0
11
0
21
31.2
31
0
39
0
210
0
220
0
230
1
0
LINE
5
12A
100
AcDbEntity
8
1
62
256
6
ByLayer
370
18
48
1
60
0
100
AcDbLine
10
568.324609
20
-3.100505
30
0
11
572.8
21
-3.100505
31
0
39
0
210
0
220
0
230
1
0
LINE
5
12B
100
AcDbEntity
8
1
62
256
6
ByLayer
370
18
48
1
60
0
100
AcDbLine
10
572.8
20
2.899495
30
0
11
568.324609
21
2.899495
31
0
39
0
210
0
220
0
230
1
0
LINE
5
12C
100
AcDbEntity
8
1
62
256
6
ByLayer
370
18
48
1
60
0
100
AcDbLine
10
573
20
-5.100505
30
0
11
578.4
21
-5.100505
31
0
39
0
210
0
220
0
230
1
0
LINE
5
12D
100
AcDbEntity
8
1
62
256
6
ByLayer
370
18
48
1
60
0
100
AcDbLine
10
578.4
20
4.899495
30
0
11
573
21
4.899495
31
0
39
0
210
0
220
0
230
1
0
LINE
5
12E
100
AcDbEntity
8
1
62
256
6
ByLayer
370
18
48
1
60
0
100
AcDbLine
10
567.552123
20
9.772637
30
0
11
567.32476
21
10
31
0
39
0
210
0
220
0
230
1
0
LINE
5
12F
100
AcDbEntity
8
1
62
256
6
ByLayer
370
18
48
1
60
0
100
AcDbLine
10
567.32476
20
-30
30
0
11
567.552123
21
-29.772637
31
0
39
0
210
0
220
0
230
1
0
LINE
5
130
100
AcDbEntity
8
1
62
256
6
ByLayer
370
18
48
1
60
0
100
AcDbLine
10
566
20
-30
30
0
11
567.32476
21
-30
31
0
39
0
210
0
220
0
230
1
0
LINE
5
131
100
AcDbEntity
8
1
62
256
6
ByLayer
370
18
48
1
60
0
100
AcDbLine
10
567.32476
20
10
30
0
11
566.5
21
10
31
0
39
0
210
0
220
0
230
1
0
LINE
5
132
100
AcDbEntity
8
1
62
256
6
ByLayer
370
18
48
1
60
0
100
AcDbLine
10
565.5
20
30
30
0
11
564.2
21
30
31
0
39
0
210
0
220
0
230
1
0
LINE
5
133
100
AcDbEntity
8
1
62
256
6
ByLayer
370
18
48
1
60
0
100
AcDbLine
10
564.2
20
-30
30
0
11
566.02
21
-30
31
0
39
0
210
0
220
0
230
1
0
LINE
5
134
100
AcDbEntity
8
1
62
256
6
ByLayer
370
18
48
1
60
0
100
AcDbLine
10
566
20
29.5
30
0
11
565.5
21
30
31
0
39
0
210
0
220
0
230
1
0
LINE
5
135
100
AcDbEntity
8
1
62
256
6
ByLayer
370
18
48
1
60
0
100
AcDbLine
10
568.324609
20
-22.899495
30
0
11
572.8
21
-22.899495
31
0
39
0
210
0
220
0
230
1
0
LINE
5
136
100
AcDbEntity
8
1
62
256
6
ByLayer
370
18
48
1
60
0
100
AcDbLine
10
572.8
20
-16.899495
30
0
11
568.324609
21
-16.899495
31
0
39
0
210
0
220
0
230
1
0
LINE
5
137
100
AcDbEntity
8
1
62
256
6
ByLayer
370
18
48
1
60
0
100
AcDbLine
10
573
20
-24.899495
30
0
11
578.4
21
-24.899495
31
0
39
0
210
0
220
0
230
1
0
LINE
5
138
100
AcDbEntity
8
1
62
256
6
ByLayer
370
18
48
1
60
0
100
AcDbLine
10
578.4
20
-14.899495
30
0
11
573
21
-14.899495
31
0
39
0
210
0
220
0
230
1
0
LINE
5
139
100
AcDbEntity
8
1
62
256
6
ByLayer
370
13
48
0.05
60
0
100
AcDbLine
10
570.3
20
0
30
0
11
-6.5
21
0
31
0
39
0
210
0
220
0
230
1
0
LINE
5
13A
100
AcDbEntity
8
SK2
62
256
6
ByLayer
370
18
48
1
60
0
100
AcDbLine
10
-44.6
20
-31.5
30
0
11
-44.6
21
31.5
31
0
39
0
210
0
220
0
230
1
0
LINE
5
13C
100
AcDbEntity
8
SK2
62
256
6
ByLayer
370
18
48
1
60
0
100
AcDbLine
10
-1.2875
20
31.5
30
0
11
-46.6
21
31.5
31
0
39
0
210
0
220
0
230
1
0
LINE
5
13D
100
AcDbEntity
8
SK2
62
256
6
ByLayer
370
18
48
1
60
0
100
AcDbLine
10
-1.2875
20
-31.5
30
0
11
-46.6
21
-31.5
31
0
39
0
210
0
220
0
230
1
0
LINE
5
13E
100
AcDbEntity
8
1
62
256
6
ByLayer
370
18
48
1
60
1
100
AcDbLine
10
-44.6
20
31.5
30
0
11
-44.139216
21
28.000002
31
0
39
0
210
0
220
0
230
1
0
LINE
5
13F
100
AcDbEntity
8
1
62
256
6
ByLayer
370
18
48
1
60
1
100
AcDbLine
10
-44.139216
20
28.000002
30
0
11
-45.060784
21
27.999998
31
0
39
0
210
0
220
0
230
1
0
LINE
5
140
100
AcDbEntity
8
1
62
256
6
ByLayer
370
18
48
1
60
1
100
AcDbLine
10
-45.060784
20
27.999998
30
0
11
-44.6
21
31.5
31
0
39
0
210
0
220
0
230
1
0
LINE
5
141
100
AcDbEntity
8
1
62
256
6
ByLayer
370
18
48
1
60
1
100
AcDbLine
10
-44.6
20
-31.5
30
0
11
-45.060784
21
-28.000002
31
0
39
0
210
0
220
0
230
1
0
LINE
5
142
100
AcDbEntity
8
1
62
256
6
ByLayer
370
18
48
1
60
1
100
AcDbLine
10
-45.060784
20
-28.000002
30
0
11
-44.139216
21
-27.999998
31
0
39
0
210
0
220
0
230
1
0
LINE
5
143
100
AcDbEntity
8
1
62
256
6
ByLayer
370
18
48
1
60
1
100
AcDbLine
10
-44.139216
20
-27.999998
30
0
11
-44.6
21
-31.5
31
0
39
0
210
0
220
0
230
1
0
LINE
5
144
100
AcDbEntity
8
SK2
62
256
6
ByLayer
370
18
48
1
60
0
100
AcDbLine
10
599.748181
20
-30
30
0
11
599.748181
21
30
31
0
39
0
210
0
220
0
230
1
0
LINE
5
145
100
AcDbEntity
8
SK2
62
256
6
ByLayer
370
18
48
1
60
0
100
AcDbLine
10
565.3875
20
30
30
0
11
601.748181
21
30
31
0
39
0
210
0
220
0
230
1
0
LINE
5
146
100
AcDbEntity
8
SK2
62
256
6
ByLayer
370
18
48
1
60
0
100
AcDbLine
10
565.3875
20
-30
30
0
11
601.748181
21
-30
31
0
39
0
210
0
220
0
230
1
0
LINE
5
147
100
AcDbEntity
8
1
62
256
6
ByLayer
370
18
48
1
60
1
100
AcDbLine
10
599.748181
20
30
30
0
11
600.208964
21
26.500002
31
0
39
0
210
0
220
0
230
1
0
LINE
5
148
100
AcDbEntity
8
1
62
256
6
ByLayer
370
18
48
1
60
1
100
AcDbLine
10
600.208964
20
26.500002
30
0
11
599.287397
21
26.499998
31
0
39
0
210
0
220
0
230
1
0
LINE
5
149
100
AcDbEntity
8
1
62
256
6
ByLayer
370
18
48
1
60
1
100
AcDbLine
10
599.287397
20
26.499998
30
0
11
599.748181
21
30
31
0
39
0
210
0
220
0
230
1
0
LINE
5
14A
100
AcDbEntity
8
1
62
256
6
ByLayer
370
18
48
1
60
1
100
AcDbLine
10
599.748181
20
-30
30
0
11
599.287397
21
-26.500002
31
0
39
0
210
0
220
0
230
1
0
LINE
5
14B
100
AcDbEntity
8
1
62
256
6
ByLayer
370
18
48
1
60
1
100
AcDbLine
10
599.287397
20
-26.500002
30
0
11
600.208964
21
-26.499998
31
0
39
0
210
0
220
0
230
1
0
LINE
5
14C
100
AcDbEntity
8
1
62
256
6
ByLayer
370
18
48
1
60
1
100
AcDbLine
10
600.208964
20
-26.499998
30
0
11
599.748181
21
-30
31
0
39
0
210
0
220
0
230
1
0
LINE
5
14D
100
AcDbEntity
8
SK2
62
256
6
ByLayer
370
13
48
1
60
0
100
AcDbLine
10
588.123181
20
10
30
0
11
588.123181
21
-30
31
0
39
0
210
0
220
0
230
1
0
LINE
5
14E
100
AcDbEntity
8
SK2
62
256
6
ByLayer
370
13
48
1
60
0
100
AcDbLine
10
568.91226
20
-30
30
0
11
590.123181
21
-30
31
0
39
0
210
0
220
0
230
1
0
LINE
5
14F
100
AcDbEntity
8
SK2
62
256
6
ByLayer
370
13
48
1
60
0
100
AcDbLine
10
568.91226
20
10
30
0
11
590.123181
21
10
31
0
39
0
210
0
220
0
230
1
0
LINE
5
150
100
AcDbEntity
8
1
62
256
6
ByLayer
370
18
48
1
60
1
100
AcDbLine
10
588.123181
20
-30
30
0
11
587.662397
21
-26.500002
31
0
39
0
210
0
220
0
230
1
0
LINE
5
151
100
AcDbEntity
8
1
62
256
6
ByLayer
370
18
48
1
60
1
100
AcDbLine
10
587.662397
20
-26.500002
30
0
11
588.583964
21
-26.499998
31
0
39
0
210
0
220
0
230
1
0
LINE
5
152
100
AcDbEntity
8
1
62
256
6
ByLayer
370
18
48
1
60
1
100
AcDbLine
10
588.583964
20
-26.499998
30
0
11
588.123181
21
-30
31
0
39
0
210
0
220
0
230
1
0
LINE
5
153
100
AcDbEntity
8
1
62
256
6
ByLayer
370
18
48
1
60
1
100
AcDbLine
10
588.123181
20
10
30
0
11
588.583964
21
6.500002
31
0
39
0
210
0
220
0
230
1
0
LINE
5
154
100
AcDbEntity
8
1
62
256
6
ByLayer
370
18
48
1
60
1
100
AcDbLine
10
588.583964
20
6.500002
30
0
11
587.662397
21
6.499998
31
0
39
0
210
0
220
0
230
1
0
LINE
5
155
100
AcDbEntity
8
1
62
256
6
ByLayer
370
18
48
1
60
1
100
AcDbLine
10
587.662397
20
6.499998
30
0
11
588.123181
21
10
31
0
39
0
210
0
220
0
230
1
0
LINE
5
156
100
AcDbEntity
8
SK2
62
256
6
ByLayer
370
18
48
1
60
0
100
AcDbLine
10
0
20
37.1
30
0
11
568
21
37.1
31
0
39
0
210
0
220
0
230
1
0
LINE
5
157
100
AcDbEntity
8
SK2
62
256
6
ByLayer
370
18
48
1
60
0
100
AcDbLine
10
568
20
31.5875
30
0
11
568
21
39.1
31
0
39
0
210
0
220
0
230
1
0
LINE
5
158
100
AcDbEntity
8
SK2
62
256
6
ByLayer
370
18
48
1
60
0
100
AcDbLine
10
0
20
32.7875
30
0
11
0
21
39.1
31
0
39
0
210
0
220
0
230
1
0
LINE
5
159
100
AcDbEntity
8
1
62
256
6
ByLayer
370
18
48
1
60
1
100
AcDbLine
10
568
20
37.1
30
0
11
564.500002
21
36.639216
31
0
39
0
210
0
220
0
230
1
0
LINE
5
15A
100
AcDbEntity
8
1
62
256
6
ByLayer
370
18
48
1
60
1
100
AcDbLine
10
564.500002
20
36.639216
30
0
11
564.499998
21
37.560784
31
0
39
0
210
0
220
0
230
1
0
LINE
5
15B
100
AcDbEntity
8
1
62
256
6
ByLayer
370
18
48
1
60
1
100
AcDbLine
10
564.499998
20
37.560784
30
0
11
568
21
37.1
31
0
39
0
210
0
220
0
230
1
0
LINE
5
15C
100
AcDbEntity
8
1
62
256
6
ByLayer
370
18
48
1
60
1
100
AcDbLine
10
0
20
37.1
30
0
11
3.499998
21
37.560784
31
0
39
0
210
0
220
0
230
1
0
LINE
5
15D
100
AcDbEntity
8
1
62
256
6
ByLayer
370
18
48
1
60
1
100
AcDbLine
10
3.499998
20
37.560784
30
0
11
3.500002
21
36.639216
31
0
39
0
210
0
220
0
230
1
0
LINE
5
15E
100
AcDbEntity
8
1
62
256
6
ByLayer
370
18
48
1
60
1
100
AcDbLine
10
3.500002
20
36.639216
30
0
11
0
21
37.1
31
0
39
0
210
0
220
0
230
1
0
LINE
5
1EC
100
AcDbEntity
8
1
62
256
6
ByLayer
370
13
48
0.05
60
0
100
AcDbLine
10
555.05
20
-19.899495
30
0
11
579.3
21
-19.899495
31
0
39
0
210
0
220
0
230
1
0
LINE
5
1ED
100
AcDbEntity
8
1
62
256
6
ByLayer
370
13
48
0.05
60
0
100
AcDbLine
10
559.244351
20
-10
30
0
11
574.82476
21
-10
31
0
39
0
210
0
220
0
230
1
0
LINE
5
1EE
100
AcDbEntity
8
1
62
256
6
ByLayer
370
13
48
0.05
60
0
100
AcDbLine
10
555.05
20
-0.100505
30
0
11
579.3
21
-0.100505
31
0
39
0
210
0
220
0
230
1
0
LINE
5
1EF
100
AcDbEntity
8
1
62
256
6
ByLayer
370
13
48
0.05
60
0
100
AcDbLine
10
572.52
20
0
30
0
11
557.7
21
0
31
0
39
0
210
0
220
0
230
1
0
LINE
5
1F4
100
AcDbEntity
8
1
62
256
6
ByLayer
370
18
48
1
60
1
100
AcDbLine
10
-44.6
20
31.5
30
0
11
-44.139216
21
28.000002
31
0
39
0
210
0
220
0
230
1
0
LINE
5
1F5
100
AcDbEntity
8
1
62
256
6
ByLayer
370
18
48
1
60
1
100
AcDbLine
10
-44.139216
20
28.000002
30
0
11
-45.060784
21
27.999998
31
0
39
0
210
0
220
0
230
1
0
LINE
5
1F6
100
AcDbEntity
8
1
62
256
6
ByLayer
370
18
48
1
60
1
100
AcDbLine
10
-45.060784
20
27.999998
30
0
11
-44.6
21
31.5
31
0
39
0
210
0
220
0
230
1
0
LINE
5
1F8
100
AcDbEntity
8
1
62
256
6
ByLayer
370
18
48
1
60
1
100
AcDbLine
10
-44.6
20
-31.5
30
0
11
-45.060784
21
-28.000002
31
0
39
0
210
0
220
0
230
1
0
LINE
5
1F9
100
AcDbEntity
8
1
62
256
6
ByLayer
370
18
48
1
60
1
100
AcDbLine
10
-45.060784
20
-28.000002
30
0
11
-44.139216
21
-27.999998
31
0
39
0
210
0
220
0
230
1
0
LINE
5
1FA
100
AcDbEntity
8
1
62
256
6
ByLayer
370
18
48
1
60
1
100
AcDbLine
10
-44.139216
20
-27.999998
30
0
11
-44.6
21
-31.5
31
0
39
0
210
0
220
0
230
1
0
LINE
5
1FE
100
AcDbEntity
8
1
62
256
6
ByLayer
370
18
48
1
60
1
100
AcDbLine
10
599.748181
20
30
30
0
11
600.208964
21
26.500002
31
0
39
0
210
0
220
0
230
1
0
LINE
5
1FF
100
AcDbEntity
8
1
62
256
6
ByLayer
370
18
48
1
60
1
100
AcDbLine
10
600.208964
20
26.500002
30
0
11
599.287397
21
26.499998
31
0
39
0
210
0
220
0
230
1
0
LINE
5
200
100
AcDbEntity
8
1
62
256
6
ByLayer
370
18
48
1
60
1
100
AcDbLine
10
599.287397
20
26.499998
30
0
11
599.748181
21
30
31
0
39
0
210
0
220
0
230
1
0
LINE
5
202
100
AcDbEntity
8
1
62
256
6
ByLayer
370
18
48
1
60
1
100
AcDbLine
10
599.748181
20
-30
30
0
11
599.287397
21
-26.500002
31
0
39
0
210
0
220
0
230
1
0
LINE
5
203
100
AcDbEntity
8
1
62
256
6
ByLayer
370
18
48
1
60
1
100
AcDbLine
10
599.287397
20
-26.500002
30
0
11
600.208964
21
-26.499998
31
0
39
0
210
0
220
0
230
1
0
LINE
5
204
100
AcDbEntity
8
1
62
256
6
ByLayer
370
18
48
1
60
1
100
AcDbLine
10
600.208964
20
-26.499998
30
0
11
599.748181
21
-30
31
0
39
0
210
0
220
0
230
1
0
LINE
5
20A
100
AcDbEntity
8
1
62
256
6
ByLayer
370
18
48
1
60
1
100
AcDbLine
10
588.123181
20
-30
30
0
11
587.662397
21
-26.500002
31
0
39
0
210
0
220
0
230
1
0
LINE
5
20B
100
AcDbEntity
8
1
62
256
6
ByLayer
370
18
48
1
60
1
100
AcDbLine
10
587.662397
20
-26.500002
30
0
11
588.583964
21
-26.499998
31
0
39
0
210
0
220
0
230
1
0
LINE
5
20C
100
AcDbEntity
8
1
62
256
6
ByLayer
370
18
48
1
60
1
100
AcDbLine
10
588.583964
20
-26.499998
30
0
11
588.123181
21
-30
31
0
39
0
210
0
220
0
230
1
0
LINE
5
20E
100
AcDbEntity
8
1
62
256
6
ByLayer
370
18
48
1
60
1
100
AcDbLine
10
588.123181
20
10
30
0
11
588.583964
21
6.500002
31
0
39
0
210
0
220
0
230
1
0
LINE
5
20F
100
AcDbEntity
8
1
62
256
6
ByLayer
370
18
48
1
60
1
100
AcDbLine
10
588.583964
20
6.500002
30
0
11
587.662397
21
6.499998
31
0
39
0
210
0
220
0
230
1
0
LINE
5
210
100
AcDbEntity
8
1
62
256
6
ByLayer
370
18
48
1
60
1
100
AcDbLine
10
587.662397
20
6.499998
30
0
11
588.123181
21
10
31
0
39
0
210
0
220
0
230
1
0
LINE
5
213
100
AcDbEntity
8
1
62
256
6
ByLayer
370
18
48
1
60
1
100
AcDbLine
10
568
20
37.1
30
0
11
564.500002
21
36.639216
31
0
39
0
210
0
220
0
230
1
0
LINE
5
214
100
AcDbEntity
8
1
62
256
6
ByLayer
370
18
48
1
60
1
100
AcDbLine
10
564.500002
20
36.639216
30
0
11
564.499998
21
37.560784
31
0
39
0
210
0
220
0
230
1
0
LINE
5
215
100
AcDbEntity
8
1
62
256
6
ByLayer
370
18
48
1
60
1
100
AcDbLine
10
564.499998
20
37.560784
30
0
11
568
21
37.1
31
0
39
0
210
0
220
0
230
1
0
LINE
5
217
100
AcDbEntity
8
1
62
256
6
ByLayer
370
18
48
1
60
1
100
AcDbLine
10
0
20
37.1
30
0
11
3.499998
21
37.560784
31
0
39
0
210
0
220
0
230
1
0
LINE
5
218
100
AcDbEntity
8
1
62
256
6
ByLayer
370
18
48
1
60
1
100
AcDbLine
10
3.499998
20
37.560784
30
0
11
3.500002
21
36.639216
31
0
39
0
210
0
220
0
230
1
0
LINE
5
219
100
AcDbEntity
8
1
62
256
6
ByLayer
370
18
48
1
60
1
100
AcDbLine
10
3.500002
20
36.639216
30
0
11
0
21
37.1
31
0
39
0
210
0
220
0
230
1
0
MTEXT
5
1F0
100
AcDbEntity
8
SK2
62
256
6
ByLayer
370
18
48
1
60
0
100
AcDbMText
10
-46.164634
20
-4.530622
30
0
210
0
220
0
230
1
1
%%c
40
3.5
41
0
44
1.084337
50
90
71
7
72
5
7
iso_b_vert
0
MTEXT
5
1F3
100
AcDbEntity
8
SK2
62
256
6
ByLayer
370
18
48
1
60
0
100
AcDbMText
10
-46.164634
20
2.442034
30
0
210
0
220
0
230
1
1
\W0.6740;63
40
3.5
41
0
44
1.084337
50
90
71
7
72
5
7
iso_b_vert
0
MTEXT
5
1FC
100
AcDbEntity
8
SK2
62
256
6
ByLayer
370
18
48
1
60
0
100
AcDbMText
10
598.183547
20
-4.530622
30
0
210
0
220
0
230
1
1
%%c
40
3.5
41
0
44
1.084337
50
90
71
7
72
5
7
iso_b_vert
0
MTEXT
5
1FD
100
AcDbEntity
8
SK2
62
256
6
ByLayer
370
18
48
1
60
0
100
AcDbMText
10
598.183547
20
2.442034
30
0
210
0
220
0
230
1
1
\W0.6740;60
40
3.5
41
0
44
1.084337
50
90
71
7
72
5
7
iso_b_vert
0
MTEXT
5
206
100
AcDbEntity
8
SK2
62
256
6
ByLayer
370
18
48
1
60
0
100
AcDbMText
10
585.902297
20
-3.192767
30
0
210
0
220
0
230
1
1
\W1.1313;{\H1.88x;)}
40
3.5
41
0
44
1.084337
50
90
71
7
72
5
7
iso_b_vert
0
MTEXT
5
207
100
AcDbEntity
8
SK2
62
256
6
ByLayer
370
18
48
1
60
0
100
AcDbMText
10
585.902297
20
-18.942233
30
0
210
0
220
0
230
1
1
\W1.1313;{\H1.88x;(}
40
3.5
41
0
44
1.084337
50
90
71
7
72
5
7
iso_b_vert
0
MTEXT
5
208
100
AcDbEntity
8
SK2
62
256
6
ByLayer
370
18
48
1
60
0
100
AcDbMText
10
585.902297
20
-14.714889
30
0
210
0
220
0
230
1
1
%%c
40
3.5
41
0
44
1.084337
50
90
71
7
72
5
7
iso_b_vert
0
MTEXT
5
209
100
AcDbEntity
8
SK2
62
256
6
ByLayer
370
18
48
1
60
0
100
AcDbMText
10
585.902297
20
-7.742233
30
0
210
0
220
0
230
1
1
\W0.7361;40
40
3.5
41
0
44
1.084337
50
90
71
7
72
5
7
iso_b_vert
0
MTEXT
5
212
100
AcDbEntity
8
SK2
62
256
6
ByLayer
370
18
48
1
60
0
100
AcDbMText
10
280.787301
20
38.132634
30
0
210
0
220
0
230
1
1
\W0.7138;568
40
3.5
41
0
44
1.084337
50
0
71
7
72
5
7
iso_b_vert
0
MTEXT
5
21B
100
AcDbEntity
8
SK6
62
256
6
ByLayer
370
18
48
1
60
0
100
AcDbMText
10
247.45216
20
-57.067366
30
0
210
0
220
0
230
1
1
\W0.7705;HT30D-C6 60 568L40
40
3.5
41
0
44
1.084337
50
0
71
7
72
5
7
iso_b_vert
0
HATCH
5
1F7
100
AcDbEntity
8
SK2
62
256
6
ByLayer
370
13
48
1
60
0
100
AcDbHatch
10
0
20
0
30
0
210
0
220
0
230
1
2
ANSI31
70
0
71
0
91
1
92
5
93
3
72
1
10
-44.6
20
31.5
11
-44.1392162584472
21
28.0000016925532
72
1
10
-44.1392162584472
20
28.0000016925532
11
-45.0607837415528
21
27.9999983074468
72
1
10
-45.0607837415528
20
27.9999983074468
11
-44.6
21
31.5
97
0
75
0
76
1
52
0
41
0.0062
77
0
78
1
53
45
43
0
44
0
45
-0.0139193969876572
46
0.0139193969876572
79
0
47
0
98
1
10
0
20
0
0
HATCH
5
1FB
100
AcDbEntity
8
SK2
62
256
6
ByLayer
370
13
48
1
60
0
100
AcDbHatch
10
0
20
0
30
0
210
0
220
0
230
1
2
ANSI31
70
0
71
0
91
1
92
5
93
3
72
1
10
-44.6
20
-31.5
11
-45.0607837415528
21
-28.0000016925532
72
1
10
-45.0607837415528
20
-28.0000016925532
11
-44.1392162584472
21
-27.9999983074468
72
1
10
-44.1392162584472
20
-27.9999983074468
11
-44.6
21
-31.5
97
0
75
0
76
1
52
0
41
0.0062
77
0
78
1
53
45
43
0
44
0
45
-0.0139193969876572
46
0.0139193969876572
79
0
47
0
98
1
10
0
20
0
0
HATCH
5
201
100
AcDbEntity
8
SK2
62
256
6
ByLayer
370
13
48
1
60
0
100
AcDbHatch
10
0
20
0
30
0
210
0
220
0
230
1
2
ANSI31
70
0
71
0
91
1
92
5
93
3
72
1
10
599.748180566759
20
30
11
600.208964308312
21
26.5000016925532
72
1
10
600.208964308312
20
26.5000016925532
11
599.287396825206
21
26.4999983074468
72
1
10
599.287396825206
20
26.4999983074468
11
599.748180566759
21
30
97
0
75
0
76
1
52
0
41
0.0062
77
0
78
1
53
45
43
0
44
0
45
-0.0139193969876572
46
0.0139193969876572
79
0
47
0
98
1
10
0
20
0
0
HATCH
5
205
100
AcDbEntity
8
SK2
62
256
6
ByLayer
370
13
48
1
60
0
100
AcDbHatch
10
0
20
0
30
0
210
0
220
0
230
1
2
ANSI31
70
0
71
0
91
1
92
5
93
3
72
1
10
599.748180566759
20
-30.0000000000001
11
599.287396825206
21
-26.5000016925533
72
1
10
599.287396825206
20
-26.5000016925533
11
600.208964308312
21
-26.4999983074468
72
1
10
600.208964308312
20
-26.4999983074468
11
599.748180566759
21
-30.0000000000001
97
0
75
0
76
1
52
0
41
0.0062
77
0
78
1
53
45
43
0
44
0
45
-0.0139193969876572
46
0.0139193969876572
79
0
47
0
98
1
10
0
20
0
0
HATCH
5
20D
100
AcDbEntity
8
SK2
62
256
6
ByLayer
370
13
48
1
60
0
100
AcDbHatch
10
0
20
0
30
0
210
0
220
0
230
1
2
ANSI31
70
0
71
0
91
1
92
5
93
3
72
1
10
588.123180566759
20
-30
11
587.662396825206
21
-26.5000016925532
72
1
10
587.662396825206
20
-26.5000016925532
11
588.583964308312
21
-26.4999983074468
72
1
10
588.583964308312
20
-26.4999983074468
11
588.123180566759
21
-30
97
0
75
0
76
1
52
0
41
0.0062
77
0
78
1
53
45
43
0
44
0
45
-0.0139193969876572
46
0.0139193969876572
79
0
47
0
98
1
10
0
20
0
0
HATCH
5
211
100
AcDbEntity
8
SK2
62
256
6
ByLayer
370
13
48
1
60
0
100
AcDbHatch
10
0
20
0
30
0
210
0
220
0
230
1
2
ANSI31
70
0
71
0
91
1
92
5
93
3
72
1
10
588.123180566759
20
10
11
588.583964308312
21
6.50000169255321
72
1
10
588.583964308312
20
6.50000169255321
11
587.662396825206
21
6.49999830744679
72
1
10
587.662396825206
20
6.49999830744679
11
588.123180566759
21
10
97
0
75
0
76
1
52
0
41
0.0062
77
0
78
1
53
45
43
0
44
0
45
-0.0139193969876572
46
0.0139193969876572
79
0
47
0
98
1
10
0
20
0
0
HATCH
5
216
100
AcDbEntity
8
SK2
62
256
6
ByLayer
370
13
48
1
60
0
100
AcDbHatch
10
0
20
0
30
0
210
0
220
0
230
1
2
ANSI31
70
0
71
0
91
1
92
5
93
3
72
1
10
568
20
37.1
11
564.500001692553
21
36.6392162584472
72
1
10
564.500001692553
20
36.6392162584472
11
564.499998307447
21
37.5607837415528
72
1
10
564.499998307447
20
37.5607837415528
11
568
21
37.1
97
0
75
0
76
1
52
0
41
0.0062
77
0
78
1
53
45
43
0
44
0
45
-0.0139193969876572
46
0.0139193969876572
79
0
47
0
98
1
10
0
20
0
0
HATCH
5
21A
100
AcDbEntity
8
SK2
62
256
6
ByLayer
370
13
48
1
60
0
100
AcDbHatch
10
0
20
0
30
0
210
0
220
0
230
1
2
ANSI31
70
0
71
0
91
1
92
5
93
3
72
1
10
0
20
37.1
11
3.49999830744682
21
37.5607837415528
72
1
10
3.49999830744682
20
37.5607837415528
11
3.50000169255318
21
36.6392162584472
72
1
10
3.50000169255318
20
36.6392162584472
11
0
21
37.1
97
0
75
0
76
1
52
0
41
0.0062
77
0
78
1
53
45
43
0
44
0
45
-0.0139193969876572
46
0.0139193969876572
79
0
47
0
98
1
10
0
20
0
0
DIMENSION
5
21E
100
AcDbEntity
8
SK2
62
256
6
ByLayer
370
18
48
1
60
0
100
AcDbDimension
2
_U0
10
568
20
-44.6
30
0
11
295.7
21
-44.6
31
0
70
32
71
1
72
1
41
1
210
0
220
0
230
1
3
Standard
100
AcDbAlignedDimension
13
23.4
23
-30
33
0
14
568
24
30
34
0
50
0
100
AcDbRotatedDimension
1001
ACAD
1000
DSTYLE
1002
{
1070
   371
1070
    13
1070
   372
1070
    13
1070
   170
1070
     0
1070
   144
1040
1.0
1070
   277
1070
     2
1070
   284
1070
     8
1070
   278
1070
    46
1070
   146
1040
1.0
1070
   345
1005
16
1070
   347
1005
16
1070
   346
1005
16
1070
   344
1005
0
1070
   343
1005
0
1070
   172
1070
     1
1070
    76
1070
     0
1070
    75
1070
     0
1070
   282
1070
     0
1070
   281
1070
     0
1070
    71
1070
     0
1070
    74
1070
     0
1070
   279
1070
     0
1070
   173
1070
     1
1070
   340
1005
1F1
1070
   271
1070
     2
1070
   272
1070
     2
1070
    77
1070
     1
1070
    73
1070
     1
1070
   171
1070
     3
1070
   274
1070
     4
1070
   177
1070
     2
1070
   176
1070
     2
1070
   178
1070
     2
1070
    78
1070
     8
1070
    48
1040
-0.1
1070
    41
1040
3.5
1070
   147
1040
1.75
1070
    42
1040
1.5875
1070
    44
1040
2.0
1070
   140
1040
3.5
1002
}
1001
ACAD_DSTYLE_DIM_LINETYPE
1070
   380
1005
16
1001
ACAD_DSTYLE_DIM_EXT1_LINETYPE
1070
   381
1005
16
1001
ACAD_DSTYLE_DIM_EXT2_LINETYPE
1070
   382
1005
16
0
ENDSEC
0
SECTION
2
OBJECTS
0
DICTIONARY
5
2a7
330
0
100
AcDbDictionary
280
0
281
1
3
ACAD_GROUP
350
2a8
3
ACAD_MLINESTYLE
350
2a9
0
DICTIONARY
5
2a8
330
0
100
AcDbDictionary
280
0
281
1
0
DICTIONARY
5
2a9
330
0
100
AcDbDictionary
280
0
281
1
3
Standard
350
18
0
MLINESTYLE
5
18
330
2a9
100
AcDbMlineStyle
2
Standard
70
0
3

62
256
51
90
52
90
71
2
49
-0.5
62
256
6
ByLayer
49
0.5
62
256
6
ByLayer
0
RASTERVARIABLES
5
295
330

100
AcDbRasterVariables
90
0
70
1
71
1
72
1
0
ENDSEC
0
EOF
