0
SECTION
2
HEADER
9
$ACADVER
1
AC1015
9
$DWGCODEPAGE
3
ANSI_1252
9
$HANDSEED
5
2a8
9
$ANGBASE
50
0
9
$ANGDIR
70
0
9
$ATTMODE
70
1
9
$AUNITS
70
0
9
$AUPREC
70
0
9
$CECOLOR
62
256
9
$CELTSCALE
40
1
9
$CELTYPE
6
ByLayer
9
$CELWEIGHT
370
18
9
$CLAYER
8
0
9
$CMLJUST
70
0
9
$CMLSCALE
40
1
9
$CMLSTYLE
2
Standard
9
$DIMSTYLE
2
Standard
9
$TEXTSIZE
40
0.2
9
$TEXTSTYLE
7
Standard
9
$LUNITS
70
2
9
$LUPREC
70
4
9
$EXTNAMES
290
1
9
$INSUNITS
70
4
9
$LTSCALE
40
1
9
$LWDISPLAY
290
1
9
$PDMODE
70
0
9
$PDSIZE
40
0
9
$PLINEGEN
70
0
0
ENDSEC
0
SECTION
2
CLASSES
0
CLASS
1
RASTERVARIABLES
2
AcDbRasterVariables
3
ISM
90
0
280
0
281
0
0
ENDSEC
0
SECTION
2
TABLES
0
TABLE
2
VPORT
5
29e
100
AcDbSymbolTable
0
VPORT
5
1
100
AcDbSymbolTableRecord
100
AcDbViewportTableRecord
2
*Active
70
0
10
0
20
0
11
1
21
1
12
-1
22
1
13
0
23
0
14
0.5
24
0.5
15
10
25
10
16
0
26
0
36
1
17
0
27
0
37
0
0
ENDTAB
0
TABLE
2
LTYPE
5
29f
100
AcDbSymbolTable
0
LTYPE
5
14
100
AcDbSymbolTableRecord
100
AcDbLinetypeTableRecord
70
0
2
ByBlock
3

72
65
73
0
40
0
0
LTYPE
5
15
100
AcDbSymbolTableRecord
100
AcDbLinetypeTableRecord
70
0
2
ByLayer
3

72
65
73
0
40
0
0
LTYPE
5
16
100
AcDbSymbolTableRecord
100
AcDbLinetypeTableRecord
70
0
2
Continuous
3
Solid line
72
65
73
0
40
0
0
LTYPE
5
6E
100
AcDbSymbolTableRecord
100
AcDbLinetypeTableRecord
70
0
2
CENTER
3
____ _ ____ _ ____ _ ____
72
65
73
4
40
47.5
49
22
74
0
49
-8.5
74
0
49
8.5
74
0
49
-8.5
74
0
0
LTYPE
5
6F
100
AcDbSymbolTableRecord
100
AcDbLinetypeTableRecord
70
0
2
DASHED
3
__ __ __ __ __ __ __ __ __
72
65
73
2
40
25.72
49
12.86
74
0
49
-12.86
74
0
0
ENDTAB
0
TABLE
2
LAYER
5
2a0
100
AcDbSymbolTable
0
LAYER
5
10
100
AcDbSymbolTableRecord
100
AcDbLayerTableRecord
2
0
70
0
62
7
6
Continuous
290
1
370
-3
390
0
0
LAYER
5
71
100
AcDbSymbolTableRecord
100
AcDbLayerTableRecord
2
2
70
0
62
7
6
Continuous
290
1
370
-3
390
0
0
LAYER
5
98
100
AcDbSymbolTableRecord
100
AcDbLayerTableRecord
2
80
70
0
62
-6
6
Continuous
290
1
370
-3
390
0
0
LAYER
5
9A
100
AcDbSymbolTableRecord
100
AcDbLayerTableRecord
2
81
70
0
62
-3
6
Continuous
290
1
370
-3
390
0
0
LAYER
5
9C
100
AcDbSymbolTableRecord
100
AcDbLayerTableRecord
2
1
70
0
62
4
6
Continuous
290
1
370
-3
390
0
0
LAYER
5
9F
100
AcDbSymbolTableRecord
100
AcDbLayerTableRecord
2
4
70
0
62
-2
6
CENTER
290
1
370
-3
390
0
0
LAYER
5
215
100
AcDbSymbolTableRecord
100
AcDbLayerTableRecord
2
Defpoints
70
0
62
7
6
Continuous
290
0
370
-3
390
0
0
LAYER
5
28a
100
AcDbSymbolTableRecord
100
AcDbLayerTableRecord
2
SK4
70
0
62
2
6
CENTER
290
1
370
-3
390
0
0
LAYER
5
28b
100
AcDbSymbolTableRecord
100
AcDbLayerTableRecord
2
SK1
70
0
62
4
6
Continuous
290
1
370
-3
390
0
0
LAYER
5
28c
100
AcDbSymbolTableRecord
100
AcDbLayerTableRecord
2
SK2
70
0
62
7
6
Continuous
290
1
370
-3
390
0
0
LAYER
5
28d
100
AcDbSymbolTableRecord
100
AcDbLayerTableRecord
2
SK6
70
0
62
5
6
Continuous
290
1
370
-3
390
0
0
ENDTAB
0
TABLE
2
STYLE
5
2a1
100
AcDbSymbolTable
0
STYLE
5
11
100
AcDbSymbolTableRecord
100
AcDbTextStyleTableRecord
2
Standard
3
txt
70
0
71
0
40
0
41
1
42
0
50
0
0
STYLE
5
1E5
100
AcDbSymbolTableRecord
100
AcDbTextStyleTableRecord
2
iso_b_vert
3
simplex.shx
70
0
71
0
40
0
41
1
42
0
50
0
0
STYLE
5
1E6
100
AcDbSymbolTableRecord
100
AcDbTextStyleTableRecord
2
DWGDirectTextStyle
3
simplex
70
0
71
0
40
0
41
1
42
0
50
0
0
ENDTAB
0
TABLE
2
DIMSTYLE
5
2a2
100
AcDbSymbolTable
100
AcDbDimStyleTable
0
DIMSTYLE
105
27
100
AcDbSymbolTableRecord
100
AcDbDimStyleTableRecord
2
Standard
70
0
3
<>
41
0.18
42
0.0625
44
0.18
140
0.18
147
0.09
73
0
74
0
77
1
271
2
275
0
278
52
280
0
340
11
0
ENDTAB
0
TABLE
2
VIEW
5
2a3
100
AcDbSymbolTable
0
ENDTAB
0
TABLE
2
UCS
5
2a4
100
AcDbSymbolTable
0
ENDTAB
0
TABLE
2
APPID
5
2a5
100
AcDbSymbolTable
0
APPID
5
12
100
AcDbSymbolTableRecord
100
AcDbRegAppTableRecord
2
ACAD
70
0
0
APPID
5
211
100
AcDbSymbolTableRecord
100
AcDbRegAppTableRecord
2
ACAD_DSTYLE_DIMBREAK
70
0
0
APPID
5
249
100
AcDbSymbolTableRecord
100
AcDbRegAppTableRecord
2
ACAD_DSTYLE_DIM_LINETYPE
70
0
0
APPID
5
24A
100
AcDbSymbolTableRecord
100
AcDbRegAppTableRecord
2
ACAD_DSTYLE_DIM_EXT1_LINETYPE
70
0
0
APPID
5
24B
100
AcDbSymbolTableRecord
100
AcDbRegAppTableRecord
2
ACAD_DSTYLE_DIM_EXT2_LINETYPE
70
0
0
APPID
5
286
100
AcDbSymbolTableRecord
100
AcDbRegAppTableRecord
2
ACAD_MLEADERVER
70
0
0
ENDTAB
0
TABLE
2
BLOCK_RECORD
5
2a6
100
AcDbSymbolTable
0
BLOCK_RECORD
5
1F
100
AcDbSymbolTableRecord
100
AcDbBlockTableRecord
2
*Model_Space
340
0
70
0
0
BLOCK_RECORD
5
1B
100
AcDbSymbolTableRecord
100
AcDbBlockTableRecord
2
*Paper_Space
340
0
70
0
0
BLOCK_RECORD
5
23
100
AcDbSymbolTableRecord
100
AcDbBlockTableRecord
2
*Paper_Space0
340
0
70
0
0
BLOCK_RECORD
5
216
100
AcDbSymbolTableRecord
100
AcDbBlockTableRecord
2
*D1
340
0
70
0
0
BLOCK_RECORD
5
222
100
AcDbSymbolTableRecord
100
AcDbBlockTableRecord
2
_U0
340
0
70
0
0
ENDTAB
0
ENDSEC
0
SECTION
2
BLOCKS
0
BLOCK
5
20
100
AcDbEntity
8
0
100
AcDbBlockBegin
2
*Model_Space
70
0
10
0
20
0
30
0
3
*Model_Space
0
ENDBLK
5
21
100
AcDbEntity
8
0
100
AcDbBlockEnd
0
BLOCK
5
1C
100
AcDbEntity
8
0
100
AcDbBlockBegin
2
*Paper_Space
70
0
10
0
20
0
30
0
3
*Paper_Space
0
ENDBLK
5
1D
100
AcDbEntity
8
0
100
AcDbBlockEnd
0
BLOCK
5
24
100
AcDbEntity
8
0
100
AcDbBlockBegin
2
*Paper_Space0
70
0
10
0
20
0
30
0
3
*Paper_Space0
0
ENDBLK
5
25
100
AcDbEntity
8
0
100
AcDbBlockEnd
0
BLOCK
5
217
100
AcDbEntity
8
0
100
AcDbBlockBegin
2
*D1
70
1
10
0
20
0
30
0
3
*D1
0
LINE
5
219
100
AcDbEntity
8
0
62
256
6
ByLayer
370
-2
48
1
60
0
100
AcDbLine
10
23.4
20
-31.5875
30
0
11
23.4
21
-46.6
31
0
39
0
210
0
220
0
230
1
0
LINE
5
21A
100
AcDbEntity
8
0
62
256
6
ByLayer
370
-2
48
1
60
0
100
AcDbLine
10
328
20
28.4125
30
0
11
328
21
-46.6
31
0
39
0
210
0
220
0
230
1
0
LINE
5
21B
100
AcDbEntity
8
0
62
256
6
ByLayer
370
-2
48
1
60
0
100
AcDbLine
10
26.9
20
-44.6
30
0
11
324.5
21
-44.6
31
0
39
0
210
0
220
0
230
1
0
SOLID
5
21C
100
AcDbEntity
8
0
62
256
6
ByLayer
370
-1
48
1
60
0
100
AcDbTrace
10
26.9
20
-44.016667
30
0
11
26.9
21
-45.183333
31
0
12
23.4
22
-44.6
32
0
13
23.4
23
-44.6
33
0
39
0
210
0
220
0
230
1
0
SOLID
5
21D
100
AcDbEntity
8
0
62
256
6
ByLayer
370
-1
48
1
60
0
100
AcDbTrace
10
324.5
20
-45.183333
30
0
11
324.5
21
-44.016667
31
0
12
328
22
-44.6
32
0
13
328
23
-44.6
33
0
39
0
210
0
220
0
230
1
0
MTEXT
5
21E
100
AcDbEntity
8
0
62
256
6
ByLayer
370
18
48
1
60
0
100
AcDbMText
10
175.7
20
-37.6
30
0
210
0
220
0
230
1
1
\A1;304.6
40
3.5
41
0
44
1
50
0
71
5
72
5
7
iso_b_vert
0
POINT
5
21F
100
AcDbEntity
8
Defpoints
62
0
6
ByLayer
370
-1
48
1
60
0
100
AcDbPoint
10
23.4
20
-30
30
0
39
0
210
0
220
0
230
1
50
360
0
POINT
5
220
100
AcDbEntity
8
Defpoints
62
0
6
ByLayer
370
-1
48
1
60
0
100
AcDbPoint
10
328
20
30
30
0
39
0
210
0
220
0
230
1
50
360
0
POINT
5
221
100
AcDbEntity
8
Defpoints
62
0
6
ByLayer
370
-1
48
1
60
0
100
AcDbPoint
10
328
20
-44.6
30
0
39
0
210
0
220
0
230
1
50
360
0
ENDBLK
5
218
100
AcDbEntity
8
0
100
AcDbBlockEnd
0
BLOCK
5
229
100
AcDbEntity
8
0
100
AcDbBlockBegin
2
_U0
70
0
10
0
20
0
30
0
3
_U0
0
MTEXT
5
223
100
AcDbEntity
8
SK2
62
256
6
ByLayer
370
18
48
1
60
0
100
AcDbMText
10
170.286301
20
-43.567366
30
0
210
0
220
0
230
1
1
\W0.7694;304.6
40
3.5
41
0
44
1.084337
50
0
71
7
72
5
7
iso_b_vert
0
LINE
5
224
100
AcDbEntity
8
SK2
62
256
6
ByLayer
370
13
48
1
60
0
100
AcDbLine
10
23.4
20
-31.5875
30
0
11
23.4
21
-46.6
31
0
39
0
210
0
220
0
230
1
0
LINE
5
225
100
AcDbEntity
8
SK2
62
256
6
ByLayer
370
13
48
1
60
0
100
AcDbLine
10
328
20
28.4125
30
0
11
328
21
-46.6
31
0
39
0
210
0
220
0
230
1
0
LINE
5
226
100
AcDbEntity
8
SK2
62
256
6
ByLayer
370
13
48
1
60
0
100
AcDbLine
10
23.4
20
-44.6
30
0
11
328
21
-44.6
31
0
39
0
210
0
220
0
230
1
0
SOLID
5
227
100
AcDbEntity
8
SK2
62
256
6
ByLayer
370
18
48
1
60
0
100
AcDbTrace
10
23.4
20
-44.6
30
0
11
26.899998
21
-44.139216
31
0
12
26.900002
22
-45.060784
32
0
13
26.900002
23
-45.060784
33
0
39
0
210
0
220
0
230
1
0
SOLID
5
228
100
AcDbEntity
8
SK2
62
256
6
ByLayer
370
18
48
1
60
0
100
AcDbTrace
10
328
20
-44.6
30
0
11
324.500002
21
-45.060784
31
0
12
324.499998
22
-44.139216
32
0
13
324.499998
23
-44.139216
33
0
39
0
210
0
220
0
230
1
0
ENDBLK
5
22A
100
AcDbEntity
8
0
100
AcDbBlockEnd
0
ENDSEC
0
SECTION
2
ENTITIES
0
ARC
5
157
100
AcDbEntity
8
1
62
256
6
ByLayer
370
18
48
1
60
0
100
AcDbCircle
39
0
10
323.8
20
-29.8
30
0
40
0.2
210
0
220
0
230
1
100
AcDbArc
50
270
51
0
0
ARC
5
158
100
AcDbEntity
8
1
62
256
6
ByLayer
370
18
48
1
60
0
100
AcDbCircle
39
0
10
323.8
20
29.8
30
0
40
0.2
210
0
220
0
230
1
100
AcDbArc
50
0
51
90
0
ARC
5
159
100
AcDbEntity
8
1
62
256
6
ByLayer
370
18
48
1
60
0
100
AcDbCircle
39
0
10
23.4
20
31.4
30
0
40
1.4
210
0
220
0
230
1
100
AcDbArc
50
192.153197
51
270
0
ARC
5
15A
100
AcDbEntity
8
1
62
256
6
ByLayer
370
18
48
1
60
0
100
AcDbCircle
39
0
10
23.4
20
-31.4
30
0
40
1.4
210
0
220
0
230
1
100
AcDbArc
50
90
51
167.846803
0
ARC
5
15B
100
AcDbEntity
8
1
62
256
6
ByLayer
370
18
48
1
60
0
100
AcDbCircle
39
0
10
21.542582
20
-31
30
0
40
0.5
210
0
220
0
230
1
100
AcDbArc
50
270
51
347.846803
0
ARC
5
15C
100
AcDbEntity
8
1
62
256
6
ByLayer
370
18
48
1
60
0
100
AcDbCircle
39
0
10
21.542582
20
31
30
0
40
0.5
210
0
220
0
230
1
100
AcDbArc
50
12.153197
51
90
0
ARC
5
15D
100
AcDbEntity
8
SK1
62
256
6
ByLayer
370
18
48
1
60
0
100
AcDbCircle
39
0
10
-0.6
20
23.45
30
0
40
0.999999999999994
210
0
220
0
230
1
100
AcDbArc
50
293.578178
51
306.869898
0
ARC
5
15E
100
AcDbEntity
8
SK1
62
256
6
ByLayer
370
18
48
1
60
0
100
AcDbCircle
39
0
10
-0.6
20
-23.45
30
0
40
0.999999999999994
210
0
220
0
230
1
100
AcDbArc
50
53.130102
51
66.421822
0
ARC
5
15F
100
AcDbEntity
8
1
62
256
6
ByLayer
370
18
48
1
60
0
100
AcDbCircle
39
0
10
332.8
20
-3.300505
30
0
40
0.2
210
0
220
0
230
1
100
AcDbArc
50
0
51
90
0
ARC
5
160
100
AcDbEntity
8
1
62
256
6
ByLayer
370
18
48
1
60
0
100
AcDbCircle
39
0
10
332.8
20
3.099495
30
0
40
0.2
210
0
220
0
230
1
100
AcDbArc
50
270
51
0
0
ARC
5
161
100
AcDbEntity
8
1
62
256
6
ByLayer
370
18
48
1
60
0
100
AcDbCircle
39
0
10
338.4
20
-4.500505
30
0
40
0.6
210
0
220
0
230
1
100
AcDbArc
50
270
51
0
0
ARC
5
162
100
AcDbEntity
8
1
62
256
6
ByLayer
370
18
48
1
60
0
100
AcDbCircle
39
0
10
338.4
20
4.299495
30
0
40
0.6
210
0
220
0
230
1
100
AcDbArc
50
0
51
90
0
ARC
5
163
100
AcDbEntity
8
1
62
256
6
ByLayer
370
18
48
1
60
0
100
AcDbCircle
39
0
10
326.5
20
10.5
30
0
40
0.5
210
0
220
0
230
1
100
AcDbArc
50
180
51
270
0
ARC
5
164
100
AcDbEntity
8
1
62
256
6
ByLayer
370
18
48
1
60
0
100
AcDbCircle
39
0
10
324.2
20
-29.8
30
0
40
0.2
210
0
220
0
230
1
100
AcDbArc
50
180
51
270
0
ARC
5
165
100
AcDbEntity
8
1
62
256
6
ByLayer
370
18
48
1
60
0
100
AcDbCircle
39
0
10
324.2
20
29.8
30
0
40
0.2
210
0
220
0
230
1
100
AcDbArc
50
90
51
180
0
ARC
5
166
100
AcDbEntity
8
1
62
256
6
ByLayer
370
18
48
1
60
0
100
AcDbCircle
39
0
10
332.8
20
-23.099495
30
0
40
0.2
210
0
220
0
230
1
100
AcDbArc
50
0
51
90
0
ARC
5
167
100
AcDbEntity
8
1
62
256
6
ByLayer
370
18
48
1
60
0
100
AcDbCircle
39
0
10
332.8
20
-16.699495
30
0
40
0.2
210
0
220
0
230
1
100
AcDbArc
50
270
51
0
0
ARC
5
168
100
AcDbEntity
8
1
62
256
6
ByLayer
370
18
48
1
60
0
100
AcDbCircle
39
0
10
338.4
20
-24.299495
30
0
40
0.6
210
0
220
0
230
1
100
AcDbArc
50
270
51
0
0
ARC
5
169
100
AcDbEntity
8
1
62
256
6
ByLayer
370
18
48
1
60
0
100
AcDbCircle
39
0
10
338.4
20
-15.499495
30
0
40
0.6
210
0
220
0
230
1
100
AcDbArc
50
0
51
90
0
ELLIPSE
5
16A
100
AcDbEntity
8
1
62
256
6
ByLayer
370
18
48
1
60
0
100
AcDbEllipse
10
-2.347154
20
0
30
0
11
14.7536831606573
21
31.0932549155826
31
0
210
0
220
0
230
1
40
0.341999
41
-1.09123958575279
42
-0.157806186645435
0
ELLIPSE
5
16B
100
AcDbEntity
8
1
62
256
6
ByLayer
370
18
48
1
60
0
100
AcDbEllipse
10
26.347154
20
0
30
0
11
14.7536831606557
21
-31.0932549155801
31
0
210
0
220
0
230
1
40
0.341999
41
-2.98378646694436
42
-2.05035306783695
0
ELLIPSE
5
16C
100
AcDbEntity
8
1
62
256
6
ByLayer
370
18
48
1
60
0
100
AcDbEllipse
10
26.347154
20
0
30
0
11
14.7536831606559
21
31.0932549155803
31
0
210
0
220
0
230
1
40
0.341999
41
2.05035306783696
42
2.98378646694436
0
ELLIPSE
5
16D
100
AcDbEntity
8
1
62
256
6
ByLayer
370
18
48
1
60
0
100
AcDbEllipse
10
-2.347154
20
0
30
0
11
14.7536831606555
21
-31.0932549155804
31
0
210
0
220
0
230
1
40
0.341999
41
0.157806186645437
42
1.09123958575285
0
ELLIPSE
5
16E
100
AcDbEntity
8
1
62
256
6
ByLayer
370
13
48
1
60
0
100
AcDbEllipse
10
326.5
20
-28.9875
30
0
11
0.5
21
0
31
0
210
0
220
0
230
1
40
0.92622
41
1.5707963267949
42
2.61329521326978
0
POINT
5
70
100
AcDbEntity
8
2
62
256
6
ByLayer
370
18
48
1
60
0
100
AcDbPoint
10
325.37476
20
-10
30
0
39
0
210
0
220
0
230
1
50
360
0
POINT
5
72
100
AcDbEntity
8
2
62
256
6
ByLayer
370
18
48
1
60
0
100
AcDbPoint
10
329
20
-0.100505
30
0
39
0
210
0
220
0
230
1
50
360
0
POINT
5
73
100
AcDbEntity
8
2
62
256
6
ByLayer
370
18
48
1
60
0
100
AcDbPoint
10
329
20
-0.100505
30
0
39
0
210
0
220
0
230
1
50
360
0
POINT
5
74
100
AcDbEntity
8
2
62
256
6
ByLayer
370
18
48
1
60
0
100
AcDbPoint
10
329
20
-19.899495
30
0
39
0
210
0
220
0
230
1
50
360
0
POINT
5
75
100
AcDbEntity
8
2
62
256
6
ByLayer
370
18
48
1
60
0
100
AcDbPoint
10
333
20
-19.899495
30
0
39
0
210
0
220
0
230
1
50
360
0
POINT
5
76
100
AcDbEntity
8
2
62
256
6
ByLayer
370
18
48
1
60
0
100
AcDbPoint
10
207.2
20
0
30
0
39
0
210
0
220
0
230
1
50
360
0
POINT
5
77
100
AcDbEntity
8
2
62
256
6
ByLayer
370
18
48
1
60
0
100
AcDbPoint
10
218.5
20
0
30
0
39
0
210
0
220
0
230
1
50
360
0
POINT
5
78
100
AcDbEntity
8
2
62
256
6
ByLayer
370
18
48
1
60
0
100
AcDbPoint
10
207.2
20
0
30
0
39
0
210
0
220
0
230
1
50
360
0
POINT
5
79
100
AcDbEntity
8
2
62
256
6
ByLayer
370
18
48
1
60
0
100
AcDbPoint
10
218
20
0
30
0
39
0
210
0
220
0
230
1
50
360
0
POINT
5
7A
100
AcDbEntity
8
2
62
256
6
ByLayer
370
18
48
1
60
0
100
AcDbPoint
10
212.6
20
0
30
0
39
0
210
0
220
0
230
1
50
360
0
POINT
5
7B
100
AcDbEntity
8
2
62
256
6
ByLayer
370
18
48
1
60
0
100
AcDbPoint
10
212.85
20
0
30
0
39
0
210
0
220
0
230
1
50
360
0
POINT
5
7C
100
AcDbEntity
8
2
62
256
6
ByLayer
370
18
48
1
60
0
100
AcDbPoint
10
306.5
20
0
30
0
39
0
210
0
220
0
230
1
50
360
0
POINT
5
7D
100
AcDbEntity
8
2
62
256
6
ByLayer
370
18
48
1
60
0
100
AcDbPoint
10
313
20
0
30
0
39
0
210
0
220
0
230
1
50
360
0
POINT
5
7E
100
AcDbEntity
8
2
62
256
6
ByLayer
370
18
48
1
60
0
100
AcDbPoint
10
333
20
-19.899495
30
0
39
0
210
0
220
0
230
1
50
360
0
POINT
5
7F
100
AcDbEntity
8
2
62
256
6
ByLayer
370
18
48
1
60
0
100
AcDbPoint
10
237.5
20
-21
30
0
39
0
210
0
220
0
230
1
50
360
0
POINT
5
80
100
AcDbEntity
8
2
62
256
6
ByLayer
370
18
48
1
60
0
100
AcDbPoint
10
287.5
20
-21
30
0
39
0
210
0
220
0
230
1
50
360
0
POINT
5
81
100
AcDbEntity
8
2
62
256
6
ByLayer
370
18
48
1
60
0
100
AcDbPoint
10
287.5
20
-21
30
0
39
0
210
0
220
0
230
1
50
360
0
POINT
5
82
100
AcDbEntity
8
2
62
256
6
ByLayer
370
18
48
1
60
0
100
AcDbPoint
10
237.5
20
-21
30
0
39
0
210
0
220
0
230
1
50
360
0
POINT
5
83
100
AcDbEntity
8
2
62
256
6
ByLayer
370
18
48
1
60
0
100
AcDbPoint
10
218.5
20
0
30
0
39
0
210
0
220
0
230
1
50
360
0
POINT
5
84
100
AcDbEntity
8
2
62
256
6
ByLayer
370
18
48
1
60
0
100
AcDbPoint
10
224
20
0
30
0
39
0
210
0
220
0
230
1
50
360
0
POINT
5
85
100
AcDbEntity
8
2
62
256
6
ByLayer
370
18
48
1
60
0
100
AcDbPoint
10
218.5
20
0
30
0
39
0
210
0
220
0
230
1
50
360
0
POINT
5
86
100
AcDbEntity
8
2
62
256
6
ByLayer
370
18
48
1
60
0
100
AcDbPoint
10
306.5
20
0
30
0
39
0
210
0
220
0
230
1
50
360
0
POINT
5
87
100
AcDbEntity
8
2
62
256
6
ByLayer
370
18
48
1
60
0
100
AcDbPoint
10
301
20
0
30
0
39
0
210
0
220
0
230
1
50
360
0
POINT
5
88
100
AcDbEntity
8
2
62
256
6
ByLayer
370
18
48
1
60
0
100
AcDbPoint
10
262.5
20
0
30
0
39
0
210
0
220
0
230
1
50
360
0
POINT
5
89
100
AcDbEntity
8
2
62
256
6
ByLayer
370
18
48
1
60
0
100
AcDbPoint
10
306.5
20
0
30
0
39
0
210
0
220
0
230
1
50
360
0
POINT
5
8A
100
AcDbEntity
8
2
62
256
6
ByLayer
370
18
48
1
60
0
100
AcDbPoint
10
263.5
20
0
30
0
39
0
210
0
220
0
230
1
50
360
0
POINT
5
8B
100
AcDbEntity
8
2
62
256
6
ByLayer
370
18
48
1
60
0
100
AcDbPoint
10
313
20
0
30
0
39
0
210
0
220
0
230
1
50
360
0
POINT
5
8C
100
AcDbEntity
8
2
62
256
6
ByLayer
370
18
48
1
60
0
100
AcDbPoint
10
214
20
0
30
0
39
0
210
0
220
0
230
1
50
360
0
POINT
5
8D
100
AcDbEntity
8
2
62
256
6
ByLayer
370
18
48
1
60
0
100
AcDbPoint
10
325.37476
20
-10
30
0
39
0
210
0
220
0
230
1
50
360
0
POINT
5
8E
100
AcDbEntity
8
2
62
256
6
ByLayer
370
18
48
1
60
0
100
AcDbPoint
10
328
20
-10
30
0
39
0
210
0
220
0
230
1
50
360
0
POINT
5
8F
100
AcDbEntity
8
2
62
256
6
ByLayer
370
50
48
1
60
0
100
AcDbPoint
10
307
20
0
30
0
39
0
210
0
220
0
230
1
50
360
0
POINT
5
90
100
AcDbEntity
8
2
62
256
6
ByLayer
370
18
48
1
60
0
100
AcDbPoint
10
306.5
20
0
30
0
39
0
210
0
220
0
230
1
50
360
0
POINT
5
91
100
AcDbEntity
8
2
62
256
6
ByLayer
370
50
48
1
60
0
100
AcDbPoint
10
333
20
0
30
0
39
0
210
0
220
0
230
1
50
360
0
POINT
5
92
100
AcDbEntity
8
2
62
256
6
ByLayer
370
18
48
1
60
0
100
AcDbPoint
10
324
20
0
30
0
39
0
210
0
220
0
230
1
50
360
0
POINT
5
93
100
AcDbEntity
8
2
62
256
6
ByLayer
370
18
48
1
60
0
100
AcDbPoint
10
313
20
0
30
0
39
0
210
0
220
0
230
1
50
360
0
POINT
5
94
100
AcDbEntity
8
2
62
256
6
ByLayer
370
18
48
1
60
0
100
AcDbPoint
10
297
20
0
30
0
39
0
210
0
220
0
230
1
50
360
0
POINT
5
95
100
AcDbEntity
8
2
62
256
6
ByLayer
370
18
48
1
60
0
100
AcDbPoint
10
328
20
-10
30
0
39
0
210
0
220
0
230
1
50
360
0
POINT
5
96
100
AcDbEntity
8
2
62
256
6
ByLayer
370
18
48
1
60
0
100
AcDbPoint
10
324
20
0
30
0
39
0
210
0
220
0
230
1
50
360
0
POINT
5
97
100
AcDbEntity
8
80
62
256
6
ByLayer
370
18
48
1
60
0
100
AcDbPoint
10
0
20
0
30
0
39
0
210
0
220
0
230
1
50
360
0
POINT
5
99
100
AcDbEntity
8
81
62
256
6
ByLayer
370
18
48
1
60
0
100
AcDbPoint
10
328
20
-10
30
0
39
0
210
0
220
0
230
1
50
360
0
POINT
5
9B
100
AcDbEntity
8
1
62
256
6
ByLayer
370
18
48
1
60
1
100
AcDbPoint
10
23.4
20
-30
30
0
39
0
210
0
220
0
230
1
50
360
0
POINT
5
9D
100
AcDbEntity
8
1
62
256
6
ByLayer
370
18
48
1
60
1
100
AcDbPoint
10
328
20
30
30
0
39
0
210
0
220
0
230
1
50
360
0
SPLINE
5
16F
100
AcDbEntity
8
1
62
256
6
ByLayer
370
18
48
1
60
0
100
AcDbSpline
70
4
71
3
72
30
73
26
40
0
40
0
40
0
40
0
40
0.0624999999999878
40
0.0624999999999878
40
0.0937499999999823
40
0.0937499999999823
40
0.124999999999977
40
0.124999999999977
40
0.249999999999976
40
0.249999999999976
40
0.312499999999977
40
0.312499999999977
40
0.374999999999978
40
0.374999999999978
40
0.437499999999978
40
0.437499999999978
40
0.499999999999979
40
0.499999999999979
40
0.624999999999984
40
0.624999999999984
40
0.74999999999999
40
0.74999999999999
40
0.874999999999995
40
0.874999999999995
40
1
40
1
40
1
40
1
41
1
10
13.4613248654052
20
30.0805927603168
30
0
41
1
10
13.4770644463612
20
30.0805927603168
30
0
41
1
10
13.4925182901835
20
30.0801205034908
30
0
41
1
10
13.5153082123102
20
30.0787652114225
30
0
41
1
10
13.5228395300832
20
30.0782053093477
30
0
41
1
10
13.537775923748
20
30.076876147822
30
0
41
1
10
13.5452163817752
20
30.0761022248719
30
0
41
1
10
13.5815263070002
20
30.07179594856
30
0
41
1
10
13.6079581046675
20
30.0669872793661
30
0
41
1
10
13.6448606867708
20
30.0583172600355
30
0
41
1
10
13.6565013495867
20
30.0552244086801
30
0
41
1
10
13.6786197964872
20
30.0487371057378
30
0
41
1
10
13.6891167538208
20
30.0453372280741
30
0
41
1
10
13.7091749421594
20
30.0382729348065
30
0
41
1
10
13.7187352282342
20
30.0346082702024
30
0
41
1
10
13.737049765874
20
30.0270468182506
30
0
41
1
10
13.7458258793003
20
30.0231382884602
30
0
41
1
10
13.77082212436
20
30.0112312950129
30
0
41
1
10
13.7858017072527
20
30.0030284643032
30
0
41
1
10
13.8132376332897
20
29.9862010424071
30
0
41
1
10
13.8256849705001
20
29.9775752500985
30
0
41
1
10
13.8485243776493
20
29.9599596837525
30
0
41
1
10
13.8589127955723
20
29.9509694256367
30
0
41
1
10
13.877931786983
20
29.932660186932
30
0
41
1
10
13.8865409364124
20
29.9233580917139
30
0
41
1
10
13.8943375672974
20
29.913954846469
30
0
0
SPLINE
5
170
100
AcDbEntity
8
1
62
256
6
ByLayer
370
18
48
1
60
0
100
AcDbSpline
70
4
71
3
72
32
73
28
40
0
40
0
40
0
40
0
40
0.249999999999993
40
0.249999999999993
40
0.374999999999984
40
0.374999999999984
40
0.437499999999976
40
0.437499999999976
40
0.499999999999968
40
0.499999999999968
40
0.624999999999966
40
0.624999999999966
40
0.687499999999968
40
0.687499999999968
40
0.749999999999971
40
0.749999999999971
40
0.812499999999974
40
0.812499999999974
40
0.843749999999979
40
0.843749999999979
40
0.874999999999983
40
0.874999999999983
40
0.937499999999994
40
0.937499999999994
40
0.968749999999997
40
0.968749999999997
40
1
40
1
40
1
40
1
41
1
10
13.8943375672973
20
9.86941261896635
30
0
41
1
10
13.8787501654512
20
9.81243201498825
30
0
41
1
10
13.8600981524864
20
9.7565502308299
30
0
41
1
10
13.8259097308548
20
9.67499387250808
30
0
41
1
10
13.8134681559942
20
9.64819007031218
30
0
41
1
10
13.792841581707
20
9.60870778228693
30
0
41
1
10
13.785636838674
20
9.59566828989824
30
0
41
1
10
13.7704696456802
20
9.56986960560346
30
0
41
1
10
13.7624961131814
20
9.55709686534388
30
0
41
1
10
13.7374904471463
20
9.51963294536145
30
0
41
1
10
13.7193382950672
20
9.49566900868408
30
0
41
1
10
13.689039794361
20
9.46183015552288
30
0
41
1
10
13.6784124135706
20
9.45090526429348
30
0
41
1
10
13.656277975813
20
9.43026612350781
30
0
41
1
10
13.6447350068564
20
9.42050719110856
30
0
41
1
10
13.6205171073694
20
9.40232505361274
30
0
41
1
10
13.607843974168
20
9.39389972204401
30
0
41
1
10
13.5877822000581
20
9.38250456041453
30
0
41
1
10
13.5808872163667
20
9.37890069603409
30
0
41
1
10
13.5669060817703
20
9.37226208194036
30
0
41
1
10
13.5598136368109
20
9.36922064667934
30
0
41
1
10
13.5382117701416
20
9.360981780195
30
0
41
1
10
13.5233796774591
20
9.35666472180222
30
0
41
1
10
13.5003821923576
20
9.35223451981238
30
0
41
1
10
13.4925919071141
20
9.35110433740243
30
0
41
1
10
13.4770081601071
20
9.349601233025
30
0
41
1
10
13.4691833484066
20
9.34922131452529
30
0
41
1
10
13.4613248654052
20
9.34922131452529
30
0
0
SPLINE
5
171
100
AcDbEntity
8
1
62
256
6
ByLayer
370
18
48
1
60
0
100
AcDbSpline
70
4
71
3
72
30
73
26
40
0
40
0
40
0
40
0
40
0.0625000000000045
40
0.0625000000000045
40
0.0937500000000095
40
0.0937500000000095
40
0.125000000000014
40
0.125000000000014
40
0.250000000000009
40
0.250000000000009
40
0.312500000000007
40
0.312500000000007
40
0.375000000000004
40
0.375000000000004
40
0.437500000000002
40
0.437500000000002
40
0.499999999999999
40
0.499999999999999
40
0.624999999999999
40
0.624999999999999
40
0.75
40
0.75
40
0.875
40
0.875
40
1
40
1
40
1
40
1
41
1
10
10.5386751345949
20
9.34922131452527
30
0
41
1
10
10.5229355536388
20
9.34922131452527
30
0
41
1
10
10.5074817098165
20
9.35074113394302
30
0
41
1
10
10.4846917876899
20
9.35509944740045
30
0
41
1
10
10.4771604699169
20
9.35689961322683
30
0
41
1
10
10.4622240762521
20
9.36117119765728
30
0
41
1
10
10.4547836182248
20
9.36365758390286
30
0
41
1
10
10.4184736929998
20
9.37748487924978
30
0
41
1
10
10.3920418953325
20
9.39290424748322
30
0
41
1
10
10.3551393132292
20
9.42059748954594
30
0
41
1
10
10.3434986504133
20
9.43046143490437
30
0
41
1
10
10.3213802035129
20
9.45111186483342
30
0
41
1
10
10.3108832461793
20
9.461915704468
30
0
41
1
10
10.2908250578407
20
9.48431848058823
30
0
41
1
10
10.2812647717658
20
9.49591822570974
30
0
41
1
10
10.262950234126
20
9.51980127252995
30
0
41
1
10
10.2541741206997
20
9.53212142663483
30
0
41
1
10
10.22917787564
20
9.56957065273542
30
0
41
1
10
10.2141982927473
20
9.59526142127683
30
0
41
1
10
10.1867623667103
20
9.64772023935058
30
0
41
1
10
10.1743150294999
20
9.67449223197184
30
0
41
1
10
10.1514756223507
20
9.72890711075655
30
0
41
1
10
10.1410872044277
20
9.75655159685468
30
0
41
1
10
10.1220682130169
20
9.81257982037178
30
0
41
1
10
10.1134590635876
20
9.84091160634037
30
0
41
1
10
10.1056624327026
20
9.86941261896632
30
0
0
SPLINE
5
172
100
AcDbEntity
8
1
62
256
6
ByLayer
370
18
48
1
60
0
100
AcDbSpline
70
4
71
3
72
32
73
28
40
0
40
0
40
0
40
0
40
0.249999999999997
40
0.249999999999997
40
0.374999999999995
40
0.374999999999995
40
0.437499999999996
40
0.437499999999996
40
0.499999999999997
40
0.499999999999997
40
0.624999999999999
40
0.624999999999999
40
0.6875
40
0.6875
40
0.750000000000002
40
0.750000000000002
40
0.812500000000004
40
0.812500000000004
40
0.843750000000003
40
0.843750000000003
40
0.875000000000002
40
0.875000000000002
40
0.937500000000001
40
0.937500000000001
40
0.968750000000001
40
0.968750000000001
40
1
40
1
40
1
40
1
41
1
10
10.1056624327027
20
29.913954846469
30
0
41
1
10
10.1212498345488
20
29.9327542695084
30
0
41
1
10
10.1399018475136
20
29.9510098933135
30
0
41
1
10
10.1740902691452
20
29.9774133319729
30
0
41
1
10
10.1865318440058
20
29.9860499646858
30
0
41
1
10
10.207158418293
20
29.9987154022301
30
0
41
1
10
10.214363161326
20
30.0028887514666
30
0
41
1
10
10.2295303543198
20
30.0111275878529
30
0
41
1
10
10.2375038868186
20
30.0151973377027
30
0
41
1
10
10.2625095528537
20
30.0271090091071
30
0
41
1
10
10.2806617049328
20
30.0346937657148
30
0
41
1
10
10.3109602056391
20
30.0453642012994
30
0
41
1
10
10.3215875864295
20
30.0488020840795
30
0
41
1
10
10.343722024187
20
30.0552856889209
30
0
41
1
10
10.3552649931437
20
30.0583455135275
30
0
41
1
10
10.3794828926307
20
30.0640378913833
30
0
41
1
10
10.3921560258321
20
30.0666711051738
30
0
41
1
10
10.4122177999419
20
30.0702282001223
30
0
41
1
10
10.4191127836333
20
30.0713523776808
30
0
41
1
10
10.4330939182297
20
30.0734220792403
30
0
41
1
10
10.4401863631891
20
30.0743696982574
30
0
41
1
10
10.4617882298585
20
30.076935568727
30
0
41
1
10
10.4766203225409
20
30.0782784555613
30
0
41
1
10
10.4996178076425
20
30.0796561130286
30
0
41
1
10
10.507408092886
20
30.0800074516351
30
0
41
1
10
10.5229918398929
20
30.080474687126
30
0
41
1
10
10.5308166515934
20
30.0805927603169
30
0
41
1
10
10.5386751345949
20
30.0805927603169
30
0
0
SPLINE
5
173
100
AcDbEntity
8
1
62
256
6
ByLayer
370
18
48
1
60
0
100
AcDbSpline
70
4
71
3
72
30
73
26
40
0
40
0
40
0
40
0
40
0.0625000000000134
40
0.0625000000000134
40
0.093750000000016
40
0.093750000000016
40
0.125000000000019
40
0.125000000000019
40
0.250000000000023
40
0.250000000000023
40
0.312500000000019
40
0.312500000000019
40
0.375000000000016
40
0.375000000000016
40
0.437500000000012
40
0.437500000000012
40
0.500000000000008
40
0.500000000000008
40
0.625000000000006
40
0.625000000000006
40
0.750000000000004
40
0.750000000000004
40
0.875000000000002
40
0.875000000000002
40
1
40
1
40
1
40
1
41
1
10
10.5386751345949
20
-30.0805927603169
30
0
41
1
10
10.5229355536388
20
-30.0805927603169
30
0
41
1
10
10.5074817098165
20
-30.0801205034908
30
0
41
1
10
10.4846917876899
20
-30.0787652114225
30
0
41
1
10
10.4771604699169
20
-30.0782053093477
30
0
41
1
10
10.4622240762521
20
-30.0768761478221
30
0
41
1
10
10.4547836182248
20
-30.0761022248719
30
0
41
1
10
10.4184736929998
20
-30.0717959485601
30
0
41
1
10
10.3920418953325
20
-30.0669872793661
30
0
41
1
10
10.3551393132292
20
-30.0583172600355
30
0
41
1
10
10.3434986504133
20
-30.0552244086801
30
0
41
1
10
10.3213802035129
20
-30.0487371057378
30
0
41
1
10
10.3108832461793
20
-30.0453372280741
30
0
41
1
10
10.2908250578407
20
-30.0382729348065
30
0
41
1
10
10.2812647717658
20
-30.0346082702024
30
0
41
1
10
10.262950234126
20
-30.0270468182506
30
0
41
1
10
10.2541741206997
20
-30.0231382884602
30
0
41
1
10
10.22917787564
20
-30.0112312950129
30
0
41
1
10
10.2141982927473
20
-30.0030284643032
30
0
41
1
10
10.1867623667103
20
-29.9862010424071
30
0
41
1
10
10.1743150294999
20
-29.9775752500985
30
0
41
1
10
10.1514756223507
20
-29.9599596837525
30
0
41
1
10
10.1410872044277
20
-29.9509694256367
30
0
41
1
10
10.122068213017
20
-29.932660186932
30
0
41
1
10
10.1134590635876
20
-29.9233580917139
30
0
41
1
10
10.1056624327026
20
-29.913954846469
30
0
0
SPLINE
5
174
100
AcDbEntity
8
1
62
256
6
ByLayer
370
18
48
1
60
0
100
AcDbSpline
70
4
71
3
72
32
73
28
40
0
40
0
40
0
40
0
40
0.249999999999999
40
0.249999999999999
40
0.374999999999992
40
0.374999999999992
40
0.437499999999992
40
0.437499999999992
40
0.499999999999992
40
0.499999999999992
40
0.624999999999992
40
0.624999999999992
40
0.687499999999995
40
0.687499999999995
40
0.749999999999998
40
0.749999999999998
40
0.812500000000001
40
0.812500000000001
40
0.843750000000001
40
0.843750000000001
40
0.875000000000001
40
0.875000000000001
40
0.937500000000004
40
0.937500000000004
40
0.968750000000002
40
0.968750000000002
40
1
40
1
40
1
40
1
41
1
10
10.1056624327027
20
-9.86941261896629
30
0
41
1
10
10.1212498345488
20
-9.81243201498816
30
0
41
1
10
10.1399018475136
20
-9.75655023082982
30
0
41
1
10
10.1740902691452
20
-9.674993872508
30
0
41
1
10
10.1865318440058
20
-9.6481900703121
30
0
41
1
10
10.207158418293
20
-9.60870778228684
30
0
41
1
10
10.214363161326
20
-9.59566828989816
30
0
41
1
10
10.2295303543198
20
-9.56986960560337
30
0
41
1
10
10.2375038868186
20
-9.55709686534379
30
0
41
1
10
10.2625095528537
20
-9.51963294536137
30
0
41
1
10
10.2806617049328
20
-9.49566900868399
30
0
41
1
10
10.3109602056391
20
-9.46183015552279
30
0
41
1
10
10.3215875864295
20
-9.45090526429337
30
0
41
1
10
10.343722024187
20
-9.43026612350769
30
0
41
1
10
10.3552649931436
20
-9.42050719110844
30
0
41
1
10
10.3794828926307
20
-9.4023250536126
30
0
41
1
10
10.3921560258321
20
-9.3938997220439
30
0
41
1
10
10.4122177999419
20
-9.38250456041445
30
0
41
1
10
10.4191127836333
20
-9.37890069603398
30
0
41
1
10
10.4330939182297
20
-9.37226208194025
30
0
41
1
10
10.4401863631891
20
-9.36922064667922
30
0
41
1
10
10.4617882298585
20
-9.36098178019489
30
0
41
1
10
10.4766203225409
20
-9.3566647218021
30
0
41
1
10
10.4996178076425
20
-9.35223451981224
30
0
41
1
10
10.507408092886
20
-9.35110433740229
30
0
41
1
10
10.5229918398929
20
-9.34960123302486
30
0
41
1
10
10.5308166515934
20
-9.34922131452515
30
0
41
1
10
10.5386751345949
20
-9.34922131452515
30
0
0
SPLINE
5
175
100
AcDbEntity
8
1
62
256
6
ByLayer
370
18
48
1
60
0
100
AcDbSpline
70
4
71
3
72
30
73
26
40
0
40
0
40
0
40
0
40
0.0625000000000027
40
0.0625000000000027
40
0.0937500000000034
40
0.0937500000000034
40
0.125000000000004
40
0.125000000000004
40
0.249999999999996
40
0.249999999999996
40
0.312499999999995
40
0.312499999999995
40
0.374999999999995
40
0.374999999999995
40
0.437499999999995
40
0.437499999999995
40
0.499999999999995
40
0.499999999999995
40
0.624999999999996
40
0.624999999999996
40
0.749999999999997
40
0.749999999999997
40
0.874999999999999
40
0.874999999999999
40
1
40
1
40
1
40
1
41
1
10
13.4613248654052
20
-9.34922131452535
30
0
41
1
10
13.4770644463612
20
-9.34922131452535
30
0
41
1
10
13.4925182901835
20
-9.3507411339431
30
0
41
1
10
13.5153082123102
20
-9.35509944740051
30
0
41
1
10
13.5228395300832
20
-9.35689961322689
30
0
41
1
10
13.537775923748
20
-9.36117119765734
30
0
41
1
10
13.5452163817752
20
-9.36365758390292
30
0
41
1
10
13.5815263070002
20
-9.37748487924986
30
0
41
1
10
13.6079581046675
20
-9.39290424748327
30
0
41
1
10
13.6448606867708
20
-9.42059748954597
30
0
41
1
10
13.6565013495867
20
-9.4304614349044
30
0
41
1
10
13.6786197964871
20
-9.45111186483345
30
0
41
1
10
13.6891167538208
20
-9.46191570446803
30
0
41
1
10
13.7091749421594
20
-9.48431848058826
30
0
41
1
10
13.7187352282342
20
-9.4959182257098
30
0
41
1
10
13.737049765874
20
-9.51980127252995
30
0
41
1
10
13.7458258793003
20
-9.53212142663486
30
0
41
1
10
13.77082212436
20
-9.56957065273542
30
0
41
1
10
13.7858017072527
20
-9.59526142127683
30
0
41
1
10
13.8132376332897
20
-9.64772023935058
30
0
41
1
10
13.8256849705001
20
-9.67449223197181
30
0
41
1
10
13.8485243776492
20
-9.72890711075652
30
0
41
1
10
13.8589127955723
20
-9.75655159685465
30
0
41
1
10
13.877931786983
20
-9.81257982037175
30
0
41
1
10
13.8865409364124
20
-9.84091160634037
30
0
41
1
10
13.8943375672974
20
-9.86941261896632
30
0
0
SPLINE
5
176
100
AcDbEntity
8
1
62
256
6
ByLayer
370
18
48
1
60
0
100
AcDbSpline
70
4
71
3
72
32
73
28
40
0
40
0
40
0
40
0
40
0.250000000000005
40
0.250000000000005
40
0.375000000000003
40
0.375000000000003
40
0.437500000000005
40
0.437500000000005
40
0.500000000000008
40
0.500000000000008
40
0.625000000000007
40
0.625000000000007
40
0.687500000000005
40
0.687500000000005
40
0.750000000000002
40
0.750000000000002
40
0.812499999999999
40
0.812499999999999
40
0.843750000000001
40
0.843750000000001
40
0.875000000000002
40
0.875000000000002
40
0.9375
40
0.9375
40
0.96875
40
0.96875
40
1
40
1
40
1
40
1
41
1
10
13.8943375672973
20
-29.913954846469
30
0
41
1
10
13.8787501654512
20
-29.9327542695084
30
0
41
1
10
13.8600981524863
20
-29.9510098933135
30
0
41
1
10
13.8259097308548
20
-29.977413331973
30
0
41
1
10
13.8134681559942
20
-29.9860499646858
30
0
41
1
10
13.792841581707
20
-29.9987154022301
30
0
41
1
10
13.785636838674
20
-30.0028887514666
30
0
41
1
10
13.7704696456802
20
-30.0111275878529
30
0
41
1
10
13.7624961131814
20
-30.0151973377027
30
0
41
1
10
13.7374904471463
20
-30.0271090091071
30
0
41
1
10
13.7193382950672
20
-30.0346937657147
30
0
41
1
10
13.6890397943609
20
-30.0453642012994
30
0
41
1
10
13.6784124135705
20
-30.0488020840795
30
0
41
1
10
13.656277975813
20
-30.0552856889209
30
0
41
1
10
13.6447350068564
20
-30.0583455135274
30
0
41
1
10
13.6205171073693
20
-30.0640378913833
30
0
41
1
10
13.6078439741679
20
-30.0666711051738
30
0
41
1
10
13.5877822000581
20
-30.0702282001223
30
0
41
1
10
13.5808872163667
20
-30.0713523776808
30
0
41
1
10
13.5669060817703
20
-30.0734220792403
30
0
41
1
10
13.5598136368109
20
-30.0743696982574
30
0
41
1
10
13.5382117701415
20
-30.076935568727
30
0
41
1
10
13.5233796774591
20
-30.0782784555613
30
0
41
1
10
13.5003821923576
20
-30.0796561130286
30
0
41
1
10
13.4925919071141
20
-30.0800074516351
30
0
41
1
10
13.4770081601071
20
-30.080474687126
30
0
41
1
10
13.4691833484066
20
-30.0805927603169
30
0
41
1
10
13.4613248654052
20
-30.0805927603169
30
0
0
SPLINE
5
177
100
AcDbEntity
8
SK1
62
256
6
ByLayer
370
18
48
1
60
0
100
AcDbSpline
70
4
71
3
72
49
73
45
40
0
40
0
40
0
40
0
40
0.0158520721487328
40
0.044331351063688
40
0.0728106299786432
40
0.101289908893598
40
0.129769187808553
40
0.158248466723509
40
0.215207024553419
40
0.243686303468374
40
0.272165582383329
40
0.300644861298284
40
0.329124140213239
40
0.357603419128194
40
0.38608269804315
40
0.414561976958105
40
0.428801616415582
40
0.44304125587306
40
0.457280895330538
40
0.471520534788015
40
0.485760174245493
40
0.492879993974231
40
0.49999981370297
40
0.507119633431709
40
0.514239453160448
40
0.528479092617925
40
0.542718732075403
40
0.556958371532881
40
0.571198010990358
40
0.585437650447836
40
0.613916929362791
40
0.642396208277746
40
0.670875487192701
40
0.699354766107656
40
0.727834045022611
40
0.756313323937566
40
0.784792602852522
40
0.841751160682432
40
0.870230439597387
40
0.898709718512342
40
0.927188997427297
40
0.955668276342252
40
0.984147555257207
40
1
40
1
40
1
40
1
41
1
10
-38
20
-20.2900103495696
30
0
41
1
10
-38
20
-20.2838088122287
30
0
41
1
10
-38
20
-20.2386783243482
30
0
41
1
10
-38
20
-20.0459066437045
30
0
41
1
10
-38
20
-19.6579362347721
30
0
41
1
10
-38
20
-19.1216505379956
30
0
41
1
10
-38
20
-18.4471799717542
30
0
41
1
10
-38
20
-17.3708466567051
30
0
41
1
10
-38
20
-16.0627718728323
30
0
41
1
10
-38
20
-14.5156181768618
30
0
41
1
10
-38
20
-13.2517907463501
30
0
41
1
10
-38
20
-11.8841222937699
30
0
41
1
10
-38
20
-10.4165562193455
30
0
41
1
10
-38
20
-8.85372672313898
30
0
41
1
10
-38
20
-7.20134092284709
30
0
41
1
10
-38
20
-5.76201911469511
30
0
41
1
10
-38
20
-4.5640765607352
30
0
41
1
10
-38
20
-3.65884583736087
30
0
41
1
10
-38
20
-2.74483905839463
30
0
41
1
10
-38
20
-1.82748828650287
30
0
41
1
10
-38
20
-1.06947767603967
30
0
41
1
10
-38
20
-0.455018198724474
30
0
41
1
10
-38
20
4.514861303E-07
30
0
41
1
10
-38
20
0.455018630552075
30
0
41
1
10
-38
20
1.06947718042707
30
0
41
1
10
-38
20
1.82748862261292
30
0
41
1
10
-38
20
2.74483966025932
30
0
41
1
10
-38
20
3.65884523285217
30
0
41
1
10
-38
20
4.56407688146012
30
0
41
1
10
-38
20
5.76201962732219
30
0
41
1
10
-38
20
7.20134053529003
30
0
41
1
10
-38
20
8.85372716578038
30
0
41
1
10
-38
20
10.4165563625368
30
0
41
1
10
-38
20
11.884121927153
30
0
41
1
10
-38
20
13.2517911056129
30
0
41
1
10
-38
20
14.5156182315173
30
0
41
1
10
-38
20
16.0627714181563
30
0
41
1
10
-38
20
17.3708469037194
30
0
41
1
10
-38
20
18.4471796582741
30
0
41
1
10
-38
20
19.121649880576
30
0
41
1
10
-38
20
19.6579364097435
30
0
41
1
10
-38
20
20.0459061788578
30
0
41
1
10
-38
20
20.2386786558694
30
0
41
1
10
-38
20
20.2838093468833
30
0
41
1
10
-38
20
20.2900106503392
30
0
0
SPLINE
5
178
100
AcDbEntity
8
SK1
62
256
6
ByLayer
370
18
48
1
60
0
100
AcDbSpline
70
4
71
3
72
36
73
32
40
0
40
0
40
0
40
0
40
0.25
40
0.25
40
0.375
40
0.375
40
0.500000000000001
40
0.500000000000001
40
0.625000000000001
40
0.625000000000001
40
0.687500000000003
40
0.687500000000003
40
0.750000000000004
40
0.750000000000004
40
0.812500000000006
40
0.812500000000006
40
0.843750000000006
40
0.843750000000006
40
0.875000000000005
40
0.875000000000005
40
0.906250000000004
40
0.906250000000004
40
0.921875000000004
40
0.921875000000004
40
0.937500000000003
40
0.937500000000003
40
0.953125000000002
40
0.953125000000002
40
0.968750000000001
40
0.968750000000001
40
1
40
1
40
1
40
1
41
1
10
-0.200000000000003
20
-7.03415845154862
30
0
41
1
10
-0.200331074104731
20
-6.9675847311054
30
0
41
1
10
-0.201942367211288
20
-6.90082001004973
30
0
41
1
10
-0.207091999731304
20
-6.80034067321688
30
0
41
1
10
-0.209269492367319
20
-6.76679198902937
30
0
41
1
10
-0.214824426638117
20
-6.69957126003828
30
0
41
1
10
-0.218199150202423
20
-6.66587124141734
30
0
41
1
10
-0.226629907857138
20
-6.59846295366921
30
0
41
1
10
-0.231660540619814
20
-6.56479252713442
30
0
41
1
10
-0.24121459835952
20
-6.51440591854077
30
0
41
1
10
-0.244745205143772
20
-6.49760452342704
30
0
41
1
10
-0.2527276206579
20
-6.46421416849128
30
0
41
1
10
-0.257169431390359
20
-6.44763062016554
30
0
41
1
10
-0.267439101060681
20
-6.41481626716148
30
0
41
1
10
-0.273236212730907
20
-6.39857720931946
30
0
41
1
10
-0.283833370168814
20
-6.37471397159106
30
0
41
1
10
-0.287711149711306
20
-6.36680567292714
30
0
41
1
10
-0.296343527957525
20
-6.35152953268772
30
0
41
1
10
-0.301085882076315
20
-6.34414232274287
30
0
41
1
10
-0.31207841229007
20
-6.33025774259019
30
0
41
1
10
-0.318222328461644
20
-6.32386838427433
30
0
41
1
10
-0.329057935891058
20
-6.3161933816034
30
0
41
1
10
-0.332859652575124
20
-6.31402544311598
30
0
41
1
10
-0.34095886384906
20
-6.31070772605875
30
0
41
1
10
-0.345208124413205
20
-6.30960458427649
30
0
41
1
10
-0.353689154326105
20
-6.30870360354672
30
0
41
1
10
-0.358037716131335
20
-6.30890123768722
30
0
41
1
10
-0.366345960396423
20
-6.31042877188764
30
0
41
1
10
-0.370395826010146
20
-6.31175696012832
30
0
41
1
10
-0.381850124236109
20
-6.31686284615009
30
0
41
1
10
-0.388651860853351
20
-6.32169800880934
30
0
41
1
10
-0.394913799811292
20
-6.32721828439901
30
0
0
SPLINE
5
179
100
AcDbEntity
8
SK1
62
256
6
ByLayer
370
18
48
1
60
0
100
AcDbSpline
70
4
71
3
72
40
73
36
40
0
40
0
40
0
40
0
40
0.0156250000000007
40
0.0156250000000007
40
0.0312500000000013
40
0.0312500000000013
40
0.046875000000002
40
0.046875000000002
40
0.0625000000000027
40
0.0625000000000027
40
0.0781250000000033
40
0.0781250000000033
40
0.093750000000004
40
0.093750000000004
40
0.109375000000005
40
0.109375000000005
40
0.125000000000005
40
0.125000000000005
40
0.156250000000004
40
0.156250000000004
40
0.187500000000003
40
0.187500000000003
40
0.250000000000003
40
0.250000000000003
40
0.312500000000003
40
0.312500000000003
40
0.375000000000003
40
0.375000000000003
40
0.500000000000002
40
0.500000000000002
40
0.625000000000002
40
0.625000000000002
40
0.750000000000001
40
0.750000000000001
40
1
40
1
40
1
40
1
41
1
10
-0.394913799811292
20
6.32722135061286
30
0
41
1
10
-0.39176836682077
20
6.32444846033573
30
0
41
1
10
-0.388488406577139
20
6.32186168295425
30
0
41
1
10
-0.381566403142074
20
6.31718953975289
30
0
41
1
10
-0.377887007436804
20
6.31508659472502
30
0
41
1
10
-0.370224910817299
20
6.31169706442716
30
0
41
1
10
-0.366254804145278
20
6.31040674643398
30
0
41
1
10
-0.357946478024438
20
6.30889601700252
30
0
41
1
10
-0.353563907701805
20
6.30870335232464
30
0
41
1
10
-0.344995599835222
20
6.30964748810592
30
0
41
1
10
-0.340684924848581
20
6.31079560648988
30
0
41
1
10
-0.332576144960484
20
6.31417396688752
30
0
41
1
10
-0.328692242820871
20
6.31642240799491
30
0
41
1
10
-0.321489218115758
20
6.32159394569871
30
0
41
1
10
-0.318164476683378
20
6.32450219496948
30
0
41
1
10
-0.311908022590437
20
6.33077681434872
30
0
41
1
10
-0.308967085084589
20
6.33416203110184
30
0
41
1
10
-0.300766232707282
20
6.34461234463092
30
0
41
1
10
-0.296040108963908
20
6.3520235761778
30
0
41
1
10
-0.287432431444834
20
6.36735118199212
30
0
41
1
10
-0.283553316434812
20
6.37530507146664
30
0
41
1
10
-0.272955344086071
20
6.39930333387349
30
0
41
1
10
-0.267171029982641
20
6.41559723945676
30
0
41
1
10
-0.256929970956932
20
6.44848157748831
30
0
41
1
10
-0.252505023147855
20
6.46507959466757
30
0
41
1
10
-0.244556108211547
20
6.49847112557595
30
0
41
1
10
-0.241036901726616
20
6.51528035330202
30
0
41
1
10
-0.231491141946222
20
6.56582630636649
30
0
41
1
10
-0.226489017484447
20
6.59947291062446
30
0
41
1
10
-0.218114808322639
20
6.66667162394484
30
0
41
1
10
-0.214764318431072
20
6.7002237184802
30
0
41
1
10
-0.209239354999461
20
6.76723901782145
30
0
41
1
10
-0.20707099683294
20
6.80070221210869
30
0
41
1
10
-0.201940349251252
20
6.90096555412609
30
0
41
1
10
-0.200330815103371
20
6.96763966546089
30
0
41
1
10
-0.200000000000003
20
7.03416121607503
30
0
0
SPLINE
5
17A
100
AcDbEntity
8
SK1
62
256
6
ByLayer
370
13
48
1
60
0
100
AcDbSpline
70
4
71
3
72
21
73
17
40
0
40
0
40
0
40
0
40
0.0620714908316278
40
0.130360514443
40
0.198649538054372
40
0.266938561665745
40
0.335227585277117
40
0.403516608888489
40
0.471805632499861
40
0.608383679722606
40
0.676672703333978
40
0.74496172694535
40
0.813250750556723
40
0.881539774168095
40
0.949828797779467
40
1
40
1
40
1
40
1
41
1
10
-0.394913799811292
20
-6.32721828439904
30
0
41
1
10
-0.394913799811292
20
-6.90653762641452
30
0
41
1
10
-0.394913799811292
20
-8.09321756934102
30
0
41
1
10
-0.394913799811292
20
-9.80498157314139
30
0
41
1
10
-0.394913799811292
20
-11.4638140893219
30
0
41
1
10
-0.394913799811292
20
-13.0147246633634
30
0
41
1
10
-0.394913799811292
20
-14.4558606687731
30
0
41
1
10
-0.394913799811292
20
-15.7849097442956
30
0
41
1
10
-0.394913799811292
20
-17.4047594204778
30
0
41
1
10
-0.394913799811292
20
-18.7870404111631
30
0
41
1
10
-0.394913799811292
20
-19.9145928494951
30
0
41
1
10
-0.394913799811292
20
-20.6247618481558
30
0
41
1
10
-0.394913799811292
20
-21.1908658435729
30
0
41
1
10
-0.394913799811292
20
-21.6019834098091
30
0
41
1
10
-0.394913799811292
20
-21.8217384580526
30
0
41
1
10
-0.394913799811292
20
-21.8658202593621
30
0
41
1
10
-0.394913799811299
20
-21.8654706412168
30
0
0
SPLINE
5
17B
100
AcDbEntity
8
SK1
62
256
6
ByLayer
370
18
48
1
60
0
100
AcDbSpline
70
4
71
3
72
51
73
47
40
0
40
0
40
0
40
0
40
0.0312500000000006
40
0.0312500000000006
40
0.0468750000000016
40
0.0468750000000016
40
0.0625000000000026
40
0.0625000000000026
40
0.0781250000000036
40
0.0781250000000036
40
0.0937500000000046
40
0.101562500000005
40
0.101562500000005
40
0.109375000000005
40
0.109375000000005
40
0.125000000000006
40
0.125000000000006
40
0.140625000000007
40
0.140625000000007
40
0.156250000000007
40
0.156250000000007
40
0.171875000000008
40
0.171875000000008
40
0.187500000000009
40
0.187500000000009
40
0.218750000000009
40
0.218750000000009
40
0.25000000000001
40
0.25000000000001
40
0.28125000000001
40
0.28125000000001
40
0.312500000000011
40
0.312500000000011
40
0.375000000000011
40
0.375000000000011
40
0.437500000000011
40
0.437500000000011
40
0.500000000000011
40
0.500000000000011
40
0.625000000000008
40
0.625000000000008
40
0.750000000000006
40
0.750000000000006
40
0.875000000000003
40
0.875000000000003
40
1
40
1
40
1
40
1
41
1
10
-0.394913799811292
20
-6.32721828439901
30
0
41
1
10
-0.411169702827024
20
-6.34154884003178
30
0
41
1
10
-0.428432689769139
20
-6.35475565889095
30
0
41
1
10
-0.456587609313438
20
-6.37205876567259
30
0
41
1
10
-0.466398416496659
20
-6.37741702774107
30
0
41
1
10
-0.48650197275564
20
-6.38684509374406
30
0
41
1
10
-0.496835484302608
20
-6.39094564046627
30
0
41
1
10
-0.518168362769309
20
-6.3976988542467
30
0
41
1
10
-0.529196261060903
20
-6.4003572033352
30
0
41
1
10
-0.55193727160195
20
-6.40390572644711
30
0
41
1
10
-0.569030850267801
20
-6.40516730683922
30
0
41
1
10
-0.586181679144254
20
-6.40431153762214
30
0
41
1
10
-0.597628364481885
20
-6.40326750190812
30
0
41
1
10
-0.603385608753435
20
-6.40250300130214
30
0
41
1
10
-0.620403474265572
20
-6.39954770653125
30
0
41
1
10
-0.631442528804882
20
-6.39670554026134
30
0
41
1
10
-0.652994271508682
20
-6.38952126343978
30
0
41
1
10
-0.663576230030586
20
-6.38514079164267
30
0
41
1
10
-0.683845621171415
20
-6.37529177227788
30
0
41
1
10
-0.693552428201002
20
-6.36983092851585
30
0
41
1
10
-0.712284737644694
20
-6.35805370019304
30
0
41
1
10
-0.721309333004704
20
-6.35173618101936
30
0
41
1
10
-0.738796592350631
20
-6.33839390811318
30
0
41
1
10
-0.7472875586081
20
-6.33134151096425
30
0
41
1
10
-0.771774774816251
20
-6.30953788138899
30
0
41
1
10
-0.786839616984629
20
-6.29414128632044
30
0
41
1
10
-0.815263156517965
20
-6.26217184383674
30
0
41
1
10
-0.82861191461663
20
-6.24559230293653
30
0
41
1
10
-0.854034688294348
20
-6.21154523857419
30
0
41
1
10
-0.866130482320528
20
-6.1940351189366
30
0
41
1
10
-0.889197260559278
20
-6.15850150199267
30
0
41
1
10
-0.900140456877757
20
-6.14052530360527
30
0
41
1
10
-0.931589886782071
20
-6.08609644673811
30
0
41
1
10
-0.950735693127648
20
-6.04915001273994
30
0
41
1
10
-0.986572619190135
20
-5.97432275637723
30
0
41
1
10
-1.00324847625176
20
-5.93643689983455
30
0
41
1
10
-1.0347614676992
20
-5.85992972493543
30
0
41
1
10
-1.04959296411108
20
-5.82130654980756
30
0
41
1
10
-1.09190951976354
20
-5.70451929766091
30
0
41
1
10
-1.1172597447919
20
-5.62540226977166
30
0
41
1
10
-1.1639578554223
20
-5.46549802550047
30
0
41
1
10
-1.18522246232582
20
-5.38492681950902
30
0
41
1
10
-1.22466451933836
20
-5.22271935203617
30
0
41
1
10
-1.24283213254539
20
-5.1410815354084
30
0
41
1
10
-1.27671142477865
20
-4.97683362134603
30
0
41
1
10
-1.29241814186359
20
-4.89422245258601
30
0
41
1
10
-1.30710678118655
20
-4.81115156937966
30
0
0
SPLINE
5
17C
100
AcDbEntity
8
SK1
62
256
6
ByLayer
370
18
48
1
60
0
100
AcDbSpline
70
4
71
3
72
40
73
36
40
0
40
0
40
0
40
0
40
0.125000000000001
40
0.125000000000001
40
0.187500000000001
40
0.187500000000001
40
0.250000000000001
40
0.250000000000001
40
0.312500000000001
40
0.312500000000001
40
0.328125000000001
40
0.328125000000001
40
0.343750000000001
40
0.375
40
0.375
40
0.4375
40
0.4375
40
0.5
40
0.5625
40
0.5625
40
0.625
40
0.625
40
0.640625
40
0.640625
40
0.65625
40
0.65625
40
0.6875
40
0.6875
40
0.75
40
0.75
40
0.8125
40
0.8125
40
0.875
40
0.875
40
1
40
1
40
1
40
1
41
1
10
-1.30710678118654
20
-4.8111515693796
30
0
41
1
10
-1.37464191770107
20
-4.42920989906065
30
0
41
1
10
-1.43848245106357
20
-4.04286538655003
30
0
41
1
10
-1.52581080346147
20
-3.4555709451387
30
0
41
1
10
-1.55350142719045
20
-3.25850341404765
30
0
41
1
10
-1.60546482604906
20
-2.86151288497595
30
0
41
1
10
-1.6297351989872
20
-2.6615890156875
30
0
41
1
10
-1.67414509281366
20
-2.25856982386534
30
0
41
1
10
-1.69427910225543
20
-2.05547235697085
30
0
41
1
10
-1.71638790779507
20
-1.79939862844844
30
0
41
1
10
-1.72065969674748
20
-1.74803956652656
30
0
41
1
10
-1.72887208385962
20
-1.64527687502962
30
0
41
1
10
-1.7406903627735
20
-1.49111947898439
30
0
41
1
10
-1.75097190728464
20
-1.33692150334681
30
0
41
1
10
-1.76938952483025
20
-1.02847005779319
30
0
41
1
10
-1.77881369580271
20
-0.822761881301432
30
0
41
1
10
-1.79137807494828
20
-0.411189125581416
30
0
41
1
10
-1.79754609551322
20
0.0005418097730683
30
0
41
1
10
-1.79135312802684
20
0.412582134739552
30
0
41
1
10
-1.77873477820948
20
0.82478135977604
30
0
41
1
10
-1.76926982289669
20
1.03095952328059
30
0
41
1
10
-1.75383938151628
20
1.28877539719627
30
0
41
1
10
-1.75057294247844
20
1.340343237501
30
0
41
1
10
-1.74368713518695
20
1.44348814091276
30
0
41
1
10
-1.74006503391182
20
1.4951017046248
30
0
41
1
10
-1.72870229322061
20
1.64966999837915
30
0
41
1
10
-1.72047269473448
20
1.75227000555529
30
0
41
1
10
-1.69395938565038
20
2.05879746438532
30
0
41
1
10
-1.67384597566205
20
2.26145078101035
30
0
41
1
10
-1.62948528789901
20
2.66369063393995
30
0
41
1
10
-1.60524340635006
20
2.86327920729124
30
0
41
1
10
-1.55333681678031
20
3.25969288493101
30
0
41
1
10
-1.52567448156807
20
3.45651882726707
30
0
41
1
10
-1.4384230695418
20
4.04321174825219
30
0
41
1
10
-1.37462279329501
20
4.42931851789501
30
0
41
1
10
-1.3071067811866
20
4.81115177825131
30
0
0
SPLINE
5
17D
100
AcDbEntity
8
SK1
62
256
6
ByLayer
370
18
48
1
60
0
100
AcDbSpline
70
4
71
3
72
51
73
47
40
0
40
0
40
0
40
0
40
0.125000000000003
40
0.125000000000003
40
0.250000000000005
40
0.250000000000005
40
0.375000000000008
40
0.375000000000008
40
0.50000000000001
40
0.50000000000001
40
0.562500000000011
40
0.562500000000011
40
0.625000000000011
40
0.625000000000011
40
0.687500000000011
40
0.687500000000011
40
0.718750000000011
40
0.718750000000011
40
0.75000000000001
40
0.75000000000001
40
0.781250000000009
40
0.781250000000009
40
0.812500000000009
40
0.812500000000009
40
0.828125000000008
40
0.828125000000008
40
0.843750000000008
40
0.843750000000008
40
0.859375000000007
40
0.859375000000007
40
0.875000000000007
40
0.875000000000007
40
0.906250000000005
40
0.906250000000005
40
0.914062500000005
40
0.914062500000005
40
0.921875000000005
40
0.937500000000004
40
0.937500000000004
40
0.953125000000003
40
0.953125000000003
40
0.968750000000002
40
0.968750000000002
40
0.984375000000001
40
0.984375000000001
40
1
40
1
40
1
40
1
41
1
10
-1.30710678118655
20
4.8111517782514
30
0
41
1
10
-1.29243386167
20
4.89413370391597
30
0
41
1
10
-1.27674450029032
20
4.97666000857456
30
0
41
1
10
-1.24290388240136
20
5.14074733501747
30
0
41
1
10
-1.22475757478613
20
5.22230941297437
30
0
41
1
10
-1.18536324259087
20
5.38437609466149
30
0
41
1
10
-1.16411410166909
20
5.46491938757291
30
0
41
1
10
-1.11750013847292
20
5.62462479791714
30
0
41
1
10
-1.0922293392273
20
5.70354894528973
30
0
41
1
10
-1.05003902511506
20
5.82012130347704
30
0
41
1
10
-1.03525413522215
20
5.85867400558868
30
0
41
1
10
-1.00384791181237
20
5.93504366748635
30
0
41
1
10
-0.987232093239818
20
5.97286244830227
30
0
41
1
10
-0.951537336733779
20
6.0475612269523
30
0
41
1
10
-0.93247324784975
20
6.08444613540038
30
0
41
1
10
-0.901177592378616
20
6.13879101734139
30
0
41
1
10
-0.890290953598992
20
6.15674063815601
30
0
41
1
10
-0.867353405011521
20
6.19222552349751
30
0
41
1
10
-0.855253581473967
20
6.2098275518716
30
0
41
1
10
-0.829832017046712
20
6.24404146668815
30
0
41
1
10
-0.816508756328489
20
6.26067183093176
30
0
41
1
10
-0.788229178374266
20
6.29267436431064
30
0
41
1
10
-0.773280793926851
20
6.30805251056447
30
0
41
1
10
-0.749110346030385
20
6.32978409383841
30
0
41
1
10
-0.740759389627414
20
6.33680322085289
30
0
41
1
10
-0.723321143410587
20
6.3502808336809
30
0
41
1
10
-0.714177802118193
20
6.3567747780167
30
0
41
1
10
-0.695263535743464
20
6.36883407140752
30
0
41
1
10
-0.685506727928448
20
6.37439841042161
30
0
41
1
10
-0.665265234159847
20
6.38439885825292
30
0
41
1
10
-0.654728144683794
20
6.38885411254182
30
0
41
1
10
-0.622102468665211
20
6.39998734213981
30
0
41
1
10
-0.599687731218587
20
6.40423336369165
30
0
41
1
10
-0.570661631866017
20
6.40472651279043
30
0
41
1
10
-0.564821683089768
20
6.40457927715815
30
0
41
1
10
-0.553312890967483
20
6.40381092862668
30
0
41
1
10
-0.536205505855378
20
6.40195065166941
30
0
41
1
10
-0.519541799584147
20
6.39807453657346
30
0
41
1
10
-0.497682675631438
20
6.39127312214092
30
0
41
1
10
-0.487153207843121
20
6.38712350886505
30
0
41
1
10
-0.466917648563943
20
6.37769203793539
30
0
41
1
10
-0.457177342303623
20
6.37239779961379
30
0
41
1
10
-0.438316294923325
20
6.3608578974891
30
0
41
1
10
-0.429170091135489
20
6.35459039773457
30
0
41
1
10
-0.411568516590101
20
6.34138290087219
30
0
41
1
10
-0.403103547019427
20
6.33444111034481
30
0
41
1
10
-0.394913799811292
20
6.32722135062522
30
0
0
SPLINE
5
17E
100
AcDbEntity
8
SK1
62
256
6
ByLayer
370
13
48
1
60
0
100
AcDbSpline
70
4
71
3
72
21
73
17
40
0
40
0
40
0
40
0
40
0.0501775072145823
40
0.118466084759789
40
0.186754662304996
40
0.255043239850202
40
0.323331817395409
40
0.391620394940616
40
0.528197550031029
40
0.596486127576236
40
0.664774705121442
40
0.733063282666649
40
0.801351860211856
40
0.869640437757062
40
0.937929015302269
40
1
40
1
40
1
40
1
41
1
10
-0.394913799811299
20
21.8654704308668
30
0
41
1
10
-0.394913799811292
20
21.8658250819009
30
0
41
1
10
-0.394913799811285
20
21.8217455553404
30
0
41
1
10
-0.394913799811292
20
21.6019829919256
30
0
41
1
10
-0.394913799811292
20
21.1908660117695
30
0
41
1
10
-0.394913799811292
20
20.6247611340725
30
0
41
1
10
-0.394913799811292
20
19.9145926563567
30
0
41
1
10
-0.394913799811292
20
18.7870406318774
30
0
41
1
10
-0.394913799811292
20
17.4047589502432
30
0
41
1
10
-0.394913799811292
20
15.7849099352292
30
0
41
1
10
-0.394913799811292
20
14.4558608746283
30
0
41
1
10
-0.394913799811292
20
13.014724351229
30
0
41
1
10
-0.394913799811292
20
11.4638144327396
30
0
41
1
10
-0.394913799811292
20
9.80498177095927
30
0
41
1
10
-0.394913799811292
20
8.09321828866487
30
0
41
1
10
-0.394913799811292
20
6.90653972901185
30
0
41
1
10
-0.394913799811292
20
6.32722135061286
30
0
0
SPLINE
5
17F
100
AcDbEntity
8
SK1
62
256
6
ByLayer
370
13
48
1
60
0
100
AcDbSpline
70
4
71
3
72
49
73
45
40
0
40
0
40
0
40
0
40
0.020580443941171
40
0.0487847437329551
40
0.0769890435247393
40
0.105193343316523
40
0.133397643108308
40
0.161601942900092
40
0.21801054248366
40
0.246214842275444
40
0.274419142067228
40
0.302623441859012
40
0.330827741650796
40
0.359032041442581
40
0.387236341234365
40
0.415440641026149
40
0.429542790922041
40
0.443644940817933
40
0.457747090713825
40
0.471849240609717
40
0.485951390505609
40
0.493002465453555
40
0.500053540401501
40
0.507104615349447
40
0.514155690297394
40
0.528257840193286
40
0.542359990089178
40
0.55646213998507
40
0.570564289880962
40
0.584666439776854
40
0.612870739568638
40
0.641075039360422
40
0.669279339152206
40
0.69748363894399
40
0.725687938735775
40
0.753892238527559
40
0.782096538319343
40
0.838505137902911
40
0.866709437694695
40
0.894913737486479
40
0.923118037278264
40
0.951322337070048
40
0.979526636861832
40
1
40
1
40
1
40
1
41
1
10
-1.9950399779393
20
21.8252862038485
30
0
41
1
10
-1.9950399779393
20
21.8253757100475
30
0
41
1
10
-1.99503997793931
20
21.7812233207783
30
0
41
1
10
-1.9950399779393
20
21.5622159608078
30
0
41
1
10
-1.9950399779393
20
21.1516905297668
30
0
41
1
10
-1.9950399779393
20
20.5863476884834
30
0
41
1
10
-1.9950399779393
20
19.8770915138249
30
0
41
1
10
-1.9950399779393
20
18.7508484467722
30
0
41
1
10
-1.9950399779393
20
17.370463175446
30
0
41
1
10
-1.9950399779393
20
15.752471971849
30
0
41
1
10
-1.9950399779393
20
14.4250897201646
30
0
41
1
10
-1.9950399779393
20
12.985830725026
30
0
41
1
10
-1.9950399779393
20
11.4370507512064
30
0
41
1
10
-1.9950399779393
20
9.78067154978808
30
0
41
1
10
-1.9950399779393
20
8.01821733349291
30
0
41
1
10
-1.9950399779393
20
6.46319635117558
30
0
41
1
10
-1.9950399779393
20
5.16749918372616
30
0
41
1
10
-1.9950399779393
20
4.17226659327741
30
0
41
1
10
-1.9950399779393
20
3.15436880408234
30
0
41
1
10
-1.9950399779393
20
2.11640247274798
30
0
41
1
10
-1.9950399779393
20
1.23881045451824
30
0
41
1
10
-1.9950399779393
20
0.53126948289281
30
0
41
1
10
-1.9950399779393
20
7.43625606E-08
30
0
41
1
10
-1.9950399779393
20
-0.53126937109505
30
0
41
1
10
-1.9950399779393
20
-1.23881043770962
30
0
41
1
10
-1.9950399779393
20
-2.11640245296422
30
0
41
1
10
-1.9950399779393
20
-3.15436853749512
30
0
41
1
10
-1.9950399779393
20
-4.17226658860133
30
0
41
1
10
-1.9950399779393
20
-5.16749921349111
30
0
41
1
10
-1.9950399779393
20
-6.46319592062625
30
0
41
1
10
-1.9950399779393
20
-8.01821749841287
30
0
41
1
10
-1.9950399779393
20
-9.7806713457135
30
0
41
1
10
-1.9950399779393
20
-11.4370504129058
30
0
41
1
10
-1.9950399779393
20
-12.9858310385527
30
0
41
1
10
-1.9950399779393
20
-14.4250895103889
30
0
41
1
10
-1.9950399779393
20
-15.7524717843982
30
0
41
1
10
-1.9950399779393
20
-17.370463645283
30
0
41
1
10
-1.9950399779393
20
-18.7508482253859
30
0
41
1
10
-1.9950399779393
20
-19.8770917100388
30
0
41
1
10
-1.9950399779393
20
-20.5863484011186
30
0
41
1
10
-1.9950399779393
20
-21.1516903613971
30
0
41
1
10
-1.9950399779393
20
-21.5622163798915
30
0
41
1
10
-1.9950399779393
20
-21.7809194184963
30
0
41
1
10
-1.99503997793931
20
-21.8251815480136
30
0
41
1
10
-1.9950399779393
20
-21.8252861537416
30
0
0
SPLINE
5
180
100
AcDbEntity
8
SK1
62
256
6
ByLayer
370
18
48
1
60
0
100
AcDbSpline
70
4
71
3
72
49
73
45
40
0
40
0
40
0
40
0
40
0.0137023103103445
40
0.0423080705174263
40
0.0709138307245082
40
0.0995195909315901
40
0.128125351138672
40
0.156731111345754
40
0.213942631759918
40
0.242548391967
40
0.271154152174082
40
0.299759912381163
40
0.328365672588245
40
0.356971432795327
40
0.385577193002409
40
0.414182953209491
40
0.428485833313032
40
0.442788713416573
40
0.457091593520114
40
0.471394473623655
40
0.485697353727196
40
0.492848793778966
40
0.500000233830737
40
0.507151673882507
40
0.514303113934278
40
0.528605994037819
40
0.542908874141359
40
0.5572117542449
40
0.571514634348441
40
0.585817514451982
40
0.614423274659064
40
0.643029034866146
40
0.671634795073228
40
0.70024055528031
40
0.728846315487392
40
0.757452075694474
40
0.786057835901556
40
0.843269356315719
40
0.871875116522801
40
0.900480876729883
40
0.929086636936965
40
0.957692397144047
40
0.986298157351129
40
1
40
1
40
1
40
1
41
1
10
-2.2
20
22.0136323367246
30
0
41
1
10
-2.2
20
22.0053276286718
30
0
41
1
10
-2.19999999999999
20
21.9554440372702
30
0
41
1
10
-2.2
20
21.7550269215783
30
0
41
1
10
-2.2
20
21.3416333570605
30
0
41
1
10
-2.2
20
20.7725957724454
30
0
41
1
10
-2.2
20
20.0589162847047
30
0
41
1
10
-2.2
20
18.9263267207688
30
0
41
1
10
-2.2
20
17.5367466797246
30
0
41
1
10
-2.2
20
15.9097478536278
30
0
41
1
10
-2.2
20
14.5742840575192
30
0
41
1
10
-2.2
20
13.1259218425112
30
0
41
1
10
-2.2
20
11.5668148046225
30
0
41
1
10
-2.2
20
9.89853996914991
30
0
41
1
10
-2.2
20
8.12208977576526
30
0
41
1
10
-2.2
20
6.55235660022589
30
0
41
1
10
-2.2
20
5.24422917335971
30
0
41
1
10
-2.2
20
4.2375522406841
30
0
41
1
10
-2.2
20
3.20644372216569
30
0
41
1
10
-2.2
20
2.15314018801405
30
0
41
1
10
-2.2
20
1.26034253962158
30
0
41
1
10
-2.2
20
0.540965390862539
30
0
41
1
10
-2.2
20
2.64082871E-08
30
0
41
1
10
-2.2
20
-0.540965319759152
30
0
41
1
10
-2.2
20
-1.26034245765445
30
0
41
1
10
-2.2
20
-2.15314020845372
30
0
41
1
10
-2.2
20
-3.20644349821168
30
0
41
1
10
-2.2
20
-4.23755215854527
30
0
41
1
10
-2.2
20
-5.24422924769223
30
0
41
1
10
-2.2
20
-6.55235618011341
30
0
41
1
10
-2.2
20
-8.12208991237512
30
0
41
1
10
-2.2
20
-9.89853979541101
30
0
41
1
10
-2.2
20
-11.5668144415121
30
0
41
1
10
-2.2
20
-13.1259221492871
30
0
41
1
10
-2.2
20
-14.574283866752
30
0
41
1
10
-2.2
20
-15.9097476492909
30
0
41
1
10
-2.2
20
-17.5367471514895
30
0
41
1
10
-2.2
20
-18.9263265026412
30
0
41
1
10
-2.2
20
-20.0589164660072
30
0
41
1
10
-2.2
20
-20.7725964921017
30
0
41
1
10
-2.2
20
-21.3416331895302
30
0
41
1
10
-2.2
20
-21.7550273348429
30
0
41
1
10
-2.2
20
-21.9554433992779
30
0
41
1
10
-2.2
20
-22.0053267983566
30
0
41
1
10
-2.2
20
-22.0136316630644
30
0
0
SPLINE
5
181
100
AcDbEntity
8
SK1
62
256
6
ByLayer
370
18
48
1
60
0
100
AcDbSpline
70
4
71
3
72
49
73
45
40
0
40
0
40
0
40
0
40
0.027094820428525
40
0.054912754011923
40
0.0827306875953211
40
0.110548621178719
40
0.138366554762117
40
0.166184488345515
40
0.221820355512311
40
0.249638289095709
40
0.277456222679107
40
0.305274156262505
40
0.333092089845903
40
0.360910023429301
40
0.388727957012699
40
0.416545890596097
40
0.430454857387796
40
0.444363824179495
40
0.458272790971194
40
0.472181757762893
40
0.486090724554593
40
0.493045207950442
40
0.499999691346291
40
0.506954174742141
40
0.51390865813799
40
0.52781762492969
40
0.541726591721388
40
0.555635558513087
40
0.569544525304786
40
0.583453492096485
40
0.611271425679884
40
0.639089359263281
40
0.666907292846679
40
0.694725226430078
40
0.722543160013476
40
0.750361093596874
40
0.778179027180272
40
0.833814894347067
40
0.861632827930466
40
0.889450761513864
40
0.917268695097262
40
0.94508662868066
40
0.972904562264058
40
1
40
1
40
1
40
1
41
1
10
-36.5
20
21.1524103621759
30
0
41
1
10
-36.5
20
21.169010169225
30
0
41
1
10
-36.5
20
21.1349478857279
30
0
41
1
10
-36.5
20
20.9025884164263
30
0
41
1
10
-36.5
20
20.5018751860753
30
0
41
1
10
-36.5
20
19.9491724688865
30
0
41
1
10
-36.5
20
19.2550489357272
30
0
41
1
10
-36.5
20
18.1505179338899
30
0
41
1
10
-36.5
20
16.8015889830237
30
0
41
1
10
-36.5
20
15.2144138486304
30
0
41
1
10
-36.5
20
13.9146794509994
30
0
41
1
10
-36.5
20
12.5065635742002
30
0
41
1
10
-36.5
20
10.9931136245939
30
0
41
1
10
-36.5
20
9.37743069816284
30
0
41
1
10
-36.5
20
7.6628582618342
30
0
41
1
10
-36.5
20
6.15816931379931
30
0
41
1
10
-36.5
20
4.9049974336175
30
0
41
1
10
-36.5
20
3.94891719908253
30
0
41
1
10
-36.5
20
2.97621477071243
30
0
41
1
10
-36.5
20
1.99071870036124
30
0
41
1
10
-36.5
20
1.16514681856438
30
0
41
1
10
-36.5
20
0.498098713248481
30
0
41
1
10
-36.5
20
2.384194886E-07
30
0
41
1
10
-36.5
20
-0.498098462230814
30
0
41
1
10
-36.5
20
-1.16514702467006
30
0
41
1
10
-36.5
20
-1.99071854296869
30
0
41
1
10
-36.5
20
-2.97621435827224
30
0
41
1
10
-36.5
20
-3.94891745941501
30
0
41
1
10
-36.5
20
-4.90499731091177
30
0
41
1
10
-36.5
20
-6.15816884754437
30
0
41
1
10
-36.5
20
-7.6628585236061
30
0
41
1
10
-36.5
20
-9.37743039030653
30
0
41
1
10
-36.5
20
-10.9931133711701
30
0
41
1
10
-36.5
20
-12.5065639108223
30
0
41
1
10
-36.5
20
-13.9146791761936
30
0
41
1
10
-36.5
20
-15.2144137189484
30
0
41
1
10
-36.5
20
-16.8015894462653
30
0
41
1
10
-36.5
20
-18.1505177013548
30
0
41
1
10
-36.5
20
-19.2550491829544
30
0
41
1
10
-36.5
20
-19.9491731575018
30
0
41
1
10
-36.5
20
-20.5018750148337
30
0
41
1
10
-36.5
20
-20.9025888554179
30
0
41
1
10
-36.5
20
-21.1349503314317
30
0
41
1
10
-36.5
20
-21.169010878303
30
0
41
1
10
-36.5
20
-21.152409335918
30
0
0
SPLINE
5
182
100
AcDbEntity
8
1
62
256
6
ByLayer
370
18
48
1
60
0
100
AcDbSpline
70
4
71
3
72
82
73
78
40
0
40
0
40
0
40
0
40
0.0084631898077216
40
0.0170318658324509
40
0.0257060820496171
40
0.0344858999088611
40
0.0433713885460607
40
0.0523626249986195
40
0.0614596944243406
40
0.0706626903241726
40
0.079971714769122
40
0.0893868786316187
40
0.0989083018216135
40
0.108536113527692
40
0.118270452463483
40
0.128111467119655
40
0.138059316021773
40
0.148114167994318
40
0.158276202431165
40
0.168545609572833
40
0.178922590790789
40
0.189407358879187
40
0.200000138354308
40
0.21070116576211
40
0.221510689994209
40
0.232428972612685
40
0.243456288184094
40
0.254592924623107
40
0.265839183546187
40
0.277195380635775
40
0.288661846015429
40
0.300238924636422
40
0.311926976676318
40
0.323726377950059
40
0.335637222945678
40
0.347652007335729
40
0.359767423335245
40
0.371983625059262
40
0.384300779700221
40
0.39671906781089
40
0.409238683594916
40
0.421859835205875
40
0.4345827450549
40
0.447407650127502
40
0.46033480230906
40
0.473364468722367
40
0.486496932072269
40
0.49973249100445
40
0.515332434254055
40
0.531047112024256
40
0.54687709110972
40
0.562822964879722
40
0.578885353945171
40
0.595064906854574
40
0.611362300820414
40
0.627778242477119
40
0.644313468672419
40
0.660968747295023
40
0.677744878136771
40
0.69464269379581
40
0.711663060619715
40
0.728806879691842
40
0.746074736180003
40
0.76345781348962
40
0.780952464425576
40
0.798559437263353
40
0.816279511585645
40
0.834113499115644
40
0.852062244589572
40
0.870126626670359
40
0.888307558904806
40
0.906605990726671
40
0.92502290850851
40
0.943559336663341
40
0.962216338804209
40
0.980994796124946
40
1
40
1
40
1
40
1
41
1
10
326.068166739865
20
-28.7540632158608
30
0
41
1
10
326.068955399123
20
-28.7610201147557
30
0
41
1
10
326.070542547582
20
-28.7750206241712
30
0
41
1
10
326.072803576513
20
-28.7959302554079
30
0
41
1
10
326.074995215249
20
-28.8169309053988
30
0
41
1
10
326.077106667214
20
-28.8379999979081
30
0
41
1
10
326.079139835903
20
-28.8591352424548
30
0
41
1
10
326.081093204993
20
-28.8803287104948
30
0
41
1
10
326.08296623585
20
-28.9015739087588
30
0
41
1
10
326.084758166844
20
-28.9228638491066
30
0
41
1
10
326.086468339897
20
-28.9441915744134
30
0
41
1
10
326.088096110544
20
-28.965550014495
30
0
41
1
10
326.089640871625
20
-28.9869320246276
30
0
41
1
10
326.091102046038
20
-29.0083303741898
30
0
41
1
10
326.092479087996
20
-29.0297377488011
30
0
41
1
10
326.093771482002
20
-29.0511467486843
30
0
41
1
10
326.094978742514
20
-29.0725498879567
30
0
41
1
10
326.096100413464
20
-29.0939395935658
30
0
41
1
10
326.097136067866
20
-29.1153082042207
30
0
41
1
10
326.098085307466
20
-29.1366479692165
30
0
41
1
10
326.098947762416
20
-29.1579510471872
30
0
41
1
10
326.099723091006
20
-29.1792095047625
30
0
41
1
10
326.100410979425
20
-29.2004153151462
30
0
41
1
10
326.101011141572
20
-29.2215603565995
30
0
41
1
10
326.101523318904
20
-29.242636410836
30
0
41
1
10
326.101947280331
20
-29.2636351613231
30
0
41
1
10
326.102282822154
20
-29.2845481914856
30
0
41
1
10
326.102529768041
20
-29.3053669828199
30
0
41
1
10
326.102687969082
20
-29.3260829128793
30
0
41
1
10
326.102757303755
20
-29.3466872532619
30
0
41
1
10
326.10273767846
20
-29.3671711670925
30
0
41
1
10
326.102629026139
20
-29.3875257079137
30
0
41
1
10
326.102431312373
20
-29.4077418127151
30
0
41
1
10
326.102144515829
20
-29.4278101480238
30
0
41
1
10
326.10176879682
20
-29.4477168145368
30
0
41
1
10
326.101304192085
20
-29.4674463351354
30
0
41
1
10
326.100751098198
20
-29.486983471222
30
0
41
1
10
326.100109954731
20
-29.5063172671499
30
0
41
1
10
326.099381169263
20
-29.5254385875513
30
0
41
1
10
326.098565182428
20
-29.5443382119735
30
0
41
1
10
326.097662462903
20
-29.5630068369692
30
0
41
1
10
326.096673509409
20
-29.5814350728262
30
0
41
1
10
326.095598850925
20
-29.5996134416195
30
0
41
1
10
326.094439047279
20
-29.6175323748646
30
0
41
1
10
326.093194690435
20
-29.6351822108614
30
0
41
1
10
326.091866402863
20
-29.6525531931957
30
0
41
1
10
326.090454847686
20
-29.6696354641274
30
0
41
1
10
326.088875614838
20
-29.6873747604394
30
0
41
1
10
326.087114518131
20
-29.7056741383205
30
0
41
1
10
326.085157545369
20
-29.7244279912497
30
0
41
1
10
326.083095388407
20
-29.742698807861
30
0
41
1
10
326.080929857854
20
-29.760473180048
30
0
41
1
10
326.078662794025
20
-29.7777375401127
30
0
41
1
10
326.076296082041
20
-29.7944781462187
30
0
41
1
10
326.073831652105
20
-29.8106810776938
30
0
41
1
10
326.071271484012
20
-29.8263322274087
30
0
41
1
10
326.068617610758
20
-29.8414172946867
30
0
41
1
10
326.06587212273
20
-29.8559217777591
30
0
41
1
10
326.063037171976
20
-29.8698309660847
30
0
41
1
10
326.060114976565
20
-29.8831299324353
30
0
41
1
10
326.057107826391
20
-29.8958035244544
30
0
41
1
10
326.054018105648
20
-29.907836274846
30
0
41
1
10
326.05084889215
20
-29.9192103441977
30
0
41
1
10
326.047603640201
20
-29.9299073594419
30
0
41
1
10
326.044285999353
20
-29.9399096550283
30
0
41
1
10
326.040899152098
20
-29.9492017409402
30
0
41
1
10
326.037446097304
20
-29.9577688217602
30
0
41
1
10
326.033929931488
20
-29.9655958962834
30
0
41
1
10
326.03035385472
20
-29.9726677381211
30
0
41
1
10
326.026721177998
20
-29.978968933051
30
0
41
1
10
326.023035330905
20
-29.9844837007714
30
0
41
1
10
326.019299869204
20
-29.9891965284017
30
0
41
1
10
326.015518485251
20
-29.9930897440708
30
0
41
1
10
326.011695010143
20
-29.9961526205075
30
0
41
1
10
326.007833464761
20
-29.9983470184897
30
0
41
1
10
326.003930756042
20
-29.9997393796081
30
0
41
1
10
326.001315483588
20
-29.9999127796677
30
0
41
1
10
326
20
-30
30
0
0
SPLINE
5
183
100
AcDbEntity
8
1
62
256
6
ByLayer
370
13
48
1
60
0
100
AcDbSpline
70
4
71
1
72
4
73
2
40
0
40
0
40
1
40
1
41
1
10
325.636333479731
20
-29.0040268797168
30
0
41
1
10
326.068166739865
20
-28.7540632158608
30
0
0
SPLINE
5
184
100
AcDbEntity
8
1
62
256
6
ByLayer
370
18
48
1
60
0
100
AcDbSpline
70
4
71
3
72
36
73
32
40
0
40
0
40
0
40
0
40
0.0625000000000001
40
0.0625000000000001
40
0.125
40
0.125
40
0.1875
40
0.1875
40
0.25
40
0.25
40
0.3125
40
0.3125
40
0.375
40
0.375
40
0.4375
40
0.4375
40
0.5
40
0.5
40
0.5625
40
0.5625
40
0.625
40
0.625
40
0.6875
40
0.6875
40
0.75
40
0.75
40
0.812500000000001
40
0.812500000000001
40
0.875000000000001
40
0.875000000000001
40
1
40
1
40
1
40
1
41
1
10
327.650480947162
20
-29.6294893682057
30
0
41
1
10
327.643862084188
20
-29.6358650377145
30
0
41
1
10
327.63736815804
20
-29.6420854939392
30
0
41
1
10
327.624658212001
20
-29.6541795144029
30
0
41
1
10
327.618465781099
20
-29.6600302465737
30
0
41
1
10
327.606614451507
20
-29.6711317760501
30
0
41
1
10
327.600930365741
20
-29.6764066912076
30
0
41
1
10
327.590113554064
20
-29.6863246581521
30
0
41
1
10
327.584944456052
20
-29.691000029734
30
0
41
1
10
327.575462300344
20
-29.6994157565418
30
0
41
1
10
327.571165979257
20
-29.7031426233273
30
0
41
1
10
327.563582231134
20
-29.7095025996331
30
0
41
1
10
327.560295493777
20
-29.712131438415
30
0
41
1
10
327.555115656292
20
-29.7159495810421
30
0
41
1
10
327.55318093426
20
-29.7171751733806
30
0
41
1
10
327.550745513604
20
-29.7181286395742
30
0
41
1
10
327.550291079597
20
-29.7178363837949
30
0
41
1
10
327.550812662286
20
-29.7158184071475
30
0
41
1
10
327.551796471514
20
-29.7140793421216
30
0
41
1
10
327.555138387984
20
-29.7092388666697
30
0
41
1
10
327.557446708715
20
-29.7062051495601
30
0
41
1
10
327.563158317433
20
-29.6990846204169
30
0
41
1
10
327.566592406128
20
-29.6949623448436
30
0
41
1
10
327.57432482138
20
-29.6859171291032
30
0
41
1
10
327.578590882068
20
-29.681029982191
30
0
41
1
10
327.587802061849
20
-29.6706380732869
30
0
41
1
10
327.592748132286
20
-29.6651324406481
30
0
41
1
10
327.60325464834
20
-29.6535639456442
30
0
41
1
10
327.608756349684
20
-29.6475660845106
30
0
41
1
10
327.625757992912
20
-29.6291819152151
30
0
41
1
10
327.63781344554
20
-29.616338150569
30
0
41
1
10
327.650480947162
20
-29.6030003410692
30
0
0
SPLINE
5
185
100
AcDbEntity
8
1
62
256
6
ByLayer
370
18
48
1
60
0
100
AcDbSpline
70
4
71
3
72
8
73
4
40
0
40
0
40
0
40
0
40
1
40
1
40
1
40
1
41
1
10
327.650480947162
20
-29.6030003410692
30
0
41
1
10
327.876008003165
20
-29.3655393957385
30
0
41
1
10
328.100791090601
20
-29.1271433496652
30
0
41
1
10
328.324759526419
20
-28.8877233606912
30
0
0
SPLINE
5
186
100
AcDbEntity
8
1
62
256
6
ByLayer
370
18
48
1
60
0
100
AcDbSpline
70
4
71
3
72
8
73
4
40
0
40
0
40
0
40
0
40
1
40
1
40
1
40
1
41
1
10
328.324759526419
20
-28.8429985339383
30
0
41
1
10
328.10033706691
20
-29.0525298860216
30
0
41
1
10
327.875567648883
20
-29.2615638584136
30
0
41
1
10
327.650480947162
20
-29.4701429912256
30
0
0
SPLINE
5
187
100
AcDbEntity
8
1
62
256
6
ByLayer
370
18
48
1
60
0
100
AcDbSpline
70
4
71
3
72
38
73
34
40
0
40
0
40
0
40
0
40
0.0624999999999953
40
0.0624999999999953
40
0.124999999999991
40
0.124999999999991
40
0.187499999999986
40
0.187499999999986
40
0.249999999999981
40
0.249999999999981
40
0.312499999999977
40
0.312499999999977
40
0.374999999999972
40
0.374999999999972
40
0.437499999999968
40
0.437499999999968
40
0.499999999999963
40
0.499999999999963
40
0.531249999999962
40
0.531249999999962
40
0.562499999999961
40
0.562499999999961
40
0.624999999999969
40
0.624999999999969
40
0.687499999999976
40
0.687499999999976
40
0.749999999999983
40
0.749999999999983
40
0.812499999999991
40
0.812499999999991
40
0.874999999999998
40
0.874999999999998
40
1
40
1
40
1
40
1
41
1
10
327.650480947162
20
-29.4701429912256
30
0
41
1
10
327.643726881463
20
-29.4764017224413
30
0
41
1
10
327.637098160743
20
-29.4824675984262
30
0
41
1
10
327.624121587645
20
-29.4941653645858
30
0
41
1
10
327.617742143976
20
-29.4998242703924
30
0
41
1
10
327.605562970484
20
-29.5104136408788
30
0
41
1
10
327.599742695575
20
-29.515363799964
30
0
41
1
10
327.588714807944
20
-29.5244776354345
30
0
41
1
10
327.583471678807
20
-29.5286687146869
30
0
41
1
10
327.573894168183
20
-29.5359672809034
30
0
41
1
10
327.569604727196
20
-29.5390430763004
30
0
41
1
10
327.562140118258
20
-29.5439116287619
30
0
41
1
10
327.558968752714
20
-29.545692521259
30
0
41
1
10
327.55412676766
20
-29.5476893893327
30
0
41
1
10
327.552408786091
20
-29.5479394606952
30
0
41
1
10
327.550449968655
20
-29.5468649480095
30
0
41
1
10
327.550243871428
20
-29.5455532016625
30
0
41
1
10
327.550991933076
20
-29.5425459103022
30
0
41
1
10
327.551417710024
20
-29.5413688368418
30
0
41
1
10
327.552612851189
20
-29.5386745168133
30
0
41
1
10
327.553385026571
20
-29.5371539574101
30
0
41
1
10
327.556141299637
20
-29.5322031740115
30
0
41
1
10
327.558572250333
20
-29.5283601137443
30
0
41
1
10
327.56445428438
20
-29.5197418754224
30
0
41
1
10
327.567937837454
20
-29.5149253101636
30
0
41
1
10
327.575648799551
20
-29.5046892334913
30
0
41
1
10
327.579874304902
20
-29.4992680700743
30
0
41
1
10
327.588959245089
20
-29.4879075907862
30
0
41
1
10
327.593819464948
20
-29.481967630191
30
0
41
1
10
327.604115964568
20
-29.4696181549185
30
0
41
1
10
327.609513235996
20
-29.4632561734392
30
0
41
1
10
327.6261921918
20
-29.4438785061731
30
0
41
1
10
327.638027080278
20
-29.4304881908606
30
0
41
1
10
327.650480947162
20
-29.4166940319327
30
0
0
SPLINE
5
188
100
AcDbEntity
8
1
62
256
6
ByLayer
370
18
48
1
60
0
100
AcDbSpline
70
4
71
3
72
8
73
4
40
0
40
0
40
0
40
0
40
1
40
1
40
1
40
1
41
1
10
327.650480947162
20
-29.4166940319327
30
0
41
1
10
327.876228917632
20
-29.1666509399749
30
0
41
1
10
328.101019214676
20
-28.9154654531765
30
0
41
1
10
328.324759526419
20
-28.6630274540333
30
0
0
SPLINE
5
189
100
AcDbEntity
8
1
62
256
6
ByLayer
370
18
48
1
60
0
100
AcDbSpline
70
4
71
3
72
8
73
4
40
0
40
0
40
0
40
0
40
1
40
1
40
1
40
1
41
1
10
328.324759526419
20
-28.5875252185438
30
0
41
1
10
328.100236859786
20
-28.7895703804292
30
0
41
1
10
327.875470342809
20
-28.9912532251729
30
0
41
1
10
327.650480947162
20
-29.1926049128575
30
0
0
SPLINE
5
18A
100
AcDbEntity
8
1
62
256
6
ByLayer
370
18
48
1
60
0
100
AcDbSpline
70
4
71
3
72
39
73
35
40
0
40
0
40
0
40
0
40
0.0624999999999998
40
0.0624999999999998
40
0.125
40
0.125
40
0.187499999999999
40
0.187499999999999
40
0.249999999999999
40
0.249999999999999
40
0.312499999999999
40
0.312499999999999
40
0.34375
40
0.34375
40
0.375000000000002
40
0.406250000000003
40
0.406250000000003
40
0.437500000000005
40
0.437500000000005
40
0.500000000000005
40
0.500000000000005
40
0.562500000000004
40
0.562500000000004
40
0.625000000000004
40
0.625000000000004
40
0.687500000000004
40
0.687500000000004
40
0.750000000000004
40
0.750000000000004
40
0.812500000000003
40
0.812500000000003
40
0.875000000000003
40
0.875000000000003
40
1
40
1
40
1
40
1
41
1
10
327.650480947162
20
-29.1926049128575
30
0
41
1
10
327.643561481925
20
-29.1987974091713
30
0
41
1
10
327.636760597053
20
-29.2047594560293
30
0
41
1
10
327.623428732479
20
-29.2161568732047
30
0
41
1
10
327.616868043973
20
-29.221614922343
30
0
41
1
10
327.604372494835
20
-29.2316571174374
30
0
41
1
10
327.598405523108
20
-29.2362705084991
30
0
41
1
10
327.587120780066
20
-29.2445513660951
30
0
41
1
10
327.581757911793
20
-29.248245222261
30
0
41
1
10
327.572161291116
20
-29.2542618829971
30
0
41
1
10
327.567898801765
20
-29.2566113207269
30
0
41
1
10
327.562409953693
20
-29.2590197111092
30
0
41
1
10
327.56074024976
20
-29.2596301418322
30
0
41
1
10
327.557792033825
20
-29.2604382600566
30
0
41
1
10
327.555212841065
20
-29.260843929945
30
0
41
1
10
327.553367705005
20
-29.2604482498082
30
0
41
1
10
327.551893890274
20
-29.259646847812
30
0
41
1
10
327.551341802858
20
-29.2590371274925
30
0
41
1
10
327.550274927363
20
-29.2566430276475
30
0
41
1
10
327.550326458122
20
-29.2543028706035
30
0
41
1
10
327.551787967949
20
-29.2482959791915
30
0
41
1
10
327.553220516284
20
-29.2445964956714
30
0
41
1
10
327.557185296634
20
-29.2362910592424
30
0
41
1
10
327.559719213955
20
-29.2316610587576
30
0
41
1
10
327.565737405588
20
-29.2215788782869
30
0
41
1
10
327.569244994022
20
-29.2160956853224
30
0
41
1
10
327.576918114054
20
-29.2046829541805
30
0
41
1
10
327.581098727558
20
-29.1987255135256
30
0
41
1
10
327.590054837743
20
-29.1863774236134
30
0
41
1
10
327.594830979835
20
-29.1799863029414
30
0
41
1
10
327.604926584524
20
-29.1668094826114
30
0
41
1
10
327.61022432905
20
-29.1600533921706
30
0
41
1
10
327.626598565669
20
-29.1395788033848
30
0
41
1
10
327.638226288089
20
-29.1255569553039
30
0
41
1
10
327.650480947162
20
-29.1112111569994
30
0
0
SPLINE
5
18B
100
AcDbEntity
8
1
62
256
6
ByLayer
370
18
48
1
60
0
100
AcDbSpline
70
4
71
3
72
8
73
4
40
0
40
0
40
0
40
0
40
1
40
1
40
1
40
1
41
1
10
327.650480947162
20
-29.1112111569994
30
0
41
1
10
327.876507770666
20
-28.8466150387261
30
0
41
1
10
328.101307459449
20
-28.5806365366889
30
0
41
1
10
328.324759526419
20
-28.3131399205598
30
0
0
SPLINE
5
18C
100
AcDbEntity
8
1
62
256
6
ByLayer
370
18
48
1
60
0
100
AcDbSpline
70
4
71
3
72
8
73
4
40
0
40
0
40
0
40
0
40
1
40
1
40
1
40
1
41
1
10
328.324759526419
20
-28.2053177327395
30
0
41
1
10
328.100154848045
20
-28.4009956122068
30
0
41
1
10
327.875390693943
20
-28.5964289589472
30
0
41
1
10
327.650480947162
20
-28.7916390605853
30
0
0
SPLINE
5
18D
100
AcDbEntity
8
1
62
256
6
ByLayer
370
18
48
1
60
0
100
AcDbSpline
70
4
71
3
72
32
73
28
40
0
40
0
40
0
40
0
40
0.125000000000006
40
0.125000000000006
40
0.187500000000004
40
0.187500000000004
40
0.250000000000001
40
0.250000000000001
40
0.312499999999999
40
0.312499999999999
40
0.374999999999997
40
0.374999999999997
40
0.437499999999994
40
0.437499999999994
40
0.499999999999992
40
0.499999999999992
40
0.562499999999989
40
0.562499999999989
40
0.624999999999987
40
0.624999999999987
40
0.749999999999978
40
0.749999999999978
40
0.812499999999979
40
0.812499999999979
40
0.874999999999981
40
0.874999999999981
40
1
40
1
40
1
40
1
41
1
10
327.650480947162
20
-28.7916390605853
30
0
41
1
10
327.636218452344
20
-28.8040181731086
30
0
41
1
10
327.622240264368
20
-28.8154173152047
30
0
41
1
10
327.602992291188
20
-28.8296153042808
30
0
41
1
10
327.596826112669
20
-28.8338945401531
30
0
41
1
10
327.585150324815
20
-28.8413094412335
30
0
41
1
10
327.579802545074
20
-28.8443419283293
30
0
41
1
10
327.570193548697
20
-28.8489058516384
30
0
41
1
10
327.565917359672
20
-28.8504253367856
30
0
41
1
10
327.5589614839
20
-28.8516753986743
30
0
41
1
10
327.556219248358
20
-28.8514436933257
30
0
41
1
10
327.552246458667
20
-28.8492156646211
30
0
41
1
10
327.551085390741
20
-28.847251677175
30
0
41
1
10
327.550241537347
20
-28.8418614194536
30
0
41
1
10
327.550569080283
20
-28.838382972767
30
0
41
1
10
327.552511726574
20
-28.8303344171844
30
0
41
1
10
327.554109567751
20
-28.8257708187554
30
0
41
1
10
327.558360917358
20
-28.8157342041928
30
0
41
1
10
327.56103952816
20
-28.8102189029185
30
0
41
1
10
327.570274220005
20
-28.7928579231843
30
0
41
1
10
327.578003306719
20
-28.7801749967735
30
0
41
1
10
327.591401058081
20
-28.7598818429372
30
0
41
1
10
327.59613953536
20
-28.7529552766058
30
0
41
1
10
327.605993559771
20
-28.7389641660187
30
0
41
1
10
327.611125160039
20
-28.7318756087926
30
0
41
1
10
327.627074672477
20
-28.7103590621003
30
0
41
1
10
327.638441494712
20
-28.6956828090524
30
0
41
1
10
327.650480947162
20
-28.6807059996443
30
0
0
SPLINE
5
18E
100
AcDbEntity
8
1
62
256
6
ByLayer
370
18
48
1
60
0
100
AcDbSpline
70
4
71
3
72
8
73
4
40
0
40
0
40
0
40
0
40
1
40
1
40
1
40
1
41
1
10
327.650480947162
20
-28.6807059996443
30
0
41
1
10
327.876866272618
20
-28.3990877212198
30
0
41
1
10
328.101678442285
20
-28.1158055554848
30
0
41
1
10
328.324759526419
20
-27.8306924641193
30
0
0
SPLINE
5
18F
100
AcDbEntity
8
1
62
256
6
ByLayer
370
18
48
1
60
0
100
AcDbSpline
70
4
71
3
72
8
73
4
40
0
40
0
40
0
40
0
40
1
40
1
40
1
40
1
41
1
10
328.324759526419
20
-27.6881625317612
30
0
41
1
10
328.100089025132
20
-27.8786205059024
30
0
41
1
10
327.875326782244
20
-28.0689340213256
30
0
41
1
10
327.650480947162
20
-28.2591159102949
30
0
0
SPLINE
5
190
100
AcDbEntity
8
1
62
256
6
ByLayer
370
18
48
1
60
0
100
AcDbSpline
70
4
71
3
72
41
73
37
40
0
40
0
40
0
40
0
40
0.062500000000013
40
0.062500000000013
40
0.125000000000026
40
0.125000000000026
40
0.156250000000032
40
0.156250000000032
40
0.187500000000037
40
0.187500000000037
40
0.250000000000043
40
0.250000000000043
40
0.281250000000045
40
0.281250000000045
40
0.312500000000046
40
0.343750000000048
40
0.343750000000048
40
0.37500000000005
40
0.37500000000005
40
0.437500000000054
40
0.437500000000054
40
0.468750000000053
40
0.468750000000053
40
0.500000000000052
40
0.500000000000052
40
0.562500000000046
40
0.562500000000046
40
0.625000000000039
40
0.625000000000039
40
0.687500000000033
40
0.687500000000033
40
0.750000000000026
40
0.750000000000026
40
0.875000000000013
40
0.875000000000013
40
1
40
1
40
1
40
1
41
1
10
327.650480947162
20
-28.2591159102949
30
0
41
1
10
327.64312067197
20
-28.2653414694156
30
0
41
1
10
327.635804695087
20
-28.2712773588523
30
0
41
1
10
327.621558337367
20
-28.2822363602348
30
0
41
1
10
327.614658110685
20
-28.2872398905796
30
0
41
1
10
327.604698216193
20
-28.2939087063814
30
0
41
1
10
327.601443651369
20
-28.2959915195195
30
0
41
1
10
327.595080260982
20
-28.2998442241152
30
0
41
1
10
327.591968194618
20
-28.3016142220467
30
0
41
1
10
327.583076629913
20
-28.3062945367747
30
0
41
1
10
327.577668862641
20
-28.3086246746206
30
0
41
1
10
327.570442806861
20
-28.3107695863595
30
0
41
1
10
327.568202442333
20
-28.311249831674
30
0
41
1
10
327.564140466581
20
-28.3117249114427
30
0
41
1
10
327.560469603166
20
-28.3117232866625
30
0
41
1
10
327.557572696077
20
-28.3107769709441
30
0
41
1
10
327.555065784551
20
-28.3093539638441
30
0
41
1
10
327.554012412702
20
-28.3084010300546
30
0
41
1
10
327.551498718449
20
-28.3049318251667
30
0
41
1
10
327.550641696582
20
-28.3017928744913
30
0
41
1
10
327.550431296051
20
-28.2959971988531
30
0
41
1
10
327.550543891767
20
-28.2938771195671
30
0
41
1
10
327.551097439142
20
-28.2893835606951
30
0
41
1
10
327.55153724686
20
-28.2870008336846
30
0
41
1
10
327.553295887259
20
-28.2794861044503
30
0
41
1
10
327.555051097323
20
-28.2739898973757
30
0
41
1
10
327.559557801758
20
-28.2621650826892
30
0
41
1
10
327.562301249488
20
-28.2558684256211
30
0
41
1
10
327.568507240897
20
-28.2428591198074
30
0
41
1
10
327.571983861287
20
-28.2361109336969
30
0
41
1
10
327.579584891849
20
-28.2221925717866
30
0
41
1
10
327.583728003621
20
-28.2149922619385
30
0
41
1
10
327.59691541842
20
-28.1930284474522
30
0
41
1
10
327.606613261902
20
-28.1780492255824
30
0
41
1
10
327.627467863824
20
-28.1475539976571
30
0
41
1
10
327.638630045339
20
-28.1320359563952
30
0
41
1
10
327.650480947162
20
-28.1162678662819
30
0
0
SPLINE
5
191
100
AcDbEntity
8
1
62
256
6
ByLayer
370
18
48
1
60
0
100
AcDbSpline
70
4
71
3
72
8
73
4
40
0
40
0
40
0
40
0
40
1
40
1
40
1
40
1
41
1
10
327.650480947162
20
-28.1162678662819
30
0
41
1
10
327.877337890168
20
-27.8144257977413
30
0
41
1
10
328.102167049584
20
-27.5105841760994
30
0
41
1
10
328.324759526419
20
-27.204537010626
30
0
0
SPLINE
5
192
100
AcDbEntity
8
1
62
256
6
ByLayer
370
18
48
1
60
0
100
AcDbSpline
70
4
71
3
72
8
73
4
40
0
40
0
40
0
40
0
40
1
40
1
40
1
40
1
41
1
10
328.324759526419
20
-27.0237655573026
30
0
41
1
10
328.100039125586
20
-27.2102687278776
30
0
41
1
10
327.87527835498
20
-27.3967070563409
30
0
41
1
10
327.650480947162
20
-27.5830864488535
30
0
0
SPLINE
5
193
100
AcDbEntity
8
1
62
256
6
ByLayer
370
18
48
1
60
0
100
AcDbSpline
70
4
71
3
72
39
73
35
40
0
40
0
40
0
40
0
40
0.0625000000000081
40
0.0625000000000081
40
0.125000000000016
40
0.125000000000016
40
0.187500000000025
40
0.187500000000025
40
0.218750000000034
40
0.218750000000034
40
0.250000000000044
40
0.250000000000044
40
0.312500000000054
40
0.312500000000054
40
0.343750000000059
40
0.343750000000059
40
0.375000000000064
40
0.406250000000069
40
0.406250000000069
40
0.437500000000073
40
0.437500000000073
40
0.500000000000065
40
0.500000000000065
40
0.562500000000057
40
0.562500000000057
40
0.625000000000048
40
0.625000000000048
40
0.68750000000004
40
0.68750000000004
40
0.750000000000032
40
0.750000000000032
40
0.875000000000016
40
0.875000000000016
40
1
40
1
40
1
40
1
41
1
10
327.650480947162
20
-27.5830864488535
30
0
41
1
10
327.642848465984
20
-27.5894145343019
30
0
41
1
10
327.635230044314
20
-27.59539066175
30
0
41
1
10
327.620434193986
20
-27.6061779599126
30
0
41
1
10
327.613255140464
20
-27.6109974845249
30
0
41
1
10
327.599425158374
20
-27.6192459915887
30
0
41
1
10
327.592745263725
20
-27.6226722784097
30
0
41
1
10
327.583692680945
20
-27.6262998168289
30
0
41
1
10
327.580816760607
20
-27.6272697003244
30
0
41
1
10
327.575367399923
20
-27.6286973789872
30
0
41
1
10
327.572783455345
20
-27.6291527982104
30
0
41
1
10
327.565725370173
20
-27.6296830301391
30
0
41
1
10
327.561864611698
20
-27.6289563432164
30
0
41
1
10
327.557292459269
20
-27.6263023228391
30
0
41
1
10
327.55596873654
20
-27.6251453113987
30
0
41
1
10
327.553784251942
20
-27.6223872509873
30
0
41
1
10
327.5520409109
20
-27.6191807863444
30
0
41
1
10
327.551098579189
20
-27.6151589316096
30
0
41
1
10
327.550528264205
20
-27.6107578663772
30
0
41
1
10
327.550430700683
20
-27.6083568813502
30
0
41
1
10
327.550654051541
20
-27.6007652352952
30
0
41
1
10
327.551475794025
20
-27.5951597496354
30
0
41
1
10
327.554198267888
20
-27.5830737854475
30
0
41
1
10
327.556114381686
20
-27.5765557654383
30
0
41
1
10
327.560823333971
20
-27.5629298211241
30
0
41
1
10
327.563597798464
20
-27.5558628914157
30
0
41
1
10
327.569844713144
20
-27.5413066108042
30
0
41
1
10
327.573318283136
20
-27.5338165910066
30
0
41
1
10
327.580882685558
20
-27.5184630726735
30
0
41
1
10
327.584984596991
20
-27.5105829559677
30
0
41
1
10
327.597909096523
20
-27.4868430027664
30
0
41
1
10
327.60740422431
20
-27.4707518266123
30
0
41
1
10
327.627855969026
20
-27.4381338925007
30
0
41
1
10
327.638816630045
20
-27.4216059035293
30
0
41
1
10
327.650480947162
20
-27.4048713342158
30
0
0
SPLINE
5
194
100
AcDbEntity
8
1
62
256
6
ByLayer
370
18
48
1
60
0
100
AcDbSpline
70
4
71
3
72
8
73
4
40
0
40
0
40
0
40
0
40
1
40
1
40
1
40
1
41
1
10
327.650480947162
20
-27.4048713342158
30
0
41
1
10
327.87797677687
20
-27.0784874839773
30
0
41
1
10
328.10282976625
20
-26.7496954266907
30
0
41
1
10
328.324759526419
20
-26.4182396666025
30
0
0
SPLINE
5
195
100
AcDbEntity
8
1
62
256
6
ByLayer
370
18
48
1
60
0
100
AcDbSpline
70
4
71
3
72
8
73
4
40
0
40
0
40
0
40
0
40
1
40
1
40
1
40
1
41
1
10
328.324759526419
20
-26.1940141333148
30
0
41
1
10
328.100007511727
20
-26.3780816494066
30
0
41
1
10
327.875247737629
20
-26.562136533403
30
0
41
1
10
327.650480947162
20
-26.746179991572
30
0
0
SPLINE
5
196
100
AcDbEntity
8
1
62
256
6
ByLayer
370
18
48
1
60
0
100
AcDbSpline
70
4
71
3
72
39
73
35
40
0
40
0
40
0
40
0
40
0.0625000000000037
40
0.0625000000000037
40
0.125000000000007
40
0.125000000000007
40
0.156250000000006
40
0.156250000000006
40
0.187500000000005
40
0.187500000000005
40
0.218750000000003
40
0.218750000000003
40
0.250000000000002
40
0.281250000000001
40
0.281250000000001
40
0.312499999999999
40
0.312499999999999
40
0.374999999999996
40
0.374999999999996
40
0.406249999999995
40
0.406249999999995
40
0.437499999999994
40
0.437499999999994
40
0.499999999999999
40
0.499999999999999
40
0.562500000000004
40
0.562500000000004
40
0.625000000000009
40
0.625000000000009
40
0.750000000000006
40
0.750000000000006
40
0.875000000000003
40
0.875000000000003
40
1
40
1
40
1
40
1
41
1
10
327.650480947162
20
-26.746179991572
30
0
41
1
10
327.642517355019
20
-26.7527007370719
30
0
41
1
10
327.63453440989
20
-26.7587815916506
30
0
41
1
10
327.619042460543
20
-26.7694623151672
30
0
41
1
10
327.611511726718
20
-26.7740895951821
30
0
41
1
10
327.600621370502
20
-26.7796806806255
30
0
41
1
10
327.597061556649
20
-26.7813124621372
30
0
41
1
10
327.590290341915
20
-26.7839856794465
30
0
41
1
10
327.587053841966
20
-26.7850409190089
30
0
41
1
10
327.58089623758
20
-26.7865551188073
30
0
41
1
10
327.577954952722
20
-26.787014546724
30
0
41
1
10
327.572512587958
20
-26.7872842763289
30
0
41
1
10
327.567547431314
20
-26.7869134556378
30
0
41
1
10
327.56348717482
20
-26.7853258627772
30
0
41
1
10
327.559865561372
20
-26.7831473720263
30
0
41
1
10
327.558264729514
20
-26.7817488018322
30
0
41
1
10
327.554196953588
20
-26.7767917693807
30
0
41
1
10
327.552440567205
20
-26.7725079257529
30
0
41
1
10
327.550959029724
20
-26.7648963564557
30
0
41
1
10
327.550660070545
20
-26.7621461067255
30
0
41
1
10
327.550422720308
20
-26.7563820754731
30
0
41
1
10
327.550481076441
20
-26.7533611718062
30
0
41
1
10
327.551119474506
20
-26.7439343578544
30
0
41
1
10
327.552159177103
20
-26.7371671874764
30
0
41
1
10
327.555239798449
20
-26.7228437690711
30
0
41
1
10
327.557290439547
20
-26.7152746972403
30
0
41
1
10
327.562146245543
20
-26.6997853492488
30
0
41
1
10
327.564959968858
20
-26.6918233983906
30
0
41
1
10
327.574383518436
20
-26.667383516766
30
0
41
1
10
327.582020418221
20
-26.6502626912241
30
0
41
1
10
327.598905986321
20
-26.6158494363718
30
0
41
1
10
327.608200334979
20
-26.598435293484
30
0
41
1
10
327.628249215424
20
-26.5632547901681
30
0
41
1
10
327.639006636006
20
-26.5454877152687
30
0
41
1
10
327.650480947162
20
-26.5275506630092
30
0
0
SPLINE
5
197
100
AcDbEntity
8
1
62
256
6
ByLayer
370
18
48
1
60
0
100
AcDbSpline
70
4
71
3
72
8
73
4
40
0
40
0
40
0
40
0
40
1
40
1
40
1
40
1
41
1
10
327.650480947162
20
-26.5275506630092
30
0
41
1
10
327.878876276632
20
-26.1705149416585
30
0
41
1
10
328.103764009202
20
-25.8105598495161
30
0
41
1
10
328.324759526419
20
-25.4473652688735
30
0
0
SPLINE
5
198
100
AcDbEntity
8
1
62
256
6
ByLayer
370
18
48
1
60
0
100
AcDbSpline
70
4
71
3
72
8
73
4
40
0
40
0
40
0
40
0
40
1
40
1
40
1
40
1
41
1
10
328.324759526419
20
-25.1718025873658
30
0
41
1
10
328.10000187134
20
-25.3554472734957
30
0
41
1
10
327.875242279349
20
-25.5390887989485
30
0
41
1
10
327.650480947162
20
-25.7227274845173
30
0
0
SPLINE
5
199
100
AcDbEntity
8
1
62
256
6
ByLayer
370
18
48
1
60
0
100
AcDbSpline
70
4
71
3
72
38
73
34
40
0
40
0
40
0
40
0
40
0.0624999999999839
40
0.0624999999999839
40
0.0937499999999785
40
0.0937499999999785
40
0.124999999999973
40
0.124999999999973
40
0.187499999999964
40
0.187499999999964
40
0.249999999999955
40
0.249999999999955
40
0.281249999999952
40
0.281249999999952
40
0.312499999999949
40
0.312499999999949
40
0.37499999999995
40
0.37499999999995
40
0.437499999999952
40
0.437499999999952
40
0.499999999999954
40
0.499999999999954
40
0.562499999999956
40
0.562499999999956
40
0.624999999999958
40
0.624999999999958
40
0.68749999999996
40
0.68749999999996
40
0.749999999999962
40
0.749999999999962
40
0.874999999999981
40
0.874999999999981
40
1
40
1
40
1
40
1
41
1
10
327.650480947162
20
-25.7227274845173
30
0
41
1
10
327.642084189611
20
-25.7295879596027
30
0
41
1
10
327.633635577278
20
-25.7358730778346
30
0
41
1
10
327.621331349082
20
-25.7438542779431
30
0
41
1
10
327.617278610407
20
-25.7462841546202
30
0
41
1
10
327.609284196945
20
-25.7506167225567
30
0
41
1
10
327.605312533919
20
-25.7525309641125
30
0
41
1
10
327.59384949108
20
-25.7572404234738
30
0
41
1
10
327.586793021271
20
-25.7590261770072
30
0
41
1
10
327.574217814694
20
-25.7594741859468
30
0
41
1
10
327.568995280752
20
-25.7581391109119
30
0
41
1
10
327.562595860953
20
-25.7540283498169
30
0
41
1
10
327.560701051961
20
-25.7522911875497
30
0
41
1
10
327.557471003325
20
-25.7482678595017
30
0
41
1
10
327.556116901746
20
-25.7459736675126
30
0
41
1
10
327.552741344183
20
-25.7383459141707
30
0
41
1
10
327.551412871276
20
-25.7322137165055
30
0
41
1
10
327.550260898918
20
-25.7189622551589
30
0
41
1
10
327.550404629695
20
-25.7117851145455
30
0
41
1
10
327.551786707427
20
-25.6965886813014
30
0
41
1
10
327.55302900844
20
-25.6885664010888
30
0
41
1
10
327.556428844899
20
-25.6718153503687
30
0
41
1
10
327.558575785074
20
-25.6631531994731
30
0
41
1
10
327.563557184201
20
-25.6455384394753
30
0
41
1
10
327.566399025425
20
-25.6365545230316
30
0
41
1
10
327.5726862554
20
-25.6182825742094
30
0
41
1
10
327.576143791446
20
-25.6089656304771
30
0
41
1
10
327.58354639268
20
-25.5902008455657
30
0
41
1
10
327.587481021919
20
-25.5807754721037
30
0
41
1
10
327.599905559109
20
-25.5523851374537
30
0
41
1
10
327.609009839549
20
-25.5333070438349
30
0
41
1
10
327.628661740995
20
-25.4948880043345
30
0
41
1
10
327.639211392285
20
-25.4755466757466
30
0
41
1
10
327.650480947162
20
-25.4560769820827
30
0
0
SPLINE
5
19A
100
AcDbEntity
8
1
62
256
6
ByLayer
370
18
48
1
60
0
100
AcDbSpline
70
4
71
3
72
8
73
4
40
0
40
0
40
0
40
0
40
1
40
1
40
1
40
1
41
1
10
327.650480947162
20
-25.4560769820827
30
0
41
1
10
327.880211532645
20
-25.0591860512804
30
0
41
1
10
328.105152654041
20
-24.6587123242204
30
0
41
1
10
328.324759526419
20
-24.2542482702526
30
0
0
SPLINE
5
19B
100
AcDbEntity
8
1
62
256
6
ByLayer
370
18
48
1
60
0
100
AcDbSpline
70
4
71
3
72
8
73
4
40
0
40
0
40
0
40
0
40
1
40
1
40
1
40
1
41
1
10
328.324759526419
20
-23.9147796874403
30
0
41
1
10
328.10004293855
20
-24.1009918745286
30
0
41
1
10
327.87528177088
20
-24.2871322907612
30
0
41
1
10
327.650480947162
20
-24.4732088630914
30
0
0
SPLINE
5
19C
100
AcDbEntity
8
1
62
256
6
ByLayer
370
18
48
1
60
0
100
AcDbSpline
70
4
71
3
72
34
73
30
40
0
40
0
40
0
40
0
40
0.0625000000000139
40
0.0625000000000139
40
0.0937500000000215
40
0.0937500000000215
40
0.125000000000029
40
0.125000000000029
40
0.187500000000035
40
0.187500000000035
40
0.250000000000041
40
0.250000000000041
40
0.281250000000047
40
0.281250000000047
40
0.312500000000053
40
0.312500000000053
40
0.375000000000048
40
0.375000000000048
40
0.437500000000044
40
0.437500000000044
40
0.500000000000039
40
0.500000000000039
40
0.625000000000029
40
0.625000000000029
40
0.750000000000019
40
0.750000000000019
40
0.87500000000001
40
0.87500000000001
40
1
40
1
40
1
40
1
41
1
10
327.650480947162
20
-24.4732088630923
30
0
41
1
10
327.641610746045
20
-24.4805510809384
30
0
41
1
10
327.632717594853
20
-24.4870974260139
30
0
41
1
10
327.619328414583
20
-24.4952053949897
30
0
41
1
10
327.614948765932
20
-24.4975617119472
30
0
41
1
10
327.606376490094
20
-24.5014961459086
30
0
41
1
10
327.602156895126
20
-24.5030818509566
30
0
41
1
10
327.590005767027
20
-24.5064329261962
30
0
41
1
10
327.582819857639
20
-24.50675740049
30
0
41
1
10
327.570335823892
20
-24.5034485559455
30
0
41
1
10
327.565449926247
20
-24.4999293623084
30
0
41
1
10
327.559738856258
20
-24.4925438009568
30
0
41
1
10
327.558096977763
20
-24.4897010183205
30
0
41
1
10
327.555363676397
20
-24.4835186121857
30
0
41
1
10
327.554261456695
20
-24.4801742613041
30
0
41
1
10
327.551618606382
20
-24.4695040698853
30
0
41
1
10
327.55074024509
20
-24.4614886218092
30
0
41
1
10
327.550322100162
20
-24.4446421416497
30
0
41
1
10
327.550767880496
20
-24.4357693456112
30
0
41
1
10
327.552650600946
20
-24.4173396015764
30
0
41
1
10
327.554097560382
20
-24.407748304117
30
0
41
1
10
327.559624326733
20
-24.3783622980696
30
0
41
1
10
327.564840271178
20
-24.3580458003157
30
0
41
1
10
327.57746663017
20
-24.3164151731891
30
0
41
1
10
327.584781622077
20
-24.2954445124742
30
0
41
1
10
327.600983403359
20
-24.2532582502718
30
0
41
1
10
327.609876729726
20
-24.2320416953016
30
0
41
1
10
327.629096511696
20
-24.1893876202437
30
0
41
1
10
327.639424130324
20
-24.1679499081217
30
0
41
1
10
327.650480947162
20
-24.1464023848396
30
0
0
SPLINE
5
19D
100
AcDbEntity
8
1
62
256
6
ByLayer
370
18
48
1
60
0
100
AcDbSpline
70
4
71
3
72
8
73
4
40
0
40
0
40
0
40
0
40
1
40
1
40
1
40
1
41
1
10
327.650480947162
20
-24.1464023848396
30
0
41
1
10
327.882352997816
20
-23.6945301612787
30
0
41
1
10
328.107382666912
20
-23.2381665161971
30
0
41
1
10
328.324759526419
20
-22.7767794748912
30
0
0
SPLINE
5
19E
100
AcDbEntity
8
1
62
256
6
ByLayer
370
18
48
1
60
0
100
AcDbSpline
70
4
71
3
72
8
73
4
40
0
40
0
40
0
40
0
40
1
40
1
40
1
40
1
41
1
10
328.324759526419
20
-22.3514611989837
30
0
41
1
10
328.100191536751
20
-22.5453578173506
30
0
41
1
10
327.875423713527
20
-22.7389451074582
30
0
41
1
10
327.650480947162
20
-22.9322615979162
30
0
0
SPLINE
5
19F
100
AcDbEntity
8
1
62
256
6
ByLayer
370
18
48
1
60
0
100
AcDbSpline
70
4
71
3
72
39
73
35
40
0
40
0
40
0
40
0
40
0.0312499999999932
40
0.0312499999999932
40
0.0624999999999867
40
0.0624999999999867
40
0.09374999999998
40
0.09374999999998
40
0.124999999999973
40
0.124999999999973
40
0.156249999999967
40
0.156249999999967
40
0.18749999999996
40
0.18749999999996
40
0.218749999999954
40
0.218749999999954
40
0.249999999999947
40
0.249999999999947
40
0.28124999999994
40
0.28124999999994
40
0.312499999999934
40
0.312499999999934
40
0.374999999999931
40
0.374999999999931
40
0.499999999999926
40
0.499999999999926
40
0.56249999999993
40
0.56249999999993
40
0.624999999999934
40
0.624999999999934
40
0.749999999999956
40
0.749999999999956
40
0.874999999999978
40
1
40
1
40
1
40
1
41
1
10
327.650480947162
20
-22.932261597918
30
0
41
1
10
327.645659559596
20
-22.9364051129035
30
0
41
1
10
327.640801078904
20
-22.9402752725336
30
0
41
1
10
327.630992180374
20
-22.947336656015
30
0
41
1
10
327.626006027204
20
-22.9505447091669
30
0
41
1
10
327.616213206618
20
-22.9559198413893
30
0
41
1
10
327.611384546088
20
-22.9581090210066
30
0
41
1
10
327.601890289183
20
-22.9612844521533
30
0
41
1
10
327.597355810905
20
-22.9622204837452
30
0
41
1
10
327.588820720175
20
-22.9627189554139
30
0
41
1
10
327.584759371
20
-22.9622658825154
30
0
41
1
10
327.577453125654
20
-22.9600256025938
30
0
41
1
10
327.574191909539
20
-22.9582620751234
30
0
41
1
10
327.568356163976
20
-22.9536047091898
30
0
41
1
10
327.565807208947
20
-22.9507159173006
30
0
41
1
10
327.561457307646
20
-22.944216322145
30
0
41
1
10
327.559626662752
20
-22.9405816268441
30
0
41
1
10
327.556523269336
20
-22.9326866584442
30
0
41
1
10
327.555247510152
20
-22.9284035299872
30
0
41
1
10
327.55319751331
20
-22.9194434140329
30
0
41
1
10
327.552418485904
20
-22.9147636089492
30
0
41
1
10
327.550682498191
20
-22.9002343493949
30
0
41
1
10
327.550325735067
20
-22.8898556133685
30
0
41
1
10
327.550966789172
20
-22.8579922826173
30
0
41
1
10
327.553590221519
20
-22.835586687612
30
0
41
1
10
327.559524476594
20
-22.8009026027304
30
0
41
1
10
327.561860927053
20
-22.789113806189
30
0
41
1
10
327.567088729835
20
-22.7654205868506
30
0
41
1
10
327.569973709317
20
-22.7535355328583
30
0
41
1
10
327.579321527427
20
-22.7177809868877
30
0
41
1
10
327.58646953122
20
-22.6938130910537
30
0
41
1
10
327.602267862415
20
-22.6456594779338
30
0
41
1
10
327.619577003328
20
-22.5972869331207
30
0
41
1
10
327.639694160572
20
-22.5485106461847
30
0
41
1
10
327.650480947162
20
-22.5240203286135
30
0
0
SPLINE
5
1A0
100
AcDbEntity
8
1
62
256
6
ByLayer
370
18
48
1
60
0
100
AcDbSpline
70
4
71
3
72
8
73
4
40
0
40
0
40
0
40
0
40
1
40
1
40
1
40
1
41
1
10
327.650480947162
20
-22.5240203286135
30
0
41
1
10
327.886241901321
20
-21.9887487173422
30
0
41
1
10
328.111437539985
20
-21.4476285217346
30
0
41
1
10
328.324759526419
20
-20.8999354929284
30
0
0
SPLINE
5
1A1
100
AcDbEntity
8
1
62
256
6
ByLayer
370
18
48
1
60
0
100
AcDbSpline
70
4
71
3
72
8
73
4
40
0
40
0
40
0
40
0
40
1
40
1
40
1
40
1
41
1
10
328.324759526419
20
-20.3438916153448
30
0
41
1
10
328.100672937923
20
-20.5561625919072
30
0
41
1
10
327.875878259423
20
-20.7674293885324
30
0
41
1
10
327.650480947162
20
-20.9778415583032
30
0
0
SPLINE
5
1A2
100
AcDbEntity
8
1
62
256
6
ByLayer
370
18
48
1
60
0
100
AcDbSpline
70
4
71
3
72
39
73
35
40
0
40
0
40
0
40
0
40
0.0312499999999938
40
0.0312499999999938
40
0.0624999999999877
40
0.0624999999999877
40
0.0781249999999867
40
0.0781249999999867
40
0.0937499999999858
40
0.0937499999999858
40
0.124999999999985
40
0.124999999999985
40
0.156249999999984
40
0.156249999999984
40
0.187499999999984
40
0.187499999999984
40
0.218749999999983
40
0.218749999999983
40
0.249999999999982
40
0.249999999999982
40
0.281249999999981
40
0.281249999999981
40
0.312499999999981
40
0.312499999999981
40
0.374999999999979
40
0.374999999999979
40
0.499999999999983
40
0.499999999999983
40
0.624999999999988
40
0.624999999999988
40
0.749999999999992
40
0.749999999999992
40
0.874999999999996
40
1
40
1
40
1
40
1
41
1
10
327.650480947162
20
-20.9778415583049
30
0
41
1
10
327.645070573186
20
-20.9828922331163
30
0
41
1
10
327.639513106979
20
-20.9875792288373
30
0
41
1
10
327.628225225349
20
-20.9957597995137
30
0
41
1
10
327.622572736455
20
-20.9992033141719
30
0
41
1
10
327.614077225303
20
-21.0030918810384
30
0
41
1
10
327.611222335286
20
-21.0041768835953
30
0
41
1
10
327.605677702528
20
-21.00579678088
30
0
41
1
10
327.602973531995
20
-21.0063414516261
30
0
41
1
10
327.595073068045
20
-21.0071490225219
30
0
41
1
10
327.590031566255
20
-21.0065324890334
30
0
41
1
10
327.581193349521
20
-21.0032210025211
30
0
41
1
10
327.577280359417
20
-21.0005431411248
30
0
41
1
10
327.570434037439
20
-20.9936129589071
30
0
41
1
10
327.567567506173
20
-20.9894554602355
30
0
41
1
10
327.562642849808
20
-20.9801311836335
30
0
41
1
10
327.560603852079
20
-20.9749764931912
30
0
41
1
10
327.557229405652
20
-20.9641977522338
30
0
41
1
10
327.555875895449
20
-20.9585336597286
30
0
41
1
10
327.553672457203
20
-20.9467890170158
30
0
41
1
10
327.552823959493
20
-20.9407073042583
30
0
41
1
10
327.551532822405
20
-20.9282066799278
30
0
41
1
10
327.551090778585
20
-20.9217691865271
30
0
41
1
10
327.550280304693
20
-20.9022578233617
30
0
41
1
10
327.550409275107
20
-20.888933626274
30
0
41
1
10
327.552194406003
20
-20.8482913762712
30
0
41
1
10
327.555225580055
20
-20.8203143302208
30
0
41
1
10
327.56364088965
20
-20.7632072654731
30
0
41
1
10
327.568989094997
20
-20.7344845311726
30
0
41
1
10
327.581324248186
20
-20.6768917217863
30
0
41
1
10
327.588324868774
20
-20.6479991733814
30
0
41
1
10
327.603732419277
20
-20.5900484071946
30
0
41
1
10
327.620551977068
20
-20.5319314186676
30
0
41
1
10
327.640038964386
20
-20.4735017998071
30
0
41
1
10
327.650480947162
20
-20.4442074830623
30
0
0
SPLINE
5
1A3
100
AcDbEntity
8
1
62
256
6
ByLayer
370
18
48
1
60
0
100
AcDbSpline
70
4
71
3
72
8
73
4
40
0
40
0
40
0
40
0
40
1
40
1
40
1
40
1
41
1
10
327.650480947162
20
-20.4442074830623
30
0
41
1
10
327.895186418447
20
-19.7577018893114
30
0
41
1
10
328.120774732857
20
-19.0629544043437
30
0
41
1
10
328.324759526419
20
-18.358893093586
30
0
0
SPLINE
5
1A4
100
AcDbEntity
8
1
62
256
6
ByLayer
370
18
48
1
60
0
100
AcDbSpline
70
4
71
3
72
8
73
4
40
0
40
0
40
0
40
0
40
1
40
1
40
1
40
1
41
1
10
328.324759526419
20
-17.545435292281
30
0
41
1
10
328.102856207575
20
-17.8081293930665
30
0
41
1
10
327.87789393872
20
-18.067289478253
30
0
41
1
10
327.650480947162
20
-18.3236182349672
30
0
0
SPLINE
5
1A5
100
AcDbEntity
8
1
62
256
6
ByLayer
370
18
48
1
60
0
100
AcDbSpline
70
4
71
3
72
38
73
34
40
0
40
0
40
0
40
0
40
0.0312500000000162
40
0.0312500000000162
40
0.0468750000000243
40
0.0468750000000243
40
0.0625000000000324
40
0.0625000000000324
40
0.0781250000000405
40
0.0781250000000405
40
0.0937500000000486
40
0.0937500000000486
40
0.109375000000057
40
0.109375000000057
40
0.125000000000065
40
0.125000000000065
40
0.156250000000068
40
0.156250000000068
40
0.187500000000071
40
0.187500000000071
40
0.250000000000071
40
0.250000000000071
40
0.312500000000072
40
0.312500000000072
40
0.375000000000072
40
0.375000000000072
40
0.500000000000059
40
0.500000000000059
40
0.625000000000047
40
0.625000000000047
40
0.750000000000034
40
0.750000000000034
40
1
40
1
40
1
40
1
41
1
10
327.650480947163
20
-18.3236182349705
30
0
41
1
10
327.643984522043
20
-18.330940686352
30
0
41
1
10
327.637087099727
20
-18.3376812441221
30
0
41
1
10
327.626354747428
20
-18.3456807010566
30
0
41
1
10
327.622672786077
20
-18.3480197519197
30
0
41
1
10
327.615227174174
20
-18.3516964069812
30
0
41
1
10
327.611531397854
20
-18.3530045516319
30
0
41
1
10
327.604203715131
20
-18.3543660752698
30
0
41
1
10
327.600638398742
20
-18.3543893446795
30
0
41
1
10
327.593959541195
20
-18.3531406766523
30
0
41
1
10
327.590782123263
20
-18.3518479866929
30
0
41
1
10
327.58507026222
20
-18.3482820732699
30
0
41
1
10
327.582488099225
20
-18.346011336494
30
0
41
1
10
327.577753050436
20
-18.3407033141976
30
0
41
1
10
327.575612489275
20
-18.3376705393072
30
0
41
1
10
327.569849274635
20
-18.3279202867125
30
0
41
1
10
327.566789889396
20
-18.3204354378219
30
0
41
1
10
327.561775920044
20
-18.3047772034488
30
0
41
1
10
327.559797491318
20
-18.2965426252911
30
0
41
1
10
327.554893629213
20
-18.2710419424098
30
0
41
1
10
327.552983754743
20
-18.2528841812447
30
0
41
1
10
327.550722421526
20
-18.2163879167963
30
0
41
1
10
327.550369579247
20
-18.1978998584486
30
0
41
1
10
327.550648562
20
-18.1606122640511
30
0
41
1
10
327.551290415845
20
-18.1418097737327
30
0
41
1
10
327.5543116466
20
-18.0850476350127
30
0
41
1
10
327.557768451239
20
-18.0467387011074
30
0
41
1
10
327.566574464434
20
-17.9694791711
30
0
41
1
10
327.571943356467
20
-17.9305227713767
30
0
41
1
10
327.584191791777
20
-17.8520814043073
30
0
41
1
10
327.591049423945
20
-17.812771089896
30
0
41
1
10
327.613451439318
20
-17.6948596061425
30
0
41
1
10
327.630794068013
20
-17.6161561624276
30
0
41
1
10
327.650480947162
20
-17.5373639096824
30
0
0
SPLINE
5
1A6
100
AcDbEntity
8
1
62
256
6
ByLayer
370
18
48
1
60
0
100
AcDbSpline
70
4
71
3
72
8
73
4
40
0
40
0
40
0
40
0
40
1
40
1
40
1
40
1
41
1
10
327.650480947162
20
-17.5373639096824
30
0
41
1
10
327.936650314553
20
-16.3920361533963
30
0
41
1
10
328.164101740032
20
-15.2315551818875
30
0
41
1
10
328.324759526419
20
-14.0538369170454
30
0
0
SPLINE
5
1A7
100
AcDbEntity
8
1
62
256
6
ByLayer
370
18
48
1
60
0
100
AcDbSpline
70
4
71
3
72
10
73
6
40
0
40
0
40
0
40
0
40
0.5
40
0.5
40
1
40
1
40
1
40
1
41
1
10
328.324759526416
20
-11.5398356243625
30
0
41
1
10
328.253343637489
20
-11.9139477751526
30
0
41
1
10
328.158489259991
20
-12.278221155631
30
0
41
1
10
327.9309865447
20
-12.9909031523828
30
0
41
1
10
327.798334418939
20
-13.3393101785815
30
0
41
1
10
327.650480947162
20
-13.6813361383809
30
0
0
SPLINE
5
1A8
100
AcDbEntity
8
1
62
256
6
ByLayer
370
18
48
1
60
0
100
AcDbSpline
70
4
71
3
72
57
73
53
40
0
40
0
40
0
40
0
40
0.125000000000002
40
0.125000000000002
40
0.250000000000003
40
0.375000000000005
40
0.375000000000005
40
0.500000000000007
40
0.500000000000007
40
0.625000000000008
40
0.625000000000008
40
0.687500000000009
40
0.687500000000009
40
0.75000000000001
40
0.75000000000001
40
0.812500000000011
40
0.812500000000011
40
0.875000000000012
40
0.875000000000012
40
0.906250000000013
40
0.906250000000013
40
0.921875000000013
40
0.921875000000013
40
0.937500000000014
40
0.937500000000014
40
0.945312500000014
40
0.945312500000014
40
0.953125000000015
40
0.953125000000015
40
0.960937500000015
40
0.960937500000015
40
0.964843750000015
40
0.964843750000015
40
0.968750000000014
40
0.968750000000014
40
0.972656250000014
40
0.972656250000014
40
0.976562500000013
40
0.976562500000013
40
0.978515625000012
40
0.978515625000012
40
0.980468750000011
40
0.980468750000011
40
0.98242187500001
40
0.98242187500001
40
0.984375000000009
40
0.984375000000009
40
0.988281250000007
40
0.988281250000007
40
0.992187500000005
40
0.992187500000005
40
1
40
1
40
1
40
1
41
1
10
327.650480947162
20
-10.205522419
30
0
41
1
10
327.649474914009
20
-10.3574271769193
30
0
41
1
10
327.647352403027
20
-10.5093180664367
30
0
41
1
10
327.641079448038
20
-10.8130710423118
30
0
41
1
10
327.632780577668
20
-11.1167952044883
30
0
41
1
10
327.621220285853
20
-11.4204575654211
30
0
41
1
10
327.608599227804
20
-11.7240859621446
30
0
41
1
10
327.601754923346
20
-11.8758831988398
30
0
41
1
10
327.587790157286
20
-12.1794394073714
30
0
41
1
10
327.580656945612
20
-12.3311984523901
30
0
41
1
10
327.570656270951
20
-12.5588032531967
30
0
41
1
10
327.567443146172
20
-12.6346658696462
30
0
41
1
10
327.561508805656
20
-12.7863783833761
30
0
41
1
10
327.558783648494
20
-12.8622523268605
30
0
41
1
10
327.554227791731
20
-13.0136019223509
30
0
41
1
10
327.552384521753
20
-13.0891179173144
30
0
41
1
10
327.550304819929
20
-13.2396945593892
30
0
41
1
10
327.550017507499
20
-13.3147647400512
30
0
41
1
10
327.552116127572
20
-13.4267806190288
30
0
41
1
10
327.553241725102
20
-13.4640201769341
30
0
41
1
10
327.556066196098
20
-13.5196378252079
30
0
41
1
10
327.557199844787
20
-13.5381362328725
30
0
41
1
10
327.560032561575
20
-13.5750175061783
30
0
41
1
10
327.561724621638
20
-13.5934016846362
30
0
41
1
10
327.564962866512
20
-13.6208395754209
30
0
41
1
10
327.566160648091
20
-13.6299621625665
30
0
41
1
10
327.568892543204
20
-13.6481419259789
30
0
41
1
10
327.570429233634
20
-13.6572270190123
30
0
41
1
10
327.574003223349
20
-13.6751703894973
30
0
41
1
10
327.576022559128
20
-13.6839805680882
30
0
41
1
10
327.579665375541
20
-13.6967730446329
30
0
41
1
10
327.580983473112
20
-13.7009657012892
30
0
41
1
10
327.583925806698
20
-13.7091409632554
30
0
41
1
10
327.585555704597
20
-13.7131368749339
30
0
41
1
10
327.589214864265
20
-13.7205931909006
30
0
41
1
10
327.591242911041
20
-13.7240819785356
30
0
41
1
10
327.596024190781
20
-13.73018722526
30
0
41
1
10
327.598791925149
20
-13.7327925503758
30
0
41
1
10
327.603585192061
20
-13.7350281309347
30
0
41
1
10
327.605238544653
20
-13.7354690473373
30
0
41
1
10
327.608667422955
20
-13.7356829062866
30
0
41
1
10
327.61045752744
20
-13.7354403300264
30
0
41
1
10
327.613936585578
20
-13.7343332398526
30
0
41
1
10
327.615671884936
20
-13.7334622820268
30
0
41
1
10
327.61899339339
20
-13.7312884449784
30
0
41
1
10
327.620581409002
20
-13.7299941203648
30
0
41
1
10
327.625186557665
20
-13.7256584506802
30
0
41
1
10
327.628021131566
20
-13.7221900981293
30
0
41
1
10
327.633249794904
20
-13.7148524882745
30
0
41
1
10
327.635679061346
20
-13.7109333194384
30
0
41
1
10
327.642616772462
20
-13.6987033345008
30
0
41
1
10
327.646685962344
20
-13.6901149875285
30
0
41
1
10
327.650480947162
20
-13.6813361383809
30
0
0
SPLINE
5
1A9
100
AcDbEntity
8
1
62
256
6
ByLayer
370
18
48
1
60
0
100
AcDbSpline
70
4
71
3
72
8
73
4
40
0
40
0
40
0
40
0
40
1
40
1
40
1
40
1
41
1
10
327.650480947162
20
-10.205522419
30
0
41
1
10
327.651388368233
20
-10.068507473
30
0
41
1
10
327.651388368233
20
-9.93149252700005
30
0
41
1
10
327.650480947162
20
-9.79447758100005
30
0
0
SPLINE
5
1AA
100
AcDbEntity
8
1
62
256
6
ByLayer
370
18
48
1
60
0
100
AcDbSpline
70
4
71
3
72
59
73
55
40
0
40
0
40
0
40
0
40
0.125000000000002
40
0.125000000000002
40
0.250000000000003
40
0.375000000000005
40
0.375000000000005
40
0.500000000000007
40
0.500000000000007
40
0.625000000000009
40
0.625000000000009
40
0.68750000000001
40
0.68750000000001
40
0.75000000000001
40
0.75000000000001
40
0.812500000000011
40
0.812500000000011
40
0.843750000000011
40
0.843750000000011
40
0.875000000000012
40
0.875000000000012
40
0.906250000000012
40
0.906250000000012
40
0.921875000000012
40
0.921875000000012
40
0.937500000000013
40
0.937500000000013
40
0.945312500000012
40
0.945312500000012
40
0.953125000000012
40
0.953125000000012
40
0.960937500000012
40
0.960937500000012
40
0.964843750000011
40
0.964843750000011
40
0.968750000000011
40
0.968750000000011
40
0.97265625000001
40
0.97265625000001
40
0.97656250000001
40
0.97656250000001
40
0.97851562500001
40
0.97851562500001
40
0.98046875000001
40
0.98046875000001
40
0.982421875000009
40
0.982421875000009
40
0.984375000000009
40
0.984375000000009
40
0.988281250000007
40
0.988281250000007
40
0.992187500000004
40
0.992187500000004
40
1
40
1
40
1
40
1
41
1
10
327.650480947162
20
-9.79447758100005
30
0
41
1
10
327.649474529164
20
-9.64251471388258
30
0
41
1
10
327.647350571744
20
-9.49053796568234
30
0
41
1
10
327.641070593963
20
-9.18655560662032
30
0
41
1
10
327.632760419544
20
-8.88254437671853
30
0
41
1
10
327.621178756172
20
-8.57847113587968
30
0
41
1
10
327.608531759673
20
-8.27436377042352
30
0
41
1
10
327.601672191192
20
-8.12229304533943
30
0
41
1
10
327.587676377915
20
-7.81811307991211
30
0
41
1
10
327.580530180473
20
-7.66605426235319
30
0
41
1
10
327.570536139854
20
-7.43839190151618
30
0
41
1
10
327.567328862803
20
-7.362560922667
30
0
41
1
10
327.561413484972
20
-7.21103091425255
30
0
41
1
10
327.558701689912
20
-7.1353316018706
30
0
41
1
10
327.554167978853
20
-6.98409466407693
30
0
41
1
10
327.552334555853
20
-6.90855615929888
30
0
41
1
10
327.550799054594
20
-6.795411453675
30
0
41
1
10
327.550492739192
20
-6.75772396309014
30
0
41
1
10
327.550469812771
20
-6.68241745721349
30
0
41
1
10
327.550750183482
20
-6.6447611334475
30
0
41
1
10
327.552208755407
20
-6.56976737828589
30
0
41
1
10
327.553373181025
20
-6.53242702314452
30
0
41
1
10
327.556275212278
20
-6.4768010927954
30
0
41
1
10
327.557437968645
20
-6.45832406569221
30
0
41
1
10
327.560336644401
20
-6.42155428916453
30
0
41
1
10
327.562065629678
20
-6.40325947003944
30
0
41
1
10
327.565365531574
20
-6.37603795457704
30
0
41
1
10
327.566584913132
20
-6.36700140207387
30
0
41
1
10
327.569361551694
20
-6.34903242569217
30
0
41
1
10
327.570921073671
20
-6.34008083847726
30
0
41
1
10
327.574516938715
20
-6.32254623548275
30
0
41
1
10
327.576547962152
20
-6.3139400365707
30
0
41
1
10
327.58021552862
20
-6.30145618741182
30
0
41
1
10
327.581543102687
20
-6.29736686038103
30
0
41
1
10
327.584510409302
20
-6.28940126076265
30
0
41
1
10
327.586161611328
20
-6.28549603561797
30
0
41
1
10
327.589888240219
20
-6.27822223260515
30
0
41
1
10
327.591955510826
20
-6.27483725148849
30
0
41
1
10
327.59684579735
20
-6.26899837969751
30
0
41
1
10
327.599637337106
20
-6.26661628239307
30
0
41
1
10
327.604411839463
20
-6.26472938390177
30
0
41
1
10
327.606061767277
20
-6.26439804135342
30
0
41
1
10
327.609492008733
20
-6.26439900739581
30
0
41
1
10
327.611227428267
20
-6.26473772151385
30
0
41
1
10
327.61463552521
20
-6.26599300532956
30
0
41
1
10
327.616332222931
20
-6.26692035388575
30
0
41
1
10
327.619554834059
20
-6.26915176461216
30
0
41
1
10
327.621102908113
20
-6.27046166889056
30
0
41
1
10
327.62560527577
20
-6.27482664274479
30
0
41
1
10
327.628363216431
20
-6.27825235515655
30
0
41
1
10
327.633516183583
20
-6.28556367863084
30
0
41
1
10
327.635914818984
20
-6.28946373851636
30
0
41
1
10
327.642693644436
20
-6.30147160711709
30
0
41
1
10
327.646722359183
20
-6.30996920842156
30
0
41
1
10
327.650480947162
20
-6.31866386161758
30
0
0
SPLINE
5
1AB
100
AcDbEntity
8
1
62
256
6
ByLayer
370
18
48
1
60
0
100
AcDbSpline
70
4
71
3
72
10
73
6
40
0
40
0
40
0
40
0
40
0.5
40
0.5
40
1
40
1
40
1
40
1
41
1
10
327.650480947161
20
-6.31866386161781
30
0
41
1
10
327.798334418938
20
-6.66068982141727
30
0
41
1
10
327.9309865447
20
-7.00909684761604
30
0
41
1
10
328.158489259991
20
-7.72177884436803
30
0
41
1
10
328.253343637489
20
-8.08605222484655
30
0
41
1
10
328.324759526416
20
-8.46016437563668
30
0
0
SPLINE
5
1AC
100
AcDbEntity
8
1
62
256
6
ByLayer
370
18
48
1
60
0
100
AcDbSpline
70
4
71
3
72
8
73
4
40
0
40
0
40
0
40
0
40
1
40
1
40
1
40
1
41
1
10
328.324759526419
20
-5.94616308295466
30
0
41
1
10
328.164101740032
20
-4.76844481811253
30
0
41
1
10
327.936650314553
20
-3.60796384660381
30
0
41
1
10
327.650480947162
20
-2.46263609031763
30
0
0
SPLINE
5
1AD
100
AcDbEntity
8
1
62
256
6
ByLayer
370
18
48
1
60
0
100
AcDbSpline
70
4
71
3
72
42
73
38
40
0
40
0
40
0
40
0
40
0.249999999999997
40
0.249999999999997
40
0.374999999999995
40
0.374999999999995
40
0.499999999999993
40
0.499999999999993
40
0.624999999999992
40
0.624999999999992
40
0.687499999999991
40
0.687499999999991
40
0.74999999999999
40
0.74999999999999
40
0.781249999999991
40
0.781249999999991
40
0.812499999999993
40
0.812499999999993
40
0.843749999999995
40
0.843749999999995
40
0.859374999999995
40
0.859374999999995
40
0.874999999999996
40
0.874999999999996
40
0.890624999999997
40
0.890624999999997
40
0.906249999999997
40
0.906249999999997
40
0.921874999999998
40
0.921874999999998
40
0.937499999999998
40
0.937499999999998
40
0.953124999999999
40
0.953124999999999
40
0.96875
40
0.96875
40
1
40
1
40
1
40
1
41
1
10
327.650480947161
20
-2.46263609031763
30
0
41
1
10
327.63076897837
20
-2.38374342198765
30
0
41
1
10
327.61346059995
20
-2.30515161245054
30
0
41
1
10
327.591140780514
20
-2.18772813901859
30
0
41
1
10
327.584320719394
20
-2.14866538433574
30
0
41
1
10
327.572124668301
20
-2.07071528977744
30
0
41
1
10
327.566742521326
20
-2.03182742474851
30
0
41
1
10
327.557864378318
20
-1.95426583454307
30
0
41
1
10
327.55434285781
20
-1.91555991202588
30
0
41
1
10
327.551271377319
20
-1.85782193812685
30
0
41
1
10
327.550630005146
20
-1.83876913559422
30
0
41
1
10
327.550377159459
20
-1.80117361476147
30
0
41
1
10
327.550757044975
20
-1.78262685807866
30
0
41
1
10
327.552486535079
20
-1.75537015998435
30
0
41
1
10
327.553258656099
20
-1.74637959712325
30
0
41
1
10
327.555324288495
20
-1.72864928315113
30
0
41
1
10
327.556619146011
20
-1.71988676742367
30
0
41
1
10
327.559941779673
20
-1.7028126972491
30
0
41
1
10
327.56194845637
20
-1.69458252456087
30
0
41
1
10
327.565733288872
20
-1.68292090445706
30
0
41
1
10
327.567125496084
20
-1.6791489091857
30
0
41
1
10
327.570248978874
20
-1.67190312646392
30
0
41
1
10
327.571992418154
20
-1.66840940142942
30
0
41
1
10
327.575857623531
20
-1.66196500766458
30
0
41
1
10
327.577978928924
20
-1.65900519934689
30
0
41
1
10
327.582717557109
20
-1.6537735854227
30
0
41
1
10
327.58536880188
20
-1.65148330072833
30
0
41
1
10
327.591140283969
20
-1.64798249460651
30
0
41
1
10
327.594278886941
20
-1.64675345901992
30
0
41
1
10
327.601038610781
20
-1.64558719135204
30
0
41
1
10
327.604547324229
20
-1.64566420153429
30
0
41
1
10
327.611812347963
20
-1.64708423701654
30
0
41
1
10
327.615579957294
20
-1.64845010732932
30
0
41
1
10
327.622949675614
20
-1.6521471409545
30
0
41
1
10
327.626634528599
20
-1.6545067626318
30
0
41
1
10
327.637401170667
20
-1.6625976744088
30
0
41
1
10
327.644079218297
20
-1.66916605062059
30
0
41
1
10
327.650480947162
20
-1.6763817650328
30
0
0
SPLINE
5
1AE
100
AcDbEntity
8
1
62
256
6
ByLayer
370
18
48
1
60
0
100
AcDbSpline
70
4
71
3
72
8
73
4
40
0
40
0
40
0
40
0
40
1
40
1
40
1
40
1
41
1
10
327.650480947162
20
-1.67638176503283
30
0
41
1
10
327.877893938717
20
-1.93271052174381
30
0
41
1
10
328.102856207569
20
-2.19187060692698
30
0
41
1
10
328.324759526411
20
-2.4545647077091
30
0
0
SPLINE
5
1AF
100
AcDbEntity
8
1
62
256
6
ByLayer
370
18
48
1
60
0
100
AcDbSpline
70
4
71
3
72
8
73
4
40
0
40
0
40
0
40
0
40
1
40
1
40
1
40
1
41
1
10
328.324759526419
20
-1.64110690641399
30
0
41
1
10
328.120774732857
20
-0.937045595656372
30
0
41
1
10
327.895186418447
20
-0.242298110688637
30
0
41
1
10
327.650480947162
20
0.4442074830622
30
0
0
SPLINE
5
1B0
100
AcDbEntity
8
1
62
256
6
ByLayer
370
18
48
1
60
0
100
AcDbSpline
70
4
71
3
72
40
73
36
40
0
40
0
40
0
40
0
40
0.125000000000005
40
0.125000000000005
40
0.25000000000001
40
0.25000000000001
40
0.375000000000015
40
0.375000000000015
40
0.50000000000002
40
0.50000000000002
40
0.562500000000019
40
0.562500000000019
40
0.625000000000019
40
0.625000000000019
40
0.687500000000019
40
0.687500000000019
40
0.750000000000019
40
0.750000000000019
40
0.781250000000014
40
0.781250000000014
40
0.81250000000001
40
0.81250000000001
40
0.843750000000005
40
0.843750000000005
40
0.875000000000001
40
0.875000000000001
40
0.906249999999996
40
0.906249999999996
40
0.921874999999994
40
0.921874999999994
40
0.937499999999992
40
0.937499999999992
40
0.968749999999996
40
0.968749999999996
40
1
40
1
40
1
40
1
41
1
10
327.650480947162
20
0.4442074830622
30
0
41
1
10
327.640025010736
20
0.473540945882718
30
0
41
1
10
327.630210989745
20
0.502967307644553
30
0
41
1
10
327.611958545041
20
0.561600232284519
30
0
41
1
10
327.603523410692
20
0.590786552844975
30
0
41
1
10
327.588102337403
20
0.648885492816532
30
0
41
1
10
327.581113785878
20
0.677798545211886
30
0
41
1
10
327.5688291768
20
0.735309330632276
30
0
41
1
10
327.56352332279
20
0.76390865542416
30
0
41
1
10
327.557268698593
20
0.806499146669609
30
0
41
1
10
327.555468305322
20
0.820682296395375
30
0
41
1
10
327.552619223369
20
0.848611340732447
30
0
41
1
10
327.551563972929
20
0.86238012842739
30
0
41
1
10
327.550399909878
20
0.889421473284159
30
0
41
1
10
327.550285829804
20
0.902696683689243
30
0
41
1
10
327.55138586223
20
0.928558505209764
30
0
41
1
10
327.552608640832
20
0.941233130269012
30
0
41
1
10
327.555948456209
20
0.958860823058274
30
0
41
1
10
327.557314290988
20
0.964518541280142
30
0
41
1
10
327.560709973981
20
0.975262942648982
30
0
41
1
10
327.562757184409
20
0.980388168151336
30
0
41
1
10
327.567691285185
20
0.989647309683932
30
0
41
1
10
327.570555797839
20
0.993760395916951
30
0
41
1
10
327.57735811212
20
1.0005969404051
30
0
41
1
10
327.581328265331
20
1.00329955266867
30
0
41
1
10
327.590209516905
20
1.00657015800479
30
0
41
1
10
327.595238130169
20
1.00715473388277
30
0
41
1
10
327.603144568994
20
1.00631212420967
30
0
41
1
10
327.605853809948
20
1.00575588771423
30
0
41
1
10
327.611415566325
20
1.00410914666765
30
0
41
1
10
327.614249175209
20
1.00302066552027
30
0
41
1
10
327.622685087213
20
0.999136285347788
30
0
41
1
10
327.628307688267
20
0.99570468914564
30
0
41
1
10
327.639550729521
20
0.987547260725137
30
0
41
1
10
327.645089621271
20
0.98287445140997
30
0
41
1
10
327.650480947162
20
0.977841558304874
30
0
0
SPLINE
5
1B1
100
AcDbEntity
8
1
62
256
6
ByLayer
370
18
48
1
60
0
100
AcDbSpline
70
4
71
3
72
8
73
4
40
0
40
0
40
0
40
0
40
1
40
1
40
1
40
1
41
1
10
327.650480947162
20
0.97784155830314
30
0
41
1
10
327.875878259423
20
0.767429388532378
30
0
41
1
10
328.100672937923
20
0.556162591907139
30
0
41
1
10
328.324759526419
20
0.343891615344774
30
0
0
SPLINE
5
1B2
100
AcDbEntity
8
1
62
256
6
ByLayer
370
18
48
1
60
0
100
AcDbSpline
70
4
71
3
72
8
73
4
40
0
40
0
40
0
40
0
40
1
40
1
40
1
40
1
41
1
10
328.324759526419
20
0.899935492928364
30
0
41
1
10
328.111437539985
20
1.4476285217346
30
0
41
1
10
327.886241901321
20
1.98874871734219
30
0
41
1
10
327.650480947162
20
2.52402032861346
30
0
0
SPLINE
5
1B3
100
AcDbEntity
8
1
62
256
6
ByLayer
370
18
48
1
60
0
100
AcDbSpline
70
4
71
3
72
40
73
36
40
0
40
0
40
0
40
0
40
0.124999999999994
40
0.124999999999994
40
0.249999999999989
40
0.249999999999989
40
0.374999999999983
40
0.374999999999983
40
0.499999999999977
40
0.499999999999977
40
0.562499999999976
40
0.562499999999976
40
0.624999999999976
40
0.624999999999976
40
0.687499999999975
40
0.687499999999975
40
0.718749999999977
40
0.718749999999977
40
0.74999999999998
40
0.74999999999998
40
0.781249999999982
40
0.781249999999982
40
0.812499999999985
40
0.812499999999985
40
0.843749999999987
40
0.843749999999987
40
0.87499999999999
40
0.87499999999999
40
0.906249999999992
40
0.906249999999992
40
0.937499999999995
40
0.937499999999995
40
0.968749999999997
40
0.968749999999997
40
1
40
1
40
1
40
1
41
1
10
327.650480947162
20
2.52402032861346
30
0
41
1
10
327.639690471916
20
2.54851902090937
30
0
41
1
10
327.629613916005
20
2.57294865548877
30
0
41
1
10
327.610849297583
20
2.62166893814194
30
0
41
1
10
327.602160592807
20
2.64595966229561
30
0
41
1
10
327.586289625029
20
2.6943887125299
30
0
41
1
10
327.579096154492
20
2.71855252249159
30
0
41
1
10
327.566584682111
20
2.76659241475653
30
0
41
1
10
327.561339273704
20
2.79015656612427
30
0
41
1
10
327.555481361028
20
2.82460605543008
30
0
41
1
10
327.553867302615
20
2.83593824799172
30
0
41
1
10
327.551487852271
20
2.85822714870946
30
0
41
1
10
327.550718615151
20
2.86923965219526
30
0
41
1
10
327.550336211257
20
2.89048928224679
30
0
41
1
10
327.550714779598
20
2.90067875148344
30
0
41
1
10
327.552465551096
20
2.915065565048
30
0
41
1
10
327.553248182532
20
2.91971019776577
30
0
41
1
10
327.555309097648
20
2.92862485016838
30
0
41
1
10
327.556593904736
20
2.93290109950462
30
0
41
1
10
327.559717301251
20
2.94077561669531
30
0
41
1
10
327.561559358519
20
2.94440024947429
30
0
41
1
10
327.565937706079
20
2.95087774233281
30
0
41
1
10
327.568504767017
20
2.95375190251823
30
0
41
1
10
327.574349248947
20
2.95835750704182
30
0
41
1
10
327.577621102576
20
2.96010347271039
30
0
41
1
10
327.584977180313
20
2.96230488223375
30
0
41
1
10
327.589008029016
20
2.9627276846837
30
0
41
1
10
327.597554413792
20
2.96218830663898
30
0
41
1
10
327.602165047507
20
2.96121031139938
30
0
41
1
10
327.61156352127
20
2.95803052781361
30
0
41
1
10
327.616343834585
20
2.95585324386116
30
0
41
1
10
327.626039774226
20
2.95052099647526
30
0
41
1
10
327.630992916634
20
2.94733636270502
30
0
41
1
10
327.640809613647
20
2.9402688914594
30
0
41
1
10
327.64566607499
20
2.93639951355365
30
0
41
1
10
327.650480947162
20
2.93226159791712
30
0
0
SPLINE
5
1B4
100
AcDbEntity
8
1
62
256
6
ByLayer
370
18
48
1
60
0
100
AcDbSpline
70
4
71
3
72
8
73
4
40
0
40
0
40
0
40
0
40
1
40
1
40
1
40
1
41
1
10
327.650480947162
20
2.93226159791615
30
0
41
1
10
327.875423713527
20
2.73894510745819
30
0
41
1
10
328.100191536751
20
2.54535781735058
30
0
41
1
10
328.324759526419
20
2.35146119898369
30
0
0
SPLINE
5
1B5
100
AcDbEntity
8
1
62
256
6
ByLayer
370
18
48
1
60
0
100
AcDbSpline
70
4
71
3
72
8
73
4
40
0
40
0
40
0
40
0
40
1
40
1
40
1
40
1
41
1
10
328.324759526419
20
2.77677947489116
30
0
41
1
10
328.107382666912
20
3.23816651619706
30
0
41
1
10
327.882352997816
20
3.69453016127872
30
0
41
1
10
327.650480947162
20
4.14640238483955
30
0
0
SPLINE
5
1B6
100
AcDbEntity
8
1
62
256
6
ByLayer
370
18
48
1
60
0
100
AcDbSpline
70
4
71
3
72
40
73
36
40
0
40
0
40
0
40
0
40
0.125000000000009
40
0.125000000000009
40
0.250000000000017
40
0.250000000000017
40
0.375000000000026
40
0.375000000000026
40
0.437500000000026
40
0.437500000000026
40
0.500000000000027
40
0.500000000000027
40
0.562500000000027
40
0.562500000000027
40
0.625000000000028
40
0.625000000000028
40
0.687500000000028
40
0.687500000000028
40
0.718750000000025
40
0.718750000000025
40
0.750000000000022
40
0.750000000000022
40
0.781250000000019
40
0.781250000000019
40
0.812500000000016
40
0.812500000000016
40
0.843750000000012
40
0.843750000000012
40
0.875000000000009
40
0.875000000000009
40
0.937500000000002
40
0.937500000000002
40
0.968750000000001
40
0.968750000000001
40
1
40
1
40
1
40
1
41
1
10
327.650480947162
20
4.14640238483955
30
0
41
1
10
327.639414958228
20
4.16796778270182
30
0
41
1
10
327.629040809078
20
4.1894982781842
30
0
41
1
10
327.609683150239
20
4.23248443205551
30
0
41
1
10
327.600665700982
20
4.25403048225789
30
0
41
1
10
327.584409180772
20
4.29647166063836
30
0
41
1
10
327.577153956557
20
4.31737839548009
30
0
41
1
10
327.56784509696
20
4.34817408247093
30
0
41
1
10
327.565006721944
20
4.35834447277094
30
0
41
1
10
327.55994833633
20
4.37846448887726
30
0
41
1
10
327.557723039423
20
4.38843673902429
30
0
41
1
10
327.554054354314
20
4.40801378137994
30
0
41
1
10
327.552625671844
20
4.4175304795215
30
0
41
1
10
327.550759790623
20
4.43590263268726
30
0
41
1
10
327.550318779816
20
4.44476057189613
30
0
41
1
10
327.550749497916
20
4.46160565458783
30
0
41
1
10
327.551636822927
20
4.46961043770679
30
0
41
1
10
327.554281873644
20
4.48024000518276
30
0
41
1
10
327.555383473851
20
4.48357031541414
30
0
41
1
10
327.55811068237
20
4.48972500719628
30
0
41
1
10
327.559751087798
20
4.49256724841072
30
0
41
1
10
327.5635955558
20
4.4975235357781
30
0
41
1
10
327.565792502249
20
4.49963974055274
30
0
41
1
10
327.570810054821
20
4.50305244188468
30
0
41
1
10
327.573662929114
20
4.50435108560654
30
0
41
1
10
327.579852338377
20
4.50594893745298
30
0
41
1
10
327.583198210382
20
4.50626627341151
30
0
41
1
10
327.59039654148
20
4.50593180130374
30
0
41
1
10
327.594295692839
20
4.50526513931649
30
0
41
1
10
327.606418497699
20
4.50187462243764
30
0
41
1
10
327.61493133613
20
4.4978669254721
30
0
41
1
10
327.628201605806
20
4.48983271770783
30
0
41
1
10
327.632697891773
20
4.48681559981952
30
0
41
1
10
327.641605111237
20
4.48034788222927
30
0
41
1
10
327.646047713552
20
4.47687842666696
30
0
41
1
10
327.650480947162
20
4.47320886309191
30
0
0
SPLINE
5
1B7
100
AcDbEntity
8
1
62
256
6
ByLayer
370
18
48
1
60
0
100
AcDbSpline
70
4
71
3
72
8
73
4
40
0
40
0
40
0
40
0
40
1
40
1
40
1
40
1
41
1
10
327.650480947162
20
4.47320886309134
30
0
41
1
10
327.87528177088
20
4.28713229076112
30
0
41
1
10
328.10004293855
20
4.10099187452855
30
0
41
1
10
328.324759526419
20
3.91477968744025
30
0
0
SPLINE
5
1B8
100
AcDbEntity
8
1
62
256
6
ByLayer
370
18
48
1
60
0
100
AcDbSpline
70
4
71
3
72
8
73
4
40
0
40
0
40
0
40
0
40
1
40
1
40
1
40
1
41
1
10
328.324759526419
20
4.25424827025262
30
0
41
1
10
328.105152654041
20
4.65871232422029
30
0
41
1
10
327.880211532645
20
5.05918605128042
30
0
41
1
10
327.650480947162
20
5.45607698208264
30
0
0
SPLINE
5
1B9
100
AcDbEntity
8
1
62
256
6
ByLayer
370
18
48
1
60
0
100
AcDbSpline
70
4
71
3
72
39
73
35
40
0
40
0
40
0
40
0
40
0.124999999999993
40
0.124999999999993
40
0.249999999999987
40
0.249999999999987
40
0.37499999999998
40
0.37499999999998
40
0.437499999999977
40
0.437499999999977
40
0.499999999999974
40
0.499999999999974
40
0.562499999999971
40
0.562499999999971
40
0.59374999999997
40
0.59374999999997
40
0.624999999999968
40
0.624999999999968
40
0.687499999999973
40
0.687499999999973
40
0.718749999999975
40
0.718749999999975
40
0.749999999999977
40
0.749999999999977
40
0.78124999999998
40
0.78124999999998
40
0.812499999999982
40
0.843749999999985
40
0.843749999999985
40
0.874999999999987
40
0.874999999999987
40
0.937499999999994
40
0.937499999999994
40
1
40
1
40
1
40
1
41
1
10
327.650480947162
20
5.45607698208264
30
0
41
1
10
327.639193035731
20
5.4755783891984
30
0
41
1
10
327.628590160519
20
5.4950150973001
30
0
41
1
10
327.608789608101
20
5.53375062746213
30
0
41
1
10
327.59955440175
20
5.55313947700202
30
0
41
1
10
327.582996045851
20
5.59107385690263
30
0
41
1
10
327.575636447461
20
5.60966836473975
30
0
41
1
10
327.566297083473
20
5.63687161685519
30
0
41
1
10
327.563469944102
20
5.64582357961399
30
0
41
1
10
327.558498129876
20
5.66345193270669
30
0
41
1
10
327.556355985995
20
5.67213388797367
30
0
41
1
10
327.552992495483
20
5.68878807280072
30
0
41
1
10
327.551755667217
20
5.69680549306739
30
0
41
1
10
327.550731607718
20
5.70825524651522
30
0
41
1
10
327.550529643809
20
5.7119751829311
30
0
41
1
10
327.550447718715
20
5.71919226421593
30
0
41
1
10
327.550569803588
20
5.72270314484618
30
0
41
1
10
327.551489172924
20
5.73267679605326
30
0
41
1
10
327.552823866437
20
5.73862663805801
30
0
41
1
10
327.556235634613
20
5.74619142979077
30
0
41
1
10
327.557622786118
20
5.74849727296285
30
0
41
1
10
327.560888621489
20
5.75248002392547
30
0
41
1
10
327.562763444322
20
5.75416222656173
30
0
41
1
10
327.567039967856
20
5.75685464573058
30
0
41
1
10
327.569461523802
20
5.75786914462262
30
0
41
1
10
327.574799687778
20
5.75912806095909
30
0
41
1
10
327.580568003688
20
5.75961474161289
30
0
41
1
10
327.587174135165
20
5.75860055353351
30
0
41
1
10
327.594197904459
20
5.75683961489435
30
0
41
1
10
327.597925489672
20
5.75557648566795
30
0
41
1
10
327.609307892352
20
5.75086724815324
30
0
41
1
10
327.617324482498
20
5.74646331417793
30
0
41
1
10
327.63384879861
20
5.73572462149968
30
0
41
1
10
327.642150093394
20
5.72953411366777
30
0
41
1
10
327.650480947162
20
5.7227274845176
30
0
0
SPLINE
5
1BA
100
AcDbEntity
8
1
62
256
6
ByLayer
370
18
48
1
60
0
100
AcDbSpline
70
4
71
3
72
8
73
4
40
0
40
0
40
0
40
0
40
1
40
1
40
1
40
1
41
1
10
327.650480947162
20
5.72272748451726
30
0
41
1
10
327.875242279349
20
5.53908879894846
30
0
41
1
10
328.10000187134
20
5.35544727349568
30
0
41
1
10
328.324759526419
20
5.17180258736579
30
0
0
SPLINE
5
1BB
100
AcDbEntity
8
1
62
256
6
ByLayer
370
18
48
1
60
0
100
AcDbSpline
70
4
71
3
72
8
73
4
40
0
40
0
40
0
40
0
40
1
40
1
40
1
40
1
41
1
10
328.324759526419
20
5.44736526887351
30
0
41
1
10
328.103764009202
20
5.81055984951601
30
0
41
1
10
327.878876276632
20
6.17051494165847
30
0
41
1
10
327.650480947162
20
6.52755066300918
30
0
0
SPLINE
5
1BC
100
AcDbEntity
8
1
62
256
6
ByLayer
370
18
48
1
60
0
100
AcDbSpline
70
4
71
3
72
41
73
37
40
0
40
0
40
0
40
0
40
0.125000000000003
40
0.125000000000003
40
0.187500000000003
40
0.187500000000003
40
0.250000000000003
40
0.250000000000003
40
0.374999999999997
40
0.374999999999997
40
0.437499999999998
40
0.437499999999998
40
0.499999999999998
40
0.499999999999998
40
0.562499999999999
40
0.562499999999999
40
0.625
40
0.625
40
0.65625
40
0.65625
40
0.6875
40
0.6875
40
0.718750000000001
40
0.718750000000001
40
0.750000000000001
40
0.750000000000001
40
0.8125
40
0.8125
40
0.84375
40
0.84375
40
0.875
40
0.90625
40
0.90625
40
0.9375
40
0.9375
40
1
40
1
40
1
40
1
41
1
10
327.650480947162
20
6.52755066300918
30
0
41
1
10
327.638981804677
20
6.54552653248714
30
0
41
1
10
327.62814548197
20
6.56342061513445
30
0
41
1
10
327.612939206481
20
6.5901281849026
30
0
41
1
10
327.608042788563
20
6.59901694963719
30
0
41
1
10
327.598721928768
20
6.61656489829463
30
0
41
1
10
327.594284643271
20
6.6252457634574
30
0
41
1
10
327.581686936374
20
6.65098964791432
30
0
41
1
10
327.574223281786
20
6.66776107810853
30
0
41
1
10
327.564837577099
20
6.69216044624409
30
0
41
1
10
327.562006278076
20
6.70019816617037
30
0
41
1
10
327.557184605238
20
6.71564770882065
30
0
41
1
10
327.555179368067
20
6.72309049730632
30
0
41
1
10
327.552137250522
20
6.73730431654124
30
0
41
1
10
327.551097322754
20
6.7440774273189
30
0
41
1
10
327.550263647968
20
6.75676173901914
30
0
41
1
10
327.550482593648
20
6.76251918785934
30
0
41
1
10
327.551971457481
20
6.77006132301358
30
0
41
1
10
327.552662227263
20
6.77239349282763
30
0
41
1
10
327.554488589318
20
6.77664257220505
30
0
41
1
10
327.555629696968
20
6.77855826713736
30
0
41
1
10
327.558347744801
20
6.781828174281
30
0
41
1
10
327.559929168047
20
6.7831969176479
30
0
41
1
10
327.563569638857
20
6.78536371952828
30
0
41
1
10
327.565645521329
20
6.78616477897845
30
0
41
1
10
327.572537810431
20
6.78760652713359
30
0
41
1
10
327.57792665398
20
6.78729666476059
30
0
41
1
10
327.587151619285
20
6.78501108169377
30
0
41
1
10
327.590446302725
20
6.78393130720747
30
0
41
1
10
327.597241521147
20
6.78123384869014
30
0
41
1
10
327.604247829043
20
6.77800720796836
30
0
41
1
10
327.61163322165
20
6.77383224883235
30
0
41
1
10
327.619193271317
20
6.76922111579222
30
0
41
1
10
327.623071327699
20
6.76668862676377
30
0
41
1
10
327.634714931172
20
6.75864895321936
30
0
41
1
10
327.642563586242
20
6.7526628820392
30
0
41
1
10
327.650480947162
20
6.74617999157215
30
0
0
SPLINE
5
1BD
100
AcDbEntity
8
1
62
256
6
ByLayer
370
18
48
1
60
0
100
AcDbSpline
70
4
71
3
72
8
73
4
40
0
40
0
40
0
40
0
40
1
40
1
40
1
40
1
41
1
10
327.650480947162
20
6.74617999157195
30
0
41
1
10
327.875247737629
20
6.56213653340296
30
0
41
1
10
328.100007511727
20
6.37808164940662
30
0
41
1
10
328.324759526419
20
6.19401413331479
30
0
0
SPLINE
5
1BE
100
AcDbEntity
8
1
62
256
6
ByLayer
370
18
48
1
60
0
100
AcDbSpline
70
4
71
3
72
8
73
4
40
0
40
0
40
0
40
0
40
1
40
1
40
1
40
1
41
1
10
328.324759526419
20
6.41823966660249
30
0
41
1
10
328.10282976625
20
6.74969542669066
30
0
41
1
10
327.87797677687
20
7.07848748397723
30
0
41
1
10
327.650480947162
20
7.40487133421575
30
0
0
SPLINE
5
1BF
100
AcDbEntity
8
1
62
256
6
ByLayer
370
18
48
1
60
0
100
AcDbSpline
70
4
71
3
72
34
73
30
40
0
40
0
40
0
40
0
40
0.124999999999995
40
0.124999999999995
40
0.249999999999991
40
0.249999999999991
40
0.31249999999999
40
0.31249999999999
40
0.374999999999989
40
0.374999999999989
40
0.499999999999988
40
0.499999999999988
40
0.562499999999985
40
0.562499999999985
40
0.624999999999983
40
0.624999999999983
40
0.68749999999998
40
0.68749999999998
40
0.718749999999979
40
0.718749999999979
40
0.749999999999978
40
0.749999999999978
40
0.812499999999984
40
0.812499999999984
40
0.874999999999989
40
0.874999999999989
40
0.937499999999994
40
0.937499999999994
40
1
40
1
40
1
40
1
41
1
10
327.650480947162
20
7.40487133421575
30
0
41
1
10
327.638779782576
20
7.42165876787865
30
0
41
1
10
327.627693116502
20
7.43837588604066
30
0
41
1
10
327.607002473869
20
7.47141079330811
30
0
41
1
10
327.597504579954
20
7.48755248325574
30
0
41
1
10
327.584701626499
20
7.51112046269355
30
0
41
1
10
327.580676613219
20
7.51886815968101
30
0
41
1
10
327.57317678391
20
7.53411759663797
30
0
41
1
10
327.569687169971
20
7.54165321443682
30
0
41
1
10
327.560306547285
20
7.56357463068613
30
0
41
1
10
327.555515793997
20
7.57715590301288
30
0
41
1
10
327.551444442405
20
7.595334081104
30
0
41
1
10
327.550629414815
20
7.60101582964785
30
0
41
1
10
327.550369704541
20
7.61104102357569
30
0
41
1
10
327.550906911697
20
7.61544083184421
30
0
41
1
10
327.553649785601
20
7.62271193063364
30
0
41
1
10
327.555833495619
20
7.62547963890901
30
0
41
1
10
327.560418657478
20
7.62810445442418
30
0
41
1
10
327.562180578905
20
7.62873026859307
30
0
41
1
10
327.56612484049
20
7.62942999882605
30
0
41
1
10
327.568286199411
20
7.62950430111471
30
0
41
1
10
327.575316333567
20
7.62893339780271
30
0
41
1
10
327.580743615076
20
7.62749284749239
30
0
41
1
10
327.592956646791
20
7.62257602639267
30
0
41
1
10
327.599500450861
20
7.61920443991403
30
0
41
1
10
327.613308831924
20
7.61096207583233
30
0
41
1
10
327.620630234375
20
7.60604175176596
30
0
41
1
10
327.635395579301
20
7.59526308731972
30
0
41
1
10
327.642891402848
20
7.58937893537475
30
0
41
1
10
327.650480947162
20
7.58308644885358
30
0
0
SPLINE
5
1C0
100
AcDbEntity
8
1
62
256
6
ByLayer
370
18
48
1
60
0
100
AcDbSpline
70
4
71
3
72
8
73
4
40
0
40
0
40
0
40
0
40
1
40
1
40
1
40
1
41
1
10
327.650480947162
20
7.58308644885344
30
0
41
1
10
327.87527835498
20
7.39670705634089
30
0
41
1
10
328.100039125586
20
7.21026872787755
30
0
41
1
10
328.324759526419
20
7.02376555730251
30
0
0
SPLINE
5
1C1
100
AcDbEntity
8
1
62
256
6
ByLayer
370
18
48
1
60
0
100
AcDbSpline
70
4
71
3
72
8
73
4
40
0
40
0
40
0
40
0
40
1
40
1
40
1
40
1
41
1
10
328.324759526419
20
7.20453701062598
30
0
41
1
10
328.102167049584
20
7.51058417609934
30
0
41
1
10
327.877337890168
20
7.81442579774125
30
0
41
1
10
327.650480947162
20
8.11626786628185
30
0
0
SPLINE
5
1C2
100
AcDbEntity
8
1
62
256
6
ByLayer
370
18
48
1
60
0
100
AcDbSpline
70
4
71
3
72
41
73
37
40
0
40
0
40
0
40
0
40
0.0625000000000081
40
0.0625000000000081
40
0.125000000000016
40
0.125000000000016
40
0.250000000000024
40
0.250000000000024
40
0.312500000000024
40
0.312500000000024
40
0.375000000000025
40
0.375000000000025
40
0.437500000000025
40
0.468750000000025
40
0.468750000000025
40
0.500000000000025
40
0.500000000000025
40
0.562500000000025
40
0.562500000000025
40
0.625000000000025
40
0.625000000000025
40
0.687500000000025
40
0.687500000000025
40
0.750000000000025
40
0.750000000000025
40
0.781250000000026
40
0.781250000000026
40
0.812500000000027
40
0.812500000000027
40
0.875000000000026
40
0.875000000000026
40
0.906250000000021
40
0.906250000000021
40
0.937500000000016
40
0.937500000000016
40
1
40
1
40
1
40
1
41
1
10
327.650480947162
20
8.11626786628185
30
0
41
1
10
327.644530707472
20
8.12418489378186
30
0
41
1
10
327.638734660478
20
8.13206618819623
30
0
41
1
10
327.627462614209
20
8.14775376764456
30
0
41
1
10
327.621983627572
20
8.15556558543966
30
0
41
1
10
327.606226071217
20
8.17863190556955
30
0
41
1
10
327.59655639816
20
8.19360385166925
30
0
41
1
10
327.583525644729
20
8.21534106995179
30
0
41
1
10
327.579429881241
20
8.22246563173388
30
0
41
1
10
327.571814377828
20
8.23643252845255
30
0
41
1
10
327.568318980523
20
8.24323455426727
30
0
41
1
10
327.562151731737
20
8.25620213685684
30
0
41
1
10
327.558116055743
20
8.26549913281983
30
0
41
1
10
327.555124307769
20
8.27403758508424
30
0
41
1
10
327.553390593519
20
8.27954050457689
30
0
41
1
10
327.552653442229
20
8.28220283654119
30
0
41
1
10
327.550910298472
20
8.28974061076633
30
0
41
1
10
327.550352356246
20
8.29421474844673
30
0
41
1
10
327.550659068286
20
8.3018677379402
30
0
41
1
10
327.551551382701
20
8.30505947818816
30
0
41
1
10
327.554942046485
20
8.30962666019212
30
0
41
1
10
327.55744201508
20
8.31105029366998
30
0
41
1
10
327.564147905172
20
8.31196087022187
30
0
41
1
10
327.568227742826
20
8.31143990485288
30
0
41
1
10
327.575359496822
20
8.30930348542248
30
0
41
1
10
327.577906330663
20
8.30836428157161
30
0
41
1
10
327.583336023074
20
8.30603663341071
30
0
41
1
10
327.586212296449
20
8.30464877609907
30
0
41
1
10
327.595094710497
20
8.29995851104965
30
0
41
1
10
327.601422754011
20
8.29610495866129
30
0
41
1
10
327.611436330013
20
8.28939550448166
30
0
41
1
10
327.614876803774
20
8.28699173655929
30
0
41
1
10
327.62181975771
20
8.28196505563733
30
0
41
1
10
327.625327553302
20
8.2793394829975
30
0
41
1
10
327.635948792471
20
8.27116112251292
30
0
41
1
10
327.643159471795
20
8.26530865126679
30
0
41
1
10
327.650480947162
20
8.25911591029492
30
0
0
SPLINE
5
1C3
100
AcDbEntity
8
1
62
256
6
ByLayer
370
18
48
1
60
0
100
AcDbSpline
70
4
71
3
72
8
73
4
40
0
40
0
40
0
40
0
40
1
40
1
40
1
40
1
41
1
10
327.650480947162
20
8.25911591029487
30
0
41
1
10
327.875326782244
20
8.0689340213255
30
0
41
1
10
328.100089025132
20
7.8786205059024
30
0
41
1
10
328.324759526419
20
7.68816253176115
30
0
0
SPLINE
5
1C4
100
AcDbEntity
8
1
62
256
6
ByLayer
370
18
48
1
60
0
100
AcDbSpline
70
4
71
3
72
8
73
4
40
0
40
0
40
0
40
0
40
1
40
1
40
1
40
1
41
1
10
328.324759526419
20
7.83069246411927
30
0
41
1
10
328.101678442285
20
8.1158055554848
30
0
41
1
10
327.876866272618
20
8.39908772121976
30
0
41
1
10
327.650480947162
20
8.68070599964432
30
0
0
SPLINE
5
1C5
100
AcDbEntity
8
1
62
256
6
ByLayer
370
18
48
1
60
0
100
AcDbSpline
70
4
71
3
72
38
73
34
40
0
40
0
40
0
40
0
40
0.0624999999999996
40
0.0624999999999996
40
0.124999999999999
40
0.124999999999999
40
0.25
40
0.25
40
0.312500000000001
40
0.312500000000001
40
0.375000000000002
40
0.375000000000002
40
0.437500000000004
40
0.437500000000004
40
0.500000000000005
40
0.500000000000005
40
0.562500000000006
40
0.562500000000006
40
0.625000000000008
40
0.625000000000008
40
0.687500000000009
40
0.687500000000009
40
0.75000000000001
40
0.75000000000001
40
0.781250000000011
40
0.781250000000011
40
0.812500000000011
40
0.812500000000011
40
0.875000000000007
40
0.875000000000007
40
0.937500000000004
40
0.937500000000004
40
1
40
1
40
1
40
1
41
1
10
327.650480947162
20
8.68070599964432
30
0
41
1
10
327.644435066044
20
8.68822694044886
30
0
41
1
10
327.638541009106
20
8.6956954835845
30
0
41
1
10
327.627070710279
20
8.71052195410445
30
0
41
1
10
327.621478397149
20
8.71790193383345
30
0
41
1
10
327.605382543492
20
8.73963673811036
30
0
41
1
10
327.59552307329
20
8.75362131766809
30
0
41
1
10
327.582291758194
20
8.77368827433253
30
0
41
1
10
327.578143409899
20
8.78022419053016
30
0
41
1
10
327.570463431254
20
8.79293505052703
30
0
41
1
10
327.566983467967
20
8.79902667250067
30
0
41
1
10
327.560894095359
20
8.81051116465136
30
0
41
1
10
327.558273629461
20
8.81592111539604
30
0
41
1
10
327.554041861198
20
8.82595053184954
30
0
41
1
10
327.552432376484
20
8.83058642492364
30
0
41
1
10
327.550538980103
20
8.83858893348062
30
0
41
1
10
327.550233118891
20
8.84200390822627
30
0
41
1
10
327.551141496283
20
8.84740288328919
30
0
41
1
10
327.552342069685
20
8.8493113044687
30
0
41
1
10
327.556322566542
20
8.85145744930949
30
0
41
1
10
327.559156903261
20
8.85166939924153
30
0
41
1
10
327.566155193741
20
8.85035160617915
30
0
41
1
10
327.570327284129
20
8.84885166436911
30
0
41
1
10
327.57754044284
20
8.84541147433796
30
0
41
1
10
327.580121827421
20
8.84405510439842
30
0
41
1
10
327.585487525657
20
8.84101347900648
30
0
41
1
10
327.588275661537
20
8.83932807404227
30
0
41
1
10
327.596927885113
20
8.83382273371754
30
0
41
1
10
327.603078037699
20
8.82955644162527
30
0
41
1
10
327.616050433374
20
8.81997866068383
30
0
41
1
10
327.622764082909
20
8.81474580226026
30
0
41
1
10
327.636420273296
20
8.80366381713714
30
0
41
1
10
327.643389119659
20
8.79779440239381
30
0
41
1
10
327.650480947162
20
8.79163906058528
30
0
0
SPLINE
5
1C6
100
AcDbEntity
8
1
62
256
6
ByLayer
370
18
48
1
60
0
100
AcDbSpline
70
4
71
3
72
8
73
4
40
0
40
0
40
0
40
0
40
1
40
1
40
1
40
1
41
1
10
327.650480947162
20
8.79163906058523
30
0
41
1
10
327.875390693943
20
8.5964289589472
30
0
41
1
10
328.100154848045
20
8.40099561220674
30
0
41
1
10
328.324759526419
20
8.2053177327395
30
0
0
SPLINE
5
1C7
100
AcDbEntity
8
1
62
256
6
ByLayer
370
18
48
1
60
0
100
AcDbSpline
70
4
71
3
72
8
73
4
40
0
40
0
40
0
40
0
40
1
40
1
40
1
40
1
41
1
10
328.324759526419
20
8.31313992055976
30
0
41
1
10
328.101307459449
20
8.58063653668884
30
0
41
1
10
327.876507770666
20
8.8466150387261
30
0
41
1
10
327.650480947162
20
9.11121115699939
30
0
0
SPLINE
5
1C8
100
AcDbEntity
8
1
62
256
6
ByLayer
370
18
48
1
60
0
100
AcDbSpline
70
4
71
3
72
37
73
33
40
0
40
0
40
0
40
0
40
0.124999999999995
40
0.124999999999995
40
0.249999999999991
40
0.249999999999991
40
0.312499999999988
40
0.312499999999988
40
0.374999999999986
40
0.374999999999986
40
0.437499999999984
40
0.437499999999984
40
0.468749999999983
40
0.468749999999983
40
0.499999999999981
40
0.53124999999998
40
0.53124999999998
40
0.562499999999979
40
0.562499999999979
40
0.624999999999979
40
0.624999999999979
40
0.656249999999981
40
0.656249999999981
40
0.687499999999983
40
0.687499999999983
40
0.749999999999986
40
0.749999999999986
40
0.81249999999999
40
0.81249999999999
40
0.874999999999993
40
0.874999999999993
40
1
40
1
40
1
40
1
41
1
10
327.650480947162
20
9.11121115699939
30
0
41
1
10
327.638202144537
20
9.12558521872015
30
0
41
1
10
327.626485867576
20
9.13971449450213
30
0
41
1
10
327.604552320067
20
9.16715106314291
30
0
41
1
10
327.594502099815
20
9.18024459765789
30
0
41
1
10
327.581082092083
20
9.19874906981326
30
0
41
1
10
327.57688735265
20
9.20472606788999
30
0
41
1
10
327.569160111633
20
9.21622461593921
30
0
41
1
10
327.565703840036
20
9.22163341163414
30
0
41
1
10
327.559712993625
20
9.23167318937419
30
0
41
1
10
327.557175330865
20
9.23630777325104
30
0
41
1
10
327.554189582967
20
9.24256860083733
30
0
41
1
10
327.55333114082
20
9.24454391968419
30
0
41
1
10
327.551945089713
20
9.24817067912335
30
0
41
1
10
327.550880306039
20
9.25149152125348
30
0
41
1
10
327.550493173189
20
9.25416727836324
30
0
41
1
10
327.550469840073
20
9.25649687716151
30
0
41
1
10
327.55064329357
20
9.2574911476068
30
0
41
1
10
327.551729677775
20
9.25986276225908
30
0
41
1
10
327.553197894126
20
9.26065672569175
30
0
41
1
10
327.556546564706
20
9.26063681510331
30
0
41
1
10
327.557864176504
20
9.26042451909052
30
0
41
1
10
327.56084962648
20
9.25959374823969
30
0
41
1
10
327.562509311231
20
9.25897980996461
30
0
41
1
10
327.567961306
20
9.25657623302197
30
0
41
1
10
327.572230449554
20
9.254223815366
30
0
41
1
10
327.581924074944
20
9.24813562338935
30
0
41
1
10
327.587203153222
20
9.24449316063721
30
0
41
1
10
327.598484907468
20
9.23620998229447
30
0
41
1
10
327.604518790299
20
9.23154327162294
30
0
41
1
10
327.623400016941
20
9.21635779938231
30
0
41
1
10
327.636681697516
20
9.20495439358248
30
0
41
1
10
327.650480947162
20
9.19260491285752
30
0
0
SPLINE
5
1C9
100
AcDbEntity
8
1
62
256
6
ByLayer
370
18
48
1
60
0
100
AcDbSpline
70
4
71
3
72
8
73
4
40
0
40
0
40
0
40
0
40
1
40
1
40
1
40
1
41
1
10
327.650480947162
20
9.19260491285749
30
0
41
1
10
327.875470342809
20
8.9912532251729
30
0
41
1
10
328.100236859786
20
8.78957038042915
30
0
41
1
10
328.324759526419
20
8.58752521854373
30
0
0
SPLINE
5
1CA
100
AcDbEntity
8
1
62
256
6
ByLayer
370
18
48
1
60
0
100
AcDbSpline
70
4
71
3
72
8
73
4
40
0
40
0
40
0
40
0
40
1
40
1
40
1
40
1
41
1
10
328.324759526419
20
8.66302745403326
30
0
41
1
10
328.101019214676
20
8.91546545317649
30
0
41
1
10
327.876228917632
20
9.16665093997483
30
0
41
1
10
327.650480947162
20
9.41669403193262
30
0
0
SPLINE
5
1CB
100
AcDbEntity
8
1
62
256
6
ByLayer
370
18
48
1
60
0
100
AcDbSpline
70
4
71
3
72
37
73
33
40
0
40
0
40
0
40
0
40
0.0625000000000098
40
0.0625000000000098
40
0.125000000000019
40
0.125000000000019
40
0.250000000000039
40
0.250000000000039
40
0.312500000000047
40
0.312500000000047
40
0.375000000000055
40
0.406250000000055
40
0.406250000000055
40
0.437500000000055
40
0.437500000000055
40
0.500000000000055
40
0.500000000000055
40
0.531250000000053
40
0.531250000000053
40
0.56250000000005
40
0.56250000000005
40
0.625000000000042
40
0.625000000000042
40
0.687500000000035
40
0.687500000000035
40
0.750000000000027
40
0.750000000000027
40
0.812500000000019
40
0.812500000000019
40
0.875000000000011
40
0.875000000000011
40
1
40
1
40
1
40
1
41
1
10
327.650480947162
20
9.41669403193262
30
0
41
1
10
327.644233516261
20
9.42361381480353
30
0
41
1
10
327.638128791671
20
9.43044724213195
30
0
41
1
10
327.626224587922
20
9.44392824694145
30
0
41
1
10
327.620408632679
20
9.45059533984553
30
0
41
1
10
327.603696944729
20
9.47001877302483
30
0
41
1
10
327.593459438986
20
9.48227768691913
30
0
41
1
10
327.579801977808
20
9.49935979097697
30
0
41
1
10
327.575513158025
20
9.50486532286683
30
0
41
1
10
327.567827277759
20
9.51507617479493
30
0
41
1
10
327.562698992221
20
9.52217182889589
30
0
41
1
10
327.55866279162
20
9.5283005792956
30
0
41
1
10
327.556240243351
20
9.5321488241232
30
0
41
1
10
327.555161120897
20
9.53395843503583
30
0
41
1
10
327.552417952635
20
9.53890216359349
30
0
41
1
10
327.551221826353
20
9.54158841952838
30
0
41
1
10
327.550485616375
20
9.54459859536078
30
0
41
1
10
327.55041909126
20
9.54543402492575
30
0
41
1
10
327.550661814729
20
9.54671283698855
30
0
41
1
10
327.550968230582
20
9.54716054174628
30
0
41
1
10
327.552439131489
20
9.54793245934343
30
0
41
1
10
327.554154903999
20
9.5476875862862
30
0
41
1
10
327.559095757758
20
9.54563002928896
30
0
41
1
10
327.562230525272
20
9.54385679099883
30
0
41
1
10
327.569682176899
20
9.53898834073135
30
0
41
1
10
327.574051131848
20
9.53585161537501
30
0
41
1
10
327.583612877603
20
9.52855703950897
30
0
41
1
10
327.58879748384
20
9.52441100224755
30
0
41
1
10
327.599860114334
20
9.5152650369474
30
0
41
1
10
327.605784818522
20
9.510223577669
30
0
41
1
10
327.624098620595
20
9.49429171377335
30
0
41
1
10
327.637015243456
20
9.48262113755797
30
0
41
1
10
327.650480947162
20
9.4701429912256
30
0
0
SPLINE
5
1CC
100
AcDbEntity
8
1
62
256
6
ByLayer
370
18
48
1
60
0
100
AcDbSpline
70
4
71
3
72
8
73
4
40
0
40
0
40
0
40
0
40
1
40
1
40
1
40
1
41
1
10
327.650480947162
20
9.4701429912256
30
0
41
1
10
327.875567648883
20
9.26156385841358
30
0
41
1
10
328.10033706691
20
9.05252988602152
30
0
41
1
10
328.324759526419
20
8.84299853393824
30
0
0
SPLINE
5
1CD
100
AcDbEntity
8
1
62
256
6
ByLayer
370
18
48
1
60
0
100
AcDbSpline
70
4
71
3
72
8
73
4
40
0
40
0
40
0
40
0
40
1
40
1
40
1
40
1
41
1
10
328.324759526419
20
8.88772336069118
30
0
41
1
10
328.100791090601
20
9.12714334966515
30
0
41
1
10
327.876008003165
20
9.36553939573849
30
0
41
1
10
327.650480947162
20
9.60300034106919
30
0
0
SPLINE
5
1CE
100
AcDbEntity
8
1
62
256
6
ByLayer
370
18
48
1
60
0
100
AcDbSpline
70
4
71
3
72
37
73
33
40
0
40
0
40
0
40
0
40
0.124999999999995
40
0.124999999999995
40
0.187499999999996
40
0.187499999999996
40
0.249999999999997
40
0.249999999999997
40
0.312499999999997
40
0.343749999999997
40
0.343749999999997
40
0.374999999999997
40
0.374999999999997
40
0.437499999999997
40
0.437499999999997
40
0.468749999999998
40
0.468749999999998
40
0.5
40
0.5
40
0.562500000000001
40
0.562500000000001
40
0.625000000000002
40
0.625000000000002
40
0.687500000000003
40
0.687500000000003
40
0.750000000000004
40
0.750000000000004
40
0.812500000000005
40
0.812500000000005
40
0.875000000000006
40
0.875000000000006
40
1
40
1
40
1
40
1
41
1
10
327.650480947162
20
9.60300034106919
30
0
41
1
10
327.637713524711
20
9.61644335876449
30
0
41
1
10
327.625555134204
20
9.6293990848537
30
0
41
1
10
327.608569850311
20
9.64776886997726
30
0
41
1
10
327.603108564081
20
9.65372386173075
30
0
41
1
10
327.592645038061
20
9.6652469120385
30
0
41
1
10
327.587628553198
20
9.67083184484517
30
0
41
1
10
327.578394061833
20
9.68125409073815
30
0
41
1
10
327.572016535815
20
9.68856482975926
30
0
41
1
10
327.566579562048
20
9.69500581141472
30
0
41
1
10
327.563185659207
20
9.69908622913169
30
0
41
1
10
327.561600856608
20
9.7010238889255
30
0
41
1
10
327.557303071354
20
9.70638933191808
30
0
41
1
10
327.555014755975
20
9.70940653018934
30
0
41
1
10
327.552553203198
20
9.71298948420494
30
0
41
1
10
327.551893247071
20
9.71403011611258
30
0
41
1
10
327.550941407315
20
9.71574016022862
30
0
41
1
10
327.550646743411
20
9.71641246945904
30
0
41
1
10
327.550307456757
20
9.71788033599088
30
0
41
1
10
327.550804218981
20
9.71813014535255
30
0
41
1
10
327.553323180194
20
9.71709292581883
30
0
41
1
10
327.555303382755
20
9.71582129198285
30
0
41
1
10
327.560517793468
20
9.71195665894413
30
0
41
1
10
327.563756830219
20
9.70936087410092
30
0
41
1
10
327.571431586465
20
9.70291489926487
30
0
41
1
10
327.575773222109
20
9.69914325907203
30
0
41
1
10
327.585223568068
20
9.69074862945371
30
0
41
1
10
327.59034747327
20
9.68611253461037
30
0
41
1
10
327.601310018783
20
9.67605609254881
30
0
41
1
10
327.607046357809
20
9.670729424597
30
0
41
1
10
327.624771194315
20
9.65411905680114
30
0
41
1
10
327.637325338164
20
9.64216160745403
30
0
41
1
10
327.650480947162
20
9.6294893682057
30
0
0
SPLINE
5
1CF
100
AcDbEntity
8
1
62
256
6
ByLayer
370
18
48
1
60
0
100
AcDbSpline
70
4
71
3
72
8
73
4
40
0
40
0
40
0
40
0
40
1
40
1
40
1
40
1
41
1
10
327.650480947162
20
9.6294893682057
30
0
41
1
10
327.875685997486
20
9.41255891076685
30
0
41
1
10
328.100458994954
20
9.19503327622809
30
0
41
1
10
328.324759526419
20
8.97685679320998
30
0
0
SPLINE
5
1D0
100
AcDbEntity
8
1
62
256
6
ByLayer
370
18
48
1
60
0
100
AcDbSpline
70
4
71
3
72
8
73
4
40
0
40
0
40
0
40
0
40
1
40
1
40
1
40
1
41
1
10
328.324759526419
20
8.99167169445596
30
0
41
1
10
328.100607863251
20
9.21975466987087
30
0
41
1
10
327.875830405165
20
9.44701251069969
30
0
41
1
10
327.650480947162
20
9.67351614771059
30
0
0
SPLINE
5
1D1
100
AcDbEntity
8
1
62
256
6
ByLayer
370
18
48
1
60
0
100
AcDbSpline
70
2053
71
3
72
40
73
36
40
0
40
0
40
0
40
0
40
0.0625000000000032
40
0.0625000000000032
40
0.125000000000007
40
0.125000000000007
40
0.250000000000015
40
0.250000000000015
40
0.312500000000016
40
0.312500000000016
40
0.343750000000014
40
0.343750000000014
40
0.375000000000012
40
0.375000000000012
40
0.43750000000001
40
0.43750000000001
40
0.468750000000009
40
0.468750000000009
40
0.500000000000008
40
0.500000000000008
40
0.562500000000005
40
0.562500000000005
40
0.593750000000004
40
0.593750000000004
40
0.625000000000002
40
0.625000000000002
40
0.687500000000002
40
0.687500000000002
40
0.750000000000001
40
0.750000000000001
40
0.8125
40
0.8125
40
0.875
40
0.875
40
1
40
1
40
1
40
1
41
1
10
327.650480947162
20
9.67351614771061
30
0
41
1
10
327.643995528497
20
9.6800347829365
30
0
41
1
10
327.637641930967
20
9.68642409830247
30
0
41
1
10
327.625223781212
20
9.69891773300827
30
0
41
1
10
327.619159362558
20
9.7050219490506
30
0
41
1
10
327.601760540395
20
9.72254228303581
30
0
41
1
10
327.591092877904
20
9.73329462463846
30
0
41
1
10
327.576962978984
20
9.74754554778971
30
0
41
1
10
327.572665768936
20
9.75188121991945
30
0
41
1
10
327.566937041454
20
9.75766266878873
30
0
41
1
10
327.565146159727
20
9.75947030348331
30
0
41
1
10
327.561821741835
20
9.76282620129848
30
0
41
1
10
327.560285385348
20
9.76437731324623
30
0
41
1
10
327.556170769704
20
9.76853182457756
30
0
41
1
10
327.554054662599
20
9.77066898424638
30
0
41
1
10
327.551904777518
20
9.77284038556547
30
0
41
1
10
327.551358069514
20
9.77339260144768
30
0
41
1
10
327.550642684802
20
9.77411520325683
30
0
41
1
10
327.550471174801
20
9.77428845045677
30
0
41
1
10
327.550501778366
20
9.77425753736367
30
0
41
1
10
327.551246131199
20
9.77350561707175
30
0
41
1
10
327.553449587003
20
9.77128011911998
30
0
41
1
10
327.554366440456
20
9.7703541331463
30
0
41
1
10
327.556507437831
20
9.76819200728931
30
0
41
1
10
327.557735591993
20
9.76695181711028
30
0
41
1
10
327.561863192775
20
9.76278423519855
30
0
41
1
10
327.565218581561
20
9.75939689923169
30
0
41
1
10
327.572951716672
20
9.75159268784734
30
0
41
1
10
327.577252302461
20
9.74725369068452
30
0
41
1
10
327.586584704884
20
9.73784146922711
30
0
41
1
10
327.591617667416
20
9.73276708578814
30
0
41
1
10
327.602342916788
20
9.72195815563541
30
0
41
1
10
327.607954623723
20
9.71630483568802
30
0
41
1
10
327.625296915117
20
9.6988417531482
30
0
41
1
10
327.637586054382
20
9.68647708464545
30
0
41
1
10
327.650480947162
20
9.67351614771061
30
0
0
SPLINE
5
1D2
100
AcDbEntity
8
1
62
256
6
ByLayer
370
18
48
1
60
0
100
AcDbSpline
70
4
71
3
72
36
73
32
40
0
40
0
40
0
40
0
40
0.122294168921545
40
0.122294168921545
40
0.195436321511416
40
0.195436321511416
40
0.232007397806352
40
0.232007397806352
40
0.268578474101287
40
0.268578474101287
40
0.341720626691158
40
0.341720626691158
40
0.378291702986096
40
0.378291702986096
40
0.414862779281033
40
0.414862779281033
40
0.488004931870908
40
0.488004931870908
40
0.524576008165843
40
0.524576008165843
40
0.561147084460779
40
0.561147084460779
40
0.634289237050649
40
0.634289237050649
40
0.707431389640519
40
0.707431389640519
40
0.78057354223039
40
0.78057354223039
40
0.853715694820261
40
0.853715694820261
40
1
40
1
40
1
40
1
41
1
10
327.607729614588
20
-29.7165323184178
30
0
41
1
10
327.598295176106
20
-29.7260353140269
30
0
41
1
10
327.589548040495
20
-29.7348526937596
30
0
41
1
10
327.576962978984
20
-29.7475455477898
30
0
41
1
10
327.572665768936
20
-29.7518812199195
30
0
41
1
10
327.566937041454
20
-29.7576626687888
30
0
41
1
10
327.565146159727
20
-29.7594703034833
30
0
41
1
10
327.561821741835
20
-29.7628262012985
30
0
41
1
10
327.560285385348
20
-29.7643773132463
30
0
41
1
10
327.556170769704
20
-29.7685318245776
30
0
41
1
10
327.554054662599
20
-29.7706689842464
30
0
41
1
10
327.551904777518
20
-29.7728403855655
30
0
41
1
10
327.551358069514
20
-29.7733926014477
30
0
41
1
10
327.550642684802
20
-29.7741152032569
30
0
41
1
10
327.550471174801
20
-29.7742884504568
30
0
41
1
10
327.550501778366
20
-29.7742575373637
30
0
41
1
10
327.551246131199
20
-29.7735056170718
30
0
41
1
10
327.553449587003
20
-29.77128011912
30
0
41
1
10
327.554366440456
20
-29.7703541331463
30
0
41
1
10
327.556507437831
20
-29.7681920072894
30
0
41
1
10
327.557735591993
20
-29.7669518171103
30
0
41
1
10
327.561863192775
20
-29.7627842351986
30
0
41
1
10
327.565218581561
20
-29.7593968992317
30
0
41
1
10
327.572951716672
20
-29.7515926878474
30
0
41
1
10
327.577252302461
20
-29.7472536906846
30
0
41
1
10
327.586584704884
20
-29.7378414692272
30
0
41
1
10
327.591617667416
20
-29.7327670857882
30
0
41
1
10
327.602342916788
20
-29.7219581556355
30
0
41
1
10
327.607954623723
20
-29.716304835688
30
0
41
1
10
327.625296915117
20
-29.6988417531482
30
0
41
1
10
327.637586054382
20
-29.6864770846455
30
0
41
1
10
327.650480947162
20
-29.6735161477106
30
0
0
SPLINE
5
1D3
100
AcDbEntity
8
1
62
256
6
ByLayer
370
18
48
1
60
0
100
AcDbSpline
70
4
71
3
72
8
73
4
40
0
40
0
40
0
40
0
40
1
40
1
40
1
40
1
41
1
10
327.650480947162
20
-29.6735161477106
30
0
41
1
10
327.875830405165
20
-29.4470125106997
30
0
41
1
10
328.100607863251
20
-29.2197546698709
30
0
41
1
10
328.324759526419
20
-28.991671694456
30
0
0
SPLINE
5
1D4
100
AcDbEntity
8
1
62
256
6
ByLayer
370
18
48
1
60
0
100
AcDbSpline
70
4
71
3
72
8
73
4
40
0
40
0
40
0
40
0
40
1
40
1
40
1
40
1
41
1
10
328.324759526419
20
-28.97685679321
30
0
41
1
10
328.100458994954
20
-29.1950332762281
30
0
41
1
10
327.875685997486
20
-29.4125589107669
30
0
41
1
10
327.650480947162
20
-29.6294893682057
30
0
0
SPLINE
5
1D5
100
AcDbEntity
8
1
62
256
6
ByLayer
370
13
48
1
60
0
100
AcDbSpline
70
4
71
3
72
30
73
26
40
0
40
0
40
0
40
0
40
0.124999999999999
40
0.124999999999999
40
0.249999999999998
40
0.249999999999998
40
0.312499999999997
40
0.312499999999997
40
0.343749999999997
40
0.343749999999997
40
0.374999999999997
40
0.499999999999997
40
0.499999999999997
40
0.624999999999998
40
0.624999999999998
40
0.687499999999998
40
0.687499999999998
40
0.749999999999999
40
0.749999999999999
40
0.874999999999999
40
0.874999999999999
40
0.9375
40
0.96875
40
0.96875
40
1
40
1
40
1
40
1
41
1
10
326.5
20
-28.5243902439024
30
0
41
1
10
326.5
20
-28.6463456924521
30
0
41
1
10
326.494867295457
20
-28.7607822397311
30
0
41
1
10
326.477322865052
20
-28.9747784554306
30
0
41
1
10
326.464881574937
20
-29.074337447342
30
0
41
1
10
326.442095788348
20
-29.2125395608472
30
0
41
1
10
326.433807020245
20
-29.2567499092746
30
0
41
1
10
326.420463067924
20
-29.3202742697901
30
0
41
1
10
326.415861533638
20
-29.3409900334813
30
0
41
1
10
326.406382851588
20
-29.3814505483905
30
0
41
1
10
326.381994302591
20
-29.4801781976742
30
0
41
1
10
326.354415448542
20
-29.5668448333318
30
0
41
1
10
326.307237698167
20
-29.69021422284
30
0
41
1
10
326.282119345361
20
-29.7442500623257
30
0
41
1
10
326.242766214032
20
-29.8138435156958
30
0
41
1
10
326.229367974665
20
-29.8351303445858
30
0
41
1
10
326.202101521617
20
-29.873873002596
30
0
41
1
10
326.188228866468
20
-29.8913335735416
30
0
41
1
10
326.146063645186
20
-29.9379123489139
30
0
41
1
10
326.11727434799
20
-29.9611833545936
30
0
41
1
10
326.073568059289
20
-29.9844669543471
30
0
41
1
10
326.051583615958
20
-29.9932016118071
30
0
41
1
10
326.029491014814
20
-29.9975721011388
30
0
41
1
10
326.014748318526
20
-29.9995146855328
30
0
41
1
10
326.007362850041
20
-30
30
0
41
1
10
326
20
-30
30
0
0
SPLINE
5
1D6
100
AcDbEntity
8
1
62
256
6
ByLayer
370
18
48
1
60
0
100
AcDbSpline
70
4
71
3
72
47
73
43
40
0
40
0
40
0
40
0
40
0.021311360117809
40
0.0428134407979936
40
0.0645061106855082
40
0.0863892388418617
40
0.108462694808147
40
0.130726348668607
40
0.153180071114673
40
0.175823733509406
40
0.198657207952497
40
0.221680367345687
40
0.244893085458671
40
0.268295236995495
40
0.291886697661385
40
0.315667344230103
40
0.33963705461166
40
0.363795707920597
40
0.388143184544621
40
0.41267936621371
40
0.43740413606967
40
0.46231737873603
40
0.487418980388429
40
0.512708828825325
40
0.538186813539102
40
0.56385282578754
40
0.589706758665628
40
0.615748507177699
40
0.641977968309867
40
0.668395041102763
40
0.694999626724556
40
0.721791628544192
40
0.748770952204875
40
0.775937505697775
40
0.803291199435886
40
0.830831946328057
40
0.858559661853168
40
0.886474264134407
40
0.914575674013598
40
0.942863815125661
40
0.971338613973012
40
1
40
1
40
1
40
1
41
1
10
326
20
-27.5
30
0
41
1
10
326.000007579926
20
-27.5103417325866
30
0
41
1
10
326.000022807611
20
-27.5311177484485
30
0
41
1
10
326.000145362203
20
-27.5621888190227
30
0
41
1
10
326.000341515512
20
-27.5933617739163
30
0
41
1
10
326.000619208126
20
-27.6246143301132
30
0
41
1
10
326.000977091687
20
-27.6559453880465
30
0
41
1
10
326.001416325027
20
-27.6873480382084
30
0
41
1
10
326.001937371168
20
-27.718816889626
30
0
41
1
10
326.002540866338
20
-27.7503460804952
30
0
41
1
10
326.003227383641
20
-27.7819298181436
30
0
41
1
10
326.003997496727
20
-27.8135622324809
30
0
41
1
10
326.004851762051
20
-27.8452374157521
30
0
41
1
10
326.005790723216
20
-27.8769494117301
30
0
41
1
10
326.006814909324
20
-27.9086922186182
30
0
41
1
10
326.007924834949
20
-27.9404597882256
30
0
41
1
10
326.009120999672
20
-27.9722460261457
30
0
41
1
10
326.010403887732
20
-28.0040447916534
30
0
41
1
10
326.011773967637
20
-28.0358498976702
30
0
41
1
10
326.013231691796
20
-28.0676551107012
30
0
41
1
10
326.014777496138
20
-28.09945415077
30
0
41
1
10
326.016411799732
20
-28.1312406913445
30
0
41
1
10
326.018135004408
20
-28.1630083592544
30
0
41
1
10
326.01994749438
20
-28.1947507346003
30
0
41
1
10
326.021849635862
20
-28.2264613506542
30
0
41
1
10
326.023841776691
20
-28.2581336937508
30
0
41
1
10
326.025924245945
20
-28.2897612031693
30
0
41
1
10
326.028097353566
20
-28.3213372710053
30
0
41
1
10
326.030361389973
20
-28.3528552420382
30
0
41
1
10
326.032716625693
20
-28.3843084135614
30
0
41
1
10
326.035163310964
20
-28.4156900353108
30
0
41
1
10
326.037701675421
20
-28.4469933089697
30
0
41
1
10
326.040331927472
20
-28.4782113892197
30
0
41
1
10
326.043054254851
20
-28.5093373789123
30
0
41
1
10
326.045868820756
20
-28.5403643463536
30
0
41
1
10
326.048775776611
20
-28.5712852591558
30
0
41
1
10
326.051775212181
20
-28.6020932326115
30
0
41
1
10
326.05486734187
20
-28.6327805922161
30
0
41
1
10
326.058051800644
20
-28.6633424066278
30
0
41
1
10
326.061330296339
20
-28.6937631688568
30
0
41
1
10
326.064696610654
20
-28.7240669971798
30
0
41
1
10
326.067007514588
20
-28.7440427316684
30
0
41
1
10
326.068166739865
20
-28.7540632158608
30
0
0
SPLINE
5
1D7
100
AcDbEntity
8
1
62
256
6
ByLayer
370
18
48
1
60
0
100
AcDbSpline
70
4
71
3
72
8
73
4
40
0
40
0
40
0
40
0
40
1
40
1
40
1
40
1
41
1
10
325.5
20
-27.9661016949153
30
0
41
1
10
325.666666666667
20
-27.8107344632768
30
0
41
1
10
325.833333333333
20
-27.6553672316384
30
0
41
1
10
326
20
-27.5
30
0
0
SPLINE
5
1D8
100
AcDbEntity
8
1
62
256
6
ByLayer
370
18
48
1
60
0
100
AcDbSpline
70
4
71
3
72
52
73
48
40
0
40
0
40
0
40
0
40
0.0115037001653285
40
0.0228013760983472
40
0.0338930277966258
40
0.0447786552581892
40
0.0554582584815539
40
0.0659318374657531
40
0.0761993922103435
40
0.0862609227154882
40
0.0961164289819321
40
0.105765911011085
40
0.11520936880505
40
0.124446802366678
40
0.133478211699606
40
0.142303596808343
40
0.150922957698321
40
0.159336294375975
40
0.16754360684883
40
0.175544895125598
40
0.183340159216294
40
0.19092939913235
40
0.198312614886764
40
0.205489806494265
40
0.212460973971494
40
0.219226117337225
40
0.225785236612609
40
0.232138331821475
40
0.238285402990647
40
0.244226450150367
40
0.249961473334745
40
0.319250859977133
40
0.384016815933333
40
0.444259380381691
40
0.499978608979819
40
0.568598638551499
40
0.633132927555391
40
0.693581752360902
40
0.749945454496686
40
0.815296275454503
40
0.874973188290421
40
0.896821275125538
40
0.918265134536693
40
0.939304847920228
40
0.959940501459513
40
0.980172186506172
40
1
40
1
40
1
40
1
41
1
10
326
20
-30
30
0
41
1
10
325.998877124457
20
-29.999974507006
30
0
41
1
10
325.996651483385
20
-29.9999239775818
30
0
41
1
10
325.99334078887
20
-29.9995208377595
30
0
41
1
10
325.990088652028
20
-29.9988943275866
30
0
41
1
10
325.986894909806
20
-29.998034916128
30
0
41
1
10
325.983759604746
20
-29.9969621650895
30
0
41
1
10
325.980682725821
20
-29.9956877350033
30
0
41
1
10
325.977664275962
20
-29.9942250232453
30
0
41
1
10
325.97470425447
20
-29.9925866539419
30
0
41
1
10
325.971802661596
20
-29.9907851309345
30
0
41
1
10
325.968959497352
20
-29.9888326676657
30
0
41
1
10
325.966174761816
20
-29.9867412311579
30
0
41
1
10
325.963448455058
20
-29.9845225303742
30
0
41
1
10
325.960780577157
20
-29.982188019054
30
0
41
1
10
325.9581711282
20
-29.9797488948169
30
0
41
1
10
325.955620108282
20
-29.9772160992585
30
0
41
1
10
325.953127517506
20
-29.9746003178132
30
0
41
1
10
325.950693355988
20
-29.9719119796982
30
0
41
1
10
325.948317623855
20
-29.969161257857
30
0
41
1
10
325.946000321245
20
-29.9663580689221
30
0
41
1
10
325.94374144832
20
-29.9635120731905
30
0
41
1
10
325.941541005237
20
-29.9606326746124
30
0
41
1
10
325.939398992243
20
-29.9577290207903
30
0
41
1
10
325.937315409364
20
-29.9548100029955
30
0
41
1
10
325.935290257527
20
-29.9518842561725
30
0
41
1
10
325.933323534568
20
-29.9489601590298
30
0
41
1
10
325.931415249476
20
-29.946045833865
30
0
41
1
10
325.929565371761
20
-29.943149147373
30
0
41
1
10
325.927774011273
20
-29.9402777079928
30
0
41
1
10
325.919617589734
20
-29.9269184266654
30
0
41
1
10
325.905380084974
20
-29.9003561064729
30
0
41
1
10
325.885141699302
20
-29.8547661045818
30
0
41
1
10
325.865833778151
20
-29.8048519037222
30
0
41
1
10
325.845535602448
20
-29.7467736841385
30
0
41
1
10
325.823986625326
20
-29.6795705634216
30
0
41
1
10
325.800904574335
20
-29.6021755481121
30
0
41
1
10
325.778229300571
20
-29.5222219797334
30
0
41
1
10
325.754211476298
20
-29.4349306762757
30
0
41
1
10
325.728821213604
20
-29.3407942687475
30
0
41
1
10
325.706781822637
20
-29.2585971124348
30
0
41
1
10
325.690418449534
20
-29.1982581862056
30
0
41
1
10
325.679877733222
20
-29.1596602566231
30
0
41
1
10
325.669214084522
20
-29.1209304090267
30
0
41
1
10
325.658418298702
20
-29.0820999592277
30
0
41
1
10
325.64752450959
20
-29.043290185579
30
0
41
1
10
325.64003866611
20
-29.0170263862791
30
0
41
1
10
325.636333479731
20
-29.0040268797168
30
0
0
SPLINE
5
1D9
100
AcDbEntity
8
1
62
256
6
ByLayer
370
18
48
1
60
0
100
AcDbSpline
70
4
71
3
72
39
73
35
40
0
40
0
40
0
40
0
40
0.025016466443557
40
0.0499123525218187
40
0.0746877024929438
40
0.0993425612642401
40
0.12387697440468
40
0.148290988157689
40
0.172584649454271
40
0.196758005926396
40
0.220811105920791
40
0.244743998512988
40
0.268556733521727
40
0.292249361523767
40
0.315821933868958
40
0.339274502695781
40
0.362607120947193
40
0.385819842386933
40
0.408912721616143
40
0.431885814090525
40
0.454739176137797
40
0.477472864975682
40
0.500086938730301
40
0.547876336617836
40
0.595195284766624
40
0.642044377779919
40
0.68842422833329
40
0.734335467889402
40
0.779778747447111
40
0.824754738326818
40
0.869264132994079
40
0.913307645923636
40
0.956886014506146
40
1
40
1
40
1
40
1
41
1
10
325.636333479731
20
-29.0040268797168
30
0
41
1
10
325.634294315688
20
-28.9968604625754
30
0
41
1
10
325.630225816454
20
-28.9825621707088
30
0
41
1
10
325.62427789504
20
-28.960878499479
30
0
41
1
10
325.618462284667
20
-28.9390913163089
30
0
41
1
10
325.612788897707
20
-28.917183341817
30
0
41
1
10
325.607255097409
20
-28.8951633888608
30
0
41
1
10
325.601861585089
20
-28.873033306631
30
0
41
1
10
325.596608174166
20
-28.850796773433
30
0
41
1
10
325.591494914223
20
-28.8284569578737
30
0
41
1
10
325.586521792029
20
-28.8060171409152
30
0
41
1
10
325.58168881106
20
-28.7834805504027
30
0
41
1
10
325.576995970347
20
-28.760850405053
30
0
41
1
10
325.5724432701
20
-28.7381299027355
30
0
41
1
10
325.568030710223
20
-28.7153222235717
30
0
41
1
10
325.563758290679
20
-28.6924305290932
30
0
41
1
10
325.559626011486
20
-28.6694579624571
30
0
41
1
10
325.555633872389
20
-28.6464076483542
30
0
41
1
10
325.551781874154
20
-28.6232826931042
30
0
41
1
10
325.548070013764
20
-28.6000861843178
30
0
41
1
10
325.544498302206
20
-28.5768211921015
30
0
41
1
10
325.541066698608
20
-28.5534907645744
30
0
41
1
10
325.536548181862
20
-28.5213759707899
30
0
41
1
10
325.53116989927
20
-28.4802853963203
30
0
41
1
10
325.525242021858
20
-28.429925294255
30
0
41
1
10
325.519936544425
20
-28.3792722792293
30
0
41
1
10
325.515253361126
20
-28.3283510121804
30
0
41
1
10
325.511192579571
20
-28.2771857288182
30
0
41
1
10
325.507753871888
20
-28.2258008022965
30
0
41
1
10
325.50493841835
20
-28.174218754909
30
0
41
1
10
325.502741881849
20
-28.1224675434422
30
0
41
1
10
325.50118018936
20
-28.0705537984755
30
0
41
1
10
325.500194830789
20
-28.0185611303559
30
0
41
1
10
325.50006471126
20
-27.9835256153963
30
0
41
1
10
325.5
20
-27.9661016949153
30
0
0
SPLINE
5
1DA
100
AcDbEntity
8
SK1
62
256
6
ByLayer
370
18
48
1
60
0
100
AcDbSpline
70
4
71
3
72
11
73
7
40
0
40
0
40
0
40
0
40
0.242601372898441
40
0.502561214665702
40
0.761098879312109
40
1
40
1
40
1
40
1
41
1
10
-0.199999999999981
20
22.0603316233171
30
0
41
1
10
-0.200957649232635
20
22.0346776345707
30
0
41
1
10
-0.211248088565327
20
21.9856476021512
30
0
41
1
10
-0.255178473897061
20
21.9196695750856
30
0
41
1
10
-0.321112940269991
20
21.8764518787732
30
0
41
1
10
-0.36968355683026
20
21.8664032520323
30
0
41
1
10
-0.394913799811292
20
21.8654753908017
30
0
0
SPLINE
5
1DB
100
AcDbEntity
8
SK1
62
256
6
ByLayer
370
18
48
1
60
0
100
AcDbSpline
70
4
71
3
72
11
73
7
40
0
40
0
40
0
40
0
40
0.23890112120024
40
0.497438786084605
40
0.757398627621531
40
1
40
1
40
1
40
1
41
1
10
-0.394913799811292
20
-21.8654754627471
30
0
41
1
10
-0.369683556841082
20
-21.8664033239634
30
0
41
1
10
-0.321112940313121
20
-21.8764519506625
30
0
41
1
10
-0.255178473954395
20
-21.9196696467454
30
0
41
1
10
-0.211248088575928
20
-21.9856476735437
30
0
41
1
10
-0.200957649243712
20
-22.0346777057895
30
0
41
1
10
-0.200000000000003
20
-22.0603316944386
30
0
0
SPLINE
5
1DC
100
AcDbEntity
8
SK1
62
256
6
ByLayer
370
18
48
1
60
0
100
AcDbSpline
70
4
71
2
72
6
73
3
40
0
40
0
40
0
40
1
40
1
40
1
41
1
10
-36.5
20
21.1556411500792
30
0
41
1
10
-37.2500000202692
20
20.7228363924583
30
0
41
1
10
-38
20
20.2900294978113
30
0
0
SPLINE
5
1DD
100
AcDbEntity
8
SK1
62
256
6
ByLayer
370
18
48
1
60
0
100
AcDbSpline
70
4
71
2
72
6
73
3
40
0
40
0
40
0
40
1
40
1
40
1
41
1
10
-38
20
-20.2900295032223
30
0
41
1
10
-37.2500000202654
20
-20.7228363958853
30
0
41
1
10
-36.5
20
-21.1556411516461
30
0
0
SPLINE
5
1DE
100
AcDbEntity
8
SK1
62
256
6
ByLayer
370
18
48
1
60
0
100
AcDbSpline
70
4
71
2
72
6
73
3
40
0
40
0
40
0
40
1
40
1
40
1
41
1
10
-0.394913799811292
20
21.8654705382346
30
0
41
1
10
-1.19497688887514
20
21.8453761190377
30
0
41
1
10
-1.9950399779393
20
21.8252816998361
30
0
0
SPLINE
5
1DF
100
AcDbEntity
8
SK1
62
256
6
ByLayer
370
18
48
1
60
0
100
AcDbSpline
70
4
71
2
72
6
73
3
40
0
40
0
40
0
40
1
40
1
40
1
41
1
10
-1.9950399779393
20
-21.8252817664983
30
0
41
1
10
-1.19497688887514
20
-21.845376185605
30
0
41
1
10
-0.394913799811292
20
-21.8654706047072
30
0
0
SPLINE
5
1E0
100
AcDbEntity
8
SK1
62
256
6
ByLayer
370
18
48
1
60
0
100
AcDbSpline
70
4
71
3
72
13
73
9
40
0
40
0
40
0
40
0
40
0.239488446613139
40
0.368403116187249
40
0.500046645745247
40
0.631682415479622
40
0.760575689762793
40
1
40
1
40
1
40
1
41
1
10
-1.9950399779393
20
21.825286524797
30
0
41
1
10
-2.02110964951221
20
21.8248845959364
30
0
41
1
10
-2.05883938576714
20
21.8310551084546
30
0
41
1
10
-2.10627619976852
20
21.8540920367489
30
0
41
1
10
-2.1388629218354
20
21.8792518859041
30
0
41
1
10
-2.1656352691577
20
21.9105242864783
30
0
41
1
10
-2.1910323471085
20
21.9567296167895
30
0
41
1
10
-2.19909149085342
20
21.9940920912339
30
0
41
1
10
-2.2
20
22.0201427571469
30
0
0
SPLINE
5
1E1
100
AcDbEntity
8
SK1
62
256
6
ByLayer
370
18
48
1
60
0
100
AcDbSpline
70
4
71
3
72
13
73
9
40
0
40
0
40
0
40
0
40
0.239424309709105
40
0.36831758382101
40
0.499953353497804
40
0.631596883124593
40
0.760511552875627
40
1
40
1
40
1
40
1
41
1
10
-2.2
20
-22.0201428284389
30
0
41
1
10
-2.19909149084521
20
-21.994092162624
30
0
41
1
10
-2.19103234710033
20
-21.956729688326
30
0
41
1
10
-2.16563526914682
20
-21.910524358218
30
0
41
1
10
-2.138862921821
20
-21.8792519577777
30
0
41
1
10
-2.10627619975311
20
-21.8540921087329
30
0
41
1
10
-2.0588393857467
20
-21.8310551805396
30
0
41
1
10
-2.02110964950146
20
-21.8248846680467
30
0
41
1
10
-1.9950399779393
20
-21.8252865969123
30
0
0
SPLINE
5
1E2
100
AcDbEntity
8
SK1
62
256
6
ByLayer
370
18
48
1
60
0
100
AcDbSpline
70
4
71
2
72
6
73
3
40
0
40
0
40
0
40
1
40
1
40
1
41
1
10
-2.2
20
22.0136642719968
30
0
41
1
10
-19.3500000008246
20
21.5830599810351
30
0
41
1
10
-36.5
20
21.1524539804128
30
0
0
SPLINE
5
1E3
100
AcDbEntity
8
SK1
62
256
6
ByLayer
370
18
48
1
60
0
100
AcDbSpline
70
4
71
2
72
6
73
3
40
0
40
0
40
0
40
1
40
1
40
1
41
1
10
-36.5
20
-21.152454254977
30
0
41
1
10
-19.3500000008244
20
-21.5830602558515
30
0
41
1
10
-2.2
20
-22.0136645469338
30
0
0
LINE
5
9E
100
AcDbEntity
8
4
62
256
6
ByLayer
370
18
48
0.05
60
0
100
AcDbLine
10
324
20
-10
30
0
11
328
21
-10
31
0
39
0
210
0
220
0
230
1
0
LINE
5
A0
100
AcDbEntity
8
81
62
256
6
ByLayer
370
18
48
1
60
0
100
AcDbLine
10
328
20
-10
30
0
11
333
21
-10
31
0
39
0
210
0
220
0
230
1
0
LINE
5
A1
100
AcDbEntity
8
SK4
62
256
6
ByLayer
370
18
48
0.05
60
0
100
AcDbLine
10
4
20
0
30
0
11
324
21
0
31
0
39
0
210
0
220
0
230
1
0
LINE
5
A3
100
AcDbEntity
8
80
62
256
6
ByLayer
370
18
48
1
60
0
100
AcDbLine
10
0
20
0
30
0
11
-5
21
0
31
0
39
0
210
0
220
0
230
1
0
LINE
5
A4
100
AcDbEntity
8
1
62
256
6
ByLayer
370
18
48
1
60
0
100
AcDbLine
10
332.8
20
2.899495
30
0
11
332.8
21
-3.100505
31
0
39
0
210
0
220
0
230
1
0
LINE
5
A5
100
AcDbEntity
8
1
62
256
6
ByLayer
370
13
48
1
60
0
100
AcDbLine
10
328.324503
20
-2.546005
30
0
11
332.8
21
-2.546005
31
0
39
0
210
0
220
0
230
1
0
LINE
5
A6
100
AcDbEntity
8
1
62
256
6
ByLayer
370
13
48
1
60
0
100
AcDbLine
10
328.324503
20
2.344995
30
0
11
332.8
21
2.344995
31
0
39
0
210
0
220
0
230
1
0
LINE
5
A7
100
AcDbEntity
8
1
62
256
6
ByLayer
370
18
48
1
60
0
100
AcDbLine
10
332.8
20
-16.899495
30
0
11
332.8
21
-22.899495
31
0
39
0
210
0
220
0
230
1
0
LINE
5
A8
100
AcDbEntity
8
1
62
256
6
ByLayer
370
13
48
1
60
0
100
AcDbLine
10
328.324503
20
-22.344995
30
0
11
332.8
21
-22.344995
31
0
39
0
210
0
220
0
230
1
0
LINE
5
A9
100
AcDbEntity
8
1
62
256
6
ByLayer
370
13
48
1
60
0
100
AcDbLine
10
328.324503
20
-17.453995
30
0
11
332.8
21
-17.453995
31
0
39
0
210
0
220
0
230
1
0
LINE
5
AA
100
AcDbEntity
8
1
62
256
6
ByLayer
370
18
48
1
60
0
100
AcDbLine
10
324
20
29.8
30
0
11
324
21
-29.8
31
0
39
0
210
0
220
0
230
1
0
LINE
5
AB
100
AcDbEntity
8
1
62
256
6
ByLayer
370
13
48
1
60
0
100
AcDbLine
10
323.8
20
30
30
0
11
323.8
21
-30
31
0
39
0
210
0
220
0
230
1
0
LINE
5
AC
100
AcDbEntity
8
1
62
256
6
ByLayer
370
13
48
1
60
0
100
AcDbLine
10
13.461325
20
-9.349221
30
0
11
13.461325
21
-30.080593
31
0
39
0
210
0
220
0
230
1
0
LINE
5
AD
100
AcDbEntity
8
1
62
256
6
ByLayer
370
13
48
1
60
0
100
AcDbLine
10
13.894338
20
-9.869413
30
0
11
13.894338
21
-29.913955
31
0
39
0
210
0
220
0
230
1
0
LINE
5
AE
100
AcDbEntity
8
1
62
256
6
ByLayer
370
13
48
1
60
0
100
AcDbLine
10
10.105662
20
29.913955
30
0
11
10.105662
21
9.869413
31
0
39
0
210
0
220
0
230
1
0
LINE
5
AF
100
AcDbEntity
8
1
62
256
6
ByLayer
370
13
48
1
60
0
100
AcDbLine
10
10.538675
20
30.080593
30
0
11
10.538675
21
9.349221
31
0
39
0
210
0
220
0
230
1
0
LINE
5
B0
100
AcDbEntity
8
1
62
256
6
ByLayer
370
13
48
1
60
0
100
AcDbLine
10
13.461325
20
30.080593
30
0
11
13.461325
21
9.349221
31
0
39
0
210
0
220
0
230
1
0
LINE
5
B1
100
AcDbEntity
8
1
62
256
6
ByLayer
370
13
48
1
60
0
100
AcDbLine
10
13.894338
20
29.913955
30
0
11
13.894338
21
9.869413
31
0
39
0
210
0
220
0
230
1
0
LINE
5
B2
100
AcDbEntity
8
1
62
256
6
ByLayer
370
13
48
1
60
0
100
AcDbLine
10
10.105662
20
-9.869413
30
0
11
10.105662
21
-29.913955
31
0
39
0
210
0
220
0
230
1
0
LINE
5
B3
100
AcDbEntity
8
1
62
256
6
ByLayer
370
13
48
1
60
0
100
AcDbLine
10
10.538675
20
-9.349221
30
0
11
10.538675
21
-30.080593
31
0
39
0
210
0
220
0
230
1
0
LINE
5
B4
100
AcDbEntity
8
1
62
256
6
ByLayer
370
13
48
1
60
0
100
AcDbLine
10
23.4
20
-30
30
0
11
23.4
21
30
31
0
39
0
210
0
220
0
230
1
0
LINE
5
B5
100
AcDbEntity
8
1
62
256
6
ByLayer
370
13
48
1
60
0
100
AcDbLine
10
22.031377
20
31.105263
30
0
11
22.031377
21
-31.105263
31
0
39
0
210
0
220
0
230
1
0
LINE
5
B6
100
AcDbEntity
8
1
62
256
6
ByLayer
370
18
48
1
60
0
100
AcDbLine
10
0
20
-31.2
30
0
11
0
21
31.2
31
0
39
0
210
0
220
0
230
1
0
LINE
5
B7
100
AcDbEntity
8
1
62
256
6
ByLayer
370
13
48
1
60
0
100
AcDbLine
10
21.542582
20
31.5
30
0
11
21.542582
21
-31.5
31
0
39
0
210
0
220
0
230
1
0
LINE
5
B8
100
AcDbEntity
8
1
62
256
6
ByLayer
370
18
48
1
60
0
100
AcDbLine
10
0.3
20
-31.5
30
0
11
0.3
21
31.5
31
0
39
0
210
0
220
0
230
1
0
LINE
5
B9
100
AcDbEntity
8
1
62
256
6
ByLayer
370
18
48
1
60
0
100
AcDbLine
10
13.461325
20
9.349221
30
0
11
10.538675
21
9.349221
31
0
39
0
210
0
220
0
230
1
0
LINE
5
BA
100
AcDbEntity
8
1
62
256
6
ByLayer
370
18
48
1
60
0
100
AcDbLine
10
10.538675
20
30.080593
30
0
11
13.461325
21
30.080593
31
0
39
0
210
0
220
0
230
1
0
LINE
5
BB
100
AcDbEntity
8
1
62
256
6
ByLayer
370
18
48
1
60
0
100
AcDbLine
10
10.538675
20
-9.349221
30
0
11
13.461325
21
-9.349221
31
0
39
0
210
0
220
0
230
1
0
LINE
5
BC
100
AcDbEntity
8
1
62
256
6
ByLayer
370
18
48
1
60
0
100
AcDbLine
10
13.461325
20
-30.080593
30
0
11
10.538675
21
-30.080593
31
0
39
0
210
0
220
0
230
1
0
LINE
5
BD
100
AcDbEntity
8
SK1
62
256
6
ByLayer
370
18
48
1
60
0
100
AcDbLine
10
-0.2
20
-7.034158
30
0
11
-0.2
21
-22.533485
31
0
39
0
210
0
220
0
230
1
0
LINE
5
BF
100
AcDbEntity
8
SK1
62
256
6
ByLayer
370
18
48
1
60
0
100
AcDbLine
10
-0.2
20
22.533485
30
0
11
-0.2
21
7.034161
31
0
39
0
210
0
220
0
230
1
0
LINE
5
C0
100
AcDbEntity
8
SK1
62
256
6
ByLayer
370
13
48
1
60
0
100
AcDbLine
10
-1.307107
20
4.811152
30
0
11
-1.307107
21
-4.811152
31
0
39
0
210
0
220
0
230
1
0
LINE
5
C1
100
AcDbEntity
8
1
62
256
6
ByLayer
370
13
48
1
60
0
100
AcDbLine
10
332.8
20
2.899495
30
0
11
332.8
21
-3.100505
31
0
39
0
210
0
220
0
230
1
0
LINE
5
C2
100
AcDbEntity
8
1
62
256
6
ByLayer
370
18
48
1
60
0
100
AcDbLine
10
339
20
4.299495
30
0
11
339
21
-4.500505
31
0
39
0
210
0
220
0
230
1
0
LINE
5
C3
100
AcDbEntity
8
1
62
256
6
ByLayer
370
13
48
1
60
0
100
AcDbLine
10
338.4
20
4.899495
30
0
11
338.4
21
-5.100505
31
0
39
0
210
0
220
0
230
1
0
LINE
5
C4
100
AcDbEntity
8
1
62
256
6
ByLayer
370
18
48
1
60
0
100
AcDbLine
10
333
20
4.899495
30
0
11
333
21
-5.100505
31
0
39
0
210
0
220
0
230
1
0
LINE
5
C5
100
AcDbEntity
8
1
62
256
6
ByLayer
370
18
48
1
60
0
100
AcDbLine
10
328.32476
20
8.887542
30
0
11
328.32476
21
8.976857
31
0
39
0
210
0
220
0
230
1
0
LINE
5
C6
100
AcDbEntity
8
1
62
256
6
ByLayer
370
18
48
1
60
0
100
AcDbLine
10
328.32476
20
-28.976857
30
0
11
328.32476
21
-28.887542
31
0
39
0
210
0
220
0
230
1
0
LINE
5
C7
100
AcDbEntity
8
1
62
256
6
ByLayer
370
13
48
1
60
0
100
AcDbLine
10
327.650481
20
9.602807
30
0
11
327.650481
21
9.629489
31
0
39
0
210
0
220
0
230
1
0
LINE
5
C8
100
AcDbEntity
8
1
62
256
6
ByLayer
370
13
48
1
60
0
100
AcDbLine
10
327.650481
20
-29.629489
30
0
11
327.650481
21
-29.602807
31
0
39
0
210
0
220
0
230
1
0
LINE
5
C9
100
AcDbEntity
8
1
62
256
6
ByLayer
370
18
48
1
60
0
100
AcDbLine
10
328.32476
20
-28.842999
30
0
11
328.32476
21
-28.662842
31
0
39
0
210
0
220
0
230
1
0
LINE
5
CA
100
AcDbEntity
8
1
62
256
6
ByLayer
370
18
48
1
60
0
100
AcDbLine
10
328.32476
20
8.662842
30
0
11
328.32476
21
8.842999
31
0
39
0
210
0
220
0
230
1
0
LINE
5
CB
100
AcDbEntity
8
1
62
256
6
ByLayer
370
13
48
1
60
0
100
AcDbLine
10
327.650481
20
-29.470143
30
0
11
327.650481
21
-29.416627
31
0
39
0
210
0
220
0
230
1
0
LINE
5
CC
100
AcDbEntity
8
1
62
256
6
ByLayer
370
13
48
1
60
0
100
AcDbLine
10
327.650481
20
9.416627
30
0
11
327.650481
21
9.470143
31
0
39
0
210
0
220
0
230
1
0
LINE
5
CD
100
AcDbEntity
8
1
62
256
6
ByLayer
370
18
48
1
60
0
100
AcDbLine
10
328.32476
20
8.31313
30
0
11
328.32476
21
8.587525
31
0
39
0
210
0
220
0
230
1
0
LINE
5
CE
100
AcDbEntity
8
1
62
256
6
ByLayer
370
18
48
1
60
0
100
AcDbLine
10
328.32476
20
-28.587525
30
0
11
328.32476
21
-28.31313
31
0
39
0
210
0
220
0
230
1
0
LINE
5
CF
100
AcDbEntity
8
1
62
256
6
ByLayer
370
13
48
1
60
0
100
AcDbLine
10
327.650481
20
9.111162
30
0
11
327.650481
21
9.192605
31
0
39
0
210
0
220
0
230
1
0
LINE
5
D0
100
AcDbEntity
8
1
62
256
6
ByLayer
370
13
48
1
60
0
100
AcDbLine
10
327.650481
20
-29.192605
30
0
11
327.650481
21
-29.111162
31
0
39
0
210
0
220
0
230
1
0
LINE
5
D1
100
AcDbEntity
8
1
62
256
6
ByLayer
370
18
48
1
60
0
100
AcDbLine
10
328.32476
20
-28.205318
30
0
11
328.32476
21
-27.830489
31
0
39
0
210
0
220
0
230
1
0
LINE
5
D2
100
AcDbEntity
8
1
62
256
6
ByLayer
370
18
48
1
60
0
100
AcDbLine
10
328.32476
20
7.830489
30
0
11
328.32476
21
8.205318
31
0
39
0
210
0
220
0
230
1
0
LINE
5
D3
100
AcDbEntity
8
1
62
256
6
ByLayer
370
13
48
1
60
0
100
AcDbLine
10
327.650481
20
-28.791639
30
0
11
327.650481
21
-28.680651
31
0
39
0
210
0
220
0
230
1
0
LINE
5
D4
100
AcDbEntity
8
1
62
256
6
ByLayer
370
13
48
1
60
0
100
AcDbLine
10
327.650481
20
8.680651
30
0
11
327.650481
21
8.791639
31
0
39
0
210
0
220
0
230
1
0
LINE
5
D5
100
AcDbEntity
8
1
62
256
6
ByLayer
370
18
48
1
60
0
100
AcDbLine
10
328.32476
20
7.204449
30
0
11
328.32476
21
7.688163
31
0
39
0
210
0
220
0
230
1
0
LINE
5
D6
100
AcDbEntity
8
1
62
256
6
ByLayer
370
18
48
1
60
0
100
AcDbLine
10
328.32476
20
-27.688163
30
0
11
328.32476
21
-27.204449
31
0
39
0
210
0
220
0
230
1
0
LINE
5
D7
100
AcDbEntity
8
1
62
256
6
ByLayer
370
13
48
1
60
0
100
AcDbLine
10
327.650481
20
-28.259116
30
0
11
327.650481
21
-28.116188
31
0
39
0
210
0
220
0
230
1
0
LINE
5
D8
100
AcDbEntity
8
1
62
256
6
ByLayer
370
13
48
1
60
0
100
AcDbLine
10
327.650481
20
8.116188
30
0
11
327.650481
21
8.259116
31
0
39
0
210
0
220
0
230
1
0
LINE
5
D9
100
AcDbEntity
8
1
62
256
6
ByLayer
370
18
48
1
60
0
100
AcDbLine
10
328.32476
20
6.418191
30
0
11
328.32476
21
7.023766
31
0
39
0
210
0
220
0
230
1
0
LINE
5
DA
100
AcDbEntity
8
1
62
256
6
ByLayer
370
18
48
1
60
0
100
AcDbLine
10
328.32476
20
-27.023766
30
0
11
328.32476
21
-26.418191
31
0
39
0
210
0
220
0
230
1
0
LINE
5
DB
100
AcDbEntity
8
1
62
256
6
ByLayer
370
13
48
1
60
0
100
AcDbLine
10
327.650481
20
-27.583086
30
0
11
327.650481
21
-27.404844
31
0
39
0
210
0
220
0
230
1
0
LINE
5
DC
100
AcDbEntity
8
1
62
256
6
ByLayer
370
13
48
1
60
0
100
AcDbLine
10
327.650481
20
7.404844
30
0
11
327.650481
21
7.583086
31
0
39
0
210
0
220
0
230
1
0
LINE
5
DD
100
AcDbEntity
8
1
62
256
6
ByLayer
370
18
48
1
60
0
100
AcDbLine
10
328.32476
20
-26.194014
30
0
11
328.32476
21
-25.447336
31
0
39
0
210
0
220
0
230
1
0
LINE
5
DE
100
AcDbEntity
8
1
62
256
6
ByLayer
370
18
48
1
60
0
100
AcDbLine
10
328.32476
20
5.447336
30
0
11
328.32476
21
6.194014
31
0
39
0
210
0
220
0
230
1
0
LINE
5
DF
100
AcDbEntity
8
1
62
256
6
ByLayer
370
13
48
1
60
0
100
AcDbLine
10
327.650481
20
6.527523
30
0
11
327.650481
21
6.74618
31
0
39
0
210
0
220
0
230
1
0
LINE
5
E0
100
AcDbEntity
8
1
62
256
6
ByLayer
370
13
48
1
60
0
100
AcDbLine
10
327.650481
20
-26.74618
30
0
11
327.650481
21
-26.527523
31
0
39
0
210
0
220
0
230
1
0
LINE
5
E1
100
AcDbEntity
8
1
62
256
6
ByLayer
370
18
48
1
60
0
100
AcDbLine
10
328.32476
20
4.254246
30
0
11
328.32476
21
5.171803
31
0
39
0
210
0
220
0
230
1
0
LINE
5
E2
100
AcDbEntity
8
1
62
256
6
ByLayer
370
18
48
1
60
0
100
AcDbLine
10
328.32476
20
-25.171803
30
0
11
328.32476
21
-24.254246
31
0
39
0
210
0
220
0
230
1
0
LINE
5
E3
100
AcDbEntity
8
1
62
256
6
ByLayer
370
13
48
1
60
0
100
AcDbLine
10
327.650481
20
5.456027
30
0
11
327.650481
21
5.722727
31
0
39
0
210
0
220
0
230
1
0
LINE
5
E4
100
AcDbEntity
8
1
62
256
6
ByLayer
370
13
48
1
60
0
100
AcDbLine
10
327.650481
20
-25.722727
30
0
11
327.650481
21
-25.456027
31
0
39
0
210
0
220
0
230
1
0
LINE
5
E5
100
AcDbEntity
8
1
62
256
6
ByLayer
370
18
48
1
60
0
100
AcDbLine
10
328.32476
20
2.776776
30
0
11
328.32476
21
3.91478
31
0
39
0
210
0
220
0
230
1
0
LINE
5
E6
100
AcDbEntity
8
1
62
256
6
ByLayer
370
18
48
1
60
0
100
AcDbLine
10
328.32476
20
-23.91478
30
0
11
328.32476
21
-22.776776
31
0
39
0
210
0
220
0
230
1
0
LINE
5
E7
100
AcDbEntity
8
1
62
256
6
ByLayer
370
13
48
1
60
0
100
AcDbLine
10
327.650481
20
-24.473209
30
0
11
327.650481
21
-24.146205
31
0
39
0
210
0
220
0
230
1
0
LINE
5
E8
100
AcDbEntity
8
1
62
256
6
ByLayer
370
13
48
1
60
0
100
AcDbLine
10
327.650481
20
4.146205
30
0
11
327.650481
21
4.473209
31
0
39
0
210
0
220
0
230
1
0
LINE
5
E9
100
AcDbEntity
8
1
62
256
6
ByLayer
370
18
48
1
60
0
100
AcDbLine
10
328.32476
20
-22.351461
30
0
11
328.32476
21
-20.899779
31
0
39
0
210
0
220
0
230
1
0
LINE
5
EA
100
AcDbEntity
8
1
62
256
6
ByLayer
370
18
48
1
60
0
100
AcDbLine
10
328.32476
20
0.899779
30
0
11
328.32476
21
2.351461
31
0
39
0
210
0
220
0
230
1
0
LINE
5
EB
100
AcDbEntity
8
1
62
256
6
ByLayer
370
13
48
1
60
0
100
AcDbLine
10
327.650481
20
-22.932262
30
0
11
327.650481
21
-22.523683
31
0
39
0
210
0
220
0
230
1
0
LINE
5
EC
100
AcDbEntity
8
1
62
256
6
ByLayer
370
13
48
1
60
0
100
AcDbLine
10
327.650481
20
2.523683
30
0
11
327.650481
21
2.932262
31
0
39
0
210
0
220
0
230
1
0
LINE
5
ED
100
AcDbEntity
8
1
62
256
6
ByLayer
370
18
48
1
60
0
100
AcDbLine
10
328.32476
20
-20.343892
30
0
11
328.32476
21
-18.358834
31
0
39
0
210
0
220
0
230
1
0
LINE
5
EE
100
AcDbEntity
8
1
62
256
6
ByLayer
370
18
48
1
60
0
100
AcDbLine
10
328.32476
20
-1.641166
30
0
11
328.32476
21
0.343892
31
0
39
0
210
0
220
0
230
1
0
LINE
5
EF
100
AcDbEntity
8
1
62
256
6
ByLayer
370
13
48
1
60
0
100
AcDbLine
10
327.650481
20
-20.977842
30
0
11
327.650481
21
-20.444044
31
0
39
0
210
0
220
0
230
1
0
LINE
5
F0
100
AcDbEntity
8
1
62
256
6
ByLayer
370
13
48
1
60
0
100
AcDbLine
10
327.650481
20
0.444044
30
0
11
327.650481
21
0.977842
31
0
39
0
210
0
220
0
230
1
0
LINE
5
F1
100
AcDbEntity
8
1
62
256
6
ByLayer
370
18
48
1
60
0
100
AcDbLine
10
328.32476
20
-17.545435
30
0
11
328.32476
21
-14.053785
31
0
39
0
210
0
220
0
230
1
0
LINE
5
F2
100
AcDbEntity
8
1
62
256
6
ByLayer
370
18
48
1
60
0
100
AcDbLine
10
328.32476
20
-5.946215
30
0
11
328.32476
21
-2.454565
31
0
39
0
210
0
220
0
230
1
0
LINE
5
F3
100
AcDbEntity
8
1
62
256
6
ByLayer
370
13
48
1
60
0
100
AcDbLine
10
327.650481
20
-18.323618
30
0
11
327.650481
21
-17.537296
31
0
39
0
210
0
220
0
230
1
0
LINE
5
F4
100
AcDbEntity
8
1
62
256
6
ByLayer
370
13
48
1
60
0
100
AcDbLine
10
327.650481
20
-2.462704
30
0
11
327.650481
21
-1.676382
31
0
39
0
210
0
220
0
230
1
0
LINE
5
F5
100
AcDbEntity
8
1
62
256
6
ByLayer
370
18
48
1
60
0
100
AcDbLine
10
328.32476
20
-11.539836
30
0
11
328.32476
21
-8.460164
31
0
39
0
210
0
220
0
230
1
0
LINE
5
F6
100
AcDbEntity
8
1
62
256
6
ByLayer
370
13
48
1
60
0
100
AcDbLine
10
327.650481
20
-13.681336
30
0
11
327.650481
21
-10.209491
31
0
39
0
210
0
220
0
230
1
0
LINE
5
F7
100
AcDbEntity
8
1
62
256
6
ByLayer
370
13
48
1
60
0
100
AcDbLine
10
327.650481
20
-9.790509
30
0
11
327.650481
21
-6.318664
31
0
39
0
210
0
220
0
230
1
0
LINE
5
F8
100
AcDbEntity
8
1
62
256
6
ByLayer
370
18
48
1
60
0
100
AcDbLine
10
328.32476
20
-28.842999
30
0
11
328.32476
21
-28.887723
31
0
39
0
210
0
220
0
230
1
0
LINE
5
F9
100
AcDbEntity
8
1
62
256
6
ByLayer
370
18
48
1
60
0
100
AcDbLine
10
328.32476
20
-28.587525
30
0
11
328.32476
21
-28.663027
31
0
39
0
210
0
220
0
230
1
0
LINE
5
FA
100
AcDbEntity
8
1
62
256
6
ByLayer
370
18
48
1
60
0
100
AcDbLine
10
328.32476
20
-28.205318
30
0
11
328.32476
21
-28.31314
31
0
39
0
210
0
220
0
230
1
0
LINE
5
FB
100
AcDbEntity
8
1
62
256
6
ByLayer
370
18
48
1
60
0
100
AcDbLine
10
328.32476
20
-27.688163
30
0
11
328.32476
21
-27.830692
31
0
39
0
210
0
220
0
230
1
0
LINE
5
FC
100
AcDbEntity
8
1
62
256
6
ByLayer
370
18
48
1
60
0
100
AcDbLine
10
328.32476
20
-27.023766
30
0
11
328.32476
21
-27.204537
31
0
39
0
210
0
220
0
230
1
0
LINE
5
FD
100
AcDbEntity
8
1
62
256
6
ByLayer
370
18
48
1
60
0
100
AcDbLine
10
328.32476
20
-26.194014
30
0
11
328.32476
21
-26.41824
31
0
39
0
210
0
220
0
230
1
0
LINE
5
FE
100
AcDbEntity
8
1
62
256
6
ByLayer
370
18
48
1
60
0
100
AcDbLine
10
328.32476
20
-25.171803
30
0
11
328.32476
21
-25.447365
31
0
39
0
210
0
220
0
230
1
0
LINE
5
FF
100
AcDbEntity
8
1
62
256
6
ByLayer
370
18
48
1
60
0
100
AcDbLine
10
328.32476
20
-23.91478
30
0
11
328.32476
21
-24.254248
31
0
39
0
210
0
220
0
230
1
0
LINE
5
100
100
AcDbEntity
8
1
62
256
6
ByLayer
370
18
48
1
60
0
100
AcDbLine
10
328.32476
20
-22.351461
30
0
11
328.32476
21
-22.776779
31
0
39
0
210
0
220
0
230
1
0
LINE
5
101
100
AcDbEntity
8
1
62
256
6
ByLayer
370
18
48
1
60
0
100
AcDbLine
10
328.32476
20
-20.343892
30
0
11
328.32476
21
-20.899935
31
0
39
0
210
0
220
0
230
1
0
LINE
5
102
100
AcDbEntity
8
1
62
256
6
ByLayer
370
18
48
1
60
0
100
AcDbLine
10
328.32476
20
-17.545435
30
0
11
328.32476
21
-18.358893
31
0
39
0
210
0
220
0
230
1
0
LINE
5
103
100
AcDbEntity
8
1
62
256
6
ByLayer
370
18
48
1
60
0
100
AcDbLine
10
328.32476
20
-11.539836
30
0
11
328.32476
21
-14.053837
31
0
39
0
210
0
220
0
230
1
0
LINE
5
104
100
AcDbEntity
8
1
62
256
6
ByLayer
370
18
48
1
60
0
100
AcDbLine
10
328.32476
20
-5.946163
30
0
11
328.32476
21
-8.460164
31
0
39
0
210
0
220
0
230
1
0
LINE
5
105
100
AcDbEntity
8
1
62
256
6
ByLayer
370
18
48
1
60
0
100
AcDbLine
10
328.32476
20
-1.641107
30
0
11
328.32476
21
-2.454565
31
0
39
0
210
0
220
0
230
1
0
LINE
5
106
100
AcDbEntity
8
1
62
256
6
ByLayer
370
18
48
1
60
0
100
AcDbLine
10
328.32476
20
0.899935
30
0
11
328.32476
21
0.343892
31
0
39
0
210
0
220
0
230
1
0
LINE
5
107
100
AcDbEntity
8
1
62
256
6
ByLayer
370
18
48
1
60
0
100
AcDbLine
10
328.32476
20
2.776779
30
0
11
328.32476
21
2.351461
31
0
39
0
210
0
220
0
230
1
0
LINE
5
108
100
AcDbEntity
8
1
62
256
6
ByLayer
370
18
48
1
60
0
100
AcDbLine
10
328.32476
20
4.254248
30
0
11
328.32476
21
3.91478
31
0
39
0
210
0
220
0
230
1
0
LINE
5
109
100
AcDbEntity
8
1
62
256
6
ByLayer
370
18
48
1
60
0
100
AcDbLine
10
328.32476
20
5.447365
30
0
11
328.32476
21
5.171803
31
0
39
0
210
0
220
0
230
1
0
LINE
5
10A
100
AcDbEntity
8
1
62
256
6
ByLayer
370
18
48
1
60
0
100
AcDbLine
10
328.32476
20
6.41824
30
0
11
328.32476
21
6.194014
31
0
39
0
210
0
220
0
230
1
0
LINE
5
10B
100
AcDbEntity
8
1
62
256
6
ByLayer
370
18
48
1
60
0
100
AcDbLine
10
328.32476
20
7.204537
30
0
11
328.32476
21
7.023766
31
0
39
0
210
0
220
0
230
1
0
LINE
5
10C
100
AcDbEntity
8
1
62
256
6
ByLayer
370
18
48
1
60
0
100
AcDbLine
10
328.32476
20
7.830692
30
0
11
328.32476
21
7.688163
31
0
39
0
210
0
220
0
230
1
0
LINE
5
10D
100
AcDbEntity
8
1
62
256
6
ByLayer
370
18
48
1
60
0
100
AcDbLine
10
328.32476
20
8.31314
30
0
11
328.32476
21
8.205318
31
0
39
0
210
0
220
0
230
1
0
LINE
5
10E
100
AcDbEntity
8
1
62
256
6
ByLayer
370
18
48
1
60
0
100
AcDbLine
10
328.32476
20
8.663027
30
0
11
328.32476
21
8.587525
31
0
39
0
210
0
220
0
230
1
0
LINE
5
10F
100
AcDbEntity
8
1
62
256
6
ByLayer
370
18
48
1
60
0
100
AcDbLine
10
328.32476
20
8.887723
30
0
11
328.32476
21
8.842999
31
0
39
0
210
0
220
0
230
1
0
LINE
5
110
100
AcDbEntity
8
1
62
256
6
ByLayer
370
18
48
1
60
0
100
AcDbLine
10
328.32476
20
8.991672
30
0
11
328.32476
21
8.976857
31
0
39
0
210
0
220
0
230
1
0
LINE
5
111
100
AcDbEntity
8
1
62
256
6
ByLayer
370
18
48
1
60
0
100
AcDbLine
10
328.32476
20
-28.976857
30
0
11
328.32476
21
-28.991672
31
0
39
0
210
0
220
0
230
1
0
LINE
5
112
100
AcDbEntity
8
1
62
256
6
ByLayer
370
18
48
1
60
0
100
AcDbLine
10
327.32476
20
10
30
0
11
327.32476
21
-30
31
0
39
0
210
0
220
0
230
1
0
LINE
5
113
100
AcDbEntity
8
1
62
256
6
ByLayer
370
13
48
1
60
0
100
AcDbLine
10
326.5
20
10
30
0
11
326.5
21
-28.52439
31
0
39
0
210
0
220
0
230
1
0
LINE
5
114
100
AcDbEntity
8
1
62
256
6
ByLayer
370
18
48
1
60
0
100
AcDbLine
10
324
20
-29.8
30
0
11
324
21
29.8
31
0
39
0
210
0
220
0
230
1
0
LINE
5
115
100
AcDbEntity
8
1
62
256
6
ByLayer
370
18
48
1
60
0
100
AcDbLine
10
326
20
29.5
30
0
11
326
21
-27.5
31
0
39
0
210
0
220
0
230
1
0
LINE
5
116
100
AcDbEntity
8
1
62
256
6
ByLayer
370
13
48
1
60
0
100
AcDbLine
10
324.2
20
-30
30
0
11
324.2
21
30
31
0
39
0
210
0
220
0
230
1
0
LINE
5
117
100
AcDbEntity
8
1
62
256
6
ByLayer
370
18
48
1
60
0
100
AcDbLine
10
325.5
20
30
30
0
11
325.5
21
-27.966102
31
0
39
0
210
0
220
0
230
1
0
LINE
5
118
100
AcDbEntity
8
1
62
256
6
ByLayer
370
13
48
1
60
0
100
AcDbLine
10
332.8
20
-22.899495
30
0
11
332.8
21
-16.899495
31
0
39
0
210
0
220
0
230
1
0
LINE
5
119
100
AcDbEntity
8
1
62
256
6
ByLayer
370
18
48
1
60
0
100
AcDbLine
10
339
20
-24.299495
30
0
11
339
21
-15.499495
31
0
39
0
210
0
220
0
230
1
0
LINE
5
11A
100
AcDbEntity
8
1
62
256
6
ByLayer
370
13
48
1
60
0
100
AcDbLine
10
338.4
20
-24.899495
30
0
11
338.4
21
-14.899495
31
0
39
0
210
0
220
0
230
1
0
LINE
5
11B
100
AcDbEntity
8
1
62
256
6
ByLayer
370
18
48
1
60
0
100
AcDbLine
10
333
20
-24.899495
30
0
11
333
21
-14.899495
31
0
39
0
210
0
220
0
230
1
0
LINE
5
11C
100
AcDbEntity
8
1
62
256
6
ByLayer
370
18
48
1
60
0
100
AcDbLine
10
323.8
20
30
30
0
11
23.4
21
30
31
0
39
0
210
0
220
0
230
1
0
LINE
5
11D
100
AcDbEntity
8
1
62
256
6
ByLayer
370
18
48
1
60
0
100
AcDbLine
10
23.4
20
-30
30
0
11
323.8
21
-30
31
0
39
0
210
0
220
0
230
1
0
LINE
5
11E
100
AcDbEntity
8
1
62
256
6
ByLayer
370
18
48
1
60
0
100
AcDbLine
10
0
20
-31.2
30
0
11
0.3
21
-31.5
31
0
39
0
210
0
220
0
230
1
0
LINE
5
11F
100
AcDbEntity
8
1
62
256
6
ByLayer
370
18
48
1
60
0
100
AcDbLine
10
0.3
20
31.5
30
0
11
0
21
31.2
31
0
39
0
210
0
220
0
230
1
0
LINE
5
120
100
AcDbEntity
8
1
62
256
6
ByLayer
370
18
48
1
60
0
100
AcDbLine
10
21.542582
20
31.5
30
0
11
0.3
21
31.5
31
0
39
0
210
0
220
0
230
1
0
LINE
5
121
100
AcDbEntity
8
1
62
256
6
ByLayer
370
18
48
1
60
0
100
AcDbLine
10
0.3
20
-31.5
30
0
11
21.542582
21
-31.5
31
0
39
0
210
0
220
0
230
1
0
LINE
5
122
100
AcDbEntity
8
1
62
256
6
ByLayer
370
18
48
1
60
0
100
AcDbLine
10
328.324609
20
-3.100505
30
0
11
332.8
21
-3.100505
31
0
39
0
210
0
220
0
230
1
0
LINE
5
123
100
AcDbEntity
8
1
62
256
6
ByLayer
370
18
48
1
60
0
100
AcDbLine
10
332.8
20
2.899495
30
0
11
328.324609
21
2.899495
31
0
39
0
210
0
220
0
230
1
0
LINE
5
124
100
AcDbEntity
8
1
62
256
6
ByLayer
370
18
48
1
60
0
100
AcDbLine
10
333
20
-5.100505
30
0
11
338.4
21
-5.100505
31
0
39
0
210
0
220
0
230
1
0
LINE
5
125
100
AcDbEntity
8
1
62
256
6
ByLayer
370
18
48
1
60
0
100
AcDbLine
10
338.4
20
4.899495
30
0
11
333
21
4.899495
31
0
39
0
210
0
220
0
230
1
0
LINE
5
126
100
AcDbEntity
8
1
62
256
6
ByLayer
370
18
48
1
60
0
100
AcDbLine
10
327.552123
20
9.772637
30
0
11
327.32476
21
10
31
0
39
0
210
0
220
0
230
1
0
LINE
5
127
100
AcDbEntity
8
1
62
256
6
ByLayer
370
18
48
1
60
0
100
AcDbLine
10
327.32476
20
-30
30
0
11
327.552123
21
-29.772637
31
0
39
0
210
0
220
0
230
1
0
LINE
5
128
100
AcDbEntity
8
1
62
256
6
ByLayer
370
18
48
1
60
0
100
AcDbLine
10
326
20
-30
30
0
11
327.32476
21
-30
31
0
39
0
210
0
220
0
230
1
0
LINE
5
129
100
AcDbEntity
8
1
62
256
6
ByLayer
370
18
48
1
60
0
100
AcDbLine
10
327.32476
20
10
30
0
11
326.5
21
10
31
0
39
0
210
0
220
0
230
1
0
LINE
5
12A
100
AcDbEntity
8
1
62
256
6
ByLayer
370
18
48
1
60
0
100
AcDbLine
10
326
20
29.5
30
0
11
325.5
21
30
31
0
39
0
210
0
220
0
230
1
0
LINE
5
12B
100
AcDbEntity
8
1
62
256
6
ByLayer
370
18
48
1
60
0
100
AcDbLine
10
325.5
20
30
30
0
11
324.2
21
30
31
0
39
0
210
0
220
0
230
1
0
LINE
5
12C
100
AcDbEntity
8
1
62
256
6
ByLayer
370
18
48
1
60
0
100
AcDbLine
10
324.2
20
-30
30
0
11
326.02
21
-30
31
0
39
0
210
0
220
0
230
1
0
LINE
5
12D
100
AcDbEntity
8
1
62
256
6
ByLayer
370
18
48
1
60
0
100
AcDbLine
10
328.324609
20
-22.899495
30
0
11
332.8
21
-22.899495
31
0
39
0
210
0
220
0
230
1
0
LINE
5
12E
100
AcDbEntity
8
1
62
256
6
ByLayer
370
18
48
1
60
0
100
AcDbLine
10
332.8
20
-16.899495
30
0
11
328.324609
21
-16.899495
31
0
39
0
210
0
220
0
230
1
0
LINE
5
12F
100
AcDbEntity
8
1
62
256
6
ByLayer
370
18
48
1
60
0
100
AcDbLine
10
333
20
-24.899495
30
0
11
338.4
21
-24.899495
31
0
39
0
210
0
220
0
230
1
0
LINE
5
130
100
AcDbEntity
8
1
62
256
6
ByLayer
370
18
48
1
60
0
100
AcDbLine
10
338.4
20
-14.899495
30
0
11
333
21
-14.899495
31
0
39
0
210
0
220
0
230
1
0
LINE
5
131
100
AcDbEntity
8
1
62
256
6
ByLayer
370
13
48
0.05
60
0
100
AcDbLine
10
330.3
20
0
30
0
11
-6.2
21
0
31
0
39
0
210
0
220
0
230
1
0
LINE
5
132
100
AcDbEntity
8
SK2
62
256
6
ByLayer
370
18
48
1
60
0
100
AcDbLine
10
-44.6
20
-31.5
30
0
11
-44.6
21
31.5
31
0
39
0
210
0
220
0
230
1
0
LINE
5
134
100
AcDbEntity
8
SK2
62
256
6
ByLayer
370
18
48
1
60
0
100
AcDbLine
10
-1.2875
20
31.5
30
0
11
-46.6
21
31.5
31
0
39
0
210
0
220
0
230
1
0
LINE
5
135
100
AcDbEntity
8
SK2
62
256
6
ByLayer
370
18
48
1
60
0
100
AcDbLine
10
-1.2875
20
-31.5
30
0
11
-46.6
21
-31.5
31
0
39
0
210
0
220
0
230
1
0
LINE
5
136
100
AcDbEntity
8
1
62
256
6
ByLayer
370
18
48
1
60
1
100
AcDbLine
10
-44.6
20
31.5
30
0
11
-44.139216
21
28.000002
31
0
39
0
210
0
220
0
230
1
0
LINE
5
137
100
AcDbEntity
8
1
62
256
6
ByLayer
370
18
48
1
60
1
100
AcDbLine
10
-44.139216
20
28.000002
30
0
11
-45.060784
21
27.999998
31
0
39
0
210
0
220
0
230
1
0
LINE
5
138
100
AcDbEntity
8
1
62
256
6
ByLayer
370
18
48
1
60
1
100
AcDbLine
10
-45.060784
20
27.999998
30
0
11
-44.6
21
31.5
31
0
39
0
210
0
220
0
230
1
0
LINE
5
139
100
AcDbEntity
8
1
62
256
6
ByLayer
370
18
48
1
60
1
100
AcDbLine
10
-44.6
20
-31.5
30
0
11
-45.060784
21
-28.000002
31
0
39
0
210
0
220
0
230
1
0
LINE
5
13A
100
AcDbEntity
8
1
62
256
6
ByLayer
370
18
48
1
60
1
100
AcDbLine
10
-45.060784
20
-28.000002
30
0
11
-44.139216
21
-27.999998
31
0
39
0
210
0
220
0
230
1
0
LINE
5
13B
100
AcDbEntity
8
1
62
256
6
ByLayer
370
18
48
1
60
1
100
AcDbLine
10
-44.139216
20
-27.999998
30
0
11
-44.6
21
-31.5
31
0
39
0
210
0
220
0
230
1
0
LINE
5
13C
100
AcDbEntity
8
SK2
62
256
6
ByLayer
370
18
48
1
60
0
100
AcDbLine
10
359.748181
20
-30
30
0
11
359.748181
21
30
31
0
39
0
210
0
220
0
230
1
0
LINE
5
13D
100
AcDbEntity
8
SK2
62
256
6
ByLayer
370
18
48
1
60
0
100
AcDbLine
10
325.3875
20
30
30
0
11
361.748181
21
30
31
0
39
0
210
0
220
0
230
1
0
LINE
5
13E
100
AcDbEntity
8
SK2
62
256
6
ByLayer
370
18
48
1
60
0
100
AcDbLine
10
325.3875
20
-30
30
0
11
361.748181
21
-30
31
0
39
0
210
0
220
0
230
1
0
LINE
5
13F
100
AcDbEntity
8
1
62
256
6
ByLayer
370
18
48
1
60
1
100
AcDbLine
10
359.748181
20
30
30
0
11
360.208964
21
26.500002
31
0
39
0
210
0
220
0
230
1
0
LINE
5
140
100
AcDbEntity
8
1
62
256
6
ByLayer
370
18
48
1
60
1
100
AcDbLine
10
360.208964
20
26.500002
30
0
11
359.287397
21
26.499998
31
0
39
0
210
0
220
0
230
1
0
LINE
5
141
100
AcDbEntity
8
1
62
256
6
ByLayer
370
18
48
1
60
1
100
AcDbLine
10
359.287397
20
26.499998
30
0
11
359.748181
21
30
31
0
39
0
210
0
220
0
230
1
0
LINE
5
142
100
AcDbEntity
8
1
62
256
6
ByLayer
370
18
48
1
60
1
100
AcDbLine
10
359.748181
20
-30
30
0
11
359.287397
21
-26.500002
31
0
39
0
210
0
220
0
230
1
0
LINE
5
143
100
AcDbEntity
8
1
62
256
6
ByLayer
370
18
48
1
60
1
100
AcDbLine
10
359.287397
20
-26.500002
30
0
11
360.208964
21
-26.499998
31
0
39
0
210
0
220
0
230
1
0
LINE
5
144
100
AcDbEntity
8
1
62
256
6
ByLayer
370
18
48
1
60
1
100
AcDbLine
10
360.208964
20
-26.499998
30
0
11
359.748181
21
-30
31
0
39
0
210
0
220
0
230
1
0
LINE
5
145
100
AcDbEntity
8
SK2
62
256
6
ByLayer
370
13
48
1
60
0
100
AcDbLine
10
348.123181
20
10
30
0
11
348.123181
21
-30
31
0
39
0
210
0
220
0
230
1
0
LINE
5
146
100
AcDbEntity
8
SK2
62
256
6
ByLayer
370
13
48
1
60
0
100
AcDbLine
10
328.91226
20
-30
30
0
11
350.123181
21
-30
31
0
39
0
210
0
220
0
230
1
0
LINE
5
147
100
AcDbEntity
8
SK2
62
256
6
ByLayer
370
13
48
1
60
0
100
AcDbLine
10
328.91226
20
10
30
0
11
350.123181
21
10
31
0
39
0
210
0
220
0
230
1
0
LINE
5
148
100
AcDbEntity
8
1
62
256
6
ByLayer
370
18
48
1
60
1
100
AcDbLine
10
348.123181
20
-30
30
0
11
347.662397
21
-26.500002
31
0
39
0
210
0
220
0
230
1
0
LINE
5
149
100
AcDbEntity
8
1
62
256
6
ByLayer
370
18
48
1
60
1
100
AcDbLine
10
347.662397
20
-26.500002
30
0
11
348.583964
21
-26.499998
31
0
39
0
210
0
220
0
230
1
0
LINE
5
14A
100
AcDbEntity
8
1
62
256
6
ByLayer
370
18
48
1
60
1
100
AcDbLine
10
348.583964
20
-26.499998
30
0
11
348.123181
21
-30
31
0
39
0
210
0
220
0
230
1
0
LINE
5
14B
100
AcDbEntity
8
1
62
256
6
ByLayer
370
18
48
1
60
1
100
AcDbLine
10
348.123181
20
10
30
0
11
348.583964
21
6.500002
31
0
39
0
210
0
220
0
230
1
0
LINE
5
14C
100
AcDbEntity
8
1
62
256
6
ByLayer
370
18
48
1
60
1
100
AcDbLine
10
348.583964
20
6.500002
30
0
11
347.662397
21
6.499998
31
0
39
0
210
0
220
0
230
1
0
LINE
5
14D
100
AcDbEntity
8
1
62
256
6
ByLayer
370
18
48
1
60
1
100
AcDbLine
10
347.662397
20
6.499998
30
0
11
348.123181
21
10
31
0
39
0
210
0
220
0
230
1
0
LINE
5
14E
100
AcDbEntity
8
SK2
62
256
6
ByLayer
370
18
48
1
60
0
100
AcDbLine
10
0
20
37.1
30
0
11
328
21
37.1
31
0
39
0
210
0
220
0
230
1
0
LINE
5
14F
100
AcDbEntity
8
SK2
62
256
6
ByLayer
370
18
48
1
60
0
100
AcDbLine
10
328
20
31.5875
30
0
11
328
21
39.1
31
0
39
0
210
0
220
0
230
1
0
LINE
5
150
100
AcDbEntity
8
SK2
62
256
6
ByLayer
370
18
48
1
60
0
100
AcDbLine
10
0
20
32.7875
30
0
11
0
21
39.1
31
0
39
0
210
0
220
0
230
1
0
LINE
5
151
100
AcDbEntity
8
1
62
256
6
ByLayer
370
18
48
1
60
1
100
AcDbLine
10
328
20
37.1
30
0
11
324.500002
21
36.639216
31
0
39
0
210
0
220
0
230
1
0
LINE
5
152
100
AcDbEntity
8
1
62
256
6
ByLayer
370
18
48
1
60
1
100
AcDbLine
10
324.500002
20
36.639216
30
0
11
324.499998
21
37.560784
31
0
39
0
210
0
220
0
230
1
0
LINE
5
153
100
AcDbEntity
8
1
62
256
6
ByLayer
370
18
48
1
60
1
100
AcDbLine
10
324.499998
20
37.560784
30
0
11
328
21
37.1
31
0
39
0
210
0
220
0
230
1
0
LINE
5
154
100
AcDbEntity
8
1
62
256
6
ByLayer
370
18
48
1
60
1
100
AcDbLine
10
0
20
37.1
30
0
11
3.499998
21
37.560784
31
0
39
0
210
0
220
0
230
1
0
LINE
5
155
100
AcDbEntity
8
1
62
256
6
ByLayer
370
18
48
1
60
1
100
AcDbLine
10
3.499998
20
37.560784
30
0
11
3.500002
21
36.639216
31
0
39
0
210
0
220
0
230
1
0
LINE
5
156
100
AcDbEntity
8
1
62
256
6
ByLayer
370
18
48
1
60
1
100
AcDbLine
10
3.500002
20
36.639216
30
0
11
0
21
37.1
31
0
39
0
210
0
220
0
230
1
0
LINE
5
1E8
100
AcDbEntity
8
1
62
256
6
ByLayer
370
18
48
1
60
1
100
AcDbLine
10
-44.6
20
31.5
30
0
11
-44.139216
21
28.000002
31
0
39
0
210
0
220
0
230
1
0
LINE
5
1E9
100
AcDbEntity
8
1
62
256
6
ByLayer
370
18
48
1
60
1
100
AcDbLine
10
-44.139216
20
28.000002
30
0
11
-45.060784
21
27.999998
31
0
39
0
210
0
220
0
230
1
0
LINE
5
1EA
100
AcDbEntity
8
1
62
256
6
ByLayer
370
18
48
1
60
1
100
AcDbLine
10
-45.060784
20
27.999998
30
0
11
-44.6
21
31.5
31
0
39
0
210
0
220
0
230
1
0
LINE
5
1EC
100
AcDbEntity
8
1
62
256
6
ByLayer
370
18
48
1
60
1
100
AcDbLine
10
-44.6
20
-31.5
30
0
11
-45.060784
21
-28.000002
31
0
39
0
210
0
220
0
230
1
0
LINE
5
1ED
100
AcDbEntity
8
1
62
256
6
ByLayer
370
18
48
1
60
1
100
AcDbLine
10
-45.060784
20
-28.000002
30
0
11
-44.139216
21
-27.999998
31
0
39
0
210
0
220
0
230
1
0
LINE
5
1EE
100
AcDbEntity
8
1
62
256
6
ByLayer
370
18
48
1
60
1
100
AcDbLine
10
-44.139216
20
-27.999998
30
0
11
-44.6
21
-31.5
31
0
39
0
210
0
220
0
230
1
0
LINE
5
1F2
100
AcDbEntity
8
1
62
256
6
ByLayer
370
18
48
1
60
1
100
AcDbLine
10
359.748181
20
30
30
0
11
360.208964
21
26.500002
31
0
39
0
210
0
220
0
230
1
0
LINE
5
1F3
100
AcDbEntity
8
1
62
256
6
ByLayer
370
18
48
1
60
1
100
AcDbLine
10
360.208964
20
26.500002
30
0
11
359.287397
21
26.499998
31
0
39
0
210
0
220
0
230
1
0
LINE
5
1F4
100
AcDbEntity
8
1
62
256
6
ByLayer
370
18
48
1
60
1
100
AcDbLine
10
359.287397
20
26.499998
30
0
11
359.748181
21
30
31
0
39
0
210
0
220
0
230
1
0
LINE
5
1F6
100
AcDbEntity
8
1
62
256
6
ByLayer
370
18
48
1
60
1
100
AcDbLine
10
359.748181
20
-30
30
0
11
359.287397
21
-26.500002
31
0
39
0
210
0
220
0
230
1
0
LINE
5
1F7
100
AcDbEntity
8
1
62
256
6
ByLayer
370
18
48
1
60
1
100
AcDbLine
10
359.287397
20
-26.500002
30
0
11
360.208964
21
-26.499998
31
0
39
0
210
0
220
0
230
1
0
LINE
5
1F8
100
AcDbEntity
8
1
62
256
6
ByLayer
370
18
48
1
60
1
100
AcDbLine
10
360.208964
20
-26.499998
30
0
11
359.748181
21
-30
31
0
39
0
210
0
220
0
230
1
0
LINE
5
1FE
100
AcDbEntity
8
1
62
256
6
ByLayer
370
18
48
1
60
1
100
AcDbLine
10
348.123181
20
-30
30
0
11
347.662397
21
-26.500002
31
0
39
0
210
0
220
0
230
1
0
LINE
5
1FF
100
AcDbEntity
8
1
62
256
6
ByLayer
370
18
48
1
60
1
100
AcDbLine
10
347.662397
20
-26.500002
30
0
11
348.583964
21
-26.499998
31
0
39
0
210
0
220
0
230
1
0
LINE
5
200
100
AcDbEntity
8
1
62
256
6
ByLayer
370
18
48
1
60
1
100
AcDbLine
10
348.583964
20
-26.499998
30
0
11
348.123181
21
-30
31
0
39
0
210
0
220
0
230
1
0
LINE
5
202
100
AcDbEntity
8
1
62
256
6
ByLayer
370
18
48
1
60
1
100
AcDbLine
10
348.123181
20
10
30
0
11
348.583964
21
6.500002
31
0
39
0
210
0
220
0
230
1
0
LINE
5
203
100
AcDbEntity
8
1
62
256
6
ByLayer
370
18
48
1
60
1
100
AcDbLine
10
348.583964
20
6.500002
30
0
11
347.662397
21
6.499998
31
0
39
0
210
0
220
0
230
1
0
LINE
5
204
100
AcDbEntity
8
1
62
256
6
ByLayer
370
18
48
1
60
1
100
AcDbLine
10
347.662397
20
6.499998
30
0
11
348.123181
21
10
31
0
39
0
210
0
220
0
230
1
0
LINE
5
207
100
AcDbEntity
8
1
62
256
6
ByLayer
370
18
48
1
60
1
100
AcDbLine
10
328
20
37.1
30
0
11
324.500002
21
36.639216
31
0
39
0
210
0
220
0
230
1
0
LINE
5
208
100
AcDbEntity
8
1
62
256
6
ByLayer
370
18
48
1
60
1
100
AcDbLine
10
324.500002
20
36.639216
30
0
11
324.499998
21
37.560784
31
0
39
0
210
0
220
0
230
1
0
LINE
5
209
100
AcDbEntity
8
1
62
256
6
ByLayer
370
18
48
1
60
1
100
AcDbLine
10
324.499998
20
37.560784
30
0
11
328
21
37.1
31
0
39
0
210
0
220
0
230
1
0
LINE
5
20B
100
AcDbEntity
8
1
62
256
6
ByLayer
370
18
48
1
60
1
100
AcDbLine
10
0
20
37.1
30
0
11
3.499998
21
37.560784
31
0
39
0
210
0
220
0
230
1
0
LINE
5
20C
100
AcDbEntity
8
1
62
256
6
ByLayer
370
18
48
1
60
1
100
AcDbLine
10
3.499998
20
37.560784
30
0
11
3.500002
21
36.639216
31
0
39
0
210
0
220
0
230
1
0
LINE
5
20D
100
AcDbEntity
8
1
62
256
6
ByLayer
370
18
48
1
60
1
100
AcDbLine
10
3.500002
20
36.639216
30
0
11
0
21
37.1
31
0
39
0
210
0
220
0
230
1
0
MTEXT
5
1E4
100
AcDbEntity
8
SK2
62
256
6
ByLayer
370
18
48
1
60
0
100
AcDbMText
10
-46.164634
20
-4.530622
30
0
210
0
220
0
230
1
1
%%c
40
3.5
41
0
44
1.084337
50
90
71
7
72
5
7
iso_b_vert
0
MTEXT
5
1E7
100
AcDbEntity
8
SK2
62
256
6
ByLayer
370
18
48
1
60
0
100
AcDbMText
10
-46.164634
20
2.442034
30
0
210
0
220
0
230
1
1
\W0.6740;63
40
3.5
41
0
44
1.084337
50
90
71
7
72
5
7
iso_b_vert
0
MTEXT
5
1F0
100
AcDbEntity
8
SK2
62
256
6
ByLayer
370
18
48
1
60
0
100
AcDbMText
10
358.183547
20
-4.530622
30
0
210
0
220
0
230
1
1
%%c
40
3.5
41
0
44
1.084337
50
90
71
7
72
5
7
iso_b_vert
0
MTEXT
5
1F1
100
AcDbEntity
8
SK2
62
256
6
ByLayer
370
18
48
1
60
0
100
AcDbMText
10
358.183547
20
2.442034
30
0
210
0
220
0
230
1
1
\W0.6740;60
40
3.5
41
0
44
1.084337
50
90
71
7
72
5
7
iso_b_vert
0
MTEXT
5
1FA
100
AcDbEntity
8
SK2
62
256
6
ByLayer
370
18
48
1
60
0
100
AcDbMText
10
345.902297
20
-3.192767
30
0
210
0
220
0
230
1
1
\W1.1313;{\H1.88x;)}
40
3.5
41
0
44
1.084337
50
90
71
7
72
5
7
iso_b_vert
0
MTEXT
5
1FB
100
AcDbEntity
8
SK2
62
256
6
ByLayer
370
18
48
1
60
0
100
AcDbMText
10
345.902297
20
-18.942233
30
0
210
0
220
0
230
1
1
\W1.1313;{\H1.88x;(}
40
3.5
41
0
44
1.084337
50
90
71
7
72
5
7
iso_b_vert
0
MTEXT
5
1FC
100
AcDbEntity
8
SK2
62
256
6
ByLayer
370
18
48
1
60
0
100
AcDbMText
10
345.902297
20
-14.714889
30
0
210
0
220
0
230
1
1
%%c
40
3.5
41
0
44
1.084337
50
90
71
7
72
5
7
iso_b_vert
0
MTEXT
5
1FD
100
AcDbEntity
8
SK2
62
256
6
ByLayer
370
18
48
1
60
0
100
AcDbMText
10
345.902297
20
-7.742233
30
0
210
0
220
0
230
1
1
\W0.7361;40
40
3.5
41
0
44
1.084337
50
90
71
7
72
5
7
iso_b_vert
0
MTEXT
5
206
100
AcDbEntity
8
SK2
62
256
6
ByLayer
370
18
48
1
60
0
100
AcDbMText
10
160.787301
20
38.132634
30
0
210
0
220
0
230
1
1
\W0.7138;328
40
3.5
41
0
44
1.084337
50
0
71
7
72
5
7
iso_b_vert
0
MTEXT
5
20F
100
AcDbEntity
8
SK6
62
256
6
ByLayer
370
18
48
1
60
0
100
AcDbMText
10
127.45216
20
-57.067366
30
0
210
0
220
0
230
1
1
\W0.7705;HT30D-C6 60 328L40
40
3.5
41
0
44
1.084337
50
0
71
7
72
5
7
iso_b_vert
0
HATCH
5
1EB
100
AcDbEntity
8
SK2
62
256
6
ByLayer
370
13
48
1
60
0
100
AcDbHatch
10
0
20
0
30
0
210
0
220
0
230
1
2
ANSI31
70
0
71
0
91
1
92
5
93
3
72
1
10
-44.6
20
31.5
11
-44.1392162584472
21
28.0000016925532
72
1
10
-44.1392162584472
20
28.0000016925532
11
-45.0607837415528
21
27.9999983074468
72
1
10
-45.0607837415528
20
27.9999983074468
11
-44.6
21
31.5
97
0
75
0
76
1
52
0
41
0.0062
77
0
78
1
53
45
43
0
44
0
45
-0.0139193969876572
46
0.0139193969876572
79
0
47
0
98
1
10
0
20
0
0
HATCH
5
1EF
100
AcDbEntity
8
SK2
62
256
6
ByLayer
370
13
48
1
60
0
100
AcDbHatch
10
0
20
0
30
0
210
0
220
0
230
1
2
ANSI31
70
0
71
0
91
1
92
5
93
3
72
1
10
-44.6
20
-31.5
11
-45.0607837415528
21
-28.0000016925532
72
1
10
-45.0607837415528
20
-28.0000016925532
11
-44.1392162584472
21
-27.9999983074468
72
1
10
-44.1392162584472
20
-27.9999983074468
11
-44.6
21
-31.5
97
0
75
0
76
1
52
0
41
0.0062
77
0
78
1
53
45
43
0
44
0
45
-0.0139193969876572
46
0.0139193969876572
79
0
47
0
98
1
10
0
20
0
0
HATCH
5
1F5
100
AcDbEntity
8
SK2
62
256
6
ByLayer
370
13
48
1
60
0
100
AcDbHatch
10
0
20
0
30
0
210
0
220
0
230
1
2
ANSI31
70
0
71
0
91
1
92
5
93
3
72
1
10
359.748180566759
20
30
11
360.208964308312
21
26.5000016925532
72
1
10
360.208964308312
20
26.5000016925532
11
359.287396825206
21
26.4999983074468
72
1
10
359.287396825206
20
26.4999983074468
11
359.748180566759
21
30
97
0
75
0
76
1
52
0
41
0.0062
77
0
78
1
53
45
43
0
44
0
45
-0.0139193969876572
46
0.0139193969876572
79
0
47
0
98
1
10
0
20
0
0
HATCH
5
1F9
100
AcDbEntity
8
SK2
62
256
6
ByLayer
370
13
48
1
60
0
100
AcDbHatch
10
0
20
0
30
0
210
0
220
0
230
1
2
ANSI31
70
0
71
0
91
1
92
5
93
3
72
1
10
359.748180566759
20
-30
11
359.287396825206
21
-26.5000016925532
72
1
10
359.287396825206
20
-26.5000016925532
11
360.208964308312
21
-26.4999983074468
72
1
10
360.208964308312
20
-26.4999983074468
11
359.748180566759
21
-30
97
0
75
0
76
1
52
0
41
0.0062
77
0
78
1
53
45
43
0
44
0
45
-0.0139193969876572
46
0.0139193969876572
79
0
47
0
98
1
10
0
20
0
0
HATCH
5
201
100
AcDbEntity
8
SK2
62
256
6
ByLayer
370
13
48
1
60
0
100
AcDbHatch
10
0
20
0
30
0
210
0
220
0
230
1
2
ANSI31
70
0
71
0
91
1
92
5
93
3
72
1
10
348.123180566759
20
-30
11
347.662396825206
21
-26.5000016925532
72
1
10
347.662396825206
20
-26.5000016925532
11
348.583964308312
21
-26.4999983074468
72
1
10
348.583964308312
20
-26.4999983074468
11
348.123180566759
21
-30
97
0
75
0
76
1
52
0
41
0.0062
77
0
78
1
53
45
43
0
44
0
45
-0.0139193969876572
46
0.0139193969876572
79
0
47
0
98
1
10
0
20
0
0
HATCH
5
205
100
AcDbEntity
8
SK2
62
256
6
ByLayer
370
13
48
1
60
0
100
AcDbHatch
10
0
20
0
30
0
210
0
220
0
230
1
2
ANSI31
70
0
71
0
91
1
92
5
93
3
72
1
10
348.123180566759
20
10
11
348.583964308312
21
6.50000169255318
72
1
10
348.583964308312
20
6.50000169255318
11
347.662396825206
21
6.49999830744682
72
1
10
347.662396825206
20
6.49999830744682
11
348.123180566759
21
10
97
0
75
0
76
1
52
0
41
0.0062
77
0
78
1
53
45
43
0
44
0
45
-0.0139193969876572
46
0.0139193969876572
79
0
47
0
98
1
10
0
20
0
0
HATCH
5
20A
100
AcDbEntity
8
SK2
62
256
6
ByLayer
370
13
48
1
60
0
100
AcDbHatch
10
0
20
0
30
0
210
0
220
0
230
1
2
ANSI31
70
0
71
0
91
1
92
5
93
3
72
1
10
328
20
37.1
11
324.500001692553
21
36.6392162584472
72
1
10
324.500001692553
20
36.6392162584472
11
324.499998307447
21
37.5607837415528
72
1
10
324.499998307447
20
37.5607837415528
11
328
21
37.1
97
0
75
0
76
1
52
0
41
0.0062
77
0
78
1
53
45
43
0
44
0
45
-0.0139193969876572
46
0.0139193969876572
79
0
47
0
98
1
10
0
20
0
0
HATCH
5
20E
100
AcDbEntity
8
SK2
62
256
6
ByLayer
370
13
48
1
60
0
100
AcDbHatch
10
0
20
0
30
0
210
0
220
0
230
1
2
ANSI31
70
0
71
0
91
1
92
5
93
3
72
1
10
0
20
37.1
11
3.49999830744681
21
37.5607837415528
72
1
10
3.49999830744681
20
37.5607837415528
11
3.50000169255319
21
36.6392162584472
72
1
10
3.50000169255319
20
36.6392162584472
11
0
21
37.1
97
0
75
0
76
1
52
0
41
0.0062
77
0
78
1
53
45
43
0
44
0
45
-0.0139193969876572
46
0.0139193969876572
79
0
47
0
98
1
10
0
20
0
0
DIMENSION
5
212
100
AcDbEntity
8
SK2
62
256
6
ByLayer
370
18
48
1
60
0
100
AcDbDimension
2
_U0
10
328
20
-44.6
30
0
11
175.7
21
-44.6
31
0
70
32
71
1
72
1
41
1
210
0
220
0
230
1
3
Standard
100
AcDbAlignedDimension
13
23.4
23
-30
33
0
14
328
24
30
34
0
50
0
100
AcDbRotatedDimension
1001
ACAD
1000
DSTYLE
1002
{
1070
   371
1070
    13
1070
   372
1070
    13
1070
   170
1070
     0
1070
   144
1040
1.0
1070
   277
1070
     2
1070
   284
1070
     8
1070
   278
1070
    46
1070
   146
1040
1.0
1070
   345
1005
16
1070
   347
1005
16
1070
   346
1005
16
1070
   344
1005
0
1070
   343
1005
0
1070
   172
1070
     1
1070
    76
1070
     0
1070
    75
1070
     0
1070
   282
1070
     0
1070
   281
1070
     0
1070
    71
1070
     0
1070
    74
1070
     0
1070
   279
1070
     0
1070
   173
1070
     1
1070
   340
1005
1E5
1070
   271
1070
     2
1070
   272
1070
     2
1070
    77
1070
     1
1070
    73
1070
     1
1070
   171
1070
     3
1070
   274
1070
     4
1070
   177
1070
     2
1070
   176
1070
     2
1070
   178
1070
     2
1070
    78
1070
     8
1070
    48
1040
-0.1
1070
    41
1040
3.5
1070
   147
1040
1.75
1070
    42
1040
1.5875
1070
    44
1040
2.0
1070
   140
1040
3.5
1002
}
1001
ACAD_DSTYLE_DIM_LINETYPE
1070
   380
1005
16
1001
ACAD_DSTYLE_DIM_EXT1_LINETYPE
1070
   381
1005
16
1001
ACAD_DSTYLE_DIM_EXT2_LINETYPE
1070
   382
1005
16
0
ENDSEC
0
SECTION
2
OBJECTS
0
DICTIONARY
5
29b
330
0
100
AcDbDictionary
280
0
281
1
3
ACAD_GROUP
350
29c
3
ACAD_MLINESTYLE
350
29d
0
DICTIONARY
5
29c
330
0
100
AcDbDictionary
280
0
281
1
0
DICTIONARY
5
29d
330
0
100
AcDbDictionary
280
0
281
1
3
Standard
350
18
0
MLINESTYLE
5
18
330
29d
100
AcDbMlineStyle
2
Standard
70
0
3

62
256
51
90
52
90
71
2
49
-0.5
62
256
6
ByLayer
49
0.5
62
256
6
ByLayer
0
RASTERVARIABLES
5
289
330

100
AcDbRasterVariables
90
0
70
1
71
1
72
1
0
ENDSEC
0
EOF
