0
SECTION
2
HEADER
9
$ACADVER
1
AC1015
9
$DWGCODEPAGE
3
ANSI_1252
9
$HANDSEED
5
2b9
9
$ANGBASE
50
0
9
$ANGDIR
70
0
9
$ATTMODE
70
1
9
$AUNITS
70
0
9
$AUPREC
70
0
9
$CECOLOR
62
256
9
$CELTSCALE
40
1
9
$CELTYPE
6
ByLayer
9
$CELWEIGHT
370
18
9
$CLAYER
8
0
9
$CMLJUST
70
0
9
$CMLSCALE
40
1
9
$CMLSTYLE
2
Standard
9
$DIMSTYLE
2
Standard
9
$TEXTSIZE
40
0.2
9
$TEXTSTYLE
7
Standard
9
$LUNITS
70
2
9
$LUPREC
70
4
9
$EXTNAMES
290
1
9
$INSUNITS
70
4
9
$LTSCALE
40
1
9
$LWDISPLAY
290
1
9
$PDMODE
70
0
9
$PDSIZE
40
0
9
$PLINEGEN
70
0
0
ENDSEC
0
SECTION
2
CLASSES
0
CLASS
1
RASTERVARIABLES
2
AcDbRasterVariables
3
ISM
90
0
280
0
281
0
0
ENDSEC
0
SECTION
2
TABLES
0
TABLE
2
VPORT
5
2af
100
AcDbSymbolTable
0
VPORT
5
1
100
AcDbSymbolTableRecord
100
AcDbViewportTableRecord
2
*Active
70
0
10
0
20
0
11
1
21
1
12
-1
22
1
13
0
23
0
14
0.5
24
0.5
15
10
25
10
16
0
26
0
36
1
17
0
27
0
37
0
0
ENDTAB
0
TABLE
2
LTYPE
5
2b0
100
AcDbSymbolTable
0
LTYPE
5
14
100
AcDbSymbolTableRecord
100
AcDbLinetypeTableRecord
70
0
2
ByBlock
3

72
65
73
0
40
0
0
LTYPE
5
15
100
AcDbSymbolTableRecord
100
AcDbLinetypeTableRecord
70
0
2
ByLayer
3

72
65
73
0
40
0
0
LTYPE
5
16
100
AcDbSymbolTableRecord
100
AcDbLinetypeTableRecord
70
0
2
Continuous
3
Solid line
72
65
73
0
40
0
0
LTYPE
5
6E
100
AcDbSymbolTableRecord
100
AcDbLinetypeTableRecord
70
0
2
CENTER
3
____ _ ____ _ ____ _ ____
72
65
73
4
40
47.5
49
22
74
0
49
-8.5
74
0
49
8.5
74
0
49
-8.5
74
0
0
LTYPE
5
6F
100
AcDbSymbolTableRecord
100
AcDbLinetypeTableRecord
70
0
2
DASHED
3
__ __ __ __ __ __ __ __ __
72
65
73
2
40
25.72
49
12.86
74
0
49
-12.86
74
0
0
ENDTAB
0
TABLE
2
LAYER
5
2b1
100
AcDbSymbolTable
0
LAYER
5
10
100
AcDbSymbolTableRecord
100
AcDbLayerTableRecord
2
0
70
0
62
7
6
Continuous
290
1
370
-3
390
0
0
LAYER
5
71
100
AcDbSymbolTableRecord
100
AcDbLayerTableRecord
2
2
70
0
62
7
6
Continuous
290
1
370
-3
390
0
0
LAYER
5
98
100
AcDbSymbolTableRecord
100
AcDbLayerTableRecord
2
81
70
0
62
-3
6
Continuous
290
1
370
-3
390
0
0
LAYER
5
9A
100
AcDbSymbolTableRecord
100
AcDbLayerTableRecord
2
80
70
0
62
-6
6
Continuous
290
1
370
-3
390
0
0
LAYER
5
9C
100
AcDbSymbolTableRecord
100
AcDbLayerTableRecord
2
1
70
0
62
4
6
Continuous
290
1
370
-3
390
0
0
LAYER
5
AA
100
AcDbSymbolTableRecord
100
AcDbLayerTableRecord
2
4
70
0
62
-2
6
CENTER
290
1
370
-3
390
0
0
LAYER
5
226
100
AcDbSymbolTableRecord
100
AcDbLayerTableRecord
2
Defpoints
70
0
62
7
6
Continuous
290
0
370
-3
390
0
0
LAYER
5
29b
100
AcDbSymbolTableRecord
100
AcDbLayerTableRecord
2
SK4
70
0
62
2
6
CENTER
290
1
370
-3
390
0
0
LAYER
5
29c
100
AcDbSymbolTableRecord
100
AcDbLayerTableRecord
2
SK1
70
0
62
4
6
Continuous
290
1
370
-3
390
0
0
LAYER
5
29d
100
AcDbSymbolTableRecord
100
AcDbLayerTableRecord
2
SK2
70
0
62
7
6
Continuous
290
1
370
-3
390
0
0
LAYER
5
29e
100
AcDbSymbolTableRecord
100
AcDbLayerTableRecord
2
SK6
70
0
62
5
6
Continuous
290
1
370
-3
390
0
0
ENDTAB
0
TABLE
2
STYLE
5
2b2
100
AcDbSymbolTable
0
STYLE
5
11
100
AcDbSymbolTableRecord
100
AcDbTextStyleTableRecord
2
Standard
3
txt
70
0
71
0
40
0
41
1
42
0
50
0
0
STYLE
5
1F6
100
AcDbSymbolTableRecord
100
AcDbTextStyleTableRecord
2
iso_b_vert
3
simplex.shx
70
0
71
0
40
0
41
1
42
0
50
0
0
STYLE
5
1F7
100
AcDbSymbolTableRecord
100
AcDbTextStyleTableRecord
2
DWGDirectTextStyle
3
simplex
70
0
71
0
40
0
41
1
42
0
50
0
0
ENDTAB
0
TABLE
2
DIMSTYLE
5
2b3
100
AcDbSymbolTable
100
AcDbDimStyleTable
0
DIMSTYLE
105
27
100
AcDbSymbolTableRecord
100
AcDbDimStyleTableRecord
2
Standard
70
0
3
<>
41
0.18
42
0.0625
44
0.18
140
0.18
147
0.09
73
0
74
0
77
1
271
2
275
0
278
52
280
0
340
11
0
ENDTAB
0
TABLE
2
VIEW
5
2b4
100
AcDbSymbolTable
0
ENDTAB
0
TABLE
2
UCS
5
2b5
100
AcDbSymbolTable
0
ENDTAB
0
TABLE
2
APPID
5
2b6
100
AcDbSymbolTable
0
APPID
5
12
100
AcDbSymbolTableRecord
100
AcDbRegAppTableRecord
2
ACAD
70
0
0
APPID
5
222
100
AcDbSymbolTableRecord
100
AcDbRegAppTableRecord
2
ACAD_DSTYLE_DIMBREAK
70
0
0
APPID
5
25A
100
AcDbSymbolTableRecord
100
AcDbRegAppTableRecord
2
ACAD_DSTYLE_DIM_LINETYPE
70
0
0
APPID
5
25B
100
AcDbSymbolTableRecord
100
AcDbRegAppTableRecord
2
ACAD_DSTYLE_DIM_EXT1_LINETYPE
70
0
0
APPID
5
25C
100
AcDbSymbolTableRecord
100
AcDbRegAppTableRecord
2
ACAD_DSTYLE_DIM_EXT2_LINETYPE
70
0
0
APPID
5
297
100
AcDbSymbolTableRecord
100
AcDbRegAppTableRecord
2
ACAD_MLEADERVER
70
0
0
ENDTAB
0
TABLE
2
BLOCK_RECORD
5
2b7
100
AcDbSymbolTable
0
BLOCK_RECORD
5
1F
100
AcDbSymbolTableRecord
100
AcDbBlockTableRecord
2
*Model_Space
340
0
70
0
0
BLOCK_RECORD
5
1B
100
AcDbSymbolTableRecord
100
AcDbBlockTableRecord
2
*Paper_Space
340
0
70
0
0
BLOCK_RECORD
5
23
100
AcDbSymbolTableRecord
100
AcDbBlockTableRecord
2
*Paper_Space0
340
0
70
0
0
BLOCK_RECORD
5
227
100
AcDbSymbolTableRecord
100
AcDbBlockTableRecord
2
*D1
340
0
70
0
0
BLOCK_RECORD
5
233
100
AcDbSymbolTableRecord
100
AcDbBlockTableRecord
2
_U0
340
0
70
0
0
ENDTAB
0
ENDSEC
0
SECTION
2
BLOCKS
0
BLOCK
5
20
100
AcDbEntity
8
0
100
AcDbBlockBegin
2
*Model_Space
70
0
10
0
20
0
30
0
3
*Model_Space
0
ENDBLK
5
21
100
AcDbEntity
8
0
100
AcDbBlockEnd
0
BLOCK
5
1C
100
AcDbEntity
8
0
100
AcDbBlockBegin
2
*Paper_Space
70
0
10
0
20
0
30
0
3
*Paper_Space
0
ENDBLK
5
1D
100
AcDbEntity
8
0
100
AcDbBlockEnd
0
BLOCK
5
24
100
AcDbEntity
8
0
100
AcDbBlockBegin
2
*Paper_Space0
70
0
10
0
20
0
30
0
3
*Paper_Space0
0
ENDBLK
5
25
100
AcDbEntity
8
0
100
AcDbBlockEnd
0
BLOCK
5
228
100
AcDbEntity
8
0
100
AcDbBlockBegin
2
*D1
70
1
10
0
20
0
30
0
3
*D1
0
LINE
5
22A
100
AcDbEntity
8
0
62
256
6
ByLayer
370
-2
48
1
60
0
100
AcDbLine
10
25
20
-26.5875
30
0
11
25
21
-46.6
31
0
39
0
210
0
220
0
230
1
0
LINE
5
22B
100
AcDbEntity
8
0
62
256
6
ByLayer
370
-2
48
1
60
0
100
AcDbLine
10
268
20
23.4125
30
0
11
268
21
-46.6
31
0
39
0
210
0
220
0
230
1
0
LINE
5
22C
100
AcDbEntity
8
0
62
256
6
ByLayer
370
-2
48
1
60
0
100
AcDbLine
10
28.5
20
-44.6
30
0
11
264.5
21
-44.6
31
0
39
0
210
0
220
0
230
1
0
SOLID
5
22D
100
AcDbEntity
8
0
62
256
6
ByLayer
370
-1
48
1
60
0
100
AcDbTrace
10
28.5
20
-44.016667
30
0
11
28.5
21
-45.183333
31
0
12
25
22
-44.6
32
0
13
25
23
-44.6
33
0
39
0
210
0
220
0
230
1
0
SOLID
5
22E
100
AcDbEntity
8
0
62
256
6
ByLayer
370
-1
48
1
60
0
100
AcDbTrace
10
264.5
20
-45.183333
30
0
11
264.5
21
-44.016667
31
0
12
268
22
-44.6
32
0
13
268
23
-44.6
33
0
39
0
210
0
220
0
230
1
0
MTEXT
5
22F
100
AcDbEntity
8
0
62
256
6
ByLayer
370
18
48
1
60
0
100
AcDbMText
10
146.5
20
-37.6
30
0
210
0
220
0
230
1
1
\A1;243
40
3.5
41
0
44
1
50
0
71
5
72
5
7
iso_b_vert
0
POINT
5
230
100
AcDbEntity
8
Defpoints
62
0
6
ByLayer
370
-1
48
1
60
0
100
AcDbPoint
10
25
20
-25
30
0
39
0
210
0
220
0
230
1
50
360
0
POINT
5
231
100
AcDbEntity
8
Defpoints
62
0
6
ByLayer
370
-1
48
1
60
0
100
AcDbPoint
10
268
20
25
30
0
39
0
210
0
220
0
230
1
50
360
0
POINT
5
232
100
AcDbEntity
8
Defpoints
62
0
6
ByLayer
370
-1
48
1
60
0
100
AcDbPoint
10
268
20
-44.6
30
0
39
0
210
0
220
0
230
1
50
360
0
ENDBLK
5
229
100
AcDbEntity
8
0
100
AcDbBlockEnd
0
BLOCK
5
23A
100
AcDbEntity
8
0
100
AcDbBlockBegin
2
_U0
70
0
10
0
20
0
30
0
3
_U0
0
MTEXT
5
234
100
AcDbEntity
8
SK2
62
256
6
ByLayer
370
18
48
1
60
0
100
AcDbMText
10
143.103034
20
-43.567366
30
0
210
0
220
0
230
1
1
\W0.7541;243
40
3.5
41
0
44
1.084337
50
0
71
7
72
5
7
iso_b_vert
0
LINE
5
235
100
AcDbEntity
8
SK2
62
256
6
ByLayer
370
13
48
1
60
0
100
AcDbLine
10
25
20
-26.5875
30
0
11
25
21
-46.6
31
0
39
0
210
0
220
0
230
1
0
LINE
5
236
100
AcDbEntity
8
SK2
62
256
6
ByLayer
370
13
48
1
60
0
100
AcDbLine
10
268
20
23.4125
30
0
11
268
21
-46.6
31
0
39
0
210
0
220
0
230
1
0
LINE
5
237
100
AcDbEntity
8
SK2
62
256
6
ByLayer
370
13
48
1
60
0
100
AcDbLine
10
25
20
-44.6
30
0
11
268
21
-44.6
31
0
39
0
210
0
220
0
230
1
0
SOLID
5
238
100
AcDbEntity
8
SK2
62
256
6
ByLayer
370
18
48
1
60
0
100
AcDbTrace
10
25
20
-44.6
30
0
11
28.499998
21
-44.139216
31
0
12
28.500002
22
-45.060784
32
0
13
28.500002
23
-45.060784
33
0
39
0
210
0
220
0
230
1
0
SOLID
5
239
100
AcDbEntity
8
SK2
62
256
6
ByLayer
370
18
48
1
60
0
100
AcDbTrace
10
268
20
-44.6
30
0
11
264.500002
21
-45.060784
31
0
12
264.499998
22
-44.139216
32
0
13
264.499998
23
-44.139216
33
0
39
0
210
0
220
0
230
1
0
ENDBLK
5
23B
100
AcDbEntity
8
0
100
AcDbBlockEnd
0
ENDSEC
0
SECTION
2
ENTITIES
0
ARC
5
163
100
AcDbEntity
8
1
62
256
6
ByLayer
370
18
48
1
60
0
100
AcDbCircle
39
0
10
263.8
20
-24.8
30
0
40
0.2
210
0
220
0
230
1
100
AcDbArc
50
270
51
360
0
ARC
5
164
100
AcDbEntity
8
1
62
256
6
ByLayer
370
18
48
1
60
0
100
AcDbCircle
39
0
10
263.8
20
24.8
30
0
40
0.2
210
0
220
0
230
1
100
AcDbArc
50
360
51
90
0
ARC
5
165
100
AcDbEntity
8
1
62
256
6
ByLayer
370
18
48
1
60
0
100
AcDbCircle
39
0
10
25
20
28
30
0
40
3
210
0
220
0
230
1
100
AcDbArc
50
180
51
270
0
ARC
5
166
100
AcDbEntity
8
1
62
256
6
ByLayer
370
18
48
1
60
0
100
AcDbCircle
39
0
10
25
20
-28
30
0
40
3
210
0
220
0
230
1
100
AcDbArc
50
90
51
180
0
ARC
5
167
100
AcDbEntity
8
1
62
256
6
ByLayer
370
18
48
1
60
0
100
AcDbCircle
39
0
10
21.5
20
-31
30
0
40
0.5
210
0
220
0
230
1
100
AcDbArc
50
270
51
360
0
ARC
5
168
100
AcDbEntity
8
1
62
256
6
ByLayer
370
18
48
1
60
0
100
AcDbCircle
39
0
10
21.5
20
31
30
0
40
0.5
210
0
220
0
230
1
100
AcDbArc
50
360
51
90
0
ARC
5
169
100
AcDbEntity
8
SK1
62
256
6
ByLayer
370
18
48
1
60
0
100
AcDbCircle
39
0
10
-0.6
20
23.45
30
0
40
0.999999999999994
210
0
220
0
230
1
100
AcDbArc
50
293.578178
51
306.869898
0
ARC
5
16A
100
AcDbEntity
8
SK1
62
256
6
ByLayer
370
18
48
1
60
0
100
AcDbCircle
39
0
10
-0.6
20
-23.45
30
0
40
0.999999999999994
210
0
220
0
230
1
100
AcDbArc
50
53.130102
51
66.421822
0
ARC
5
16B
100
AcDbEntity
8
1
62
256
6
ByLayer
370
18
48
1
60
0
100
AcDbCircle
39
0
10
272.8
20
-8.099495
30
0
40
0.2
210
0
220
0
230
1
100
AcDbArc
50
0
51
90
0
ARC
5
16C
100
AcDbEntity
8
1
62
256
6
ByLayer
370
18
48
1
60
0
100
AcDbCircle
39
0
10
272.8
20
-1.699495
30
0
40
0.2
210
0
220
0
230
1
100
AcDbArc
50
270
51
0
0
ARC
5
16D
100
AcDbEntity
8
1
62
256
6
ByLayer
370
18
48
1
60
0
100
AcDbCircle
39
0
10
278.4
20
-9.299495
30
0
40
0.6
210
0
220
0
230
1
100
AcDbArc
50
270
51
360
0
ARC
5
16E
100
AcDbEntity
8
1
62
256
6
ByLayer
370
18
48
1
60
0
100
AcDbCircle
39
0
10
278.4
20
-0.499495
30
0
40
0.6
210
0
220
0
230
1
100
AcDbArc
50
360
51
90
0
ARC
5
16F
100
AcDbEntity
8
1
62
256
6
ByLayer
370
18
48
1
60
0
100
AcDbCircle
39
0
10
266.5
20
-15.5
30
0
40
0.5
210
0
220
0
230
1
100
AcDbArc
50
90
51
180
0
ARC
5
170
100
AcDbEntity
8
1
62
256
6
ByLayer
370
18
48
1
60
0
100
AcDbCircle
39
0
10
264.2
20
-24.8
30
0
40
0.2
210
0
220
0
230
1
100
AcDbArc
50
180
51
270
0
ARC
5
171
100
AcDbEntity
8
1
62
256
6
ByLayer
370
18
48
1
60
0
100
AcDbCircle
39
0
10
264.2
20
24.8
30
0
40
0.2
210
0
220
0
230
1
100
AcDbArc
50
90
51
180
0
ARC
5
172
100
AcDbEntity
8
1
62
256
6
ByLayer
370
18
48
1
60
0
100
AcDbCircle
39
0
10
272.8
20
11.699495
30
0
40
0.2
210
0
220
0
230
1
100
AcDbArc
50
0
51
90
0
ARC
5
173
100
AcDbEntity
8
1
62
256
6
ByLayer
370
18
48
1
60
0
100
AcDbCircle
39
0
10
272.8
20
18.099495
30
0
40
0.2
210
0
220
0
230
1
100
AcDbArc
50
270
51
0
0
ARC
5
174
100
AcDbEntity
8
1
62
256
6
ByLayer
370
18
48
1
60
0
100
AcDbCircle
39
0
10
278.4
20
10.499495
30
0
40
0.6
210
0
220
0
230
1
100
AcDbArc
50
270
51
360
0
ARC
5
175
100
AcDbEntity
8
1
62
256
6
ByLayer
370
18
48
1
60
0
100
AcDbCircle
39
0
10
278.4
20
19.299495
30
0
40
0.6
210
0
220
0
230
1
100
AcDbArc
50
360
51
90
0
ELLIPSE
5
176
100
AcDbEntity
8
1
62
256
6
ByLayer
370
18
48
1
60
0
100
AcDbEllipse
10
-2.347154
20
0
30
0
11
14.7536831606581
21
31.0932549155836
31
0
210
0
220
0
230
1
40
0.341999
41
-1.09123958575276
42
-0.157806186645432
0
ELLIPSE
5
177
100
AcDbEntity
8
1
62
256
6
ByLayer
370
18
48
1
60
0
100
AcDbEllipse
10
26.347154
20
0
30
0
11
14.7536831606573
21
-31.0932549155821
31
0
210
0
220
0
230
1
40
0.341999
41
-2.98378646694437
42
-2.050353067837
0
ELLIPSE
5
178
100
AcDbEntity
8
1
62
256
6
ByLayer
370
18
48
1
60
0
100
AcDbEllipse
10
26.347154
20
0
30
0
11
14.7536831606574
21
31.0932549155822
31
0
210
0
220
0
230
1
40
0.341999
41
2.050353067837
42
2.98378646694437
0
ELLIPSE
5
179
100
AcDbEntity
8
1
62
256
6
ByLayer
370
18
48
1
60
0
100
AcDbEllipse
10
-2.347154
20
0
30
0
11
14.7536831606561
21
-31.0932549155812
31
0
210
0
220
0
230
1
40
0.341999
41
0.157806186645436
42
1.09123958575282
0
ELLIPSE
5
17A
100
AcDbEntity
8
1
62
256
6
ByLayer
370
13
48
1
60
0
100
AcDbEllipse
10
266.5
20
22.975
30
0
11
-0.5
21
1.83758715709137E-15
31
0
210
0
220
0
230
1
40
0.876829
41
0.526344188063901
42
1.5707963267949
0
POINT
5
70
100
AcDbEntity
8
2
62
256
6
ByLayer
370
18
48
1
60
0
100
AcDbPoint
10
269
20
-4.899495
30
0
39
0
210
0
220
0
230
1
50
360
0
POINT
5
72
100
AcDbEntity
8
2
62
256
6
ByLayer
370
18
48
1
60
0
100
AcDbPoint
10
273
20
14.899495
30
0
39
0
210
0
220
0
230
1
50
360
0
POINT
5
73
100
AcDbEntity
8
2
62
256
6
ByLayer
370
18
48
1
60
0
100
AcDbPoint
10
255
20
0
30
0
39
0
210
0
220
0
230
1
50
360
0
POINT
5
74
100
AcDbEntity
8
2
62
256
6
ByLayer
370
18
48
1
60
0
100
AcDbPoint
10
172
20
0
30
0
39
0
210
0
220
0
230
1
50
360
0
POINT
5
75
100
AcDbEntity
8
2
62
256
6
ByLayer
370
18
48
1
60
0
100
AcDbPoint
10
213.5
20
0
30
0
39
0
210
0
220
0
230
1
50
360
0
POINT
5
76
100
AcDbEntity
8
2
62
256
6
ByLayer
370
18
48
1
60
0
100
AcDbPoint
10
265.37476
20
5
30
0
39
0
210
0
220
0
230
1
50
360
0
POINT
5
77
100
AcDbEntity
8
2
62
256
6
ByLayer
370
18
48
1
60
0
100
AcDbPoint
10
269
20
14.899495
30
0
39
0
210
0
220
0
230
1
50
360
0
POINT
5
78
100
AcDbEntity
8
2
62
256
6
ByLayer
370
18
48
1
60
0
100
AcDbPoint
10
269
20
-4.899495
30
0
39
0
210
0
220
0
230
1
50
360
0
POINT
5
79
100
AcDbEntity
8
2
62
256
6
ByLayer
370
18
48
1
60
0
100
AcDbPoint
10
230.8
20
17
30
0
39
0
210
0
220
0
230
1
50
360
0
POINT
5
7A
100
AcDbEntity
8
2
62
256
6
ByLayer
370
50
48
1
60
0
100
AcDbPoint
10
248.5
20
0
30
0
39
0
210
0
220
0
230
1
50
360
0
POINT
5
7B
100
AcDbEntity
8
2
62
256
6
ByLayer
370
18
48
1
60
0
100
AcDbPoint
10
248
20
0
30
0
39
0
210
0
220
0
230
1
50
360
0
POINT
5
7C
100
AcDbEntity
8
2
62
256
6
ByLayer
370
50
48
1
60
0
100
AcDbPoint
10
273
20
0
30
0
39
0
210
0
220
0
230
1
50
360
0
POINT
5
7D
100
AcDbEntity
8
2
62
256
6
ByLayer
370
18
48
1
60
0
100
AcDbPoint
10
264
20
0
30
0
39
0
210
0
220
0
230
1
50
360
0
POINT
5
7E
100
AcDbEntity
8
2
62
256
6
ByLayer
370
18
48
1
60
0
100
AcDbPoint
10
255
20
0
30
0
39
0
210
0
220
0
230
1
50
360
0
POINT
5
7F
100
AcDbEntity
8
2
62
256
6
ByLayer
370
18
48
1
60
0
100
AcDbPoint
10
268
20
5
30
0
39
0
210
0
220
0
230
1
50
360
0
POINT
5
80
100
AcDbEntity
8
2
62
256
6
ByLayer
370
18
48
1
60
0
100
AcDbPoint
10
264
20
0
30
0
39
0
210
0
220
0
230
1
50
360
0
POINT
5
81
100
AcDbEntity
8
2
62
256
6
ByLayer
370
18
48
1
60
0
100
AcDbPoint
10
240
20
0
30
0
39
0
210
0
220
0
230
1
50
360
0
POINT
5
82
100
AcDbEntity
8
2
62
256
6
ByLayer
370
18
48
1
60
0
100
AcDbPoint
10
265.37476
20
5
30
0
39
0
210
0
220
0
230
1
50
360
0
POINT
5
83
100
AcDbEntity
8
2
62
256
6
ByLayer
370
18
48
1
60
0
100
AcDbPoint
10
268
20
5
30
0
39
0
210
0
220
0
230
1
50
360
0
POINT
5
84
100
AcDbEntity
8
2
62
256
6
ByLayer
370
18
48
1
60
0
100
AcDbPoint
10
193.2
20
17
30
0
39
0
210
0
220
0
230
1
50
360
0
POINT
5
85
100
AcDbEntity
8
2
62
256
6
ByLayer
370
18
48
1
60
0
100
AcDbPoint
10
255
20
0
30
0
39
0
210
0
220
0
230
1
50
360
0
POINT
5
86
100
AcDbEntity
8
2
62
256
6
ByLayer
370
18
48
1
60
0
100
AcDbPoint
10
273
20
14.899495
30
0
39
0
210
0
220
0
230
1
50
360
0
POINT
5
87
100
AcDbEntity
8
2
62
256
6
ByLayer
370
18
48
1
60
0
100
AcDbPoint
10
248
20
0
30
0
39
0
210
0
220
0
230
1
50
360
0
POINT
5
88
100
AcDbEntity
8
2
62
256
6
ByLayer
370
18
48
1
60
0
100
AcDbPoint
10
238.8
20
0
30
0
39
0
210
0
220
0
230
1
50
360
0
POINT
5
89
100
AcDbEntity
8
2
62
256
6
ByLayer
370
18
48
1
60
0
100
AcDbPoint
10
212
20
0
30
0
39
0
210
0
220
0
230
1
50
360
0
POINT
5
8A
100
AcDbEntity
8
2
62
256
6
ByLayer
370
18
48
1
60
0
100
AcDbPoint
10
185.2
20
0
30
0
39
0
210
0
220
0
230
1
50
360
0
POINT
5
8B
100
AcDbEntity
8
2
62
256
6
ByLayer
370
18
48
1
60
0
100
AcDbPoint
10
176
20
0
30
0
39
0
210
0
220
0
230
1
50
360
0
POINT
5
8C
100
AcDbEntity
8
2
62
256
6
ByLayer
370
18
48
1
60
0
100
AcDbPoint
10
230.8
20
17
30
0
39
0
210
0
220
0
230
1
50
360
0
POINT
5
8D
100
AcDbEntity
8
2
62
256
6
ByLayer
370
18
48
1
60
0
100
AcDbPoint
10
193.2
20
17
30
0
39
0
210
0
220
0
230
1
50
360
0
POINT
5
8E
100
AcDbEntity
8
2
62
256
6
ByLayer
370
18
48
1
60
0
100
AcDbPoint
10
248
20
0
30
0
39
0
210
0
220
0
230
1
50
360
0
POINT
5
8F
100
AcDbEntity
8
2
62
256
6
ByLayer
370
18
48
1
60
0
100
AcDbPoint
10
176
20
0
30
0
39
0
210
0
220
0
230
1
50
360
0
POINT
5
90
100
AcDbEntity
8
2
62
256
6
ByLayer
370
18
48
1
60
0
100
AcDbPoint
10
248
20
0
30
0
39
0
210
0
220
0
230
1
50
360
0
POINT
5
91
100
AcDbEntity
8
2
62
256
6
ByLayer
370
18
48
1
60
0
100
AcDbPoint
10
167.1
20
0
30
0
39
0
210
0
220
0
230
1
50
360
0
POINT
5
92
100
AcDbEntity
8
2
62
256
6
ByLayer
370
18
48
1
60
0
100
AcDbPoint
10
171.3
20
0
30
0
39
0
210
0
220
0
230
1
50
360
0
POINT
5
93
100
AcDbEntity
8
2
62
256
6
ByLayer
370
18
48
1
60
0
100
AcDbPoint
10
175.5
20
0
30
0
39
0
210
0
220
0
230
1
50
360
0
POINT
5
94
100
AcDbEntity
8
2
62
256
6
ByLayer
370
18
48
1
60
0
100
AcDbPoint
10
167.1
20
0
30
0
39
0
210
0
220
0
230
1
50
360
0
POINT
5
95
100
AcDbEntity
8
2
62
256
6
ByLayer
370
18
48
1
60
0
100
AcDbPoint
10
176
20
0
30
0
39
0
210
0
220
0
230
1
50
360
0
POINT
5
96
100
AcDbEntity
8
2
62
256
6
ByLayer
370
18
48
1
60
0
100
AcDbPoint
10
171.55
20
0
30
0
39
0
210
0
220
0
230
1
50
360
0
POINT
5
97
100
AcDbEntity
8
81
62
256
6
ByLayer
370
18
48
1
60
0
100
AcDbPoint
10
268
20
5
30
0
39
0
210
0
220
0
230
1
50
360
0
POINT
5
99
100
AcDbEntity
8
80
62
256
6
ByLayer
370
18
48
1
60
0
100
AcDbPoint
10
0
20
0
30
0
39
0
210
0
220
0
230
1
50
360
0
POINT
5
9B
100
AcDbEntity
8
1
62
256
6
ByLayer
370
13
48
1
60
1
100
AcDbPoint
10
260.05
20
-4.899495
30
0
39
0
210
0
220
0
230
1
50
360
0
POINT
5
9D
100
AcDbEntity
8
1
62
256
6
ByLayer
370
13
48
1
60
1
100
AcDbPoint
10
274.3
20
-4.899495
30
0
39
0
210
0
220
0
230
1
50
360
0
POINT
5
9E
100
AcDbEntity
8
1
62
256
6
ByLayer
370
13
48
1
60
1
100
AcDbPoint
10
267.52
20
0
30
0
39
0
210
0
220
0
230
1
50
360
0
POINT
5
9F
100
AcDbEntity
8
1
62
256
6
ByLayer
370
13
48
1
60
1
100
AcDbPoint
10
262.7
20
0
30
0
39
0
210
0
220
0
230
1
50
360
0
POINT
5
A0
100
AcDbEntity
8
1
62
256
6
ByLayer
370
13
48
1
60
1
100
AcDbPoint
10
264.330172
20
5
30
0
39
0
210
0
220
0
230
1
50
360
0
POINT
5
A1
100
AcDbEntity
8
1
62
256
6
ByLayer
370
13
48
1
60
1
100
AcDbPoint
10
269.82476
20
5
30
0
39
0
210
0
220
0
230
1
50
360
0
POINT
5
A2
100
AcDbEntity
8
1
62
256
6
ByLayer
370
13
48
1
60
1
100
AcDbPoint
10
260.05
20
14.899495
30
0
39
0
210
0
220
0
230
1
50
360
0
POINT
5
A3
100
AcDbEntity
8
1
62
256
6
ByLayer
370
13
48
1
60
1
100
AcDbPoint
10
274.3
20
14.899495
30
0
39
0
210
0
220
0
230
1
50
360
0
POINT
5
A4
100
AcDbEntity
8
1
62
256
6
ByLayer
370
18
48
1
60
1
100
AcDbPoint
10
25
20
-25
30
0
39
0
210
0
220
0
230
1
50
360
0
POINT
5
A5
100
AcDbEntity
8
1
62
256
6
ByLayer
370
18
48
1
60
1
100
AcDbPoint
10
268
20
25
30
0
39
0
210
0
220
0
230
1
50
360
0
SPLINE
5
17B
100
AcDbEntity
8
1
62
256
6
ByLayer
370
18
48
1
60
0
100
AcDbSpline
70
4
71
3
72
30
73
26
40
0
40
0
40
0
40
0
40
0.062499999999999
40
0.062499999999999
40
0.0937499999999951
40
0.0937499999999951
40
0.124999999999991
40
0.124999999999991
40
0.249999999999992
40
0.249999999999992
40
0.312499999999991
40
0.312499999999991
40
0.374999999999991
40
0.374999999999991
40
0.43749999999999
40
0.43749999999999
40
0.49999999999999
40
0.49999999999999
40
0.624999999999992
40
0.624999999999992
40
0.749999999999995
40
0.749999999999995
40
0.874999999999997
40
0.874999999999997
40
1
40
1
40
1
40
1
41
1
10
13.4613248654053
20
30.0805927603168
30
0
41
1
10
13.4770644463613
20
30.0805927603168
30
0
41
1
10
13.4925182901837
20
30.0801205034907
30
0
41
1
10
13.5153082123103
20
30.0787652114225
30
0
41
1
10
13.5228395300833
20
30.0782053093476
30
0
41
1
10
13.5377759237481
20
30.076876147822
30
0
41
1
10
13.5452163817754
20
30.0761022248718
30
0
41
1
10
13.5815263070003
20
30.07179594856
30
0
41
1
10
13.6079581046677
20
30.066987279366
30
0
41
1
10
13.6448606867709
20
30.0583172600354
30
0
41
1
10
13.6565013495869
20
30.05522440868
30
0
41
1
10
13.6786197964873
20
30.0487371057377
30
0
41
1
10
13.6891167538209
20
30.045337228074
30
0
41
1
10
13.7091749421595
20
30.0382729348064
30
0
41
1
10
13.7187352282344
20
30.0346082702023
30
0
41
1
10
13.7370497658742
20
30.0270468182505
30
0
41
1
10
13.7458258793004
20
30.0231382884601
30
0
41
1
10
13.7708221243601
20
30.0112312950128
30
0
41
1
10
13.7858017072528
20
30.0030284643031
30
0
41
1
10
13.8132376332898
20
29.986201042407
30
0
41
1
10
13.8256849705003
20
29.9775752500985
30
0
41
1
10
13.8485243776494
20
29.9599596837524
30
0
41
1
10
13.8589127955725
20
29.9509694256367
30
0
41
1
10
13.8779317869832
20
29.932660186932
30
0
41
1
10
13.8865409364125
20
29.9233580917138
30
0
41
1
10
13.8943375672975
20
29.913954846469
30
0
0
SPLINE
5
17C
100
AcDbEntity
8
1
62
256
6
ByLayer
370
18
48
1
60
0
100
AcDbSpline
70
4
71
3
72
32
73
28
40
0
40
0
40
0
40
0
40
0.249999999999989
40
0.249999999999989
40
0.37499999999998
40
0.37499999999998
40
0.437499999999975
40
0.437499999999975
40
0.49999999999997
40
0.49999999999997
40
0.624999999999973
40
0.624999999999973
40
0.687499999999976
40
0.687499999999976
40
0.74999999999998
40
0.74999999999998
40
0.812499999999983
40
0.812499999999983
40
0.843749999999986
40
0.843749999999986
40
0.874999999999989
40
0.874999999999989
40
0.937499999999998
40
0.937499999999998
40
0.968749999999999
40
0.968749999999999
40
1
40
1
40
1
40
1
41
1
10
13.8943375672974
20
9.86941261896632
30
0
41
1
10
13.8787501654512
20
9.81243201498819
30
0
41
1
10
13.8600981524864
20
9.75655023082984
30
0
41
1
10
13.8259097308549
20
9.67499387250803
30
0
41
1
10
13.8134681559942
20
9.64819007031215
30
0
41
1
10
13.792841581707
20
9.60870778228687
30
0
41
1
10
13.785636838674
20
9.59566828989819
30
0
41
1
10
13.7704696456803
20
9.5698696056034
30
0
41
1
10
13.7624961131815
20
9.55709686534382
30
0
41
1
10
13.7374904471464
20
9.51963294536142
30
0
41
1
10
13.7193382950672
20
9.49566900868402
30
0
41
1
10
13.689039794361
20
9.46183015552282
30
0
41
1
10
13.6784124135706
20
9.45090526429343
30
0
41
1
10
13.6562779758131
20
9.43026612350775
30
0
41
1
10
13.6447350068564
20
9.4205071911085
30
0
41
1
10
13.6205171073694
20
9.40232505361269
30
0
41
1
10
13.607843974168
20
9.39389972204395
30
0
41
1
10
13.5877822000581
20
9.3825045604145
30
0
41
1
10
13.5808872163668
20
9.37890069603404
30
0
41
1
10
13.5669060817703
20
9.37226208194031
30
0
41
1
10
13.559813636811
20
9.36922064667928
30
0
41
1
10
13.5382117701416
20
9.36098178019495
30
0
41
1
10
13.5233796774592
20
9.35666472180216
30
0
41
1
10
13.5003821923576
20
9.35223451981233
30
0
41
1
10
13.4925919071141
20
9.35110433740238
30
0
41
1
10
13.4770081601072
20
9.34960123302494
30
0
41
1
10
13.4691833484067
20
9.34922131452521
30
0
41
1
10
13.4613248654052
20
9.34922131452521
30
0
0
SPLINE
5
17D
100
AcDbEntity
8
1
62
256
6
ByLayer
370
18
48
1
60
0
100
AcDbSpline
70
4
71
3
72
30
73
26
40
0
40
0
40
0
40
0
40
0.0624999999999971
40
0.0624999999999971
40
0.0937499999999963
40
0.0937499999999963
40
0.124999999999996
40
0.124999999999996
40
0.249999999999999
40
0.249999999999999
40
0.312499999999997
40
0.312499999999997
40
0.374999999999994
40
0.374999999999994
40
0.437499999999992
40
0.437499999999992
40
0.49999999999999
40
0.49999999999999
40
0.624999999999992
40
0.624999999999992
40
0.749999999999995
40
0.749999999999995
40
0.874999999999997
40
0.874999999999997
40
1
40
1
40
1
40
1
41
1
10
10.5386751345949
20
9.34922131452518
30
0
41
1
10
10.5229355536389
20
9.34922131452518
30
0
41
1
10
10.5074817098166
20
9.35074113394296
30
0
41
1
10
10.4846917876899
20
9.35509944740039
30
0
41
1
10
10.4771604699169
20
9.35689961322674
30
0
41
1
10
10.4622240762521
20
9.3611711976572
30
0
41
1
10
10.4547836182249
20
9.36365758390281
30
0
41
1
10
10.4184736929999
20
9.37748487924972
30
0
41
1
10
10.3920418953325
20
9.39290424748316
30
0
41
1
10
10.3551393132293
20
9.42059748954586
30
0
41
1
10
10.3434986504133
20
9.43046143490429
30
0
41
1
10
10.3213802035129
20
9.45111186483337
30
0
41
1
10
10.3108832461793
20
9.46191570446791
30
0
41
1
10
10.2908250578407
20
9.48431848058817
30
0
41
1
10
10.2812647717658
20
9.49591822570969
30
0
41
1
10
10.262950234126
20
9.51980127252986
30
0
41
1
10
10.2541741206997
20
9.53212142663477
30
0
41
1
10
10.2291778756401
20
9.56957065273534
30
0
41
1
10
10.2141982927474
20
9.59526142127675
30
0
41
1
10
10.1867623667104
20
9.64772023935052
30
0
41
1
10
10.1743150294999
20
9.67449223197175
30
0
41
1
10
10.1514756223508
20
9.72890711075647
30
0
41
1
10
10.1410872044277
20
9.75655159685462
30
0
41
1
10
10.122068213017
20
9.8125798203717
30
0
41
1
10
10.1134590635877
20
9.84091160634031
30
0
41
1
10
10.1056624327026
20
9.86941261896627
30
0
0
SPLINE
5
17E
100
AcDbEntity
8
1
62
256
6
ByLayer
370
18
48
1
60
0
100
AcDbSpline
70
4
71
3
72
32
73
28
40
0
40
0
40
0
40
0
40
0.249999999999991
40
0.249999999999991
40
0.374999999999992
40
0.374999999999992
40
0.437499999999992
40
0.437499999999992
40
0.499999999999992
40
0.499999999999992
40
0.624999999999985
40
0.624999999999985
40
0.687499999999985
40
0.687499999999985
40
0.749999999999985
40
0.749999999999985
40
0.812499999999986
40
0.812499999999986
40
0.843749999999987
40
0.843749999999987
40
0.874999999999989
40
0.874999999999989
40
0.937499999999995
40
0.937499999999995
40
0.968749999999998
40
0.968749999999998
40
1
40
1
40
1
40
1
41
1
10
10.1056624327028
20
29.913954846469
30
0
41
1
10
10.1212498345489
20
29.9327542695083
30
0
41
1
10
10.1399018475137
20
29.9510098933135
30
0
41
1
10
10.1740902691453
20
29.9774133319729
30
0
41
1
10
10.1865318440059
20
29.9860499646857
30
0
41
1
10
10.2071584182931
20
29.99871540223
30
0
41
1
10
10.2143631613261
20
30.0028887514665
30
0
41
1
10
10.2295303543199
20
30.0111275878529
30
0
41
1
10
10.2375038868187
20
30.0151973377027
30
0
41
1
10
10.2625095528538
20
30.027109009107
30
0
41
1
10
10.2806617049329
20
30.0346937657147
30
0
41
1
10
10.3109602056392
20
30.0453642012994
30
0
41
1
10
10.3215875864296
20
30.0488020840795
30
0
41
1
10
10.3437220241871
20
30.0552856889209
30
0
41
1
10
10.3552649931438
20
30.0583455135274
30
0
41
1
10
10.3794828926308
20
30.0640378913833
30
0
41
1
10
10.3921560258322
20
30.0666711051738
30
0
41
1
10
10.412217799942
20
30.0702282001223
30
0
41
1
10
10.4191127836334
20
30.0713523776808
30
0
41
1
10
10.4330939182299
20
30.0734220792403
30
0
41
1
10
10.4401863631892
20
30.0743696982574
30
0
41
1
10
10.4617882298586
20
30.076935568727
30
0
41
1
10
10.476620322541
20
30.0782784555613
30
0
41
1
10
10.4996178076426
20
30.0796561130286
30
0
41
1
10
10.5074080928861
20
30.0800074516351
30
0
41
1
10
10.522991839893
20
30.080474687126
30
0
41
1
10
10.5308166515935
20
30.0805927603169
30
0
41
1
10
10.538675134595
20
30.0805927603169
30
0
0
SPLINE
5
17F
100
AcDbEntity
8
1
62
256
6
ByLayer
370
18
48
1
60
0
100
AcDbSpline
70
4
71
3
72
30
73
26
40
0
40
0
40
0
40
0
40
0.0625000000000007
40
0.0625000000000007
40
0.0937500000000041
40
0.0937500000000041
40
0.125000000000007
40
0.125000000000007
40
0.250000000000009
40
0.250000000000009
40
0.312500000000006
40
0.312500000000006
40
0.375000000000004
40
0.375000000000004
40
0.437500000000001
40
0.437500000000001
40
0.499999999999999
40
0.499999999999999
40
0.624999999999999
40
0.624999999999999
40
0.749999999999999
40
0.749999999999999
40
0.875
40
0.875
40
1
40
1
40
1
40
1
41
1
10
10.5386751345947
20
-30.0805927603169
30
0
41
1
10
10.5229355536387
20
-30.0805927603169
30
0
41
1
10
10.5074817098164
20
-30.0801205034908
30
0
41
1
10
10.4846917876897
20
-30.0787652114226
30
0
41
1
10
10.4771604699168
20
-30.0782053093478
30
0
41
1
10
10.4622240762519
20
-30.0768761478221
30
0
41
1
10
10.4547836182247
20
-30.0761022248719
30
0
41
1
10
10.4184736929997
20
-30.0717959485601
30
0
41
1
10
10.3920418953323
20
-30.0669872793661
30
0
41
1
10
10.3551393132291
20
-30.0583172600356
30
0
41
1
10
10.3434986504131
20
-30.0552244086802
30
0
41
1
10
10.3213802035127
20
-30.0487371057378
30
0
41
1
10
10.3108832461791
20
-30.0453372280742
30
0
41
1
10
10.2908250578405
20
-30.0382729348065
30
0
41
1
10
10.2812647717657
20
-30.0346082702024
30
0
41
1
10
10.2629502341258
20
-30.0270468182506
30
0
41
1
10
10.2541741206996
20
-30.0231382884602
30
0
41
1
10
10.2291778756399
20
-30.011231295013
30
0
41
1
10
10.2141982927472
20
-30.0030284643032
30
0
41
1
10
10.1867623667102
20
-29.9862010424071
30
0
41
1
10
10.1743150294998
20
-29.9775752500986
30
0
41
1
10
10.1514756223506
20
-29.9599596837525
30
0
41
1
10
10.1410872044275
20
-29.9509694256368
30
0
41
1
10
10.1220682130168
20
-29.9326601869321
30
0
41
1
10
10.1134590635875
20
-29.9233580917139
30
0
41
1
10
10.1056624327025
20
-29.9139548464691
30
0
0
SPLINE
5
180
100
AcDbEntity
8
1
62
256
6
ByLayer
370
18
48
1
60
0
100
AcDbSpline
70
4
71
3
72
32
73
28
40
0
40
0
40
0
40
0
40
0.250000000000017
40
0.250000000000017
40
0.375000000000025
40
0.375000000000025
40
0.437500000000024
40
0.437500000000024
40
0.500000000000023
40
0.500000000000023
40
0.625000000000021
40
0.625000000000021
40
0.687500000000018
40
0.687500000000018
40
0.750000000000016
40
0.750000000000016
40
0.812500000000013
40
0.812500000000013
40
0.84375000000001
40
0.84375000000001
40
0.875000000000007
40
0.875000000000007
40
0.937500000000004
40
0.937500000000004
40
0.968750000000002
40
0.968750000000002
40
1
40
1
40
1
40
1
41
1
10
10.1056624327026
20
-9.86941261896635
30
0
41
1
10
10.1212498345488
20
-9.81243201498822
30
0
41
1
10
10.1399018475136
20
-9.75655023082984
30
0
41
1
10
10.1740902691451
20
-9.67499387250803
30
0
41
1
10
10.1865318440058
20
-9.64819007031213
30
0
41
1
10
10.207158418293
20
-9.60870778228687
30
0
41
1
10
10.214363161326
20
-9.59566828989819
30
0
41
1
10
10.2295303543197
20
-9.5698696056034
30
0
41
1
10
10.2375038868186
20
-9.55709686534382
30
0
41
1
10
10.2625095528537
20
-9.51963294536139
30
0
41
1
10
10.2806617049328
20
-9.49566900868402
30
0
41
1
10
10.310960205639
20
-9.46183015552282
30
0
41
1
10
10.3215875864294
20
-9.4509052642934
30
0
41
1
10
10.3437220241869
20
-9.43026612350772
30
0
41
1
10
10.3552649931436
20
-9.4205071911085
30
0
41
1
10
10.3794828926306
20
-9.40232505361266
30
0
41
1
10
10.392156025832
20
-9.3938997220439
30
0
41
1
10
10.4122177999419
20
-9.38250456041445
30
0
41
1
10
10.4191127836333
20
-9.37890069603401
30
0
41
1
10
10.4330939182297
20
-9.37226208194028
30
0
41
1
10
10.440186363189
20
-9.36922064667925
30
0
41
1
10
10.4617882298584
20
-9.36098178019489
30
0
41
1
10
10.4766203225409
20
-9.3566647218021
30
0
41
1
10
10.4996178076424
20
-9.35223451981227
30
0
41
1
10
10.5074080928859
20
-9.35110433740232
30
0
41
1
10
10.5229918398929
20
-9.34960123302488
30
0
41
1
10
10.5308166515934
20
-9.34922131452518
30
0
41
1
10
10.5386751345948
20
-9.34922131452518
30
0
0
SPLINE
5
181
100
AcDbEntity
8
1
62
256
6
ByLayer
370
18
48
1
60
0
100
AcDbSpline
70
4
71
3
72
30
73
26
40
0
40
0
40
0
40
0
40
0.0625000000000024
40
0.0625000000000024
40
0.0937500000000009
40
0.0937500000000009
40
0.124999999999999
40
0.124999999999999
40
0.249999999999991
40
0.249999999999991
40
0.312499999999988
40
0.312499999999988
40
0.374999999999986
40
0.374999999999986
40
0.437499999999984
40
0.437499999999984
40
0.499999999999982
40
0.499999999999982
40
0.624999999999986
40
0.624999999999986
40
0.749999999999991
40
0.749999999999991
40
0.874999999999995
40
0.874999999999995
40
1
40
1
40
1
40
1
41
1
10
13.4613248654051
20
-9.34922131452538
30
0
41
1
10
13.4770644463612
20
-9.34922131452538
30
0
41
1
10
13.4925182901835
20
-9.3507411339431
30
0
41
1
10
13.5153082123102
20
-9.35509944740053
30
0
41
1
10
13.5228395300831
20
-9.35689961322691
30
0
41
1
10
13.5377759237479
20
-9.36117119765737
30
0
41
1
10
13.5452163817752
20
-9.36365758390298
30
0
41
1
10
13.5815263070002
20
-9.37748487924992
30
0
41
1
10
13.6079581046675
20
-9.39290424748333
30
0
41
1
10
13.6448606867708
20
-9.42059748954603
30
0
41
1
10
13.6565013495867
20
-9.43046143490446
30
0
41
1
10
13.6786197964871
20
-9.45111186483351
30
0
41
1
10
13.6891167538207
20
-9.46191570446808
30
0
41
1
10
13.7091749421593
20
-9.48431848058831
30
0
41
1
10
13.7187352282342
20
-9.49591822570983
30
0
41
1
10
13.737049765874
20
-9.51980127253003
30
0
41
1
10
13.7458258793003
20
-9.53212142663494
30
0
41
1
10
13.77082212436
20
-9.56957065273551
30
0
41
1
10
13.7858017072526
20
-9.59526142127689
30
0
41
1
10
13.8132376332897
20
-9.64772023935066
30
0
41
1
10
13.8256849705001
20
-9.6744922319719
30
0
41
1
10
13.8485243776492
20
-9.72890711075661
30
0
41
1
10
13.8589127955723
20
-9.75655159685473
30
0
41
1
10
13.877931786983
20
-9.81257982037184
30
0
41
1
10
13.8865409364123
20
-9.84091160634043
30
0
41
1
10
13.8943375672973
20
-9.86941261896638
30
0
0
SPLINE
5
182
100
AcDbEntity
8
1
62
256
6
ByLayer
370
18
48
1
60
0
100
AcDbSpline
70
4
71
3
72
32
73
28
40
0
40
0
40
0
40
0
40
0.249999999999996
40
0.249999999999996
40
0.374999999999997
40
0.374999999999997
40
0.437499999999995
40
0.437499999999995
40
0.499999999999994
40
0.499999999999994
40
0.624999999999994
40
0.624999999999994
40
0.687499999999993
40
0.687499999999993
40
0.749999999999992
40
0.749999999999992
40
0.812499999999991
40
0.812499999999991
40
0.843749999999993
40
0.843749999999993
40
0.874999999999996
40
0.874999999999996
40
0.937500000000001
40
0.937500000000001
40
0.96875
40
0.96875
40
1
40
1
40
1
40
1
41
1
10
13.8943375672972
20
-29.9139548464691
30
0
41
1
10
13.8787501654511
20
-29.9327542695084
30
0
41
1
10
13.8600981524862
20
-29.9510098933136
30
0
41
1
10
13.8259097308547
20
-29.977413331973
30
0
41
1
10
13.8134681559941
20
-29.9860499646858
30
0
41
1
10
13.7928415817069
20
-29.9987154022301
30
0
41
1
10
13.7856368386739
20
-30.0028887514666
30
0
41
1
10
13.7704696456801
20
-30.0111275878529
30
0
41
1
10
13.7624961131813
20
-30.0151973377028
30
0
41
1
10
13.7374904471462
20
-30.0271090091071
30
0
41
1
10
13.7193382950671
20
-30.0346937657148
30
0
41
1
10
13.6890397943608
20
-30.0453642012995
30
0
41
1
10
13.6784124135704
20
-30.0488020840796
30
0
41
1
10
13.6562779758129
20
-30.0552856889209
30
0
41
1
10
13.6447350068562
20
-30.0583455135275
30
0
41
1
10
13.6205171073692
20
-30.0640378913833
30
0
41
1
10
13.6078439741678
20
-30.0666711051738
30
0
41
1
10
13.587782200058
20
-30.0702282001224
30
0
41
1
10
13.5808872163666
20
-30.0713523776808
30
0
41
1
10
13.5669060817702
20
-30.0734220792404
30
0
41
1
10
13.5598136368108
20
-30.0743696982575
30
0
41
1
10
13.5382117701414
20
-30.076935568727
30
0
41
1
10
13.523379677459
20
-30.0782784555614
30
0
41
1
10
13.5003821923575
20
-30.0796561130286
30
0
41
1
10
13.492591907114
20
-30.0800074516351
30
0
41
1
10
13.477008160107
20
-30.080474687126
30
0
41
1
10
13.4691833484065
20
-30.0805927603169
30
0
41
1
10
13.4613248654051
20
-30.0805927603169
30
0
0
SPLINE
5
183
100
AcDbEntity
8
SK1
62
256
6
ByLayer
370
18
48
1
60
0
100
AcDbSpline
70
4
71
3
72
49
73
45
40
0
40
0
40
0
40
0
40
0.0158520725973419
40
0.0443313515092408
40
0.0728106304211396
40
0.101289909333038
40
0.129769188244937
40
0.158248467156836
40
0.215207024980634
40
0.243686303892533
40
0.272165582804431
40
0.30064486171633
40
0.329124140628229
40
0.357603419540128
40
0.386082698452027
40
0.414561977363926
40
0.428801616819875
40
0.443041256275824
40
0.457280895731774
40
0.471520535187723
40
0.485760174643672
40
0.492879994371647
40
0.499999814099622
40
0.507119633827597
40
0.514239453555571
40
0.528479093011521
40
0.54271873246747
40
0.55695837192342
40
0.571198011379369
40
0.585437650835318
40
0.613916929747217
40
0.642396208659116
40
0.670875487571015
40
0.699354766482914
40
0.727834045394813
40
0.756313324306711
40
0.78479260321861
40
0.841751161042408
40
0.870230439954307
40
0.898709718866206
40
0.927188997778104
40
0.955668276690003
40
0.984147555601902
40
1
40
1
40
1
40
1
41
1
10
-38.0000000000001
20
-20.2900103500979
30
0
41
1
10
-38.0000000000001
20
-20.2838088131455
30
0
41
1
10
-38.0000000000001
20
-20.2386783255403
30
0
41
1
10
-38.0000000000001
20
-20.0459066437043
30
0
41
1
10
-38.0000000000001
20
-19.657936234772
30
0
41
1
10
-38.0000000000001
20
-19.1216505379955
30
0
41
1
10
-38.0000000000001
20
-18.4471799717541
30
0
41
1
10
-38.0000000000001
20
-17.3708466567049
30
0
41
1
10
-38.0000000000001
20
-16.0627718728322
30
0
41
1
10
-38.0000000000001
20
-14.5156181768616
30
0
41
1
10
-38.0000000000001
20
-13.25179074635
30
0
41
1
10
-38
20
-11.8841222937697
30
0
41
1
10
-38
20
-10.4165562193454
30
0
41
1
10
-38
20
-8.85372672313883
30
0
41
1
10
-38
20
-7.20134092284695
30
0
41
1
10
-38
20
-5.76201911469497
30
0
41
1
10
-38
20
-4.56407656073506
30
0
41
1
10
-38
20
-3.65884583736073
30
0
41
1
10
-38
20
-2.74483905839449
30
0
41
1
10
-38
20
-1.82748828650273
30
0
41
1
10
-38
20
-1.06947767603953
30
0
41
1
10
-38
20
-0.455018198724332
30
0
41
1
10
-38
20
4.514862724E-07
30
0
41
1
10
-38
20
0.455018630552217
30
0
41
1
10
-38
20
1.06947718042721
30
0
41
1
10
-38
20
1.82748862261306
30
0
41
1
10
-38
20
2.74483966025946
30
0
41
1
10
-38
20
3.65884523285232
30
0
41
1
10
-38
20
4.56407688146027
30
0
41
1
10
-38
20
5.76201962732233
30
0
41
1
10
-38
20
7.20134053529017
30
0
41
1
10
-38
20
8.85372716578053
30
0
41
1
10
-38
20
10.4165563625369
30
0
41
1
10
-38
20
11.8841219271531
30
0
41
1
10
-38
20
13.251791105613
30
0
41
1
10
-37.9999999999999
20
14.5156182315175
30
0
41
1
10
-37.9999999999999
20
16.0627714181565
30
0
41
1
10
-37.9999999999999
20
17.3708469037195
30
0
41
1
10
-37.9999999999999
20
18.4471796582743
30
0
41
1
10
-37.9999999999999
20
19.1216498805761
30
0
41
1
10
-37.9999999999999
20
19.6579364097436
30
0
41
1
10
-37.9999999999999
20
20.0459061788579
30
0
41
1
10
-37.9999999999999
20
20.2386786549614
30
0
41
1
10
-37.9999999999999
20
20.2838093461851
30
0
41
1
10
-37.9999999999999
20
20.2900106499368
30
0
0
SPLINE
5
184
100
AcDbEntity
8
SK1
62
256
6
ByLayer
370
18
48
1
60
0
100
AcDbSpline
70
4
71
3
72
36
73
32
40
0
40
0
40
0
40
0
40
0.25
40
0.25
40
0.375
40
0.375
40
0.500000000000001
40
0.500000000000001
40
0.625000000000001
40
0.625000000000001
40
0.687500000000003
40
0.687500000000003
40
0.750000000000004
40
0.750000000000004
40
0.812500000000006
40
0.812500000000006
40
0.843750000000006
40
0.843750000000006
40
0.875000000000005
40
0.875000000000005
40
0.906250000000004
40
0.906250000000004
40
0.921875000000004
40
0.921875000000004
40
0.937500000000003
40
0.937500000000003
40
0.953125000000002
40
0.953125000000002
40
0.968750000000001
40
0.968750000000001
40
1
40
1
40
1
40
1
41
1
10
-0.200000000000031
20
-7.03415845154862
30
0
41
1
10
-0.200331074104753
20
-6.9675847311054
30
0
41
1
10
-0.201942367211316
20
-6.90082001004973
30
0
41
1
10
-0.207091999731332
20
-6.80034067321688
30
0
41
1
10
-0.209269492367341
20
-6.76679198902937
30
0
41
1
10
-0.214824426638145
20
-6.69957126003828
30
0
41
1
10
-0.218199150202452
20
-6.66587124141734
30
0
41
1
10
-0.226629907857159
20
-6.59846295366921
30
0
41
1
10
-0.231660540619842
20
-6.56479252713442
30
0
41
1
10
-0.241214598359548
20
-6.51440591854077
30
0
41
1
10
-0.244745205143801
20
-6.49760452342704
30
0
41
1
10
-0.252727620657922
20
-6.46421416849128
30
0
41
1
10
-0.257169431390381
20
-6.44763062016554
30
0
41
1
10
-0.267439101060703
20
-6.41481626716148
30
0
41
1
10
-0.273236212730936
20
-6.39857720931946
30
0
41
1
10
-0.283833370168836
20
-6.37471397159106
30
0
41
1
10
-0.287711149711328
20
-6.36680567292711
30
0
41
1
10
-0.296343527957546
20
-6.35152953268772
30
0
41
1
10
-0.301085882076336
20
-6.34414232274287
30
0
41
1
10
-0.312078412290091
20
-6.33025774259019
30
0
41
1
10
-0.318222328461672
20
-6.32386838427433
30
0
41
1
10
-0.329057935891086
20
-6.3161933816034
30
0
41
1
10
-0.332859652575152
20
-6.31402544311598
30
0
41
1
10
-0.340958863849082
20
-6.31070772605875
30
0
41
1
10
-0.345208124413233
20
-6.30960458427649
30
0
41
1
10
-0.353689154326133
20
-6.30870360354672
30
0
41
1
10
-0.358037716131363
20
-6.30890123768722
30
0
41
1
10
-0.366345960396444
20
-6.31042877188764
30
0
41
1
10
-0.370395826010167
20
-6.31175696012832
30
0
41
1
10
-0.381850124236124
20
-6.31686284615006
30
0
41
1
10
-0.388651860853372
20
-6.32169800880934
30
0
41
1
10
-0.39491379981132
20
-6.32721828439901
30
0
0
SPLINE
5
185
100
AcDbEntity
8
SK1
62
256
6
ByLayer
370
18
48
1
60
0
100
AcDbSpline
70
4
71
3
72
40
73
36
40
0
40
0
40
0
40
0
40
0.0156250000000007
40
0.0156250000000007
40
0.0312500000000013
40
0.0312500000000013
40
0.046875000000002
40
0.046875000000002
40
0.0625000000000027
40
0.0625000000000027
40
0.0781250000000033
40
0.0781250000000033
40
0.093750000000004
40
0.093750000000004
40
0.109375000000005
40
0.109375000000005
40
0.125000000000005
40
0.125000000000005
40
0.156250000000004
40
0.156250000000004
40
0.187500000000003
40
0.187500000000003
40
0.250000000000003
40
0.250000000000003
40
0.312500000000003
40
0.312500000000003
40
0.375000000000003
40
0.375000000000003
40
0.500000000000002
40
0.500000000000002
40
0.625000000000002
40
0.625000000000002
40
0.750000000000001
40
0.750000000000001
40
1
40
1
40
1
40
1
41
1
10
-0.394913799811263
20
6.32722135061286
30
0
41
1
10
-0.391768366820756
20
6.32444846033573
30
0
41
1
10
-0.38848840657711
20
6.32186168295425
30
0
41
1
10
-0.38156640314206
20
6.31718953975289
30
0
41
1
10
-0.377887007436783
20
6.31508659472502
30
0
41
1
10
-0.370224910817271
20
6.31169706442716
30
0
41
1
10
-0.366254804145257
20
6.31040674643398
30
0
41
1
10
-0.357946478024417
20
6.30889601700255
30
0
41
1
10
-0.353563907701783
20
6.30870335232464
30
0
41
1
10
-0.344995599835201
20
6.30964748810592
30
0
41
1
10
-0.34068492484856
20
6.31079560648988
30
0
41
1
10
-0.332576144960456
20
6.31417396688752
30
0
41
1
10
-0.32869224282085
20
6.31642240799491
30
0
41
1
10
-0.32148921811573
20
6.32159394569871
30
0
41
1
10
-0.31816447668335
20
6.32450219496948
30
0
41
1
10
-0.311908022590416
20
6.33077681434872
30
0
41
1
10
-0.308967085084561
20
6.33416203110184
30
0
41
1
10
-0.300766232707261
20
6.34461234463092
30
0
41
1
10
-0.296040108963879
20
6.3520235761778
30
0
41
1
10
-0.287432431444813
20
6.36735118199212
30
0
41
1
10
-0.283553316434791
20
6.37530507146664
30
0
41
1
10
-0.272955344086043
20
6.39930333387349
30
0
41
1
10
-0.26717102998262
20
6.41559723945676
30
0
41
1
10
-0.256929970956904
20
6.44848157748831
30
0
41
1
10
-0.252505023147833
20
6.46507959466757
30
0
41
1
10
-0.244556108211526
20
6.49847112557595
30
0
41
1
10
-0.241036901726588
20
6.51528035330202
30
0
41
1
10
-0.231491141946194
20
6.56582630636649
30
0
41
1
10
-0.226489017484425
20
6.59947291062446
30
0
41
1
10
-0.21811480832261
20
6.66667162394484
30
0
41
1
10
-0.214764318431051
20
6.7002237184802
30
0
41
1
10
-0.20923935499944
20
6.76723901782145
30
0
41
1
10
-0.207070996832911
20
6.80070221210869
30
0
41
1
10
-0.201940349251231
20
6.90096555412609
30
0
41
1
10
-0.200330815103342
20
6.96763966546089
30
0
41
1
10
-0.199999999999974
20
7.03416121607503
30
0
0
SPLINE
5
186
100
AcDbEntity
8
SK1
62
256
6
ByLayer
370
13
48
1
60
0
100
AcDbSpline
70
4
71
3
72
21
73
17
40
0
40
0
40
0
40
0
40
0.062071491130307
40
0.130360515070276
40
0.198649539010246
40
0.266938562950215
40
0.335227586890184
40
0.403516610830153
40
0.471805634770123
40
0.608383682650061
40
0.676672706590031
40
0.74496173053
40
0.813250754469969
40
0.881539778409938
40
0.949828802349908
40
1
40
1
40
1
40
1
41
1
10
-0.39491379981132
20
-6.32721828439901
30
0
41
1
10
-0.39491379981132
20
-6.90653762641452
30
0
41
1
10
-0.39491379981132
20
-8.09321756934102
30
0
41
1
10
-0.394913799811334
20
-9.80498157314139
30
0
41
1
10
-0.394913799811334
20
-11.4638140893219
30
0
41
1
10
-0.394913799811334
20
-13.0147246633634
30
0
41
1
10
-0.394913799811349
20
-14.4558606687731
30
0
41
1
10
-0.394913799811349
20
-15.7849097442956
30
0
41
1
10
-0.394913799811363
20
-17.4047594204778
30
0
41
1
10
-0.394913799811363
20
-18.7870404111631
30
0
41
1
10
-0.394913799811363
20
-19.9145928494951
30
0
41
1
10
-0.394913799811363
20
-20.6247618481558
30
0
41
1
10
-0.394913799811377
20
-21.1908658435729
30
0
41
1
10
-0.394913799811377
20
-21.6019834098091
30
0
41
1
10
-0.394913799811377
20
-21.8217384523903
30
0
41
1
10
-0.394913799811377
20
-21.865820255781
30
0
41
1
10
-0.394913799811391
20
-21.8654706413174
30
0
0
SPLINE
5
187
100
AcDbEntity
8
SK1
62
256
6
ByLayer
370
18
48
1
60
0
100
AcDbSpline
70
4
71
3
72
51
73
47
40
0
40
0
40
0
40
0
40
0.0312500000000006
40
0.0312500000000006
40
0.0468750000000016
40
0.0468750000000016
40
0.0625000000000026
40
0.0625000000000026
40
0.0781250000000036
40
0.0781250000000036
40
0.0937500000000046
40
0.101562500000005
40
0.101562500000005
40
0.109375000000005
40
0.109375000000005
40
0.125000000000006
40
0.125000000000006
40
0.140625000000007
40
0.140625000000007
40
0.156250000000007
40
0.156250000000007
40
0.171875000000008
40
0.171875000000008
40
0.187500000000009
40
0.187500000000009
40
0.218750000000009
40
0.218750000000009
40
0.25000000000001
40
0.25000000000001
40
0.28125000000001
40
0.28125000000001
40
0.312500000000011
40
0.312500000000011
40
0.375000000000011
40
0.375000000000011
40
0.437500000000011
40
0.437500000000011
40
0.500000000000011
40
0.500000000000011
40
0.625000000000008
40
0.625000000000008
40
0.750000000000006
40
0.750000000000006
40
0.875000000000003
40
0.875000000000003
40
1
40
1
40
1
40
1
41
1
10
-0.39491379981132
20
-6.32721828439901
30
0
41
1
10
-0.411169702827053
20
-6.34154884003178
30
0
41
1
10
-0.428432689769153
20
-6.35475565889092
30
0
41
1
10
-0.456587609313459
20
-6.37205876567259
30
0
41
1
10
-0.466398416496688
20
-6.37741702774107
30
0
41
1
10
-0.486501972755661
20
-6.38684509374406
30
0
41
1
10
-0.496835484302636
20
-6.39094564046627
30
0
41
1
10
-0.51816836276933
20
-6.3976988542467
30
0
41
1
10
-0.529196261060918
20
-6.4003572033352
30
0
41
1
10
-0.551937271601972
20
-6.40390572644711
30
0
41
1
10
-0.569030850267822
20
-6.40516730683922
30
0
41
1
10
-0.586181679144275
20
-6.40431153762214
30
0
41
1
10
-0.597628364481906
20
-6.40326750190812
30
0
41
1
10
-0.603385608753456
20
-6.40250300130214
30
0
41
1
10
-0.620403474265601
20
-6.39954770653125
30
0
41
1
10
-0.631442528804897
20
-6.39670554026134
30
0
41
1
10
-0.652994271508703
20
-6.38952126343978
30
0
41
1
10
-0.663576230030614
20
-6.38514079164267
30
0
41
1
10
-0.683845621171429
20
-6.37529177227788
30
0
41
1
10
-0.693552428201031
20
-6.36983092851585
30
0
41
1
10
-0.712284737644723
20
-6.35805370019304
30
0
41
1
10
-0.721309333004726
20
-6.35173618101936
30
0
41
1
10
-0.738796592350653
20
-6.33839390811318
30
0
41
1
10
-0.747287558608122
20
-6.33134151096425
30
0
41
1
10
-0.771774774816279
20
-6.30953788138899
30
0
41
1
10
-0.786839616984651
20
-6.29414128632044
30
0
41
1
10
-0.815263156517986
20
-6.26217184383674
30
0
41
1
10
-0.828611914616658
20
-6.24559230293653
30
0
41
1
10
-0.854034688294377
20
-6.21154523857419
30
0
41
1
10
-0.866130482320543
20
-6.1940351189366
30
0
41
1
10
-0.8891972605593
20
-6.15850150199267
30
0
41
1
10
-0.900140456877779
20
-6.14052530360527
30
0
41
1
10
-0.931589886782092
20
-6.08609644673811
30
0
41
1
10
-0.950735693127669
20
-6.04915001273994
30
0
41
1
10
-0.986572619190156
20
-5.97432275637721
30
0
41
1
10
-1.00324847625178
20
-5.93643689983452
30
0
41
1
10
-1.03476146769923
20
-5.85992972493543
30
0
41
1
10
-1.0495929641111
20
-5.82130654980756
30
0
41
1
10
-1.09190951976356
20
-5.70451929766091
30
0
41
1
10
-1.11725974479192
20
-5.62540226977163
30
0
41
1
10
-1.16395785542231
20
-5.46549802550047
30
0
41
1
10
-1.18522246232585
20
-5.38492681950902
30
0
41
1
10
-1.22466451933838
20
-5.22271935203614
30
0
41
1
10
-1.2428321325454
20
-5.1410815354084
30
0
41
1
10
-1.27671142477867
20
-4.97683362134603
30
0
41
1
10
-1.29241814186361
20
-4.89422245258598
30
0
41
1
10
-1.30710678118656
20
-4.81115156937963
30
0
0
SPLINE
5
188
100
AcDbEntity
8
SK1
62
256
6
ByLayer
370
18
48
1
60
0
100
AcDbSpline
70
4
71
3
72
51
73
47
40
0
40
0
40
0
40
0
40
0.125000000000003
40
0.125000000000003
40
0.250000000000005
40
0.250000000000005
40
0.375000000000008
40
0.375000000000008
40
0.50000000000001
40
0.50000000000001
40
0.562500000000011
40
0.562500000000011
40
0.625000000000011
40
0.625000000000011
40
0.687500000000011
40
0.687500000000011
40
0.718750000000011
40
0.718750000000011
40
0.75000000000001
40
0.75000000000001
40
0.781250000000009
40
0.781250000000009
40
0.812500000000009
40
0.812500000000009
40
0.828125000000008
40
0.828125000000008
40
0.843750000000008
40
0.843750000000008
40
0.859375000000007
40
0.859375000000007
40
0.875000000000007
40
0.875000000000007
40
0.906250000000005
40
0.906250000000005
40
0.914062500000005
40
0.914062500000005
40
0.921875000000005
40
0.937500000000004
40
0.937500000000004
40
0.953125000000003
40
0.953125000000003
40
0.968750000000002
40
0.968750000000002
40
0.984375000000001
40
0.984375000000001
40
1
40
1
40
1
40
1
41
1
10
-1.30710678118653
20
4.8111517782514
30
0
41
1
10
-1.29243386166998
20
4.89413370391597
30
0
41
1
10
-1.27674450029031
20
4.97666000857456
30
0
41
1
10
-1.24290388240134
20
5.14074733501747
30
0
41
1
10
-1.22475757478611
20
5.22230941297437
30
0
41
1
10
-1.18536324259085
20
5.38437609466149
30
0
41
1
10
-1.16411410166907
20
5.46491938757291
30
0
41
1
10
-1.11750013847289
20
5.62462479791716
30
0
41
1
10
-1.09222933922729
20
5.70354894528973
30
0
41
1
10
-1.05003902511503
20
5.82012130347704
30
0
41
1
10
-1.03525413522213
20
5.85867400558868
30
0
41
1
10
-1.00384791181234
20
5.93504366748638
30
0
41
1
10
-0.987232093239797
20
5.97286244830227
30
0
41
1
10
-0.95153733673375
20
6.0475612269523
30
0
41
1
10
-0.932473247849728
20
6.08444613540038
30
0
41
1
10
-0.901177592378588
20
6.13879101734139
30
0
41
1
10
-0.890290953598964
20
6.15674063815601
30
0
41
1
10
-0.867353405011499
20
6.19222552349751
30
0
41
1
10
-0.855253581473946
20
6.20982755187163
30
0
41
1
10
-0.829832017046684
20
6.24404146668815
30
0
41
1
10
-0.816508756328474
20
6.26067183093176
30
0
41
1
10
-0.788229178374237
20
6.29267436431064
30
0
41
1
10
-0.77328079392683
20
6.30805251056449
30
0
41
1
10
-0.749110346030363
20
6.32978409383841
30
0
41
1
10
-0.740759389627385
20
6.33680322085289
30
0
41
1
10
-0.723321143410558
20
6.35028083368093
30
0
41
1
10
-0.714177802118172
20
6.35677477801673
30
0
41
1
10
-0.695263535743436
20
6.36883407140752
30
0
41
1
10
-0.685506727928427
20
6.37439841042163
30
0
41
1
10
-0.665265234159818
20
6.38439885825292
30
0
41
1
10
-0.654728144683773
20
6.38885411254182
30
0
41
1
10
-0.62210246866519
20
6.39998734213981
30
0
41
1
10
-0.599687731218566
20
6.40423336369165
30
0
41
1
10
-0.570661631865988
20
6.40472651279043
30
0
41
1
10
-0.564821683089747
20
6.40457927715815
30
0
41
1
10
-0.553312890967462
20
6.40381092862668
30
0
41
1
10
-0.536205505855364
20
6.40195065166941
30
0
41
1
10
-0.519541799584118
20
6.39807453657346
30
0
41
1
10
-0.49768267563141
20
6.39127312214092
30
0
41
1
10
-0.487153207843093
20
6.38712350886505
30
0
41
1
10
-0.466917648563921
20
6.37769203793539
30
0
41
1
10
-0.457177342303595
20
6.37239779961379
30
0
41
1
10
-0.438316294923311
20
6.3608578974891
30
0
41
1
10
-0.429170091135461
20
6.35459039773457
30
0
41
1
10
-0.41156851659008
20
6.34138290087219
30
0
41
1
10
-0.403103547019398
20
6.33444111034481
30
0
41
1
10
-0.394913799811263
20
6.32722135062525
30
0
0
SPLINE
5
189
100
AcDbEntity
8
SK1
62
256
6
ByLayer
370
13
48
1
60
0
100
AcDbSpline
70
4
71
3
72
21
73
17
40
0
40
0
40
0
40
0
40
0.0501775054269837
40
0.118466083100712
40
0.18675466077444
40
0.255043238448168
40
0.323331816121896
40
0.391620393795624
40
0.52819754914308
40
0.596486126816808
40
0.664774704490537
40
0.733063282164265
40
0.801351859837993
40
0.869640437511721
40
0.937929015185449
40
1
40
1
40
1
40
1
41
1
10
-0.394913799811192
20
21.8654704309066
30
0
41
1
10
-0.394913799811206
20
21.8658250805003
30
0
41
1
10
-0.394913799811221
20
21.8217455531258
30
0
41
1
10
-0.394913799811206
20
21.6019829919256
30
0
41
1
10
-0.394913799811206
20
21.1908660117695
30
0
41
1
10
-0.394913799811221
20
20.6247611340725
30
0
41
1
10
-0.394913799811221
20
19.9145926563567
30
0
41
1
10
-0.394913799811221
20
18.7870406318774
30
0
41
1
10
-0.394913799811221
20
17.4047589502432
30
0
41
1
10
-0.394913799811235
20
15.7849099352292
30
0
41
1
10
-0.394913799811235
20
14.4558608746283
30
0
41
1
10
-0.394913799811249
20
13.014724351229
30
0
41
1
10
-0.394913799811249
20
11.4638144327396
30
0
41
1
10
-0.394913799811249
20
9.80498177095927
30
0
41
1
10
-0.394913799811263
20
8.09321828866487
30
0
41
1
10
-0.394913799811263
20
6.90653972901185
30
0
41
1
10
-0.394913799811263
20
6.32722135061286
30
0
0
SPLINE
5
18A
100
AcDbEntity
8
SK1
62
256
6
ByLayer
370
18
48
1
60
0
100
AcDbSpline
70
4
71
3
72
40
73
36
40
0
40
0
40
0
40
0
40
0.125000000000001
40
0.125000000000001
40
0.187500000000001
40
0.187500000000001
40
0.250000000000001
40
0.250000000000001
40
0.312500000000001
40
0.312500000000001
40
0.328125000000001
40
0.328125000000001
40
0.343750000000001
40
0.375
40
0.375
40
0.4375
40
0.4375
40
0.5
40
0.5625
40
0.5625
40
0.625
40
0.625
40
0.640625
40
0.640625
40
0.65625
40
0.65625
40
0.6875
40
0.6875
40
0.75
40
0.75
40
0.8125
40
0.8125
40
0.875
40
0.875
40
1
40
1
40
1
40
1
41
1
10
-1.30710678118656
20
-4.8111515693796
30
0
41
1
10
-1.37464191770108
20
-4.42920989906065
30
0
41
1
10
-1.43848245106359
20
-4.04286538655003
30
0
41
1
10
-1.52581080346148
20
-3.4555709451387
30
0
41
1
10
-1.55350142719045
20
-3.25850341404765
30
0
41
1
10
-1.60546482604907
20
-2.86151288497595
30
0
41
1
10
-1.62973519898721
20
-2.66158901568747
30
0
41
1
10
-1.67414509281367
20
-2.25856982386534
30
0
41
1
10
-1.69427910225544
20
-2.05547235697082
30
0
41
1
10
-1.71638790779507
20
-1.79939862844844
30
0
41
1
10
-1.72065969674749
20
-1.74803956652656
30
0
41
1
10
-1.72887208385963
20
-1.64527687502962
30
0
41
1
10
-1.74069036277351
20
-1.49111947898436
30
0
41
1
10
-1.75097190728464
20
-1.33692150334681
30
0
41
1
10
-1.76938952483026
20
-1.02847005779319
30
0
41
1
10
-1.77881369580271
20
-0.822761881301403
30
0
41
1
10
-1.79137807494828
20
-0.411189125581416
30
0
41
1
10
-1.79754609551321
20
0.0005418097730967
30
0
41
1
10
-1.79135312802684
20
0.412582134739552
30
0
41
1
10
-1.77873477820947
20
0.824781359776068
30
0
41
1
10
-1.76926982289669
20
1.03095952328059
30
0
41
1
10
-1.75383938151627
20
1.2887753971963
30
0
41
1
10
-1.75057294247843
20
1.340343237501
30
0
41
1
10
-1.74368713518695
20
1.44348814091276
30
0
41
1
10
-1.74006503391182
20
1.4951017046248
30
0
41
1
10
-1.72870229322061
20
1.64966999837918
30
0
41
1
10
-1.72047269473447
20
1.75227000555529
30
0
41
1
10
-1.69395938565037
20
2.05879746438532
30
0
41
1
10
-1.67384597566205
20
2.26145078101038
30
0
41
1
10
-1.629485287899
20
2.66369063393998
30
0
41
1
10
-1.60524340635006
20
2.86327920729124
30
0
41
1
10
-1.5533368167803
20
3.25969288493101
30
0
41
1
10
-1.52567448156806
20
3.45651882726707
30
0
41
1
10
-1.43842306954178
20
4.04321174825222
30
0
41
1
10
-1.374622793295
20
4.42931851789501
30
0
41
1
10
-1.30710678118658
20
4.81115177825131
30
0
0
SPLINE
5
18B
100
AcDbEntity
8
SK1
62
256
6
ByLayer
370
13
48
1
60
0
100
AcDbSpline
70
4
71
3
72
49
73
45
40
0
40
0
40
0
40
0
40
0.0205806759075622
40
0.0487849746050766
40
0.076989273302591
40
0.105193572000105
40
0.13339787069762
40
0.161602169395134
40
0.218010766790163
40
0.246215065487677
40
0.274419364185192
40
0.302623662882706
40
0.330827961580221
40
0.359032260277735
40
0.38723655897525
40
0.415440857672764
40
0.429543007021521
40
0.443645156370278
40
0.457747305719036
40
0.471849455067793
40
0.48595160441655
40
0.493002679090928
40
0.500053753765307
40
0.507104828439686
40
0.514155903114064
40
0.528258052462822
40
0.542360201811579
40
0.556462351160336
40
0.570564500509093
40
0.58466664985785
40
0.612870948555365
40
0.641075247252879
40
0.669279545950394
40
0.697483844647908
40
0.725688143345422
40
0.753892442042937
40
0.782096740740451
40
0.83850533813548
40
0.866709636832995
40
0.894913935530509
40
0.923118234228023
40
0.951322532925538
40
0.979526831623052
40
1
40
1
40
1
40
1
41
1
10
-1.99503997793921
20
21.8252862008044
30
0
41
1
10
-1.9950399779392
20
21.8253761313709
30
0
41
1
10
-1.99503997793923
20
21.7812239829144
30
0
41
1
10
-1.99503997793921
20
21.5622159608079
30
0
41
1
10
-1.99503997793921
20
21.1516905297669
30
0
41
1
10
-1.99503997793923
20
20.5863476884834
30
0
41
1
10
-1.99503997793923
20
19.8770915138249
30
0
41
1
10
-1.99503997793923
20
18.7508484467722
30
0
41
1
10
-1.99503997793923
20
17.370463175446
30
0
41
1
10
-1.99503997793924
20
15.752471971849
30
0
41
1
10
-1.99503997793924
20
14.4250897201646
30
0
41
1
10
-1.99503997793924
20
12.985830725026
30
0
41
1
10
-1.99503997793926
20
11.4370507512064
30
0
41
1
10
-1.99503997793926
20
9.78067154978811
30
0
41
1
10
-1.99503997793927
20
8.01821733349291
30
0
41
1
10
-1.99503997793927
20
6.46319635117561
30
0
41
1
10
-1.99503997793928
20
5.16749918372619
30
0
41
1
10
-1.99503997793928
20
4.17226659327741
30
0
41
1
10
-1.99503997793928
20
3.15436880408234
30
0
41
1
10
-1.99503997793928
20
2.11640247274798
30
0
41
1
10
-1.9950399779393
20
1.23881045451827
30
0
41
1
10
-1.9950399779393
20
0.531269482892839
30
0
41
1
10
-1.9950399779393
20
7.4362589E-08
30
0
41
1
10
-1.9950399779393
20
-0.53126937109505
30
0
41
1
10
-1.9950399779393
20
-1.23881043770959
30
0
41
1
10
-1.9950399779393
20
-2.11640245296422
30
0
41
1
10
-1.99503997793931
20
-3.15436853749512
30
0
41
1
10
-1.99503997793931
20
-4.17226658860133
30
0
41
1
10
-1.99503997793931
20
-5.16749921349111
30
0
41
1
10
-1.99503997793933
20
-6.46319592062625
30
0
41
1
10
-1.99503997793933
20
-8.01821749841287
30
0
41
1
10
-1.99503997793933
20
-9.7806713457135
30
0
41
1
10
-1.99503997793934
20
-11.4370504129058
30
0
41
1
10
-1.99503997793934
20
-12.9858310385527
30
0
41
1
10
-1.99503997793936
20
-14.4250895103889
30
0
41
1
10
-1.99503997793936
20
-15.7524717843982
30
0
41
1
10
-1.99503997793936
20
-17.370463645283
30
0
41
1
10
-1.99503997793937
20
-18.7508482253859
30
0
41
1
10
-1.99503997793937
20
-19.8770917100388
30
0
41
1
10
-1.99503997793937
20
-20.5863484011186
30
0
41
1
10
-1.99503997793937
20
-21.1516903613971
30
0
41
1
10
-1.99503997793939
20
-21.5622163798915
30
0
41
1
10
-1.99503997793939
20
-21.7809188667265
30
0
41
1
10
-1.99503997793939
20
-21.8251811952676
30
0
41
1
10
-1.99503997793939
20
-21.8252861507635
30
0
0
SPLINE
5
18C
100
AcDbEntity
8
SK1
62
256
6
ByLayer
370
18
48
1
60
0
100
AcDbSpline
70
4
71
3
72
49
73
45
40
0
40
0
40
0
40
0
40
0.0137023112973135
40
0.042308071503247
40
0.0709138317091804
40
0.0995195919151139
40
0.128125352121047
40
0.156731112326981
40
0.213942632738848
40
0.242548392944781
40
0.271154153150715
40
0.299759913356648
40
0.328365673562581
40
0.356971433768515
40
0.385577193974448
40
0.414182954180382
40
0.428485834283348
40
0.442788714386315
40
0.457091594489282
40
0.471394474592248
40
0.485697354695215
40
0.492848794746699
40
0.500000234798182
40
0.507151674849665
40
0.514303114901149
40
0.528605995004115
40
0.542908875107082
40
0.557211755210049
40
0.571514635313016
40
0.585817515415982
40
0.614423275621916
40
0.643029035827849
40
0.671634796033783
40
0.700240556239716
40
0.728846316445649
40
0.757452076651583
40
0.786057836857516
40
0.843269357269383
40
0.871875117475317
40
0.90048087768125
40
0.929086637887184
40
0.957692398093117
40
0.986298158299051
40
1
40
1
40
1
40
1
41
1
10
-2.19999999999992
20
22.0136323385202
30
0
41
1
10
-2.19999999999992
20
22.0053276310005
30
0
41
1
10
-2.19999999999992
20
21.9554440400612
30
0
41
1
10
-2.19999999999992
20
21.7550269215783
30
0
41
1
10
-2.19999999999992
20
21.3416333570605
30
0
41
1
10
-2.19999999999992
20
20.7725957724454
30
0
41
1
10
-2.19999999999993
20
20.0589162847047
30
0
41
1
10
-2.19999999999993
20
18.9263267207688
30
0
41
1
10
-2.19999999999993
20
17.5367466797247
30
0
41
1
10
-2.19999999999995
20
15.9097478536278
30
0
41
1
10
-2.19999999999995
20
14.5742840575192
30
0
41
1
10
-2.19999999999995
20
13.1259218425112
30
0
41
1
10
-2.19999999999996
20
11.5668148046225
30
0
41
1
10
-2.19999999999996
20
9.89853996914991
30
0
41
1
10
-2.19999999999997
20
8.12208977576529
30
0
41
1
10
-2.19999999999997
20
6.55235660022589
30
0
41
1
10
-2.19999999999997
20
5.24422917335971
30
0
41
1
10
-2.19999999999999
20
4.2375522406841
30
0
41
1
10
-2.19999999999999
20
3.20644372216569
30
0
41
1
10
-2.19999999999999
20
2.15314018801405
30
0
41
1
10
-2.19999999999999
20
1.26034253962158
30
0
41
1
10
-2.2
20
0.540965390862567
30
0
41
1
10
-2.2
20
2.64082871E-08
30
0
41
1
10
-2.2
20
-0.540965319759124
30
0
41
1
10
-2.2
20
-1.26034245765442
30
0
41
1
10
-2.2
20
-2.15314020845372
30
0
41
1
10
-2.20000000000002
20
-3.20644349821168
30
0
41
1
10
-2.20000000000002
20
-4.23755215854527
30
0
41
1
10
-2.20000000000002
20
-5.24422924769223
30
0
41
1
10
-2.20000000000003
20
-6.55235618011341
30
0
41
1
10
-2.20000000000003
20
-8.12208991237512
30
0
41
1
10
-2.20000000000003
20
-9.89853979541101
30
0
41
1
10
-2.20000000000005
20
-11.5668144415121
30
0
41
1
10
-2.20000000000005
20
-13.1259221492871
30
0
41
1
10
-2.20000000000006
20
-14.574283866752
30
0
41
1
10
-2.20000000000006
20
-15.9097476492909
30
0
41
1
10
-2.20000000000006
20
-17.5367471514895
30
0
41
1
10
-2.20000000000007
20
-18.9263265026412
30
0
41
1
10
-2.20000000000007
20
-20.0589164660072
30
0
41
1
10
-2.20000000000007
20
-20.7725964921017
30
0
41
1
10
-2.20000000000007
20
-21.3416331895302
30
0
41
1
10
-2.20000000000009
20
-21.7550273348429
30
0
41
1
10
-2.20000000000009
20
-21.9554433966004
30
0
41
1
10
-2.20000000000009
20
-22.0053267961225
30
0
41
1
10
-2.20000000000009
20
-22.0136316613417
30
0
0
SPLINE
5
18D
100
AcDbEntity
8
SK1
62
256
6
ByLayer
370
18
48
1
60
0
100
AcDbSpline
70
4
71
3
72
49
73
45
40
0
40
0
40
0
40
0
40
0.0270948203579398
40
0.0549127539378631
40
0.0827306875177866
40
0.11054862109771
40
0.138366554677633
40
0.166184488257557
40
0.221820355417404
40
0.249638288997327
40
0.277456222577251
40
0.305274156157174
40
0.333092089737097
40
0.360910023317021
40
0.388727956896944
40
0.416545890476868
40
0.43045485726683
40
0.444363824056791
40
0.458272790846753
40
0.472181757636715
40
0.486090724426676
40
0.493045207821657
40
0.499999691216638
40
0.506954174611619
40
0.5139086580066
40
0.527817624796562
40
0.541726591586523
40
0.555635558376485
40
0.569544525166446
40
0.583453491956408
40
0.611271425536332
40
0.639089359116255
40
0.666907292696178
40
0.694725226276102
40
0.722543159856025
40
0.750361093435949
40
0.778179027015872
40
0.833814894175719
40
0.861632827755643
40
0.889450761335566
40
0.917268694915489
40
0.945086628495413
40
0.972904562075336
40
1
40
1
40
1
40
1
41
1
10
-36.4999999999999
20
21.1524103622996
30
0
41
1
10
-36.4999999999999
20
21.1690101691417
30
0
41
1
10
-36.4999999999999
20
21.1349478855393
30
0
41
1
10
-36.4999999999999
20
20.9025884164265
30
0
41
1
10
-36.4999999999999
20
20.5018751860754
30
0
41
1
10
-36.4999999999999
20
19.9491724688866
30
0
41
1
10
-36.4999999999999
20
19.2550489357273
30
0
41
1
10
-36.4999999999999
20
18.15051793389
30
0
41
1
10
-36.4999999999999
20
16.8015889830238
30
0
41
1
10
-36.4999999999999
20
15.2144138486305
30
0
41
1
10
-36.5
20
13.9146794509995
30
0
41
1
10
-36.5
20
12.5065635742003
30
0
41
1
10
-36.5
20
10.9931136245941
30
0
41
1
10
-36.5
20
9.37743069816298
30
0
41
1
10
-36.5
20
7.66285826183432
30
0
41
1
10
-36.5
20
6.15816931379945
30
0
41
1
10
-36.5
20
4.90499743361764
30
0
41
1
10
-36.5
20
3.94891719908267
30
0
41
1
10
-36.5
20
2.97621477071257
30
0
41
1
10
-36.5
20
1.99071870036136
30
0
41
1
10
-36.5
20
1.16514681856452
30
0
41
1
10
-36.5
20
0.498098713248623
30
0
41
1
10
-36.5
20
2.384196023E-07
30
0
41
1
10
-36.5
20
-0.498098462230672
30
0
41
1
10
-36.5
20
-1.16514702466992
30
0
41
1
10
-36.5
20
-1.99071854296855
30
0
41
1
10
-36.5
20
-2.97621435827213
30
0
41
1
10
-36.5
20
-3.94891745941487
30
0
41
1
10
-36.5
20
-4.90499731091163
30
0
41
1
10
-36.5
20
-6.15816884754423
30
0
41
1
10
-36.5
20
-7.66285852360596
30
0
41
1
10
-36.5
20
-9.37743039030639
30
0
41
1
10
-36.5
20
-10.9931133711699
30
0
41
1
10
-36.5000000000001
20
-12.5065639108221
30
0
41
1
10
-36.5000000000001
20
-13.9146791761935
30
0
41
1
10
-36.5000000000001
20
-15.2144137189482
30
0
41
1
10
-36.5000000000001
20
-16.8015894462652
30
0
41
1
10
-36.5000000000001
20
-18.1505177013546
30
0
41
1
10
-36.5000000000001
20
-19.2550491829543
30
0
41
1
10
-36.5000000000001
20
-19.9491731575016
30
0
41
1
10
-36.5000000000001
20
-20.5018750148335
30
0
41
1
10
-36.5000000000001
20
-20.9025888554178
30
0
41
1
10
-36.5000000000001
20
-21.1349503319711
30
0
41
1
10
-36.5000000000001
20
-21.1690108785412
30
0
41
1
10
-36.5000000000001
20
-21.1524093355648
30
0
0
SPLINE
5
18E
100
AcDbEntity
8
1
62
256
6
ByLayer
370
18
48
1
60
0
100
AcDbSpline
70
4
71
3
72
74
73
70
40
0
40
0
40
0
40
0
40
0.0075024758933664
40
0.0148992199183553
40
0.0222838275355075
40
0.0296556764651519
40
0.0370148586585026
40
0.0443614840716229
40
0.0516956615373999
40
0.0590174987848199
40
0.0663271024572217
40
0.07362457813114
40
0.0809100303340368
40
0.0881835625619986
40
0.0954452772970439
40
0.102695276024101
40
0.109933659247669
40
0.117160526508159
40
0.124375976397934
40
0.13158010657706
40
0.138773013788735
40
0.14595479387455
40
0.153125541789216
40
0.160285351615352
40
0.167434316577782
40
0.174572151227107
40
0.181696970112387
40
0.188808589599453
40
0.195907112467902
40
0.20299264037258
40
0.210065273861699
40
0.217125112394308
40
0.224172254357279
40
0.231206797082911
40
0.238228836864867
40
0.245238468974708
40
0.252235787677648
40
0.316747179426861
40
0.379892843275316
40
0.441730493081838
40
0.502156069324699
40
0.523556877992398
40
0.54468581303242
40
0.565545342093676
40
0.586137744176478
40
0.606465117787054
40
0.626529388577498
40
0.646332316515477
40
0.665875502622876
40
0.685160395319474
40
0.704179925308679
40
0.7229210939456
40
0.741385566936026
40
0.759575129005815
40
0.777491414198034
40
0.795135912582951
40
0.812509976600285
40
0.829614827063497
40
0.846451558853518
40
0.86302114632665
40
0.879324448459495
40
0.895362213751704
40
0.911135084905637
40
0.926643603300433
40
0.941878976062404
40
0.956831121297613
40
0.971501264692092
40
0.985890545639715
40
1
40
1
40
1
40
1
41
1
10
266
20
24.999999999999
30
0
41
1
10
266.000521894441
20
24.9999752851221
30
0
41
1
10
266.001558328299
20
24.9999262036734
30
0
41
1
10
266.003108169379
20
24.999531859257
30
0
41
1
10
266.004648351702
20
24.9989085727691
30
0
41
1
10
266.006185065585
20
24.9980330865695
30
0
41
1
10
266.007718001871
20
24.9969128186655
30
0
41
1
10
266.009246905404
20
24.9955474026734
30
0
41
1
10
266.010771524938
20
24.993938528723
30
0
41
1
10
266.012291611741
20
24.992087319464
30
0
41
1
10
266.013806919526
20
24.9899950318017
30
0
41
1
10
266.015317204292
20
24.9876628695866
30
0
41
1
10
266.016822224263
20
24.9850920339094
30
0
41
1
10
266.018321739772
20
24.9822837098888
30
0
41
1
10
266.019815513172
20
24.9792390704287
30
0
41
1
10
266.021303308736
20
24.9759592754362
30
0
41
1
10
266.022784892562
20
24.97244547225
30
0
41
1
10
266.024260032486
20
24.9686987957412
30
0
41
1
10
266.025728497987
20
24.9647203684981
30
0
41
1
10
266.0271900601
20
24.9605113009857
30
0
41
1
10
266.028644491327
20
24.9560726917082
30
0
41
1
10
266.030091565543
20
24.9514056273693
30
0
41
1
10
266.031531057934
20
24.9465111830246
30
0
41
1
10
266.032962744856
20
24.9413904222466
30
0
41
1
10
266.034386378844
20
24.9360444914242
30
0
41
1
10
266.0358015828
20
24.9304750585304
30
0
41
1
10
266.03720797058
20
24.9246839685818
30
0
41
1
10
266.038605182315
20
24.9186730674886
30
0
41
1
10
266.039992991908
20
24.9124436841501
30
0
41
1
10
266.041371193284
20
24.9059970565881
30
0
41
1
10
266.042739581551
20
24.8993344100557
30
0
41
1
10
266.044097952873
20
24.8924569571482
30
0
41
1
10
266.045446104452
20
24.88536589832
30
0
41
1
10
266.046783834343
20
24.8780624208405
30
0
41
1
10
266.048110941535
20
24.8705477036169
30
0
41
1
10
266.049427225551
20
24.8628229000623
30
0
41
1
10
266.054309407255
20
24.8331478192015
30
0
41
1
10
266.062388143032
20
24.7749692644852
30
0
41
1
10
266.072810739712
20
24.6748666979225
30
0
41
1
10
266.08189607865
20
24.5595370725074
30
0
41
1
10
266.087928966358
20
24.45706332463
30
0
41
1
10
266.091685371151
20
24.3773807210492
30
0
41
1
10
266.093806849155
20
24.3263248100877
30
0
41
1
10
266.095704729602
20
24.2739799163069
30
0
41
1
10
266.097376750635
20
24.2204191936399
30
0
41
1
10
266.098820815325
20
24.1657144520241
30
0
41
1
10
266.100035001887
20
24.1099360799827
30
0
41
1
10
266.101017546611
20
24.0531531671393
30
0
41
1
10
266.101766858061
20
23.9954335498677
30
0
41
1
10
266.10228136734
20
23.9368524127604
30
0
41
1
10
266.102559936066
20
23.8774994486163
30
0
41
1
10
266.102602362093
20
23.8174650047816
30
0
41
1
10
266.102408387515
20
23.756830924721
30
0
41
1
10
266.1019781172
20
23.6956619164985
30
0
41
1
10
266.101311763978
20
23.6340211421299
30
0
41
1
10
266.100409693882
20
23.5719705351003
30
0
41
1
10
266.099272414568
20
23.5095708634601
30
0
41
1
10
266.097900579693
20
23.446881777213
30
0
41
1
10
266.096294989944
20
23.383961852914
30
0
41
1
10
266.094456596297
20
23.3208686407312
30
0
41
1
10
266.092386501994
20
23.2576586824073
30
0
41
1
10
266.090085971515
20
23.1943876195409
30
0
41
1
10
266.087556417522
20
23.1311099572205
30
0
41
1
10
266.084800018477
20
23.0678926210274
30
0
41
1
10
266.081819869085
20
23.0048141694069
30
0
41
1
10
266.078622596323
20
22.941959872862
30
0
41
1
10
266.075204314262
20
22.879374787198
30
0
41
1
10
266.071595695201
20
22.8171854602397
30
0
41
1
10
266.068973504201
20
22.7754259003027
30
0
41
1
10
266.067675282232
20
22.7547511370659
30
0
0
SPLINE
5
18F
100
AcDbEntity
8
1
62
256
6
ByLayer
370
13
48
1
60
0
100
AcDbSpline
70
4
71
1
72
4
73
2
40
0
40
0
40
1
40
1
41
1
10
265.635350564464
20
22.9943900756365
30
0
41
1
10
266.067675282232
20
22.7547511370658
30
0
0
SPLINE
5
190
100
AcDbEntity
8
1
62
256
6
ByLayer
370
13
48
1
60
0
100
AcDbSpline
70
4
71
3
72
34
73
30
40
0
40
0
40
0
40
0
40
0.0624999999999999
40
0.0624999999999999
40
0.125
40
0.15625
40
0.15625
40
0.1875
40
0.1875
40
0.25
40
0.25
40
0.375
40
0.40625
40
0.40625
40
0.4375
40
0.4375
40
0.5
40
0.5
40
0.625
40
0.625
40
0.6875
40
0.6875
40
0.75
40
0.75
40
0.875
40
0.875
40
0.9375
40
0.9375
40
1
40
1
40
1
40
1
41
1
10
266
20
24.999999999999
30
0
41
1
10
266.014812739614
20
24.999999999999
30
0
41
1
10
266.029622238173
20
24.9967241358786
30
0
41
1
10
266.059139800026
20
24.9836371974726
30
0
41
1
10
266.081206597765
20
24.9689207780151
30
0
41
1
10
266.103081239536
20
24.9468494149334
30
0
41
1
10
266.117611926543
20
24.9304980569
30
0
41
1
10
266.124852375046
20
24.9215017564257
30
0
41
1
10
266.146457520478
20
24.8920857452437
30
0
41
1
10
266.160712834101
20
24.8692332625326
30
0
41
1
10
266.20291630061
20
24.7909839098409
30
0
41
1
10
266.237152682465
20
24.709635261553
30
0
41
1
10
266.269682158228
20
24.6080642925882
30
0
41
1
10
266.282544446913
20
24.5658113771965
30
0
41
1
10
266.288902986091
20
24.5438661551308
30
0
41
1
10
266.3077213716
20
24.4756414302038
30
0
41
1
10
266.31991839485
20
24.4269981302981
30
0
41
1
10
266.355312517614
20
24.2716211294436
30
0
41
1
10
266.377321211601
20
24.1554500642246
30
0
41
1
10
266.40722530712
20
23.9622722142651
30
0
41
1
10
266.41667329215
20
23.8947236348502
30
0
41
1
10
266.43437761318
20
23.7532778952799
30
0
41
1
10
266.442617490402
20
23.6795117451554
30
0
41
1
10
266.465247523275
20
23.4491666082544
30
0
41
1
10
266.477575832709
20
23.283527491318
30
0
41
1
10
266.490600456538
20
23.0169088242278
30
0
41
1
10
266.494026128838
20
22.9249759938856
30
0
41
1
10
266.498725623193
20
22.7351579663387
30
0
41
1
10
266.5
20
22.6373314104557
30
0
41
1
10
266.5
20
22.5365853658614
30
0
0
SPLINE
5
191
100
AcDbEntity
8
1
62
256
6
ByLayer
370
18
48
1
60
0
100
AcDbSpline
70
4
71
3
72
34
73
30
40
0
40
0
40
0
40
0
40
0.016075874580122
40
0.016075874580122
40
0.0607996984628445
40
0.0607996984628445
40
0.105523522345567
40
0.105523522345567
40
0.194971170111013
40
0.194971170111013
40
0.239694993993734
40
0.239694993993734
40
0.284418817876456
40
0.284418817876456
40
0.373866465641899
40
0.373866465641899
40
0.418590289524621
40
0.418590289524621
40
0.463314113407342
40
0.463314113407342
40
0.552761761172784
40
0.552761761172784
40
0.642209408938226
40
0.642209408938226
40
0.731657056703668
40
0.731657056703668
40
0.82110470446911
40
0.82110470446911
40
1
40
1
40
1
40
1
41
1
10
267.570951740774
20
-14.7536111322442
30
0
41
1
10
267.570234844071
20
-14.7543345515971
30
0
41
1
10
267.569533009876
20
-14.7550428097123
30
0
41
1
10
267.566937041454
20
-14.7576626687898
30
0
41
1
10
267.565146159727
20
-14.7594703034844
30
0
41
1
10
267.561821741835
20
-14.7628262012995
30
0
41
1
10
267.560285385348
20
-14.7643773132473
30
0
41
1
10
267.556170769704
20
-14.7685318245786
30
0
41
1
10
267.554054662599
20
-14.7706689842474
30
0
41
1
10
267.551904777518
20
-14.7728403855665
30
0
41
1
10
267.551358069514
20
-14.7733926014487
30
0
41
1
10
267.550642684802
20
-14.7741152032579
30
0
41
1
10
267.550471174801
20
-14.7742884504578
30
0
41
1
10
267.550501778366
20
-14.7742575373647
30
0
41
1
10
267.551246131199
20
-14.7735056170728
30
0
41
1
10
267.553449587003
20
-14.771280119121
30
0
41
1
10
267.554366440456
20
-14.7703541331474
30
0
41
1
10
267.556507437831
20
-14.7681920072904
30
0
41
1
10
267.557735591993
20
-14.7669518171113
30
0
41
1
10
267.561863192775
20
-14.7627842351996
30
0
41
1
10
267.565218581561
20
-14.7593968992327
30
0
41
1
10
267.572951716672
20
-14.7515926878484
30
0
41
1
10
267.577252302461
20
-14.7472536906856
30
0
41
1
10
267.586584704884
20
-14.7378414692282
30
0
41
1
10
267.591617667416
20
-14.7327670857892
30
0
41
1
10
267.602342916788
20
-14.7219581556365
30
0
41
1
10
267.607954623723
20
-14.716304835689
30
0
41
1
10
267.625296915117
20
-14.6988417531492
30
0
41
1
10
267.637586054382
20
-14.6864770846465
30
0
41
1
10
267.650480947162
20
-14.6735161477116
30
0
0
SPLINE
5
192
100
AcDbEntity
8
1
62
256
6
ByLayer
370
18
48
1
60
0
100
AcDbSpline
70
4
71
3
72
8
73
4
40
0
40
0
40
0
40
0
40
1
40
1
40
1
40
1
41
1
10
267.650480947162
20
-14.6735161477116
30
0
41
1
10
267.875830405165
20
-14.4470125107007
30
0
41
1
10
268.100607863251
20
-14.2197546698719
30
0
41
1
10
268.324759526419
20
-13.991671694457
30
0
0
SPLINE
5
193
100
AcDbEntity
8
1
62
256
6
ByLayer
370
18
48
1
60
0
100
AcDbSpline
70
4
71
3
72
8
73
4
40
0
40
0
40
0
40
0
40
1
40
1
40
1
40
1
41
1
10
268.324759526419
20
-13.976856793211
30
0
41
1
10
268.100458994954
20
-14.1950332762291
30
0
41
1
10
267.875685997486
20
-14.4125589107679
30
0
41
1
10
267.650480947162
20
-14.6294893682067
30
0
0
SPLINE
5
194
100
AcDbEntity
8
1
62
256
6
ByLayer
370
18
48
1
60
0
100
AcDbSpline
70
4
71
3
72
36
73
32
40
0
40
0
40
0
40
0
40
0.0624999999999999
40
0.0624999999999999
40
0.125
40
0.125
40
0.1875
40
0.1875
40
0.25
40
0.25
40
0.3125
40
0.3125
40
0.374999999999999
40
0.374999999999999
40
0.437499999999999
40
0.437499999999999
40
0.499999999999999
40
0.499999999999999
40
0.562499999999999
40
0.562499999999999
40
0.624999999999999
40
0.624999999999999
40
0.687499999999999
40
0.687499999999999
40
0.749999999999999
40
0.749999999999999
40
0.812499999999999
40
0.812499999999999
40
0.874999999999999
40
0.874999999999999
40
1
40
1
40
1
40
1
41
1
10
267.650480947162
20
-14.6294893682067
30
0
41
1
10
267.643862084188
20
-14.6358650377155
30
0
41
1
10
267.63736815804
20
-14.6420854939402
30
0
41
1
10
267.624658212001
20
-14.6541795144039
30
0
41
1
10
267.618465781099
20
-14.6600302465747
30
0
41
1
10
267.606614451507
20
-14.6711317760511
30
0
41
1
10
267.60093036574
20
-14.6764066912086
30
0
41
1
10
267.590113554064
20
-14.6863246581531
30
0
41
1
10
267.584944456052
20
-14.691000029735
30
0
41
1
10
267.575462300344
20
-14.6994157565428
30
0
41
1
10
267.571165979257
20
-14.7031426233283
30
0
41
1
10
267.563582231134
20
-14.709502599634
30
0
41
1
10
267.560295493777
20
-14.712131438416
30
0
41
1
10
267.555115656292
20
-14.7159495810431
30
0
41
1
10
267.55318093426
20
-14.7171751733816
30
0
41
1
10
267.550745513604
20
-14.7181286395752
30
0
41
1
10
267.550291079597
20
-14.7178363837959
30
0
41
1
10
267.550812662286
20
-14.7158184071485
30
0
41
1
10
267.551796471514
20
-14.7140793421226
30
0
41
1
10
267.555138387984
20
-14.7092388666707
30
0
41
1
10
267.557446708715
20
-14.7062051495611
30
0
41
1
10
267.563158317433
20
-14.6990846204179
30
0
41
1
10
267.566592406128
20
-14.6949623448446
30
0
41
1
10
267.57432482138
20
-14.6859171291042
30
0
41
1
10
267.578590882068
20
-14.681029982192
30
0
41
1
10
267.587802061849
20
-14.6706380732879
30
0
41
1
10
267.592748132286
20
-14.6651324406491
30
0
41
1
10
267.60325464834
20
-14.6535639456452
30
0
41
1
10
267.608756349683
20
-14.6475660845116
30
0
41
1
10
267.625757992912
20
-14.6291819152161
30
0
41
1
10
267.63781344554
20
-14.61633815057
30
0
41
1
10
267.650480947162
20
-14.6030003410702
30
0
0
SPLINE
5
195
100
AcDbEntity
8
1
62
256
6
ByLayer
370
18
48
1
60
0
100
AcDbSpline
70
4
71
3
72
8
73
4
40
0
40
0
40
0
40
0
40
1
40
1
40
1
40
1
41
1
10
267.650480947162
20
-14.6030003410702
30
0
41
1
10
267.876008003165
20
-14.3655393957395
30
0
41
1
10
268.100791090601
20
-14.1271433496662
30
0
41
1
10
268.324759526419
20
-13.8877233606922
30
0
0
SPLINE
5
196
100
AcDbEntity
8
1
62
256
6
ByLayer
370
18
48
1
60
0
100
AcDbSpline
70
4
71
3
72
8
73
4
40
0
40
0
40
0
40
0
40
1
40
1
40
1
40
1
41
1
10
268.324759526419
20
-13.8429985339393
30
0
41
1
10
268.10033706691
20
-14.0525298860225
30
0
41
1
10
267.875567648883
20
-14.2615638584146
30
0
41
1
10
267.650480947162
20
-14.4701429912266
30
0
0
SPLINE
5
197
100
AcDbEntity
8
1
62
256
6
ByLayer
370
18
48
1
60
0
100
AcDbSpline
70
4
71
3
72
38
73
34
40
0
40
0
40
0
40
0
40
0.0624999999999999
40
0.0624999999999999
40
0.125
40
0.125
40
0.1875
40
0.1875
40
0.25
40
0.25
40
0.3125
40
0.3125
40
0.375
40
0.375
40
0.4375
40
0.4375
40
0.5
40
0.5
40
0.531250000000001
40
0.531250000000001
40
0.562500000000003
40
0.562500000000003
40
0.625000000000002
40
0.625000000000002
40
0.687500000000002
40
0.687500000000002
40
0.750000000000001
40
0.750000000000001
40
0.8125
40
0.8125
40
0.875
40
0.875
40
1
40
1
40
1
40
1
41
1
10
267.650480947162
20
-14.4701429912266
30
0
41
1
10
267.643726881463
20
-14.4764017224423
30
0
41
1
10
267.637098160743
20
-14.4824675984272
30
0
41
1
10
267.624121587645
20
-14.4941653645867
30
0
41
1
10
267.617742143976
20
-14.4998242703934
30
0
41
1
10
267.605562970483
20
-14.5104136408797
30
0
41
1
10
267.599742695575
20
-14.5153637999649
30
0
41
1
10
267.588714807944
20
-14.5244776354354
30
0
41
1
10
267.583471678807
20
-14.5286687146879
30
0
41
1
10
267.573894168183
20
-14.5359672809043
30
0
41
1
10
267.569604727196
20
-14.5390430763013
30
0
41
1
10
267.562140118258
20
-14.5439116287629
30
0
41
1
10
267.558968752714
20
-14.5456925212599
30
0
41
1
10
267.55412676766
20
-14.5476893893337
30
0
41
1
10
267.552408786091
20
-14.5479394606962
30
0
41
1
10
267.550449968655
20
-14.5468649480104
30
0
41
1
10
267.550243871428
20
-14.5455532016635
30
0
41
1
10
267.550991933076
20
-14.5425459103032
30
0
41
1
10
267.551417710024
20
-14.5413688368428
30
0
41
1
10
267.552612851189
20
-14.5386745168143
30
0
41
1
10
267.553385026571
20
-14.5371539574111
30
0
41
1
10
267.556141299637
20
-14.5322031740124
30
0
41
1
10
267.558572250332
20
-14.5283601137453
30
0
41
1
10
267.56445428438
20
-14.5197418754234
30
0
41
1
10
267.567937837454
20
-14.5149253101646
30
0
41
1
10
267.575648799551
20
-14.5046892334923
30
0
41
1
10
267.579874304902
20
-14.4992680700752
30
0
41
1
10
267.588959245089
20
-14.4879075907872
30
0
41
1
10
267.593819464948
20
-14.481967630192
30
0
41
1
10
267.604115964568
20
-14.4696181549195
30
0
41
1
10
267.609513235996
20
-14.4632561734401
30
0
41
1
10
267.6261921918
20
-14.4438785061741
30
0
41
1
10
267.638027080278
20
-14.4304881908616
30
0
41
1
10
267.650480947162
20
-14.4166940319336
30
0
0
SPLINE
5
198
100
AcDbEntity
8
1
62
256
6
ByLayer
370
18
48
1
60
0
100
AcDbSpline
70
4
71
3
72
8
73
4
40
0
40
0
40
0
40
0
40
1
40
1
40
1
40
1
41
1
10
267.650480947162
20
-14.4166940319336
30
0
41
1
10
267.876228917632
20
-14.1666509399759
30
0
41
1
10
268.101019214676
20
-13.9154654531775
30
0
41
1
10
268.324759526419
20
-13.6630274540343
30
0
0
SPLINE
5
199
100
AcDbEntity
8
1
62
256
6
ByLayer
370
18
48
1
60
0
100
AcDbSpline
70
4
71
3
72
8
73
4
40
0
40
0
40
0
40
0
40
1
40
1
40
1
40
1
41
1
10
268.324759526419
20
-13.5875252185448
30
0
41
1
10
268.100236859786
20
-13.7895703804302
30
0
41
1
10
267.875470342809
20
-13.9912532251739
30
0
41
1
10
267.650480947162
20
-14.1926049128585
30
0
0
SPLINE
5
19A
100
AcDbEntity
8
1
62
256
6
ByLayer
370
18
48
1
60
0
100
AcDbSpline
70
4
71
3
72
39
73
35
40
0
40
0
40
0
40
0
40
0.0625000000000001
40
0.0625000000000001
40
0.125
40
0.125
40
0.1875
40
0.1875
40
0.25
40
0.25
40
0.3125
40
0.3125
40
0.343749999999999
40
0.343749999999999
40
0.374999999999999
40
0.406249999999998
40
0.406249999999998
40
0.437499999999997
40
0.437499999999997
40
0.499999999999997
40
0.499999999999997
40
0.562499999999997
40
0.562499999999997
40
0.624999999999997
40
0.624999999999997
40
0.687499999999997
40
0.687499999999997
40
0.749999999999997
40
0.749999999999997
40
0.812499999999997
40
0.812499999999997
40
0.874999999999997
40
0.874999999999997
40
1
40
1
40
1
40
1
41
1
10
267.650480947162
20
-14.1926049128585
30
0
41
1
10
267.643561481925
20
-14.1987974091724
30
0
41
1
10
267.636760597053
20
-14.2047594560303
30
0
41
1
10
267.623428732478
20
-14.2161568732058
30
0
41
1
10
267.616868043973
20
-14.221614922344
30
0
41
1
10
267.604372494835
20
-14.2316571174384
30
0
41
1
10
267.598405523108
20
-14.2362705085001
30
0
41
1
10
267.587120780066
20
-14.2445513660961
30
0
41
1
10
267.581757911793
20
-14.248245222262
30
0
41
1
10
267.572161291116
20
-14.2542618829981
30
0
41
1
10
267.567898801765
20
-14.2566113207279
30
0
41
1
10
267.562409953693
20
-14.2590197111102
30
0
41
1
10
267.56074024976
20
-14.2596301418332
30
0
41
1
10
267.557792033825
20
-14.2604382600577
30
0
41
1
10
267.555212841065
20
-14.260843929946
30
0
41
1
10
267.553367705005
20
-14.2604482498093
30
0
41
1
10
267.551893890274
20
-14.259646847813
30
0
41
1
10
267.551341802858
20
-14.2590371274935
30
0
41
1
10
267.550274927363
20
-14.2566430276485
30
0
41
1
10
267.550326458122
20
-14.2543028706045
30
0
41
1
10
267.551787967949
20
-14.2482959791925
30
0
41
1
10
267.553220516283
20
-14.2445964956724
30
0
41
1
10
267.557185296634
20
-14.2362910592434
30
0
41
1
10
267.559719213955
20
-14.2316610587587
30
0
41
1
10
267.565737405588
20
-14.2215788782879
30
0
41
1
10
267.569244994022
20
-14.2160956853234
30
0
41
1
10
267.576918114054
20
-14.2046829541815
30
0
41
1
10
267.581098727558
20
-14.1987255135266
30
0
41
1
10
267.590054837743
20
-14.1863774236145
30
0
41
1
10
267.594830979835
20
-14.1799863029424
30
0
41
1
10
267.604926584524
20
-14.1668094826124
30
0
41
1
10
267.61022432905
20
-14.1600533921716
30
0
41
1
10
267.626598565669
20
-14.1395788033858
30
0
41
1
10
267.638226288089
20
-14.1255569553049
30
0
41
1
10
267.650480947162
20
-14.1112111570004
30
0
0
SPLINE
5
19B
100
AcDbEntity
8
1
62
256
6
ByLayer
370
18
48
1
60
0
100
AcDbSpline
70
4
71
3
72
8
73
4
40
0
40
0
40
0
40
0
40
1
40
1
40
1
40
1
41
1
10
267.650480947162
20
-14.1112111570004
30
0
41
1
10
267.876507770666
20
-13.8466150387271
30
0
41
1
10
268.101307459449
20
-13.5806365366899
30
0
41
1
10
268.324759526419
20
-13.3131399205608
30
0
0
SPLINE
5
19C
100
AcDbEntity
8
1
62
256
6
ByLayer
370
18
48
1
60
0
100
AcDbSpline
70
4
71
3
72
8
73
4
40
0
40
0
40
0
40
0
40
1
40
1
40
1
40
1
41
1
10
268.324759526419
20
-13.2053177327405
30
0
41
1
10
268.100154848045
20
-13.4009956122078
30
0
41
1
10
267.875390693943
20
-13.5964289589482
30
0
41
1
10
267.650480947162
20
-13.7916390605863
30
0
0
SPLINE
5
19D
100
AcDbEntity
8
1
62
256
6
ByLayer
370
18
48
1
60
0
100
AcDbSpline
70
4
71
3
72
32
73
28
40
0
40
0
40
0
40
0
40
0.125000000000005
40
0.125000000000005
40
0.187500000000008
40
0.187500000000008
40
0.250000000000011
40
0.250000000000011
40
0.312500000000014
40
0.312500000000014
40
0.375000000000017
40
0.375000000000017
40
0.437500000000021
40
0.437500000000021
40
0.500000000000024
40
0.500000000000024
40
0.562500000000027
40
0.562500000000027
40
0.62500000000003
40
0.62500000000003
40
0.750000000000026
40
0.750000000000026
40
0.812500000000022
40
0.812500000000022
40
0.875000000000017
40
0.875000000000017
40
1
40
1
40
1
40
1
41
1
10
267.650480947162
20
-13.7916390605863
30
0
41
1
10
267.636218452344
20
-13.8040181731096
30
0
41
1
10
267.622240264368
20
-13.8154173152057
30
0
41
1
10
267.602992291188
20
-13.8296153042818
30
0
41
1
10
267.596826112669
20
-13.8338945401541
30
0
41
1
10
267.585150324815
20
-13.8413094412345
30
0
41
1
10
267.579802545074
20
-13.8443419283302
30
0
41
1
10
267.570193548697
20
-13.8489058516394
30
0
41
1
10
267.565917359672
20
-13.8504253367866
30
0
41
1
10
267.5589614839
20
-13.8516753986753
30
0
41
1
10
267.556219248358
20
-13.8514436933267
30
0
41
1
10
267.552246458667
20
-13.849215664622
30
0
41
1
10
267.551085390741
20
-13.847251677176
30
0
41
1
10
267.550241537347
20
-13.8418614194546
30
0
41
1
10
267.550569080283
20
-13.838382972768
30
0
41
1
10
267.552511726574
20
-13.8303344171854
30
0
41
1
10
267.554109567751
20
-13.8257708187564
30
0
41
1
10
267.558360917358
20
-13.8157342041938
30
0
41
1
10
267.56103952816
20
-13.8102189029195
30
0
41
1
10
267.570274220005
20
-13.7928579231853
30
0
41
1
10
267.578003306719
20
-13.7801749967745
30
0
41
1
10
267.591401058081
20
-13.7598818429381
30
0
41
1
10
267.59613953536
20
-13.7529552766068
30
0
41
1
10
267.605993559771
20
-13.7389641660196
30
0
41
1
10
267.611125160039
20
-13.7318756087936
30
0
41
1
10
267.627074672477
20
-13.7103590621013
30
0
41
1
10
267.638441494712
20
-13.6956828090534
30
0
41
1
10
267.650480947162
20
-13.6807059996453
30
0
0
SPLINE
5
19E
100
AcDbEntity
8
1
62
256
6
ByLayer
370
18
48
1
60
0
100
AcDbSpline
70
4
71
3
72
8
73
4
40
0
40
0
40
0
40
0
40
1
40
1
40
1
40
1
41
1
10
267.650480947162
20
-13.6807059996453
30
0
41
1
10
267.876866272618
20
-13.3990877212208
30
0
41
1
10
268.101678442285
20
-13.1158055554858
30
0
41
1
10
268.324759526419
20
-12.8306924641203
30
0
0
SPLINE
5
19F
100
AcDbEntity
8
1
62
256
6
ByLayer
370
18
48
1
60
0
100
AcDbSpline
70
4
71
3
72
8
73
4
40
0
40
0
40
0
40
0
40
1
40
1
40
1
40
1
41
1
10
268.324759526419
20
-12.6881625317622
30
0
41
1
10
268.100089025132
20
-12.8786205059034
30
0
41
1
10
267.875326782244
20
-13.0689340213265
30
0
41
1
10
267.650480947162
20
-13.2591159102959
30
0
0
SPLINE
5
1A0
100
AcDbEntity
8
1
62
256
6
ByLayer
370
18
48
1
60
0
100
AcDbSpline
70
4
71
3
72
41
73
37
40
0
40
0
40
0
40
0
40
0.0624999999999926
40
0.0624999999999926
40
0.124999999999985
40
0.124999999999985
40
0.156249999999983
40
0.156249999999983
40
0.187499999999981
40
0.187499999999981
40
0.249999999999976
40
0.249999999999976
40
0.281249999999973
40
0.281249999999973
40
0.31249999999997
40
0.343749999999967
40
0.343749999999967
40
0.374999999999964
40
0.374999999999964
40
0.437499999999961
40
0.437499999999961
40
0.468749999999961
40
0.468749999999961
40
0.499999999999962
40
0.499999999999962
40
0.562499999999968
40
0.562499999999968
40
0.624999999999974
40
0.624999999999974
40
0.68749999999998
40
0.68749999999998
40
0.749999999999986
40
0.749999999999986
40
0.874999999999993
40
0.874999999999993
40
1
40
1
40
1
40
1
41
1
10
267.650480947162
20
-13.2591159102959
30
0
41
1
10
267.643120671969
20
-13.2653414694166
30
0
41
1
10
267.635804695087
20
-13.2712773588533
30
0
41
1
10
267.621558337367
20
-13.2822363602357
30
0
41
1
10
267.614658110684
20
-13.2872398905806
30
0
41
1
10
267.604698216193
20
-13.2939087063824
30
0
41
1
10
267.601443651369
20
-13.2959915195205
30
0
41
1
10
267.595080260982
20
-13.2998442241162
30
0
41
1
10
267.591968194618
20
-13.3016142220477
30
0
41
1
10
267.583076629913
20
-13.3062945367757
30
0
41
1
10
267.577668862641
20
-13.3086246746216
30
0
41
1
10
267.570442806861
20
-13.3107695863605
30
0
41
1
10
267.568202442333
20
-13.311249831675
30
0
41
1
10
267.564140466581
20
-13.3117249114438
30
0
41
1
10
267.560469601454
20
-13.3117232880423
30
0
41
1
10
267.557572696077
20
-13.3107769709451
30
0
41
1
10
267.555065784551
20
-13.309353963845
30
0
41
1
10
267.554012412702
20
-13.3084010300555
30
0
41
1
10
267.551498718449
20
-13.3049318251677
30
0
41
1
10
267.550641696582
20
-13.3017928744923
30
0
41
1
10
267.550431296051
20
-13.295997198854
30
0
41
1
10
267.550543891767
20
-13.2938771195681
30
0
41
1
10
267.551097439142
20
-13.2893835606961
30
0
41
1
10
267.55153724686
20
-13.2870008336855
30
0
41
1
10
267.553295887259
20
-13.2794861044513
30
0
41
1
10
267.555051097323
20
-13.2739898973767
30
0
41
1
10
267.559557801758
20
-13.2621650826902
30
0
41
1
10
267.562301249488
20
-13.255868425622
30
0
41
1
10
267.568507240897
20
-13.2428591198084
30
0
41
1
10
267.571983861287
20
-13.2361109336979
30
0
41
1
10
267.579584891849
20
-13.2221925717875
30
0
41
1
10
267.583728003621
20
-13.2149922619395
30
0
41
1
10
267.59691541842
20
-13.1930284474532
30
0
41
1
10
267.606613261902
20
-13.1780492255834
30
0
41
1
10
267.627467863824
20
-13.1475539976581
30
0
41
1
10
267.638630045339
20
-13.1320359563962
30
0
41
1
10
267.650480947162
20
-13.1162678662829
30
0
0
SPLINE
5
1A1
100
AcDbEntity
8
1
62
256
6
ByLayer
370
18
48
1
60
0
100
AcDbSpline
70
4
71
3
72
8
73
4
40
0
40
0
40
0
40
0
40
1
40
1
40
1
40
1
41
1
10
267.650480947162
20
-13.1162678662829
30
0
41
1
10
267.877337890168
20
-12.8144257977423
30
0
41
1
10
268.102167049584
20
-12.5105841761004
30
0
41
1
10
268.324759526419
20
-12.204537010627
30
0
0
SPLINE
5
1A2
100
AcDbEntity
8
1
62
256
6
ByLayer
370
18
48
1
60
0
100
AcDbSpline
70
4
71
3
72
8
73
4
40
0
40
0
40
0
40
0
40
1
40
1
40
1
40
1
41
1
10
268.324759526419
20
-12.0237655573035
30
0
41
1
10
268.100039125586
20
-12.2102687278786
30
0
41
1
10
267.875278354979
20
-12.3967070563419
30
0
41
1
10
267.650480947162
20
-12.5830864488545
30
0
0
SPLINE
5
1A3
100
AcDbEntity
8
1
62
256
6
ByLayer
370
18
48
1
60
0
100
AcDbSpline
70
4
71
3
72
39
73
35
40
0
40
0
40
0
40
0
40
0.0625000000000225
40
0.0625000000000225
40
0.125000000000045
40
0.125000000000045
40
0.187500000000068
40
0.187500000000068
40
0.218750000000074
40
0.218750000000074
40
0.25000000000008
40
0.25000000000008
40
0.312500000000082
40
0.312500000000082
40
0.343750000000084
40
0.343750000000084
40
0.375000000000086
40
0.406250000000088
40
0.406250000000088
40
0.43750000000009
40
0.43750000000009
40
0.50000000000008
40
0.50000000000008
40
0.56250000000007
40
0.56250000000007
40
0.62500000000006
40
0.62500000000006
40
0.68750000000005
40
0.68750000000005
40
0.75000000000004
40
0.75000000000004
40
0.87500000000002
40
0.87500000000002
40
1
40
1
40
1
40
1
41
1
10
267.650480947162
20
-12.5830864488545
30
0
41
1
10
267.642848465984
20
-12.5894145343029
30
0
41
1
10
267.635230044314
20
-12.595390661751
30
0
41
1
10
267.620434193986
20
-12.6061779599136
30
0
41
1
10
267.613255140464
20
-12.6109974845258
30
0
41
1
10
267.599425158374
20
-12.6192459915897
30
0
41
1
10
267.592745263725
20
-12.6226722784107
30
0
41
1
10
267.583692680945
20
-12.6262998168299
30
0
41
1
10
267.580816760607
20
-12.6272697003254
30
0
41
1
10
267.575367399923
20
-12.6286973789881
30
0
41
1
10
267.572783455345
20
-12.6291527982113
30
0
41
1
10
267.565725370173
20
-12.6296830301401
30
0
41
1
10
267.561864611698
20
-12.6289563432174
30
0
41
1
10
267.557292459269
20
-12.6263023228401
30
0
41
1
10
267.55596873654
20
-12.6251453113997
30
0
41
1
10
267.553784251942
20
-12.6223872509883
30
0
41
1
10
267.5520409109
20
-12.6191807863454
30
0
41
1
10
267.551098579189
20
-12.6151589316106
30
0
41
1
10
267.550528264205
20
-12.6107578663781
30
0
41
1
10
267.550430700683
20
-12.6083568813511
30
0
41
1
10
267.550654051541
20
-12.6007652352962
30
0
41
1
10
267.551475794025
20
-12.5951597496364
30
0
41
1
10
267.554198267888
20
-12.5830737854485
30
0
41
1
10
267.556114381686
20
-12.5765557654393
30
0
41
1
10
267.560823333971
20
-12.5629298211251
30
0
41
1
10
267.563597798464
20
-12.5558628914167
30
0
41
1
10
267.569844713144
20
-12.5413066108052
30
0
41
1
10
267.573318283136
20
-12.5338165910076
30
0
41
1
10
267.580882685558
20
-12.5184630726745
30
0
41
1
10
267.584984596991
20
-12.5105829559687
30
0
41
1
10
267.597909096523
20
-12.4868430027674
30
0
41
1
10
267.60740422431
20
-12.4707518266133
30
0
41
1
10
267.627855969026
20
-12.4381338925017
30
0
41
1
10
267.638816630045
20
-12.4216059035302
30
0
41
1
10
267.650480947162
20
-12.4048713342168
30
0
0
SPLINE
5
1A4
100
AcDbEntity
8
1
62
256
6
ByLayer
370
18
48
1
60
0
100
AcDbSpline
70
4
71
3
72
8
73
4
40
0
40
0
40
0
40
0
40
1
40
1
40
1
40
1
41
1
10
267.650480947162
20
-12.4048713342168
30
0
41
1
10
267.87797677687
20
-12.0784874839783
30
0
41
1
10
268.10282976625
20
-11.7496954266917
30
0
41
1
10
268.324759526419
20
-11.4182396666035
30
0
0
SPLINE
5
1A5
100
AcDbEntity
8
1
62
256
6
ByLayer
370
18
48
1
60
0
100
AcDbSpline
70
4
71
3
72
8
73
4
40
0
40
0
40
0
40
0
40
1
40
1
40
1
40
1
41
1
10
268.324759526419
20
-11.1940141333158
30
0
41
1
10
268.100007511727
20
-11.3780816494076
30
0
41
1
10
267.875247737629
20
-11.562136533404
30
0
41
1
10
267.650480947162
20
-11.7461799915729
30
0
0
SPLINE
5
1A6
100
AcDbEntity
8
1
62
256
6
ByLayer
370
18
48
1
60
0
100
AcDbSpline
70
4
71
3
72
39
73
35
40
0
40
0
40
0
40
0
40
0.0625000000000101
40
0.0625000000000101
40
0.12500000000002
40
0.12500000000002
40
0.156250000000024
40
0.156250000000024
40
0.187500000000027
40
0.187500000000027
40
0.218750000000031
40
0.218750000000031
40
0.250000000000034
40
0.281250000000038
40
0.281250000000038
40
0.312500000000041
40
0.312500000000041
40
0.375000000000048
40
0.375000000000048
40
0.406250000000052
40
0.406250000000052
40
0.437500000000056
40
0.437500000000056
40
0.500000000000049
40
0.500000000000049
40
0.562500000000043
40
0.562500000000043
40
0.625000000000036
40
0.625000000000036
40
0.750000000000024
40
0.750000000000024
40
0.875000000000012
40
0.875000000000012
40
1
40
1
40
1
40
1
41
1
10
267.650480947162
20
-11.746179991573
30
0
41
1
10
267.642517355018
20
-11.7527007370729
30
0
41
1
10
267.63453440989
20
-11.7587815916516
30
0
41
1
10
267.619042460543
20
-11.7694623151681
30
0
41
1
10
267.611511726718
20
-11.7740895951831
30
0
41
1
10
267.600621370502
20
-11.7796806806265
30
0
41
1
10
267.597061556648
20
-11.7813124621382
30
0
41
1
10
267.590290341915
20
-11.7839856794475
30
0
41
1
10
267.587053841966
20
-11.7850409190099
30
0
41
1
10
267.58089623758
20
-11.7865551188082
30
0
41
1
10
267.577954952722
20
-11.787014546725
30
0
41
1
10
267.572512587958
20
-11.7872842763299
30
0
41
1
10
267.567547431314
20
-11.7869134556388
30
0
41
1
10
267.56348717482
20
-11.7853258627782
30
0
41
1
10
267.559865561372
20
-11.7831473720273
30
0
41
1
10
267.558264729514
20
-11.7817488018332
30
0
41
1
10
267.554196953588
20
-11.7767917693816
30
0
41
1
10
267.552440567205
20
-11.7725079257539
30
0
41
1
10
267.550959029724
20
-11.7648963564566
30
0
41
1
10
267.550660070545
20
-11.7621461067265
30
0
41
1
10
267.550422720308
20
-11.7563820754741
30
0
41
1
10
267.550481076441
20
-11.7533611718071
30
0
41
1
10
267.551119474506
20
-11.7439343578554
30
0
41
1
10
267.552159177103
20
-11.7371671874774
30
0
41
1
10
267.555239798449
20
-11.7228437690721
30
0
41
1
10
267.557290439547
20
-11.7152746972413
30
0
41
1
10
267.562146245542
20
-11.6997853492498
30
0
41
1
10
267.564959968858
20
-11.6918233983916
30
0
41
1
10
267.574383518436
20
-11.667383516767
30
0
41
1
10
267.582020418221
20
-11.650262691225
30
0
41
1
10
267.598905986321
20
-11.6158494363728
30
0
41
1
10
267.608200334979
20
-11.598435293485
30
0
41
1
10
267.628249215424
20
-11.5632547901691
30
0
41
1
10
267.639006636006
20
-11.5454877152697
30
0
41
1
10
267.650480947162
20
-11.5275506630102
30
0
0
SPLINE
5
1A7
100
AcDbEntity
8
1
62
256
6
ByLayer
370
18
48
1
60
0
100
AcDbSpline
70
4
71
3
72
8
73
4
40
0
40
0
40
0
40
0
40
1
40
1
40
1
40
1
41
1
10
267.650480947162
20
-11.5275506630102
30
0
41
1
10
267.878876276632
20
-11.1705149416595
30
0
41
1
10
268.103764009202
20
-10.810559849517
30
0
41
1
10
268.324759526419
20
-10.4473652688745
30
0
0
SPLINE
5
1A8
100
AcDbEntity
8
1
62
256
6
ByLayer
370
18
48
1
60
0
100
AcDbSpline
70
4
71
3
72
8
73
4
40
0
40
0
40
0
40
0
40
1
40
1
40
1
40
1
41
1
10
268.324759526419
20
-10.1718025873668
30
0
41
1
10
268.10000187134
20
-10.3554472734967
30
0
41
1
10
267.875242279349
20
-10.5390887989495
30
0
41
1
10
267.650480947162
20
-10.7227274845183
30
0
0
SPLINE
5
1A9
100
AcDbEntity
8
1
62
256
6
ByLayer
370
18
48
1
60
0
100
AcDbSpline
70
4
71
3
72
38
73
34
40
0
40
0
40
0
40
0
40
0.0624999999999877
40
0.0624999999999877
40
0.0937499999999833
40
0.0937499999999833
40
0.124999999999979
40
0.124999999999979
40
0.187499999999975
40
0.187499999999975
40
0.249999999999972
40
0.249999999999972
40
0.281249999999973
40
0.281249999999973
40
0.312499999999974
40
0.312499999999974
40
0.374999999999975
40
0.374999999999975
40
0.437499999999977
40
0.437499999999977
40
0.499999999999979
40
0.499999999999979
40
0.56249999999998
40
0.56249999999998
40
0.624999999999982
40
0.624999999999982
40
0.687499999999984
40
0.687499999999984
40
0.749999999999985
40
0.749999999999985
40
0.874999999999993
40
0.874999999999993
40
1
40
1
40
1
40
1
41
1
10
267.650480947162
20
-10.7227274845183
30
0
41
1
10
267.642084189611
20
-10.7295879596037
30
0
41
1
10
267.633635577278
20
-10.7358730778356
30
0
41
1
10
267.621331349082
20
-10.7438542779441
30
0
41
1
10
267.617278610407
20
-10.7462841546213
30
0
41
1
10
267.609284196945
20
-10.7506167225577
30
0
41
1
10
267.605312533919
20
-10.7525309641136
30
0
41
1
10
267.59384949108
20
-10.7572404234748
30
0
41
1
10
267.586793021271
20
-10.7590261770082
30
0
41
1
10
267.574217814694
20
-10.7594741859478
30
0
41
1
10
267.568995280752
20
-10.7581391109129
30
0
41
1
10
267.562595860953
20
-10.7540283498179
30
0
41
1
10
267.560701051961
20
-10.7522911875507
30
0
41
1
10
267.557471003325
20
-10.7482678595027
30
0
41
1
10
267.556116901746
20
-10.7459736675137
30
0
41
1
10
267.552741344183
20
-10.7383459141718
30
0
41
1
10
267.551412871276
20
-10.7322137165065
30
0
41
1
10
267.550260898918
20
-10.7189622551599
30
0
41
1
10
267.550404629694
20
-10.7117851145466
30
0
41
1
10
267.551786707427
20
-10.6965886813024
30
0
41
1
10
267.55302900844
20
-10.6885664010898
30
0
41
1
10
267.556428844899
20
-10.6718153503697
30
0
41
1
10
267.558575785074
20
-10.6631531994741
30
0
41
1
10
267.563557184201
20
-10.6455384394763
30
0
41
1
10
267.566399025425
20
-10.6365545230326
30
0
41
1
10
267.5726862554
20
-10.6182825742104
30
0
41
1
10
267.576143791446
20
-10.6089656304781
30
0
41
1
10
267.58354639268
20
-10.5902008455667
30
0
41
1
10
267.587481021919
20
-10.5807754721048
30
0
41
1
10
267.599905559109
20
-10.5523851374547
30
0
41
1
10
267.609009839549
20
-10.533307043836
30
0
41
1
10
267.628661740995
20
-10.4948880043355
30
0
41
1
10
267.639211392285
20
-10.4755466757476
30
0
41
1
10
267.650480947162
20
-10.4560769820837
30
0
0
SPLINE
5
1AA
100
AcDbEntity
8
1
62
256
6
ByLayer
370
18
48
1
60
0
100
AcDbSpline
70
4
71
3
72
8
73
4
40
0
40
0
40
0
40
0
40
1
40
1
40
1
40
1
41
1
10
267.650480947162
20
-10.4560769820837
30
0
41
1
10
267.880211532645
20
-10.0591860512814
30
0
41
1
10
268.105152654041
20
-9.65871232422134
30
0
41
1
10
268.324759526419
20
-9.25424827025361
30
0
0
SPLINE
5
1AB
100
AcDbEntity
8
1
62
256
6
ByLayer
370
18
48
1
60
0
100
AcDbSpline
70
4
71
3
72
8
73
4
40
0
40
0
40
0
40
0
40
1
40
1
40
1
40
1
41
1
10
268.324759526419
20
-8.91477968744127
30
0
41
1
10
268.10004293855
20
-9.1009918745296
30
0
41
1
10
267.87528177088
20
-9.28713229076214
30
0
41
1
10
267.650480947162
20
-9.47320886309237
30
0
0
SPLINE
5
1AC
100
AcDbEntity
8
1
62
256
6
ByLayer
370
18
48
1
60
0
100
AcDbSpline
70
4
71
3
72
34
73
30
40
0
40
0
40
0
40
0
40
0.0625000000000157
40
0.0625000000000157
40
0.0937500000000254
40
0.0937500000000254
40
0.125000000000035
40
0.125000000000035
40
0.187500000000047
40
0.187500000000047
40
0.250000000000058
40
0.250000000000058
40
0.28125000000006
40
0.28125000000006
40
0.312500000000061
40
0.312500000000061
40
0.375000000000058
40
0.375000000000058
40
0.437500000000054
40
0.437500000000054
40
0.50000000000005
40
0.50000000000005
40
0.625000000000038
40
0.625000000000038
40
0.750000000000025
40
0.750000000000025
40
0.875000000000013
40
0.875000000000013
40
1
40
1
40
1
40
1
41
1
10
267.650480947162
20
-9.4732088630933
30
0
41
1
10
267.641610746045
20
-9.48055108093936
30
0
41
1
10
267.632717594853
20
-9.48709742601486
30
0
41
1
10
267.619328414583
20
-9.49520539499068
30
0
41
1
10
267.614948765931
20
-9.49756171194821
30
0
41
1
10
267.606376490094
20
-9.50149614590956
30
0
41
1
10
267.602156895126
20
-9.50308185095761
30
0
41
1
10
267.590005767027
20
-9.50643292619722
30
0
41
1
10
267.582819857639
20
-9.50675740049098
30
0
41
1
10
267.570335823892
20
-9.50344855594645
30
0
41
1
10
267.565449926247
20
-9.49992936230936
30
0
41
1
10
267.559738856258
20
-9.49254380095778
30
0
41
1
10
267.558096977763
20
-9.48970101832154
30
0
41
1
10
267.555363676397
20
-9.48351861218666
30
0
41
1
10
267.554261456695
20
-9.48017426130508
30
0
41
1
10
267.551618606382
20
-9.46950406988628
30
0
41
1
10
267.55074024509
20
-9.46148862181025
30
0
41
1
10
267.550322100162
20
-9.44464214165072
30
0
41
1
10
267.550767880496
20
-9.43576934561221
30
0
41
1
10
267.552650600946
20
-9.4173396015774
30
0
41
1
10
267.554097560382
20
-9.40774830411803
30
0
41
1
10
267.559624326733
20
-9.37836229807058
30
0
41
1
10
267.564840271178
20
-9.35804580031666
30
0
41
1
10
267.57746663017
20
-9.31641517319008
30
0
41
1
10
267.584781622077
20
-9.29544451247517
30
0
41
1
10
267.600983403359
20
-9.25325825027281
30
0
41
1
10
267.609876729726
20
-9.23204169530254
30
0
41
1
10
267.629096511696
20
-9.18938762024462
30
0
41
1
10
267.639424130324
20
-9.16794990812267
30
0
41
1
10
267.650480947162
20
-9.14640238484057
30
0
0
SPLINE
5
1AD
100
AcDbEntity
8
1
62
256
6
ByLayer
370
18
48
1
60
0
100
AcDbSpline
70
4
71
3
72
8
73
4
40
0
40
0
40
0
40
0
40
1
40
1
40
1
40
1
41
1
10
267.650480947162
20
-9.14640238484057
30
0
41
1
10
267.882352997816
20
-8.69453016127972
30
0
41
1
10
268.107382666912
20
-8.23816651619805
30
0
41
1
10
268.324759526419
20
-7.77677947489215
30
0
0
SPLINE
5
1AE
100
AcDbEntity
8
1
62
256
6
ByLayer
370
18
48
1
60
0
100
AcDbSpline
70
4
71
3
72
8
73
4
40
0
40
0
40
0
40
0
40
1
40
1
40
1
40
1
41
1
10
268.324759526419
20
-7.35146119898474
30
0
41
1
10
268.100191536751
20
-7.54535781735163
30
0
41
1
10
267.875423713527
20
-7.73894510745924
30
0
41
1
10
267.650480947162
20
-7.9322615979172
30
0
0
SPLINE
5
1AF
100
AcDbEntity
8
1
62
256
6
ByLayer
370
18
48
1
60
0
100
AcDbSpline
70
4
71
3
72
39
73
35
40
0
40
0
40
0
40
0
40
0.0312500000000029
40
0.0312500000000029
40
0.0625000000000058
40
0.0625000000000058
40
0.0937500000000088
40
0.0937500000000088
40
0.125000000000012
40
0.125000000000012
40
0.156250000000014
40
0.156250000000014
40
0.187500000000017
40
0.187500000000017
40
0.21875000000002
40
0.21875000000002
40
0.250000000000023
40
0.250000000000023
40
0.281250000000026
40
0.281250000000026
40
0.312500000000029
40
0.312500000000029
40
0.375000000000029
40
0.375000000000029
40
0.500000000000024
40
0.500000000000024
40
0.56250000000002
40
0.56250000000002
40
0.625000000000016
40
0.625000000000016
40
0.75000000000001
40
0.75000000000001
40
0.875000000000005
40
1
40
1
40
1
40
1
41
1
10
267.650480947162
20
-7.93226159791902
30
0
41
1
10
267.645659559596
20
-7.93640511290451
30
0
41
1
10
267.640801078904
20
-7.94027527253459
30
0
41
1
10
267.630992180374
20
-7.94733665601606
30
0
41
1
10
267.626006027204
20
-7.95054470916799
30
0
41
1
10
267.616213206618
20
-7.95591984139034
30
0
41
1
10
267.611384546088
20
-7.9581090210076
30
0
41
1
10
267.601890289183
20
-7.96128445215433
30
0
41
1
10
267.597355810905
20
-7.96222048374625
30
0
41
1
10
267.588820720175
20
-7.96271895541489
30
0
41
1
10
267.584759371
20
-7.96226588251639
30
0
41
1
10
267.577453125654
20
-7.96002560259484
30
0
41
1
10
267.574191909539
20
-7.95826207512445
30
0
41
1
10
267.568356163976
20
-7.95360470919084
30
0
41
1
10
267.565807208947
20
-7.95071591730158
30
0
41
1
10
267.561457307646
20
-7.94421632214599
30
0
41
1
10
267.559626662752
20
-7.94058162684513
30
0
41
1
10
267.556523269336
20
-7.93268665844522
30
0
41
1
10
267.555247510152
20
-7.92840352998823
30
0
41
1
10
267.55319751331
20
-7.91944341403396
30
0
41
1
10
267.552418485904
20
-7.91476360895021
30
0
41
1
10
267.550682498191
20
-7.9002343493959
30
0
41
1
10
267.550325735067
20
-7.88985561336949
30
0
41
1
10
267.550966789172
20
-7.85799228261831
30
0
41
1
10
267.553590221519
20
-7.83558668761307
30
0
41
1
10
267.559524476594
20
-7.80090260273144
30
0
41
1
10
267.561860927053
20
-7.78911380619002
30
0
41
1
10
267.567088729835
20
-7.76542058685166
30
0
41
1
10
267.569973709317
20
-7.75353553285936
30
0
41
1
10
267.579321527427
20
-7.71778098688873
30
0
41
1
10
267.58646953122
20
-7.69381309105475
30
0
41
1
10
267.602267862415
20
-7.64565947793477
30
0
41
1
10
267.619577003328
20
-7.59728693312172
30
0
41
1
10
267.639694160572
20
-7.54851064618572
30
0
41
1
10
267.650480947162
20
-7.52402032861454
30
0
0
SPLINE
5
1B0
100
AcDbEntity
8
1
62
256
6
ByLayer
370
18
48
1
60
0
100
AcDbSpline
70
4
71
3
72
8
73
4
40
0
40
0
40
0
40
0
40
1
40
1
40
1
40
1
41
1
10
267.650480947162
20
-7.52402032861451
30
0
41
1
10
267.886241901321
20
-6.98874871734324
30
0
41
1
10
268.111437539985
20
-6.44762852173562
30
0
41
1
10
268.324759526419
20
-5.89993549292939
30
0
0
SPLINE
5
1B1
100
AcDbEntity
8
1
62
256
6
ByLayer
370
18
48
1
60
0
100
AcDbSpline
70
4
71
3
72
8
73
4
40
0
40
0
40
0
40
0
40
1
40
1
40
1
40
1
41
1
10
268.324759526419
20
-5.34389161534583
30
0
41
1
10
268.100672937923
20
-5.55616259190816
30
0
41
1
10
267.875878259423
20
-5.7674293885334
30
0
41
1
10
267.650480947162
20
-5.97784155830416
30
0
0
SPLINE
5
1B2
100
AcDbEntity
8
1
62
256
6
ByLayer
370
18
48
1
60
0
100
AcDbSpline
70
4
71
3
72
39
73
35
40
0
40
0
40
0
40
0
40
0.0312499999999968
40
0.0312499999999968
40
0.0624999999999937
40
0.0624999999999937
40
0.0781249999999926
40
0.0781249999999926
40
0.0937499999999915
40
0.0937499999999915
40
0.12499999999999
40
0.12499999999999
40
0.15624999999999
40
0.15624999999999
40
0.187499999999989
40
0.187499999999989
40
0.218749999999988
40
0.218749999999988
40
0.249999999999987
40
0.249999999999987
40
0.281249999999986
40
0.281249999999986
40
0.312499999999985
40
0.312499999999985
40
0.374999999999991
40
0.374999999999991
40
0.499999999999993
40
0.499999999999993
40
0.624999999999994
40
0.624999999999994
40
0.749999999999996
40
0.749999999999996
40
0.874999999999998
40
1
40
1
40
1
40
1
41
1
10
267.650480947162
20
-5.97784155830593
30
0
41
1
10
267.645070573186
20
-5.98289223311733
30
0
41
1
10
267.639513106979
20
-5.98757922883831
30
0
41
1
10
267.628225225349
20
-5.99575979951473
30
0
41
1
10
267.622572736455
20
-5.99920331417289
30
0
41
1
10
267.614077225303
20
-6.00309188103944
30
0
41
1
10
267.611222335286
20
-6.00417688359627
30
0
41
1
10
267.605677702528
20
-6.00579678088098
30
0
41
1
10
267.602973531995
20
-6.00634145162712
30
0
41
1
10
267.595073068045
20
-6.00714902252292
30
0
41
1
10
267.590031566255
20
-6.00653248903441
30
0
41
1
10
267.581193349521
20
-6.00322100252208
30
0
41
1
10
267.577280359417
20
-6.00054314112577
30
0
41
1
10
267.570434037439
20
-5.9936129589081
30
0
41
1
10
267.567567506173
20
-5.98945546023651
30
0
41
1
10
267.562642849808
20
-5.98013118363454
30
0
41
1
10
267.560603852079
20
-5.97497649319217
30
0
41
1
10
267.557229405652
20
-5.96419775223478
30
0
41
1
10
267.555875895449
20
-5.95853365972954
30
0
41
1
10
267.553672457203
20
-5.94678901701676
30
0
41
1
10
267.552823959493
20
-5.94070730425932
30
0
41
1
10
267.551532822405
20
-5.92820667992879
30
0
41
1
10
267.551090778585
20
-5.92176918652805
30
0
41
1
10
267.550280304693
20
-5.9022578233627
30
0
41
1
10
267.550409275107
20
-5.88893362627493
30
0
41
1
10
267.552194406003
20
-5.84829137627219
30
0
41
1
10
267.555225580055
20
-5.82031433022183
30
0
41
1
10
267.56364088965
20
-5.76320726547408
30
0
41
1
10
267.568989094997
20
-5.73448453117359
30
0
41
1
10
267.581324248186
20
-5.67689172178729
30
0
41
1
10
267.588324868774
20
-5.64799917338235
30
0
41
1
10
267.603732419277
20
-5.59004840719555
30
0
41
1
10
267.620551977068
20
-5.53193141866859
30
0
41
1
10
267.640038964387
20
-5.47350179980805
30
0
41
1
10
267.650480947162
20
-5.44420748306325
30
0
0
SPLINE
5
1B3
100
AcDbEntity
8
1
62
256
6
ByLayer
370
18
48
1
60
0
100
AcDbSpline
70
4
71
3
72
8
73
4
40
0
40
0
40
0
40
0
40
1
40
1
40
1
40
1
41
1
10
267.650480947162
20
-5.44420748306325
30
0
41
1
10
267.895186418447
20
-4.75770188931236
30
0
41
1
10
268.120774732857
20
-4.06295440434462
30
0
41
1
10
268.324759526419
20
-3.35889309358697
30
0
0
SPLINE
5
1B4
100
AcDbEntity
8
1
62
256
6
ByLayer
370
18
48
1
60
0
100
AcDbSpline
70
4
71
3
72
8
73
4
40
0
40
0
40
0
40
0
40
1
40
1
40
1
40
1
41
1
10
268.324759526419
20
-2.54543529228207
30
0
41
1
10
268.102856207575
20
-2.80812939306759
30
0
41
1
10
267.87789393872
20
-3.06728947825405
30
0
41
1
10
267.650480947162
20
-3.32361823496828
30
0
0
SPLINE
5
1B5
100
AcDbEntity
8
1
62
256
6
ByLayer
370
18
48
1
60
0
100
AcDbSpline
70
4
71
3
72
38
73
34
40
0
40
0
40
0
40
0
40
0.031249999999991
40
0.031249999999991
40
0.046874999999989
40
0.046874999999989
40
0.0624999999999871
40
0.0624999999999871
40
0.0781249999999851
40
0.0781249999999851
40
0.0937499999999832
40
0.0937499999999832
40
0.109374999999981
40
0.109374999999981
40
0.124999999999979
40
0.124999999999979
40
0.156249999999984
40
0.156249999999984
40
0.187499999999989
40
0.187499999999989
40
0.249999999999991
40
0.249999999999991
40
0.312499999999994
40
0.312499999999994
40
0.374999999999997
40
0.374999999999997
40
0.499999999999997
40
0.499999999999997
40
0.624999999999997
40
0.624999999999997
40
0.749999999999997
40
0.749999999999997
40
1
40
1
40
1
40
1
41
1
10
267.650480947163
20
-3.32361823497161
30
0
41
1
10
267.643984522043
20
-3.33094068635307
30
0
41
1
10
267.637087099727
20
-3.33768124412316
30
0
41
1
10
267.626354747428
20
-3.34568070105766
30
0
41
1
10
267.622672786077
20
-3.34801975192076
30
0
41
1
10
267.615227174174
20
-3.35169640698226
30
0
41
1
10
267.611531397854
20
-3.35300455163292
30
0
41
1
10
267.604203715131
20
-3.35436607527089
30
0
41
1
10
267.600638398742
20
-3.35438934468053
30
0
41
1
10
267.593959541195
20
-3.35314067665331
30
0
41
1
10
267.590782123263
20
-3.351847986694
30
0
41
1
10
267.58507026222
20
-3.34828207327098
30
0
41
1
10
267.582488099225
20
-3.34601133649505
30
0
41
1
10
267.577753050436
20
-3.34070331419872
30
0
41
1
10
267.575612489275
20
-3.33767053930828
30
0
41
1
10
267.569849274635
20
-3.32792028671358
30
0
41
1
10
267.566789889395
20
-3.32043543782291
30
0
41
1
10
267.561775920044
20
-3.30477720344985
30
0
41
1
10
267.559797491318
20
-3.2965426252922
30
0
41
1
10
267.554893629213
20
-3.27104194241093
30
0
41
1
10
267.552983754743
20
-3.25288418124575
30
0
41
1
10
267.550722421526
20
-3.21638791679737
30
0
41
1
10
267.550369579247
20
-3.1978998584496
30
0
41
1
10
267.550648562
20
-3.16061226405219
30
0
41
1
10
267.551290415845
20
-3.14180977373371
30
0
41
1
10
267.5543116466
20
-3.08504763501378
30
0
41
1
10
267.557768451239
20
-3.04673870110844
30
0
41
1
10
267.566574464434
20
-2.96947917110111
30
0
41
1
10
267.571943356467
20
-2.93052277137775
30
0
41
1
10
267.584191791777
20
-2.85208140430839
30
0
41
1
10
267.591049423945
20
-2.81277108989701
30
0
41
1
10
267.613451439318
20
-2.69485960614358
30
0
41
1
10
267.630794068013
20
-2.61615616242867
30
0
41
1
10
267.650480947162
20
-2.53736390968345
30
0
0
SPLINE
5
1B6
100
AcDbEntity
8
1
62
256
6
ByLayer
370
18
48
1
60
0
100
AcDbSpline
70
4
71
3
72
8
73
4
40
0
40
0
40
0
40
0
40
1
40
1
40
1
40
1
41
1
10
267.650480947162
20
-2.53736390968348
30
0
41
1
10
267.936650314553
20
-1.39203615339727
30
0
41
1
10
268.164101740032
20
-0.231555181888496
30
0
41
1
10
268.324759526419
20
0.94616308295366
30
0
0
SPLINE
5
1B7
100
AcDbEntity
8
1
62
256
6
ByLayer
370
18
48
1
60
0
100
AcDbSpline
70
4
71
3
72
10
73
6
40
0
40
0
40
0
40
0
40
0.5
40
0.5
40
1
40
1
40
1
40
1
41
1
10
268.324759526419
20
3.46016437565441
30
0
41
1
10
268.253343637493
20
3.08605222486105
30
0
41
1
10
268.158489259995
20
2.72177884437951
30
0
41
1
10
267.930986544702
20
2.00909684762172
30
0
41
1
10
267.79833441894
20
1.66068982142019
30
0
41
1
10
267.650480947162
20
1.31866386161809
30
0
0
SPLINE
5
1B8
100
AcDbEntity
8
1
62
256
6
ByLayer
370
18
48
1
60
0
100
AcDbSpline
70
4
71
3
72
57
73
53
40
0
40
0
40
0
40
0
40
0.125000000000002
40
0.125000000000002
40
0.250000000000004
40
0.375000000000007
40
0.375000000000007
40
0.500000000000009
40
0.500000000000009
40
0.625000000000011
40
0.625000000000011
40
0.687500000000012
40
0.687500000000012
40
0.750000000000013
40
0.750000000000013
40
0.812500000000014
40
0.812500000000014
40
0.875000000000015
40
0.875000000000015
40
0.906250000000015
40
0.906250000000015
40
0.921875000000014
40
0.921875000000014
40
0.937500000000014
40
0.937500000000014
40
0.945312500000014
40
0.945312500000014
40
0.953125000000014
40
0.953125000000014
40
0.960937500000014
40
0.960937500000014
40
0.964843750000014
40
0.964843750000014
40
0.968750000000014
40
0.968750000000014
40
0.972656250000014
40
0.972656250000014
40
0.976562500000014
40
0.976562500000014
40
0.978515625000013
40
0.978515625000013
40
0.980468750000012
40
0.980468750000012
40
0.982421875000011
40
0.982421875000011
40
0.984375000000009
40
0.984375000000009
40
0.988281250000007
40
0.988281250000007
40
0.992187500000005
40
0.992187500000005
40
1
40
1
40
1
40
1
41
1
10
267.650480947162
20
4.79447758099806
30
0
41
1
10
267.649474914009
20
4.64257282307881
30
0
41
1
10
267.647352403027
20
4.49068193356143
30
0
41
1
10
267.641079448038
20
4.1869289576864
30
0
41
1
10
267.632780577668
20
3.88320479550993
30
0
41
1
10
267.621220285853
20
3.57954243457732
30
0
41
1
10
267.608599227805
20
3.27591403785388
30
0
41
1
10
267.601754923346
20
3.12411680115872
30
0
41
1
10
267.587790157286
20
2.8205605926272
30
0
41
1
10
267.580656945611
20
2.66880154760852
30
0
41
1
10
267.570656270951
20
2.44119674680198
30
0
41
1
10
267.567443146172
20
2.36533413035244
30
0
41
1
10
267.561508805656
20
2.21362161662265
30
0
41
1
10
267.558783648494
20
2.13774767313825
30
0
41
1
10
267.554227791731
20
1.98639807764792
30
0
41
1
10
267.552384521753
20
1.91088208268442
30
0
41
1
10
267.550304819929
20
1.76030544060967
30
0
41
1
10
267.550017507499
20
1.68523525994772
30
0
41
1
10
267.552116127572
20
1.57321938097016
30
0
41
1
10
267.553241725102
20
1.53597982306482
30
0
41
1
10
267.556066196098
20
1.48036217479108
30
0
41
1
10
267.557199844787
20
1.46186376712649
30
0
41
1
10
267.560032561575
20
1.42498249382061
30
0
41
1
10
267.561724621638
20
1.40659831536277
30
0
41
1
10
267.564962866512
20
1.37916042457806
30
0
41
1
10
267.566160648091
20
1.37003783743248
30
0
41
1
10
267.568892543204
20
1.35185807402007
30
0
41
1
10
267.570429233634
20
1.34277298098664
30
0
41
1
10
267.574003223349
20
1.3248296105017
30
0
41
1
10
267.576022559128
20
1.31601943191077
30
0
41
1
10
267.579665375541
20
1.30322695536611
30
0
41
1
10
267.580983473112
20
1.29903429870981
30
0
41
1
10
267.583925806698
20
1.29085903674363
30
0
41
1
10
267.585555704597
20
1.28686312506505
30
0
41
1
10
267.589214864265
20
1.27940680909839
30
0
41
1
10
267.591242911041
20
1.27591802146335
30
0
41
1
10
267.596024190781
20
1.26981277473899
30
0
41
1
10
267.598791925149
20
1.26720744962319
30
0
41
1
10
267.603585192062
20
1.26497186906428
30
0
41
1
10
267.605238544653
20
1.26453095266172
30
0
41
1
10
267.608667422955
20
1.26431709371238
30
0
41
1
10
267.61045752744
20
1.26455966997256
30
0
41
1
10
267.613936585578
20
1.26566676014639
30
0
41
1
10
267.615671884936
20
1.26653771797214
30
0
41
1
10
267.61899339339
20
1.26871155502056
30
0
41
1
10
267.620581409002
20
1.27000587963423
30
0
41
1
10
267.625186557665
20
1.27434154931873
30
0
41
1
10
267.628021131566
20
1.27780990186966
30
0
41
1
10
267.633249794904
20
1.28514751172443
30
0
41
1
10
267.635679061346
20
1.28906668056049
30
0
41
1
10
267.642616772462
20
1.30129666549817
30
0
41
1
10
267.646685962344
20
1.30988501247049
30
0
41
1
10
267.650480947162
20
1.31866386161809
30
0
0
SPLINE
5
1B9
100
AcDbEntity
8
1
62
256
6
ByLayer
370
18
48
1
60
0
100
AcDbSpline
70
4
71
3
72
8
73
4
40
0
40
0
40
0
40
0
40
1
40
1
40
1
40
1
41
1
10
267.650480947162
20
4.79447758099806
30
0
41
1
10
267.651388368233
20
4.93149252699868
30
0
41
1
10
267.651388368233
20
5.06850747299933
30
0
41
1
10
267.650480947162
20
5.20552241899995
30
0
0
SPLINE
5
1BA
100
AcDbEntity
8
1
62
256
6
ByLayer
370
18
48
1
60
0
100
AcDbSpline
70
4
71
3
72
59
73
55
40
0
40
0
40
0
40
0
40
0.125000000000001
40
0.125000000000001
40
0.250000000000001
40
0.375000000000002
40
0.375000000000002
40
0.500000000000003
40
0.500000000000003
40
0.625000000000004
40
0.625000000000004
40
0.687500000000004
40
0.687500000000004
40
0.750000000000005
40
0.750000000000005
40
0.812500000000006
40
0.812500000000006
40
0.843750000000008
40
0.843750000000008
40
0.875000000000009
40
0.875000000000009
40
0.90625000000001
40
0.90625000000001
40
0.92187500000001
40
0.92187500000001
40
0.93750000000001
40
0.93750000000001
40
0.945312500000008
40
0.945312500000008
40
0.953125000000007
40
0.953125000000007
40
0.960937500000006
40
0.960937500000006
40
0.964843750000005
40
0.964843750000005
40
0.968750000000004
40
0.968750000000004
40
0.972656250000004
40
0.972656250000004
40
0.976562500000003
40
0.976562500000003
40
0.978515625000003
40
0.978515625000003
40
0.980468750000003
40
0.980468750000003
40
0.982421875000002
40
0.982421875000002
40
0.984375000000002
40
0.984375000000002
40
0.988281250000002
40
0.988281250000002
40
0.992187500000001
40
0.992187500000001
40
1
40
1
40
1
40
1
41
1
10
267.650480947162
20
5.20552241899995
30
0
41
1
10
267.649474529164
20
5.35748528611737
30
0
41
1
10
267.647350571744
20
5.50946203431758
30
0
41
1
10
267.641070593963
20
5.81344439337954
30
0
41
1
10
267.632760419544
20
6.11745562328124
30
0
41
1
10
267.621178756172
20
6.42152886412001
30
0
41
1
10
267.608531759673
20
6.72563622957608
30
0
41
1
10
267.601672191192
20
6.87770695466014
30
0
41
1
10
267.587676377915
20
7.18188692008738
30
0
41
1
10
267.580530180473
20
7.33394573764627
30
0
41
1
10
267.570536139854
20
7.56160809848322
30
0
41
1
10
267.567328862803
20
7.63743907733237
30
0
41
1
10
267.561413484972
20
7.7889690857468
30
0
41
1
10
267.558701689912
20
7.86466839812871
30
0
41
1
10
267.554167978853
20
8.01590533592235
30
0
41
1
10
267.552334555853
20
8.09144384070035
30
0
41
1
10
267.550799054594
20
8.20458854632423
30
0
41
1
10
267.550492739193
20
8.24227603690909
30
0
41
1
10
267.550469812772
20
8.31758254278569
30
0
41
1
10
267.550750183483
20
8.35523886655167
30
0
41
1
10
267.552208755407
20
8.43023262171329
30
0
41
1
10
267.553373181025
20
8.46757297685463
30
0
41
1
10
267.556275212278
20
8.52319890720375
30
0
41
1
10
267.557437968645
20
8.54167593430691
30
0
41
1
10
267.560336644401
20
8.57844571083459
30
0
41
1
10
267.562065629678
20
8.5967405299597
30
0
41
1
10
267.565365531574
20
8.62396204542208
30
0
41
1
10
267.566584913132
20
8.63299859792522
30
0
41
1
10
267.569361551694
20
8.65096757430695
30
0
41
1
10
267.570921073671
20
8.65991916152186
30
0
41
1
10
267.574516938715
20
8.67745376451637
30
0
41
1
10
267.576547962152
20
8.68605996342839
30
0
41
1
10
267.58021552862
20
8.69854381258727
30
0
41
1
10
267.581543102687
20
8.70263313961809
30
0
41
1
10
267.584510409302
20
8.71059873923645
30
0
41
1
10
267.586161611328
20
8.71450396438109
30
0
41
1
10
267.589888240219
20
8.72177776739395
30
0
41
1
10
267.591955510826
20
8.7251627485106
30
0
41
1
10
267.59684579735
20
8.73100162030158
30
0
41
1
10
267.599637337106
20
8.73338371760602
30
0
41
1
10
267.604411839463
20
8.73527061609732
30
0
41
1
10
267.606061767277
20
8.73560195864565
30
0
41
1
10
267.609492008734
20
8.73560099260328
30
0
41
1
10
267.611227428267
20
8.73526227848521
30
0
41
1
10
267.61463552521
20
8.7340069946695
30
0
41
1
10
267.616332222931
20
8.73307964611331
30
0
41
1
10
267.61955483406
20
8.7308482353869
30
0
41
1
10
267.621102908113
20
8.7295383311085
30
0
41
1
10
267.62560527577
20
8.72517335725428
30
0
41
1
10
267.628363216431
20
8.72174764484251
30
0
41
1
10
267.633516183583
20
8.71443632136823
30
0
41
1
10
267.635914818984
20
8.71053626148273
30
0
41
1
10
267.642693644436
20
8.698528392882
30
0
41
1
10
267.646722359183
20
8.69003079157753
30
0
41
1
10
267.650480947162
20
8.68133613838151
30
0
0
SPLINE
5
1BB
100
AcDbEntity
8
1
62
256
6
ByLayer
370
18
48
1
60
0
100
AcDbSpline
70
4
71
3
72
10
73
6
40
0
40
0
40
0
40
0
40
0.5
40
0.5
40
1
40
1
40
1
40
1
41
1
10
267.650480947161
20
8.68133613838125
30
0
41
1
10
267.798334418938
20
8.33931017858183
30
0
41
1
10
267.9309865447
20
7.99090315238308
30
0
41
1
10
268.158489259991
20
7.27822115563112
30
0
41
1
10
268.253343637489
20
6.91394777515265
30
0
41
1
10
268.324759526416
20
6.53983562436252
30
0
0
SPLINE
5
1BC
100
AcDbEntity
8
1
62
256
6
ByLayer
370
18
48
1
60
0
100
AcDbSpline
70
4
71
3
72
8
73
4
40
0
40
0
40
0
40
0
40
1
40
1
40
1
40
1
41
1
10
268.324759526419
20
9.05383691704432
30
0
41
1
10
268.164101740032
20
10.2315551818865
30
0
41
1
10
267.936650314553
20
11.3920361533952
30
0
41
1
10
267.650480947162
20
12.5373639096815
30
0
0
SPLINE
5
1BD
100
AcDbEntity
8
1
62
256
6
ByLayer
370
18
48
1
60
0
100
AcDbSpline
70
4
71
3
72
42
73
38
40
0
40
0
40
0
40
0
40
0.250000000000004
40
0.250000000000004
40
0.375000000000003
40
0.375000000000003
40
0.500000000000002
40
0.500000000000002
40
0.625000000000002
40
0.625000000000002
40
0.687500000000001
40
0.687500000000001
40
0.750000000000001
40
0.750000000000001
40
0.781250000000001
40
0.781250000000001
40
0.812500000000001
40
0.812500000000001
40
0.843750000000001
40
0.843750000000001
40
0.859375000000001
40
0.859375000000001
40
0.875
40
0.875
40
0.890625
40
0.890625
40
0.90625
40
0.90625
40
0.921875
40
0.921875
40
0.9375
40
0.9375
40
0.953125
40
0.953125
40
0.968749999999999
40
0.968749999999999
40
1
40
1
40
1
40
1
41
1
10
267.650480947161
20
12.5373639096815
30
0
41
1
10
267.63076897837
20
12.6162565780114
30
0
41
1
10
267.61346059995
20
12.6948483875486
30
0
41
1
10
267.591140780514
20
12.8122718609805
30
0
41
1
10
267.584320719394
20
12.8513346156634
30
0
41
1
10
267.572124668301
20
12.9292847102216
30
0
41
1
10
267.566742521326
20
12.9681725752506
30
0
41
1
10
267.557864378318
20
13.045734165456
30
0
41
1
10
267.55434285781
20
13.0844400879732
30
0
41
1
10
267.551271377319
20
13.1421780618722
30
0
41
1
10
267.550630005146
20
13.1612308644049
30
0
41
1
10
267.550377159459
20
13.1988263852376
30
0
41
1
10
267.550757044975
20
13.2173731419204
30
0
41
1
10
267.552486535079
20
13.2446298400147
30
0
41
1
10
267.553258656099
20
13.2536204028758
30
0
41
1
10
267.555324288495
20
13.271350716848
30
0
41
1
10
267.556619146011
20
13.2801132325755
30
0
41
1
10
267.559941779673
20
13.29718730275
30
0
41
1
10
267.56194845637
20
13.3054174754382
30
0
41
1
10
267.565733288872
20
13.317079095542
30
0
41
1
10
267.567125496084
20
13.3208510908134
30
0
41
1
10
267.570248978874
20
13.3280968735352
30
0
41
1
10
267.571992418155
20
13.3315905985697
30
0
41
1
10
267.575857623531
20
13.3380349923345
30
0
41
1
10
267.577978928924
20
13.3409948006522
30
0
41
1
10
267.582717557109
20
13.3462264145764
30
0
41
1
10
267.58536880188
20
13.3485166992708
30
0
41
1
10
267.591140283969
20
13.3520175053926
30
0
41
1
10
267.594278886941
20
13.3532465409792
30
0
41
1
10
267.601038610781
20
13.3544128086471
30
0
41
1
10
267.604547324229
20
13.3543357984648
30
0
41
1
10
267.611812347963
20
13.3529157629825
30
0
41
1
10
267.615579957294
20
13.3515498926698
30
0
41
1
10
267.622949675614
20
13.3478528590446
30
0
41
1
10
267.626634528599
20
13.3454932373673
30
0
41
1
10
267.637401170667
20
13.3374023255903
30
0
41
1
10
267.644079218297
20
13.3308339493785
30
0
41
1
10
267.650480947162
20
13.3236182349663
30
0
0
SPLINE
5
1BE
100
AcDbEntity
8
1
62
256
6
ByLayer
370
18
48
1
60
0
100
AcDbSpline
70
4
71
3
72
8
73
4
40
0
40
0
40
0
40
0
40
1
40
1
40
1
40
1
41
1
10
267.650480947162
20
13.3236182349663
30
0
41
1
10
267.877893938717
20
13.0672894782553
30
0
41
1
10
268.102856207569
20
12.8081293930722
30
0
41
1
10
268.324759526411
20
12.5454352922902
30
0
0
SPLINE
5
1BF
100
AcDbEntity
8
1
62
256
6
ByLayer
370
18
48
1
60
0
100
AcDbSpline
70
4
71
3
72
8
73
4
40
0
40
0
40
0
40
0
40
1
40
1
40
1
40
1
41
1
10
268.324759526419
20
13.358893093585
30
0
41
1
10
268.120774732857
20
14.0629544043426
30
0
41
1
10
267.895186418447
20
14.7577018893104
30
0
41
1
10
267.650480947162
20
15.4442074830612
30
0
0
SPLINE
5
1C0
100
AcDbEntity
8
1
62
256
6
ByLayer
370
18
48
1
60
0
100
AcDbSpline
70
4
71
3
72
40
73
36
40
0
40
0
40
0
40
0
40
0.125000000000006
40
0.125000000000006
40
0.250000000000012
40
0.250000000000012
40
0.375000000000017
40
0.375000000000017
40
0.500000000000023
40
0.500000000000023
40
0.562500000000024
40
0.562500000000024
40
0.625000000000024
40
0.625000000000024
40
0.687500000000024
40
0.687500000000024
40
0.750000000000024
40
0.750000000000024
40
0.781250000000019
40
0.781250000000019
40
0.812500000000015
40
0.812500000000015
40
0.843750000000011
40
0.843750000000011
40
0.875000000000007
40
0.875000000000007
40
0.906250000000002
40
0.906250000000002
40
0.921875
40
0.921875
40
0.937499999999998
40
0.937499999999998
40
0.968749999999999
40
0.968749999999999
40
1
40
1
40
1
40
1
41
1
10
267.650480947162
20
15.4442074830612
30
0
41
1
10
267.640025010736
20
15.4735409458817
30
0
41
1
10
267.630210989746
20
15.5029673076436
30
0
41
1
10
267.611958545041
20
15.5616002322835
30
0
41
1
10
267.603523410692
20
15.590786552844
30
0
41
1
10
267.588102337404
20
15.6488854928155
30
0
41
1
10
267.581113785878
20
15.6777985452109
30
0
41
1
10
267.5688291768
20
15.7353093306313
30
0
41
1
10
267.56352332279
20
15.7639086554232
30
0
41
1
10
267.557268698593
20
15.8064991466686
30
0
41
1
10
267.555468305322
20
15.8206822963944
30
0
41
1
10
267.552619223369
20
15.8486113407315
30
0
41
1
10
267.551563972929
20
15.8623801284264
30
0
41
1
10
267.550399909879
20
15.8894214732832
30
0
41
1
10
267.550285829804
20
15.9026966836883
30
0
41
1
10
267.55138586223
20
15.9285585052088
30
0
41
1
10
267.552608640832
20
15.941233130268
30
0
41
1
10
267.555948456209
20
15.9588608230573
30
0
41
1
10
267.557314290988
20
15.9645185412792
30
0
41
1
10
267.560709973981
20
15.975262942648
30
0
41
1
10
267.562757184409
20
15.9803881681503
30
0
41
1
10
267.567691285185
20
15.989647309683
30
0
41
1
10
267.570555797839
20
15.993760395916
30
0
41
1
10
267.577358112121
20
16.0005969404041
30
0
41
1
10
267.581328265331
20
16.0032995526677
30
0
41
1
10
267.590209516905
20
16.0065701580038
30
0
41
1
10
267.595238130169
20
16.0071547338818
30
0
41
1
10
267.603144568995
20
16.0063121242087
30
0
41
1
10
267.605853809948
20
16.0057558877132
30
0
41
1
10
267.611415566325
20
16.0041091466667
30
0
41
1
10
267.614249175209
20
16.0030206655193
30
0
41
1
10
267.622685087213
20
15.9991362853468
30
0
41
1
10
267.628307688267
20
15.9957046891447
30
0
41
1
10
267.639550729521
20
15.9875472607242
30
0
41
1
10
267.645089621271
20
15.982874451409
30
0
41
1
10
267.650480947162
20
15.9778415583039
30
0
0
SPLINE
5
1C1
100
AcDbEntity
8
1
62
256
6
ByLayer
370
18
48
1
60
0
100
AcDbSpline
70
4
71
3
72
8
73
4
40
0
40
0
40
0
40
0
40
1
40
1
40
1
40
1
41
1
10
267.650480947162
20
15.9778415583021
30
0
41
1
10
267.875878259423
20
15.7674293885314
30
0
41
1
10
268.100672937923
20
15.5561625919062
30
0
41
1
10
268.324759526419
20
15.3438916153438
30
0
0
SPLINE
5
1C2
100
AcDbEntity
8
1
62
256
6
ByLayer
370
18
48
1
60
0
100
AcDbSpline
70
4
71
3
72
8
73
4
40
0
40
0
40
0
40
0
40
1
40
1
40
1
40
1
41
1
10
268.324759526419
20
15.8999354929274
30
0
41
1
10
268.111437539985
20
16.4476285217336
30
0
41
1
10
267.886241901321
20
16.9887487173412
30
0
41
1
10
267.650480947162
20
17.5240203286125
30
0
0
SPLINE
5
1C3
100
AcDbEntity
8
1
62
256
6
ByLayer
370
18
48
1
60
0
100
AcDbSpline
70
4
71
3
72
40
73
36
40
0
40
0
40
0
40
0
40
0.125000000000012
40
0.125000000000012
40
0.250000000000025
40
0.250000000000025
40
0.375000000000038
40
0.375000000000038
40
0.50000000000005
40
0.50000000000005
40
0.562500000000047
40
0.562500000000047
40
0.625000000000045
40
0.625000000000045
40
0.687500000000042
40
0.687500000000042
40
0.718750000000038
40
0.718750000000038
40
0.750000000000034
40
0.750000000000034
40
0.781250000000029
40
0.781250000000029
40
0.812500000000025
40
0.812500000000025
40
0.843750000000021
40
0.843750000000021
40
0.875000000000017
40
0.875000000000017
40
0.906250000000013
40
0.906250000000013
40
0.937500000000008
40
0.937500000000008
40
0.968750000000004
40
0.968750000000004
40
1
40
1
40
1
40
1
41
1
10
267.650480947162
20
17.5240203286125
30
0
41
1
10
267.639690471916
20
17.5485190209084
30
0
41
1
10
267.629613916005
20
17.5729486554879
30
0
41
1
10
267.610849297583
20
17.621668938141
30
0
41
1
10
267.602160592807
20
17.6459596622947
30
0
41
1
10
267.586289625029
20
17.694388712529
30
0
41
1
10
267.579096154492
20
17.7185525224907
30
0
41
1
10
267.566584682111
20
17.7665924147556
30
0
41
1
10
267.561339273704
20
17.7901565661233
30
0
41
1
10
267.555481361028
20
17.8246060554291
30
0
41
1
10
267.553867302615
20
17.8359382479908
30
0
41
1
10
267.551487852271
20
17.8582271487085
30
0
41
1
10
267.550718615151
20
17.8692396521943
30
0
41
1
10
267.550336211257
20
17.8904892822458
30
0
41
1
10
267.550714779598
20
17.9006787514825
30
0
41
1
10
267.552465551096
20
17.9150655650471
30
0
41
1
10
267.553248182532
20
17.9197101977648
30
0
41
1
10
267.555309097648
20
17.9286248501674
30
0
41
1
10
267.556593904736
20
17.9329010995037
30
0
41
1
10
267.559717301251
20
17.9407756166944
30
0
41
1
10
267.561559358519
20
17.9444002494734
30
0
41
1
10
267.565937706079
20
17.9508777423319
30
0
41
1
10
267.568504767017
20
17.9537519025173
30
0
41
1
10
267.574349248947
20
17.9583575070409
30
0
41
1
10
267.577621102576
20
17.9601034727094
30
0
41
1
10
267.584977180313
20
17.9623048822328
30
0
41
1
10
267.589008029016
20
17.9627276846828
30
0
41
1
10
267.597554413792
20
17.9621883066381
30
0
41
1
10
267.602165047508
20
17.9612103113985
30
0
41
1
10
267.61156352127
20
17.9580305278127
30
0
41
1
10
267.616343834585
20
17.9558532438602
30
0
41
1
10
267.626039774226
20
17.9505209964743
30
0
41
1
10
267.630992916634
20
17.9473363627041
30
0
41
1
10
267.640809613647
20
17.9402688914585
30
0
41
1
10
267.64566607499
20
17.9363995135527
30
0
41
1
10
267.650480947162
20
17.9322615979162
30
0
0
SPLINE
5
1C4
100
AcDbEntity
8
1
62
256
6
ByLayer
370
18
48
1
60
0
100
AcDbSpline
70
4
71
3
72
8
73
4
40
0
40
0
40
0
40
0
40
1
40
1
40
1
40
1
41
1
10
267.650480947162
20
17.9322615979152
30
0
41
1
10
267.875423713527
20
17.7389451074573
30
0
41
1
10
268.100191536751
20
17.5453578173496
30
0
41
1
10
268.324759526419
20
17.3514611989828
30
0
0
SPLINE
5
1C5
100
AcDbEntity
8
1
62
256
6
ByLayer
370
18
48
1
60
0
100
AcDbSpline
70
4
71
3
72
8
73
4
40
0
40
0
40
0
40
0
40
1
40
1
40
1
40
1
41
1
10
268.324759526419
20
17.7767794748901
30
0
41
1
10
268.107382666912
20
18.2381665161961
30
0
41
1
10
267.882352997816
20
18.6945301612777
30
0
41
1
10
267.650480947162
20
19.1464023848386
30
0
0
SPLINE
5
1C6
100
AcDbEntity
8
1
62
256
6
ByLayer
370
18
48
1
60
0
100
AcDbSpline
70
4
71
3
72
40
73
36
40
0
40
0
40
0
40
0
40
0.125000000000006
40
0.125000000000006
40
0.250000000000012
40
0.250000000000012
40
0.375000000000018
40
0.375000000000018
40
0.437500000000024
40
0.437500000000024
40
0.500000000000029
40
0.500000000000029
40
0.562500000000035
40
0.562500000000035
40
0.62500000000004
40
0.62500000000004
40
0.687500000000045
40
0.687500000000045
40
0.71875000000004
40
0.71875000000004
40
0.750000000000034
40
0.750000000000034
40
0.781250000000028
40
0.781250000000028
40
0.812500000000023
40
0.812500000000023
40
0.843750000000017
40
0.843750000000017
40
0.875000000000012
40
0.875000000000012
40
0.9375
40
0.9375
40
0.96875
40
0.96875
40
1
40
1
40
1
40
1
41
1
10
267.650480947162
20
19.1464023848386
30
0
41
1
10
267.639414958228
20
19.1679677827009
30
0
41
1
10
267.629040809079
20
19.1894982781832
30
0
41
1
10
267.609683150239
20
19.2324844320546
30
0
41
1
10
267.600665700982
20
19.2540304822569
30
0
41
1
10
267.584409180772
20
19.2964716606374
30
0
41
1
10
267.577153956557
20
19.3173783954791
30
0
41
1
10
267.56784509696
20
19.34817408247
30
0
41
1
10
267.565006721944
20
19.3583444727699
30
0
41
1
10
267.55994833633
20
19.3784644888763
30
0
41
1
10
267.557723039423
20
19.3884367390233
30
0
41
1
10
267.554054354314
20
19.408013781379
30
0
41
1
10
267.552625671844
20
19.4175304795205
30
0
41
1
10
267.550759790623
20
19.4359026326863
30
0
41
1
10
267.550318779816
20
19.4447605718952
30
0
41
1
10
267.550749497916
20
19.4616056545869
30
0
41
1
10
267.551636822927
20
19.4696104377058
30
0
41
1
10
267.554281873644
20
19.4802400051818
30
0
41
1
10
267.555383473851
20
19.4835703154132
30
0
41
1
10
267.55811068237
20
19.4897250071953
30
0
41
1
10
267.559751087798
20
19.4925672484098
30
0
41
1
10
267.5635955558
20
19.4975235357771
30
0
41
1
10
267.565792502249
20
19.4996397405518
30
0
41
1
10
267.570810054821
20
19.5030524418837
30
0
41
1
10
267.573662929114
20
19.5043510856055
30
0
41
1
10
267.579852338378
20
19.505948937452
30
0
41
1
10
267.583198210382
20
19.5062662734105
30
0
41
1
10
267.59039654148
20
19.5059318013028
30
0
41
1
10
267.594295692839
20
19.5052651393155
30
0
41
1
10
267.606418497699
20
19.5018746224367
30
0
41
1
10
267.61493133613
20
19.4978669254711
30
0
41
1
10
267.628201605806
20
19.4898327177069
30
0
41
1
10
267.632697891773
20
19.4868155998186
30
0
41
1
10
267.641605111238
20
19.4803478822283
30
0
41
1
10
267.646047713552
20
19.476878426666
30
0
41
1
10
267.650480947162
20
19.4732088630909
30
0
0
SPLINE
5
1C7
100
AcDbEntity
8
1
62
256
6
ByLayer
370
18
48
1
60
0
100
AcDbSpline
70
4
71
3
72
8
73
4
40
0
40
0
40
0
40
0
40
1
40
1
40
1
40
1
41
1
10
267.650480947162
20
19.4732088630904
30
0
41
1
10
267.87528177088
20
19.2871322907601
30
0
41
1
10
268.10004293855
20
19.1009918745276
30
0
41
1
10
268.324759526419
20
18.9147796874393
30
0
0
SPLINE
5
1C8
100
AcDbEntity
8
1
62
256
6
ByLayer
370
18
48
1
60
0
100
AcDbSpline
70
4
71
3
72
8
73
4
40
0
40
0
40
0
40
0
40
1
40
1
40
1
40
1
41
1
10
268.324759526419
20
19.2542482702516
30
0
41
1
10
268.105152654041
20
19.6587123242193
30
0
41
1
10
267.880211532645
20
20.0591860512795
30
0
41
1
10
267.650480947162
20
20.4560769820817
30
0
0
SPLINE
5
1C9
100
AcDbEntity
8
1
62
256
6
ByLayer
370
18
48
1
60
0
100
AcDbSpline
70
4
71
3
72
39
73
35
40
0
40
0
40
0
40
0
40
0.125000000000005
40
0.125000000000005
40
0.25000000000001
40
0.25000000000001
40
0.375000000000014
40
0.375000000000014
40
0.437500000000009
40
0.437500000000009
40
0.500000000000004
40
0.500000000000004
40
0.562499999999999
40
0.562499999999999
40
0.593749999999996
40
0.593749999999996
40
0.624999999999994
40
0.624999999999994
40
0.687499999999996
40
0.687499999999996
40
0.718749999999997
40
0.718749999999997
40
0.749999999999999
40
0.749999999999999
40
0.78125
40
0.78125
40
0.812500000000002
40
0.843750000000003
40
0.843750000000003
40
0.875000000000004
40
0.875000000000004
40
0.937500000000002
40
0.937500000000002
40
1
40
1
40
1
40
1
41
1
10
267.650480947162
20
20.4560769820817
30
0
41
1
10
267.639193035731
20
20.4755783891975
30
0
41
1
10
267.628590160519
20
20.4950150972992
30
0
41
1
10
267.608789608101
20
20.5337506274612
30
0
41
1
10
267.59955440175
20
20.5531394770011
30
0
41
1
10
267.582996045851
20
20.5910738569017
30
0
41
1
10
267.575636447461
20
20.6096683647388
30
0
41
1
10
267.566297083473
20
20.6368716168543
30
0
41
1
10
267.563469944102
20
20.645823579613
30
0
41
1
10
267.558498129876
20
20.6634519327058
30
0
41
1
10
267.556355985995
20
20.6721338879727
30
0
41
1
10
267.552992495483
20
20.6887880727998
30
0
41
1
10
267.551755667217
20
20.6968054930664
30
0
41
1
10
267.550731607718
20
20.7082552465143
30
0
41
1
10
267.550529643809
20
20.7119751829301
30
0
41
1
10
267.550447718715
20
20.719192264215
30
0
41
1
10
267.550569803588
20
20.7227031448452
30
0
41
1
10
267.551489172924
20
20.7326767960523
30
0
41
1
10
267.552823866437
20
20.7386266380571
30
0
41
1
10
267.556235634613
20
20.7461914297898
30
0
41
1
10
267.557622786118
20
20.7484972729619
30
0
41
1
10
267.560888621489
20
20.7524800239245
30
0
41
1
10
267.562763444322
20
20.7541622265608
30
0
41
1
10
267.567039967856
20
20.7568546457297
30
0
41
1
10
267.569461523802
20
20.7578691446217
30
0
41
1
10
267.574799687778
20
20.7591280609582
30
0
41
1
10
267.580568003688
20
20.759614741612
30
0
41
1
10
267.587174135165
20
20.7586005535326
30
0
41
1
10
267.594197904459
20
20.7568396148934
30
0
41
1
10
267.597925489672
20
20.755576485667
30
0
41
1
10
267.609307892352
20
20.7508672481523
30
0
41
1
10
267.617324482498
20
20.746463314177
30
0
41
1
10
267.63384879861
20
20.7357246214988
30
0
41
1
10
267.642150093394
20
20.7295341136668
30
0
41
1
10
267.650480947162
20
20.7227274845167
30
0
0
SPLINE
5
1CA
100
AcDbEntity
8
1
62
256
6
ByLayer
370
18
48
1
60
0
100
AcDbSpline
70
4
71
3
72
8
73
4
40
0
40
0
40
0
40
0
40
1
40
1
40
1
40
1
41
1
10
267.650480947162
20
20.7227274845163
30
0
41
1
10
267.875242279349
20
20.5390887989475
30
0
41
1
10
268.10000187134
20
20.3554472734947
30
0
41
1
10
268.324759526419
20
20.1718025873648
30
0
0
SPLINE
5
1CB
100
AcDbEntity
8
1
62
256
6
ByLayer
370
18
48
1
60
0
100
AcDbSpline
70
4
71
3
72
8
73
4
40
0
40
0
40
0
40
0
40
1
40
1
40
1
40
1
41
1
10
268.324759526419
20
20.4473652688725
30
0
41
1
10
268.103764009202
20
20.810559849515
30
0
41
1
10
267.878876276632
20
21.1705149416575
30
0
41
1
10
267.650480947162
20
21.5275506630082
30
0
0
SPLINE
5
1CC
100
AcDbEntity
8
1
62
256
6
ByLayer
370
18
48
1
60
0
100
AcDbSpline
70
4
71
3
72
41
73
37
40
0
40
0
40
0
40
0
40
0.125000000000015
40
0.125000000000015
40
0.18750000000002
40
0.18750000000002
40
0.250000000000025
40
0.250000000000025
40
0.375000000000017
40
0.375000000000017
40
0.437500000000016
40
0.437500000000016
40
0.500000000000016
40
0.500000000000016
40
0.562500000000015
40
0.562500000000015
40
0.625000000000014
40
0.625000000000014
40
0.656250000000014
40
0.656250000000014
40
0.687500000000013
40
0.687500000000013
40
0.718750000000013
40
0.718750000000013
40
0.750000000000012
40
0.750000000000012
40
0.812500000000009
40
0.812500000000009
40
0.843750000000006
40
0.843750000000006
40
0.875000000000003
40
0.90625
40
0.90625
40
0.937499999999997
40
0.937499999999997
40
1
40
1
40
1
40
1
41
1
10
267.650480947162
20
21.5275506630082
30
0
41
1
10
267.638981804677
20
21.5455265324862
30
0
41
1
10
267.62814548197
20
21.5634206151335
30
0
41
1
10
267.612939206481
20
21.5901281849016
30
0
41
1
10
267.608042788563
20
21.5990169496362
30
0
41
1
10
267.598721928768
20
21.6165648982937
30
0
41
1
10
267.594284643272
20
21.6252457634564
30
0
41
1
10
267.581686936374
20
21.6509896479133
30
0
41
1
10
267.574223281786
20
21.6677610781076
30
0
41
1
10
267.564837577099
20
21.6921604462431
30
0
41
1
10
267.562006278076
20
21.7001981661694
30
0
41
1
10
267.557184605238
20
21.7156477088197
30
0
41
1
10
267.555179368067
20
21.7230904973054
30
0
41
1
10
267.552137250522
20
21.7373043165403
30
0
41
1
10
267.551097322754
20
21.7440774273179
30
0
41
1
10
267.550263647968
20
21.7567617390182
30
0
41
1
10
267.550482593648
20
21.7625191878583
30
0
41
1
10
267.551971457481
20
21.7700613230126
30
0
41
1
10
267.552662227263
20
21.7723934928267
30
0
41
1
10
267.554488589319
20
21.7766425722041
30
0
41
1
10
267.555629696968
20
21.7785582671364
30
0
41
1
10
267.558347744801
20
21.78182817428
30
0
41
1
10
267.559929168047
20
21.7831969176469
30
0
41
1
10
267.563569638857
20
21.7853637195273
30
0
41
1
10
267.565645521329
20
21.7861647789775
30
0
41
1
10
267.572537810431
20
21.7876065271326
30
0
41
1
10
267.57792665398
20
21.7872966647596
30
0
41
1
10
267.587151619285
20
21.7850110816928
30
0
41
1
10
267.590446302725
20
21.7839313072065
30
0
41
1
10
267.597241521147
20
21.7812338486892
30
0
41
1
10
267.604247829043
20
21.7780072079674
30
0
41
1
10
267.61163322165
20
21.7738322488314
30
0
41
1
10
267.619193271317
20
21.7692211157913
30
0
41
1
10
267.623071327699
20
21.7666886267628
30
0
41
1
10
267.634714931172
20
21.7586489532184
30
0
41
1
10
267.642563586242
20
21.7526628820382
30
0
41
1
10
267.650480947162
20
21.7461799915712
30
0
0
SPLINE
5
1CD
100
AcDbEntity
8
1
62
256
6
ByLayer
370
18
48
1
60
0
100
AcDbSpline
70
4
71
3
72
8
73
4
40
0
40
0
40
0
40
0
40
1
40
1
40
1
40
1
41
1
10
267.650480947162
20
21.746179991571
30
0
41
1
10
267.875247737629
20
21.562136533402
30
0
41
1
10
268.100007511727
20
21.3780816494056
30
0
41
1
10
268.324759526419
20
21.1940141333138
30
0
0
SPLINE
5
1CE
100
AcDbEntity
8
1
62
256
6
ByLayer
370
18
48
1
60
0
100
AcDbSpline
70
4
71
3
72
8
73
4
40
0
40
0
40
0
40
0
40
1
40
1
40
1
40
1
41
1
10
268.324759526419
20
21.4182396666015
30
0
41
1
10
268.10282976625
20
21.7496954266897
30
0
41
1
10
267.87797677687
20
22.0784874839763
30
0
41
1
10
267.650480947162
20
22.4048713342148
30
0
0
SPLINE
5
1CF
100
AcDbEntity
8
1
62
256
6
ByLayer
370
18
48
1
60
0
100
AcDbSpline
70
4
71
3
72
34
73
30
40
0
40
0
40
0
40
0
40
0.125000000000013
40
0.125000000000013
40
0.250000000000027
40
0.250000000000027
40
0.312500000000029
40
0.312500000000029
40
0.375000000000031
40
0.375000000000031
40
0.50000000000002
40
0.50000000000002
40
0.562500000000025
40
0.562500000000025
40
0.62500000000003
40
0.62500000000003
40
0.687500000000034
40
0.687500000000034
40
0.718750000000035
40
0.718750000000035
40
0.750000000000036
40
0.750000000000036
40
0.812500000000027
40
0.812500000000027
40
0.875000000000018
40
0.875000000000018
40
0.937500000000009
40
0.937500000000009
40
1
40
1
40
1
40
1
41
1
10
267.650480947162
20
22.4048713342148
30
0
41
1
10
267.638779782576
20
22.4216587678777
30
0
41
1
10
267.627693116502
20
22.4383758860397
30
0
41
1
10
267.607002473869
20
22.4714107933071
30
0
41
1
10
267.597504579954
20
22.4875524832548
30
0
41
1
10
267.584701626499
20
22.5111204626926
30
0
41
1
10
267.580676613219
20
22.51886815968
30
0
41
1
10
267.57317678391
20
22.534117596637
30
0
41
1
10
267.569687169971
20
22.5416532144358
30
0
41
1
10
267.560306547286
20
22.5635746306852
30
0
41
1
10
267.555515793997
20
22.5771559030119
30
0
41
1
10
267.551444442405
20
22.595334081103
30
0
41
1
10
267.550629414815
20
22.6010158296469
30
0
41
1
10
267.550369704541
20
22.6110410235747
30
0
41
1
10
267.550906911697
20
22.6154408318432
30
0
41
1
10
267.553649785601
20
22.6227119306327
30
0
41
1
10
267.555833495619
20
22.625479638908
30
0
41
1
10
267.560418657478
20
22.6281044544232
30
0
41
1
10
267.562180578905
20
22.6287302685921
30
0
41
1
10
267.56612484049
20
22.6294299988251
30
0
41
1
10
267.568286199411
20
22.6295043011137
30
0
41
1
10
267.575316333567
20
22.6289333978017
30
0
41
1
10
267.580743615077
20
22.6274928474914
30
0
41
1
10
267.592956646791
20
22.6225760263917
30
0
41
1
10
267.599500450861
20
22.619204439913
30
0
41
1
10
267.613308831924
20
22.6109620758314
30
0
41
1
10
267.620630234375
20
22.606041751765
30
0
41
1
10
267.635395579301
20
22.5952630873188
30
0
41
1
10
267.642891402848
20
22.5893789353738
30
0
41
1
10
267.650480947162
20
22.5830864488526
30
0
0
SPLINE
5
1D0
100
AcDbEntity
8
1
62
256
6
ByLayer
370
18
48
1
60
0
100
AcDbSpline
70
4
71
3
72
8
73
4
40
0
40
0
40
0
40
0
40
1
40
1
40
1
40
1
41
1
10
267.650480947162
20
22.5830864488525
30
0
41
1
10
267.87527835498
20
22.3967070563399
30
0
41
1
10
268.100039125586
20
22.2102687278766
30
0
41
1
10
268.324759526419
20
22.0237655573015
30
0
0
SPLINE
5
1D1
100
AcDbEntity
8
1
62
256
6
ByLayer
370
18
48
1
60
0
100
AcDbSpline
70
4
71
3
72
8
73
4
40
0
40
0
40
0
40
0
40
1
40
1
40
1
40
1
41
1
10
268.324759526419
20
22.204537010625
30
0
41
1
10
268.102167049584
20
22.5105841760984
30
0
41
1
10
267.877337890168
20
22.8144257977403
30
0
41
1
10
267.650480947162
20
23.1162678662809
30
0
0
SPLINE
5
1D2
100
AcDbEntity
8
1
62
256
6
ByLayer
370
18
48
1
60
0
100
AcDbSpline
70
4
71
3
72
41
73
37
40
0
40
0
40
0
40
0
40
0.0624999999999968
40
0.0624999999999968
40
0.124999999999994
40
0.124999999999994
40
0.249999999999989
40
0.249999999999989
40
0.31249999999998
40
0.31249999999998
40
0.374999999999972
40
0.374999999999972
40
0.437499999999964
40
0.468749999999959
40
0.468749999999959
40
0.499999999999955
40
0.499999999999955
40
0.562499999999962
40
0.562499999999962
40
0.624999999999968
40
0.624999999999968
40
0.687499999999974
40
0.687499999999974
40
0.749999999999981
40
0.749999999999981
40
0.781249999999982
40
0.781249999999982
40
0.812499999999983
40
0.812499999999983
40
0.874999999999991
40
0.874999999999991
40
0.906249999999994
40
0.906249999999994
40
0.937499999999997
40
0.937499999999997
40
1
40
1
40
1
40
1
41
1
10
267.650480947162
20
23.1162678662809
30
0
41
1
10
267.644530707472
20
23.1241848937809
30
0
41
1
10
267.638734660478
20
23.1320661881953
30
0
41
1
10
267.627462614209
20
23.1477537676436
30
0
41
1
10
267.621983627572
20
23.1555655854387
30
0
41
1
10
267.606226071217
20
23.1786319055686
30
0
41
1
10
267.59655639816
20
23.1936038516683
30
0
41
1
10
267.583525644729
20
23.2153410699508
30
0
41
1
10
267.579429881242
20
23.2224656317329
30
0
41
1
10
267.571814377828
20
23.2364325284516
30
0
41
1
10
267.568318980523
20
23.2432345542663
30
0
41
1
10
267.562151731737
20
23.2562021368559
30
0
41
1
10
267.558116055743
20
23.2654991328189
30
0
41
1
10
267.555124307769
20
23.2740375850832
30
0
41
1
10
267.553390593519
20
23.2795405045759
30
0
41
1
10
267.552653442229
20
23.2822028365402
30
0
41
1
10
267.550910298472
20
23.2897406107654
30
0
41
1
10
267.550352356246
20
23.2942147484457
30
0
41
1
10
267.550659068286
20
23.3018677379392
30
0
41
1
10
267.551551382702
20
23.3050594781872
30
0
41
1
10
267.554942046485
20
23.3096266601912
30
0
41
1
10
267.55744201508
20
23.311050293669
30
0
41
1
10
267.564147905172
20
23.3119608702209
30
0
41
1
10
267.568227742826
20
23.3114399048519
30
0
41
1
10
267.575359496822
20
23.3093034854215
30
0
41
1
10
267.577906330663
20
23.3083642815707
30
0
41
1
10
267.583336023074
20
23.3060366334098
30
0
41
1
10
267.58621229645
20
23.3046487760981
30
0
41
1
10
267.595094710497
20
23.2999585110487
30
0
41
1
10
267.601422754011
20
23.2961049586603
30
0
41
1
10
267.611436330014
20
23.2893955044807
30
0
41
1
10
267.614876803774
20
23.2869917365583
30
0
41
1
10
267.62181975771
20
23.2819650556364
30
0
41
1
10
267.625327553303
20
23.2793394829965
30
0
41
1
10
267.635948792471
20
23.271161122512
30
0
41
1
10
267.643159471795
20
23.2653086512658
30
0
41
1
10
267.650480947162
20
23.259115910294
30
0
0
SPLINE
5
1D3
100
AcDbEntity
8
1
62
256
6
ByLayer
370
18
48
1
60
0
100
AcDbSpline
70
4
71
3
72
8
73
4
40
0
40
0
40
0
40
0
40
1
40
1
40
1
40
1
41
1
10
267.650480947162
20
23.2591159102939
30
0
41
1
10
267.875326782245
20
23.0689340213245
30
0
41
1
10
268.100089025132
20
22.8786205059014
30
0
41
1
10
268.324759526419
20
22.6881625317602
30
0
0
SPLINE
5
1D4
100
AcDbEntity
8
1
62
256
6
ByLayer
370
18
48
1
60
0
100
AcDbSpline
70
4
71
3
72
8
73
4
40
0
40
0
40
0
40
0
40
1
40
1
40
1
40
1
41
1
10
268.324759526419
20
22.8306924641183
30
0
41
1
10
268.101678442285
20
23.1158055554838
30
0
41
1
10
267.876866272618
20
23.3990877212188
30
0
41
1
10
267.650480947162
20
23.6807059996433
30
0
0
SPLINE
5
1D5
100
AcDbEntity
8
1
62
256
6
ByLayer
370
18
48
1
60
0
100
AcDbSpline
70
4
71
3
72
38
73
34
40
0
40
0
40
0
40
0
40
0.0624999999999957
40
0.0624999999999957
40
0.124999999999991
40
0.124999999999991
40
0.249999999999996
40
0.249999999999996
40
0.312499999999999
40
0.312499999999999
40
0.375000000000003
40
0.375000000000003
40
0.437500000000006
40
0.437500000000006
40
0.50000000000001
40
0.50000000000001
40
0.562500000000013
40
0.562500000000013
40
0.625000000000016
40
0.625000000000016
40
0.68750000000002
40
0.68750000000002
40
0.750000000000023
40
0.750000000000023
40
0.781250000000023
40
0.781250000000023
40
0.812500000000023
40
0.812500000000023
40
0.875000000000015
40
0.875000000000015
40
0.937500000000008
40
0.937500000000008
40
1
40
1
40
1
40
1
41
1
10
267.650480947162
20
23.6807059996433
30
0
41
1
10
267.644435066045
20
23.6882269404479
30
0
41
1
10
267.638541009106
20
23.6956954835835
30
0
41
1
10
267.627070710279
20
23.7105219541035
30
0
41
1
10
267.621478397149
20
23.7179019338325
30
0
41
1
10
267.605382543492
20
23.7396367381094
30
0
41
1
10
267.59552307329
20
23.7536213176671
30
0
41
1
10
267.582291758194
20
23.7736882743316
30
0
41
1
10
267.5781434099
20
23.7802241905292
30
0
41
1
10
267.570463431254
20
23.792935050526
30
0
41
1
10
267.566983467967
20
23.7990266724997
30
0
41
1
10
267.560894095359
20
23.8105111646504
30
0
41
1
10
267.558273629461
20
23.815921115395
30
0
41
1
10
267.554041861199
20
23.8259505318486
30
0
41
1
10
267.552432376485
20
23.8305864249226
30
0
41
1
10
267.550538980103
20
23.8385889334797
30
0
41
1
10
267.550233118891
20
23.8420039082253
30
0
41
1
10
267.551141496283
20
23.8474028832882
30
0
41
1
10
267.552342069686
20
23.8493113044677
30
0
41
1
10
267.556322566543
20
23.8514574493085
30
0
41
1
10
267.559156903261
20
23.8516693992406
30
0
41
1
10
267.566155193741
20
23.8503516061782
30
0
41
1
10
267.57032728413
20
23.8488516643681
30
0
41
1
10
267.57754044284
20
23.845411474337
30
0
41
1
10
267.580121827421
20
23.8440551043974
30
0
41
1
10
267.585487525657
20
23.8410134790055
30
0
41
1
10
267.588275661537
20
23.8393280740413
30
0
41
1
10
267.596927885113
20
23.8338227337166
30
0
41
1
10
267.603078037699
20
23.8295564416243
30
0
41
1
10
267.616050433374
20
23.8199786606828
30
0
41
1
10
267.622764082909
20
23.8147458022593
30
0
41
1
10
267.636420273296
20
23.8036638171362
30
0
41
1
10
267.64338911966
20
23.7977944023928
30
0
41
1
10
267.650480947162
20
23.7916390605843
30
0
0
SPLINE
5
1D6
100
AcDbEntity
8
1
62
256
6
ByLayer
370
18
48
1
60
0
100
AcDbSpline
70
4
71
3
72
8
73
4
40
0
40
0
40
0
40
0
40
1
40
1
40
1
40
1
41
1
10
267.650480947162
20
23.7916390605842
30
0
41
1
10
267.875390693943
20
23.5964289589462
30
0
41
1
10
268.100154848045
20
23.4009956122058
30
0
41
1
10
268.324759526419
20
23.2053177327385
30
0
0
SPLINE
5
1D7
100
AcDbEntity
8
1
62
256
6
ByLayer
370
18
48
1
60
0
100
AcDbSpline
70
4
71
3
72
8
73
4
40
0
40
0
40
0
40
0
40
1
40
1
40
1
40
1
41
1
10
268.324759526419
20
23.3131399205588
30
0
41
1
10
268.101307459449
20
23.5806365366879
30
0
41
1
10
267.876507770666
20
23.8466150387251
30
0
41
1
10
267.650480947162
20
24.1112111569984
30
0
0
SPLINE
5
1D8
100
AcDbEntity
8
1
62
256
6
ByLayer
370
18
48
1
60
0
100
AcDbSpline
70
4
71
3
72
37
73
33
40
0
40
0
40
0
40
0
40
0.12499999999998
40
0.12499999999998
40
0.249999999999961
40
0.249999999999961
40
0.312499999999957
40
0.312499999999957
40
0.374999999999954
40
0.374999999999954
40
0.437499999999951
40
0.437499999999951
40
0.468749999999954
40
0.468749999999954
40
0.499999999999957
40
0.53124999999996
40
0.53124999999996
40
0.562499999999962
40
0.562499999999962
40
0.624999999999968
40
0.624999999999968
40
0.656249999999971
40
0.656249999999971
40
0.687499999999974
40
0.687499999999974
40
0.749999999999982
40
0.749999999999982
40
0.812499999999989
40
0.812499999999989
40
0.874999999999996
40
0.874999999999996
40
1
40
1
40
1
40
1
41
1
10
267.650480947162
20
24.1112111569984
30
0
41
1
10
267.638202144537
20
24.1255852187192
30
0
41
1
10
267.626485867576
20
24.1397144945012
30
0
41
1
10
267.604552320067
20
24.167151063142
30
0
41
1
10
267.594502099815
20
24.180244597657
30
0
41
1
10
267.581082092083
20
24.1987490698123
30
0
41
1
10
267.57688735265
20
24.2047260678891
30
0
41
1
10
267.569160111633
20
24.2162246159383
30
0
41
1
10
267.565703840037
20
24.2216334116332
30
0
41
1
10
267.559712993625
20
24.2316731893732
30
0
41
1
10
267.557175330865
20
24.2363077732501
30
0
41
1
10
267.554189582967
20
24.2425686008364
30
0
41
1
10
267.55333114082
20
24.2445439196832
30
0
41
1
10
267.551945089713
20
24.2481706791224
30
0
41
1
10
267.55088030604
20
24.2514915212526
30
0
41
1
10
267.550493173189
20
24.2541672783623
30
0
41
1
10
267.550469840073
20
24.2564968771605
30
0
41
1
10
267.55064329357
20
24.2574911476059
30
0
41
1
10
267.551729677775
20
24.2598627622581
30
0
41
1
10
267.553197894126
20
24.2606567256908
30
0
41
1
10
267.556546564706
20
24.2606368151024
30
0
41
1
10
267.557864176504
20
24.2604245190896
30
0
41
1
10
267.560849626481
20
24.2595937482388
30
0
41
1
10
267.562509311232
20
24.2589798099637
30
0
41
1
10
267.567961306001
20
24.256576233021
30
0
41
1
10
267.572230449554
20
24.254223815365
30
0
41
1
10
267.581924074944
20
24.2481356233884
30
0
41
1
10
267.587203153222
20
24.2444931606363
30
0
41
1
10
267.598484907468
20
24.2362099822935
30
0
41
1
10
267.604518790299
20
24.231543271622
30
0
41
1
10
267.623400016941
20
24.2163577993813
30
0
41
1
10
267.636681697517
20
24.2049543935815
30
0
41
1
10
267.650480947162
20
24.1926049128566
30
0
0
SPLINE
5
1D9
100
AcDbEntity
8
1
62
256
6
ByLayer
370
18
48
1
60
0
100
AcDbSpline
70
4
71
3
72
8
73
4
40
0
40
0
40
0
40
0
40
1
40
1
40
1
40
1
41
1
10
267.650480947162
20
24.1926049128565
30
0
41
1
10
267.875470342809
20
23.9912532251719
30
0
41
1
10
268.100236859786
20
23.7895703804282
30
0
41
1
10
268.324759526419
20
23.5875252185427
30
0
0
SPLINE
5
1DA
100
AcDbEntity
8
1
62
256
6
ByLayer
370
18
48
1
60
0
100
AcDbSpline
70
4
71
3
72
8
73
4
40
0
40
0
40
0
40
0
40
1
40
1
40
1
40
1
41
1
10
268.324759526419
20
23.6630274540323
30
0
41
1
10
268.101019214676
20
23.9154654531755
30
0
41
1
10
267.876228917632
20
24.1666509399739
30
0
41
1
10
267.650480947162
20
24.4166940319317
30
0
0
SPLINE
5
1DB
100
AcDbEntity
8
1
62
256
6
ByLayer
370
18
48
1
60
0
100
AcDbSpline
70
4
71
3
72
37
73
33
40
0
40
0
40
0
40
0
40
0.0625000000000138
40
0.0625000000000138
40
0.125000000000027
40
0.125000000000027
40
0.250000000000041
40
0.250000000000041
40
0.312500000000046
40
0.312500000000046
40
0.375000000000052
40
0.406250000000053
40
0.406250000000053
40
0.437500000000055
40
0.437500000000055
40
0.500000000000054
40
0.500000000000054
40
0.531250000000052
40
0.531250000000052
40
0.56250000000005
40
0.56250000000005
40
0.625000000000042
40
0.625000000000042
40
0.687500000000035
40
0.687500000000035
40
0.750000000000028
40
0.750000000000028
40
0.81250000000002
40
0.81250000000002
40
0.875000000000013
40
0.875000000000013
40
1
40
1
40
1
40
1
41
1
10
267.650480947162
20
24.4166940319317
30
0
41
1
10
267.644233516261
20
24.4236138148026
30
0
41
1
10
267.638128791671
20
24.430447242131
30
0
41
1
10
267.626224587923
20
24.4439282469405
30
0
41
1
10
267.620408632679
20
24.4505953398446
30
0
41
1
10
267.603696944729
20
24.4700187730239
30
0
41
1
10
267.593459438986
20
24.4822776869181
30
0
41
1
10
267.579801977808
20
24.499359790976
30
0
41
1
10
267.575513158026
20
24.5048653228659
30
0
41
1
10
267.56782727776
20
24.515076174794
30
0
41
1
10
267.562698992221
20
24.5221718288949
30
0
41
1
10
267.55866279162
20
24.5283005792946
30
0
41
1
10
267.556240243351
20
24.5321488241222
30
0
41
1
10
267.555161120897
20
24.5339584350349
30
0
41
1
10
267.552417952635
20
24.5389021635925
30
0
41
1
10
267.551221826354
20
24.5415884195274
30
0
41
1
10
267.550485616375
20
24.5445985953598
30
0
41
1
10
267.55041909126
20
24.5454340249248
30
0
41
1
10
267.550661814729
20
24.5467128369875
30
0
41
1
10
267.550968230583
20
24.5471605417453
30
0
41
1
10
267.55243913149
20
24.5479324593425
30
0
41
1
10
267.554154903999
20
24.5476875862852
30
0
41
1
10
267.559095757758
20
24.545630029288
30
0
41
1
10
267.562230525272
20
24.5438567909979
30
0
41
1
10
267.569682176899
20
24.5389883407304
30
0
41
1
10
267.574051131848
20
24.535851615374
30
0
41
1
10
267.583612877603
20
24.528557039508
30
0
41
1
10
267.58879748384
20
24.5244110022466
30
0
41
1
10
267.599860114334
20
24.5152650369464
30
0
41
1
10
267.605784818522
20
24.510223577668
30
0
41
1
10
267.624098620595
20
24.4942917137724
30
0
41
1
10
267.637015243457
20
24.482621137557
30
0
41
1
10
267.650480947162
20
24.4701429912246
30
0
0
SPLINE
5
1DC
100
AcDbEntity
8
1
62
256
6
ByLayer
370
18
48
1
60
0
100
AcDbSpline
70
4
71
3
72
8
73
4
40
0
40
0
40
0
40
0
40
1
40
1
40
1
40
1
41
1
10
267.650480947162
20
24.4701429912246
30
0
41
1
10
267.875567648883
20
24.2615638584126
30
0
41
1
10
268.10033706691
20
24.0525298860206
30
0
41
1
10
268.324759526419
20
23.8429985339373
30
0
0
SPLINE
5
1DD
100
AcDbEntity
8
1
62
256
6
ByLayer
370
18
48
1
60
0
100
AcDbSpline
70
4
71
3
72
8
73
4
40
0
40
0
40
0
40
0
40
1
40
1
40
1
40
1
41
1
10
268.324759526419
20
23.8877233606902
30
0
41
1
10
268.100791090601
20
24.1271433496641
30
0
41
1
10
267.876008003165
20
24.3655393957375
30
0
41
1
10
267.650480947162
20
24.6030003410682
30
0
0
SPLINE
5
1DE
100
AcDbEntity
8
1
62
256
6
ByLayer
370
18
48
1
60
0
100
AcDbSpline
70
4
71
3
72
37
73
33
40
0
40
0
40
0
40
0
40
0.124999999999982
40
0.124999999999982
40
0.187499999999981
40
0.187499999999981
40
0.24999999999998
40
0.24999999999998
40
0.31249999999998
40
0.343749999999979
40
0.343749999999979
40
0.374999999999978
40
0.374999999999978
40
0.437499999999978
40
0.437499999999978
40
0.468749999999978
40
0.468749999999978
40
0.499999999999978
40
0.499999999999978
40
0.562499999999979
40
0.562499999999979
40
0.62499999999998
40
0.62499999999998
40
0.687499999999982
40
0.687499999999982
40
0.749999999999983
40
0.749999999999983
40
0.812499999999984
40
0.812499999999984
40
0.874999999999986
40
0.874999999999986
40
1
40
1
40
1
40
1
41
1
10
267.650480947162
20
24.6030003410682
30
0
41
1
10
267.637713524711
20
24.6164433587636
30
0
41
1
10
267.625555134204
20
24.6293990848527
30
0
41
1
10
267.608569850311
20
24.6477688699763
30
0
41
1
10
267.603108564082
20
24.6537238617298
30
0
41
1
10
267.592645038061
20
24.6652469120375
30
0
41
1
10
267.587628553198
20
24.6708318448442
30
0
41
1
10
267.578394061833
20
24.6812540907372
30
0
41
1
10
267.572016535815
20
24.6885648297583
30
0
41
1
10
267.566579562048
20
24.6950058114138
30
0
41
1
10
267.563185659207
20
24.6990862291308
30
0
41
1
10
267.561600856608
20
24.7010238889245
30
0
41
1
10
267.557303071354
20
24.7063893319171
30
0
41
1
10
267.555014755975
20
24.7094065301884
30
0
41
1
10
267.552553203198
20
24.712989484204
30
0
41
1
10
267.551893247071
20
24.7140301161116
30
0
41
1
10
267.550941407315
20
24.7157401602277
30
0
41
1
10
267.550646743412
20
24.7164124694581
30
0
41
1
10
267.550307456757
20
24.7178803359899
30
0
41
1
10
267.550804218982
20
24.7181301453516
30
0
41
1
10
267.553323180194
20
24.7170929258179
30
0
41
1
10
267.555303382755
20
24.7158212919819
30
0
41
1
10
267.560517793468
20
24.7119566589432
30
0
41
1
10
267.563756830219
20
24.7093608741
30
0
41
1
10
267.571431586465
20
24.7029148992639
30
0
41
1
10
267.575773222109
20
24.6991432590711
30
0
41
1
10
267.585223568068
20
24.6907486294527
30
0
41
1
10
267.59034747327
20
24.6861125346094
30
0
41
1
10
267.601310018783
20
24.6760560925478
30
0
41
1
10
267.607046357809
20
24.670729424596
30
0
41
1
10
267.624771194315
20
24.6541190568002
30
0
41
1
10
267.637325338165
20
24.6421616074531
30
0
41
1
10
267.650480947162
20
24.6294893682048
30
0
0
SPLINE
5
1DF
100
AcDbEntity
8
1
62
256
6
ByLayer
370
18
48
1
60
0
100
AcDbSpline
70
4
71
3
72
8
73
4
40
0
40
0
40
0
40
0
40
1
40
1
40
1
40
1
41
1
10
267.650480947162
20
24.6294893682047
30
0
41
1
10
267.875685997487
20
24.4125589107659
30
0
41
1
10
268.100458994954
20
24.1950332762271
30
0
41
1
10
268.324759526419
20
23.976856793209
30
0
0
SPLINE
5
1E0
100
AcDbEntity
8
1
62
256
6
ByLayer
370
18
48
1
60
0
100
AcDbSpline
70
4
71
3
72
8
73
4
40
0
40
0
40
0
40
0
40
1
40
1
40
1
40
1
41
1
10
268.324759526419
20
23.991671694455
30
0
41
1
10
268.100607863251
20
24.2197546698699
30
0
41
1
10
267.875830405166
20
24.4470125106987
30
0
41
1
10
267.650480947162
20
24.6735161477096
30
0
0
SPLINE
5
1E1
100
AcDbEntity
8
1
62
256
6
ByLayer
370
18
48
1
60
0
100
AcDbSpline
70
4
71
3
72
32
73
28
40
0
40
0
40
0
40
0
40
0.0960893971595973
40
0.0960893971595973
40
0.192178794319195
40
0.192178794319195
40
0.384357588638389
40
0.384357588638389
40
0.480446985797987
40
0.480446985797987
40
0.528491684377786
40
0.528491684377786
40
0.576536382957585
40
0.576536382957585
40
0.672625780117186
40
0.672625780117186
40
0.720670478696984
40
0.720670478696984
40
0.768715177276781
40
0.768715177276781
40
0.864804574436377
40
0.864804574436377
40
0.912849273016176
40
0.912849273016176
40
0.960893971595976
40
0.960893971595976
40
1
40
1
40
1
40
1
41
1
10
267.650480947162
20
24.6735161477096
30
0
41
1
10
267.643995528497
20
24.6800347829356
30
0
41
1
10
267.637641930968
20
24.6864240983015
30
0
41
1
10
267.625223781212
20
24.6989177330073
30
0
41
1
10
267.619159362558
20
24.7050219490496
30
0
41
1
10
267.601760540395
20
24.7225422830348
30
0
41
1
10
267.591092877904
20
24.7332946246375
30
0
41
1
10
267.576962978984
20
24.7475455477888
30
0
41
1
10
267.572665768936
20
24.7518812199185
30
0
41
1
10
267.566937041454
20
24.7576626687878
30
0
41
1
10
267.565146159727
20
24.7594703034823
30
0
41
1
10
267.561821741835
20
24.7628262012975
30
0
41
1
10
267.560285385348
20
24.7643773132453
30
0
41
1
10
267.556170769704
20
24.7685318245766
30
0
41
1
10
267.554054662599
20
24.7706689842455
30
0
41
1
10
267.551904777518
20
24.7728403855645
30
0
41
1
10
267.551358069514
20
24.7733926014467
30
0
41
1
10
267.550642684802
20
24.7741152032559
30
0
41
1
10
267.550471174801
20
24.7742884504558
30
0
41
1
10
267.550501778366
20
24.7742575373627
30
0
41
1
10
267.551246131199
20
24.7735056170708
30
0
41
1
10
267.553449587003
20
24.771280119119
30
0
41
1
10
267.554366440456
20
24.7703541331454
30
0
41
1
10
267.556507437831
20
24.7681920072884
30
0
41
1
10
267.557735591993
20
24.7669518171093
30
0
41
1
10
267.560231347123
20
24.7644318873765
30
0
41
1
10
267.561451218112
20
24.7632002921372
30
0
41
1
10
267.562764838352
20
24.7618741856935
30
0
0
SPLINE
5
1E2
100
AcDbEntity
8
1
62
256
6
ByLayer
370
18
48
1
60
0
100
AcDbSpline
70
4
71
3
72
10
73
6
40
0
40
0
40
0
40
0
40
0.142269625762219
40
0.142269625762219
40
1
40
1
40
1
40
1
41
1
10
267.608041075819
20
24.7162185950414
30
0
41
1
10
267.609918627674
20
24.7143274302823
30
0
41
1
10
267.611817705399
20
24.7124148471827
30
0
41
1
10
267.625296915117
20
24.6988417531472
30
0
41
1
10
267.637586054382
20
24.6864770846445
30
0
41
1
10
267.650480947162
20
24.6735161477096
30
0
0
SPLINE
5
1E3
100
AcDbEntity
8
1
62
256
6
ByLayer
370
18
48
1
60
0
100
AcDbSpline
70
4
71
3
72
73
73
69
40
0
40
0
40
0
40
0
40
0.0173685652626429
40
0.0346693658320719
40
0.0519023857450232
40
0.0690676086282236
40
0.0861650177047592
40
0.103194595800468
40
0.120156325350305
40
0.137050188404719
40
0.153876166636001
40
0.170634241344653
40
0.187324393465714
40
0.203946603575094
40
0.220500851895897
40
0.236987118304732
40
0.25340538233801
40
0.269755623198208
40
0.286037819760155
40
0.302251950577264
40
0.31839799388778
40
0.334475927620996
40
0.350485729403433
40
0.366427376565046
40
0.382300846145363
40
0.398106114899632
40
0.413843159304948
40
0.429511955566335
40
0.445112479622837
40
0.460644707153556
40
0.476108613583687
40
0.491504174090518
40
0.506831363609425
40
0.522090156839799
40
0.537280528250995
40
0.552402452088228
40
0.567455902378441
40
0.582440852936164
40
0.597357277369313
40
0.612205149084998
40
0.626984441295279
40
0.641695127022883
40
0.656337179106936
40
0.670910570208592
40
0.685415272816712
40
0.699851259253442
40
0.714218501679808
40
0.728516972101257
40
0.742746642373157
40
0.756907484206298
40
0.77099946917232
40
0.785022568709134
40
0.798976754126302
40
0.812861996610377
40
0.826678267230228
40
0.840425536942296
40
0.854103776595858
40
0.867712956938224
40
0.88125304861991
40
0.894724022199777
40
0.908125848150138
40
0.921458496861826
40
0.934721938649219
40
0.947916143755237
40
0.961041082356316
40
0.974096724567317
40
0.987083040446425
40
1
40
1
40
1
40
1
41
1
10
266.067675282232
20
22.7547511370658
30
0
41
1
10
266.066970994684
20
22.7437790593183
30
0
41
1
10
266.065565167416
20
22.7218777121654
30
0
41
1
10
266.063493924058
20
22.6888038938661
30
0
41
1
10
266.061455391542
20
22.6556525193587
30
0
41
1
10
266.059451921734
20
22.6224061037302
30
0
41
1
10
266.057482862836
20
22.589073121416
30
0
41
1
10
266.055548358859
20
22.5556551131825
30
0
41
1
10
266.053648337597
20
22.5221554478721
30
0
41
1
10
266.05178278024
20
22.4885769886021
30
0
41
1
10
266.049951649607
20
22.4549227144019
30
0
41
1
10
266.048154909302
20
22.421195554653
30
0
41
1
10
266.046392518658
20
22.3873984331967
30
0
41
1
10
266.044664434127
20
22.3535342565998
30
0
41
1
10
266.042970608955
20
22.3196059172926
30
0
41
1
10
266.041310993316
20
22.2856162927457
30
0
41
1
10
266.039685534317
20
22.2515682457026
30
0
41
1
10
266.038094176042
20
22.2174646241307
30
0
41
1
10
266.036536859588
20
22.1833082612475
30
0
41
1
10
266.035013523098
20
22.1491019755265
30
0
41
1
10
266.033524101796
20
22.1148485707099
30
0
41
1
10
266.032068528028
20
22.0805508358176
30
0
41
1
10
266.030646731289
20
22.0462115451591
30
0
41
1
10
266.029258638265
20
22.0118334583436
30
0
41
1
10
266.027904172866
20
21.9774193202914
30
0
41
1
10
266.026583256264
20
21.9429718612444
30
0
41
1
10
266.025295806922
20
21.908493796778
30
0
41
1
10
266.02404174064
20
21.8739878278113
30
0
41
1
10
266.022820970579
20
21.8394566406193
30
0
41
1
10
266.021633407305
20
21.8049029068438
30
0
41
1
10
266.020478958822
20
21.7703292835054
30
0
41
1
10
266.019357530603
20
21.7357384130148
30
0
41
1
10
266.018269025634
20
21.701132923185
30
0
41
1
10
266.01721334444
20
21.666515427243
30
0
41
1
10
266.016190385128
20
21.6318885238421
30
0
41
1
10
266.015200043416
20
21.5972547970739
30
0
41
1
10
266.014242212674
20
21.562616816481
30
0
41
1
10
266.013316783953
20
21.5279771370696
30
0
41
1
10
266.012423646026
20
21.4933382993219
30
0
41
1
10
266.011562685417
20
21.4587028292092
30
0
41
1
10
266.01073378644
20
21.4240732382052
30
0
41
1
10
266.009936831233
20
21.3894520232988
30
0
41
1
10
266.009171699792
20
21.3548416670077
30
0
41
1
10
266.008438270005
20
21.3202446373924
30
0
41
1
10
266.007736417687
20
21.2856633880695
30
0
41
1
10
266.007066016616
20
21.2511003582259
30
0
41
1
10
266.006426938565
20
21.2165579726331
30
0
41
1
10
266.005819053336
20
21.1820386416616
30
0
41
1
10
266.005242228796
20
21.1475447612955
30
0
41
1
10
266.004696330911
20
21.1130787131472
30
0
41
1
10
266.004181223776
20
21.078642864473
30
0
41
1
10
266.003696769654
20
21.0442395681876
30
0
41
1
10
266.003242829006
20
21.0098711628806
30
0
41
1
10
266.002819260525
20
20.9755399728311
30
0
41
1
10
266.002425921168
20
20.9412483080262
30
0
41
1
10
266.002062666197
20
20.9069984641684
30
0
41
1
10
266.001729349193
20
20.8727927227258
30
0
41
1
10
266.001425822132
20
20.8386333508233
30
0
41
1
10
266.001151935291
20
20.8045226017248
30
0
41
1
10
266.000907537724
20
20.7704627131271
30
0
41
1
10
266.000692475666
20
20.7364559135615
30
0
41
1
10
266.000506598586
20
20.7025043987675
30
0
41
1
10
266.000349736934
20
20.6686104192697
30
0
41
1
10
266.000221784686
20
20.6347759561659
30
0
41
1
10
266.000122393851
20
20.6010039217177
30
0
41
1
10
266.00005210575
20
20.5672937140436
30
0
41
1
10
266.000008162608
20
20.5336576759843
30
0
41
1
10
266.000002716008
20
20.5111991810324
30
0
41
1
10
266
20
20.499999999999
30
0
0
SPLINE
5
1E4
100
AcDbEntity
8
1
62
256
6
ByLayer
370
18
48
1
60
0
100
AcDbSpline
70
4
71
3
72
51
73
47
40
0
40
0
40
0
40
0
40
0.0163698658227556
40
0.0328016119007479
40
0.0492952623575901
40
0.0658508410462714
40
0.0824683715531076
40
0.0991478772015861
40
0.115889381056156
40
0.132692905925976
40
0.149558474368561
40
0.166486108693374
40
0.183475830965383
40
0.200527663008522
40
0.217641626409105
40
0.234817742519192
40
0.252056032459867
40
0.26935651712451
40
0.286719217181959
40
0.304144153079655
40
0.321631345046717
40
0.339180813096971
40
0.356792577031925
40
0.374466656443695
40
0.392203070717891
40
0.410001839036428
40
0.427862980380329
40
0.445786513532442
40
0.463772457080143
40
0.481820829417984
40
0.499931648750275
40
0.531729742561769
40
0.563747425027471
40
0.595984789744238
40
0.628441928408118
40
0.661118930864687
40
0.694015885157785
40
0.727132877576663
40
0.76046999270163
40
0.794027313448234
40
0.827804921110051
40
0.86180289540015
40
0.896021314491218
40
0.930460255054464
40
0.96511979229733
40
1
40
1
40
1
40
1
41
1
10
265.5
20
20.9183673469378
30
0
41
1
10
265.500010032665
20
20.9315221621949
30
0
41
1
10
265.50003013592
20
20.9578815196487
30
0
41
1
10
265.500172268434
20
20.9972726393058
30
0
41
1
10
265.500396275852
20
21.0366474215526
30
0
41
1
10
265.500710285225
20
21.0759875467444
30
0
41
1
10
265.501112106629
20
21.1152949764781
30
0
41
1
10
265.501602330167
20
21.1545661901958
30
0
41
1
10
265.502180796847
20
21.1937991273883
30
0
41
1
10
265.50284754952
20
21.23299131697
30
0
41
1
10
265.503602576652
20
21.2721403813098
30
0
41
1
10
265.504445881363
20
21.3112439004135
30
0
41
1
10
265.505377462823
20
21.3502994485107
30
0
41
1
10
265.506397321267
20
21.3893045841906
30
0
41
1
10
265.507505456644
20
21.4282568530544
30
0
41
1
10
265.508701868979
20
21.4671537869966
30
0
41
1
10
265.509986558276
20
21.5059929043955
30
0
41
1
10
265.511359524545
20
21.5447717100601
30
0
41
1
10
265.512820767793
20
21.5834876952442
30
0
41
1
10
265.51437028803
20
21.622138337643
30
0
41
1
10
265.516008085265
20
21.6607211013961
30
0
41
1
10
265.517734159505
20
21.69923343709
30
0
41
1
10
265.519548510757
20
21.7376727817614
30
0
41
1
10
265.521451139038
20
21.7760365589045
30
0
41
1
10
265.523442044323
20
21.8143221784682
30
0
41
1
10
265.525521226744
20
21.8525270368936
30
0
41
1
10
265.527688685842
20
21.8906485170097
30
0
41
1
10
265.529944423382
20
21.9286839884615
30
0
41
1
10
265.532288432771
20
21.9666308061493
30
0
41
1
10
265.53472073879
20
22.0044863161328
30
0
41
1
10
265.537873309971
20
22.051717188103
30
0
41
1
10
265.541838989512
20
22.1081879219391
30
0
41
1
10
265.546731421531
20
22.1736906151841
30
0
41
1
10
265.551898535711
20
22.2389257212342
30
0
41
1
10
265.55734037521
20
22.3038766023259
30
0
41
1
10
265.563056928704
20
22.3685264772534
30
0
41
1
10
265.569048199042
20
22.4328584026164
30
0
41
1
10
265.575314187376
20
22.4968552674563
30
0
41
1
10
265.58185488724
20
22.5604998357507
30
0
41
1
10
265.588670324646
20
22.6237745821819
30
0
41
1
10
265.595760402152
20
22.6866623144907
30
0
41
1
10
265.60312548785
20
22.7491438295752
30
0
41
1
10
265.610764195354
20
22.8112067491154
30
0
41
1
10
265.618681749719
20
22.872812226141
30
0
41
1
10
265.626858463382
20
22.934020402534
30
0
41
1
10
265.632513881991
20
22.9742243249025
30
0
41
1
10
265.635350564464
20
22.9943900756365
30
0
0
SPLINE
5
1E5
100
AcDbEntity
8
1
62
256
6
ByLayer
370
18
48
1
60
0
100
AcDbSpline
70
4
71
3
72
55
73
51
40
0
40
0
40
0
40
0
40
0.0079245655345783
40
0.0159114253084012
40
0.0239605829212847
40
0.0320720418900571
40
0.0402458056510963
40
0.0484818775627481
40
0.0567802609076743
40
0.0651409588951036
40
0.073563974662993
40
0.0820493112801276
40
0.0905969717481253
40
0.099206959003389
40
0.107879275918966
40
0.116613925306361
40
0.125410909917276
40
0.154479422763259
40
0.184954478282284
40
0.216836148163241
40
0.250124494582527
40
0.30630053375266
40
0.366464850257788
40
0.430617606472867
40
0.498758926831092
40
0.554560544510239
40
0.614775322165124
40
0.67940325612816
40
0.74844433078931
40
0.756529661225179
40
0.765004342929402
40
0.773868375905948
40
0.783121760149294
40
0.79276449564557
40
0.802796582373484
40
0.81321802030507
40
0.824028809406309
40
0.835228949637628
40
0.846818440954335
40
0.858797283306961
40
0.871165476641574
40
0.883923020900011
40
0.897069916020117
40
0.910606161935911
40
0.924531758577755
40
0.938846705872486
40
0.953551003743539
40
0.968644652111046
40
0.984127650891938
40
1
40
1
40
1
40
1
41
1
10
265.635350564464
20
22.9943900756365
30
0
41
1
10
265.636827231209
20
23.0048101163503
30
0
41
1
10
265.639792172631
20
23.025732108705
30
0
41
1
10
265.644187677625
20
23.0569385932359
30
0
41
1
10
265.648567480635
20
23.0881650731174
30
0
41
1
10
265.652926486448
20
23.1193839852768
30
0
41
1
10
265.657266076186
20
23.1505951298854
30
0
41
1
10
265.661585875399
20
23.1817908172797
30
0
41
1
10
265.665885985496
20
23.2129653154657
30
0
41
1
10
265.670166378896
20
23.244112289314
30
0
41
1
10
265.674427063057
20
23.2752254944764
30
0
41
1
10
265.678668035641
20
23.3062985893318
30
0
41
1
10
265.682889298113
20
23.3373251855371
30
0
41
1
10
265.687090846582
20
23.3682988354851
30
0
41
1
10
265.691272694941
20
23.3992130309973
30
0
41
1
10
265.695434790658
20
23.4300612211196
30
0
41
1
10
265.702749531823
20
23.4844034635147
30
0
41
1
10
265.713202997964
20
23.5624587972589
30
0
41
1
10
265.726687452156
20
23.6634130587565
30
0
41
1
10
265.740315176372
20
23.7652105530392
30
0
41
1
10
265.757060675379
20
23.8892768552793
30
0
41
1
10
265.776818712095
20
24.0336161723125
30
0
41
1
10
265.799459956364
20
24.1940645144833
30
0
41
1
10
265.82250506025
20
24.3494711028511
30
0
41
1
10
265.844080926517
20
24.4849394003191
30
0
41
1
10
265.864458435076
20
24.6024163086357
30
0
41
1
10
265.88388942393
20
24.7036775557659
30
0
41
1
10
265.904230575193
20
24.7961499467149
30
0
41
1
10
265.918777827684
20
24.8510224692613
30
0
41
1
10
265.927463692301
20
24.8797034882565
30
0
41
1
10
265.930035638374
20
24.8879379258374
30
0
41
1
10
265.93271897357
20
24.8962394995725
30
0
41
1
10
265.935513501391
20
24.9045661803916
30
0
41
1
10
265.938419276188
20
24.9128740548778
30
0
41
1
10
265.94143628084
20
24.9211173469684
30
0
41
1
10
265.944564518855
20
24.9292484106838
30
0
41
1
10
265.947803988062
20
24.9372177315421
30
0
41
1
10
265.951154688067
20
24.9449739258942
30
0
41
1
10
265.954616618106
20
24.9524637415512
30
0
41
1
10
265.958189777629
20
24.9596320578186
30
0
41
1
10
265.961874166129
20
24.9664218893887
30
0
41
1
10
265.965669783141
20
24.9727743777799
30
0
41
1
10
265.969576628361
20
24.9786288341041
30
0
41
1
10
265.973594701092
20
24.9839225843718
30
0
41
1
10
265.977724002382
20
24.9885915879312
30
0
41
1
10
265.981964526669
20
24.9925680484325
30
0
41
1
10
265.986316294249
20
24.9957897271055
30
0
41
1
10
265.990779225129
20
24.9981637903864
30
0
41
1
10
265.995353628535
20
24.9997071335421
30
0
41
1
10
265.998438441113
20
24.999901573039
30
0
41
1
10
266
20
24.999999999999
30
0
0
SPLINE
5
1E6
100
AcDbEntity
8
1
62
256
6
ByLayer
370
18
48
1
60
0
100
AcDbSpline
70
4
71
1
72
4
73
2
40
0
40
0
40
1
40
1
41
1
10
265.5
20
20.9183673469378
30
0
41
1
10
266
20
20.499999999999
30
0
0
SPLINE
5
1E7
100
AcDbEntity
8
SK1
62
256
6
ByLayer
370
18
48
1
60
0
100
AcDbSpline
70
4
71
3
72
11
73
7
40
0
40
0
40
0
40
0
40
0.242601372898441
40
0.502561214665702
40
0.761098879312109
40
1
40
1
40
1
40
1
41
1
10
-0.199999999999903
20
22.0603316233171
30
0
41
1
10
-0.200957649232549
20
22.0346776345707
30
0
41
1
10
-0.211248088565242
20
21.9856476021512
30
0
41
1
10
-0.255178473896976
20
21.9196695750856
30
0
41
1
10
-0.321112940269913
20
21.8764518787732
30
0
41
1
10
-0.369683556830182
20
21.8664032520323
30
0
41
1
10
-0.394913799811206
20
21.8654753908017
30
0
0
SPLINE
5
1E8
100
AcDbEntity
8
SK1
62
256
6
ByLayer
370
18
48
1
60
0
100
AcDbSpline
70
4
71
3
72
11
73
7
40
0
40
0
40
0
40
0
40
0.23890112120024
40
0.497438786084605
40
0.757398627621531
40
1
40
1
40
1
40
1
41
1
10
-0.394913799811377
20
-21.8654754627471
30
0
41
1
10
-0.369683556841167
20
-21.8664033239634
30
0
41
1
10
-0.321112940313199
20
-21.8764519506625
30
0
41
1
10
-0.255178473954473
20
-21.9196696467454
30
0
41
1
10
-0.211248088575999
20
-21.9856476735437
30
0
41
1
10
-0.20095764924379
20
-22.0346777057895
30
0
41
1
10
-0.200000000000088
20
-22.0603316944386
30
0
0
SPLINE
5
1E9
100
AcDbEntity
8
SK1
62
256
6
ByLayer
370
18
48
1
60
0
100
AcDbSpline
70
4
71
2
72
6
73
3
40
0
40
0
40
0
40
1
40
1
40
1
41
1
10
-36.4999999999999
20
21.1556411500793
30
0
41
1
10
-37.2500000202692
20
20.7228363924585
30
0
41
1
10
-37.9999999999999
20
20.2900294978114
30
0
0
SPLINE
5
1EA
100
AcDbEntity
8
SK1
62
256
6
ByLayer
370
18
48
1
60
0
100
AcDbSpline
70
4
71
2
72
6
73
3
40
0
40
0
40
0
40
1
40
1
40
1
41
1
10
-38.0000000000001
20
-20.2900295032222
30
0
41
1
10
-37.2500000202655
20
-20.7228363958852
30
0
41
1
10
-36.5000000000001
20
-21.155641151646
30
0
0
SPLINE
5
1EB
100
AcDbEntity
8
SK1
62
256
6
ByLayer
370
18
48
1
60
0
100
AcDbSpline
70
4
71
2
72
6
73
3
40
0
40
0
40
0
40
1
40
1
40
1
41
1
10
-0.394913799811206
20
21.8654705382346
30
0
41
1
10
-1.19497688887506
20
21.8453761190377
30
0
41
1
10
-1.99503997793921
20
21.8252816998361
30
0
0
SPLINE
5
1EC
100
AcDbEntity
8
SK1
62
256
6
ByLayer
370
18
48
1
60
0
100
AcDbSpline
70
4
71
2
72
6
73
3
40
0
40
0
40
0
40
1
40
1
40
1
41
1
10
-1.99503997793939
20
-21.8252817664983
30
0
41
1
10
-1.19497688887522
20
-21.845376185605
30
0
41
1
10
-0.394913799811377
20
-21.8654706047072
30
0
0
SPLINE
5
1ED
100
AcDbEntity
8
SK1
62
256
6
ByLayer
370
18
48
1
60
0
100
AcDbSpline
70
4
71
3
72
13
73
9
40
0
40
0
40
0
40
0
40
0.239488446613139
40
0.368403116187249
40
0.500046645745247
40
0.631682415479622
40
0.760575689762793
40
1
40
1
40
1
40
1
41
1
10
-1.99503997793921
20
21.825286524797
30
0
41
1
10
-2.02110964951213
20
21.8248845959364
30
0
41
1
10
-2.05883938576706
20
21.8310551084546
30
0
41
1
10
-2.10627619976843
20
21.8540920367489
30
0
41
1
10
-2.13886292183531
20
21.8792518859041
30
0
41
1
10
-2.16563526915762
20
21.9105242864783
30
0
41
1
10
-2.19103234710842
20
21.9567296167895
30
0
41
1
10
-2.19909149085333
20
21.9940920912339
30
0
41
1
10
-2.19999999999992
20
22.0201427571469
30
0
0
SPLINE
5
1EE
100
AcDbEntity
8
SK1
62
256
6
ByLayer
370
18
48
1
60
0
100
AcDbSpline
70
4
71
3
72
13
73
9
40
0
40
0
40
0
40
0
40
0.239424309709105
40
0.36831758382101
40
0.499953353497804
40
0.631596883124593
40
0.760511552875627
40
1
40
1
40
1
40
1
41
1
10
-2.20000000000009
20
-22.0201428284389
30
0
41
1
10
-2.19909149084529
20
-21.994092162624
30
0
41
1
10
-2.19103234710042
20
-21.956729688326
30
0
41
1
10
-2.16563526914689
20
-21.9105243582179
30
0
41
1
10
-2.13886292182107
20
-21.8792519577777
30
0
41
1
10
-2.1062761997532
20
-21.8540921087329
30
0
41
1
10
-2.05883938574678
20
-21.8310551805396
30
0
41
1
10
-2.02110964950154
20
-21.8248846680467
30
0
41
1
10
-1.99503997793939
20
-21.8252865969123
30
0
0
SPLINE
5
1EF
100
AcDbEntity
8
SK1
62
256
6
ByLayer
370
18
48
1
60
0
100
AcDbSpline
70
4
71
2
72
6
73
3
40
0
40
0
40
0
40
1
40
1
40
1
41
1
10
-2.19999999999992
20
22.0136642719968
30
0
41
1
10
-19.3500000008245
20
21.5830599810352
30
0
41
1
10
-36.4999999999999
20
21.1524539804129
30
0
0
SPLINE
5
1F0
100
AcDbEntity
8
SK1
62
256
6
ByLayer
370
18
48
1
60
0
100
AcDbSpline
70
4
71
2
72
6
73
3
40
0
40
0
40
0
40
1
40
1
40
1
41
1
10
-36.5000000000001
20
-21.1524542549769
30
0
41
1
10
-19.3500000008245
20
-21.5830602558514
30
0
41
1
10
-2.20000000000009
20
-22.0136645469338
30
0
0
LINE
5
A6
100
AcDbEntity
8
SK4
62
256
6
ByLayer
370
18
48
0.05
60
0
100
AcDbLine
10
4
20
0
30
0
11
264
21
0
31
0
39
0
210
0
220
0
230
1
0
LINE
5
A8
100
AcDbEntity
8
81
62
256
6
ByLayer
370
18
48
1
60
0
100
AcDbLine
10
268
20
5
30
0
11
273
21
5
31
0
39
0
210
0
220
0
230
1
0
LINE
5
A9
100
AcDbEntity
8
4
62
256
6
ByLayer
370
18
48
0.05
60
0
100
AcDbLine
10
264
20
5
30
0
11
268
21
5
31
0
39
0
210
0
220
0
230
1
0
LINE
5
AB
100
AcDbEntity
8
80
62
256
6
ByLayer
370
18
48
1
60
0
100
AcDbLine
10
0
20
0
30
0
11
-5
21
0
31
0
39
0
210
0
220
0
230
1
0
LINE
5
AC
100
AcDbEntity
8
1
62
256
6
ByLayer
370
18
48
1
60
0
100
AcDbLine
10
272.8
20
-1.899495
30
0
11
272.8
21
-7.899495
31
0
39
0
210
0
220
0
230
1
0
LINE
5
AD
100
AcDbEntity
8
1
62
256
6
ByLayer
370
13
48
1
60
0
100
AcDbLine
10
268.324503
20
-7.344995
30
0
11
272.8
21
-7.344995
31
0
39
0
210
0
220
0
230
1
0
LINE
5
AE
100
AcDbEntity
8
1
62
256
6
ByLayer
370
13
48
1
60
0
100
AcDbLine
10
268.324503
20
-2.453995
30
0
11
272.8
21
-2.453995
31
0
39
0
210
0
220
0
230
1
0
LINE
5
AF
100
AcDbEntity
8
1
62
256
6
ByLayer
370
18
48
1
60
0
100
AcDbLine
10
272.8
20
17.899495
30
0
11
272.8
21
11.899495
31
0
39
0
210
0
220
0
230
1
0
LINE
5
B0
100
AcDbEntity
8
1
62
256
6
ByLayer
370
13
48
1
60
0
100
AcDbLine
10
268.324503
20
12.453995
30
0
11
272.8
21
12.453995
31
0
39
0
210
0
220
0
230
1
0
LINE
5
B1
100
AcDbEntity
8
1
62
256
6
ByLayer
370
13
48
1
60
0
100
AcDbLine
10
268.324503
20
17.344995
30
0
11
272.8
21
17.344995
31
0
39
0
210
0
220
0
230
1
0
LINE
5
B2
100
AcDbEntity
8
1
62
256
6
ByLayer
370
18
48
1
60
0
100
AcDbLine
10
264
20
24.8
30
0
11
264
21
-24.8
31
0
39
0
210
0
220
0
230
1
0
LINE
5
B3
100
AcDbEntity
8
1
62
256
6
ByLayer
370
13
48
1
60
0
100
AcDbLine
10
263.8
20
25
30
0
11
263.8
21
-25
31
0
39
0
210
0
220
0
230
1
0
LINE
5
B4
100
AcDbEntity
8
1
62
256
6
ByLayer
370
13
48
1
60
0
100
AcDbLine
10
25
20
-25
30
0
11
25
21
25
31
0
39
0
210
0
220
0
230
1
0
LINE
5
B5
100
AcDbEntity
8
1
62
256
6
ByLayer
370
13
48
1
60
0
100
AcDbLine
10
13.461325
20
-9.349221
30
0
11
13.461325
21
-30.080593
31
0
39
0
210
0
220
0
230
1
0
LINE
5
B6
100
AcDbEntity
8
1
62
256
6
ByLayer
370
13
48
1
60
0
100
AcDbLine
10
13.894338
20
-9.869413
30
0
11
13.894338
21
-29.913955
31
0
39
0
210
0
220
0
230
1
0
LINE
5
B7
100
AcDbEntity
8
1
62
256
6
ByLayer
370
13
48
1
60
0
100
AcDbLine
10
10.105662
20
29.913955
30
0
11
10.105662
21
9.869413
31
0
39
0
210
0
220
0
230
1
0
LINE
5
B8
100
AcDbEntity
8
1
62
256
6
ByLayer
370
13
48
1
60
0
100
AcDbLine
10
10.538675
20
30.080593
30
0
11
10.538675
21
9.349221
31
0
39
0
210
0
220
0
230
1
0
LINE
5
B9
100
AcDbEntity
8
1
62
256
6
ByLayer
370
13
48
1
60
0
100
AcDbLine
10
10.105662
20
-9.869413
30
0
11
10.105662
21
-29.913955
31
0
39
0
210
0
220
0
230
1
0
LINE
5
BA
100
AcDbEntity
8
1
62
256
6
ByLayer
370
13
48
1
60
0
100
AcDbLine
10
10.538675
20
-9.349221
30
0
11
10.538675
21
-30.080593
31
0
39
0
210
0
220
0
230
1
0
LINE
5
BB
100
AcDbEntity
8
1
62
256
6
ByLayer
370
13
48
1
60
0
100
AcDbLine
10
13.461325
20
30.080593
30
0
11
13.461325
21
9.349221
31
0
39
0
210
0
220
0
230
1
0
LINE
5
BC
100
AcDbEntity
8
1
62
256
6
ByLayer
370
13
48
1
60
0
100
AcDbLine
10
13.894338
20
29.913955
30
0
11
13.894338
21
9.869413
31
0
39
0
210
0
220
0
230
1
0
LINE
5
BD
100
AcDbEntity
8
1
62
256
6
ByLayer
370
18
48
1
60
0
100
AcDbLine
10
0
20
-31.2
30
0
11
0
21
31.2
31
0
39
0
210
0
220
0
230
1
0
LINE
5
BE
100
AcDbEntity
8
1
62
256
6
ByLayer
370
18
48
1
60
0
100
AcDbLine
10
22
20
31
30
0
11
22
21
-31
31
0
39
0
210
0
220
0
230
1
0
LINE
5
BF
100
AcDbEntity
8
1
62
256
6
ByLayer
370
13
48
1
60
0
100
AcDbLine
10
21.5
20
31.5
30
0
11
21.5
21
-31.5
31
0
39
0
210
0
220
0
230
1
0
LINE
5
C0
100
AcDbEntity
8
1
62
256
6
ByLayer
370
18
48
1
60
0
100
AcDbLine
10
0.3
20
-31.5
30
0
11
0.3
21
31.5
31
0
39
0
210
0
220
0
230
1
0
LINE
5
C1
100
AcDbEntity
8
1
62
256
6
ByLayer
370
18
48
1
60
0
100
AcDbLine
10
13.461325
20
9.349221
30
0
11
10.538675
21
9.349221
31
0
39
0
210
0
220
0
230
1
0
LINE
5
C2
100
AcDbEntity
8
1
62
256
6
ByLayer
370
18
48
1
60
0
100
AcDbLine
10
10.538675
20
30.080593
30
0
11
13.461325
21
30.080593
31
0
39
0
210
0
220
0
230
1
0
LINE
5
C3
100
AcDbEntity
8
1
62
256
6
ByLayer
370
18
48
1
60
0
100
AcDbLine
10
10.538675
20
-9.349221
30
0
11
13.461325
21
-9.349221
31
0
39
0
210
0
220
0
230
1
0
LINE
5
C4
100
AcDbEntity
8
1
62
256
6
ByLayer
370
18
48
1
60
0
100
AcDbLine
10
13.461325
20
-30.080593
30
0
11
10.538675
21
-30.080593
31
0
39
0
210
0
220
0
230
1
0
LINE
5
C5
100
AcDbEntity
8
SK1
62
256
6
ByLayer
370
18
48
1
60
0
100
AcDbLine
10
-0.2
20
-7.034158
30
0
11
-0.2
21
-22.533485
31
0
39
0
210
0
220
0
230
1
0
LINE
5
C7
100
AcDbEntity
8
SK1
62
256
6
ByLayer
370
18
48
1
60
0
100
AcDbLine
10
-0.2
20
22.533485
30
0
11
-0.2
21
7.034161
31
0
39
0
210
0
220
0
230
1
0
LINE
5
C8
100
AcDbEntity
8
SK1
62
256
6
ByLayer
370
13
48
1
60
0
100
AcDbLine
10
-1.307107
20
4.811152
30
0
11
-1.307107
21
-4.811152
31
0
39
0
210
0
220
0
230
1
0
LINE
5
C9
100
AcDbEntity
8
1
62
256
6
ByLayer
370
13
48
1
60
0
100
AcDbLine
10
272.8
20
-1.899495
30
0
11
272.8
21
-4.899495
31
0
39
0
210
0
220
0
230
1
0
LINE
5
CA
100
AcDbEntity
8
1
62
256
6
ByLayer
370
13
48
1
60
0
100
AcDbLine
10
272.8
20
-4.899495
30
0
11
272.8
21
-7.899495
31
0
39
0
210
0
220
0
230
1
0
LINE
5
CB
100
AcDbEntity
8
1
62
256
6
ByLayer
370
18
48
1
60
0
100
AcDbLine
10
273
20
-9.899495
30
0
11
273
21
-4.899495
31
0
39
0
210
0
220
0
230
1
0
LINE
5
CC
100
AcDbEntity
8
1
62
256
6
ByLayer
370
18
48
1
60
0
100
AcDbLine
10
273
20
-4.899495
30
0
11
273
21
0.100505
31
0
39
0
210
0
220
0
230
1
0
LINE
5
CD
100
AcDbEntity
8
1
62
256
6
ByLayer
370
13
48
1
60
0
100
AcDbLine
10
278.4
20
0.100505
30
0
11
278.4
21
-4.899495
31
0
39
0
210
0
220
0
230
1
0
LINE
5
CE
100
AcDbEntity
8
1
62
256
6
ByLayer
370
13
48
1
60
0
100
AcDbLine
10
278.4
20
-4.899495
30
0
11
278.4
21
-9.899495
31
0
39
0
210
0
220
0
230
1
0
LINE
5
CF
100
AcDbEntity
8
1
62
256
6
ByLayer
370
18
48
1
60
0
100
AcDbLine
10
279
20
-9.299495
30
0
11
279
21
-4.899495
31
0
39
0
210
0
220
0
230
1
0
LINE
5
D0
100
AcDbEntity
8
1
62
256
6
ByLayer
370
18
48
1
60
0
100
AcDbLine
10
279
20
-4.899495
30
0
11
279
21
-0.499495
31
0
39
0
210
0
220
0
230
1
0
LINE
5
D1
100
AcDbEntity
8
1
62
256
6
ByLayer
370
18
48
1
60
0
100
AcDbLine
10
268.32476
20
-13.976857
30
0
11
268.32476
21
-13.887542
31
0
39
0
210
0
220
0
230
1
0
LINE
5
D2
100
AcDbEntity
8
1
62
256
6
ByLayer
370
18
48
1
60
0
100
AcDbLine
10
268.32476
20
23.887542
30
0
11
268.32476
21
23.976857
31
0
39
0
210
0
220
0
230
1
0
LINE
5
D3
100
AcDbEntity
8
1
62
256
6
ByLayer
370
13
48
1
60
0
100
AcDbLine
10
267.650481
20
-14.629489
30
0
11
267.650481
21
-14.602807
31
0
39
0
210
0
220
0
230
1
0
LINE
5
D4
100
AcDbEntity
8
1
62
256
6
ByLayer
370
13
48
1
60
0
100
AcDbLine
10
267.650481
20
24.602807
30
0
11
267.650481
21
24.629489
31
0
39
0
210
0
220
0
230
1
0
LINE
5
D5
100
AcDbEntity
8
1
62
256
6
ByLayer
370
18
48
1
60
0
100
AcDbLine
10
268.32476
20
23.662842
30
0
11
268.32476
21
23.842999
31
0
39
0
210
0
220
0
230
1
0
LINE
5
D6
100
AcDbEntity
8
1
62
256
6
ByLayer
370
18
48
1
60
0
100
AcDbLine
10
268.32476
20
-13.842999
30
0
11
268.32476
21
-13.662842
31
0
39
0
210
0
220
0
230
1
0
LINE
5
D7
100
AcDbEntity
8
1
62
256
6
ByLayer
370
13
48
1
60
0
100
AcDbLine
10
267.650481
20
-14.470143
30
0
11
267.650481
21
-14.416627
31
0
39
0
210
0
220
0
230
1
0
LINE
5
D8
100
AcDbEntity
8
1
62
256
6
ByLayer
370
13
48
1
60
0
100
AcDbLine
10
267.650481
20
24.416627
30
0
11
267.650481
21
24.470143
31
0
39
0
210
0
220
0
230
1
0
LINE
5
D9
100
AcDbEntity
8
1
62
256
6
ByLayer
370
18
48
1
60
0
100
AcDbLine
10
268.32476
20
-13.587525
30
0
11
268.32476
21
-13.31313
31
0
39
0
210
0
220
0
230
1
0
LINE
5
DA
100
AcDbEntity
8
1
62
256
6
ByLayer
370
18
48
1
60
0
100
AcDbLine
10
268.32476
20
23.31313
30
0
11
268.32476
21
23.587525
31
0
39
0
210
0
220
0
230
1
0
LINE
5
DB
100
AcDbEntity
8
1
62
256
6
ByLayer
370
13
48
1
60
0
100
AcDbLine
10
267.650481
20
-14.192605
30
0
11
267.650481
21
-14.111162
31
0
39
0
210
0
220
0
230
1
0
LINE
5
DC
100
AcDbEntity
8
1
62
256
6
ByLayer
370
13
48
1
60
0
100
AcDbLine
10
267.650481
20
24.111162
30
0
11
267.650481
21
24.192605
31
0
39
0
210
0
220
0
230
1
0
LINE
5
DD
100
AcDbEntity
8
1
62
256
6
ByLayer
370
18
48
1
60
0
100
AcDbLine
10
268.32476
20
-13.205318
30
0
11
268.32476
21
-12.830489
31
0
39
0
210
0
220
0
230
1
0
LINE
5
DE
100
AcDbEntity
8
1
62
256
6
ByLayer
370
18
48
1
60
0
100
AcDbLine
10
268.32476
20
22.830489
30
0
11
268.32476
21
23.205318
31
0
39
0
210
0
220
0
230
1
0
LINE
5
DF
100
AcDbEntity
8
1
62
256
6
ByLayer
370
13
48
1
60
0
100
AcDbLine
10
267.650481
20
-13.791639
30
0
11
267.650481
21
-13.680651
31
0
39
0
210
0
220
0
230
1
0
LINE
5
E0
100
AcDbEntity
8
1
62
256
6
ByLayer
370
13
48
1
60
0
100
AcDbLine
10
267.650481
20
23.680651
30
0
11
267.650481
21
23.791639
31
0
39
0
210
0
220
0
230
1
0
LINE
5
E1
100
AcDbEntity
8
1
62
256
6
ByLayer
370
18
48
1
60
0
100
AcDbLine
10
268.32476
20
22.204449
30
0
11
268.32476
21
22.688163
31
0
39
0
210
0
220
0
230
1
0
LINE
5
E2
100
AcDbEntity
8
1
62
256
6
ByLayer
370
18
48
1
60
0
100
AcDbLine
10
268.32476
20
-12.688163
30
0
11
268.32476
21
-12.204449
31
0
39
0
210
0
220
0
230
1
0
LINE
5
E3
100
AcDbEntity
8
1
62
256
6
ByLayer
370
13
48
1
60
0
100
AcDbLine
10
267.650481
20
23.116188
30
0
11
267.650481
21
23.259116
31
0
39
0
210
0
220
0
230
1
0
LINE
5
E4
100
AcDbEntity
8
1
62
256
6
ByLayer
370
13
48
1
60
0
100
AcDbLine
10
267.650481
20
-13.259116
30
0
11
267.650481
21
-13.116188
31
0
39
0
210
0
220
0
230
1
0
LINE
5
E5
100
AcDbEntity
8
1
62
256
6
ByLayer
370
18
48
1
60
0
100
AcDbLine
10
268.32476
20
21.418191
30
0
11
268.32476
21
22.023766
31
0
39
0
210
0
220
0
230
1
0
LINE
5
E6
100
AcDbEntity
8
1
62
256
6
ByLayer
370
18
48
1
60
0
100
AcDbLine
10
268.32476
20
-12.023766
30
0
11
268.32476
21
-11.418191
31
0
39
0
210
0
220
0
230
1
0
LINE
5
E7
100
AcDbEntity
8
1
62
256
6
ByLayer
370
13
48
1
60
0
100
AcDbLine
10
267.650481
20
22.404844
30
0
11
267.650481
21
22.583086
31
0
39
0
210
0
220
0
230
1
0
LINE
5
E8
100
AcDbEntity
8
1
62
256
6
ByLayer
370
13
48
1
60
0
100
AcDbLine
10
267.650481
20
-12.583086
30
0
11
267.650481
21
-12.404844
31
0
39
0
210
0
220
0
230
1
0
LINE
5
E9
100
AcDbEntity
8
1
62
256
6
ByLayer
370
18
48
1
60
0
100
AcDbLine
10
268.32476
20
20.447336
30
0
11
268.32476
21
21.194014
31
0
39
0
210
0
220
0
230
1
0
LINE
5
EA
100
AcDbEntity
8
1
62
256
6
ByLayer
370
18
48
1
60
0
100
AcDbLine
10
268.32476
20
-11.194014
30
0
11
268.32476
21
-10.447336
31
0
39
0
210
0
220
0
230
1
0
LINE
5
EB
100
AcDbEntity
8
1
62
256
6
ByLayer
370
13
48
1
60
0
100
AcDbLine
10
267.650481
20
21.527523
30
0
11
267.650481
21
21.74618
31
0
39
0
210
0
220
0
230
1
0
LINE
5
EC
100
AcDbEntity
8
1
62
256
6
ByLayer
370
13
48
1
60
0
100
AcDbLine
10
267.650481
20
-11.74618
30
0
11
267.650481
21
-11.527523
31
0
39
0
210
0
220
0
230
1
0
LINE
5
ED
100
AcDbEntity
8
1
62
256
6
ByLayer
370
18
48
1
60
0
100
AcDbLine
10
268.32476
20
19.254246
30
0
11
268.32476
21
20.171803
31
0
39
0
210
0
220
0
230
1
0
LINE
5
EE
100
AcDbEntity
8
1
62
256
6
ByLayer
370
18
48
1
60
0
100
AcDbLine
10
268.32476
20
-10.171803
30
0
11
268.32476
21
-9.254246
31
0
39
0
210
0
220
0
230
1
0
LINE
5
EF
100
AcDbEntity
8
1
62
256
6
ByLayer
370
13
48
1
60
0
100
AcDbLine
10
267.650481
20
-10.722727
30
0
11
267.650481
21
-10.456027
31
0
39
0
210
0
220
0
230
1
0
LINE
5
F0
100
AcDbEntity
8
1
62
256
6
ByLayer
370
13
48
1
60
0
100
AcDbLine
10
267.650481
20
20.456027
30
0
11
267.650481
21
20.722727
31
0
39
0
210
0
220
0
230
1
0
LINE
5
F1
100
AcDbEntity
8
1
62
256
6
ByLayer
370
18
48
1
60
0
100
AcDbLine
10
268.32476
20
17.776776
30
0
11
268.32476
21
18.91478
31
0
39
0
210
0
220
0
230
1
0
LINE
5
F2
100
AcDbEntity
8
1
62
256
6
ByLayer
370
18
48
1
60
0
100
AcDbLine
10
268.32476
20
-8.91478
30
0
11
268.32476
21
-7.776776
31
0
39
0
210
0
220
0
230
1
0
LINE
5
F3
100
AcDbEntity
8
1
62
256
6
ByLayer
370
13
48
1
60
0
100
AcDbLine
10
267.650481
20
-9.473209
30
0
11
267.650481
21
-9.146205
31
0
39
0
210
0
220
0
230
1
0
LINE
5
F4
100
AcDbEntity
8
1
62
256
6
ByLayer
370
13
48
1
60
0
100
AcDbLine
10
267.650481
20
19.146205
30
0
11
267.650481
21
19.473209
31
0
39
0
210
0
220
0
230
1
0
LINE
5
F5
100
AcDbEntity
8
1
62
256
6
ByLayer
370
18
48
1
60
0
100
AcDbLine
10
268.32476
20
-7.351461
30
0
11
268.32476
21
-5.899779
31
0
39
0
210
0
220
0
230
1
0
LINE
5
F6
100
AcDbEntity
8
1
62
256
6
ByLayer
370
18
48
1
60
0
100
AcDbLine
10
268.32476
20
15.899779
30
0
11
268.32476
21
17.351461
31
0
39
0
210
0
220
0
230
1
0
LINE
5
F7
100
AcDbEntity
8
1
62
256
6
ByLayer
370
13
48
1
60
0
100
AcDbLine
10
267.650481
20
-7.932262
30
0
11
267.650481
21
-7.523683
31
0
39
0
210
0
220
0
230
1
0
LINE
5
F8
100
AcDbEntity
8
1
62
256
6
ByLayer
370
13
48
1
60
0
100
AcDbLine
10
267.650481
20
17.523683
30
0
11
267.650481
21
17.932262
31
0
39
0
210
0
220
0
230
1
0
LINE
5
F9
100
AcDbEntity
8
1
62
256
6
ByLayer
370
18
48
1
60
0
100
AcDbLine
10
268.32476
20
-5.343892
30
0
11
268.32476
21
-3.358834
31
0
39
0
210
0
220
0
230
1
0
LINE
5
FA
100
AcDbEntity
8
1
62
256
6
ByLayer
370
18
48
1
60
0
100
AcDbLine
10
268.32476
20
13.358834
30
0
11
268.32476
21
15.343892
31
0
39
0
210
0
220
0
230
1
0
LINE
5
FB
100
AcDbEntity
8
1
62
256
6
ByLayer
370
13
48
1
60
0
100
AcDbLine
10
267.650481
20
-5.977842
30
0
11
267.650481
21
-5.444044
31
0
39
0
210
0
220
0
230
1
0
LINE
5
FC
100
AcDbEntity
8
1
62
256
6
ByLayer
370
13
48
1
60
0
100
AcDbLine
10
267.650481
20
15.444044
30
0
11
267.650481
21
15.977842
31
0
39
0
210
0
220
0
230
1
0
LINE
5
FD
100
AcDbEntity
8
1
62
256
6
ByLayer
370
18
48
1
60
0
100
AcDbLine
10
268.32476
20
-2.545435
30
0
11
268.32476
21
0.946215
31
0
39
0
210
0
220
0
230
1
0
LINE
5
FE
100
AcDbEntity
8
1
62
256
6
ByLayer
370
18
48
1
60
0
100
AcDbLine
10
268.32476
20
9.053785
30
0
11
268.32476
21
12.545435
31
0
39
0
210
0
220
0
230
1
0
LINE
5
FF
100
AcDbEntity
8
1
62
256
6
ByLayer
370
13
48
1
60
0
100
AcDbLine
10
267.650481
20
-3.323618
30
0
11
267.650481
21
-2.537296
31
0
39
0
210
0
220
0
230
1
0
LINE
5
100
100
AcDbEntity
8
1
62
256
6
ByLayer
370
13
48
1
60
0
100
AcDbLine
10
267.650481
20
12.537296
30
0
11
267.650481
21
13.323618
31
0
39
0
210
0
220
0
230
1
0
LINE
5
101
100
AcDbEntity
8
1
62
256
6
ByLayer
370
18
48
1
60
0
100
AcDbLine
10
268.32476
20
3.460164
30
0
11
268.32476
21
6.539836
31
0
39
0
210
0
220
0
230
1
0
LINE
5
102
100
AcDbEntity
8
1
62
256
6
ByLayer
370
13
48
1
60
0
100
AcDbLine
10
267.650481
20
1.318664
30
0
11
267.650481
21
4.790509
31
0
39
0
210
0
220
0
230
1
0
LINE
5
103
100
AcDbEntity
8
1
62
256
6
ByLayer
370
13
48
1
60
0
100
AcDbLine
10
267.650481
20
5.209491
30
0
11
267.650481
21
8.681336
31
0
39
0
210
0
220
0
230
1
0
LINE
5
104
100
AcDbEntity
8
1
62
256
6
ByLayer
370
18
48
1
60
0
100
AcDbLine
10
267.32476
20
-15
30
0
11
267.32476
21
25
31
0
39
0
210
0
220
0
230
1
0
LINE
5
105
100
AcDbEntity
8
1
62
256
6
ByLayer
370
18
48
1
60
0
100
AcDbLine
10
268.32476
20
-13.976857
30
0
11
268.32476
21
-13.991672
31
0
39
0
210
0
220
0
230
1
0
LINE
5
106
100
AcDbEntity
8
1
62
256
6
ByLayer
370
18
48
1
60
0
100
AcDbLine
10
268.32476
20
-13.842999
30
0
11
268.32476
21
-13.887723
31
0
39
0
210
0
220
0
230
1
0
LINE
5
107
100
AcDbEntity
8
1
62
256
6
ByLayer
370
18
48
1
60
0
100
AcDbLine
10
268.32476
20
-13.587525
30
0
11
268.32476
21
-13.663027
31
0
39
0
210
0
220
0
230
1
0
LINE
5
108
100
AcDbEntity
8
1
62
256
6
ByLayer
370
18
48
1
60
0
100
AcDbLine
10
268.32476
20
-13.205318
30
0
11
268.32476
21
-13.31314
31
0
39
0
210
0
220
0
230
1
0
LINE
5
109
100
AcDbEntity
8
1
62
256
6
ByLayer
370
18
48
1
60
0
100
AcDbLine
10
268.32476
20
-12.688163
30
0
11
268.32476
21
-12.830692
31
0
39
0
210
0
220
0
230
1
0
LINE
5
10A
100
AcDbEntity
8
1
62
256
6
ByLayer
370
18
48
1
60
0
100
AcDbLine
10
268.32476
20
-12.023766
30
0
11
268.32476
21
-12.204537
31
0
39
0
210
0
220
0
230
1
0
LINE
5
10B
100
AcDbEntity
8
1
62
256
6
ByLayer
370
18
48
1
60
0
100
AcDbLine
10
268.32476
20
-11.194014
30
0
11
268.32476
21
-11.41824
31
0
39
0
210
0
220
0
230
1
0
LINE
5
10C
100
AcDbEntity
8
1
62
256
6
ByLayer
370
18
48
1
60
0
100
AcDbLine
10
268.32476
20
-10.171803
30
0
11
268.32476
21
-10.447365
31
0
39
0
210
0
220
0
230
1
0
LINE
5
10D
100
AcDbEntity
8
1
62
256
6
ByLayer
370
18
48
1
60
0
100
AcDbLine
10
268.32476
20
-8.91478
30
0
11
268.32476
21
-9.254248
31
0
39
0
210
0
220
0
230
1
0
LINE
5
10E
100
AcDbEntity
8
1
62
256
6
ByLayer
370
18
48
1
60
0
100
AcDbLine
10
268.32476
20
-7.351461
30
0
11
268.32476
21
-7.776779
31
0
39
0
210
0
220
0
230
1
0
LINE
5
10F
100
AcDbEntity
8
1
62
256
6
ByLayer
370
18
48
1
60
0
100
AcDbLine
10
268.32476
20
-5.343892
30
0
11
268.32476
21
-5.899935
31
0
39
0
210
0
220
0
230
1
0
LINE
5
110
100
AcDbEntity
8
1
62
256
6
ByLayer
370
18
48
1
60
0
100
AcDbLine
10
268.32476
20
-2.545435
30
0
11
268.32476
21
-3.358893
31
0
39
0
210
0
220
0
230
1
0
LINE
5
111
100
AcDbEntity
8
1
62
256
6
ByLayer
370
18
48
1
60
0
100
AcDbLine
10
268.32476
20
3.460164
30
0
11
268.32476
21
0.946163
31
0
39
0
210
0
220
0
230
1
0
LINE
5
112
100
AcDbEntity
8
1
62
256
6
ByLayer
370
18
48
1
60
0
100
AcDbLine
10
268.32476
20
9.053837
30
0
11
268.32476
21
6.539836
31
0
39
0
210
0
220
0
230
1
0
LINE
5
113
100
AcDbEntity
8
1
62
256
6
ByLayer
370
18
48
1
60
0
100
AcDbLine
10
268.32476
20
13.358893
30
0
11
268.32476
21
12.545435
31
0
39
0
210
0
220
0
230
1
0
LINE
5
114
100
AcDbEntity
8
1
62
256
6
ByLayer
370
18
48
1
60
0
100
AcDbLine
10
268.32476
20
15.899935
30
0
11
268.32476
21
15.343892
31
0
39
0
210
0
220
0
230
1
0
LINE
5
115
100
AcDbEntity
8
1
62
256
6
ByLayer
370
18
48
1
60
0
100
AcDbLine
10
268.32476
20
17.776779
30
0
11
268.32476
21
17.351461
31
0
39
0
210
0
220
0
230
1
0
LINE
5
116
100
AcDbEntity
8
1
62
256
6
ByLayer
370
18
48
1
60
0
100
AcDbLine
10
268.32476
20
19.254248
30
0
11
268.32476
21
18.91478
31
0
39
0
210
0
220
0
230
1
0
LINE
5
117
100
AcDbEntity
8
1
62
256
6
ByLayer
370
18
48
1
60
0
100
AcDbLine
10
268.32476
20
20.447365
30
0
11
268.32476
21
20.171803
31
0
39
0
210
0
220
0
230
1
0
LINE
5
118
100
AcDbEntity
8
1
62
256
6
ByLayer
370
18
48
1
60
0
100
AcDbLine
10
268.32476
20
21.41824
30
0
11
268.32476
21
21.194014
31
0
39
0
210
0
220
0
230
1
0
LINE
5
119
100
AcDbEntity
8
1
62
256
6
ByLayer
370
18
48
1
60
0
100
AcDbLine
10
268.32476
20
22.204537
30
0
11
268.32476
21
22.023766
31
0
39
0
210
0
220
0
230
1
0
LINE
5
11A
100
AcDbEntity
8
1
62
256
6
ByLayer
370
18
48
1
60
0
100
AcDbLine
10
268.32476
20
22.830692
30
0
11
268.32476
21
22.688163
31
0
39
0
210
0
220
0
230
1
0
LINE
5
11B
100
AcDbEntity
8
1
62
256
6
ByLayer
370
18
48
1
60
0
100
AcDbLine
10
268.32476
20
23.31314
30
0
11
268.32476
21
23.205318
31
0
39
0
210
0
220
0
230
1
0
LINE
5
11C
100
AcDbEntity
8
1
62
256
6
ByLayer
370
18
48
1
60
0
100
AcDbLine
10
268.32476
20
23.663027
30
0
11
268.32476
21
23.587525
31
0
39
0
210
0
220
0
230
1
0
LINE
5
11D
100
AcDbEntity
8
1
62
256
6
ByLayer
370
18
48
1
60
0
100
AcDbLine
10
268.32476
20
23.887723
30
0
11
268.32476
21
23.842999
31
0
39
0
210
0
220
0
230
1
0
LINE
5
11E
100
AcDbEntity
8
1
62
256
6
ByLayer
370
18
48
1
60
0
100
AcDbLine
10
268.32476
20
23.991672
30
0
11
268.32476
21
23.976857
31
0
39
0
210
0
220
0
230
1
0
LINE
5
11F
100
AcDbEntity
8
1
62
256
6
ByLayer
370
13
48
1
60
0
100
AcDbLine
10
266.5
20
-15
30
0
11
266.5
21
22.536585
31
0
39
0
210
0
220
0
230
1
0
LINE
5
120
100
AcDbEntity
8
1
62
256
6
ByLayer
370
18
48
1
60
0
100
AcDbLine
10
264
20
24.8
30
0
11
264
21
-24.8
31
0
39
0
210
0
220
0
230
1
0
LINE
5
121
100
AcDbEntity
8
1
62
256
6
ByLayer
370
13
48
1
60
0
100
AcDbLine
10
264.2
20
25
30
0
11
264.2
21
-25
31
0
39
0
210
0
220
0
230
1
0
LINE
5
122
100
AcDbEntity
8
1
62
256
6
ByLayer
370
18
48
1
60
0
100
AcDbLine
10
266
20
-24.5
30
0
11
266
21
20.5
31
0
39
0
210
0
220
0
230
1
0
LINE
5
123
100
AcDbEntity
8
1
62
256
6
ByLayer
370
18
48
1
60
0
100
AcDbLine
10
265.5
20
-25
30
0
11
265.5
21
20.918367
31
0
39
0
210
0
220
0
230
1
0
LINE
5
124
100
AcDbEntity
8
1
62
256
6
ByLayer
370
13
48
1
60
0
100
AcDbLine
10
272.8
20
17.899495
30
0
11
272.8
21
11.899495
31
0
39
0
210
0
220
0
230
1
0
LINE
5
125
100
AcDbEntity
8
1
62
256
6
ByLayer
370
18
48
1
60
0
100
AcDbLine
10
279
20
19.299495
30
0
11
279
21
10.499495
31
0
39
0
210
0
220
0
230
1
0
LINE
5
126
100
AcDbEntity
8
1
62
256
6
ByLayer
370
13
48
1
60
0
100
AcDbLine
10
278.4
20
19.899495
30
0
11
278.4
21
9.899495
31
0
39
0
210
0
220
0
230
1
0
LINE
5
127
100
AcDbEntity
8
1
62
256
6
ByLayer
370
18
48
1
60
0
100
AcDbLine
10
273
20
19.899495
30
0
11
273
21
9.899495
31
0
39
0
210
0
220
0
230
1
0
LINE
5
128
100
AcDbEntity
8
1
62
256
6
ByLayer
370
18
48
1
60
0
100
AcDbLine
10
263.8
20
25
30
0
11
25
21
25
31
0
39
0
210
0
220
0
230
1
0
LINE
5
129
100
AcDbEntity
8
1
62
256
6
ByLayer
370
18
48
1
60
0
100
AcDbLine
10
25
20
-25
30
0
11
263.8
21
-25
31
0
39
0
210
0
220
0
230
1
0
LINE
5
12A
100
AcDbEntity
8
1
62
256
6
ByLayer
370
18
48
1
60
0
100
AcDbLine
10
0
20
-31.2
30
0
11
0.3
21
-31.5
31
0
39
0
210
0
220
0
230
1
0
LINE
5
12B
100
AcDbEntity
8
1
62
256
6
ByLayer
370
18
48
1
60
0
100
AcDbLine
10
0.3
20
31.5
30
0
11
0
21
31.2
31
0
39
0
210
0
220
0
230
1
0
LINE
5
12C
100
AcDbEntity
8
1
62
256
6
ByLayer
370
18
48
1
60
0
100
AcDbLine
10
21.5
20
31.5
30
0
11
0.3
21
31.5
31
0
39
0
210
0
220
0
230
1
0
LINE
5
12D
100
AcDbEntity
8
1
62
256
6
ByLayer
370
18
48
1
60
0
100
AcDbLine
10
0.3
20
-31.5
30
0
11
21.5
21
-31.5
31
0
39
0
210
0
220
0
230
1
0
LINE
5
12E
100
AcDbEntity
8
1
62
256
6
ByLayer
370
18
48
1
60
0
100
AcDbLine
10
268.324609
20
-7.899495
30
0
11
272.8
21
-7.899495
31
0
39
0
210
0
220
0
230
1
0
LINE
5
12F
100
AcDbEntity
8
1
62
256
6
ByLayer
370
18
48
1
60
0
100
AcDbLine
10
272.8
20
-1.899495
30
0
11
268.324609
21
-1.899495
31
0
39
0
210
0
220
0
230
1
0
LINE
5
130
100
AcDbEntity
8
1
62
256
6
ByLayer
370
18
48
1
60
0
100
AcDbLine
10
273
20
-9.899495
30
0
11
278.4
21
-9.899495
31
0
39
0
210
0
220
0
230
1
0
LINE
5
131
100
AcDbEntity
8
1
62
256
6
ByLayer
370
18
48
1
60
0
100
AcDbLine
10
278.4
20
0.100505
30
0
11
273
21
0.100505
31
0
39
0
210
0
220
0
230
1
0
LINE
5
132
100
AcDbEntity
8
1
62
256
6
ByLayer
370
18
48
1
60
0
100
AcDbLine
10
266.5
20
-15
30
0
11
267.32476
21
-15
31
0
39
0
210
0
220
0
230
1
0
LINE
5
133
100
AcDbEntity
8
1
62
256
6
ByLayer
370
18
48
1
60
0
100
AcDbLine
10
267.32476
20
25
30
0
11
266
21
25
31
0
39
0
210
0
220
0
230
1
0
LINE
5
134
100
AcDbEntity
8
1
62
256
6
ByLayer
370
18
48
1
60
0
100
AcDbLine
10
267.552123
20
24.772637
30
0
11
267.32476
21
25
31
0
39
0
210
0
220
0
230
1
0
LINE
5
135
100
AcDbEntity
8
1
62
256
6
ByLayer
370
18
48
1
60
0
100
AcDbLine
10
267.32476
20
-15
30
0
11
267.552123
21
-14.772637
31
0
39
0
210
0
220
0
230
1
0
LINE
5
136
100
AcDbEntity
8
1
62
256
6
ByLayer
370
18
48
1
60
0
100
AcDbLine
10
266.02
20
25
30
0
11
264.2
21
25
31
0
39
0
210
0
220
0
230
1
0
LINE
5
137
100
AcDbEntity
8
1
62
256
6
ByLayer
370
18
48
1
60
0
100
AcDbLine
10
264.2
20
-25
30
0
11
265.5
21
-25
31
0
39
0
210
0
220
0
230
1
0
LINE
5
138
100
AcDbEntity
8
1
62
256
6
ByLayer
370
18
48
1
60
0
100
AcDbLine
10
265.5
20
-25
30
0
11
266
21
-24.5
31
0
39
0
210
0
220
0
230
1
0
LINE
5
139
100
AcDbEntity
8
1
62
256
6
ByLayer
370
18
48
1
60
0
100
AcDbLine
10
268.324609
20
11.899495
30
0
11
272.8
21
11.899495
31
0
39
0
210
0
220
0
230
1
0
LINE
5
13A
100
AcDbEntity
8
1
62
256
6
ByLayer
370
18
48
1
60
0
100
AcDbLine
10
272.8
20
17.899495
30
0
11
268.324609
21
17.899495
31
0
39
0
210
0
220
0
230
1
0
LINE
5
13B
100
AcDbEntity
8
1
62
256
6
ByLayer
370
18
48
1
60
0
100
AcDbLine
10
273
20
9.899495
30
0
11
278.4
21
9.899495
31
0
39
0
210
0
220
0
230
1
0
LINE
5
13C
100
AcDbEntity
8
1
62
256
6
ByLayer
370
18
48
1
60
0
100
AcDbLine
10
278.4
20
19.899495
30
0
11
273
21
19.899495
31
0
39
0
210
0
220
0
230
1
0
LINE
5
13D
100
AcDbEntity
8
1
62
256
6
ByLayer
370
13
48
0.05
60
0
100
AcDbLine
10
270.3
20
0
30
0
11
-6.5
21
0
31
0
39
0
210
0
220
0
230
1
0
LINE
5
13E
100
AcDbEntity
8
SK2
62
256
6
ByLayer
370
18
48
1
60
0
100
AcDbLine
10
-44.6
20
-31.5
30
0
11
-44.6
21
31.5
31
0
39
0
210
0
220
0
230
1
0
LINE
5
140
100
AcDbEntity
8
SK2
62
256
6
ByLayer
370
18
48
1
60
0
100
AcDbLine
10
-1.2875
20
31.5
30
0
11
-46.6
21
31.5
31
0
39
0
210
0
220
0
230
1
0
LINE
5
141
100
AcDbEntity
8
SK2
62
256
6
ByLayer
370
18
48
1
60
0
100
AcDbLine
10
-1.2875
20
-31.5
30
0
11
-46.6
21
-31.5
31
0
39
0
210
0
220
0
230
1
0
LINE
5
142
100
AcDbEntity
8
1
62
256
6
ByLayer
370
18
48
1
60
1
100
AcDbLine
10
-44.6
20
31.5
30
0
11
-44.139216
21
28.000002
31
0
39
0
210
0
220
0
230
1
0
LINE
5
143
100
AcDbEntity
8
1
62
256
6
ByLayer
370
18
48
1
60
1
100
AcDbLine
10
-44.139216
20
28.000002
30
0
11
-45.060784
21
27.999998
31
0
39
0
210
0
220
0
230
1
0
LINE
5
144
100
AcDbEntity
8
1
62
256
6
ByLayer
370
18
48
1
60
1
100
AcDbLine
10
-45.060784
20
27.999998
30
0
11
-44.6
21
31.5
31
0
39
0
210
0
220
0
230
1
0
LINE
5
145
100
AcDbEntity
8
1
62
256
6
ByLayer
370
18
48
1
60
1
100
AcDbLine
10
-44.6
20
-31.5
30
0
11
-45.060784
21
-28.000002
31
0
39
0
210
0
220
0
230
1
0
LINE
5
146
100
AcDbEntity
8
1
62
256
6
ByLayer
370
18
48
1
60
1
100
AcDbLine
10
-45.060784
20
-28.000002
30
0
11
-44.139216
21
-27.999998
31
0
39
0
210
0
220
0
230
1
0
LINE
5
147
100
AcDbEntity
8
1
62
256
6
ByLayer
370
18
48
1
60
1
100
AcDbLine
10
-44.139216
20
-27.999998
30
0
11
-44.6
21
-31.5
31
0
39
0
210
0
220
0
230
1
0
LINE
5
148
100
AcDbEntity
8
SK2
62
256
6
ByLayer
370
18
48
1
60
0
100
AcDbLine
10
299.748181
20
-25
30
0
11
299.748181
21
25
31
0
39
0
210
0
220
0
230
1
0
LINE
5
149
100
AcDbEntity
8
SK2
62
256
6
ByLayer
370
18
48
1
60
0
100
AcDbLine
10
265.3875
20
25
30
0
11
301.748181
21
25
31
0
39
0
210
0
220
0
230
1
0
LINE
5
14A
100
AcDbEntity
8
SK2
62
256
6
ByLayer
370
18
48
1
60
0
100
AcDbLine
10
265.3875
20
-25
30
0
11
301.748181
21
-25
31
0
39
0
210
0
220
0
230
1
0
LINE
5
14B
100
AcDbEntity
8
1
62
256
6
ByLayer
370
18
48
1
60
1
100
AcDbLine
10
299.748181
20
25
30
0
11
300.208964
21
21.500002
31
0
39
0
210
0
220
0
230
1
0
LINE
5
14C
100
AcDbEntity
8
1
62
256
6
ByLayer
370
18
48
1
60
1
100
AcDbLine
10
300.208964
20
21.500002
30
0
11
299.287397
21
21.499998
31
0
39
0
210
0
220
0
230
1
0
LINE
5
14D
100
AcDbEntity
8
1
62
256
6
ByLayer
370
18
48
1
60
1
100
AcDbLine
10
299.287397
20
21.499998
30
0
11
299.748181
21
25
31
0
39
0
210
0
220
0
230
1
0
LINE
5
14E
100
AcDbEntity
8
1
62
256
6
ByLayer
370
18
48
1
60
1
100
AcDbLine
10
299.748181
20
-25
30
0
11
299.287397
21
-21.500002
31
0
39
0
210
0
220
0
230
1
0
LINE
5
14F
100
AcDbEntity
8
1
62
256
6
ByLayer
370
18
48
1
60
1
100
AcDbLine
10
299.287397
20
-21.500002
30
0
11
300.208964
21
-21.499998
31
0
39
0
210
0
220
0
230
1
0
LINE
5
150
100
AcDbEntity
8
1
62
256
6
ByLayer
370
18
48
1
60
1
100
AcDbLine
10
300.208964
20
-21.499998
30
0
11
299.748181
21
-25
31
0
39
0
210
0
220
0
230
1
0
LINE
5
151
100
AcDbEntity
8
SK2
62
256
6
ByLayer
370
13
48
1
60
0
100
AcDbLine
10
288.123181
20
25
30
0
11
288.123181
21
-15
31
0
39
0
210
0
220
0
230
1
0
LINE
5
152
100
AcDbEntity
8
SK2
62
256
6
ByLayer
370
13
48
1
60
0
100
AcDbLine
10
268.91226
20
-15
30
0
11
290.123181
21
-15
31
0
39
0
210
0
220
0
230
1
0
LINE
5
153
100
AcDbEntity
8
SK2
62
256
6
ByLayer
370
13
48
1
60
0
100
AcDbLine
10
268.91226
20
25
30
0
11
290.123181
21
25
31
0
39
0
210
0
220
0
230
1
0
LINE
5
154
100
AcDbEntity
8
1
62
256
6
ByLayer
370
18
48
1
60
1
100
AcDbLine
10
288.123181
20
-15
30
0
11
287.662397
21
-11.500002
31
0
39
0
210
0
220
0
230
1
0
LINE
5
155
100
AcDbEntity
8
1
62
256
6
ByLayer
370
18
48
1
60
1
100
AcDbLine
10
287.662397
20
-11.500002
30
0
11
288.583964
21
-11.499998
31
0
39
0
210
0
220
0
230
1
0
LINE
5
156
100
AcDbEntity
8
1
62
256
6
ByLayer
370
18
48
1
60
1
100
AcDbLine
10
288.583964
20
-11.499998
30
0
11
288.123181
21
-15
31
0
39
0
210
0
220
0
230
1
0
LINE
5
157
100
AcDbEntity
8
1
62
256
6
ByLayer
370
18
48
1
60
1
100
AcDbLine
10
288.123181
20
25
30
0
11
288.583964
21
21.500002
31
0
39
0
210
0
220
0
230
1
0
LINE
5
158
100
AcDbEntity
8
1
62
256
6
ByLayer
370
18
48
1
60
1
100
AcDbLine
10
288.583964
20
21.500002
30
0
11
287.662397
21
21.499998
31
0
39
0
210
0
220
0
230
1
0
LINE
5
159
100
AcDbEntity
8
1
62
256
6
ByLayer
370
18
48
1
60
1
100
AcDbLine
10
287.662397
20
21.499998
30
0
11
288.123181
21
25
31
0
39
0
210
0
220
0
230
1
0
LINE
5
15A
100
AcDbEntity
8
SK2
62
256
6
ByLayer
370
18
48
1
60
0
100
AcDbLine
10
0
20
37.1
30
0
11
268
21
37.1
31
0
39
0
210
0
220
0
230
1
0
LINE
5
15B
100
AcDbEntity
8
SK2
62
256
6
ByLayer
370
18
48
1
60
0
100
AcDbLine
10
268
20
26.5875
30
0
11
268
21
39.1
31
0
39
0
210
0
220
0
230
1
0
LINE
5
15C
100
AcDbEntity
8
SK2
62
256
6
ByLayer
370
18
48
1
60
0
100
AcDbLine
10
0
20
32.7875
30
0
11
0
21
39.1
31
0
39
0
210
0
220
0
230
1
0
LINE
5
15D
100
AcDbEntity
8
1
62
256
6
ByLayer
370
18
48
1
60
1
100
AcDbLine
10
268
20
37.1
30
0
11
264.500002
21
36.639216
31
0
39
0
210
0
220
0
230
1
0
LINE
5
15E
100
AcDbEntity
8
1
62
256
6
ByLayer
370
18
48
1
60
1
100
AcDbLine
10
264.500002
20
36.639216
30
0
11
264.499998
21
37.560784
31
0
39
0
210
0
220
0
230
1
0
LINE
5
15F
100
AcDbEntity
8
1
62
256
6
ByLayer
370
18
48
1
60
1
100
AcDbLine
10
264.499998
20
37.560784
30
0
11
268
21
37.1
31
0
39
0
210
0
220
0
230
1
0
LINE
5
160
100
AcDbEntity
8
1
62
256
6
ByLayer
370
18
48
1
60
1
100
AcDbLine
10
0
20
37.1
30
0
11
3.499998
21
37.560784
31
0
39
0
210
0
220
0
230
1
0
LINE
5
161
100
AcDbEntity
8
1
62
256
6
ByLayer
370
18
48
1
60
1
100
AcDbLine
10
3.499998
20
37.560784
30
0
11
3.500002
21
36.639216
31
0
39
0
210
0
220
0
230
1
0
LINE
5
162
100
AcDbEntity
8
1
62
256
6
ByLayer
370
18
48
1
60
1
100
AcDbLine
10
3.500002
20
36.639216
30
0
11
0
21
37.1
31
0
39
0
210
0
220
0
230
1
0
LINE
5
1F1
100
AcDbEntity
8
1
62
256
6
ByLayer
370
13
48
0.05
60
0
100
AcDbLine
10
255.05
20
-4.899495
30
0
11
279.3
21
-4.899495
31
0
39
0
210
0
220
0
230
1
0
LINE
5
1F2
100
AcDbEntity
8
1
62
256
6
ByLayer
370
13
48
0.05
60
0
100
AcDbLine
10
272.52
20
0
30
0
11
257.7
21
0
31
0
39
0
210
0
220
0
230
1
0
LINE
5
1F3
100
AcDbEntity
8
1
62
256
6
ByLayer
370
13
48
0.05
60
0
100
AcDbLine
10
259.330172
20
5
30
0
11
274.82476
21
5
31
0
39
0
210
0
220
0
230
1
0
LINE
5
1F4
100
AcDbEntity
8
1
62
256
6
ByLayer
370
13
48
0.05
60
0
100
AcDbLine
10
255.05
20
14.899495
30
0
11
279.3
21
14.899495
31
0
39
0
210
0
220
0
230
1
0
LINE
5
1F9
100
AcDbEntity
8
1
62
256
6
ByLayer
370
18
48
1
60
1
100
AcDbLine
10
-44.6
20
31.5
30
0
11
-44.139216
21
28.000002
31
0
39
0
210
0
220
0
230
1
0
LINE
5
1FA
100
AcDbEntity
8
1
62
256
6
ByLayer
370
18
48
1
60
1
100
AcDbLine
10
-44.139216
20
28.000002
30
0
11
-45.060784
21
27.999998
31
0
39
0
210
0
220
0
230
1
0
LINE
5
1FB
100
AcDbEntity
8
1
62
256
6
ByLayer
370
18
48
1
60
1
100
AcDbLine
10
-45.060784
20
27.999998
30
0
11
-44.6
21
31.5
31
0
39
0
210
0
220
0
230
1
0
LINE
5
1FD
100
AcDbEntity
8
1
62
256
6
ByLayer
370
18
48
1
60
1
100
AcDbLine
10
-44.6
20
-31.5
30
0
11
-45.060784
21
-28.000002
31
0
39
0
210
0
220
0
230
1
0
LINE
5
1FE
100
AcDbEntity
8
1
62
256
6
ByLayer
370
18
48
1
60
1
100
AcDbLine
10
-45.060784
20
-28.000002
30
0
11
-44.139216
21
-27.999998
31
0
39
0
210
0
220
0
230
1
0
LINE
5
1FF
100
AcDbEntity
8
1
62
256
6
ByLayer
370
18
48
1
60
1
100
AcDbLine
10
-44.139216
20
-27.999998
30
0
11
-44.6
21
-31.5
31
0
39
0
210
0
220
0
230
1
0
LINE
5
203
100
AcDbEntity
8
1
62
256
6
ByLayer
370
18
48
1
60
1
100
AcDbLine
10
299.748181
20
25
30
0
11
300.208964
21
21.500002
31
0
39
0
210
0
220
0
230
1
0
LINE
5
204
100
AcDbEntity
8
1
62
256
6
ByLayer
370
18
48
1
60
1
100
AcDbLine
10
300.208964
20
21.500002
30
0
11
299.287397
21
21.499998
31
0
39
0
210
0
220
0
230
1
0
LINE
5
205
100
AcDbEntity
8
1
62
256
6
ByLayer
370
18
48
1
60
1
100
AcDbLine
10
299.287397
20
21.499998
30
0
11
299.748181
21
25
31
0
39
0
210
0
220
0
230
1
0
LINE
5
207
100
AcDbEntity
8
1
62
256
6
ByLayer
370
18
48
1
60
1
100
AcDbLine
10
299.748181
20
-25
30
0
11
299.287397
21
-21.500002
31
0
39
0
210
0
220
0
230
1
0
LINE
5
208
100
AcDbEntity
8
1
62
256
6
ByLayer
370
18
48
1
60
1
100
AcDbLine
10
299.287397
20
-21.500002
30
0
11
300.208964
21
-21.499998
31
0
39
0
210
0
220
0
230
1
0
LINE
5
209
100
AcDbEntity
8
1
62
256
6
ByLayer
370
18
48
1
60
1
100
AcDbLine
10
300.208964
20
-21.499998
30
0
11
299.748181
21
-25
31
0
39
0
210
0
220
0
230
1
0
LINE
5
20F
100
AcDbEntity
8
1
62
256
6
ByLayer
370
18
48
1
60
1
100
AcDbLine
10
288.123181
20
-15
30
0
11
287.662397
21
-11.500002
31
0
39
0
210
0
220
0
230
1
0
LINE
5
210
100
AcDbEntity
8
1
62
256
6
ByLayer
370
18
48
1
60
1
100
AcDbLine
10
287.662397
20
-11.500002
30
0
11
288.583964
21
-11.499998
31
0
39
0
210
0
220
0
230
1
0
LINE
5
211
100
AcDbEntity
8
1
62
256
6
ByLayer
370
18
48
1
60
1
100
AcDbLine
10
288.583964
20
-11.499998
30
0
11
288.123181
21
-15
31
0
39
0
210
0
220
0
230
1
0
LINE
5
213
100
AcDbEntity
8
1
62
256
6
ByLayer
370
18
48
1
60
1
100
AcDbLine
10
288.123181
20
25
30
0
11
288.583964
21
21.500002
31
0
39
0
210
0
220
0
230
1
0
LINE
5
214
100
AcDbEntity
8
1
62
256
6
ByLayer
370
18
48
1
60
1
100
AcDbLine
10
288.583964
20
21.500002
30
0
11
287.662397
21
21.499998
31
0
39
0
210
0
220
0
230
1
0
LINE
5
215
100
AcDbEntity
8
1
62
256
6
ByLayer
370
18
48
1
60
1
100
AcDbLine
10
287.662397
20
21.499998
30
0
11
288.123181
21
25
31
0
39
0
210
0
220
0
230
1
0
LINE
5
218
100
AcDbEntity
8
1
62
256
6
ByLayer
370
18
48
1
60
1
100
AcDbLine
10
268
20
37.1
30
0
11
264.500002
21
36.639216
31
0
39
0
210
0
220
0
230
1
0
LINE
5
219
100
AcDbEntity
8
1
62
256
6
ByLayer
370
18
48
1
60
1
100
AcDbLine
10
264.500002
20
36.639216
30
0
11
264.499998
21
37.560784
31
0
39
0
210
0
220
0
230
1
0
LINE
5
21A
100
AcDbEntity
8
1
62
256
6
ByLayer
370
18
48
1
60
1
100
AcDbLine
10
264.499998
20
37.560784
30
0
11
268
21
37.1
31
0
39
0
210
0
220
0
230
1
0
LINE
5
21C
100
AcDbEntity
8
1
62
256
6
ByLayer
370
18
48
1
60
1
100
AcDbLine
10
0
20
37.1
30
0
11
3.499998
21
37.560784
31
0
39
0
210
0
220
0
230
1
0
LINE
5
21D
100
AcDbEntity
8
1
62
256
6
ByLayer
370
18
48
1
60
1
100
AcDbLine
10
3.499998
20
37.560784
30
0
11
3.500002
21
36.639216
31
0
39
0
210
0
220
0
230
1
0
LINE
5
21E
100
AcDbEntity
8
1
62
256
6
ByLayer
370
18
48
1
60
1
100
AcDbLine
10
3.500002
20
36.639216
30
0
11
0
21
37.1
31
0
39
0
210
0
220
0
230
1
0
MTEXT
5
1F5
100
AcDbEntity
8
SK2
62
256
6
ByLayer
370
18
48
1
60
0
100
AcDbMText
10
-46.164634
20
-4.530622
30
0
210
0
220
0
230
1
1
%%c
40
3.5
41
0
44
1.084337
50
90
71
7
72
5
7
iso_b_vert
0
MTEXT
5
1F8
100
AcDbEntity
8
SK2
62
256
6
ByLayer
370
18
48
1
60
0
100
AcDbMText
10
-46.164634
20
2.442034
30
0
210
0
220
0
230
1
1
\W0.6740;63
40
3.5
41
0
44
1.084337
50
90
71
7
72
5
7
iso_b_vert
0
MTEXT
5
201
100
AcDbEntity
8
SK2
62
256
6
ByLayer
370
18
48
1
60
0
100
AcDbMText
10
298.183547
20
-4.530622
30
0
210
0
220
0
230
1
1
%%c
40
3.5
41
0
44
1.084337
50
90
71
7
72
5
7
iso_b_vert
0
MTEXT
5
202
100
AcDbEntity
8
SK2
62
256
6
ByLayer
370
18
48
1
60
0
100
AcDbMText
10
298.183547
20
2.442034
30
0
210
0
220
0
230
1
1
\W0.6740;50
40
3.5
41
0
44
1.084337
50
90
71
7
72
5
7
iso_b_vert
0
MTEXT
5
20B
100
AcDbEntity
8
SK2
62
256
6
ByLayer
370
18
48
1
60
0
100
AcDbMText
10
285.902297
20
11.807233
30
0
210
0
220
0
230
1
1
\W1.1313;{\H1.88x;)}
40
3.5
41
0
44
1.084337
50
90
71
7
72
5
7
iso_b_vert
0
MTEXT
5
20C
100
AcDbEntity
8
SK2
62
256
6
ByLayer
370
18
48
1
60
0
100
AcDbMText
10
285.902297
20
-3.942233
30
0
210
0
220
0
230
1
1
\W1.1313;{\H1.88x;(}
40
3.5
41
0
44
1.084337
50
90
71
7
72
5
7
iso_b_vert
0
MTEXT
5
20D
100
AcDbEntity
8
SK2
62
256
6
ByLayer
370
18
48
1
60
0
100
AcDbMText
10
285.902297
20
0.285111
30
0
210
0
220
0
230
1
1
%%c
40
3.5
41
0
44
1.084337
50
90
71
7
72
5
7
iso_b_vert
0
MTEXT
5
20E
100
AcDbEntity
8
SK2
62
256
6
ByLayer
370
18
48
1
60
0
100
AcDbMText
10
285.902297
20
7.257767
30
0
210
0
220
0
230
1
1
\W0.7361;40
40
3.5
41
0
44
1.084337
50
90
71
7
72
5
7
iso_b_vert
0
MTEXT
5
217
100
AcDbEntity
8
SK2
62
256
6
ByLayer
370
18
48
1
60
0
100
AcDbMText
10
130.787301
20
38.132634
30
0
210
0
220
0
230
1
1
\W0.7138;268
40
3.5
41
0
44
1.084337
50
0
71
7
72
5
7
iso_b_vert
0
MTEXT
5
220
100
AcDbEntity
8
SK6
62
256
6
ByLayer
370
18
48
1
60
0
100
AcDbMText
10
97.267894
20
-57.067366
30
0
210
0
220
0
230
1
1
\W0.7674;HT30D-C6 50 268R40
40
3.5
41
0
44
1.084337
50
0
71
7
72
5
7
iso_b_vert
0
HATCH
5
1FC
100
AcDbEntity
8
SK2
62
256
6
ByLayer
370
13
48
1
60
0
100
AcDbHatch
10
0
20
0
30
0
210
0
220
0
230
1
2
ANSI31
70
0
71
0
91
1
92
5
93
3
72
1
10
-44.6000000000001
20
31.4999999999999
11
-44.1392162584473
21
28.0000016925531
72
1
10
-44.1392162584473
20
28.0000016925531
11
-45.0607837415529
21
27.9999983074467
72
1
10
-45.0607837415529
20
27.9999983074467
11
-44.6000000000001
21
31.4999999999999
97
0
75
0
76
1
52
0
41
0.0062
77
0
78
1
53
45
43
0
44
0
45
-0.0139193969876572
46
0.0139193969876572
79
0
47
0
98
1
10
0
20
0
0
HATCH
5
200
100
AcDbEntity
8
SK2
62
256
6
ByLayer
370
13
48
1
60
0
100
AcDbHatch
10
0
20
0
30
0
210
0
220
0
230
1
2
ANSI31
70
0
71
0
91
1
92
5
93
3
72
1
10
-44.6000000000001
20
-31.5000000000001
11
-45.0607837415529
21
-28.0000016925533
72
1
10
-45.0607837415529
20
-28.0000016925533
11
-44.1392162584473
21
-27.9999983074469
72
1
10
-44.1392162584473
20
-27.9999983074469
11
-44.6000000000001
21
-31.5000000000001
97
0
75
0
76
1
52
0
41
0.0062
77
0
78
1
53
45
43
0
44
0
45
-0.0139193969876572
46
0.0139193969876572
79
0
47
0
98
1
10
0
20
0
0
HATCH
5
206
100
AcDbEntity
8
SK2
62
256
6
ByLayer
370
13
48
1
60
0
100
AcDbHatch
10
0
20
0
30
0
210
0
220
0
230
1
2
ANSI31
70
0
71
0
91
1
92
5
93
3
72
1
10
299.748180566759
20
24.999999999999
11
300.208964308312
21
21.5000016925522
72
1
10
300.208964308312
20
21.5000016925522
11
299.287396825206
21
21.4999983074459
72
1
10
299.287396825206
20
21.4999983074459
11
299.748180566759
21
24.999999999999
97
0
75
0
76
1
52
0
41
0.0062
77
0
78
1
53
45
43
0
44
0
45
-0.0139193969876572
46
0.0139193969876572
79
0
47
0
98
1
10
0
20
0
0
HATCH
5
20A
100
AcDbEntity
8
SK2
62
256
6
ByLayer
370
13
48
1
60
0
100
AcDbHatch
10
0
20
0
30
0
210
0
220
0
230
1
2
ANSI31
70
0
71
0
91
1
92
5
93
3
72
1
10
299.748180566759
20
-25.000000000001
11
299.287396825206
21
-21.5000016925542
72
1
10
299.287396825206
20
-21.5000016925542
11
300.208964308312
21
-21.4999983074478
72
1
10
300.208964308312
20
-21.4999983074478
11
299.748180566759
21
-25.000000000001
97
0
75
0
76
1
52
0
41
0.0062
77
0
78
1
53
45
43
0
44
0
45
-0.0139193969876572
46
0.0139193969876572
79
0
47
0
98
1
10
0
20
0
0
HATCH
5
212
100
AcDbEntity
8
SK2
62
256
6
ByLayer
370
13
48
1
60
0
100
AcDbHatch
10
0
20
0
30
0
210
0
220
0
230
1
2
ANSI31
70
0
71
0
91
1
92
5
93
3
72
1
10
288.123180566759
20
-15.000000000001
11
287.662396825206
21
-11.5000016925542
72
1
10
287.662396825206
20
-11.5000016925542
11
288.583964308312
21
-11.4999983074478
72
1
10
288.583964308312
20
-11.4999983074478
11
288.123180566759
21
-15.000000000001
97
0
75
0
76
1
52
0
41
0.0062
77
0
78
1
53
45
43
0
44
0
45
-0.0139193969876572
46
0.0139193969876572
79
0
47
0
98
1
10
0
20
0
0
HATCH
5
216
100
AcDbEntity
8
SK2
62
256
6
ByLayer
370
13
48
1
60
0
100
AcDbHatch
10
0
20
0
30
0
210
0
220
0
230
1
2
ANSI31
70
0
71
0
91
1
92
5
93
3
72
1
10
288.123180566759
20
24.999999999999
11
288.583964308312
21
21.5000016925522
72
1
10
288.583964308312
20
21.5000016925522
11
287.662396825206
21
21.4999983074458
72
1
10
287.662396825206
20
21.4999983074458
11
288.123180566759
21
24.999999999999
97
0
75
0
76
1
52
0
41
0.0062
77
0
78
1
53
45
43
0
44
0
45
-0.0139193969876572
46
0.0139193969876572
79
0
47
0
98
1
10
0
20
0
0
HATCH
5
21B
100
AcDbEntity
8
SK2
62
256
6
ByLayer
370
13
48
1
60
0
100
AcDbHatch
10
0
20
0
30
0
210
0
220
0
230
1
2
ANSI31
70
0
71
0
91
1
92
5
93
3
72
1
10
268
20
37.1000000000001
11
264.500001692553
21
36.6392162584474
72
1
10
264.500001692553
20
36.6392162584474
11
264.499998307447
21
37.5607837415529
72
1
10
264.499998307447
20
37.5607837415529
11
268
21
37.1000000000001
97
0
75
0
76
1
52
0
41
0.0062
77
0
78
1
53
45
43
0
44
0
45
-0.0139193969876572
46
0.0139193969876572
79
0
47
0
98
1
10
0
20
0
0
HATCH
5
21F
100
AcDbEntity
8
SK2
62
256
6
ByLayer
370
13
48
1
60
0
100
AcDbHatch
10
0
20
0
30
0
210
0
220
0
230
1
2
ANSI31
70
0
71
0
91
1
92
5
93
3
72
1
10
0
20
37.1000000000001
11
3.4999983074468
21
37.5607837415529
72
1
10
3.4999983074468
20
37.5607837415529
11
3.5000016925532
21
36.6392162584474
72
1
10
3.5000016925532
20
36.6392162584474
11
0
21
37.1000000000001
97
0
75
0
76
1
52
0
41
0.0062
77
0
78
1
53
45
43
0
44
0
45
-0.0139193969876572
46
0.0139193969876572
79
0
47
0
98
1
10
0
20
0
0
DIMENSION
5
223
100
AcDbEntity
8
SK2
62
256
6
ByLayer
370
18
48
1
60
0
100
AcDbDimension
2
_U0
10
268
20
-44.6
30
0
11
146.5
21
-44.6
31
0
70
32
71
1
72
1
41
1
210
0
220
0
230
1
3
Standard
100
AcDbAlignedDimension
13
25
23
-25
33
0
14
268
24
25
34
0
50
0
100
AcDbRotatedDimension
1001
ACAD
1000
DSTYLE
1002
{
1070
   371
1070
    13
1070
   372
1070
    13
1070
   170
1070
     0
1070
   144
1040
1.0
1070
   277
1070
     2
1070
   284
1070
     8
1070
   278
1070
    46
1070
   146
1040
1.0
1070
   345
1005
16
1070
   347
1005
16
1070
   346
1005
16
1070
   344
1005
0
1070
   343
1005
0
1070
   172
1070
     1
1070
    76
1070
     0
1070
    75
1070
     0
1070
   282
1070
     0
1070
   281
1070
     0
1070
    71
1070
     0
1070
    74
1070
     0
1070
   279
1070
     0
1070
   173
1070
     1
1070
   340
1005
1F6
1070
   271
1070
     2
1070
   272
1070
     2
1070
    77
1070
     1
1070
    73
1070
     1
1070
   171
1070
     3
1070
   274
1070
     4
1070
   177
1070
     2
1070
   176
1070
     2
1070
   178
1070
     2
1070
    78
1070
     8
1070
    48
1040
-0.1
1070
    41
1040
3.5
1070
   147
1040
1.75
1070
    42
1040
1.5875
1070
    44
1040
2.0
1070
   140
1040
3.5
1002
}
1001
ACAD_DSTYLE_DIM_LINETYPE
1070
   380
1005
16
1001
ACAD_DSTYLE_DIM_EXT1_LINETYPE
1070
   381
1005
16
1001
ACAD_DSTYLE_DIM_EXT2_LINETYPE
1070
   382
1005
16
0
ENDSEC
0
SECTION
2
OBJECTS
0
DICTIONARY
5
2ac
330
0
100
AcDbDictionary
280
0
281
1
3
ACAD_GROUP
350
2ad
3
ACAD_MLINESTYLE
350
2ae
0
DICTIONARY
5
2ad
330
0
100
AcDbDictionary
280
0
281
1
0
DICTIONARY
5
2ae
330
0
100
AcDbDictionary
280
0
281
1
3
Standard
350
18
0
MLINESTYLE
5
18
330
2ae
100
AcDbMlineStyle
2
Standard
70
0
3

62
256
51
90
52
90
71
2
49
-0.5
62
256
6
ByLayer
49
0.5
62
256
6
ByLayer
0
RASTERVARIABLES
5
29a
330

100
AcDbRasterVariables
90
0
70
1
71
1
72
1
0
ENDSEC
0
EOF
