0
SECTION
2
HEADER
9
$ACADVER
1
AC1015
9
$DWGCODEPAGE
3
ANSI_1252
9
$HANDSEED
5
290
9
$ANGBASE
50
0
9
$ANGDIR
70
0
9
$ATTMODE
70
1
9
$AUNITS
70
0
9
$AUPREC
70
0
9
$CECOLOR
62
256
9
$CELTSCALE
40
1
9
$CELTYPE
6
ByLayer
9
$CELWEIGHT
370
18
9
$CLAYER
8
0
9
$CMLJUST
70
0
9
$CMLSCALE
40
1
9
$CMLSTYLE
2
Standard
9
$DIMSTYLE
2
Standard
9
$TEXTSIZE
40
0.2
9
$TEXTSTYLE
7
Standard
9
$LUNITS
70
2
9
$LUPREC
70
4
9
$EXTNAMES
290
1
9
$INSUNITS
70
4
9
$LTSCALE
40
1
9
$LWDISPLAY
290
1
9
$PDMODE
70
0
9
$PDSIZE
40
0
9
$PLINEGEN
70
0
0
ENDSEC
0
SECTION
2
CLASSES
0
CLASS
1
RASTERVARIABLES
2
AcDbRasterVariables
3
ISM
90
0
280
0
281
0
0
ENDSEC
0
SECTION
2
TABLES
0
TABLE
2
VPORT
5
286
100
AcDbSymbolTable
0
VPORT
5
1
100
AcDbSymbolTableRecord
100
AcDbViewportTableRecord
2
*Active
70
0
10
0
20
0
11
1
21
1
12
-1
22
1
13
0
23
0
14
0.5
24
0.5
15
10
25
10
16
0
26
0
36
1
17
0
27
0
37
0
0
ENDTAB
0
TABLE
2
LTYPE
5
287
100
AcDbSymbolTable
0
LTYPE
5
14
100
AcDbSymbolTableRecord
100
AcDbLinetypeTableRecord
70
0
2
ByBlock
3

72
65
73
0
40
0
0
LTYPE
5
15
100
AcDbSymbolTableRecord
100
AcDbLinetypeTableRecord
70
0
2
ByLayer
3

72
65
73
0
40
0
0
LTYPE
5
16
100
AcDbSymbolTableRecord
100
AcDbLinetypeTableRecord
70
0
2
Continuous
3
Solid line
72
65
73
0
40
0
0
LTYPE
5
6E
100
AcDbSymbolTableRecord
100
AcDbLinetypeTableRecord
70
0
2
CENTER
3
____ _ ____ _ ____ _ ____
72
65
73
4
40
47.5
49
22
74
0
49
-8.5
74
0
49
8.5
74
0
49
-8.5
74
0
0
LTYPE
5
6F
100
AcDbSymbolTableRecord
100
AcDbLinetypeTableRecord
70
0
2
DASHED
3
__ __ __ __ __ __ __ __ __
72
65
73
2
40
25.72
49
12.86
74
0
49
-12.86
74
0
0
ENDTAB
0
TABLE
2
LAYER
5
288
100
AcDbSymbolTable
0
LAYER
5
10
100
AcDbSymbolTableRecord
100
AcDbLayerTableRecord
2
0
70
0
62
7
6
Continuous
290
1
370
-3
390
0
0
LAYER
5
71
100
AcDbSymbolTableRecord
100
AcDbLayerTableRecord
2
2
70
0
62
7
6
Continuous
290
1
370
-3
390
0
0
LAYER
5
98
100
AcDbSymbolTableRecord
100
AcDbLayerTableRecord
2
80
70
0
62
-6
6
Continuous
290
1
370
-3
390
0
0
LAYER
5
9A
100
AcDbSymbolTableRecord
100
AcDbLayerTableRecord
2
81
70
0
62
-3
6
Continuous
290
1
370
-3
390
0
0
LAYER
5
9C
100
AcDbSymbolTableRecord
100
AcDbLayerTableRecord
2
1
70
0
62
4
6
Continuous
290
1
370
-3
390
0
0
LAYER
5
A6
100
AcDbSymbolTableRecord
100
AcDbLayerTableRecord
2
4
70
0
62
-2
6
CENTER
290
1
370
-3
390
0
0
LAYER
5
1FD
100
AcDbSymbolTableRecord
100
AcDbLayerTableRecord
2
Defpoints
70
0
62
7
6
Continuous
290
0
370
-3
390
0
0
LAYER
5
272
100
AcDbSymbolTableRecord
100
AcDbLayerTableRecord
2
SK4
70
0
62
2
6
CENTER
290
1
370
-3
390
0
0
LAYER
5
273
100
AcDbSymbolTableRecord
100
AcDbLayerTableRecord
2
SK1
70
0
62
4
6
Continuous
290
1
370
-3
390
0
0
LAYER
5
274
100
AcDbSymbolTableRecord
100
AcDbLayerTableRecord
2
SK2
70
0
62
7
6
Continuous
290
1
370
-3
390
0
0
LAYER
5
275
100
AcDbSymbolTableRecord
100
AcDbLayerTableRecord
2
SK6
70
0
62
5
6
Continuous
290
1
370
-3
390
0
0
ENDTAB
0
TABLE
2
STYLE
5
289
100
AcDbSymbolTable
0
STYLE
5
11
100
AcDbSymbolTableRecord
100
AcDbTextStyleTableRecord
2
Standard
3
txt
70
0
71
0
40
0
41
1
42
0
50
0
0
STYLE
5
1D9
100
AcDbSymbolTableRecord
100
AcDbTextStyleTableRecord
2
iso_b_vert
3
simplex.shx
70
0
71
0
40
0
41
1
42
0
50
0
0
STYLE
5
1DA
100
AcDbSymbolTableRecord
100
AcDbTextStyleTableRecord
2
DWGDirectTextStyle
3
simplex
70
0
71
0
40
0
41
1
42
0
50
0
0
ENDTAB
0
TABLE
2
DIMSTYLE
5
28a
100
AcDbSymbolTable
100
AcDbDimStyleTable
0
DIMSTYLE
105
27
100
AcDbSymbolTableRecord
100
AcDbDimStyleTableRecord
2
Standard
70
0
3
<>
41
0.18
42
0.0625
44
0.18
140
0.18
147
0.09
73
0
74
0
77
1
271
2
275
0
278
52
280
0
340
11
0
ENDTAB
0
TABLE
2
VIEW
5
28b
100
AcDbSymbolTable
0
ENDTAB
0
TABLE
2
UCS
5
28c
100
AcDbSymbolTable
0
ENDTAB
0
TABLE
2
APPID
5
28d
100
AcDbSymbolTable
0
APPID
5
12
100
AcDbSymbolTableRecord
100
AcDbRegAppTableRecord
2
ACAD
70
0
0
APPID
5
1F9
100
AcDbSymbolTableRecord
100
AcDbRegAppTableRecord
2
ACAD_DSTYLE_DIMBREAK
70
0
0
APPID
5
231
100
AcDbSymbolTableRecord
100
AcDbRegAppTableRecord
2
ACAD_DSTYLE_DIM_LINETYPE
70
0
0
APPID
5
232
100
AcDbSymbolTableRecord
100
AcDbRegAppTableRecord
2
ACAD_DSTYLE_DIM_EXT1_LINETYPE
70
0
0
APPID
5
233
100
AcDbSymbolTableRecord
100
AcDbRegAppTableRecord
2
ACAD_DSTYLE_DIM_EXT2_LINETYPE
70
0
0
APPID
5
26E
100
AcDbSymbolTableRecord
100
AcDbRegAppTableRecord
2
ACAD_MLEADERVER
70
0
0
ENDTAB
0
TABLE
2
BLOCK_RECORD
5
28e
100
AcDbSymbolTable
0
BLOCK_RECORD
5
1F
100
AcDbSymbolTableRecord
100
AcDbBlockTableRecord
2
*Model_Space
340
0
70
0
0
BLOCK_RECORD
5
1B
100
AcDbSymbolTableRecord
100
AcDbBlockTableRecord
2
*Paper_Space
340
0
70
0
0
BLOCK_RECORD
5
23
100
AcDbSymbolTableRecord
100
AcDbBlockTableRecord
2
*Paper_Space0
340
0
70
0
0
BLOCK_RECORD
5
1FE
100
AcDbSymbolTableRecord
100
AcDbBlockTableRecord
2
*D1
340
0
70
0
0
BLOCK_RECORD
5
20A
100
AcDbSymbolTableRecord
100
AcDbBlockTableRecord
2
_U0
340
0
70
0
0
ENDTAB
0
ENDSEC
0
SECTION
2
BLOCKS
0
BLOCK
5
20
100
AcDbEntity
8
0
100
AcDbBlockBegin
2
*Model_Space
70
0
10
0
20
0
30
0
3
*Model_Space
0
ENDBLK
5
21
100
AcDbEntity
8
0
100
AcDbBlockEnd
0
BLOCK
5
1C
100
AcDbEntity
8
0
100
AcDbBlockBegin
2
*Paper_Space
70
0
10
0
20
0
30
0
3
*Paper_Space
0
ENDBLK
5
1D
100
AcDbEntity
8
0
100
AcDbBlockEnd
0
BLOCK
5
24
100
AcDbEntity
8
0
100
AcDbBlockBegin
2
*Paper_Space0
70
0
10
0
20
0
30
0
3
*Paper_Space0
0
ENDBLK
5
25
100
AcDbEntity
8
0
100
AcDbBlockEnd
0
BLOCK
5
1FF
100
AcDbEntity
8
0
100
AcDbBlockBegin
2
*D1
70
1
10
0
20
0
30
0
3
*D1
0
LINE
5
201
100
AcDbEntity
8
0
62
256
6
ByLayer
370
-2
48
1
60
0
100
AcDbLine
10
24.9
20
-21.5875
30
0
11
24.9
21
-40.1
31
0
39
0
210
0
220
0
230
1
0
LINE
5
202
100
AcDbEntity
8
0
62
256
6
ByLayer
370
-2
48
1
60
0
100
AcDbLine
10
288
20
18.4125
30
0
11
288
21
-40.1
31
0
39
0
210
0
220
0
230
1
0
LINE
5
203
100
AcDbEntity
8
0
62
256
6
ByLayer
370
-2
48
1
60
0
100
AcDbLine
10
28.4
20
-38.1
30
0
11
284.5
21
-38.1
31
0
39
0
210
0
220
0
230
1
0
SOLID
5
204
100
AcDbEntity
8
0
62
256
6
ByLayer
370
-1
48
1
60
0
100
AcDbTrace
10
28.4
20
-37.516667
30
0
11
28.4
21
-38.683333
31
0
12
24.9
22
-38.1
32
0
13
24.9
23
-38.1
33
0
39
0
210
0
220
0
230
1
0
SOLID
5
205
100
AcDbEntity
8
0
62
256
6
ByLayer
370
-1
48
1
60
0
100
AcDbTrace
10
284.5
20
-38.683333
30
0
11
284.5
21
-37.516667
31
0
12
288
22
-38.1
32
0
13
288
23
-38.1
33
0
39
0
210
0
220
0
230
1
0
MTEXT
5
206
100
AcDbEntity
8
0
62
256
6
ByLayer
370
18
48
1
60
0
100
AcDbMText
10
156.45
20
-31.1
30
0
210
0
220
0
230
1
1
\A1;263.1
40
3.5
41
0
44
1
50
0
71
5
72
5
7
iso_b_vert
0
POINT
5
207
100
AcDbEntity
8
Defpoints
62
0
6
ByLayer
370
-1
48
1
60
0
100
AcDbPoint
10
24.9
20
-20
30
0
39
0
210
0
220
0
230
1
50
360
0
POINT
5
208
100
AcDbEntity
8
Defpoints
62
0
6
ByLayer
370
-1
48
1
60
0
100
AcDbPoint
10
288
20
20
30
0
39
0
210
0
220
0
230
1
50
360
0
POINT
5
209
100
AcDbEntity
8
Defpoints
62
0
6
ByLayer
370
-1
48
1
60
0
100
AcDbPoint
10
288
20
-38.1
30
0
39
0
210
0
220
0
230
1
50
360
0
ENDBLK
5
200
100
AcDbEntity
8
0
100
AcDbBlockEnd
0
BLOCK
5
211
100
AcDbEntity
8
0
100
AcDbBlockBegin
2
_U0
70
0
10
0
20
0
30
0
3
_U0
0
MTEXT
5
20B
100
AcDbEntity
8
SK2
62
256
6
ByLayer
370
18
48
1
60
0
100
AcDbMText
10
151.658001
20
-37.067366
30
0
210
0
220
0
230
1
1
\W0.7373;263.1
40
3.5
41
0
44
1.084337
50
0
71
7
72
5
7
iso_b_vert
0
LINE
5
20C
100
AcDbEntity
8
SK2
62
256
6
ByLayer
370
13
48
1
60
0
100
AcDbLine
10
24.9
20
-21.5875
30
0
11
24.9
21
-40.1
31
0
39
0
210
0
220
0
230
1
0
LINE
5
20D
100
AcDbEntity
8
SK2
62
256
6
ByLayer
370
13
48
1
60
0
100
AcDbLine
10
288
20
18.4125
30
0
11
288
21
-40.1
31
0
39
0
210
0
220
0
230
1
0
LINE
5
20E
100
AcDbEntity
8
SK2
62
256
6
ByLayer
370
13
48
1
60
0
100
AcDbLine
10
24.9
20
-38.1
30
0
11
288
21
-38.1
31
0
39
0
210
0
220
0
230
1
0
SOLID
5
20F
100
AcDbEntity
8
SK2
62
256
6
ByLayer
370
18
48
1
60
0
100
AcDbTrace
10
24.9
20
-38.1
30
0
11
28.399998
21
-37.639216
31
0
12
28.400002
22
-38.560784
32
0
13
28.400002
23
-38.560784
33
0
39
0
210
0
220
0
230
1
0
SOLID
5
210
100
AcDbEntity
8
SK2
62
256
6
ByLayer
370
18
48
1
60
0
100
AcDbTrace
10
288
20
-38.1
30
0
11
284.500002
21
-38.560784
31
0
12
284.499998
22
-37.639216
32
0
13
284.499998
23
-37.639216
33
0
39
0
210
0
220
0
230
1
0
ENDBLK
5
212
100
AcDbEntity
8
0
100
AcDbBlockEnd
0
ENDSEC
0
SECTION
2
ENTITIES
0
ARC
5
152
100
AcDbEntity
8
1
62
256
6
ByLayer
370
18
48
1
60
0
100
AcDbCircle
39
0
10
285.8
20
-19.8
30
0
40
0.2
210
0
220
0
230
1
100
AcDbArc
50
270
51
360
0
ARC
5
153
100
AcDbEntity
8
1
62
256
6
ByLayer
370
18
48
1
60
0
100
AcDbCircle
39
0
10
285.8
20
19.8
30
0
40
0.2
210
0
220
0
230
1
100
AcDbArc
50
360
51
90
0
ARC
5
154
100
AcDbEntity
8
1
62
256
6
ByLayer
370
18
48
1
60
0
100
AcDbCircle
39
0
10
24.9
20
24.9
30
0
40
4.9
210
0
220
0
230
1
100
AcDbArc
50
184.248023
51
270
0
ARC
5
155
100
AcDbEntity
8
1
62
256
6
ByLayer
370
18
48
1
60
0
100
AcDbCircle
39
0
10
24.9
20
-24.9
30
0
40
4.9
210
0
220
0
230
1
100
AcDbArc
50
90
51
175.751977
0
ARC
5
156
100
AcDbEntity
8
1
62
256
6
ByLayer
370
18
48
1
60
0
100
AcDbCircle
39
0
10
19.514835
20
-24.5
30
0
40
0.5
210
0
220
0
230
1
100
AcDbArc
50
270
51
355.751977
0
ARC
5
157
100
AcDbEntity
8
1
62
256
6
ByLayer
370
18
48
1
60
0
100
AcDbCircle
39
0
10
19.514835
20
24.5
30
0
40
0.5
210
0
220
0
230
1
100
AcDbArc
50
4.248023
51
90
0
ARC
5
158
100
AcDbEntity
8
SK1
62
256
6
ByLayer
370
18
48
1
60
0
100
AcDbCircle
39
0
10
-0.6
20
18.75
30
0
40
0.999999999999998
210
0
220
0
230
1
100
AcDbArc
50
293.578178
51
306.869898
0
ARC
5
159
100
AcDbEntity
8
SK1
62
256
6
ByLayer
370
18
48
1
60
0
100
AcDbCircle
39
0
10
-0.6
20
-18.75
30
0
40
0.999999999999998
210
0
220
0
230
1
100
AcDbArc
50
53.130102
51
66.421822
0
ARC
5
15A
100
AcDbEntity
8
1
62
256
6
ByLayer
370
18
48
1
60
0
100
AcDbCircle
39
0
10
292.8
20
-13.099495
30
0
40
0.2
210
0
220
0
230
1
100
AcDbArc
50
0
51
90
0
ARC
5
15B
100
AcDbEntity
8
1
62
256
6
ByLayer
370
18
48
1
60
0
100
AcDbCircle
39
0
10
292.8
20
-6.699495
30
0
40
0.2
210
0
220
0
230
1
100
AcDbArc
50
270
51
0
0
ARC
5
15C
100
AcDbEntity
8
1
62
256
6
ByLayer
370
18
48
1
60
0
100
AcDbCircle
39
0
10
298.4
20
-14.299495
30
0
40
0.6
210
0
220
0
230
1
100
AcDbArc
50
270
51
360
0
ARC
5
15D
100
AcDbEntity
8
1
62
256
6
ByLayer
370
18
48
1
60
0
100
AcDbCircle
39
0
10
298.4
20
-5.499495
30
0
40
0.6
210
0
220
0
230
1
100
AcDbArc
50
360
51
90
0
ARC
5
15E
100
AcDbEntity
8
1
62
256
6
ByLayer
370
18
48
1
60
0
100
AcDbCircle
39
0
10
292.8
20
6.699495
30
0
40
0.2
210
0
220
0
230
1
100
AcDbArc
50
0
51
90
0
ARC
5
15F
100
AcDbEntity
8
1
62
256
6
ByLayer
370
18
48
1
60
0
100
AcDbCircle
39
0
10
292.8
20
13.099495
30
0
40
0.2
210
0
220
0
230
1
100
AcDbArc
50
270
51
0
0
ARC
5
160
100
AcDbEntity
8
1
62
256
6
ByLayer
370
18
48
1
60
0
100
AcDbCircle
39
0
10
298.4
20
5.499495
30
0
40
0.6
210
0
220
0
230
1
100
AcDbArc
50
270
51
360
0
ARC
5
161
100
AcDbEntity
8
1
62
256
6
ByLayer
370
18
48
1
60
0
100
AcDbCircle
39
0
10
298.4
20
14.299495
30
0
40
0.6
210
0
220
0
230
1
100
AcDbArc
50
360
51
90
0
ARC
5
162
100
AcDbEntity
8
1
62
256
6
ByLayer
370
18
48
1
60
0
100
AcDbCircle
39
0
10
286.2
20
-19.8
30
0
40
0.2
210
0
220
0
230
1
100
AcDbArc
50
180
51
270
0
ARC
5
163
100
AcDbEntity
8
1
62
256
6
ByLayer
370
18
48
1
60
0
100
AcDbCircle
39
0
10
286.2
20
19.8
30
0
40
0.2
210
0
220
0
230
1
100
AcDbArc
50
90
51
180
0
ELLIPSE
5
164
100
AcDbEntity
8
1
62
256
6
ByLayer
370
18
48
1
60
0
100
AcDbEllipse
10
-1.056258
20
0
30
0
11
11.7092723497276
21
24.6771864409379
31
0
210
0
220
0
230
1
40
0.341999
41
-1.08183270048927
42
-0.167213071908978
0
ELLIPSE
5
165
100
AcDbEntity
8
1
62
256
6
ByLayer
370
18
48
1
60
0
100
AcDbEllipse
10
21.056258
20
0
30
0
11
11.7092723497251
21
-24.6771864409345
31
0
210
0
220
0
230
1
40
0.341999
41
-2.9743795816808
42
-2.05975995310043
0
ELLIPSE
5
166
100
AcDbEntity
8
1
62
256
6
ByLayer
370
18
48
1
60
0
100
AcDbEllipse
10
21.056258
20
0
30
0
11
11.7092723497262
21
24.6771864409359
31
0
210
0
220
0
230
1
40
0.341999
41
2.05975995310047
42
2.97437958168081
0
ELLIPSE
5
167
100
AcDbEntity
8
1
62
256
6
ByLayer
370
18
48
1
60
0
100
AcDbEllipse
10
-1.056258
20
0
30
0
11
11.709272349727
21
-24.6771864409372
31
0
210
0
220
0
230
1
40
0.341999
41
0.167213071908977
42
1.08183270048929
0
POINT
5
70
100
AcDbEntity
8
2
62
256
6
ByLayer
370
18
48
1
60
0
100
AcDbPoint
10
217
20
13
30
0
39
0
210
0
220
0
230
1
50
360
0
POINT
5
72
100
AcDbEntity
8
2
62
256
6
ByLayer
370
18
48
1
60
0
100
AcDbPoint
10
293
20
9.899495
30
0
39
0
210
0
220
0
230
1
50
360
0
POINT
5
73
100
AcDbEntity
8
2
62
256
6
ByLayer
370
18
48
1
60
0
100
AcDbPoint
10
285.37476
20
0
30
0
39
0
210
0
220
0
230
1
50
360
0
POINT
5
74
100
AcDbEntity
8
2
62
256
6
ByLayer
370
18
48
1
60
0
100
AcDbPoint
10
267.75
20
0
30
0
39
0
210
0
220
0
230
1
50
360
0
POINT
5
75
100
AcDbEntity
8
2
62
256
6
ByLayer
370
18
48
1
60
0
100
AcDbPoint
10
289
20
-9.899495
30
0
39
0
210
0
220
0
230
1
50
360
0
POINT
5
76
100
AcDbEntity
8
2
62
256
6
ByLayer
370
18
48
1
60
0
100
AcDbPoint
10
256
20
13
30
0
39
0
210
0
220
0
230
1
50
360
0
POINT
5
77
100
AcDbEntity
8
2
62
256
6
ByLayer
370
18
48
1
60
0
100
AcDbPoint
10
205.25
20
0
30
0
39
0
210
0
220
0
230
1
50
360
0
POINT
5
78
100
AcDbEntity
8
2
62
256
6
ByLayer
370
18
48
1
60
0
100
AcDbPoint
10
276
20
0
30
0
39
0
210
0
220
0
230
1
50
360
0
POINT
5
79
100
AcDbEntity
8
2
62
256
6
ByLayer
370
18
48
1
60
0
100
AcDbPoint
10
271.5
20
0
30
0
39
0
210
0
220
0
230
1
50
360
0
POINT
5
7A
100
AcDbEntity
8
2
62
256
6
ByLayer
370
18
48
1
60
0
100
AcDbPoint
10
293
20
9.899495
30
0
39
0
210
0
220
0
230
1
50
360
0
POINT
5
7B
100
AcDbEntity
8
2
62
256
6
ByLayer
370
18
48
1
60
0
100
AcDbPoint
10
289
20
9.899495
30
0
39
0
210
0
220
0
230
1
50
360
0
POINT
5
7C
100
AcDbEntity
8
2
62
256
6
ByLayer
370
18
48
1
60
0
100
AcDbPoint
10
192.6
20
0
30
0
39
0
210
0
220
0
230
1
50
360
0
POINT
5
7D
100
AcDbEntity
8
2
62
256
6
ByLayer
370
18
48
1
60
0
100
AcDbPoint
10
197.05
20
0
30
0
39
0
210
0
220
0
230
1
50
360
0
POINT
5
7E
100
AcDbEntity
8
2
62
256
6
ByLayer
370
18
48
1
60
0
100
AcDbPoint
10
201
20
0
30
0
39
0
210
0
220
0
230
1
50
360
0
POINT
5
7F
100
AcDbEntity
8
2
62
256
6
ByLayer
370
18
48
1
60
0
100
AcDbPoint
10
196.8
20
0
30
0
39
0
210
0
220
0
230
1
50
360
0
POINT
5
80
100
AcDbEntity
8
2
62
256
6
ByLayer
370
18
48
1
60
0
100
AcDbPoint
10
201.5
20
0
30
0
39
0
210
0
220
0
230
1
50
360
0
POINT
5
81
100
AcDbEntity
8
2
62
256
6
ByLayer
370
18
48
1
60
0
100
AcDbPoint
10
192.6
20
0
30
0
39
0
210
0
220
0
230
1
50
360
0
POINT
5
82
100
AcDbEntity
8
2
62
256
6
ByLayer
370
18
48
1
60
0
100
AcDbPoint
10
276
20
0
30
0
39
0
210
0
220
0
230
1
50
360
0
POINT
5
83
100
AcDbEntity
8
2
62
256
6
ByLayer
370
18
48
1
60
0
100
AcDbPoint
10
195
20
0
30
0
39
0
210
0
220
0
230
1
50
360
0
POINT
5
84
100
AcDbEntity
8
2
62
256
6
ByLayer
370
18
48
1
60
0
100
AcDbPoint
10
235.5
20
0
30
0
39
0
210
0
220
0
230
1
50
360
0
POINT
5
85
100
AcDbEntity
8
2
62
256
6
ByLayer
370
18
48
1
60
0
100
AcDbPoint
10
267.75
20
0
30
0
39
0
210
0
220
0
230
1
50
360
0
POINT
5
86
100
AcDbEntity
8
2
62
256
6
ByLayer
370
18
48
1
60
0
100
AcDbPoint
10
205.25
20
0
30
0
39
0
210
0
220
0
230
1
50
360
0
POINT
5
87
100
AcDbEntity
8
2
62
256
6
ByLayer
370
18
48
1
60
0
100
AcDbPoint
10
256
20
13
30
0
39
0
210
0
220
0
230
1
50
360
0
POINT
5
88
100
AcDbEntity
8
2
62
256
6
ByLayer
370
18
48
1
60
0
100
AcDbPoint
10
217
20
13
30
0
39
0
210
0
220
0
230
1
50
360
0
POINT
5
89
100
AcDbEntity
8
2
62
256
6
ByLayer
370
18
48
1
60
0
100
AcDbPoint
10
201.5
20
0
30
0
39
0
210
0
220
0
230
1
50
360
0
POINT
5
8A
100
AcDbEntity
8
2
62
256
6
ByLayer
370
18
48
1
60
0
100
AcDbPoint
10
236.5
20
0
30
0
39
0
210
0
220
0
230
1
50
360
0
POINT
5
8B
100
AcDbEntity
8
2
62
256
6
ByLayer
370
18
48
1
60
0
100
AcDbPoint
10
271.5
20
0
30
0
39
0
210
0
220
0
230
1
50
360
0
POINT
5
8C
100
AcDbEntity
8
2
62
256
6
ByLayer
370
18
48
1
60
0
100
AcDbPoint
10
271.5
20
0
30
0
39
0
210
0
220
0
230
1
50
360
0
POINT
5
8D
100
AcDbEntity
8
2
62
256
6
ByLayer
370
18
48
1
60
0
100
AcDbPoint
10
201.5
20
0
30
0
39
0
210
0
220
0
230
1
50
360
0
POINT
5
8E
100
AcDbEntity
8
2
62
256
6
ByLayer
370
18
48
1
60
0
100
AcDbPoint
10
289
20
-9.899495
30
0
39
0
210
0
220
0
230
1
50
360
0
POINT
5
8F
100
AcDbEntity
8
2
62
256
6
ByLayer
370
18
48
1
60
0
100
AcDbPoint
10
276
20
0
30
0
39
0
210
0
220
0
230
1
50
360
0
POINT
5
90
100
AcDbEntity
8
2
62
256
6
ByLayer
370
50
48
1
60
0
100
AcDbPoint
10
272
20
0
30
0
39
0
210
0
220
0
230
1
50
360
0
POINT
5
91
100
AcDbEntity
8
2
62
256
6
ByLayer
370
18
48
1
60
0
100
AcDbPoint
10
285.37476
20
0
30
0
39
0
210
0
220
0
230
1
50
360
0
POINT
5
92
100
AcDbEntity
8
2
62
256
6
ByLayer
370
50
48
1
60
0
100
AcDbPoint
10
295
20
0
30
0
39
0
210
0
220
0
230
1
50
360
0
POINT
5
93
100
AcDbEntity
8
2
62
256
6
ByLayer
370
18
48
1
60
0
100
AcDbPoint
10
286
20
0
30
0
39
0
210
0
220
0
230
1
50
360
0
POINT
5
94
100
AcDbEntity
8
2
62
256
6
ByLayer
370
18
48
1
60
0
100
AcDbPoint
10
262
20
0
30
0
39
0
210
0
220
0
230
1
50
360
0
POINT
5
95
100
AcDbEntity
8
2
62
256
6
ByLayer
370
18
48
1
60
0
100
AcDbPoint
10
271.5
20
0
30
0
39
0
210
0
220
0
230
1
50
360
0
POINT
5
96
100
AcDbEntity
8
2
62
256
6
ByLayer
370
18
48
1
60
0
100
AcDbPoint
10
286
20
0
30
0
39
0
210
0
220
0
230
1
50
360
0
POINT
5
97
100
AcDbEntity
8
80
62
256
6
ByLayer
370
18
48
1
60
0
100
AcDbPoint
10
0
20
0
30
0
39
0
210
0
220
0
230
1
50
360
0
POINT
5
99
100
AcDbEntity
8
81
62
256
6
ByLayer
370
18
48
1
60
0
100
AcDbPoint
10
288
20
0
30
0
39
0
210
0
220
0
230
1
50
360
0
POINT
5
9B
100
AcDbEntity
8
1
62
256
6
ByLayer
370
13
48
1
60
1
100
AcDbPoint
10
280.05
20
-9.899495
30
0
39
0
210
0
220
0
230
1
50
360
0
POINT
5
9D
100
AcDbEntity
8
1
62
256
6
ByLayer
370
13
48
1
60
1
100
AcDbPoint
10
294.3
20
-9.899495
30
0
39
0
210
0
220
0
230
1
50
360
0
POINT
5
9E
100
AcDbEntity
8
1
62
256
6
ByLayer
370
13
48
1
60
1
100
AcDbPoint
10
280.05
20
9.899495
30
0
39
0
210
0
220
0
230
1
50
360
0
POINT
5
9F
100
AcDbEntity
8
1
62
256
6
ByLayer
370
13
48
1
60
1
100
AcDbPoint
10
294.3
20
9.899495
30
0
39
0
210
0
220
0
230
1
50
360
0
POINT
5
A0
100
AcDbEntity
8
1
62
256
6
ByLayer
370
18
48
1
60
1
100
AcDbPoint
10
24.9
20
-20
30
0
39
0
210
0
220
0
230
1
50
360
0
POINT
5
A1
100
AcDbEntity
8
1
62
256
6
ByLayer
370
18
48
1
60
1
100
AcDbPoint
10
288
20
20
30
0
39
0
210
0
220
0
230
1
50
360
0
SPLINE
5
168
100
AcDbEntity
8
1
62
256
6
ByLayer
370
18
48
1
60
0
100
AcDbSpline
70
4
71
3
72
26
73
22
40
0
40
0
40
0
40
0
40
0.0624999999999991
40
0.0624999999999991
40
0.0937499999999983
40
0.0937499999999983
40
0.124999999999997
40
0.124999999999997
40
0.249999999999999
40
0.249999999999999
40
0.375000000000002
40
0.375000000000002
40
0.437500000000001
40
0.437500000000001
40
0.500000000000001
40
0.500000000000001
40
0.625000000000004
40
0.625000000000004
40
0.750000000000004
40
0.750000000000004
40
1
40
1
40
1
40
1
41
1
10
11.4613248654052
20
23.8391299750502
30
0
41
1
10
11.4772013120199
20
23.8391299750503
30
0
41
1
10
11.4927843117433
20
23.8386381480423
30
0
41
1
10
11.5157579869923
20
23.8372273769848
30
0
41
1
10
11.5233488813097
20
23.8366445991221
30
0
41
1
10
11.5384012334117
20
23.8352611656444
30
0
41
1
10
11.5458956692736
20
23.8344558067494
30
0
41
1
10
11.5824040005111
20
23.8299833264009
30
0
41
1
10
11.6089650834003
20
23.8249896713849
30
0
41
1
10
11.6582924559949
20
23.813005969379
30
0
41
1
10
11.6801688454703
20
23.8062336877525
30
0
41
1
10
11.7102266942347
20
23.7952700628808
30
0
41
1
10
11.719773612984
20
23.7914778883489
30
0
41
1
10
11.7380555263964
20
23.7836514357395
30
0
41
1
10
11.7468017366172
20
23.7796095569563
30
0
41
1
10
11.7716769242358
20
23.7673085978343
30
0
41
1
10
11.7865761040498
20
23.7588292909636
30
0
41
1
10
11.8138519277099
20
23.7414211400326
30
0
41
1
10
11.8262196262291
20
23.7324910902464
30
0
41
1
10
11.8602443227467
20
23.7051129235882
30
0
41
1
10
11.8788862370738
20
23.6860331168061
30
0
41
1
10
11.8943375672975
20
23.6665017920809
30
0
0
SPLINE
5
169
100
AcDbEntity
8
1
62
256
6
ByLayer
370
18
48
1
60
0
100
AcDbSpline
70
4
71
3
72
30
73
26
40
0
40
0
40
0
40
0
40
0.249999999999985
40
0.249999999999985
40
0.374999999999982
40
0.374999999999982
40
0.437499999999983
40
0.437499999999983
40
0.499999999999984
40
0.499999999999984
40
0.624999999999984
40
0.624999999999984
40
0.687499999999988
40
0.687499999999988
40
0.749999999999991
40
0.749999999999991
40
0.812499999999995
40
0.812499999999995
40
0.843749999999996
40
0.843749999999996
40
0.874999999999997
40
0.874999999999997
40
0.937499999999998
40
0.937499999999998
40
1
40
1
40
1
40
1
41
1
10
11.8943375672973
20
8.05584836782771
30
0
41
1
10
11.8788923030149
20
7.9984916943491
30
0
41
1
10
11.8604037172645
20
7.94218253951252
30
0
41
1
10
11.8264575712212
20
7.85991012495415
30
0
41
1
10
11.814096269969
20
7.83285506058491
30
0
41
1
10
11.7935837333004
20
7.79297622996151
30
0
41
1
10
11.7864159259844
20
7.77980127287378
30
0
41
1
10
11.7713191828915
20
7.75372482186626
30
0
41
1
10
11.763382436815
20
7.74081492713975
30
0
41
1
10
11.7384769785308
20
7.70292805784925
30
0
41
1
10
11.7203772593316
20
7.67866353751182
30
0
41
1
10
11.6901125047557
20
7.64434849039841
30
0
41
1
10
11.6794995583258
20
7.63327217102531
30
0
41
1
10
11.6573691354905
20
7.6123213786515
30
0
41
1
10
11.6458165560481
20
7.60240297286796
30
0
41
1
10
11.6215461384038
20
7.58390025536195
30
0
41
1
10
11.6088302857937
20
7.57531366225018
30
0
41
1
10
11.5886665813882
20
7.56368345606438
30
0
41
1
10
11.5817366894217
20
7.56000567013058
30
0
41
1
10
11.5676991017994
20
7.55323657194785
30
0
41
1
10
11.5605721090663
20
7.55013193108809
30
0
41
1
10
11.53884494046
20
7.54171396614029
30
0
41
1
10
11.5239007732521
20
7.53729092133932
30
0
41
1
10
11.4929356027573
20
7.53123335639148
30
0
41
1
10
11.477175816822
20
7.52966679426478
30
0
41
1
10
11.4613248654052
20
7.52966679426476
30
0
0
SPLINE
5
16A
100
AcDbEntity
8
1
62
256
6
ByLayer
370
18
48
1
60
0
100
AcDbSpline
70
4
71
3
72
26
73
22
40
0
40
0
40
0
40
0
40
0.0625000000000034
40
0.0625000000000034
40
0.0937500000000044
40
0.0937500000000044
40
0.125000000000005
40
0.125000000000005
40
0.250000000000008
40
0.250000000000008
40
0.375000000000011
40
0.375000000000011
40
0.437500000000009
40
0.437500000000009
40
0.500000000000008
40
0.500000000000008
40
0.625000000000001
40
0.625000000000001
40
0.749999999999997
40
0.749999999999997
40
1
40
1
40
1
40
1
41
1
10
8.53867513459488
20
7.52966679426498
30
0
41
1
10
8.52279868798017
20
7.52966679426498
30
0
41
1
10
8.50721568825684
20
7.53122440152941
30
0
41
1
10
8.48424201300779
20
7.53568798536645
30
0
41
1
10
8.47665111869043
20
7.53753139400627
30
0
41
1
10
8.46159876658841
20
7.54190496002246
30
0
41
1
10
8.45410433072654
20
7.54444995843562
30
0
41
1
10
8.41759599948901
20
7.55857361750097
30
0
41
1
10
8.39103491659975
20
7.57431556968103
30
0
41
1
10
8.34170754400522
20
7.61190750686256
30
0
41
1
10
8.31983115452977
20
7.63307325241195
30
0
41
1
10
8.28977330576541
20
7.66715495165636
30
0
41
1
10
8.28022638701601
20
7.67891539799615
30
0
41
1
10
8.26194447360366
20
7.70312184666869
30
0
41
1
10
8.25319826338284
20
7.71559105034058
30
0
41
1
10
8.22832307576429
20
7.75343444963892
30
0
41
1
10
8.21342389595023
20
7.77938351245598
30
0
41
1
10
8.18614807229017
20
7.83234954292993
30
0
41
1
10
8.17378037377094
20
7.85937042586573
30
0
41
1
10
8.13975567725333
20
7.9417232788818
30
0
41
1
10
8.12111376292626
20
7.99846916820698
30
0
41
1
10
8.10566243270252
20
8.05584836782765
30
0
0
SPLINE
5
16B
100
AcDbEntity
8
1
62
256
6
ByLayer
370
18
48
1
60
0
100
AcDbSpline
70
4
71
3
72
30
73
26
40
0
40
0
40
0
40
0
40
0.25
40
0.25
40
0.374999999999997
40
0.374999999999997
40
0.437499999999994
40
0.437499999999994
40
0.499999999999991
40
0.499999999999991
40
0.624999999999993
40
0.624999999999993
40
0.687499999999992
40
0.687499999999992
40
0.749999999999992
40
0.749999999999992
40
0.812499999999992
40
0.812499999999992
40
0.843749999999993
40
0.843749999999993
40
0.874999999999995
40
0.874999999999995
40
0.937499999999998
40
0.937499999999998
40
1
40
1
40
1
40
1
41
1
10
8.10566243270273
20
23.6665017920809
30
0
41
1
10
8.12110769698513
20
23.6860254491251
30
0
41
1
10
8.13959628273555
20
23.7049589195931
30
0
41
1
10
8.17354242877883
20
23.7323123198157
30
0
41
1
10
8.185903730031
20
23.7412544902042
30
0
41
1
10
8.20641626669962
20
23.7543620682907
30
0
41
1
10
8.2135840740157
20
23.7586801045418
30
0
41
1
10
8.22868081710858
20
23.7672030231186
30
0
41
1
10
8.23661756318502
20
23.7714105724815
30
0
41
1
10
8.26152302146926
20
23.7837256270429
30
0
41
1
10
8.27962274066847
20
23.7915679133937
30
0
41
1
10
8.30988749524434
20
23.8026065911347
30
0
41
1
10
8.32050044167424
20
23.8061604830514
30
0
41
1
10
8.3426308645096
20
23.8128680383081
30
0
41
1
10
8.354183443952
20
23.8160358440181
30
0
41
1
10
8.37845386159626
20
23.8219342456095
30
0
41
1
10
8.39116971420634
20
23.8246655611125
30
0
41
1
10
8.41133341861183
20
23.8283593459882
30
0
41
1
10
8.41826331057837
20
23.8295263669799
30
0
41
1
10
8.43230089820065
20
23.8316728303992
30
0
41
1
10
8.43942789093379
20
23.8326565134122
30
0
41
1
10
8.46115505954008
20
23.8353222152631
30
0
41
1
10
8.47609922674798
20
23.8367207404254
30
0
41
1
10
8.5070643972428
20
23.838635326325
30
0
41
1
10
8.5228241831781
20
23.8391299750505
30
0
41
1
10
8.53867513459488
20
23.8391299750504
30
0
0
SPLINE
5
16C
100
AcDbEntity
8
1
62
256
6
ByLayer
370
18
48
1
60
0
100
AcDbSpline
70
4
71
3
72
26
73
22
40
0
40
0
40
0
40
0
40
0.0624999999999942
40
0.0624999999999942
40
0.0937499999999945
40
0.0937499999999945
40
0.124999999999995
40
0.124999999999995
40
0.249999999999993
40
0.249999999999993
40
0.374999999999991
40
0.374999999999991
40
0.43749999999999
40
0.43749999999999
40
0.499999999999989
40
0.499999999999989
40
0.624999999999994
40
0.624999999999994
40
0.749999999999995
40
0.749999999999995
40
1
40
1
40
1
40
1
41
1
10
8.53867513459477
20
-23.8391299750503
30
0
41
1
10
8.52279868798006
20
-23.8391299750504
30
0
41
1
10
8.50721568825668
20
-23.8386381480424
30
0
41
1
10
8.48424201300764
20
-23.8372273769849
30
0
41
1
10
8.47665111869028
20
-23.8366445991222
30
0
41
1
10
8.46159876658825
20
-23.8352611656445
30
0
41
1
10
8.45410433072639
20
-23.8344558067495
30
0
41
1
10
8.41759599948887
20
-23.829983326401
30
0
41
1
10
8.39103491659962
20
-23.824989671385
30
0
41
1
10
8.34170754400509
20
-23.8130059693791
30
0
41
1
10
8.31983115452964
20
-23.8062336877526
30
0
41
1
10
8.28977330576527
20
-23.7952700628809
30
0
41
1
10
8.28022638701589
20
-23.791477888349
30
0
41
1
10
8.26194447360355
20
-23.7836514357396
30
0
41
1
10
8.25319826338271
20
-23.7796095569564
30
0
41
1
10
8.22832307576418
20
-23.7673085978344
30
0
41
1
10
8.21342389595011
20
-23.7588292909637
30
0
41
1
10
8.18614807229005
20
-23.7414211400327
30
0
41
1
10
8.17378037377082
20
-23.7324910902465
30
0
41
1
10
8.13975567725322
20
-23.7051129235883
30
0
41
1
10
8.12111376292614
20
-23.6860331168062
30
0
41
1
10
8.1056624327024
20
-23.6665017920809
30
0
0
SPLINE
5
16D
100
AcDbEntity
8
1
62
256
6
ByLayer
370
18
48
1
60
0
100
AcDbSpline
70
4
71
3
72
30
73
26
40
0
40
0
40
0
40
0
40
0.249999999999977
40
0.249999999999977
40
0.37499999999997
40
0.37499999999997
40
0.437499999999968
40
0.437499999999968
40
0.499999999999965
40
0.499999999999965
40
0.624999999999962
40
0.624999999999962
40
0.687499999999963
40
0.687499999999963
40
0.749999999999965
40
0.749999999999965
40
0.812499999999966
40
0.812499999999966
40
0.843749999999969
40
0.843749999999969
40
0.874999999999972
40
0.874999999999972
40
0.937499999999986
40
0.937499999999986
40
1
40
1
40
1
40
1
41
1
10
8.10566243270262
20
-8.05584836782771
30
0
41
1
10
8.12110769698502
20
-7.99849169434907
30
0
41
1
10
8.13959628273544
20
-7.94218253951252
30
0
41
1
10
8.17354242877873
20
-7.85991012495415
30
0
41
1
10
8.18590373003089
20
-7.83285506058488
30
0
41
1
10
8.20641626669951
20
-7.79297622996151
30
0
41
1
10
8.21358407401559
20
-7.77980127287375
30
0
41
1
10
8.22868081710847
20
-7.75372482186623
30
0
41
1
10
8.23661756318489
20
-7.74081492713972
30
0
41
1
10
8.26152302146915
20
-7.70292805784922
30
0
41
1
10
8.27962274066834
20
-7.6786635375118
30
0
41
1
10
8.30988749524423
20
-7.64434849039839
30
0
41
1
10
8.32050044167413
20
-7.63327217102528
30
0
41
1
10
8.34263086450949
20
-7.61232137865147
30
0
41
1
10
8.35418344395187
20
-7.60240297286791
30
0
41
1
10
8.37845386159614
20
-7.5839002553619
30
0
41
1
10
8.39116971420623
20
-7.57531366225012
30
0
41
1
10
8.4113334186117
20
-7.56368345606433
30
0
41
1
10
8.41826331057825
20
-7.56000567013055
30
0
41
1
10
8.43230089820054
20
-7.55323657194779
30
0
41
1
10
8.43942789093366
20
-7.55013193108803
30
0
41
1
10
8.46115505953995
20
-7.54171396614024
30
0
41
1
10
8.47609922674785
20
-7.53729092133929
30
0
41
1
10
8.50706439724267
20
-7.53123335639143
30
0
41
1
10
8.52282418317799
20
-7.52966679426473
30
0
41
1
10
8.53867513459477
20
-7.52966679426473
30
0
0
SPLINE
5
16E
100
AcDbEntity
8
1
62
256
6
ByLayer
370
18
48
1
60
0
100
AcDbSpline
70
4
71
3
72
26
73
22
40
0
40
0
40
0
40
0
40
0.0625000000000009
40
0.0625000000000009
40
0.0937500000000006
40
0.0937500000000006
40
0.125
40
0.125
40
0.250000000000002
40
0.250000000000002
40
0.375000000000003
40
0.375000000000003
40
0.437500000000002
40
0.437500000000002
40
0.500000000000001
40
0.500000000000001
40
0.625
40
0.625
40
0.749999999999999
40
0.749999999999999
40
1
40
1
40
1
40
1
41
1
10
11.4613248654051
20
-7.52966679426513
30
0
41
1
10
11.4772013120198
20
-7.52966679426513
30
0
41
1
10
11.4927843117432
20
-7.53122440152958
30
0
41
1
10
11.5157579869922
20
-7.53568798536665
30
0
41
1
10
11.5233488813095
20
-7.53753139400644
30
0
41
1
10
11.5384012334116
20
-7.54190496002263
30
0
41
1
10
11.5458956692734
20
-7.54444995843579
30
0
41
1
10
11.582404000511
20
-7.55857361750114
30
0
41
1
10
11.6089650834002
20
-7.57431556968117
30
0
41
1
10
11.6582924559947
20
-7.61190750686271
30
0
41
1
10
11.6801688454702
20
-7.63307325241209
30
0
41
1
10
11.7102266942345
20
-7.6671549516565
30
0
41
1
10
11.7197736129839
20
-7.67891539799626
30
0
41
1
10
11.7380555263963
20
-7.70312184666881
30
0
41
1
10
11.7468017366171
20
-7.71559105034069
30
0
41
1
10
11.7716769242356
20
-7.75343444963903
30
0
41
1
10
11.7865761040497
20
-7.77938351245609
30
0
41
1
10
11.8138519277097
20
-7.83234954293002
30
0
41
1
10
11.826219626229
20
-7.85937042586582
30
0
41
1
10
11.8602443227465
20
-7.94172327888185
30
0
41
1
10
11.8788862370737
20
-7.9984691682071
30
0
41
1
10
11.8943375672974
20
-8.05584836782771
30
0
0
SPLINE
5
16F
100
AcDbEntity
8
1
62
256
6
ByLayer
370
18
48
1
60
0
100
AcDbSpline
70
4
71
3
72
30
73
26
40
0
40
0
40
0
40
0
40
0.25000000000002
40
0.25000000000002
40
0.375000000000026
40
0.375000000000026
40
0.437500000000025
40
0.437500000000025
40
0.500000000000025
40
0.500000000000025
40
0.62500000000002
40
0.62500000000002
40
0.687500000000018
40
0.687500000000018
40
0.750000000000017
40
0.750000000000017
40
0.812500000000015
40
0.812500000000015
40
0.843750000000014
40
0.843750000000014
40
0.875000000000013
40
0.875000000000013
40
0.937500000000007
40
0.937500000000007
40
1
40
1
40
1
40
1
41
1
10
11.8943375672972
20
-23.6665017920809
30
0
41
1
10
11.8788923030148
20
-23.6860254491252
30
0
41
1
10
11.8604037172644
20
-23.7049589195931
30
0
41
1
10
11.8264575712211
20
-23.7323123198158
30
0
41
1
10
11.8140962699689
20
-23.7412544902042
30
0
41
1
10
11.7935837333003
20
-23.7543620682907
30
0
41
1
10
11.7864159259842
20
-23.7586801045419
30
0
41
1
10
11.7713191828914
20
-23.7672030231186
30
0
41
1
10
11.7633824368149
20
-23.7714105724816
30
0
41
1
10
11.7384769785307
20
-23.783725627043
30
0
41
1
10
11.7203772593315
20
-23.7915679133938
30
0
41
1
10
11.6901125047556
20
-23.8026065911348
30
0
41
1
10
11.6794995583257
20
-23.8061604830515
30
0
41
1
10
11.6573691354903
20
-23.8128680383081
30
0
41
1
10
11.645816556048
20
-23.8160358440181
30
0
41
1
10
11.6215461384037
20
-23.8219342456096
30
0
41
1
10
11.6088302857936
20
-23.8246655611125
30
0
41
1
10
11.5886665813881
20
-23.8283593459883
30
0
41
1
10
11.5817366894216
20
-23.82952636698
30
0
41
1
10
11.5676991017993
20
-23.8316728303993
30
0
41
1
10
11.5605721090662
20
-23.8326565134123
30
0
41
1
10
11.5388449404599
20
-23.8353222152632
30
0
41
1
10
11.523900773252
20
-23.8367207404255
30
0
41
1
10
11.4929356027572
20
-23.838635326325
30
0
41
1
10
11.4771758168219
20
-23.8391299750505
30
0
41
1
10
11.4613248654051
20
-23.8391299750505
30
0
0
SPLINE
5
170
100
AcDbEntity
8
SK1
62
256
6
ByLayer
370
18
48
1
60
0
100
AcDbSpline
70
4
71
3
72
45
73
41
40
0
40
0
40
0
40
0
40
0.0236943068603543
40
0.0517123105674914
40
0.0797303142746285
40
0.107748317981766
40
0.16378432539604
40
0.219820332810314
40
0.247838336517451
40
0.275856340224589
40
0.303874343931726
40
0.331892347638863
40
0.359910351346
40
0.387928355053137
40
0.415946358760274
40
0.429955360613843
40
0.443964362467411
40
0.471982366174549
40
0.485991368028117
40
0.492995868954901
40
0.500000369881686
40
0.50700487080847
40
0.514009371735254
40
0.528018373588823
40
0.55603637729596
40
0.570045379149528
40
0.584054381003097
40
0.612072384710234
40
0.640090388417371
40
0.668108392124509
40
0.696126395831646
40
0.724144399538783
40
0.75216240324592
40
0.780180406953057
40
0.836216414367332
40
0.892252421781606
40
0.920270425488743
40
0.94828842919588
40
0.976306432903017
40
1
40
1
40
1
40
1
41
1
10
-30.0000000000001
20
-15.9931892298292
30
0
41
1
10
-30.0000000000001
20
-15.9976541740977
30
0
41
1
10
-30.0000000000001
20
-15.9670776509079
30
0
41
1
10
-30.0000000000001
20
-15.7965331178348
30
0
41
1
10
-30.0000000000001
20
-15.4890632796304
30
0
41
1
10
-30.0000000000001
20
-14.9202435431777
30
0
41
1
10
-30
20
-13.943032723557
30
0
41
1
10
-30
20
-12.645067835693
30
0
41
1
10
-30
20
-11.4213703621899
30
0
41
1
10
-30
20
-10.4224345134303
30
0
41
1
10
-30
20
-9.34179268341299
30
0
41
1
10
-30
20
-8.18272261240918
30
0
41
1
10
-30
20
-6.94914665451265
30
0
41
1
10
-30
20
-5.64597210397014
30
0
41
1
10
-30
20
-4.51272453462835
30
0
41
1
10
-30
20
-3.56968201835687
30
0
41
1
10
-30
20
-2.61530592334955
30
0
41
1
10
-30
20
-1.67591474804144
30
0
41
1
10
-30
20
-0.833341855678839
30
0
41
1
10
-30
20
-0.354131622770325
30
0
41
1
10
-30
20
4.002278899E-07
30
0
41
1
10
-30
20
0.354131996183867
30
0
41
1
10
-30
20
0.833341540478585
30
0
41
1
10
-30
20
1.67591488034611
30
0
41
1
10
-30
20
2.61530613672127
30
0
41
1
10
-30
20
3.56968220154863
30
0
41
1
10
-30
20
4.51272494557495
30
0
41
1
10
-30
20
5.64597176408029
30
0
41
1
10
-30
20
6.9491470426357
30
0
41
1
10
-30
20
8.18272269843553
30
0
41
1
10
-30
20
9.34179238961883
30
0
41
1
10
-30
20
10.4224348167647
30
0
41
1
10
-30
20
11.421370391299
30
0
41
1
10
-29.9999999999999
20
12.6450674903884
30
0
41
1
10
-29.9999999999999
20
13.9430330734597
30
0
41
1
10
-29.9999999999999
20
14.9202427964399
30
0
41
1
10
-29.9999999999999
20
15.4890634139889
30
0
41
1
10
-29.9999999999999
20
15.7965327535814
30
0
41
1
10
-29.9999999999999
20
15.9670755097567
30
0
41
1
10
-29.9999999999999
20
15.9976531625675
30
0
41
1
10
-29.9999999999999
20
15.9931895369618
30
0
0
SPLINE
5
171
100
AcDbEntity
8
SK1
62
256
6
ByLayer
370
18
48
1
60
0
100
AcDbSpline
70
4
71
3
72
38
73
34
40
0
40
0
40
0
40
0
40
0.250000000000002
40
0.250000000000002
40
0.375000000000002
40
0.375000000000002
40
0.500000000000003
40
0.500000000000003
40
0.625000000000004
40
0.625000000000004
40
0.687500000000004
40
0.687500000000004
40
0.750000000000004
40
0.750000000000004
40
0.812500000000005
40
0.812500000000005
40
0.843750000000004
40
0.843750000000004
40
0.875000000000003
40
0.875000000000003
40
0.906250000000003
40
0.906250000000003
40
0.921875000000002
40
0.921875000000002
40
0.937500000000002
40
0.937500000000002
40
0.953125000000001
40
0.953125000000001
40
0.968750000000001
40
0.968750000000001
40
0.984375
40
0.984375
40
1
40
1
40
1
40
1
41
1
10
-0.200000000000017
20
-6.07843116862782
30
0
41
1
10
-0.200329859654744
20
-6.01357702681193
30
0
41
1
10
-0.201930655445139
20
-5.94848814748116
30
0
41
1
10
-0.207062820514793
20
-5.85044931358544
30
0
41
1
10
-0.20923421427959
20
-5.81770188154732
30
0
41
1
10
-0.214779228537879
20
-5.75205694597139
30
0
41
1
10
-0.218149341071424
20
-5.71913713924747
30
0
41
1
10
-0.226581907125876
20
-5.65322539656927
30
0
41
1
10
-0.231616433421593
20
-5.62029294902266
30
0
41
1
10
-0.241184891540044
20
-5.57099638970058
30
0
41
1
10
-0.24472314095334
20
-5.5545505837608
30
0
41
1
10
-0.252718404682426
20
-5.52188785992789
30
0
41
1
10
-0.257164394744024
20
-5.50568135296498
30
0
41
1
10
-0.26742241872914
20
-5.47365965349897
30
0
41
1
10
-0.273206407019302
20
-5.45783596374662
30
0
41
1
10
-0.283724888362116
20
-5.43464123738502
30
0
41
1
10
-0.28754234829357
20
-5.42700107315434
30
0
41
1
10
-0.296164698039164
20
-5.41201401791525
30
0
41
1
10
-0.30100375171908
20
-5.40461199814771
30
0
41
1
10
-0.312019326339623
20
-5.39094692539041
30
0
41
1
10
-0.318249907556051
20
-5.38460165612514
30
0
41
1
10
-0.328982330604333
20
-5.3770987494411
30
0
41
1
10
-0.332865959292491
20
-5.37490714744825
30
0
41
1
10
-0.340905624745318
20
-5.37162929612276
30
0
41
1
10
-0.345153788553787
20
-5.37051023807427
30
0
41
1
10
-0.353672033871234
20
-5.36955188220816
30
0
41
1
10
-0.357904387099666
20
-5.36969675293608
30
0
41
1
10
-0.366271728736009
20
-5.37110702101791
30
0
41
1
10
-0.370241250613887
20
-5.37233602993427
30
0
41
1
10
-0.377868038063753
20
-5.37555831609171
30
0
41
1
10
-0.381539373885147
20
-5.37756780385982
30
0
41
1
10
-0.388473887026279
20
-5.38206549938212
30
0
41
1
10
-0.391760928947534
20
-5.3845619683195
30
0
41
1
10
-0.394913799811306
20
-5.38724256160015
30
0
0
SPLINE
5
172
100
AcDbEntity
8
SK1
62
256
6
ByLayer
370
18
48
1
60
0
100
AcDbSpline
70
4
71
3
72
38
73
34
40
0
40
0
40
0
40
0
40
0.0156250000000001
40
0.0156250000000001
40
0.0312500000000002
40
0.0312500000000002
40
0.0468750000000004
40
0.0468750000000004
40
0.0625000000000005
40
0.0625000000000005
40
0.0781250000000006
40
0.0781250000000006
40
0.0937500000000007
40
0.0937500000000007
40
0.125000000000001
40
0.125000000000001
40
0.156250000000001
40
0.156250000000001
40
0.187500000000002
40
0.187500000000002
40
0.250000000000003
40
0.250000000000003
40
0.312500000000003
40
0.312500000000003
40
0.375000000000004
40
0.375000000000004
40
0.500000000000002
40
0.500000000000002
40
0.625000000000001
40
0.625000000000001
40
0.749999999999999
40
0.749999999999999
40
1
40
1
40
1
40
1
41
1
10
-0.394913799809089
20
5.38724490303883
30
0
41
1
10
-0.391781832950599
20
5.38458208568068
30
0
41
1
10
-0.388519962703654
20
5.38210330599358
30
0
41
1
10
-0.381650196472208
20
5.37763658736239
30
0
41
1
10
-0.378006935712691
20
5.37563233451883
30
0
41
1
10
-0.370423579196626
20
5.3724029821976
30
0
41
1
10
-0.366503702075789
20
5.3711787390184
30
0
41
1
10
-0.358331183029236
20
5.36974313779834
30
0
41
1
10
-0.354015865512224
20
5.36955368909105
30
0
41
1
10
-0.345568573157664
20
5.37043109064103
30
0
41
1
10
-0.341321667101795
20
5.37150405183596
30
0
41
1
10
-0.33326389022065
20
5.37470929745433
30
0
41
1
10
-0.329419339216912
20
5.3768359311569
30
0
41
1
10
-0.318577749102005
20
5.38430052550069
30
0
41
1
10
-0.312400979320145
20
5.39054104494898
30
0
41
1
10
-0.301354650856766
20
5.40411801099373
30
0
41
1
10
-0.296591327984828
20
5.41134235291122
30
0
41
1
10
-0.287922394074869
20
5.42628126699179
30
0
41
1
10
-0.284017391059478
20
5.43403466061613
30
0
41
1
10
-0.273296210572056
20
5.45757128508001
30
0
41
1
10
-0.267463037666246
20
5.47353830586758
30
0
41
1
10
-0.257144178244587
20
5.50574351679319
30
0
41
1
10
-0.252692130237676
20
5.52198910291614
30
0
41
1
10
-0.244699800124721
20
5.55465646091727
30
0
41
1
10
-0.241167183893481
20
5.57107991707352
30
0
41
1
10
-0.231573562775338
20
5.62053570751448
30
0
41
1
10
-0.226533735279574
20
5.65356559342865
30
0
41
1
10
-0.218124597313064
20
5.71937115219083
30
0
41
1
10
-0.214765406462036
20
5.75220767187554
30
0
41
1
10
-0.209230735863699
20
5.81775962892681
30
0
41
1
10
-0.2070615342016
20
5.85047499197699
30
0
41
1
10
-0.201932717754914
20
5.94845143864757
30
0
41
1
10
-0.200330038101626
20
6.01354333629124
30
0
41
1
10
-0.199999999999989
20
6.07843244580855
30
0
0
SPLINE
5
173
100
AcDbEntity
8
SK1
62
256
6
ByLayer
370
13
48
1
60
0
100
AcDbSpline
70
4
71
3
72
20
73
16
40
0
40
0
40
0
40
0
40
0.0453685402449555
40
0.113618264793951
40
0.181867989342947
40
0.250117713891943
40
0.318367438440939
40
0.386617162989934
40
0.45486688753893
40
0.591366336636922
40
0.727865785734913
40
0.796115510283909
40
0.864365234832905
40
0.932614959381901
40
1
40
1
40
1
40
1
41
1
10
-0.394913799811306
20
-5.38724256160785
30
0
41
1
10
-0.394913799811306
20
-5.7190547501427
30
0
41
1
10
-0.39491379981132
20
-6.5348354946259
30
0
41
1
10
-0.39491379981132
20
-7.7796880789966
30
0
41
1
10
-0.39491379981132
20
-9.09679923539034
30
0
41
1
10
-0.394913799811334
20
-10.3283869583107
30
0
41
1
10
-0.394913799811334
20
-11.4729576347282
30
0
41
1
10
-0.394913799811334
20
-12.5286533763275
30
0
41
1
10
-0.394913799811349
20
-13.8156305223415
30
0
41
1
10
-0.394913799811349
20
-15.1889742433629
30
0
41
1
10
-0.394913799811349
20
-16.224825355641
30
0
41
1
10
-0.394913799811349
20
-16.8259463034278
30
0
41
1
10
-0.394913799811349
20
-17.1536380024563
30
0
41
1
10
-0.394913799811363
20
-17.3456596442428
30
0
41
1
10
-0.394913799811377
20
-17.3741382160256
30
0
41
1
10
-0.394913799811363
20
-17.3602188927765
30
0
0
SPLINE
5
174
100
AcDbEntity
8
SK1
62
256
6
ByLayer
370
18
48
1
60
0
100
AcDbSpline
70
4
71
3
72
50
73
46
40
0
40
0
40
0
40
0
40
0.0312500000000015
40
0.0312500000000015
40
0.0468750000000022
40
0.0468750000000022
40
0.0625000000000029
40
0.0625000000000029
40
0.0781250000000036
40
0.0781250000000036
40
0.0937500000000043
40
0.0937500000000043
40
0.109375000000005
40
0.109375000000005
40
0.125000000000006
40
0.125000000000006
40
0.140625000000006
40
0.140625000000006
40
0.156250000000007
40
0.156250000000007
40
0.187500000000007
40
0.187500000000007
40
0.218750000000006
40
0.218750000000006
40
0.250000000000006
40
0.250000000000006
40
0.281250000000005
40
0.281250000000005
40
0.312500000000005
40
0.312500000000005
40
0.375000000000004
40
0.375000000000004
40
0.437500000000003
40
0.437500000000003
40
0.500000000000001
40
0.500000000000001
40
0.625
40
0.625
40
0.6875
40
0.6875
40
0.75
40
0.75
40
0.875
40
0.875
40
1
40
1
40
1
40
1
41
1
10
-0.394913799811306
20
-5.38724256160785
30
0
41
1
10
-0.411056331481717
20
-5.40096705709072
30
0
41
1
10
-0.428167571421099
20
-5.41359596702645
30
0
41
1
10
-0.455974774655175
20
-5.43013648208
30
0
41
1
10
-0.465658214707005
20
-5.43526409556435
30
0
41
1
10
-0.485484698823498
20
-5.44430592701531
30
0
41
1
10
-0.495657428995102
20
-5.44824432393753
30
0
41
1
10
-0.516608715435055
20
-5.45476351226009
30
0
41
1
10
-0.527386860231843
20
-5.45734523281897
30
0
41
1
10
-0.549664818445294
20
-5.46089328829356
30
0
41
1
10
-0.560930035443789
20
-5.46180969649637
30
0
41
1
10
-0.583365846617895
20
-5.4618713105761
30
0
41
1
10
-0.594591467840047
20
-5.46102572365922
30
0
41
1
10
-0.617058166617767
20
-5.45757599588921
30
0
41
1
10
-0.627999143283219
20
-5.45501931647436
30
0
41
1
10
-0.649331735085596
20
-5.44848807488125
30
0
41
1
10
-0.659758151599846
20
-5.44449947952501
30
0
41
1
10
-0.68003652504504
20
-5.43533205618732
30
0
41
1
10
-0.689742098894584
20
-5.43022628481572
30
0
41
1
10
-0.717826906306115
20
-5.41366379171245
30
0
41
1
10
-0.735187935399352
20
-5.40097830060952
30
0
41
1
10
-0.768034946557933
20
-5.3733304614868
30
0
41
1
10
-0.783237057424174
20
-5.35859529837754
30
0
41
1
10
-0.811836627358687
20
-5.32802442998909
30
0
41
1
10
-0.825257514876
20
-5.31215335693128
30
0
41
1
10
-0.85080730255018
20
-5.27953884086708
30
0
41
1
10
-0.8629322094869
20
-5.26279281423712
30
0
41
1
10
-0.886169886076814
20
-5.22860723544372
30
0
41
1
10
-0.897260448987041
20
-5.21119248410571
30
0
41
1
10
-0.929029640850743
20
-5.15857889561175
30
0
41
1
10
-0.948347177186236
20
-5.12284414993096
30
0
41
1
10
-0.98448753502646
20
-5.05043807526351
30
0
41
1
10
-1.00129416978025
20
-5.013761649543
30
0
41
1
10
-1.03304457478235
20
-4.93966608077309
30
0
41
1
10
-1.04798244371666
20
-4.90224508459647
30
0
41
1
10
-1.09059413059556
20
-4.78904752584498
30
0
41
1
10
-1.11609621830425
20
-4.71234577760799
30
0
41
1
10
-1.15135515985605
20
-4.5958383808707
30
0
41
1
10
-1.16260343866755
20
-4.55673847320068
30
0
41
1
10
-1.18417456263644
20
-4.47826299864514
30
0
41
1
10
-1.19450305218302
20
-4.4388689467043
30
0
41
1
10
-1.22429462395719
20
-4.32024366329264
30
0
41
1
10
-1.24257202444836
20
-4.24057073726357
30
0
41
1
10
-1.2766185980946
20
-4.08013408760161
30
0
41
1
10
-1.29238372607519
20
-3.99936988902869
30
0
41
1
10
-1.30710678118656
20
-3.91808269248793
30
0
0
SPLINE
5
175
100
AcDbEntity
8
SK1
62
256
6
ByLayer
370
18
48
1
60
0
100
AcDbSpline
70
4
71
3
72
38
73
34
40
0
40
0
40
0
40
0
40
0.0624999999999996
40
0.0624999999999996
40
0.124999999999999
40
0.124999999999999
40
0.249999999999999
40
0.249999999999999
40
0.374999999999998
40
0.374999999999998
40
0.390624999999998
40
0.390624999999998
40
0.406249999999998
40
0.406249999999998
40
0.437499999999998
40
0.437499999999998
40
0.499999999999998
40
0.499999999999998
40
0.562499999999998
40
0.562499999999998
40
0.624999999999999
40
0.624999999999999
40
0.749999999999999
40
0.749999999999999
40
0.781249999999999
40
0.781249999999999
40
0.812499999999999
40
0.812499999999999
40
0.874999999999999
40
0.874999999999999
40
0.9375
40
0.9375
40
1
40
1
40
1
40
1
41
1
10
-1.30710678118656
20
-3.91808269248796
30
0
41
1
10
-1.33526487251861
20
-3.76261955749285
30
0
41
1
10
-1.36267126502634
20
-3.6063109858577
30
0
41
1
10
-1.41562242099805
20
-3.29187611045597
30
0
41
1
10
-1.44117770353178
20
-3.13375373985019
30
0
41
1
10
-1.51435013598103
20
-2.65639932915295
30
0
41
1
10
-1.55846884179033
20
-2.33418302861881
30
0
41
1
10
-1.63296978491243
20
-1.68004719877024
30
0
41
1
10
-1.66337509736468
20
-1.34813830750838
30
0
41
1
10
-1.68707319146451
20
-0.968091690681803
30
0
41
1
10
-1.68955923537888
20
-0.925771372654168
30
0
41
1
10
-1.69422507481973
20
-0.840939584978429
30
0
41
1
10
-1.69640659794261
20
-0.798386309984579
30
0
41
1
10
-1.70245250680871
20
-0.670897601193587
30
0
41
1
10
-1.70582437938029
20
-0.586052568901891
30
0
41
1
10
-1.71388361409092
20
-0.331968562037986
30
0
41
1
10
-1.71646782396985
20
-0.16318710130588
30
0
41
1
10
-1.71636335941632
20
0.173213348331899
30
0
41
1
10
-1.71367008139578
20
0.34083166255536
30
0
41
1
10
-1.70293626023371
20
0.674902568806175
30
0
41
1
10
-1.69494665814693
20
0.841362289300548
30
0
41
1
10
-1.66399327242202
20
1.33914312869118
30
0
41
1
10
-1.63408221528162
20
1.66887252592326
30
0
41
1
10
-1.5876007265538
20
2.07872253566578
30
0
41
1
10
-1.57784909269046
20
2.16057674059007
30
0
41
1
10
-1.5574977199426
20
2.32406172494171
30
0
41
1
10
-1.54688933197929
20
2.40575612114202
30
0
41
1
10
-1.51394731043965
20
2.65007047288918
30
0
41
1
10
-1.49055743488208
20
2.81150726182861
30
0
41
1
10
-1.44149329508792
20
3.13180385741541
30
0
41
1
10
-1.41582315096535
20
3.29066553946589
30
0
41
1
10
-1.36271475580055
20
3.60607338167011
30
0
41
1
10
-1.33526589565591
20
3.76261441071909
30
0
41
1
10
-1.30710678118653
20
3.91808311129771
30
0
0
SPLINE
5
176
100
AcDbEntity
8
SK1
62
256
6
ByLayer
370
18
48
1
60
0
100
AcDbSpline
70
4
71
3
72
53
73
49
40
0
40
0
40
0
40
0
40
0.125000000000001
40
0.125000000000001
40
0.250000000000003
40
0.250000000000003
40
0.312500000000002
40
0.312500000000002
40
0.375000000000001
40
0.375000000000001
40
0.499999999999999
40
0.499999999999999
40
0.562499999999999
40
0.562499999999999
40
0.624999999999998
40
0.624999999999998
40
0.687499999999997
40
0.687499999999997
40
0.718749999999997
40
0.718749999999997
40
0.749999999999997
40
0.749999999999997
40
0.781249999999997
40
0.781249999999997
40
0.812499999999997
40
0.812499999999997
40
0.843749999999997
40
0.843749999999997
40
0.859374999999997
40
0.859374999999997
40
0.874999999999998
40
0.874999999999998
40
0.890624999999998
40
0.890624999999998
40
0.898437499999998
40
0.898437499999998
40
0.906249999999998
40
0.906249999999998
40
0.921874999999998
40
0.929687499999998
40
0.929687499999998
40
0.937499999999998
40
0.937499999999998
40
0.968749999999999
40
0.968749999999999
40
0.984374999999999
40
0.984374999999999
40
1
40
1
40
1
40
1
41
1
10
-1.30710678118653
20
3.91808311129773
30
0
41
1
10
-1.29239108240532
20
3.99932964943409
30
0
41
1
10
-1.27663490881504
20
4.08005058420358
30
0
41
1
10
-1.24261095077243
20
4.24039497937329
30
0
41
1
10
-1.22434718173433
20
4.32001891689725
30
0
41
1
10
-1.19458151328423
20
4.43856580615747
30
0
41
1
10
-1.18426257821703
20
4.47793290560355
30
0
41
1
10
-1.16271294340756
20
4.55635268985432
30
0
41
1
10
-1.15147501748677
20
4.5954305661744
30
0
41
1
10
-1.11622081339451
20
4.71196262616607
30
0
41
1
10
-1.09072783956063
20
4.78866062339225
30
0
41
1
10
-1.04815216411873
20
4.90181336669082
30
0
41
1
10
-1.03323011355691
20
4.93921284702577
30
0
41
1
10
-1.00152410230018
20
5.01324987497111
30
0
41
1
10
-0.98474588609686
20
5.04988928444075
30
0
41
1
10
-0.948685190430865
20
5.12220258194967
30
0
41
1
10
-0.929418355061529
20
5.15788155457776
30
0
41
1
10
-0.897760317588393
20
5.21039425330486
30
0
41
1
10
-0.886742970836536
20
5.22772922691752
30
0
41
1
10
-0.863513824307958
20
5.26197522516887
30
0
41
1
10
-0.851357742368592
20
5.27880041053592
30
0
41
1
10
-0.825828436847445
20
5.31146357138681
30
0
41
1
10
-0.812437519911782
20
5.32733553299153
30
0
41
1
10
-0.783971777383854
20
5.35785904442619
30
0
41
1
10
-0.768905931142385
20
5.37251692611164
30
0
41
1
10
-0.736341322354477
20
5.40008757388526
30
0
41
1
10
-0.718704728837906
20
5.41307616107983
30
0
41
1
10
-0.690494000998498
20
5.42981903443433
30
0
41
1
10
-0.680770506186036
20
5.43496537787158
30
0
41
1
10
-0.660532703009238
20
5.4441860527954
30
0
41
1
10
-0.650045797816972
20
5.44823342219186
30
0
41
1
10
-0.628779113836003
20
5.45481846069109
30
0
41
1
10
-0.617932285477181
20
5.4573891634796
30
0
41
1
10
-0.601299914959739
20
5.46002170773141
30
0
41
1
10
-0.595695338837004
20
5.46069496960084
30
0
41
1
10
-0.58435691270013
20
5.46160478770395
30
0
41
1
10
-0.578637021974231
20
5.46183701163628
30
0
41
1
10
-0.561675487241899
20
5.46185622962994
30
0
41
1
10
-0.544917445528725
20
5.46054034675203
30
0
41
1
10
-0.528445210270363
20
5.45734844847985
30
0
41
1
10
-0.51752538903331
20
5.45481548249097
30
0
41
1
10
-0.512078734988151
20
5.4533397528954
30
0
41
1
10
-0.485450985324846
20
5.44513209892821
30
0
41
1
10
-0.465729936503891
20
5.43590631685379
30
0
41
1
10
-0.437770416117473
20
5.4193273215547
30
0
41
1
10
-0.428743917867379
20
5.41334179407008
30
0
41
1
10
-0.411386251483421
20
5.40075705360888
30
0
41
1
10
-0.403020392726987
20
5.39413717786437
30
0
41
1
10
-0.394913799811278
20
5.38724490303858
30
0
0
SPLINE
5
177
100
AcDbEntity
8
SK1
62
256
6
ByLayer
370
13
48
1
60
0
100
AcDbSpline
70
4
71
3
72
20
73
16
40
0
40
0
40
0
40
0
40
0.0673842632300751
40
0.135634051879292
40
0.203883840528509
40
0.272133629177726
40
0.408633206476159
40
0.545132783774593
40
0.61338257242381
40
0.681632361073027
40
0.749882149722244
40
0.818131938371461
40
0.886381727020678
40
0.954631515669894
40
1
40
1
40
1
40
1
41
1
10
-0.394913799811221
20
17.3602193112052
30
0
41
1
10
-0.394913799811221
20
17.3741378069709
30
0
41
1
10
-0.394913799811221
20
17.3456582492964
30
0
41
1
10
-0.394913799811221
20
17.1536376810083
30
0
41
1
10
-0.394913799811235
20
16.8259464323311
30
0
41
1
10
-0.394913799811235
20
16.2248245878661
30
0
41
1
10
-0.394913799811235
20
15.1889746622834
30
0
41
1
10
-0.394913799811235
20
13.8156301488903
30
0
41
1
10
-0.394913799811249
20
12.5286535254346
30
0
41
1
10
-0.394913799811249
20
11.4729578043957
30
0
41
1
10
-0.394913799811249
20
10.3283867090429
30
0
41
1
10
-0.394913799811263
20
9.09679950047928
30
0
41
1
10
-0.394913799811263
20
7.77968825069564
30
0
41
1
10
-0.394913799811263
20
6.53483606378791
30
0
41
1
10
-0.394913799811263
20
5.71905630139054
30
0
41
1
10
-0.394913799811278
20
5.38724490303881
30
0
0
SPLINE
5
178
100
AcDbEntity
8
SK1
62
256
6
ByLayer
370
13
48
1
60
0
100
AcDbSpline
70
4
71
3
72
45
73
41
40
0
40
0
40
0
40
0
40
0.0139247372020537
40
0.0425174009253237
40
0.0711100646485937
40
0.0997027283718637
40
0.156888055818404
40
0.214073383264944
40
0.242666046988214
40
0.271258710711484
40
0.299851374434754
40
0.328444038158024
40
0.357036701881294
40
0.385629365604564
40
0.414222029327834
40
0.428518361189469
40
0.442814693051103
40
0.471407356774374
40
0.485703688636009
40
0.492851854566826
40
0.500000020497644
40
0.507148186428461
40
0.514296352359279
40
0.528592684220914
40
0.557185347944184
40
0.571481679805819
40
0.585778011667454
40
0.614370675390724
40
0.642963339113994
40
0.671556002837263
40
0.700148666560534
40
0.728741330283804
40
0.757333994007073
40
0.785926657730343
40
0.843111985176883
40
0.900297312623423
40
0.928889976346693
40
0.957482640069963
40
0.986075303793233
40
1
40
1
40
1
40
1
41
1
10
-1.99503997793923
20
17.3200454234327
30
0
41
1
10
-1.99503997793923
20
17.31334426435
30
0
41
1
10
-1.99503997793924
20
17.2734193795945
30
0
41
1
10
-1.99503997793923
20
17.1138751154124
30
0
41
1
10
-1.99503997793923
20
16.7867763596001
30
0
41
1
10
-1.99503997793924
20
16.1866009265939
30
0
41
1
10
-1.99503997793924
20
15.1524691326423
30
0
41
1
10
-1.99503997793924
20
13.7813331880937
30
0
41
1
10
-1.99503997793926
20
12.4962106263157
30
0
41
1
10
-1.99503997793926
20
11.4421779521075
30
0
41
1
10
-1.99503997793926
20
10.2994799380558
30
0
41
1
10
-1.99503997793926
20
9.07001746022104
30
0
41
1
10
-1.99503997793927
20
7.75535376586828
30
0
41
1
10
-1.99503997793927
20
6.35676341745574
30
0
41
1
10
-1.99503997793928
20
5.12318926412428
30
0
41
1
10
-1.99503997793928
20
4.09531236648536
30
0
41
1
10
-1.99503997793928
20
3.04236295320669
30
0
41
1
10
-1.99503997793928
20
1.95640625727882
30
0
41
1
10
-1.9950399779393
20
0.981337226851394
30
0
41
1
10
-1.9950399779393
20
0.420771319084707
30
0
41
1
10
-1.9950399779393
20
6.88173714E-08
30
0
41
1
10
-1.9950399779393
20
-0.420771221994329
30
0
41
1
10
-1.9950399779393
20
-0.981337209960486
30
0
41
1
10
-1.9950399779393
20
-1.95640624898675
30
0
41
1
10
-1.99503997793931
20
-3.04236280324244
30
0
41
1
10
-1.99503997793931
20
-4.0953123914187
30
0
41
1
10
-1.99503997793931
20
-5.12318891405303
30
0
41
1
10
-1.99503997793933
20
-6.35676356337376
30
0
41
1
10
-1.99503997793933
20
-7.7553535878281
30
0
41
1
10
-1.99503997793933
20
-9.07001720037854
30
0
41
1
10
-1.99503997793934
20
-10.2994801886281
30
0
41
1
10
-1.99503997793934
20
-11.4421777785236
30
0
41
1
10
-1.99503997793934
20
-12.4962104807245
30
0
41
1
10
-1.99503997793934
20
-13.7813335607202
30
0
41
1
10
-1.99503997793936
20
-15.152468715744
30
0
41
1
10
-1.99503997793936
20
-16.1866016937524
30
0
41
1
10
-1.99503997793936
20
-16.786776230537
30
0
41
1
10
-1.99503997793936
20
-17.1138754381145
30
0
41
1
10
-1.99503997793936
20
-17.2734198429795
30
0
41
1
10
-1.99503997793936
20
-17.3133444721812
30
0
41
1
10
-1.99503997793936
20
-17.3200455763139
30
0
0
SPLINE
5
179
100
AcDbEntity
8
SK1
62
256
6
ByLayer
370
18
48
1
60
0
100
AcDbSpline
70
4
71
3
72
45
73
41
40
0
40
0
40
0
40
0
40
0.013897064871961
40
0.0424913611809228
40
0.0710856574898846
40
0.0996799537988464
40
0.15686854641677
40
0.214057139034694
40
0.242651435343655
40
0.271245731652617
40
0.299840027961579
40
0.328434324270541
40
0.357028620579503
40
0.385622916888464
40
0.414217213197426
40
0.428514361351907
40
0.442811509506388
40
0.47140580581535
40
0.48570295396983
40
0.492851528047071
40
0.500000102124311
40
0.507148676201552
40
0.514297250278792
40
0.528594398433273
40
0.557188694742235
40
0.571485842896716
40
0.585782991051197
40
0.614377287360159
40
0.64297158366912
40
0.671565879978082
40
0.700160176287044
40
0.728754472596006
40
0.757348768904968
40
0.785943065213929
40
0.843131657831853
40
0.900320250449776
40
0.928914546758738
40
0.9575088430677
40
0.986103139376662
40
1
40
1
40
1
40
1
41
1
10
-2.19999999999993
20
17.5147945430134
30
0
41
1
10
-2.19999999999993
20
17.5080193397418
30
0
41
1
10
-2.19999999999993
20
17.4676802397792
30
0
41
1
10
-2.19999999999993
20
17.3066644250431
30
0
41
1
10
-2.19999999999993
20
16.9766929599708
30
0
41
1
10
-2.19999999999993
20
16.3719288388599
30
0
41
1
10
-2.19999999999995
20
15.3294666616433
30
0
41
1
10
-2.19999999999995
20
13.9476224427057
30
0
41
1
10
-2.19999999999996
20
12.6535104390874
30
0
41
1
10
-2.19999999999996
20
11.5914144609754
30
0
41
1
10
-2.19999999999996
20
10.4396347881955
30
0
41
1
10
-2.19999999999996
20
9.19987052615136
30
0
41
1
10
-2.19999999999997
20
7.87333982787851
30
0
41
1
10
-2.19999999999997
20
6.46078575524433
30
0
41
1
10
-2.19999999999997
20
5.21252898167785
30
0
41
1
10
-2.19999999999999
20
4.17223684682958
30
0
41
1
10
-2.19999999999999
20
3.10486150423554
30
0
41
1
10
-2.19999999999999
20
1.99745537289451
30
0
41
1
10
-2.2
20
1.00299597482069
30
0
41
1
10
-2.2
20
0.430523794544854
30
0
41
1
10
-2.2
20
2.03164063E-08
30
0
41
1
10
-2.2
20
-0.430523737893537
30
0
41
1
10
-2.2
20
-1.00299590932914
30
0
41
1
10
-2.2
20
-1.9974553827513
30
0
41
1
10
-2.20000000000002
20
-3.10486136355075
30
0
41
1
10
-2.20000000000002
20
-4.17223690222139
30
0
41
1
10
-2.20000000000002
20
-5.21252864051553
30
0
41
1
10
-2.20000000000002
20
-6.46078587277509
30
0
41
1
10
-2.20000000000003
20
-7.87333968058334
30
0
41
1
10
-2.20000000000003
20
-9.19987024087132
30
0
41
1
10
-2.20000000000005
20
-10.4396350324424
30
0
41
1
10
-2.20000000000005
20
-11.5914143063801
30
0
41
1
10
-2.20000000000005
20
-12.6535102764493
30
0
41
1
10
-2.20000000000005
20
-13.9476228193307
30
0
41
1
10
-2.20000000000006
20
-15.3294662349403
30
0
41
1
10
-2.20000000000006
20
-16.3719296090069
30
0
41
1
10
-2.20000000000006
20
-16.9766928316826
30
0
41
1
10
-2.20000000000006
20
-17.3066647416643
30
0
41
1
10
-2.20000000000006
20
-17.4676803354895
30
0
41
1
10
-2.20000000000005
20
-17.5080192378246
30
0
41
1
10
-2.20000000000005
20
-17.5147944567193
30
0
0
SPLINE
5
17A
100
AcDbEntity
8
SK1
62
256
6
ByLayer
370
18
48
1
60
0
100
AcDbSpline
70
4
71
3
72
45
73
41
40
0
40
0
40
0
40
0
40
0.0275256186242279
40
0.0553182319559381
40
0.0831108452876483
40
0.110903458619359
40
0.166488685282779
40
0.222073911946199
40
0.249866525277909
40
0.277659138609619
40
0.30545175194133
40
0.33324436527304
40
0.36103697860475
40
0.38882959193646
40
0.41662220526817
40
0.430518511934026
40
0.444414818599881
40
0.472207431931591
40
0.486103738597446
40
0.493051891930373
40
0.500000045263301
40
0.506948198596228
40
0.513896351929156
40
0.527792658595011
40
0.555585271926721
40
0.569481578592576
40
0.583377885258431
40
0.611170498590142
40
0.638963111921852
40
0.666755725253562
40
0.694548338585272
40
0.722340951916982
40
0.750133565248692
40
0.777926178580403
40
0.833511405243823
40
0.889096631907243
40
0.916889245238954
40
0.944681858570663
40
0.972474471902374
40
1
40
1
40
1
40
1
41
1
10
-28.4999999999999
20
16.8545102400154
30
0
41
1
10
-28.4999999999999
20
16.8681141436295
30
0
41
1
10
-28.4999999999999
20
16.8405420095262
30
0
41
1
10
-28.4999999999999
20
16.6531187925378
30
0
41
1
10
-28.4999999999999
20
16.3328856609548
30
0
41
1
10
-28.4999999999999
20
15.743676951477
30
0
41
1
10
-28.4999999999999
20
14.7294543359373
30
0
41
1
10
-28.5
20
13.383910604677
30
0
41
1
10
-28.5
20
12.1202723366857
30
0
41
1
10
-28.5
20
11.0855105352456
30
0
41
1
10
-28.5
20
9.96451720849836
30
0
41
1
10
-28.5
20
8.75967545377569
30
0
41
1
10
-28.5
20
7.47337327542309
30
0
41
1
10
-28.5
20
6.10815549439164
30
0
41
1
10
-28.5
20
4.90967203214981
30
0
41
1
10
-28.5
20
3.91146689927399
30
0
41
1
10
-28.5
20
2.89299469927096
30
0
41
1
10
-28.5
20
1.85830102725052
30
0
41
1
10
-28.5
20
0.92957395693
30
0
41
1
10
-28.5
20
0.397463415028625
30
0
41
1
10
-28.5
20
1.847322437E-07
30
0
41
1
10
-28.5
20
-0.397463221290792
30
0
41
1
10
-28.5
20
-0.929574056191825
30
0
41
1
10
-28.5
20
-1.8583009755834
30
0
41
1
10
-28.5
20
-2.89299452712905
30
0
41
1
10
-28.5
20
-3.91146685141297
30
0
41
1
10
-28.5
20
-4.90967166078656
30
0
41
1
10
-28.5
20
-6.10815570815353
30
0
41
1
10
-28.5
20
-7.47337302390375
30
0
41
1
10
-28.5
20
-8.75967525472734
30
0
41
1
10
-28.5
20
-9.96451747418791
30
0
41
1
10
-28.5
20
-11.0855103162797
30
0
41
1
10
-28.5
20
-12.1202722318354
30
0
41
1
10
-28.5000000000001
20
-13.3839109677472
30
0
41
1
10
-28.5000000000001
20
-14.7294539424714
30
0
41
1
10
-28.5000000000001
20
-15.743677711493
30
0
41
1
10
-28.5000000000001
20
-16.3328855300395
30
0
41
1
10
-28.5000000000001
20
-16.6531191297729
30
0
41
1
10
-28.5000000000001
20
-16.8405423960211
30
0
41
1
10
-28.5000000000001
20
-16.8681141124382
30
0
41
1
10
-28.5000000000001
20
-16.8545104812634
30
0
0
SPLINE
5
17B
100
AcDbEntity
8
1
62
256
6
ByLayer
370
18
48
1
60
0
100
AcDbSpline
70
4
71
3
72
36
73
32
40
0
40
0
40
0
40
0
40
0.122294168919118
40
0.122294168919118
40
0.1954363215092
40
0.1954363215092
40
0.232007397804241
40
0.232007397804241
40
0.268578474099282
40
0.268578474099282
40
0.341720626689363
40
0.341720626689363
40
0.378291702984403
40
0.378291702984403
40
0.414862779279441
40
0.414862779279441
40
0.488004931869519
40
0.488004931869519
40
0.524576008164557
40
0.524576008164557
40
0.561147084459594
40
0.561147084459594
40
0.634289237049662
40
0.634289237049662
40
0.707431389639729
40
0.707431389639729
40
0.780573542229797
40
0.780573542229797
40
0.853715694819865
40
0.853715694819865
40
1
40
1
40
1
40
1
41
1
10
287.607729614588
20
-19.7165323184196
30
0
41
1
10
287.598295176105
20
-19.7260353140283
30
0
41
1
10
287.589548040495
20
-19.7348526937608
30
0
41
1
10
287.576962978984
20
-19.7475455477908
30
0
41
1
10
287.572665768936
20
-19.7518812199205
30
0
41
1
10
287.566937041454
20
-19.7576626687898
30
0
41
1
10
287.565146159727
20
-19.7594703034844
30
0
41
1
10
287.561821741835
20
-19.7628262012996
30
0
41
1
10
287.560285385348
20
-19.7643773132473
30
0
41
1
10
287.556170769704
20
-19.7685318245787
30
0
41
1
10
287.554054662599
20
-19.7706689842475
30
0
41
1
10
287.551904777518
20
-19.7728403855666
30
0
41
1
10
287.551358069514
20
-19.7733926014488
30
0
41
1
10
287.550642684802
20
-19.7741152032579
30
0
41
1
10
287.550471174801
20
-19.7742884504578
30
0
41
1
10
287.550501778366
20
-19.7742575373648
30
0
41
1
10
287.551246131199
20
-19.7735056170728
30
0
41
1
10
287.553449587003
20
-19.7712801191211
30
0
41
1
10
287.554366440456
20
-19.7703541331474
30
0
41
1
10
287.556507437831
20
-19.7681920072904
30
0
41
1
10
287.557735591993
20
-19.7669518171114
30
0
41
1
10
287.561863192775
20
-19.7627842351997
30
0
41
1
10
287.565218581561
20
-19.7593968992328
30
0
41
1
10
287.572951716672
20
-19.7515926878484
30
0
41
1
10
287.577252302461
20
-19.7472536906856
30
0
41
1
10
287.586584704884
20
-19.7378414692282
30
0
41
1
10
287.591617667416
20
-19.7327670857892
30
0
41
1
10
287.602342916788
20
-19.7219581556365
30
0
41
1
10
287.607954623723
20
-19.7163048356891
30
0
41
1
10
287.625296915117
20
-19.6988417531493
30
0
41
1
10
287.637586054382
20
-19.6864770846466
30
0
41
1
10
287.650480947162
20
-19.6735161477117
30
0
0
SPLINE
5
17C
100
AcDbEntity
8
1
62
256
6
ByLayer
370
18
48
1
60
0
100
AcDbSpline
70
4
71
3
72
8
73
4
40
0
40
0
40
0
40
0
40
1
40
1
40
1
40
1
41
1
10
287.650480947162
20
-19.6735161477117
30
0
41
1
10
287.875830405165
20
-19.4470125107008
30
0
41
1
10
288.100607863251
20
-19.219754669872
30
0
41
1
10
288.324759526419
20
-18.991671694457
30
0
0
SPLINE
5
17D
100
AcDbEntity
8
1
62
256
6
ByLayer
370
18
48
1
60
0
100
AcDbSpline
70
4
71
3
72
8
73
4
40
0
40
0
40
0
40
0
40
1
40
1
40
1
40
1
41
1
10
288.324759526419
20
-18.9768567932111
30
0
41
1
10
288.100458994954
20
-19.1950332762292
30
0
41
1
10
287.875685997487
20
-19.412558910768
30
0
41
1
10
287.650480947162
20
-19.6294893682068
30
0
0
SPLINE
5
17E
100
AcDbEntity
8
1
62
256
6
ByLayer
370
18
48
1
60
0
100
AcDbSpline
70
4
71
3
72
36
73
32
40
0
40
0
40
0
40
0
40
0.0625000000000001
40
0.0625000000000001
40
0.125
40
0.125
40
0.1875
40
0.1875
40
0.25
40
0.25
40
0.3125
40
0.3125
40
0.375000000000001
40
0.375000000000001
40
0.437500000000001
40
0.437500000000001
40
0.500000000000001
40
0.500000000000001
40
0.562500000000001
40
0.562500000000001
40
0.625000000000001
40
0.625000000000001
40
0.687500000000001
40
0.687500000000001
40
0.750000000000001
40
0.750000000000001
40
0.812500000000001
40
0.812500000000001
40
0.875000000000001
40
0.875000000000001
40
1
40
1
40
1
40
1
41
1
10
287.650480947162
20
-19.6294893682068
30
0
41
1
10
287.643862084188
20
-19.6358650377156
30
0
41
1
10
287.637368158041
20
-19.6420854939403
30
0
41
1
10
287.624658212001
20
-19.654179514404
30
0
41
1
10
287.618465781099
20
-19.6600302465748
30
0
41
1
10
287.606614451507
20
-19.6711317760512
30
0
41
1
10
287.600930365741
20
-19.6764066912087
30
0
41
1
10
287.590113554064
20
-19.6863246581532
30
0
41
1
10
287.584944456052
20
-19.6910000297351
30
0
41
1
10
287.575462300344
20
-19.6994157565428
30
0
41
1
10
287.571165979258
20
-19.7031426233284
30
0
41
1
10
287.563582231134
20
-19.7095025996341
30
0
41
1
10
287.560295493777
20
-19.712131438416
30
0
41
1
10
287.555115656292
20
-19.7159495810432
30
0
41
1
10
287.55318093426
20
-19.7171751733816
30
0
41
1
10
287.550745513604
20
-19.7181286395752
30
0
41
1
10
287.550291079597
20
-19.717836383796
30
0
41
1
10
287.550812662286
20
-19.7158184071486
30
0
41
1
10
287.551796471514
20
-19.7140793421226
30
0
41
1
10
287.555138387984
20
-19.7092388666708
30
0
41
1
10
287.557446708715
20
-19.7062051495612
30
0
41
1
10
287.563158317433
20
-19.6990846204179
30
0
41
1
10
287.566592406128
20
-19.6949623448446
30
0
41
1
10
287.57432482138
20
-19.6859171291043
30
0
41
1
10
287.578590882068
20
-19.681029982192
30
0
41
1
10
287.587802061849
20
-19.670638073288
30
0
41
1
10
287.592748132286
20
-19.6651324406492
30
0
41
1
10
287.60325464834
20
-19.6535639456453
30
0
41
1
10
287.608756349684
20
-19.6475660845116
30
0
41
1
10
287.625757992912
20
-19.6291819152162
30
0
41
1
10
287.63781344554
20
-19.61633815057
30
0
41
1
10
287.650480947162
20
-19.6030003410703
30
0
0
SPLINE
5
17F
100
AcDbEntity
8
1
62
256
6
ByLayer
370
18
48
1
60
0
100
AcDbSpline
70
4
71
3
72
8
73
4
40
0
40
0
40
0
40
0
40
1
40
1
40
1
40
1
41
1
10
287.650480947162
20
-19.6030003410703
30
0
41
1
10
287.876008003165
20
-19.3655393957396
30
0
41
1
10
288.100791090601
20
-19.1271433496662
30
0
41
1
10
288.324759526419
20
-18.8877233606923
30
0
0
SPLINE
5
180
100
AcDbEntity
8
1
62
256
6
ByLayer
370
18
48
1
60
0
100
AcDbSpline
70
4
71
3
72
8
73
4
40
0
40
0
40
0
40
0
40
1
40
1
40
1
40
1
41
1
10
288.324759526419
20
-18.8429985339394
30
0
41
1
10
288.10033706691
20
-19.0525298860226
30
0
41
1
10
287.875567648883
20
-19.2615638584147
30
0
41
1
10
287.650480947162
20
-19.4701429912267
30
0
0
SPLINE
5
181
100
AcDbEntity
8
1
62
256
6
ByLayer
370
18
48
1
60
0
100
AcDbSpline
70
4
71
3
72
38
73
34
40
0
40
0
40
0
40
0
40
0.0624999999999934
40
0.0624999999999934
40
0.124999999999987
40
0.124999999999987
40
0.18749999999998
40
0.18749999999998
40
0.249999999999974
40
0.249999999999974
40
0.312499999999967
40
0.312499999999967
40
0.374999999999961
40
0.374999999999961
40
0.437499999999954
40
0.437499999999954
40
0.499999999999948
40
0.499999999999948
40
0.531249999999946
40
0.531249999999946
40
0.562499999999944
40
0.562499999999944
40
0.624999999999949
40
0.624999999999949
40
0.687499999999955
40
0.687499999999955
40
0.749999999999961
40
0.749999999999961
40
0.812499999999966
40
0.812499999999966
40
0.874999999999972
40
0.874999999999972
40
1
40
1
40
1
40
1
41
1
10
287.650480947162
20
-19.4701429912267
30
0
41
1
10
287.643726881464
20
-19.4764017224424
30
0
41
1
10
287.637098160743
20
-19.4824675984273
30
0
41
1
10
287.624121587645
20
-19.4941653645868
30
0
41
1
10
287.617742143976
20
-19.4998242703935
30
0
41
1
10
287.605562970484
20
-19.5104136408798
30
0
41
1
10
287.599742695575
20
-19.515363799965
30
0
41
1
10
287.588714807944
20
-19.5244776354355
30
0
41
1
10
287.583471678807
20
-19.528668714688
30
0
41
1
10
287.573894168183
20
-19.5359672809044
30
0
41
1
10
287.569604727196
20
-19.5390430763014
30
0
41
1
10
287.562140118258
20
-19.543911628763
30
0
41
1
10
287.558968752714
20
-19.54569252126
30
0
41
1
10
287.55412676766
20
-19.5476893893338
30
0
41
1
10
287.552408786091
20
-19.5479394606963
30
0
41
1
10
287.550449968655
20
-19.5468649480105
30
0
41
1
10
287.550243871428
20
-19.5455532016636
30
0
41
1
10
287.550991933076
20
-19.5425459103032
30
0
41
1
10
287.551417710024
20
-19.5413688368429
30
0
41
1
10
287.55261285119
20
-19.5386745168143
30
0
41
1
10
287.553385026571
20
-19.5371539574112
30
0
41
1
10
287.556141299637
20
-19.5322031740125
30
0
41
1
10
287.558572250333
20
-19.5283601137454
30
0
41
1
10
287.56445428438
20
-19.5197418754235
30
0
41
1
10
287.567937837454
20
-19.5149253101646
30
0
41
1
10
287.575648799551
20
-19.5046892334924
30
0
41
1
10
287.579874304902
20
-19.4992680700753
30
0
41
1
10
287.588959245089
20
-19.4879075907872
30
0
41
1
10
287.593819464948
20
-19.4819676301921
30
0
41
1
10
287.604115964568
20
-19.4696181549195
30
0
41
1
10
287.609513235996
20
-19.4632561734402
30
0
41
1
10
287.6261921918
20
-19.4438785061741
30
0
41
1
10
287.638027080278
20
-19.4304881908617
30
0
41
1
10
287.650480947162
20
-19.4166940319337
30
0
0
SPLINE
5
182
100
AcDbEntity
8
1
62
256
6
ByLayer
370
18
48
1
60
0
100
AcDbSpline
70
4
71
3
72
8
73
4
40
0
40
0
40
0
40
0
40
1
40
1
40
1
40
1
41
1
10
287.650480947162
20
-19.4166940319337
30
0
41
1
10
287.876228917632
20
-19.1666509399759
30
0
41
1
10
288.101019214676
20
-18.9154654531776
30
0
41
1
10
288.324759526419
20
-18.6630274540344
30
0
0
SPLINE
5
183
100
AcDbEntity
8
1
62
256
6
ByLayer
370
18
48
1
60
0
100
AcDbSpline
70
4
71
3
72
8
73
4
40
0
40
0
40
0
40
0
40
1
40
1
40
1
40
1
41
1
10
288.324759526419
20
-18.5875252185448
30
0
41
1
10
288.100236859786
20
-18.7895703804302
30
0
41
1
10
287.875470342809
20
-18.991253225174
30
0
41
1
10
287.650480947162
20
-19.1926049128586
30
0
0
SPLINE
5
184
100
AcDbEntity
8
1
62
256
6
ByLayer
370
18
48
1
60
0
100
AcDbSpline
70
4
71
3
72
39
73
35
40
0
40
0
40
0
40
0
40
0.0624999999999925
40
0.0624999999999925
40
0.124999999999985
40
0.124999999999985
40
0.187499999999978
40
0.187499999999978
40
0.24999999999997
40
0.24999999999997
40
0.312499999999963
40
0.312499999999963
40
0.343749999999961
40
0.343749999999961
40
0.374999999999959
40
0.406249999999957
40
0.406249999999957
40
0.437499999999955
40
0.437499999999955
40
0.49999999999996
40
0.49999999999996
40
0.562499999999964
40
0.562499999999964
40
0.624999999999969
40
0.624999999999969
40
0.687499999999974
40
0.687499999999974
40
0.749999999999978
40
0.749999999999978
40
0.812499999999983
40
0.812499999999983
40
0.874999999999988
40
0.874999999999988
40
1
40
1
40
1
40
1
41
1
10
287.650480947162
20
-19.1926049128586
30
0
41
1
10
287.643561481925
20
-19.1987974091724
30
0
41
1
10
287.636760597053
20
-19.2047594560304
30
0
41
1
10
287.623428732479
20
-19.2161568732058
30
0
41
1
10
287.616868043973
20
-19.2216149223441
30
0
41
1
10
287.604372494835
20
-19.2316571174385
30
0
41
1
10
287.598405523108
20
-19.2362705085002
30
0
41
1
10
287.587120780066
20
-19.2445513660962
30
0
41
1
10
287.581757911793
20
-19.248245222262
30
0
41
1
10
287.572161291116
20
-19.2542618829981
30
0
41
1
10
287.567898801765
20
-19.256611320728
30
0
41
1
10
287.562409953693
20
-19.2590197111102
30
0
41
1
10
287.560740249761
20
-19.2596301418332
30
0
41
1
10
287.557792033825
20
-19.2604382600577
30
0
41
1
10
287.555212841065
20
-19.2608439299461
30
0
41
1
10
287.553367705005
20
-19.2604482498093
30
0
41
1
10
287.551893890274
20
-19.2596468478131
30
0
41
1
10
287.551341802858
20
-19.2590371274935
30
0
41
1
10
287.550274927363
20
-19.2566430276485
30
0
41
1
10
287.550326458122
20
-19.2543028706046
30
0
41
1
10
287.551787967949
20
-19.2482959791926
30
0
41
1
10
287.553220516284
20
-19.2445964956725
30
0
41
1
10
287.557185296634
20
-19.2362910592435
30
0
41
1
10
287.559719213955
20
-19.2316610587587
30
0
41
1
10
287.565737405588
20
-19.221578878288
30
0
41
1
10
287.569244994022
20
-19.2160956853234
30
0
41
1
10
287.576918114054
20
-19.2046829541816
30
0
41
1
10
287.581098727558
20
-19.1987255135266
30
0
41
1
10
287.590054837743
20
-19.1863774236145
30
0
41
1
10
287.594830979835
20
-19.1799863029424
30
0
41
1
10
287.604926584524
20
-19.1668094826125
30
0
41
1
10
287.61022432905
20
-19.1600533921717
30
0
41
1
10
287.626598565669
20
-19.1395788033859
30
0
41
1
10
287.638226288089
20
-19.125556955305
30
0
41
1
10
287.650480947162
20
-19.1112111570005
30
0
0
SPLINE
5
185
100
AcDbEntity
8
1
62
256
6
ByLayer
370
18
48
1
60
0
100
AcDbSpline
70
4
71
3
72
8
73
4
40
0
40
0
40
0
40
0
40
1
40
1
40
1
40
1
41
1
10
287.650480947162
20
-19.1112111570005
30
0
41
1
10
287.876507770666
20
-18.8466150387272
30
0
41
1
10
288.101307459449
20
-18.58063653669
30
0
41
1
10
288.324759526419
20
-18.3131399205608
30
0
0
SPLINE
5
186
100
AcDbEntity
8
1
62
256
6
ByLayer
370
18
48
1
60
0
100
AcDbSpline
70
4
71
3
72
8
73
4
40
0
40
0
40
0
40
0
40
1
40
1
40
1
40
1
41
1
10
288.324759526419
20
-18.2053177327406
30
0
41
1
10
288.100154848045
20
-18.4009956122079
30
0
41
1
10
287.875390693943
20
-18.5964289589483
30
0
41
1
10
287.650480947162
20
-18.7916390605863
30
0
0
SPLINE
5
187
100
AcDbEntity
8
1
62
256
6
ByLayer
370
18
48
1
60
0
100
AcDbSpline
70
4
71
3
72
32
73
28
40
0
40
0
40
0
40
0
40
0.12499999999998
40
0.12499999999998
40
0.187499999999977
40
0.187499999999977
40
0.249999999999975
40
0.249999999999975
40
0.312499999999972
40
0.312499999999972
40
0.374999999999969
40
0.374999999999969
40
0.437499999999966
40
0.437499999999966
40
0.499999999999963
40
0.499999999999963
40
0.56249999999996
40
0.56249999999996
40
0.624999999999957
40
0.624999999999957
40
0.749999999999956
40
0.749999999999956
40
0.812499999999963
40
0.812499999999963
40
0.874999999999971
40
0.874999999999971
40
1
40
1
40
1
40
1
41
1
10
287.650480947162
20
-18.7916390605863
30
0
41
1
10
287.636218452344
20
-18.8040181731097
30
0
41
1
10
287.622240264368
20
-18.8154173152057
30
0
41
1
10
287.602992291188
20
-18.8296153042819
30
0
41
1
10
287.596826112669
20
-18.8338945401542
30
0
41
1
10
287.585150324815
20
-18.8413094412346
30
0
41
1
10
287.579802545074
20
-18.8443419283303
30
0
41
1
10
287.570193548697
20
-18.8489058516395
30
0
41
1
10
287.565917359672
20
-18.8504253367867
30
0
41
1
10
287.5589614839
20
-18.8516753986754
30
0
41
1
10
287.556219248358
20
-18.8514436933268
30
0
41
1
10
287.552246458667
20
-18.8492156646221
30
0
41
1
10
287.551085390741
20
-18.8472516771761
30
0
41
1
10
287.550241537348
20
-18.8418614194547
30
0
41
1
10
287.550569080283
20
-18.838382972768
30
0
41
1
10
287.552511726574
20
-18.8303344171854
30
0
41
1
10
287.554109567751
20
-18.8257708187565
30
0
41
1
10
287.558360917358
20
-18.8157342041939
30
0
41
1
10
287.56103952816
20
-18.8102189029196
30
0
41
1
10
287.570274220005
20
-18.7928579231854
30
0
41
1
10
287.578003306719
20
-18.7801749967746
30
0
41
1
10
287.591401058081
20
-18.7598818429382
30
0
41
1
10
287.59613953536
20
-18.7529552766068
30
0
41
1
10
287.605993559771
20
-18.7389641660197
30
0
41
1
10
287.611125160039
20
-18.7318756087937
30
0
41
1
10
287.627074672477
20
-18.7103590621013
30
0
41
1
10
287.638441494712
20
-18.6956828090535
30
0
41
1
10
287.650480947162
20
-18.6807059996454
30
0
0
SPLINE
5
188
100
AcDbEntity
8
1
62
256
6
ByLayer
370
18
48
1
60
0
100
AcDbSpline
70
4
71
3
72
8
73
4
40
0
40
0
40
0
40
0
40
1
40
1
40
1
40
1
41
1
10
287.650480947162
20
-18.6807059996454
30
0
41
1
10
287.876866272618
20
-18.3990877212208
30
0
41
1
10
288.101678442285
20
-18.1158055554859
30
0
41
1
10
288.324759526419
20
-17.8306924641204
30
0
0
SPLINE
5
189
100
AcDbEntity
8
1
62
256
6
ByLayer
370
18
48
1
60
0
100
AcDbSpline
70
4
71
3
72
8
73
4
40
0
40
0
40
0
40
0
40
1
40
1
40
1
40
1
41
1
10
288.324759526419
20
-17.6881625317623
30
0
41
1
10
288.100089025132
20
-17.8786205059035
30
0
41
1
10
287.875326782245
20
-18.0689340213266
30
0
41
1
10
287.650480947162
20
-18.259115910296
30
0
0
SPLINE
5
18A
100
AcDbEntity
8
1
62
256
6
ByLayer
370
18
48
1
60
0
100
AcDbSpline
70
4
71
3
72
41
73
37
40
0
40
0
40
0
40
0
40
0.0625000000000202
40
0.0625000000000202
40
0.12500000000004
40
0.12500000000004
40
0.156250000000046
40
0.156250000000046
40
0.187500000000052
40
0.187500000000052
40
0.250000000000056
40
0.250000000000056
40
0.281250000000058
40
0.281250000000058
40
0.312500000000059
40
0.34375000000006
40
0.34375000000006
40
0.375000000000061
40
0.375000000000061
40
0.437500000000059
40
0.437500000000059
40
0.468750000000055
40
0.468750000000055
40
0.500000000000051
40
0.500000000000051
40
0.562500000000044
40
0.562500000000044
40
0.625000000000037
40
0.625000000000037
40
0.68750000000003
40
0.68750000000003
40
0.750000000000023
40
0.750000000000023
40
0.875000000000011
40
0.875000000000011
40
1
40
1
40
1
40
1
41
1
10
287.650480947162
20
-18.259115910296
30
0
41
1
10
287.64312067197
20
-18.2653414694167
30
0
41
1
10
287.635804695087
20
-18.2712773588534
30
0
41
1
10
287.621558337367
20
-18.2822363602358
30
0
41
1
10
287.614658110685
20
-18.2872398905807
30
0
41
1
10
287.604698216193
20
-18.2939087063824
30
0
41
1
10
287.601443651369
20
-18.2959915195206
30
0
41
1
10
287.595080260982
20
-18.2998442241163
30
0
41
1
10
287.591968194619
20
-18.3016142220478
30
0
41
1
10
287.583076629913
20
-18.3062945367757
30
0
41
1
10
287.577668862641
20
-18.3086246746217
30
0
41
1
10
287.570442806861
20
-18.3107695863606
30
0
41
1
10
287.568202442333
20
-18.3112498316751
30
0
41
1
10
287.564140466581
20
-18.3117249114438
30
0
41
1
10
287.560469601454
20
-18.3117232880424
30
0
41
1
10
287.557572696077
20
-18.3107769709451
30
0
41
1
10
287.555065784551
20
-18.3093539638451
30
0
41
1
10
287.554012412702
20
-18.3084010300556
30
0
41
1
10
287.551498718449
20
-18.3049318251678
30
0
41
1
10
287.550641696582
20
-18.3017928744924
30
0
41
1
10
287.550431296051
20
-18.2959971988541
30
0
41
1
10
287.550543891767
20
-18.2938771195682
30
0
41
1
10
287.551097439142
20
-18.2893835606961
30
0
41
1
10
287.55153724686
20
-18.2870008336856
30
0
41
1
10
287.553295887259
20
-18.2794861044514
30
0
41
1
10
287.555051097323
20
-18.2739898973767
30
0
41
1
10
287.559557801758
20
-18.2621650826903
30
0
41
1
10
287.562301249488
20
-18.2558684256221
30
0
41
1
10
287.568507240897
20
-18.2428591198085
30
0
41
1
10
287.571983861287
20
-18.236110933698
30
0
41
1
10
287.579584891849
20
-18.2221925717876
30
0
41
1
10
287.583728003621
20
-18.2149922619396
30
0
41
1
10
287.59691541842
20
-18.1930284474533
30
0
41
1
10
287.606613261902
20
-18.1780492255834
30
0
41
1
10
287.627467863824
20
-18.1475539976582
30
0
41
1
10
287.638630045339
20
-18.1320359563963
30
0
41
1
10
287.650480947162
20
-18.116267866283
30
0
0
SPLINE
5
18B
100
AcDbEntity
8
1
62
256
6
ByLayer
370
18
48
1
60
0
100
AcDbSpline
70
4
71
3
72
8
73
4
40
0
40
0
40
0
40
0
40
1
40
1
40
1
40
1
41
1
10
287.650480947162
20
-18.116267866283
30
0
41
1
10
287.877337890168
20
-17.8144257977424
30
0
41
1
10
288.102167049584
20
-17.5105841761005
30
0
41
1
10
288.324759526419
20
-17.2045370106271
30
0
0
SPLINE
5
18C
100
AcDbEntity
8
1
62
256
6
ByLayer
370
18
48
1
60
0
100
AcDbSpline
70
4
71
3
72
8
73
4
40
0
40
0
40
0
40
0
40
1
40
1
40
1
40
1
41
1
10
288.324759526419
20
-17.0237655573036
30
0
41
1
10
288.100039125586
20
-17.2102687278787
30
0
41
1
10
287.87527835498
20
-17.396707056342
30
0
41
1
10
287.650480947162
20
-17.5830864488545
30
0
0
SPLINE
5
18D
100
AcDbEntity
8
1
62
256
6
ByLayer
370
18
48
1
60
0
100
AcDbSpline
70
4
71
3
72
39
73
35
40
0
40
0
40
0
40
0
40
0.0625000000000114
40
0.0625000000000114
40
0.125000000000023
40
0.125000000000023
40
0.187500000000034
40
0.187500000000034
40
0.218750000000042
40
0.218750000000042
40
0.25000000000005
40
0.25000000000005
40
0.312500000000057
40
0.312500000000057
40
0.343750000000062
40
0.343750000000062
40
0.375000000000066
40
0.406250000000071
40
0.406250000000071
40
0.437500000000076
40
0.437500000000076
40
0.500000000000068
40
0.500000000000068
40
0.562500000000059
40
0.562500000000059
40
0.62500000000005
40
0.62500000000005
40
0.687500000000042
40
0.687500000000042
40
0.750000000000033
40
0.750000000000033
40
0.875000000000017
40
0.875000000000017
40
1
40
1
40
1
40
1
41
1
10
287.650480947162
20
-17.5830864488545
30
0
41
1
10
287.642848465984
20
-17.589414534303
30
0
41
1
10
287.635230044314
20
-17.5953906617511
30
0
41
1
10
287.620434193986
20
-17.6061779599137
30
0
41
1
10
287.613255140464
20
-17.6109974845259
30
0
41
1
10
287.599425158374
20
-17.6192459915898
30
0
41
1
10
287.592745263725
20
-17.6226722784107
30
0
41
1
10
287.583692680945
20
-17.62629981683
30
0
41
1
10
287.580816760607
20
-17.6272697003255
30
0
41
1
10
287.575367399923
20
-17.6286973789882
30
0
41
1
10
287.572783455345
20
-17.6291527982114
30
0
41
1
10
287.565725370173
20
-17.6296830301401
30
0
41
1
10
287.561864611698
20
-17.6289563432175
30
0
41
1
10
287.557292459269
20
-17.6263023228402
30
0
41
1
10
287.555968736541
20
-17.6251453113998
30
0
41
1
10
287.553784251942
20
-17.6223872509883
30
0
41
1
10
287.5520409109
20
-17.6191807863454
30
0
41
1
10
287.551098579189
20
-17.6151589316107
30
0
41
1
10
287.550528264205
20
-17.6107578663782
30
0
41
1
10
287.550430700683
20
-17.6083568813512
30
0
41
1
10
287.550654051541
20
-17.6007652352963
30
0
41
1
10
287.551475794025
20
-17.5951597496365
30
0
41
1
10
287.554198267888
20
-17.5830737854485
30
0
41
1
10
287.556114381686
20
-17.5765557654394
30
0
41
1
10
287.560823333971
20
-17.5629298211252
30
0
41
1
10
287.563597798464
20
-17.5558628914168
30
0
41
1
10
287.569844713144
20
-17.5413066108053
30
0
41
1
10
287.573318283136
20
-17.5338165910077
30
0
41
1
10
287.580882685558
20
-17.5184630726746
30
0
41
1
10
287.584984596991
20
-17.5105829559688
30
0
41
1
10
287.597909096523
20
-17.4868430027675
30
0
41
1
10
287.60740422431
20
-17.4707518266133
30
0
41
1
10
287.627855969026
20
-17.4381338925018
30
0
41
1
10
287.638816630045
20
-17.4216059035303
30
0
41
1
10
287.650480947162
20
-17.4048713342169
30
0
0
SPLINE
5
18E
100
AcDbEntity
8
1
62
256
6
ByLayer
370
18
48
1
60
0
100
AcDbSpline
70
4
71
3
72
8
73
4
40
0
40
0
40
0
40
0
40
1
40
1
40
1
40
1
41
1
10
287.650480947162
20
-17.4048713342169
30
0
41
1
10
287.87797677687
20
-17.0784874839783
30
0
41
1
10
288.10282976625
20
-16.7496954266918
30
0
41
1
10
288.324759526419
20
-16.4182396666036
30
0
0
SPLINE
5
18F
100
AcDbEntity
8
1
62
256
6
ByLayer
370
18
48
1
60
0
100
AcDbSpline
70
4
71
3
72
8
73
4
40
0
40
0
40
0
40
0
40
1
40
1
40
1
40
1
41
1
10
288.324759526419
20
-16.1940141333159
30
0
41
1
10
288.100007511727
20
-16.3780816494077
30
0
41
1
10
287.875247737629
20
-16.5621365334041
30
0
41
1
10
287.650480947162
20
-16.746179991573
30
0
0
SPLINE
5
190
100
AcDbEntity
8
1
62
256
6
ByLayer
370
18
48
1
60
0
100
AcDbSpline
70
4
71
3
72
39
73
35
40
0
40
0
40
0
40
0
40
0.0624999999999928
40
0.0624999999999928
40
0.124999999999986
40
0.124999999999986
40
0.156249999999982
40
0.156249999999982
40
0.187499999999978
40
0.187499999999978
40
0.218749999999975
40
0.218749999999975
40
0.249999999999971
40
0.281249999999968
40
0.281249999999968
40
0.312499999999964
40
0.312499999999964
40
0.374999999999957
40
0.374999999999957
40
0.406249999999953
40
0.406249999999953
40
0.43749999999995
40
0.43749999999995
40
0.499999999999951
40
0.499999999999951
40
0.562499999999952
40
0.562499999999952
40
0.624999999999953
40
0.624999999999953
40
0.749999999999968
40
0.749999999999968
40
0.874999999999984
40
0.874999999999984
40
1
40
1
40
1
40
1
41
1
10
287.650480947162
20
-16.7461799915731
30
0
41
1
10
287.642517355019
20
-16.752700737073
30
0
41
1
10
287.63453440989
20
-16.7587815916517
30
0
41
1
10
287.619042460543
20
-16.7694623151682
30
0
41
1
10
287.611511726718
20
-16.7740895951831
30
0
41
1
10
287.600621370502
20
-16.7796806806266
30
0
41
1
10
287.597061556649
20
-16.7813124621383
30
0
41
1
10
287.590290341915
20
-16.7839856794476
30
0
41
1
10
287.587053841966
20
-16.78504091901
30
0
41
1
10
287.58089623758
20
-16.7865551188083
30
0
41
1
10
287.577954952722
20
-16.7870145467251
30
0
41
1
10
287.572512587958
20
-16.78728427633
30
0
41
1
10
287.567547431315
20
-16.7869134556389
30
0
41
1
10
287.56348717482
20
-16.7853258627782
30
0
41
1
10
287.559865561372
20
-16.7831473720274
30
0
41
1
10
287.558264729514
20
-16.7817488018333
30
0
41
1
10
287.554196953588
20
-16.7767917693817
30
0
41
1
10
287.552440567205
20
-16.772507925754
30
0
41
1
10
287.550959029724
20
-16.7648963564567
30
0
41
1
10
287.550660070545
20
-16.7621461067266
30
0
41
1
10
287.550422720308
20
-16.7563820754742
30
0
41
1
10
287.550481076441
20
-16.7533611718072
30
0
41
1
10
287.551119474506
20
-16.7439343578554
30
0
41
1
10
287.552159177103
20
-16.7371671874775
30
0
41
1
10
287.555239798449
20
-16.7228437690722
30
0
41
1
10
287.557290439547
20
-16.7152746972414
30
0
41
1
10
287.562146245543
20
-16.6997853492499
30
0
41
1
10
287.564959968858
20
-16.6918233983917
30
0
41
1
10
287.574383518436
20
-16.6673835167671
30
0
41
1
10
287.582020418222
20
-16.6502626912251
30
0
41
1
10
287.598905986321
20
-16.6158494363729
30
0
41
1
10
287.608200334979
20
-16.5984352934851
30
0
41
1
10
287.628249215424
20
-16.5632547901692
30
0
41
1
10
287.639006636006
20
-16.5454877152698
30
0
41
1
10
287.650480947162
20
-16.5275506630103
30
0
0
SPLINE
5
191
100
AcDbEntity
8
1
62
256
6
ByLayer
370
18
48
1
60
0
100
AcDbSpline
70
4
71
3
72
8
73
4
40
0
40
0
40
0
40
0
40
1
40
1
40
1
40
1
41
1
10
287.650480947162
20
-16.5275506630103
30
0
41
1
10
287.878876276632
20
-16.1705149416596
30
0
41
1
10
288.103764009202
20
-15.8105598495171
30
0
41
1
10
288.324759526419
20
-15.4473652688746
30
0
0
SPLINE
5
192
100
AcDbEntity
8
1
62
256
6
ByLayer
370
18
48
1
60
0
100
AcDbSpline
70
4
71
3
72
8
73
4
40
0
40
0
40
0
40
0
40
1
40
1
40
1
40
1
41
1
10
288.324759526419
20
-15.1718025873669
30
0
41
1
10
288.10000187134
20
-15.3554472734968
30
0
41
1
10
287.875242279349
20
-15.5390887989496
30
0
41
1
10
287.650480947162
20
-15.7227274845184
30
0
0
SPLINE
5
193
100
AcDbEntity
8
1
62
256
6
ByLayer
370
18
48
1
60
0
100
AcDbSpline
70
4
71
3
72
38
73
34
40
0
40
0
40
0
40
0
40
0.0624999999999962
40
0.0624999999999962
40
0.0937499999999918
40
0.0937499999999918
40
0.124999999999987
40
0.124999999999987
40
0.18749999999999
40
0.18749999999999
40
0.249999999999992
40
0.249999999999992
40
0.28125
40
0.28125
40
0.312500000000007
40
0.312500000000007
40
0.375000000000007
40
0.375000000000007
40
0.437500000000006
40
0.437500000000006
40
0.500000000000005
40
0.500000000000005
40
0.562500000000005
40
0.562500000000005
40
0.625000000000004
40
0.625000000000004
40
0.687500000000003
40
0.687500000000003
40
0.750000000000003
40
0.750000000000003
40
0.875000000000001
40
0.875000000000001
40
1
40
1
40
1
40
1
41
1
10
287.650480947162
20
-15.7227274845184
30
0
41
1
10
287.642084189611
20
-15.7295879596038
30
0
41
1
10
287.633635577278
20
-15.7358730778357
30
0
41
1
10
287.621331349082
20
-15.7438542779441
30
0
41
1
10
287.617278610407
20
-15.7462841546213
30
0
41
1
10
287.609284196945
20
-15.7506167225578
30
0
41
1
10
287.605312533919
20
-15.7525309641136
30
0
41
1
10
287.59384949108
20
-15.7572404234749
30
0
41
1
10
287.586793021271
20
-15.7590261770082
30
0
41
1
10
287.574217814694
20
-15.7594741859478
30
0
41
1
10
287.568995280752
20
-15.758139110913
30
0
41
1
10
287.562595860953
20
-15.754028349818
30
0
41
1
10
287.560701051961
20
-15.7522911875507
30
0
41
1
10
287.557471003325
20
-15.7482678595027
30
0
41
1
10
287.556116901746
20
-15.7459736675137
30
0
41
1
10
287.552741344183
20
-15.7383459141718
30
0
41
1
10
287.551412871276
20
-15.7322137165065
30
0
41
1
10
287.550260898918
20
-15.71896225516
30
0
41
1
10
287.550404629695
20
-15.7117851145466
30
0
41
1
10
287.551786707427
20
-15.6965886813024
30
0
41
1
10
287.55302900844
20
-15.6885664010898
30
0
41
1
10
287.556428844899
20
-15.6718153503698
30
0
41
1
10
287.558575785074
20
-15.6631531994742
30
0
41
1
10
287.563557184201
20
-15.6455384394764
30
0
41
1
10
287.566399025425
20
-15.6365545230327
30
0
41
1
10
287.5726862554
20
-15.6182825742105
30
0
41
1
10
287.576143791446
20
-15.6089656304782
30
0
41
1
10
287.58354639268
20
-15.5902008455667
30
0
41
1
10
287.587481021919
20
-15.5807754721048
30
0
41
1
10
287.599905559109
20
-15.5523851374548
30
0
41
1
10
287.609009839549
20
-15.533307043836
30
0
41
1
10
287.628661740995
20
-15.4948880043355
30
0
41
1
10
287.639211392285
20
-15.4755466757476
30
0
41
1
10
287.650480947162
20
-15.4560769820837
30
0
0
SPLINE
5
194
100
AcDbEntity
8
1
62
256
6
ByLayer
370
18
48
1
60
0
100
AcDbSpline
70
4
71
3
72
8
73
4
40
0
40
0
40
0
40
0
40
1
40
1
40
1
40
1
41
1
10
287.650480947162
20
-15.4560769820837
30
0
41
1
10
287.880211532645
20
-15.0591860512815
30
0
41
1
10
288.105152654041
20
-14.6587123242214
30
0
41
1
10
288.324759526419
20
-14.2542482702537
30
0
0
SPLINE
5
195
100
AcDbEntity
8
1
62
256
6
ByLayer
370
18
48
1
60
0
100
AcDbSpline
70
4
71
3
72
8
73
4
40
0
40
0
40
0
40
0
40
1
40
1
40
1
40
1
41
1
10
288.324759526419
20
-13.9147796874413
30
0
41
1
10
288.10004293855
20
-14.1009918745296
30
0
41
1
10
287.87528177088
20
-14.2871322907622
30
0
41
1
10
287.650480947162
20
-14.4732088630925
30
0
0
SPLINE
5
196
100
AcDbEntity
8
1
62
256
6
ByLayer
370
18
48
1
60
0
100
AcDbSpline
70
4
71
3
72
34
73
30
40
0
40
0
40
0
40
0
40
0.0624999999999982
40
0.0624999999999982
40
0.0937499999999991
40
0.0937499999999991
40
0.125
40
0.125
40
0.1875
40
0.1875
40
0.249999999999999
40
0.249999999999999
40
0.281249999999997
40
0.281249999999997
40
0.312499999999995
40
0.312499999999995
40
0.374999999999997
40
0.374999999999997
40
0.4375
40
0.4375
40
0.500000000000002
40
0.500000000000002
40
0.625000000000002
40
0.625000000000002
40
0.750000000000001
40
0.750000000000001
40
0.875
40
0.875
40
1
40
1
40
1
40
1
41
1
10
287.650480947162
20
-14.4732088630934
30
0
41
1
10
287.641610746045
20
-14.4805510809395
30
0
41
1
10
287.632717594853
20
-14.4870974260149
30
0
41
1
10
287.619328414583
20
-14.4952053949908
30
0
41
1
10
287.614948765932
20
-14.4975617119483
30
0
41
1
10
287.606376490095
20
-14.5014961459096
30
0
41
1
10
287.602156895126
20
-14.5030818509577
30
0
41
1
10
287.590005767027
20
-14.5064329261973
30
0
41
1
10
287.582819857639
20
-14.5067574004911
30
0
41
1
10
287.570335823892
20
-14.5034485559465
30
0
41
1
10
287.565449926247
20
-14.4999293623094
30
0
41
1
10
287.559738856258
20
-14.4925438009578
30
0
41
1
10
287.558096977763
20
-14.4897010183216
30
0
41
1
10
287.555363676398
20
-14.4835186121867
30
0
41
1
10
287.554261456695
20
-14.4801742613052
30
0
41
1
10
287.551618606382
20
-14.4695040698864
30
0
41
1
10
287.55074024509
20
-14.4614886218103
30
0
41
1
10
287.550322100162
20
-14.4446421416508
30
0
41
1
10
287.550767880496
20
-14.4357693456123
30
0
41
1
10
287.552650600946
20
-14.4173396015775
30
0
41
1
10
287.554097560382
20
-14.4077483041181
30
0
41
1
10
287.559624326733
20
-14.3783622980707
30
0
41
1
10
287.564840271179
20
-14.3580458003168
30
0
41
1
10
287.57746663017
20
-14.3164151731902
30
0
41
1
10
287.584781622077
20
-14.2954445124753
30
0
41
1
10
287.600983403359
20
-14.2532582502729
30
0
41
1
10
287.609876729726
20
-14.2320416953026
30
0
41
1
10
287.629096511696
20
-14.1893876202447
30
0
41
1
10
287.639424130324
20
-14.1679499081228
30
0
41
1
10
287.650480947162
20
-14.1464023848407
30
0
0
SPLINE
5
197
100
AcDbEntity
8
1
62
256
6
ByLayer
370
18
48
1
60
0
100
AcDbSpline
70
4
71
3
72
8
73
4
40
0
40
0
40
0
40
0
40
1
40
1
40
1
40
1
41
1
10
287.650480947162
20
-14.1464023848407
30
0
41
1
10
287.882352997816
20
-13.6945301612798
30
0
41
1
10
288.107382666912
20
-13.2381665161982
30
0
41
1
10
288.324759526419
20
-12.7767794748922
30
0
0
SPLINE
5
198
100
AcDbEntity
8
1
62
256
6
ByLayer
370
18
48
1
60
0
100
AcDbSpline
70
4
71
3
72
8
73
4
40
0
40
0
40
0
40
0
40
1
40
1
40
1
40
1
41
1
10
288.324759526419
20
-12.3514611989848
30
0
41
1
10
288.100191536751
20
-12.5453578173517
30
0
41
1
10
287.875423713527
20
-12.7389451074593
30
0
41
1
10
287.650480947162
20
-12.9322615979172
30
0
0
SPLINE
5
199
100
AcDbEntity
8
1
62
256
6
ByLayer
370
18
48
1
60
0
100
AcDbSpline
70
4
71
3
72
39
73
35
40
0
40
0
40
0
40
0
40
0.0312499999999976
40
0.0312499999999976
40
0.062499999999995
40
0.062499999999995
40
0.0937499999999926
40
0.0937499999999926
40
0.12499999999999
40
0.12499999999999
40
0.156249999999988
40
0.156249999999988
40
0.187499999999985
40
0.187499999999985
40
0.218749999999983
40
0.218749999999983
40
0.24999999999998
40
0.24999999999998
40
0.281249999999978
40
0.281249999999978
40
0.312499999999975
40
0.312499999999975
40
0.374999999999976
40
0.374999999999976
40
0.499999999999976
40
0.499999999999976
40
0.562499999999979
40
0.562499999999979
40
0.624999999999982
40
0.624999999999982
40
0.749999999999988
40
0.749999999999988
40
0.874999999999994
40
1
40
1
40
1
40
1
41
1
10
287.650480947162
20
-12.9322615979191
30
0
41
1
10
287.645659559596
20
-12.9364051129046
30
0
41
1
10
287.640801078904
20
-12.9402752725347
30
0
41
1
10
287.630992180374
20
-12.9473366560161
30
0
41
1
10
287.626006027204
20
-12.950544709168
30
0
41
1
10
287.616213206618
20
-12.9559198413904
30
0
41
1
10
287.611384546088
20
-12.9581090210077
30
0
41
1
10
287.601890289183
20
-12.9612844521544
30
0
41
1
10
287.597355810905
20
-12.9622204837463
30
0
41
1
10
287.588820720175
20
-12.9627189554149
30
0
41
1
10
287.584759371
20
-12.9622658825164
30
0
41
1
10
287.577453125654
20
-12.9600256025949
30
0
41
1
10
287.574191909539
20
-12.9582620751245
30
0
41
1
10
287.568356163976
20
-12.9536047091909
30
0
41
1
10
287.565807208947
20
-12.9507159173016
30
0
41
1
10
287.561457307646
20
-12.944216322146
30
0
41
1
10
287.559626662752
20
-12.9405816268452
30
0
41
1
10
287.556523269337
20
-12.9326866584453
30
0
41
1
10
287.555247510152
20
-12.9284035299883
30
0
41
1
10
287.55319751331
20
-12.919443414034
30
0
41
1
10
287.552418485904
20
-12.9147636089503
30
0
41
1
10
287.550682498191
20
-12.900234349396
30
0
41
1
10
287.550325735067
20
-12.8898556133695
30
0
41
1
10
287.550966789172
20
-12.8579922826183
30
0
41
1
10
287.553590221519
20
-12.8355866876131
30
0
41
1
10
287.559524476594
20
-12.8009026027315
30
0
41
1
10
287.561860927053
20
-12.78911380619
30
0
41
1
10
287.567088729835
20
-12.7654205868517
30
0
41
1
10
287.569973709317
20
-12.7535355328594
30
0
41
1
10
287.579321527427
20
-12.7177809868888
30
0
41
1
10
287.58646953122
20
-12.6938130910548
30
0
41
1
10
287.602267862415
20
-12.6456594779348
30
0
41
1
10
287.619577003328
20
-12.5972869331217
30
0
41
1
10
287.639694160572
20
-12.5485106461858
30
0
41
1
10
287.650480947162
20
-12.5240203286146
30
0
0
SPLINE
5
19A
100
AcDbEntity
8
1
62
256
6
ByLayer
370
18
48
1
60
0
100
AcDbSpline
70
4
71
3
72
8
73
4
40
0
40
0
40
0
40
0
40
1
40
1
40
1
40
1
41
1
10
287.650480947162
20
-12.5240203286146
30
0
41
1
10
287.886241901321
20
-11.9887487173433
30
0
41
1
10
288.111437539985
20
-11.4476285217357
30
0
41
1
10
288.324759526419
20
-10.8999354929295
30
0
0
SPLINE
5
19B
100
AcDbEntity
8
1
62
256
6
ByLayer
370
18
48
1
60
0
100
AcDbSpline
70
4
71
3
72
8
73
4
40
0
40
0
40
0
40
0
40
1
40
1
40
1
40
1
41
1
10
288.324759526419
20
-10.3438916153459
30
0
41
1
10
288.100672937923
20
-10.5561625919082
30
0
41
1
10
287.875878259423
20
-10.7674293885335
30
0
41
1
10
287.650480947162
20
-10.9778415583042
30
0
0
SPLINE
5
19C
100
AcDbEntity
8
1
62
256
6
ByLayer
370
18
48
1
60
0
100
AcDbSpline
70
4
71
3
72
39
73
35
40
0
40
0
40
0
40
0
40
0.031249999999997
40
0.031249999999997
40
0.0624999999999941
40
0.0624999999999941
40
0.0781249999999927
40
0.0781249999999927
40
0.0937499999999912
40
0.0937499999999912
40
0.124999999999987
40
0.124999999999987
40
0.156249999999984
40
0.156249999999984
40
0.18749999999998
40
0.18749999999998
40
0.218749999999976
40
0.218749999999976
40
0.249999999999972
40
0.249999999999972
40
0.281249999999968
40
0.281249999999968
40
0.312499999999964
40
0.312499999999964
40
0.374999999999964
40
0.374999999999964
40
0.499999999999971
40
0.499999999999971
40
0.624999999999978
40
0.624999999999978
40
0.749999999999986
40
0.749999999999986
40
0.874999999999993
40
1
40
1
40
1
40
1
41
1
10
287.650480947162
20
-10.977841558306
30
0
41
1
10
287.645070573186
20
-10.9828922331174
30
0
41
1
10
287.639513106979
20
-10.9875792288384
30
0
41
1
10
287.628225225349
20
-10.9957597995148
30
0
41
1
10
287.622572736455
20
-10.999203314173
30
0
41
1
10
287.614077225303
20
-11.0030918810395
30
0
41
1
10
287.611222335286
20
-11.0041768835963
30
0
41
1
10
287.605677702528
20
-11.005796780881
30
0
41
1
10
287.602973531995
20
-11.0063414516272
30
0
41
1
10
287.595073068045
20
-11.007149022523
30
0
41
1
10
287.590031566255
20
-11.0065324890345
30
0
41
1
10
287.581193349521
20
-11.0032210025222
30
0
41
1
10
287.577280359417
20
-11.0005431411258
30
0
41
1
10
287.570434037439
20
-10.9936129589082
30
0
41
1
10
287.567567506173
20
-10.9894554602366
30
0
41
1
10
287.562642849808
20
-10.9801311836346
30
0
41
1
10
287.560603852079
20
-10.9749764931923
30
0
41
1
10
287.557229405652
20
-10.9641977522349
30
0
41
1
10
287.555875895449
20
-10.9585336597296
30
0
41
1
10
287.553672457203
20
-10.9467890170168
30
0
41
1
10
287.552823959493
20
-10.9407073042594
30
0
41
1
10
287.551532822405
20
-10.9282066799289
30
0
41
1
10
287.551090778585
20
-10.9217691865281
30
0
41
1
10
287.550280304693
20
-10.9022578233628
30
0
41
1
10
287.550409275107
20
-10.888933626275
30
0
41
1
10
287.552194406003
20
-10.8482913762723
30
0
41
1
10
287.555225580055
20
-10.8203143302219
30
0
41
1
10
287.56364088965
20
-10.7632072654742
30
0
41
1
10
287.568989094997
20
-10.7344845311736
30
0
41
1
10
287.581324248186
20
-10.6768917217874
30
0
41
1
10
287.588324868774
20
-10.6479991733824
30
0
41
1
10
287.603732419277
20
-10.5900484071956
30
0
41
1
10
287.620551977068
20
-10.5319314186687
30
0
41
1
10
287.640038964387
20
-10.4735017998081
30
0
41
1
10
287.650480947162
20
-10.4442074830633
30
0
0
SPLINE
5
19D
100
AcDbEntity
8
1
62
256
6
ByLayer
370
18
48
1
60
0
100
AcDbSpline
70
4
71
3
72
8
73
4
40
0
40
0
40
0
40
0
40
1
40
1
40
1
40
1
41
1
10
287.650480947162
20
-10.4442074830633
30
0
41
1
10
287.895186418447
20
-9.75770188931247
30
0
41
1
10
288.120774732857
20
-9.06295440434474
30
0
41
1
10
288.324759526419
20
-8.35889309358711
30
0
0
SPLINE
5
19E
100
AcDbEntity
8
1
62
256
6
ByLayer
370
18
48
1
60
0
100
AcDbSpline
70
4
71
3
72
8
73
4
40
0
40
0
40
0
40
0
40
1
40
1
40
1
40
1
41
1
10
288.324759526419
20
-7.54543529228212
30
0
41
1
10
288.102856207575
20
-7.80812939306762
30
0
41
1
10
287.87789393872
20
-8.06728947825408
30
0
41
1
10
287.650480947162
20
-8.32361823496831
30
0
0
SPLINE
5
19F
100
AcDbEntity
8
1
62
256
6
ByLayer
370
18
48
1
60
0
100
AcDbSpline
70
4
71
3
72
38
73
34
40
0
40
0
40
0
40
0
40
0.0312499999999918
40
0.0312499999999918
40
0.0468749999999901
40
0.0468749999999901
40
0.0624999999999885
40
0.0624999999999885
40
0.0781249999999868
40
0.0781249999999868
40
0.0937499999999852
40
0.0937499999999852
40
0.109374999999984
40
0.109374999999984
40
0.124999999999982
40
0.124999999999982
40
0.156249999999989
40
0.156249999999989
40
0.187499999999996
40
0.187499999999996
40
0.249999999999999
40
0.249999999999999
40
0.312500000000003
40
0.312500000000003
40
0.375000000000007
40
0.375000000000007
40
0.500000000000006
40
0.500000000000006
40
0.625000000000004
40
0.625000000000004
40
0.750000000000003
40
0.750000000000003
40
1
40
1
40
1
40
1
41
1
10
287.650480947163
20
-8.32361823497163
30
0
41
1
10
287.643984522043
20
-8.33094068635307
30
0
41
1
10
287.637087099727
20
-8.33768124412319
30
0
41
1
10
287.626354747428
20
-8.34568070105769
30
0
41
1
10
287.622672786078
20
-8.34801975192076
30
0
41
1
10
287.615227174174
20
-8.35169640698226
30
0
41
1
10
287.611531397854
20
-8.35300455163295
30
0
41
1
10
287.604203715131
20
-8.35436607527089
30
0
41
1
10
287.600638398742
20
-8.35438934468056
30
0
41
1
10
287.593959541195
20
-8.35314067665334
30
0
41
1
10
287.590782123263
20
-8.35184798669403
30
0
41
1
10
287.58507026222
20
-8.34828207327101
30
0
41
1
10
287.582488099225
20
-8.34601133649508
30
0
41
1
10
287.577753050436
20
-8.34070331419872
30
0
41
1
10
287.575612489275
20
-8.33767053930831
30
0
41
1
10
287.569849274635
20
-8.32792028671361
30
0
41
1
10
287.566789889396
20
-8.32043543782294
30
0
41
1
10
287.561775920044
20
-8.30477720344987
30
0
41
1
10
287.559797491318
20
-8.29654262529223
30
0
41
1
10
287.554893629213
20
-8.27104194241093
30
0
41
1
10
287.552983754743
20
-8.25288418124578
30
0
41
1
10
287.550722421526
20
-8.21638791679737
30
0
41
1
10
287.550369579247
20
-8.19789985844963
30
0
41
1
10
287.550648562
20
-8.16061226405222
30
0
41
1
10
287.551290415845
20
-8.14180977373374
30
0
41
1
10
287.5543116466
20
-8.08504763501378
30
0
41
1
10
287.557768451239
20
-8.04673870110847
30
0
41
1
10
287.566574464434
20
-7.96947917110111
30
0
41
1
10
287.571943356467
20
-7.93052277137778
30
0
41
1
10
287.584191791777
20
-7.85208140430842
30
0
41
1
10
287.591049423945
20
-7.81277108989704
30
0
41
1
10
287.613451439318
20
-7.69485960614361
30
0
41
1
10
287.630794068013
20
-7.61615616242869
30
0
41
1
10
287.650480947162
20
-7.53736390968348
30
0
0
SPLINE
5
1A0
100
AcDbEntity
8
1
62
256
6
ByLayer
370
18
48
1
60
0
100
AcDbSpline
70
4
71
3
72
8
73
4
40
0
40
0
40
0
40
0
40
1
40
1
40
1
40
1
41
1
10
287.650480947162
20
-7.53736390968351
30
0
41
1
10
287.936650314553
20
-6.39203615339733
30
0
41
1
10
288.164101740032
20
-5.23155518188861
30
0
41
1
10
288.324759526419
20
-4.05383691704651
30
0
0
SPLINE
5
1A1
100
AcDbEntity
8
1
62
256
6
ByLayer
370
18
48
1
60
0
100
AcDbSpline
70
4
71
3
72
10
73
6
40
0
40
0
40
0
40
0
40
0.5
40
0.5
40
1
40
1
40
1
40
1
41
1
10
288.324759526415
20
-1.53983562436591
30
0
41
1
10
288.253343637489
20
-1.91394777515552
30
0
41
1
10
288.158489259991
20
-2.27822115563356
30
0
41
1
10
287.9309865447
20
-2.99090315238465
30
0
41
1
10
287.798334418939
20
-3.33931017858296
30
0
41
1
10
287.650480947162
20
-3.68133613838199
30
0
0
SPLINE
5
1A2
100
AcDbEntity
8
1
62
256
6
ByLayer
370
18
48
1
60
0
100
AcDbSpline
70
4
71
3
72
57
73
53
40
0
40
0
40
0
40
0
40
0.125
40
0.125
40
0.249999999999999
40
0.374999999999999
40
0.374999999999999
40
0.499999999999998
40
0.499999999999998
40
0.624999999999998
40
0.624999999999998
40
0.687499999999997
40
0.687499999999997
40
0.749999999999997
40
0.749999999999997
40
0.812499999999997
40
0.812499999999997
40
0.874999999999996
40
0.874999999999996
40
0.906249999999996
40
0.906249999999996
40
0.921874999999997
40
0.921874999999997
40
0.937499999999997
40
0.937499999999997
40
0.945312499999998
40
0.945312499999998
40
0.953124999999998
40
0.953124999999998
40
0.960937499999998
40
0.960937499999998
40
0.964843749999999
40
0.964843749999999
40
0.96875
40
0.96875
40
0.97265625
40
0.97265625
40
0.976562500000001
40
0.976562500000001
40
0.978515625000001
40
0.978515625000001
40
0.980468750000002
40
0.980468750000002
40
0.982421875000002
40
0.982421875000002
40
0.984375000000002
40
0.984375000000002
40
0.988281250000002
40
0.988281250000002
40
0.992187500000001
40
0.992187500000001
40
1
40
1
40
1
40
1
41
1
10
287.650480947162
20
-0.205522419002733
30
0
41
1
10
287.649474914009
20
-0.357427176921931
30
0
41
1
10
287.647352403027
20
-0.509318066439306
30
0
41
1
10
287.641079448038
20
-0.813071042314277
30
0
41
1
10
287.632780577668
20
-1.11679520449067
30
0
41
1
10
287.621220285853
20
-1.42045756542322
30
0
41
1
10
287.608599227805
20
-1.7240859621466
30
0
41
1
10
287.601754923346
20
-1.87588319884176
30
0
41
1
10
287.587790157287
20
-2.17943940737322
30
0
41
1
10
287.580656945612
20
-2.33119845239185
30
0
41
1
10
287.570656270951
20
-2.55880325319836
30
0
41
1
10
287.567443146172
20
-2.63466586964788
30
0
41
1
10
287.561508805657
20
-2.78637838337764
30
0
41
1
10
287.558783648494
20
-2.86225232686201
30
0
41
1
10
287.554227791731
20
-3.01360192235231
30
0
41
1
10
287.552384521753
20
-3.0891179173158
30
0
41
1
10
287.550304819929
20
-3.23969455939053
30
0
41
1
10
287.550017507499
20
-3.31476474005248
30
0
41
1
10
287.552116127572
20
-3.42678061902998
30
0
41
1
10
287.553241725102
20
-3.46402017693535
30
0
41
1
10
287.556066196098
20
-3.51963782520906
30
0
41
1
10
287.557199844787
20
-3.53813623287365
30
0
41
1
10
287.560032561576
20
-3.57501750617954
30
0
41
1
10
287.561724621638
20
-3.59340168463734
30
0
41
1
10
287.564962866512
20
-3.62083957542208
30
0
41
1
10
287.566160648091
20
-3.62996216256767
30
0
41
1
10
287.568892543204
20
-3.64814192598004
30
0
41
1
10
287.570429233634
20
-3.65722701901348
30
0
41
1
10
287.574003223349
20
-3.67517038949842
30
0
41
1
10
287.576022559128
20
-3.68398056808934
30
0
41
1
10
287.579665375541
20
-3.696773044634
30
0
41
1
10
287.580983473112
20
-3.7009657012903
30
0
41
1
10
287.583925806698
20
-3.70914096325649
30
0
41
1
10
287.585555704597
20
-3.71313687493503
30
0
41
1
10
287.589214864266
20
-3.72059319090169
30
0
41
1
10
287.591242911041
20
-3.72408197853673
30
0
41
1
10
287.596024190781
20
-3.73018722526112
30
0
41
1
10
287.598791925149
20
-3.7327925503769
30
0
41
1
10
287.603585192062
20
-3.7350281309358
30
0
41
1
10
287.605238544653
20
-3.73546904733837
30
0
41
1
10
287.608667422955
20
-3.73568290628768
30
0
41
1
10
287.61045752744
20
-3.7354403300275
30
0
41
1
10
287.613936585578
20
-3.7343332398537
30
0
41
1
10
287.615671884936
20
-3.73346228202792
30
0
41
1
10
287.61899339339
20
-3.73128844497953
30
0
41
1
10
287.620581409002
20
-3.72999412036586
30
0
41
1
10
287.625186557665
20
-3.72565845068132
30
0
41
1
10
287.628021131566
20
-3.7221900981304
30
0
41
1
10
287.633249794904
20
-3.71485248827565
30
0
41
1
10
287.635679061346
20
-3.71093331943959
30
0
41
1
10
287.642616772462
20
-3.69870333450189
30
0
41
1
10
287.646685962344
20
-3.6901149875296
30
0
41
1
10
287.650480947162
20
-3.68133613838199
30
0
0
SPLINE
5
1A3
100
AcDbEntity
8
1
62
256
6
ByLayer
370
18
48
1
60
0
100
AcDbSpline
70
4
71
3
72
8
73
4
40
0
40
0
40
0
40
0
40
1
40
1
40
1
40
1
41
1
10
287.650480947162
20
-0.205522419002733
30
0
41
1
10
287.651388368233
20
-0.0685074730016311
30
0
41
1
10
287.651388368233
20
0.068507472999471
30
0
41
1
10
287.650480947162
20
0.205522419000573
30
0
0
SPLINE
5
1A4
100
AcDbEntity
8
1
62
256
6
ByLayer
370
18
48
1
60
0
100
AcDbSpline
70
4
71
3
72
59
73
55
40
0
40
0
40
0
40
0
40
0.124999999999999
40
0.124999999999999
40
0.249999999999999
40
0.374999999999998
40
0.374999999999998
40
0.499999999999997
40
0.499999999999997
40
0.624999999999996
40
0.624999999999996
40
0.687499999999996
40
0.687499999999996
40
0.749999999999995
40
0.749999999999995
40
0.812499999999994
40
0.812499999999994
40
0.843749999999994
40
0.843749999999994
40
0.874999999999994
40
0.874999999999994
40
0.906249999999994
40
0.906249999999994
40
0.921874999999994
40
0.921874999999994
40
0.937499999999994
40
0.937499999999994
40
0.945312499999994
40
0.945312499999994
40
0.953124999999994
40
0.953124999999994
40
0.960937499999995
40
0.960937499999995
40
0.964843749999995
40
0.964843749999995
40
0.968749999999995
40
0.968749999999995
40
0.972656249999995
40
0.972656249999995
40
0.976562499999995
40
0.976562499999995
40
0.978515624999996
40
0.978515624999996
40
0.980468749999997
40
0.980468749999997
40
0.982421874999998
40
0.982421874999998
40
0.984374999999999
40
0.984374999999999
40
0.988281249999999
40
0.988281249999999
40
0.9921875
40
0.9921875
40
1
40
1
40
1
40
1
41
1
10
287.650480947162
20
0.205522419000573
30
0
41
1
10
287.649474529164
20
0.357485286117964
30
0
41
1
10
287.647350571744
20
0.509462034318148
30
0
41
1
10
287.641070593963
20
0.813444393380024
30
0
41
1
10
287.632760419544
20
1.11745562328167
30
0
41
1
10
287.621178756172
20
1.4215288641204
30
0
41
1
10
287.608531759673
20
1.72563622957639
30
0
41
1
10
287.601672191193
20
1.87770695466043
30
0
41
1
10
287.587676377915
20
2.18188692008764
30
0
41
1
10
287.580530180473
20
2.33394573764647
30
0
41
1
10
287.570536139854
20
2.56160809848336
30
0
41
1
10
287.567328862803
20
2.63743907733252
30
0
41
1
10
287.561413484972
20
2.78896908574691
30
0
41
1
10
287.558701689912
20
2.8646683981288
30
0
41
1
10
287.554167978853
20
3.01590533592244
30
0
41
1
10
287.552334555853
20
3.09144384070044
30
0
41
1
10
287.550799054594
20
3.20458854632429
30
0
41
1
10
287.550492739193
20
3.24227603690912
30
0
41
1
10
287.550469812772
20
3.31758254278571
30
0
41
1
10
287.550750183483
20
3.3552388665517
30
0
41
1
10
287.552208755407
20
3.43023262171326
30
0
41
1
10
287.553373181025
20
3.46757297685463
30
0
41
1
10
287.556275212278
20
3.52319890720372
30
0
41
1
10
287.557437968645
20
3.54167593430688
30
0
41
1
10
287.560336644401
20
3.57844571083456
30
0
41
1
10
287.562065629678
20
3.59674052995965
30
0
41
1
10
287.565365531574
20
3.62396204542205
30
0
41
1
10
287.566584913132
20
3.63299859792519
30
0
41
1
10
287.569361551694
20
3.65096757430689
30
0
41
1
10
287.570921073671
20
3.6599191615218
30
0
41
1
10
287.574516938715
20
3.67745376451629
30
0
41
1
10
287.576547962152
20
3.68605996342834
30
0
41
1
10
287.58021552862
20
3.69854381258722
30
0
41
1
10
287.581543102687
20
3.702633139618
30
0
41
1
10
287.584510409302
20
3.71059873923636
30
0
41
1
10
287.586161611328
20
3.71450396438104
30
0
41
1
10
287.589888240219
20
3.72177776739389
30
0
41
1
10
287.591955510826
20
3.72516274851054
30
0
41
1
10
287.59684579735
20
3.7310016203015
30
0
41
1
10
287.599637337106
20
3.73338371760596
30
0
41
1
10
287.604411839463
20
3.73527061609727
30
0
41
1
10
287.606061767277
20
3.73560195864559
30
0
41
1
10
287.609492008734
20
3.7356009926032
30
0
41
1
10
287.611227428267
20
3.73526227848512
30
0
41
1
10
287.61463552521
20
3.73400699466941
30
0
41
1
10
287.616332222931
20
3.73307964611323
30
0
41
1
10
287.61955483406
20
3.73084823538682
30
0
41
1
10
287.621102908113
20
3.72953833110844
30
0
41
1
10
287.62560527577
20
3.72517335725419
30
0
41
1
10
287.628363216431
20
3.72174764484242
30
0
41
1
10
287.633516183583
20
3.71443632136817
30
0
41
1
10
287.635914818984
20
3.71053626148265
30
0
41
1
10
287.642693644436
20
3.69852839288191
30
0
41
1
10
287.646722359183
20
3.69003079157744
30
0
41
1
10
287.650480947162
20
3.68133613838142
30
0
0
SPLINE
5
1A5
100
AcDbEntity
8
1
62
256
6
ByLayer
370
18
48
1
60
0
100
AcDbSpline
70
4
71
3
72
10
73
6
40
0
40
0
40
0
40
0
40
0.5
40
0.5
40
1
40
1
40
1
40
1
41
1
10
287.650480947161
20
3.6813361383812
30
0
41
1
10
287.798334418938
20
3.33931017858185
30
0
41
1
10
287.9309865447
20
2.99090315238323
30
0
41
1
10
288.158489259991
20
2.27822115563148
30
0
41
1
10
288.253343637489
20
1.91394777515311
30
0
41
1
10
288.324759526416
20
1.53983562436312
30
0
0
SPLINE
5
1A6
100
AcDbEntity
8
1
62
256
6
ByLayer
370
18
48
1
60
0
100
AcDbSpline
70
4
71
3
72
8
73
4
40
0
40
0
40
0
40
0
40
1
40
1
40
1
40
1
41
1
10
288.324759526419
20
4.05383691704435
30
0
41
1
10
288.164101740032
20
5.23155518188645
30
0
41
1
10
287.936650314553
20
6.39203615339517
30
0
41
1
10
287.650480947162
20
7.53736390968135
30
0
0
SPLINE
5
1A7
100
AcDbEntity
8
1
62
256
6
ByLayer
370
18
48
1
60
0
100
AcDbSpline
70
4
71
3
72
42
73
38
40
0
40
0
40
0
40
0
40
0.250000000000008
40
0.250000000000008
40
0.375000000000012
40
0.375000000000012
40
0.500000000000017
40
0.500000000000017
40
0.625000000000021
40
0.625000000000021
40
0.687500000000021
40
0.687500000000021
40
0.750000000000021
40
0.750000000000021
40
0.781250000000019
40
0.781250000000019
40
0.812500000000017
40
0.812500000000017
40
0.843750000000014
40
0.843750000000014
40
0.859375000000013
40
0.859375000000013
40
0.875000000000012
40
0.875000000000012
40
0.890625000000011
40
0.890625000000011
40
0.90625000000001
40
0.90625000000001
40
0.921875000000009
40
0.921875000000009
40
0.937500000000007
40
0.937500000000007
40
0.953125000000006
40
0.953125000000006
40
0.968750000000005
40
0.968750000000005
40
1
40
1
40
1
40
1
41
1
10
287.650480947162
20
7.53736390968135
30
0
41
1
10
287.63076897837
20
7.61625657801133
30
0
41
1
10
287.61346059995
20
7.69484838754843
30
0
41
1
10
287.591140780514
20
7.81227186098036
30
0
41
1
10
287.584320719395
20
7.85133461566323
30
0
41
1
10
287.572124668301
20
7.92928471022154
30
0
41
1
10
287.566742521326
20
7.96817257525043
30
0
41
1
10
287.557864378318
20
8.04573416545588
30
0
41
1
10
287.55434285781
20
8.08444008797309
30
0
41
1
10
287.551271377319
20
8.14217806187213
30
0
41
1
10
287.550630005146
20
8.16123086440473
30
0
41
1
10
287.550377159459
20
8.19882638523748
30
0
41
1
10
287.550757044976
20
8.21737314192032
30
0
41
1
10
287.552486535079
20
8.24462984001462
30
0
41
1
10
287.553258656099
20
8.2536204028757
30
0
41
1
10
287.555324288495
20
8.27135071684782
30
0
41
1
10
287.556619146011
20
8.2801132325753
30
0
41
1
10
287.559941779673
20
8.29718730274985
30
0
41
1
10
287.56194845637
20
8.30541747543811
30
0
41
1
10
287.565733288872
20
8.31707909554189
30
0
41
1
10
287.567125496084
20
8.32085109081328
30
0
41
1
10
287.570248978874
20
8.32809687353506
30
0
41
1
10
287.571992418155
20
8.33159059856956
30
0
41
1
10
287.575857623531
20
8.33803499233437
30
0
41
1
10
287.577978928924
20
8.34099480065206
30
0
41
1
10
287.582717557109
20
8.34622641457625
30
0
41
1
10
287.58536880188
20
8.34851669927062
30
0
41
1
10
287.591140283969
20
8.35201750539247
30
0
41
1
10
287.594278886941
20
8.35324654097906
30
0
41
1
10
287.601038610781
20
8.35441280864694
30
0
41
1
10
287.604547324229
20
8.35433579846469
30
0
41
1
10
287.611812347963
20
8.35291576298243
30
0
41
1
10
287.615579957294
20
8.35154989266965
30
0
41
1
10
287.622949675614
20
8.34785285904445
30
0
41
1
10
287.626634528599
20
8.34549323736715
30
0
41
1
10
287.637401170667
20
8.33740232559015
30
0
41
1
10
287.644079218297
20
8.33083394937836
30
0
41
1
10
287.650480947162
20
8.32361823496615
30
0
0
SPLINE
5
1A8
100
AcDbEntity
8
1
62
256
6
ByLayer
370
18
48
1
60
0
100
AcDbSpline
70
4
71
3
72
8
73
4
40
0
40
0
40
0
40
0
40
1
40
1
40
1
40
1
41
1
10
287.650480947162
20
8.32361823496615
30
0
41
1
10
287.877893938717
20
8.06728947825516
30
0
41
1
10
288.102856207569
20
7.80812939307202
30
0
41
1
10
288.324759526411
20
7.54543529228991
30
0
0
SPLINE
5
1A9
100
AcDbEntity
8
1
62
256
6
ByLayer
370
18
48
1
60
0
100
AcDbSpline
70
4
71
3
72
8
73
4
40
0
40
0
40
0
40
0
40
1
40
1
40
1
40
1
41
1
10
288.324759526419
20
8.35889309358495
30
0
41
1
10
288.120774732857
20
9.06295440434258
30
0
41
1
10
287.895186418447
20
9.75770188931031
30
0
41
1
10
287.650480947162
20
10.4442074830612
30
0
0
SPLINE
5
1AA
100
AcDbEntity
8
1
62
256
6
ByLayer
370
18
48
1
60
0
100
AcDbSpline
70
4
71
3
72
40
73
36
40
0
40
0
40
0
40
0
40
0.124999999999996
40
0.124999999999996
40
0.249999999999993
40
0.249999999999993
40
0.374999999999989
40
0.374999999999989
40
0.499999999999985
40
0.499999999999985
40
0.562499999999977
40
0.562499999999977
40
0.624999999999969
40
0.624999999999969
40
0.687499999999961
40
0.687499999999961
40
0.749999999999954
40
0.749999999999954
40
0.781249999999957
40
0.781249999999957
40
0.81249999999996
40
0.81249999999996
40
0.843749999999963
40
0.843749999999963
40
0.874999999999966
40
0.874999999999966
40
0.906249999999969
40
0.906249999999969
40
0.921874999999971
40
0.921874999999971
40
0.937499999999973
40
0.937499999999973
40
0.968749999999987
40
0.968749999999987
40
1
40
1
40
1
40
1
41
1
10
287.650480947162
20
10.4442074830612
30
0
41
1
10
287.640025010737
20
10.4735409458817
30
0
41
1
10
287.630210989746
20
10.5029673076435
30
0
41
1
10
287.611958545041
20
10.5616002322835
30
0
41
1
10
287.603523410692
20
10.5907865528439
30
0
41
1
10
287.588102337404
20
10.6488854928155
30
0
41
1
10
287.581113785878
20
10.6777985452108
30
0
41
1
10
287.568829176801
20
10.7353093306312
30
0
41
1
10
287.56352332279
20
10.7639086554231
30
0
41
1
10
287.557268698593
20
10.8064991466686
30
0
41
1
10
287.555468305322
20
10.8206822963943
30
0
41
1
10
287.55261922337
20
10.8486113407314
30
0
41
1
10
287.55156397293
20
10.8623801284263
30
0
41
1
10
287.550399909879
20
10.8894214732831
30
0
41
1
10
287.550285829804
20
10.9026966836882
30
0
41
1
10
287.55138586223
20
10.9285585052087
30
0
41
1
10
287.552608640832
20
10.941233130268
30
0
41
1
10
287.555948456209
20
10.9588608230572
30
0
41
1
10
287.557314290988
20
10.9645185412791
30
0
41
1
10
287.560709973981
20
10.975262942648
30
0
41
1
10
287.562757184409
20
10.9803881681503
30
0
41
1
10
287.567691285185
20
10.9896473096829
30
0
41
1
10
287.570555797839
20
10.9937603959159
30
0
41
1
10
287.577358112121
20
11.000596940404
30
0
41
1
10
287.581328265331
20
11.0032995526676
30
0
41
1
10
287.590209516905
20
11.0065701580037
30
0
41
1
10
287.595238130169
20
11.0071547338817
30
0
41
1
10
287.603144568995
20
11.0063121242086
30
0
41
1
10
287.605853809948
20
11.0057558877132
30
0
41
1
10
287.611415566325
20
11.0041091466666
30
0
41
1
10
287.614249175209
20
11.0030206655192
30
0
41
1
10
287.622685087213
20
10.9991362853468
30
0
41
1
10
287.628307688267
20
10.9957046891446
30
0
41
1
10
287.639550729521
20
10.9875472607241
30
0
41
1
10
287.645089621271
20
10.982874451409
30
0
41
1
10
287.650480947162
20
10.9778415583039
30
0
0
SPLINE
5
1AB
100
AcDbEntity
8
1
62
256
6
ByLayer
370
18
48
1
60
0
100
AcDbSpline
70
4
71
3
72
8
73
4
40
0
40
0
40
0
40
0
40
1
40
1
40
1
40
1
41
1
10
287.650480947162
20
10.9778415583021
30
0
41
1
10
287.875878259424
20
10.7674293885313
30
0
41
1
10
288.100672937923
20
10.5561625919061
30
0
41
1
10
288.324759526419
20
10.3438916153437
30
0
0
SPLINE
5
1AC
100
AcDbEntity
8
1
62
256
6
ByLayer
370
18
48
1
60
0
100
AcDbSpline
70
4
71
3
72
8
73
4
40
0
40
0
40
0
40
0
40
1
40
1
40
1
40
1
41
1
10
288.324759526419
20
10.8999354929273
30
0
41
1
10
288.111437539985
20
11.4476285217336
30
0
41
1
10
287.886241901322
20
11.9887487173411
30
0
41
1
10
287.650480947162
20
12.5240203286124
30
0
0
SPLINE
5
1AD
100
AcDbEntity
8
1
62
256
6
ByLayer
370
18
48
1
60
0
100
AcDbSpline
70
4
71
3
72
40
73
36
40
0
40
0
40
0
40
0
40
0.125000000000006
40
0.125000000000006
40
0.250000000000011
40
0.250000000000011
40
0.375000000000017
40
0.375000000000017
40
0.500000000000023
40
0.500000000000023
40
0.562500000000023
40
0.562500000000023
40
0.625000000000024
40
0.625000000000024
40
0.687500000000025
40
0.687500000000025
40
0.718750000000022
40
0.718750000000022
40
0.75000000000002
40
0.75000000000002
40
0.781250000000017
40
0.781250000000017
40
0.812500000000015
40
0.812500000000015
40
0.843750000000012
40
0.843750000000012
40
0.87500000000001
40
0.87500000000001
40
0.906250000000007
40
0.906250000000007
40
0.937500000000005
40
0.937500000000005
40
0.968750000000002
40
0.968750000000002
40
1
40
1
40
1
40
1
41
1
10
287.650480947162
20
12.5240203286124
30
0
41
1
10
287.639690471916
20
12.5485190209083
30
0
41
1
10
287.629613916006
20
12.5729486554877
30
0
41
1
10
287.610849297584
20
12.6216689381409
30
0
41
1
10
287.602160592807
20
12.6459596622946
30
0
41
1
10
287.586289625029
20
12.6943887125289
30
0
41
1
10
287.579096154492
20
12.7185525224906
30
0
41
1
10
287.566584682111
20
12.7665924147555
30
0
41
1
10
287.561339273704
20
12.7901565661232
30
0
41
1
10
287.555481361028
20
12.824606055429
30
0
41
1
10
287.553867302615
20
12.8359382479907
30
0
41
1
10
287.551487852271
20
12.8582271487084
30
0
41
1
10
287.550718615151
20
12.8692396521942
30
0
41
1
10
287.550336211257
20
12.8904892822457
30
0
41
1
10
287.550714779598
20
12.9006787514824
30
0
41
1
10
287.552465551096
20
12.9150655650469
30
0
41
1
10
287.553248182532
20
12.9197101977647
30
0
41
1
10
287.555309097648
20
12.9286248501673
30
0
41
1
10
287.556593904736
20
12.9329010995036
30
0
41
1
10
287.559717301251
20
12.9407756166942
30
0
41
1
10
287.561559358519
20
12.9444002494732
30
0
41
1
10
287.565937706079
20
12.9508777423318
30
0
41
1
10
287.568504767017
20
12.9537519025172
30
0
41
1
10
287.574349248947
20
12.9583575070408
30
0
41
1
10
287.577621102576
20
12.9601034727093
30
0
41
1
10
287.584977180313
20
12.9623048822327
30
0
41
1
10
287.589008029016
20
12.9627276846826
30
0
41
1
10
287.597554413792
20
12.9621883066379
30
0
41
1
10
287.602165047508
20
12.9612103113983
30
0
41
1
10
287.61156352127
20
12.9580305278126
30
0
41
1
10
287.616343834585
20
12.9558532438601
30
0
41
1
10
287.626039774226
20
12.9505209964742
30
0
41
1
10
287.630992916635
20
12.947336362704
30
0
41
1
10
287.640809613647
20
12.9402688914584
30
0
41
1
10
287.64566607499
20
12.9363995135526
30
0
41
1
10
287.650480947162
20
12.9322615979161
30
0
0
SPLINE
5
1AE
100
AcDbEntity
8
1
62
256
6
ByLayer
370
18
48
1
60
0
100
AcDbSpline
70
4
71
3
72
8
73
4
40
0
40
0
40
0
40
0
40
1
40
1
40
1
40
1
41
1
10
287.650480947162
20
12.9322615979151
30
0
41
1
10
287.875423713527
20
12.7389451074571
30
0
41
1
10
288.100191536751
20
12.5453578173495
30
0
41
1
10
288.324759526419
20
12.3514611989826
30
0
0
SPLINE
5
1AF
100
AcDbEntity
8
1
62
256
6
ByLayer
370
18
48
1
60
0
100
AcDbSpline
70
4
71
3
72
8
73
4
40
0
40
0
40
0
40
0
40
1
40
1
40
1
40
1
41
1
10
288.324759526419
20
12.7767794748901
30
0
41
1
10
288.107382666912
20
13.238166516196
30
0
41
1
10
287.882352997816
20
13.6945301612776
30
0
41
1
10
287.650480947162
20
14.1464023848385
30
0
0
SPLINE
5
1B0
100
AcDbEntity
8
1
62
256
6
ByLayer
370
18
48
1
60
0
100
AcDbSpline
70
4
71
3
72
40
73
36
40
0
40
0
40
0
40
0
40
0.125000000000002
40
0.125000000000002
40
0.250000000000005
40
0.250000000000005
40
0.375000000000007
40
0.375000000000007
40
0.437500000000006
40
0.437500000000006
40
0.500000000000005
40
0.500000000000005
40
0.562500000000004
40
0.562500000000004
40
0.625000000000003
40
0.625000000000003
40
0.687500000000001
40
0.687500000000001
40
0.718750000000002
40
0.718750000000002
40
0.750000000000002
40
0.750000000000002
40
0.781250000000003
40
0.781250000000003
40
0.812500000000004
40
0.812500000000004
40
0.843750000000004
40
0.843750000000004
40
0.875000000000005
40
0.875000000000005
40
0.937500000000005
40
0.937500000000005
40
0.968750000000003
40
0.968750000000003
40
1
40
1
40
1
40
1
41
1
10
287.650480947162
20
14.1464023848385
30
0
41
1
10
287.639414958228
20
14.1679677827008
30
0
41
1
10
287.629040809079
20
14.1894982781831
30
0
41
1
10
287.609683150239
20
14.2324844320545
30
0
41
1
10
287.600665700982
20
14.2540304822568
30
0
41
1
10
287.584409180772
20
14.2964716606373
30
0
41
1
10
287.577153956557
20
14.317378395479
30
0
41
1
10
287.56784509696
20
14.3481740824699
30
0
41
1
10
287.565006721944
20
14.3583444727699
30
0
41
1
10
287.55994833633
20
14.3784644888762
30
0
41
1
10
287.557723039423
20
14.3884367390232
30
0
41
1
10
287.554054354315
20
14.4080137813789
30
0
41
1
10
287.552625671844
20
14.4175304795205
30
0
41
1
10
287.550759790623
20
14.4359026326862
30
0
41
1
10
287.550318779816
20
14.4447605718951
30
0
41
1
10
287.550749497916
20
14.4616056545868
30
0
41
1
10
287.551636822927
20
14.4696104377057
30
0
41
1
10
287.554281873644
20
14.4802400051817
30
0
41
1
10
287.555383473851
20
14.4835703154131
30
0
41
1
10
287.55811068237
20
14.4897250071952
30
0
41
1
10
287.559751087798
20
14.4925672484097
30
0
41
1
10
287.5635955558
20
14.4975235357771
30
0
41
1
10
287.565792502249
20
14.4996397405517
30
0
41
1
10
287.570810054821
20
14.5030524418836
30
0
41
1
10
287.573662929114
20
14.5043510856055
30
0
41
1
10
287.579852338378
20
14.505948937452
30
0
41
1
10
287.583198210382
20
14.5062662734105
30
0
41
1
10
287.59039654148
20
14.5059318013027
30
0
41
1
10
287.594295692839
20
14.5052651393154
30
0
41
1
10
287.606418497699
20
14.5018746224366
30
0
41
1
10
287.61493133613
20
14.497866925471
30
0
41
1
10
287.628201605806
20
14.4898327177068
30
0
41
1
10
287.632697891774
20
14.4868155998185
30
0
41
1
10
287.641605111238
20
14.4803478822282
30
0
41
1
10
287.646047713553
20
14.4768784266659
30
0
41
1
10
287.650480947162
20
14.4732088630909
30
0
0
SPLINE
5
1B1
100
AcDbEntity
8
1
62
256
6
ByLayer
370
18
48
1
60
0
100
AcDbSpline
70
4
71
3
72
8
73
4
40
0
40
0
40
0
40
0
40
1
40
1
40
1
40
1
41
1
10
287.650480947162
20
14.4732088630903
30
0
41
1
10
287.87528177088
20
14.2871322907601
30
0
41
1
10
288.10004293855
20
14.1009918745275
30
0
41
1
10
288.324759526419
20
13.9147796874392
30
0
0
SPLINE
5
1B2
100
AcDbEntity
8
1
62
256
6
ByLayer
370
18
48
1
60
0
100
AcDbSpline
70
4
71
3
72
8
73
4
40
0
40
0
40
0
40
0
40
1
40
1
40
1
40
1
41
1
10
288.324759526419
20
14.2542482702516
30
0
41
1
10
288.105152654041
20
14.6587123242192
30
0
41
1
10
287.880211532645
20
15.0591860512794
30
0
41
1
10
287.650480947162
20
15.4560769820816
30
0
0
SPLINE
5
1B3
100
AcDbEntity
8
1
62
256
6
ByLayer
370
18
48
1
60
0
100
AcDbSpline
70
4
71
3
72
39
73
35
40
0
40
0
40
0
40
0
40
0.124999999999976
40
0.124999999999976
40
0.249999999999951
40
0.249999999999951
40
0.374999999999927
40
0.374999999999927
40
0.437499999999922
40
0.437499999999922
40
0.499999999999918
40
0.499999999999918
40
0.562499999999913
40
0.562499999999913
40
0.593749999999917
40
0.593749999999917
40
0.62499999999992
40
0.62499999999992
40
0.687499999999935
40
0.687499999999935
40
0.718749999999942
40
0.718749999999942
40
0.74999999999995
40
0.74999999999995
40
0.781249999999957
40
0.781249999999957
40
0.812499999999965
40
0.843749999999972
40
0.843749999999972
40
0.87499999999998
40
0.87499999999998
40
0.93749999999999
40
0.93749999999999
40
1
40
1
40
1
40
1
41
1
10
287.650480947162
20
15.4560769820816
30
0
41
1
10
287.639193035731
20
15.4755783891974
30
0
41
1
10
287.628590160519
20
15.495015097299
30
0
41
1
10
287.608789608101
20
15.5337506274611
30
0
41
1
10
287.59955440175
20
15.553139477001
30
0
41
1
10
287.582996045851
20
15.5910738569016
30
0
41
1
10
287.575636447461
20
15.6096683647387
30
0
41
1
10
287.566297083474
20
15.6368716168541
30
0
41
1
10
287.563469944102
20
15.6458235796129
30
0
41
1
10
287.558498129876
20
15.6634519327056
30
0
41
1
10
287.556355985995
20
15.6721338879727
30
0
41
1
10
287.552992495483
20
15.6887880727997
30
0
41
1
10
287.551755667217
20
15.6968054930663
30
0
41
1
10
287.550731607718
20
15.7082552465142
30
0
41
1
10
287.550529643809
20
15.7119751829301
30
0
41
1
10
287.550447718715
20
15.7191922642149
30
0
41
1
10
287.550569803588
20
15.7227031448452
30
0
41
1
10
287.551489172924
20
15.7326767960522
30
0
41
1
10
287.552823866437
20
15.738626638057
30
0
41
1
10
287.556235634613
20
15.7461914297897
30
0
41
1
10
287.557622786118
20
15.7484972729618
30
0
41
1
10
287.560888621489
20
15.7524800239244
30
0
41
1
10
287.562763444322
20
15.7541622265607
30
0
41
1
10
287.567039967856
20
15.7568546457295
30
0
41
1
10
287.569461523802
20
15.7578691446216
30
0
41
1
10
287.574799687778
20
15.759128060958
30
0
41
1
10
287.580568003688
20
15.7596147416118
30
0
41
1
10
287.587174135165
20
15.7586005535325
30
0
41
1
10
287.594197904459
20
15.7568396148933
30
0
41
1
10
287.597925489672
20
15.7555764856669
30
0
41
1
10
287.609307892352
20
15.7508672481522
30
0
41
1
10
287.617324482498
20
15.7464633141769
30
0
41
1
10
287.63384879861
20
15.7357246214986
30
0
41
1
10
287.642150093394
20
15.7295341136667
30
0
41
1
10
287.650480947162
20
15.7227274845166
30
0
0
SPLINE
5
1B4
100
AcDbEntity
8
1
62
256
6
ByLayer
370
18
48
1
60
0
100
AcDbSpline
70
4
71
3
72
8
73
4
40
0
40
0
40
0
40
0
40
1
40
1
40
1
40
1
41
1
10
287.650480947162
20
15.7227274845162
30
0
41
1
10
287.875242279349
20
15.5390887989474
30
0
41
1
10
288.10000187134
20
15.3554472734946
30
0
41
1
10
288.324759526419
20
15.1718025873647
30
0
0
SPLINE
5
1B5
100
AcDbEntity
8
1
62
256
6
ByLayer
370
18
48
1
60
0
100
AcDbSpline
70
4
71
3
72
8
73
4
40
0
40
0
40
0
40
0
40
1
40
1
40
1
40
1
41
1
10
288.324759526419
20
15.4473652688725
30
0
41
1
10
288.103764009202
20
15.810559849515
30
0
41
1
10
287.878876276632
20
16.1705149416574
30
0
41
1
10
287.650480947162
20
16.5275506630081
30
0
0
SPLINE
5
1B6
100
AcDbEntity
8
1
62
256
6
ByLayer
370
18
48
1
60
0
100
AcDbSpline
70
4
71
3
72
41
73
37
40
0
40
0
40
0
40
0
40
0.125000000000002
40
0.125000000000002
40
0.187500000000005
40
0.187500000000005
40
0.250000000000009
40
0.250000000000009
40
0.37500000000002
40
0.37500000000002
40
0.437500000000023
40
0.437500000000023
40
0.500000000000026
40
0.500000000000026
40
0.562500000000028
40
0.562500000000028
40
0.625000000000031
40
0.625000000000031
40
0.656250000000028
40
0.656250000000028
40
0.687500000000025
40
0.687500000000025
40
0.718750000000022
40
0.718750000000022
40
0.750000000000019
40
0.750000000000019
40
0.812500000000013
40
0.812500000000013
40
0.843750000000009
40
0.843750000000009
40
0.875000000000005
40
0.906250000000001
40
0.906250000000001
40
0.937499999999998
40
0.937499999999998
40
1
40
1
40
1
40
1
41
1
10
287.650480947162
20
16.5275506630081
30
0
41
1
10
287.638981804677
20
16.5455265324861
30
0
41
1
10
287.62814548197
20
16.5634206151334
30
0
41
1
10
287.612939206481
20
16.5901281849015
30
0
41
1
10
287.608042788563
20
16.5990169496361
30
0
41
1
10
287.598721928768
20
16.6165648982936
30
0
41
1
10
287.594284643272
20
16.6252457634563
30
0
41
1
10
287.581686936374
20
16.6509896479133
30
0
41
1
10
287.574223281786
20
16.6677610781075
30
0
41
1
10
287.564837577099
20
16.692160446243
30
0
41
1
10
287.562006278076
20
16.7001981661693
30
0
41
1
10
287.557184605239
20
16.7156477088196
30
0
41
1
10
287.555179368067
20
16.7230904973053
30
0
41
1
10
287.552137250522
20
16.7373043165402
30
0
41
1
10
287.551097322754
20
16.7440774273179
30
0
41
1
10
287.550263647968
20
16.7567617390181
30
0
41
1
10
287.550482593648
20
16.7625191878583
30
0
41
1
10
287.551971457481
20
16.7700613230126
30
0
41
1
10
287.552662227263
20
16.7723934928266
30
0
41
1
10
287.554488589319
20
16.776642572204
30
0
41
1
10
287.555629696968
20
16.7785582671363
30
0
41
1
10
287.558347744801
20
16.78182817428
30
0
41
1
10
287.559929168047
20
16.7831969176469
30
0
41
1
10
287.563569638857
20
16.7853637195272
30
0
41
1
10
287.565645521329
20
16.7861647789774
30
0
41
1
10
287.572537810431
20
16.7876065271325
30
0
41
1
10
287.57792665398
20
16.7872966647595
30
0
41
1
10
287.587151619285
20
16.7850110816927
30
0
41
1
10
287.590446302726
20
16.7839313072064
30
0
41
1
10
287.597241521147
20
16.7812338486891
30
0
41
1
10
287.604247749766
20
16.7780074106858
30
0
41
1
10
287.61163322165
20
16.7738322488313
30
0
41
1
10
287.619193271317
20
16.7692211157912
30
0
41
1
10
287.623071327699
20
16.7666886267627
30
0
41
1
10
287.634714931172
20
16.7586489532183
30
0
41
1
10
287.642563586242
20
16.7526628820381
30
0
41
1
10
287.650480947162
20
16.7461799915711
30
0
0
SPLINE
5
1B7
100
AcDbEntity
8
1
62
256
6
ByLayer
370
18
48
1
60
0
100
AcDbSpline
70
4
71
3
72
8
73
4
40
0
40
0
40
0
40
0
40
1
40
1
40
1
40
1
41
1
10
287.650480947162
20
16.7461799915709
30
0
41
1
10
287.875247737629
20
16.5621365334019
30
0
41
1
10
288.100007511727
20
16.3780816494056
30
0
41
1
10
288.324759526419
20
16.1940141333137
30
0
0
SPLINE
5
1B8
100
AcDbEntity
8
1
62
256
6
ByLayer
370
18
48
1
60
0
100
AcDbSpline
70
4
71
3
72
8
73
4
40
0
40
0
40
0
40
0
40
1
40
1
40
1
40
1
41
1
10
288.324759526419
20
16.4182396666014
30
0
41
1
10
288.10282976625
20
16.7496954266896
30
0
41
1
10
287.87797677687
20
17.0784874839762
30
0
41
1
10
287.650480947162
20
17.4048713342147
30
0
0
SPLINE
5
1B9
100
AcDbEntity
8
1
62
256
6
ByLayer
370
18
48
1
60
0
100
AcDbSpline
70
4
71
3
72
34
73
30
40
0
40
0
40
0
40
0
40
0.125
40
0.125
40
0.249999999999999
40
0.249999999999999
40
0.312499999999989
40
0.312499999999989
40
0.374999999999979
40
0.374999999999979
40
0.499999999999973
40
0.499999999999973
40
0.562499999999973
40
0.562499999999973
40
0.624999999999974
40
0.624999999999974
40
0.687499999999975
40
0.687499999999975
40
0.718749999999974
40
0.718749999999974
40
0.749999999999972
40
0.749999999999972
40
0.812499999999979
40
0.812499999999979
40
0.874999999999986
40
0.874999999999986
40
0.937499999999993
40
0.937499999999993
40
1
40
1
40
1
40
1
41
1
10
287.650480947162
20
17.4048713342147
30
0
41
1
10
287.638779782576
20
17.4216587678776
30
0
41
1
10
287.627693116502
20
17.4383758860396
30
0
41
1
10
287.607002473869
20
17.4714107933071
30
0
41
1
10
287.597504579954
20
17.4875524832547
30
0
41
1
10
287.584701626499
20
17.5111204626925
30
0
41
1
10
287.580676613219
20
17.51886815968
30
0
41
1
10
287.57317678391
20
17.534117596637
30
0
41
1
10
287.569687169971
20
17.5416532144358
30
0
41
1
10
287.560306547286
20
17.5635746306851
30
0
41
1
10
287.555515793997
20
17.5771559030118
30
0
41
1
10
287.551444442405
20
17.595334081103
30
0
41
1
10
287.550629414815
20
17.6010158296468
30
0
41
1
10
287.550369704542
20
17.6110410235747
30
0
41
1
10
287.550906911697
20
17.6154408318432
30
0
41
1
10
287.553649785601
20
17.6227119306326
30
0
41
1
10
287.555833495619
20
17.625479638908
30
0
41
1
10
287.560418657478
20
17.6281044544231
30
0
41
1
10
287.562180578905
20
17.628730268592
30
0
41
1
10
287.56612484049
20
17.629429998825
30
0
41
1
10
287.568286199411
20
17.6295043011137
30
0
41
1
10
287.575316333567
20
17.6289333978017
30
0
41
1
10
287.580743615077
20
17.6274928474913
30
0
41
1
10
287.592956646791
20
17.6225760263916
30
0
41
1
10
287.599500450861
20
17.619204439913
30
0
41
1
10
287.613308831925
20
17.6109620758313
30
0
41
1
10
287.620630234375
20
17.6060417517649
30
0
41
1
10
287.635395579302
20
17.5952630873187
30
0
41
1
10
287.642891402848
20
17.5893789353737
30
0
41
1
10
287.650480947162
20
17.5830864488525
30
0
0
SPLINE
5
1BA
100
AcDbEntity
8
1
62
256
6
ByLayer
370
18
48
1
60
0
100
AcDbSpline
70
4
71
3
72
8
73
4
40
0
40
0
40
0
40
0
40
1
40
1
40
1
40
1
41
1
10
287.650480947162
20
17.5830864488524
30
0
41
1
10
287.87527835498
20
17.3967070563398
30
0
41
1
10
288.100039125586
20
17.2102687278765
30
0
41
1
10
288.324759526419
20
17.0237655573015
30
0
0
SPLINE
5
1BB
100
AcDbEntity
8
1
62
256
6
ByLayer
370
18
48
1
60
0
100
AcDbSpline
70
4
71
3
72
8
73
4
40
0
40
0
40
0
40
0
40
1
40
1
40
1
40
1
41
1
10
288.324759526419
20
17.2045370106249
30
0
41
1
10
288.102167049584
20
17.5105841760983
30
0
41
1
10
287.877337890168
20
17.8144257977402
30
0
41
1
10
287.650480947162
20
18.1162678662808
30
0
0
SPLINE
5
1BC
100
AcDbEntity
8
1
62
256
6
ByLayer
370
18
48
1
60
0
100
AcDbSpline
70
4
71
3
72
41
73
37
40
0
40
0
40
0
40
0
40
0.0624999999999961
40
0.0624999999999961
40
0.124999999999992
40
0.124999999999992
40
0.249999999999984
40
0.249999999999984
40
0.312499999999981
40
0.312499999999981
40
0.374999999999977
40
0.374999999999977
40
0.437499999999973
40
0.468749999999972
40
0.468749999999972
40
0.49999999999997
40
0.49999999999997
40
0.562499999999972
40
0.562499999999972
40
0.624999999999974
40
0.624999999999974
40
0.687499999999976
40
0.687499999999976
40
0.749999999999977
40
0.749999999999977
40
0.781249999999979
40
0.781249999999979
40
0.81249999999998
40
0.81249999999998
40
0.874999999999989
40
0.874999999999989
40
0.906249999999991
40
0.906249999999991
40
0.937499999999994
40
0.937499999999994
40
1
40
1
40
1
40
1
41
1
10
287.650480947162
20
18.1162678662808
30
0
41
1
10
287.644530707472
20
18.1241848937808
30
0
41
1
10
287.638734660478
20
18.1320661881952
30
0
41
1
10
287.627462614209
20
18.1477537676435
30
0
41
1
10
287.621983627572
20
18.1555655854386
30
0
41
1
10
287.606226071217
20
18.1786319055685
30
0
41
1
10
287.59655639816
20
18.1936038516682
30
0
41
1
10
287.583525644729
20
18.2153410699507
30
0
41
1
10
287.579429881242
20
18.2224656317329
30
0
41
1
10
287.571814377828
20
18.2364325284515
30
0
41
1
10
287.568318980523
20
18.2432345542662
30
0
41
1
10
287.562151731737
20
18.2562021368558
30
0
41
1
10
287.558116055743
20
18.2654991328188
30
0
41
1
10
287.555124307769
20
18.2740375850832
30
0
41
1
10
287.553390593519
20
18.2795405045758
30
0
41
1
10
287.552653442229
20
18.2822028365401
30
0
41
1
10
287.550910298472
20
18.2897406107653
30
0
41
1
10
287.550352356246
20
18.2942147484457
30
0
41
1
10
287.550659068286
20
18.3018677379392
30
0
41
1
10
287.551551382702
20
18.3050594781871
30
0
41
1
10
287.554942046485
20
18.3096266601911
30
0
41
1
10
287.55744201508
20
18.311050293669
30
0
41
1
10
287.564147905172
20
18.3119608702208
30
0
41
1
10
287.568227742826
20
18.3114399048518
30
0
41
1
10
287.575359496822
20
18.3093034854214
30
0
41
1
10
287.577906330663
20
18.3083642815706
30
0
41
1
10
287.583336023074
20
18.3060366334097
30
0
41
1
10
287.58621229645
20
18.304648776098
30
0
41
1
10
287.595094710497
20
18.2999585110486
30
0
41
1
10
287.601422754011
20
18.2961049586603
30
0
41
1
10
287.611436330014
20
18.2893955044806
30
0
41
1
10
287.614876803774
20
18.2869917365582
30
0
41
1
10
287.62181975771
20
18.2819650556363
30
0
41
1
10
287.625327553303
20
18.2793394829964
30
0
41
1
10
287.635948792471
20
18.2711611225119
30
0
41
1
10
287.643159471795
20
18.2653086512657
30
0
41
1
10
287.650480947162
20
18.2591159102939
30
0
0
SPLINE
5
1BD
100
AcDbEntity
8
1
62
256
6
ByLayer
370
18
48
1
60
0
100
AcDbSpline
70
4
71
3
72
8
73
4
40
0
40
0
40
0
40
0
40
1
40
1
40
1
40
1
41
1
10
287.650480947162
20
18.2591159102938
30
0
41
1
10
287.875326782245
20
18.0689340213244
30
0
41
1
10
288.100089025132
20
17.8786205059013
30
0
41
1
10
288.324759526419
20
17.6881625317601
30
0
0
SPLINE
5
1BE
100
AcDbEntity
8
1
62
256
6
ByLayer
370
18
48
1
60
0
100
AcDbSpline
70
4
71
3
72
8
73
4
40
0
40
0
40
0
40
0
40
1
40
1
40
1
40
1
41
1
10
288.324759526419
20
17.8306924641182
30
0
41
1
10
288.101678442286
20
18.1158055554838
30
0
41
1
10
287.876866272618
20
18.3990877212187
30
0
41
1
10
287.650480947162
20
18.6807059996433
30
0
0
SPLINE
5
1BF
100
AcDbEntity
8
1
62
256
6
ByLayer
370
18
48
1
60
0
100
AcDbSpline
70
4
71
3
72
38
73
34
40
0
40
0
40
0
40
0
40
0.0625000000000072
40
0.0625000000000072
40
0.125000000000014
40
0.125000000000014
40
0.250000000000015
40
0.250000000000015
40
0.312500000000013
40
0.312500000000013
40
0.375000000000012
40
0.375000000000012
40
0.437500000000011
40
0.437500000000011
40
0.50000000000001
40
0.50000000000001
40
0.562500000000009
40
0.562500000000009
40
0.625000000000008
40
0.625000000000008
40
0.687500000000006
40
0.687500000000006
40
0.750000000000005
40
0.750000000000005
40
0.781250000000007
40
0.781250000000007
40
0.812500000000009
40
0.812500000000009
40
0.875000000000006
40
0.875000000000006
40
0.937500000000003
40
0.937500000000003
40
1
40
1
40
1
40
1
41
1
10
287.650480947162
20
18.6807059996433
30
0
41
1
10
287.644435066045
20
18.6882269404478
30
0
41
1
10
287.638541009106
20
18.6956954835834
30
0
41
1
10
287.627070710279
20
18.7105219541034
30
0
41
1
10
287.621478397149
20
18.7179019338324
30
0
41
1
10
287.605382543492
20
18.7396367381093
30
0
41
1
10
287.59552307329
20
18.753621317667
30
0
41
1
10
287.582291758194
20
18.7736882743315
30
0
41
1
10
287.5781434099
20
18.7802241905291
30
0
41
1
10
287.570463431254
20
18.792935050526
30
0
41
1
10
287.566983467967
20
18.7990266724996
30
0
41
1
10
287.560894095359
20
18.8105111646503
30
0
41
1
10
287.558273629461
20
18.815921115395
30
0
41
1
10
287.554041861199
20
18.8259505318485
30
0
41
1
10
287.552432376485
20
18.8305864249226
30
0
41
1
10
287.550538980103
20
18.8385889334796
30
0
41
1
10
287.550233118891
20
18.8420039082252
30
0
41
1
10
287.551141496283
20
18.8474028832881
30
0
41
1
10
287.552342069686
20
18.8493113044677
30
0
41
1
10
287.556322566543
20
18.8514574493084
30
0
41
1
10
287.559156903261
20
18.8516693992405
30
0
41
1
10
287.566155193741
20
18.8503516061781
30
0
41
1
10
287.57032728413
20
18.8488516643681
30
0
41
1
10
287.57754044284
20
18.8454114743369
30
0
41
1
10
287.580121827421
20
18.8440551043974
30
0
41
1
10
287.585487525657
20
18.8410134790054
30
0
41
1
10
287.588275661537
20
18.8393280740412
30
0
41
1
10
287.596927885113
20
18.8338227337165
30
0
41
1
10
287.603078037699
20
18.8295564416242
30
0
41
1
10
287.616050433374
20
18.8199786606828
30
0
41
1
10
287.622764082909
20
18.8147458022592
30
0
41
1
10
287.636420273296
20
18.8036638171361
30
0
41
1
10
287.64338911966
20
18.7977944023928
30
0
41
1
10
287.650480947162
20
18.7916390605842
30
0
0
SPLINE
5
1C0
100
AcDbEntity
8
1
62
256
6
ByLayer
370
18
48
1
60
0
100
AcDbSpline
70
4
71
3
72
8
73
4
40
0
40
0
40
0
40
0
40
1
40
1
40
1
40
1
41
1
10
287.650480947162
20
18.7916390605842
30
0
41
1
10
287.875390693943
20
18.5964289589461
30
0
41
1
10
288.100154848045
20
18.4009956122057
30
0
41
1
10
288.324759526419
20
18.2053177327385
30
0
0
SPLINE
5
1C1
100
AcDbEntity
8
1
62
256
6
ByLayer
370
18
48
1
60
0
100
AcDbSpline
70
4
71
3
72
8
73
4
40
0
40
0
40
0
40
0
40
1
40
1
40
1
40
1
41
1
10
288.324759526419
20
18.3131399205587
30
0
41
1
10
288.101307459449
20
18.5806365366878
30
0
41
1
10
287.876507770667
20
18.8466150387251
30
0
41
1
10
287.650480947162
20
19.1112111569983
30
0
0
SPLINE
5
1C2
100
AcDbEntity
8
1
62
256
6
ByLayer
370
18
48
1
60
0
100
AcDbSpline
70
4
71
3
72
37
73
33
40
0
40
0
40
0
40
0
40
0.125000000000021
40
0.125000000000021
40
0.250000000000042
40
0.250000000000042
40
0.312500000000044
40
0.312500000000044
40
0.375000000000047
40
0.375000000000047
40
0.437500000000049
40
0.437500000000049
40
0.468750000000046
40
0.468750000000046
40
0.500000000000043
40
0.531250000000039
40
0.531250000000039
40
0.562500000000036
40
0.562500000000036
40
0.625000000000029
40
0.625000000000029
40
0.656250000000026
40
0.656250000000026
40
0.687500000000023
40
0.687500000000023
40
0.750000000000016
40
0.750000000000016
40
0.81250000000001
40
0.81250000000001
40
0.875000000000003
40
0.875000000000003
40
1
40
1
40
1
40
1
41
1
10
287.650480947162
20
19.1112111569983
30
0
41
1
10
287.638202144537
20
19.1255852187191
30
0
41
1
10
287.626485867576
20
19.1397144945011
30
0
41
1
10
287.604552320067
20
19.1671510631419
30
0
41
1
10
287.594502099815
20
19.1802445976568
30
0
41
1
10
287.581082092083
20
19.1987490698122
30
0
41
1
10
287.57688735265
20
19.2047260678889
30
0
41
1
10
287.569160111633
20
19.2162246159382
30
0
41
1
10
287.565703840037
20
19.2216334116331
30
0
41
1
10
287.559712993625
20
19.2316731893731
30
0
41
1
10
287.557175330865
20
19.23630777325
30
0
41
1
10
287.554189582967
20
19.2425686008363
30
0
41
1
10
287.55333114082
20
19.2445439196831
30
0
41
1
10
287.551945089713
20
19.2481706791223
30
0
41
1
10
287.550880371976
20
19.2514914590534
30
0
41
1
10
287.550493173189
20
19.2541672783622
30
0
41
1
10
287.550469840073
20
19.2564968771605
30
0
41
1
10
287.55064329357
20
19.2574911476058
30
0
41
1
10
287.551729677775
20
19.259862762258
30
0
41
1
10
287.553197894126
20
19.2606567256907
30
0
41
1
10
287.556546564706
20
19.2606368151023
30
0
41
1
10
287.557864176504
20
19.2604245190895
30
0
41
1
10
287.560849626481
20
19.2595937482387
30
0
41
1
10
287.562509311232
20
19.2589798099636
30
0
41
1
10
287.567961306001
20
19.2565762330209
30
0
41
1
10
287.572230449554
20
19.2542238153649
30
0
41
1
10
287.581924074944
20
19.2481356233883
30
0
41
1
10
287.587203153222
20
19.2444931606362
30
0
41
1
10
287.598484907468
20
19.2362099822934
30
0
41
1
10
287.604518790299
20
19.2315432716219
30
0
41
1
10
287.623400016941
20
19.2163577993813
30
0
41
1
10
287.636681697517
20
19.2049543935814
30
0
41
1
10
287.650480947162
20
19.1926049128565
30
0
0
SPLINE
5
1C3
100
AcDbEntity
8
1
62
256
6
ByLayer
370
18
48
1
60
0
100
AcDbSpline
70
4
71
3
72
8
73
4
40
0
40
0
40
0
40
0
40
1
40
1
40
1
40
1
41
1
10
287.650480947162
20
19.1926049128564
30
0
41
1
10
287.875470342809
20
18.9912532251719
30
0
41
1
10
288.100236859786
20
18.7895703804281
30
0
41
1
10
288.324759526419
20
18.5875252185427
30
0
0
SPLINE
5
1C4
100
AcDbEntity
8
1
62
256
6
ByLayer
370
18
48
1
60
0
100
AcDbSpline
70
4
71
3
72
8
73
4
40
0
40
0
40
0
40
0
40
1
40
1
40
1
40
1
41
1
10
288.324759526419
20
18.6630274540322
30
0
41
1
10
288.101019214676
20
18.9154654531754
30
0
41
1
10
287.876228917632
20
19.1666509399738
30
0
41
1
10
287.650480947162
20
19.4166940319316
30
0
0
SPLINE
5
1C5
100
AcDbEntity
8
1
62
256
6
ByLayer
370
18
48
1
60
0
100
AcDbSpline
70
4
71
3
72
37
73
33
40
0
40
0
40
0
40
0
40
0.062500000000001
40
0.062500000000001
40
0.125000000000002
40
0.125000000000002
40
0.24999999999999
40
0.24999999999999
40
0.312499999999984
40
0.312499999999984
40
0.374999999999977
40
0.406249999999979
40
0.406249999999979
40
0.43749999999998
40
0.43749999999998
40
0.499999999999983
40
0.499999999999983
40
0.531249999999985
40
0.531249999999985
40
0.562499999999987
40
0.562499999999987
40
0.624999999999989
40
0.624999999999989
40
0.687499999999991
40
0.687499999999991
40
0.749999999999993
40
0.749999999999993
40
0.812499999999995
40
0.812499999999995
40
0.874999999999997
40
0.874999999999997
40
1
40
1
40
1
40
1
41
1
10
287.650480947162
20
19.4166940319316
30
0
41
1
10
287.644233516261
20
19.4236138148025
30
0
41
1
10
287.638128791671
20
19.4304472421309
30
0
41
1
10
287.626224587923
20
19.4439282469404
30
0
41
1
10
287.620408632679
20
19.4505953398445
30
0
41
1
10
287.60369694473
20
19.4700187730238
30
0
41
1
10
287.593459438986
20
19.4822776869181
30
0
41
1
10
287.579801977808
20
19.4993597909759
30
0
41
1
10
287.575513158026
20
19.5048653228658
30
0
41
1
10
287.56782727776
20
19.5150761747939
30
0
41
1
10
287.562698992221
20
19.5221718288948
30
0
41
1
10
287.55866279162
20
19.5283005792946
30
0
41
1
10
287.556240243351
20
19.5321488241221
30
0
41
1
10
287.555161120897
20
19.5339584350348
30
0
41
1
10
287.552417952635
20
19.5389021635924
30
0
41
1
10
287.551221826354
20
19.5415884195273
30
0
41
1
10
287.550485616375
20
19.5445985953597
30
0
41
1
10
287.55041909126
20
19.5454340249247
30
0
41
1
10
287.550661814729
20
19.5467128369875
30
0
41
1
10
287.550968230583
20
19.5471605417452
30
0
41
1
10
287.55243913149
20
19.5479324593424
30
0
41
1
10
287.554154903999
20
19.5476875862852
30
0
41
1
10
287.559095757758
20
19.5456300292879
30
0
41
1
10
287.562230525272
20
19.5438567909978
30
0
41
1
10
287.569682176899
20
19.5389883407303
30
0
41
1
10
287.574051131848
20
19.535851615374
30
0
41
1
10
287.583612877603
20
19.5285570395079
30
0
41
1
10
287.58879748384
20
19.5244110022465
30
0
41
1
10
287.599860114334
20
19.5152650369464
30
0
41
1
10
287.605784818522
20
19.510223577668
30
0
41
1
10
287.624098620595
20
19.4942917137723
30
0
41
1
10
287.637015243457
20
19.4826211375569
30
0
41
1
10
287.650480947162
20
19.4701429912245
30
0
0
SPLINE
5
1C6
100
AcDbEntity
8
1
62
256
6
ByLayer
370
18
48
1
60
0
100
AcDbSpline
70
4
71
3
72
8
73
4
40
0
40
0
40
0
40
0
40
1
40
1
40
1
40
1
41
1
10
287.650480947162
20
19.4701429912245
30
0
41
1
10
287.875567648883
20
19.2615638584125
30
0
41
1
10
288.10033706691
20
19.0525298860205
30
0
41
1
10
288.324759526419
20
18.8429985339372
30
0
0
SPLINE
5
1C7
100
AcDbEntity
8
1
62
256
6
ByLayer
370
18
48
1
60
0
100
AcDbSpline
70
4
71
3
72
8
73
4
40
0
40
0
40
0
40
0
40
1
40
1
40
1
40
1
41
1
10
288.324759526419
20
18.8877233606901
30
0
41
1
10
288.100791090601
20
19.1271433496641
30
0
41
1
10
287.876008003165
20
19.3655393957374
30
0
41
1
10
287.650480947162
20
19.6030003410681
30
0
0
SPLINE
5
1C8
100
AcDbEntity
8
1
62
256
6
ByLayer
370
18
48
1
60
0
100
AcDbSpline
70
4
71
3
72
37
73
33
40
0
40
0
40
0
40
0
40
0.125000000000022
40
0.125000000000022
40
0.187500000000026
40
0.187500000000026
40
0.250000000000029
40
0.250000000000029
40
0.312500000000033
40
0.343750000000034
40
0.343750000000034
40
0.375000000000036
40
0.375000000000036
40
0.43750000000003
40
0.43750000000003
40
0.468750000000028
40
0.468750000000028
40
0.500000000000026
40
0.500000000000026
40
0.562500000000021
40
0.562500000000021
40
0.625000000000016
40
0.625000000000016
40
0.687500000000011
40
0.687500000000011
40
0.750000000000006
40
0.750000000000006
40
0.812500000000001
40
0.812500000000001
40
0.874999999999997
40
0.874999999999997
40
1
40
1
40
1
40
1
41
1
10
287.650480947162
20
19.6030003410681
30
0
41
1
10
287.637713524711
20
19.6164433587634
30
0
41
1
10
287.625555134205
20
19.6293990848527
30
0
41
1
10
287.608569850311
20
19.6477688699762
30
0
41
1
10
287.603108564082
20
19.6537238617297
30
0
41
1
10
287.592645038061
20
19.6652469120375
30
0
41
1
10
287.587628553198
20
19.6708318448441
30
0
41
1
10
287.578394061833
20
19.6812540907371
30
0
41
1
10
287.572016535815
20
19.6885648297582
30
0
41
1
10
287.566579562048
20
19.6950058114137
30
0
41
1
10
287.563185659207
20
19.6990862291306
30
0
41
1
10
287.561600856608
20
19.7010238889245
30
0
41
1
10
287.557303071354
20
19.706389331917
30
0
41
1
10
287.555014755975
20
19.7094065301883
30
0
41
1
10
287.552553203198
20
19.7129894842039
30
0
41
1
10
287.551893247071
20
19.7140301161115
30
0
41
1
10
287.550941407315
20
19.7157401602276
30
0
41
1
10
287.550646743412
20
19.716412469458
30
0
41
1
10
287.550307456757
20
19.7178803359898
30
0
41
1
10
287.550804218982
20
19.7181301453515
30
0
41
1
10
287.553323180194
20
19.7170929258177
30
0
41
1
10
287.555303382755
20
19.7158212919818
30
0
41
1
10
287.560517793468
20
19.7119566589431
30
0
41
1
10
287.56375683022
20
19.7093608740999
30
0
41
1
10
287.571431586465
20
19.7029148992638
30
0
41
1
10
287.575773222109
20
19.699143259071
30
0
41
1
10
287.585223568068
20
19.6907486294527
30
0
41
1
10
287.59034747327
20
19.6861125346093
30
0
41
1
10
287.601310018783
20
19.6760560925478
30
0
41
1
10
287.607046357809
20
19.6707294245959
30
0
41
1
10
287.624771194315
20
19.6541190568001
30
0
41
1
10
287.637325338165
20
19.642161607453
30
0
41
1
10
287.650480947162
20
19.6294893682046
30
0
0
SPLINE
5
1C9
100
AcDbEntity
8
1
62
256
6
ByLayer
370
18
48
1
60
0
100
AcDbSpline
70
4
71
3
72
8
73
4
40
0
40
0
40
0
40
0
40
1
40
1
40
1
40
1
41
1
10
287.650480947162
20
19.6294893682046
30
0
41
1
10
287.875685997487
20
19.4125589107658
30
0
41
1
10
288.100458994954
20
19.195033276227
30
0
41
1
10
288.324759526419
20
18.9768567932089
30
0
0
SPLINE
5
1CA
100
AcDbEntity
8
1
62
256
6
ByLayer
370
18
48
1
60
0
100
AcDbSpline
70
4
71
3
72
8
73
4
40
0
40
0
40
0
40
0
40
1
40
1
40
1
40
1
41
1
10
288.324759526419
20
18.9916716944549
30
0
41
1
10
288.100607863251
20
19.2197546698698
30
0
41
1
10
287.875830405166
20
19.4470125106986
30
0
41
1
10
287.650480947162
20
19.6735161477095
30
0
0
SPLINE
5
1CB
100
AcDbEntity
8
1
62
256
6
ByLayer
370
18
48
1
60
0
100
AcDbSpline
70
4
71
3
72
24
73
20
40
0
40
0
40
0
40
0
40
0.125028419190757
40
0.125028419190757
40
0.250056838381513
40
0.250056838381513
40
0.500113676763026
40
0.500113676763026
40
0.625142095953782
40
0.625142095953782
40
0.68765630554916
40
0.68765630554916
40
0.750170515144538
40
0.750170515144538
40
0.875198934335294
40
0.875198934335294
40
0.937713143930676
40
0.937713143930676
40
1
40
1
40
1
40
1
41
1
10
287.650480947162
20
19.6735161477095
30
0
41
1
10
287.643995528497
20
19.6800347829355
30
0
41
1
10
287.637641930968
20
19.6864240983014
30
0
41
1
10
287.625223781212
20
19.6989177330072
30
0
41
1
10
287.619159362558
20
19.7050219490495
30
0
41
1
10
287.601760540395
20
19.7225422830348
30
0
41
1
10
287.591092877904
20
19.7332946246374
30
0
41
1
10
287.576962978984
20
19.7475455477887
30
0
41
1
10
287.572665768936
20
19.7518812199184
30
0
41
1
10
287.566937041454
20
19.7576626687877
30
0
41
1
10
287.565146159727
20
19.7594703034823
30
0
41
1
10
287.561821741835
20
19.7628262012974
30
0
41
1
10
287.560285385348
20
19.7643773132452
30
0
41
1
10
287.556170769704
20
19.7685318245765
30
0
41
1
10
287.554054662599
20
19.7706689842453
30
0
41
1
10
287.551904777519
20
19.7728403855644
30
0
41
1
10
287.551358069514
20
19.7733926014466
30
0
41
1
10
287.550643985669
20
19.774113889266
30
0
41
1
10
287.550472424769
20
19.7742871878273
30
0
41
1
10
287.5504812719
20
19.7742782512335
30
0
0
SPLINE
5
1CC
100
AcDbEntity
8
SK1
62
256
6
ByLayer
370
18
48
1
60
0
100
AcDbSpline
70
4
71
3
72
11
73
7
40
0
40
0
40
0
40
0
40
0.242589954178439
40
0.502544718947336
40
0.761087572808505
40
1
40
1
40
1
40
1
41
1
10
-0.199999999999918
20
17.5545583467662
30
0
41
1
10
-0.200957889270171
20
17.5289140231068
30
0
41
1
10
-0.211248315225916
20
17.4799022728824
30
0
41
1
10
-0.255179720943758
20
17.4139496110853
30
0
41
1
10
-0.321113897423515
20
17.3707504109673
30
0
41
1
10
-0.369683795840047
20
17.3607068368228
30
0
41
1
10
-0.394913799811221
20
17.359780267379
30
0
0
SPLINE
5
1CD
100
AcDbEntity
8
SK1
62
256
6
ByLayer
370
18
48
1
60
0
100
AcDbSpline
70
4
71
3
72
11
73
7
40
0
40
0
40
0
40
0
40
0.238912427113129
40
0.497455280942502
40
0.757410045745054
40
1
40
1
40
1
40
1
41
1
10
-0.394913799811363
20
-17.3597801301672
30
0
41
1
10
-0.369683795838469
20
-17.3607066995757
30
0
41
1
10
-0.321113897416538
20
-17.3707502735068
30
0
41
1
10
-0.255179720936468
20
-17.4139494728385
30
0
41
1
10
-0.211248315224694
20
-17.4799021334557
30
0
41
1
10
-0.200957889268807
20
-17.5289138828002
30
0
41
1
10
-0.20000000000006
20
-17.5545582060013
30
0
0
SPLINE
5
1CE
100
AcDbEntity
8
SK1
62
256
6
ByLayer
370
18
48
1
60
0
100
AcDbSpline
70
4
71
2
72
6
73
3
40
0
40
0
40
0
40
1
40
1
40
1
41
1
10
-28.4999999999999
20
16.8588088260864
30
0
41
1
10
-29.2499999297871
20
16.4259984461423
30
0
41
1
10
-29.9999999999999
20
15.993187350886
30
0
0
SPLINE
5
1CF
100
AcDbEntity
8
SK1
62
256
6
ByLayer
370
18
48
1
60
0
100
AcDbSpline
70
4
71
2
72
6
73
3
40
0
40
0
40
0
40
1
40
1
40
1
41
1
10
-30.0000000000001
20
-15.9931874249211
30
0
41
1
10
-29.2499999297895
20
-16.4259985176869
30
0
41
1
10
-28.5000000000001
20
-16.8588088951666
30
0
0
SPLINE
5
1D0
100
AcDbEntity
8
SK1
62
256
6
ByLayer
370
18
48
1
60
0
100
AcDbSpline
70
4
71
2
72
6
73
3
40
0
40
0
40
0
40
1
40
1
40
1
41
1
10
-0.394913799811221
20
17.3602209523781
30
0
41
1
10
-1.19497688886892
20
17.3401342706943
30
0
41
1
10
-1.99503997793923
20
17.3200475850767
30
0
0
SPLINE
5
1D1
100
AcDbEntity
8
SK1
62
256
6
ByLayer
370
18
48
1
60
0
100
AcDbSpline
70
4
71
2
72
6
73
3
40
0
40
0
40
0
40
1
40
1
40
1
41
1
10
-1.99503997793936
20
-17.3200478774323
30
0
41
1
10
-1.19497688886905
20
-17.340134563042
30
0
41
1
10
-0.394913799811363
20
-17.3602212447177
30
0
0
SPLINE
5
1D2
100
AcDbEntity
8
SK1
62
256
6
ByLayer
370
18
48
1
60
0
100
AcDbSpline
70
4
71
3
72
13
73
9
40
0
40
0
40
0
40
0
40
0.239505987673083
40
0.368426538155688
40
0.500072261058321
40
0.631705987654816
40
0.760593443052916
40
1
40
1
40
1
40
1
41
1
10
-1.99503997793923
20
17.3252686883829
30
0
41
1
10
-2.02110925982333
20
17.3248665791032
30
0
41
1
10
-2.0588386380993
20
17.3310361992814
30
0
41
1
10
-2.10627567686477
20
17.3540696096462
30
0
41
1
10
-2.13886243911919
20
17.3792256041407
30
0
41
1
10
-2.16563490776909
20
17.4104933211739
30
0
41
1
10
-2.19103207710589
20
17.4566915621889
30
0
41
1
10
-2.1990912192168
20
17.4940488942773
30
0
41
1
10
-2.19999999999993
20
17.5200961072231
30
0
0
SPLINE
5
1D3
100
AcDbEntity
8
SK1
62
256
6
ByLayer
370
18
48
1
60
0
100
AcDbSpline
70
4
71
3
72
13
73
9
40
0
40
0
40
0
40
0
40
0.239406556342956
40
0.368294011542631
40
0.499927738071791
40
0.631573461053609
40
0.76049401174041
40
1
40
1
40
1
40
1
41
1
10
-2.20000000000006
20
-17.5200962264206
30
0
41
1
10
-2.1990912192077
20
-17.494049013599
30
0
41
1
10
-2.19103207709693
20
-17.4566916816953
30
0
41
1
10
-2.16563490775667
20
-17.4104934409328
30
0
41
1
10
-2.13886243910261
20
-17.379225724067
30
0
41
1
10
-2.10627567684708
20
-17.3540697297104
30
0
41
1
10
-2.0588386380763
20
-17.3310363194718
30
0
41
1
10
-2.02110925981125
20
-17.3248666993254
30
0
41
1
10
-1.99503997793936
20
-17.3252688086104
30
0
0
SPLINE
5
1D4
100
AcDbEntity
8
SK1
62
256
6
ByLayer
370
18
48
1
60
0
100
AcDbSpline
70
4
71
2
72
6
73
3
40
0
40
0
40
0
40
1
40
1
40
1
41
1
10
-2.19999999999993
20
17.5148287077807
30
0
41
1
10
-15.3499999982431
20
17.1846805562454
30
0
41
1
10
-28.4999999999999
20
16.8545313165691
30
0
0
SPLINE
5
1D5
100
AcDbEntity
8
SK1
62
256
6
ByLayer
370
18
48
1
60
0
100
AcDbSpline
70
4
71
2
72
6
73
3
40
0
40
0
40
0
40
1
40
1
40
1
41
1
10
-28.5000000000001
20
-16.854531609135
30
0
41
1
10
-15.3499999982428
20
-17.1846808487113
30
0
41
1
10
-2.20000000000006
20
-17.5148290000611
30
0
0
LINE
5
A2
100
AcDbEntity
8
81
62
256
6
ByLayer
370
18
48
1
60
0
100
AcDbLine
10
288
20
0
30
0
11
293
21
0
31
0
39
0
210
0
220
0
230
1
0
LINE
5
A3
100
AcDbEntity
8
SK4
62
256
6
ByLayer
370
18
48
0.05
60
0
100
AcDbLine
10
4
20
0
30
0
11
302
21
0
31
0
39
0
210
0
220
0
230
1
0
LINE
5
A5
100
AcDbEntity
8
4
62
256
6
ByLayer
370
18
48
0.05
60
0
100
AcDbLine
10
0
20
0
30
0
11
288
21
0
31
0
39
0
210
0
220
0
230
1
0
LINE
5
A7
100
AcDbEntity
8
80
62
256
6
ByLayer
370
18
48
1
60
0
100
AcDbLine
10
0
20
0
30
0
11
-5
21
0
31
0
39
0
210
0
220
0
230
1
0
LINE
5
A8
100
AcDbEntity
8
1
62
256
6
ByLayer
370
18
48
1
60
0
100
AcDbLine
10
292.8
20
-6.899495
30
0
11
292.8
21
-12.899495
31
0
39
0
210
0
220
0
230
1
0
LINE
5
A9
100
AcDbEntity
8
1
62
256
6
ByLayer
370
13
48
1
60
0
100
AcDbLine
10
288.324503
20
-12.344995
30
0
11
292.8
21
-12.344995
31
0
39
0
210
0
220
0
230
1
0
LINE
5
AA
100
AcDbEntity
8
1
62
256
6
ByLayer
370
13
48
1
60
0
100
AcDbLine
10
288.324503
20
-7.453995
30
0
11
292.8
21
-7.453995
31
0
39
0
210
0
220
0
230
1
0
LINE
5
AB
100
AcDbEntity
8
1
62
256
6
ByLayer
370
18
48
1
60
0
100
AcDbLine
10
292.8
20
12.899495
30
0
11
292.8
21
6.899495
31
0
39
0
210
0
220
0
230
1
0
LINE
5
AC
100
AcDbEntity
8
1
62
256
6
ByLayer
370
13
48
1
60
0
100
AcDbLine
10
288.324503
20
7.453995
30
0
11
292.8
21
7.453995
31
0
39
0
210
0
220
0
230
1
0
LINE
5
AD
100
AcDbEntity
8
1
62
256
6
ByLayer
370
13
48
1
60
0
100
AcDbLine
10
288.324503
20
12.344995
30
0
11
292.8
21
12.344995
31
0
39
0
210
0
220
0
230
1
0
LINE
5
AE
100
AcDbEntity
8
1
62
256
6
ByLayer
370
18
48
1
60
0
100
AcDbLine
10
286
20
19.8
30
0
11
286
21
-19.8
31
0
39
0
210
0
220
0
230
1
0
LINE
5
AF
100
AcDbEntity
8
1
62
256
6
ByLayer
370
13
48
1
60
0
100
AcDbLine
10
285.8
20
20
30
0
11
285.8
21
-20
31
0
39
0
210
0
220
0
230
1
0
LINE
5
B0
100
AcDbEntity
8
1
62
256
6
ByLayer
370
13
48
1
60
0
100
AcDbLine
10
11.461325
20
-7.529667
30
0
11
11.461325
21
-23.83913
31
0
39
0
210
0
220
0
230
1
0
LINE
5
B1
100
AcDbEntity
8
1
62
256
6
ByLayer
370
13
48
1
60
0
100
AcDbLine
10
11.894338
20
-8.055848
30
0
11
11.894338
21
-23.666502
31
0
39
0
210
0
220
0
230
1
0
LINE
5
B2
100
AcDbEntity
8
1
62
256
6
ByLayer
370
13
48
1
60
0
100
AcDbLine
10
8.105662
20
23.666502
30
0
11
8.105662
21
8.055848
31
0
39
0
210
0
220
0
230
1
0
LINE
5
B3
100
AcDbEntity
8
1
62
256
6
ByLayer
370
13
48
1
60
0
100
AcDbLine
10
8.538675
20
23.83913
30
0
11
8.538675
21
7.529667
31
0
39
0
210
0
220
0
230
1
0
LINE
5
B4
100
AcDbEntity
8
1
62
256
6
ByLayer
370
13
48
1
60
0
100
AcDbLine
10
8.105662
20
-8.055848
30
0
11
8.105662
21
-23.666502
31
0
39
0
210
0
220
0
230
1
0
LINE
5
B5
100
AcDbEntity
8
1
62
256
6
ByLayer
370
13
48
1
60
0
100
AcDbLine
10
8.538675
20
-7.529667
30
0
11
8.538675
21
-23.83913
31
0
39
0
210
0
220
0
230
1
0
LINE
5
B6
100
AcDbEntity
8
1
62
256
6
ByLayer
370
13
48
1
60
0
100
AcDbLine
10
11.461325
20
23.83913
30
0
11
11.461325
21
7.529667
31
0
39
0
210
0
220
0
230
1
0
LINE
5
B7
100
AcDbEntity
8
1
62
256
6
ByLayer
370
13
48
1
60
0
100
AcDbLine
10
11.894338
20
23.666502
30
0
11
11.894338
21
8.055848
31
0
39
0
210
0
220
0
230
1
0
LINE
5
B8
100
AcDbEntity
8
1
62
256
6
ByLayer
370
13
48
1
60
0
100
AcDbLine
10
24.9
20
-20
30
0
11
24.9
21
20
31
0
39
0
210
0
220
0
230
1
0
LINE
5
B9
100
AcDbEntity
8
1
62
256
6
ByLayer
370
13
48
1
60
0
100
AcDbLine
10
20.013462
20
24.537037
30
0
11
20.013462
21
-24.537037
31
0
39
0
210
0
220
0
230
1
0
LINE
5
BA
100
AcDbEntity
8
1
62
256
6
ByLayer
370
18
48
1
60
0
100
AcDbLine
10
0
20
-24.7
30
0
11
0
21
24.7
31
0
39
0
210
0
220
0
230
1
0
LINE
5
BB
100
AcDbEntity
8
1
62
256
6
ByLayer
370
13
48
1
60
0
100
AcDbLine
10
19.514835
20
25
30
0
11
19.514835
21
-25
31
0
39
0
210
0
220
0
230
1
0
LINE
5
BC
100
AcDbEntity
8
1
62
256
6
ByLayer
370
18
48
1
60
0
100
AcDbLine
10
0.3
20
-25
30
0
11
0.3
21
25
31
0
39
0
210
0
220
0
230
1
0
LINE
5
BD
100
AcDbEntity
8
1
62
256
6
ByLayer
370
18
48
1
60
0
100
AcDbLine
10
11.461325
20
7.529667
30
0
11
8.538675
21
7.529667
31
0
39
0
210
0
220
0
230
1
0
LINE
5
BE
100
AcDbEntity
8
1
62
256
6
ByLayer
370
18
48
1
60
0
100
AcDbLine
10
8.538675
20
23.83913
30
0
11
11.461325
21
23.83913
31
0
39
0
210
0
220
0
230
1
0
LINE
5
BF
100
AcDbEntity
8
1
62
256
6
ByLayer
370
18
48
1
60
0
100
AcDbLine
10
8.538675
20
-7.529667
30
0
11
11.461325
21
-7.529667
31
0
39
0
210
0
220
0
230
1
0
LINE
5
C0
100
AcDbEntity
8
1
62
256
6
ByLayer
370
18
48
1
60
0
100
AcDbLine
10
11.461325
20
-23.83913
30
0
11
8.538675
21
-23.83913
31
0
39
0
210
0
220
0
230
1
0
LINE
5
C1
100
AcDbEntity
8
SK1
62
256
6
ByLayer
370
18
48
1
60
0
100
AcDbLine
10
-0.2
20
-6.078431
30
0
11
-0.2
21
-17.833485
31
0
39
0
210
0
220
0
230
1
0
LINE
5
C3
100
AcDbEntity
8
SK1
62
256
6
ByLayer
370
18
48
1
60
0
100
AcDbLine
10
-0.2
20
17.833485
30
0
11
-0.2
21
6.078432
31
0
39
0
210
0
220
0
230
1
0
LINE
5
C4
100
AcDbEntity
8
SK1
62
256
6
ByLayer
370
13
48
1
60
0
100
AcDbLine
10
-1.307107
20
3.918083
30
0
11
-1.307107
21
-3.918083
31
0
39
0
210
0
220
0
230
1
0
LINE
5
C5
100
AcDbEntity
8
SK1
62
256
6
ByLayer
370
18
48
1
60
0
100
AcDbLine
10
-1.99504
20
17.325269
30
0
11
-1.99504
21
17.320045
31
0
39
0
210
0
220
0
230
1
0
LINE
5
C6
100
AcDbEntity
8
SK1
62
256
6
ByLayer
370
18
48
1
60
0
100
AcDbLine
10
-1.99504
20
-17.320045
30
0
11
-1.99504
21
-17.325269
31
0
39
0
210
0
220
0
230
1
0
LINE
5
C7
100
AcDbEntity
8
1
62
256
6
ByLayer
370
13
48
1
60
0
100
AcDbLine
10
292.8
20
-6.899495
30
0
11
292.8
21
-9.899495
31
0
39
0
210
0
220
0
230
1
0
LINE
5
C8
100
AcDbEntity
8
1
62
256
6
ByLayer
370
13
48
1
60
0
100
AcDbLine
10
292.8
20
-9.899495
30
0
11
292.8
21
-12.899495
31
0
39
0
210
0
220
0
230
1
0
LINE
5
C9
100
AcDbEntity
8
1
62
256
6
ByLayer
370
18
48
1
60
0
100
AcDbLine
10
293
20
-14.899495
30
0
11
293
21
-9.899495
31
0
39
0
210
0
220
0
230
1
0
LINE
5
CA
100
AcDbEntity
8
1
62
256
6
ByLayer
370
18
48
1
60
0
100
AcDbLine
10
293
20
-9.899495
30
0
11
293
21
-4.899495
31
0
39
0
210
0
220
0
230
1
0
LINE
5
CB
100
AcDbEntity
8
1
62
256
6
ByLayer
370
13
48
1
60
0
100
AcDbLine
10
298.4
20
-4.899495
30
0
11
298.4
21
-9.899495
31
0
39
0
210
0
220
0
230
1
0
LINE
5
CC
100
AcDbEntity
8
1
62
256
6
ByLayer
370
13
48
1
60
0
100
AcDbLine
10
298.4
20
-9.899495
30
0
11
298.4
21
-14.899495
31
0
39
0
210
0
220
0
230
1
0
LINE
5
CD
100
AcDbEntity
8
1
62
256
6
ByLayer
370
18
48
1
60
0
100
AcDbLine
10
299
20
-14.299495
30
0
11
299
21
-9.899495
31
0
39
0
210
0
220
0
230
1
0
LINE
5
CE
100
AcDbEntity
8
1
62
256
6
ByLayer
370
18
48
1
60
0
100
AcDbLine
10
299
20
-9.899495
30
0
11
299
21
-5.499495
31
0
39
0
210
0
220
0
230
1
0
LINE
5
CF
100
AcDbEntity
8
1
62
256
6
ByLayer
370
13
48
1
60
0
100
AcDbLine
10
292.8
20
12.899495
30
0
11
292.8
21
6.899495
31
0
39
0
210
0
220
0
230
1
0
LINE
5
D0
100
AcDbEntity
8
1
62
256
6
ByLayer
370
18
48
1
60
0
100
AcDbLine
10
299
20
14.299495
30
0
11
299
21
5.499495
31
0
39
0
210
0
220
0
230
1
0
LINE
5
D1
100
AcDbEntity
8
1
62
256
6
ByLayer
370
13
48
1
60
0
100
AcDbLine
10
298.4
20
14.899495
30
0
11
298.4
21
4.899495
31
0
39
0
210
0
220
0
230
1
0
LINE
5
D2
100
AcDbEntity
8
1
62
256
6
ByLayer
370
18
48
1
60
0
100
AcDbLine
10
293
20
14.899495
30
0
11
293
21
4.899495
31
0
39
0
210
0
220
0
230
1
0
LINE
5
D3
100
AcDbEntity
8
1
62
256
6
ByLayer
370
18
48
1
60
0
100
AcDbLine
10
288.32476
20
18.887542
30
0
11
288.32476
21
18.976857
31
0
39
0
210
0
220
0
230
1
0
LINE
5
D4
100
AcDbEntity
8
1
62
256
6
ByLayer
370
18
48
1
60
0
100
AcDbLine
10
288.32476
20
-18.976857
30
0
11
288.32476
21
-18.887542
31
0
39
0
210
0
220
0
230
1
0
LINE
5
D5
100
AcDbEntity
8
1
62
256
6
ByLayer
370
13
48
1
60
0
100
AcDbLine
10
287.650481
20
-19.629489
30
0
11
287.650481
21
-19.602807
31
0
39
0
210
0
220
0
230
1
0
LINE
5
D6
100
AcDbEntity
8
1
62
256
6
ByLayer
370
13
48
1
60
0
100
AcDbLine
10
287.650481
20
19.602807
30
0
11
287.650481
21
19.629489
31
0
39
0
210
0
220
0
230
1
0
LINE
5
D7
100
AcDbEntity
8
1
62
256
6
ByLayer
370
18
48
1
60
0
100
AcDbLine
10
288.32476
20
18.662842
30
0
11
288.32476
21
18.842999
31
0
39
0
210
0
220
0
230
1
0
LINE
5
D8
100
AcDbEntity
8
1
62
256
6
ByLayer
370
18
48
1
60
0
100
AcDbLine
10
288.32476
20
-18.842999
30
0
11
288.32476
21
-18.662842
31
0
39
0
210
0
220
0
230
1
0
LINE
5
D9
100
AcDbEntity
8
1
62
256
6
ByLayer
370
13
48
1
60
0
100
AcDbLine
10
287.650481
20
-19.470143
30
0
11
287.650481
21
-19.416627
31
0
39
0
210
0
220
0
230
1
0
LINE
5
DA
100
AcDbEntity
8
1
62
256
6
ByLayer
370
13
48
1
60
0
100
AcDbLine
10
287.650481
20
19.416627
30
0
11
287.650481
21
19.470143
31
0
39
0
210
0
220
0
230
1
0
LINE
5
DB
100
AcDbEntity
8
1
62
256
6
ByLayer
370
18
48
1
60
0
100
AcDbLine
10
288.32476
20
-18.587525
30
0
11
288.32476
21
-18.31313
31
0
39
0
210
0
220
0
230
1
0
LINE
5
DC
100
AcDbEntity
8
1
62
256
6
ByLayer
370
18
48
1
60
0
100
AcDbLine
10
288.32476
20
18.31313
30
0
11
288.32476
21
18.587525
31
0
39
0
210
0
220
0
230
1
0
LINE
5
DD
100
AcDbEntity
8
1
62
256
6
ByLayer
370
13
48
1
60
0
100
AcDbLine
10
287.650481
20
-19.192605
30
0
11
287.650481
21
-19.111162
31
0
39
0
210
0
220
0
230
1
0
LINE
5
DE
100
AcDbEntity
8
1
62
256
6
ByLayer
370
13
48
1
60
0
100
AcDbLine
10
287.650481
20
19.111162
30
0
11
287.650481
21
19.192605
31
0
39
0
210
0
220
0
230
1
0
LINE
5
DF
100
AcDbEntity
8
1
62
256
6
ByLayer
370
18
48
1
60
0
100
AcDbLine
10
288.32476
20
-18.205318
30
0
11
288.32476
21
-17.830489
31
0
39
0
210
0
220
0
230
1
0
LINE
5
E0
100
AcDbEntity
8
1
62
256
6
ByLayer
370
18
48
1
60
0
100
AcDbLine
10
288.32476
20
17.830489
30
0
11
288.32476
21
18.205318
31
0
39
0
210
0
220
0
230
1
0
LINE
5
E1
100
AcDbEntity
8
1
62
256
6
ByLayer
370
13
48
1
60
0
100
AcDbLine
10
287.650481
20
-18.791639
30
0
11
287.650481
21
-18.680651
31
0
39
0
210
0
220
0
230
1
0
LINE
5
E2
100
AcDbEntity
8
1
62
256
6
ByLayer
370
13
48
1
60
0
100
AcDbLine
10
287.650481
20
18.680651
30
0
11
287.650481
21
18.791639
31
0
39
0
210
0
220
0
230
1
0
LINE
5
E3
100
AcDbEntity
8
1
62
256
6
ByLayer
370
18
48
1
60
0
100
AcDbLine
10
288.32476
20
-17.688163
30
0
11
288.32476
21
-17.204449
31
0
39
0
210
0
220
0
230
1
0
LINE
5
E4
100
AcDbEntity
8
1
62
256
6
ByLayer
370
18
48
1
60
0
100
AcDbLine
10
288.32476
20
17.204449
30
0
11
288.32476
21
17.688163
31
0
39
0
210
0
220
0
230
1
0
LINE
5
E5
100
AcDbEntity
8
1
62
256
6
ByLayer
370
13
48
1
60
0
100
AcDbLine
10
287.650481
20
18.116188
30
0
11
287.650481
21
18.259116
31
0
39
0
210
0
220
0
230
1
0
LINE
5
E6
100
AcDbEntity
8
1
62
256
6
ByLayer
370
13
48
1
60
0
100
AcDbLine
10
287.650481
20
-18.259116
30
0
11
287.650481
21
-18.116188
31
0
39
0
210
0
220
0
230
1
0
LINE
5
E7
100
AcDbEntity
8
1
62
256
6
ByLayer
370
18
48
1
60
0
100
AcDbLine
10
288.32476
20
16.418191
30
0
11
288.32476
21
17.023766
31
0
39
0
210
0
220
0
230
1
0
LINE
5
E8
100
AcDbEntity
8
1
62
256
6
ByLayer
370
18
48
1
60
0
100
AcDbLine
10
288.32476
20
-17.023766
30
0
11
288.32476
21
-16.418191
31
0
39
0
210
0
220
0
230
1
0
LINE
5
E9
100
AcDbEntity
8
1
62
256
6
ByLayer
370
13
48
1
60
0
100
AcDbLine
10
287.650481
20
-17.583086
30
0
11
287.650481
21
-17.404844
31
0
39
0
210
0
220
0
230
1
0
LINE
5
EA
100
AcDbEntity
8
1
62
256
6
ByLayer
370
13
48
1
60
0
100
AcDbLine
10
287.650481
20
17.404844
30
0
11
287.650481
21
17.583086
31
0
39
0
210
0
220
0
230
1
0
LINE
5
EB
100
AcDbEntity
8
1
62
256
6
ByLayer
370
18
48
1
60
0
100
AcDbLine
10
288.32476
20
15.447336
30
0
11
288.32476
21
16.194014
31
0
39
0
210
0
220
0
230
1
0
LINE
5
EC
100
AcDbEntity
8
1
62
256
6
ByLayer
370
18
48
1
60
0
100
AcDbLine
10
288.32476
20
-16.194014
30
0
11
288.32476
21
-15.447336
31
0
39
0
210
0
220
0
230
1
0
LINE
5
ED
100
AcDbEntity
8
1
62
256
6
ByLayer
370
13
48
1
60
0
100
AcDbLine
10
287.650481
20
-16.74618
30
0
11
287.650481
21
-16.527523
31
0
39
0
210
0
220
0
230
1
0
LINE
5
EE
100
AcDbEntity
8
1
62
256
6
ByLayer
370
13
48
1
60
0
100
AcDbLine
10
287.650481
20
16.527523
30
0
11
287.650481
21
16.74618
31
0
39
0
210
0
220
0
230
1
0
LINE
5
EF
100
AcDbEntity
8
1
62
256
6
ByLayer
370
18
48
1
60
0
100
AcDbLine
10
288.32476
20
-15.171803
30
0
11
288.32476
21
-14.254246
31
0
39
0
210
0
220
0
230
1
0
LINE
5
F0
100
AcDbEntity
8
1
62
256
6
ByLayer
370
18
48
1
60
0
100
AcDbLine
10
288.32476
20
14.254246
30
0
11
288.32476
21
15.171803
31
0
39
0
210
0
220
0
230
1
0
LINE
5
F1
100
AcDbEntity
8
1
62
256
6
ByLayer
370
13
48
1
60
0
100
AcDbLine
10
287.650481
20
-15.722727
30
0
11
287.650481
21
-15.456027
31
0
39
0
210
0
220
0
230
1
0
LINE
5
F2
100
AcDbEntity
8
1
62
256
6
ByLayer
370
13
48
1
60
0
100
AcDbLine
10
287.650481
20
15.456027
30
0
11
287.650481
21
15.722727
31
0
39
0
210
0
220
0
230
1
0
LINE
5
F3
100
AcDbEntity
8
1
62
256
6
ByLayer
370
18
48
1
60
0
100
AcDbLine
10
288.32476
20
12.776776
30
0
11
288.32476
21
13.91478
31
0
39
0
210
0
220
0
230
1
0
LINE
5
F4
100
AcDbEntity
8
1
62
256
6
ByLayer
370
18
48
1
60
0
100
AcDbLine
10
288.32476
20
-13.91478
30
0
11
288.32476
21
-12.776776
31
0
39
0
210
0
220
0
230
1
0
LINE
5
F5
100
AcDbEntity
8
1
62
256
6
ByLayer
370
13
48
1
60
0
100
AcDbLine
10
287.650481
20
-14.473209
30
0
11
287.650481
21
-14.146205
31
0
39
0
210
0
220
0
230
1
0
LINE
5
F6
100
AcDbEntity
8
1
62
256
6
ByLayer
370
13
48
1
60
0
100
AcDbLine
10
287.650481
20
14.146205
30
0
11
287.650481
21
14.473209
31
0
39
0
210
0
220
0
230
1
0
LINE
5
F7
100
AcDbEntity
8
1
62
256
6
ByLayer
370
18
48
1
60
0
100
AcDbLine
10
288.32476
20
-12.351461
30
0
11
288.32476
21
-10.899779
31
0
39
0
210
0
220
0
230
1
0
LINE
5
F8
100
AcDbEntity
8
1
62
256
6
ByLayer
370
18
48
1
60
0
100
AcDbLine
10
288.32476
20
10.899779
30
0
11
288.32476
21
12.351461
31
0
39
0
210
0
220
0
230
1
0
LINE
5
F9
100
AcDbEntity
8
1
62
256
6
ByLayer
370
13
48
1
60
0
100
AcDbLine
10
287.650481
20
-12.932262
30
0
11
287.650481
21
-12.523683
31
0
39
0
210
0
220
0
230
1
0
LINE
5
FA
100
AcDbEntity
8
1
62
256
6
ByLayer
370
13
48
1
60
0
100
AcDbLine
10
287.650481
20
12.523683
30
0
11
287.650481
21
12.932262
31
0
39
0
210
0
220
0
230
1
0
LINE
5
FB
100
AcDbEntity
8
1
62
256
6
ByLayer
370
18
48
1
60
0
100
AcDbLine
10
288.32476
20
-10.343892
30
0
11
288.32476
21
-8.358834
31
0
39
0
210
0
220
0
230
1
0
LINE
5
FC
100
AcDbEntity
8
1
62
256
6
ByLayer
370
18
48
1
60
0
100
AcDbLine
10
288.32476
20
8.358834
30
0
11
288.32476
21
10.343892
31
0
39
0
210
0
220
0
230
1
0
LINE
5
FD
100
AcDbEntity
8
1
62
256
6
ByLayer
370
13
48
1
60
0
100
AcDbLine
10
287.650481
20
-10.977842
30
0
11
287.650481
21
-10.444044
31
0
39
0
210
0
220
0
230
1
0
LINE
5
FE
100
AcDbEntity
8
1
62
256
6
ByLayer
370
13
48
1
60
0
100
AcDbLine
10
287.650481
20
10.444044
30
0
11
287.650481
21
10.977842
31
0
39
0
210
0
220
0
230
1
0
LINE
5
FF
100
AcDbEntity
8
1
62
256
6
ByLayer
370
18
48
1
60
0
100
AcDbLine
10
288.32476
20
-7.545435
30
0
11
288.32476
21
-4.053785
31
0
39
0
210
0
220
0
230
1
0
LINE
5
100
100
AcDbEntity
8
1
62
256
6
ByLayer
370
18
48
1
60
0
100
AcDbLine
10
288.32476
20
4.053785
30
0
11
288.32476
21
7.545435
31
0
39
0
210
0
220
0
230
1
0
LINE
5
101
100
AcDbEntity
8
1
62
256
6
ByLayer
370
13
48
1
60
0
100
AcDbLine
10
287.650481
20
-8.323618
30
0
11
287.650481
21
-7.537296
31
0
39
0
210
0
220
0
230
1
0
LINE
5
102
100
AcDbEntity
8
1
62
256
6
ByLayer
370
13
48
1
60
0
100
AcDbLine
10
287.650481
20
7.537296
30
0
11
287.650481
21
8.323618
31
0
39
0
210
0
220
0
230
1
0
LINE
5
103
100
AcDbEntity
8
1
62
256
6
ByLayer
370
18
48
1
60
0
100
AcDbLine
10
288.32476
20
-1.539836
30
0
11
288.32476
21
1.539836
31
0
39
0
210
0
220
0
230
1
0
LINE
5
104
100
AcDbEntity
8
1
62
256
6
ByLayer
370
13
48
1
60
0
100
AcDbLine
10
287.650481
20
-3.681336
30
0
11
287.650481
21
-0.209491
31
0
39
0
210
0
220
0
230
1
0
LINE
5
105
100
AcDbEntity
8
1
62
256
6
ByLayer
370
13
48
1
60
0
100
AcDbLine
10
287.650481
20
0.209491
30
0
11
287.650481
21
3.681336
31
0
39
0
210
0
220
0
230
1
0
LINE
5
106
100
AcDbEntity
8
1
62
256
6
ByLayer
370
18
48
1
60
0
100
AcDbLine
10
286
20
19.8
30
0
11
286
21
-19.8
31
0
39
0
210
0
220
0
230
1
0
LINE
5
107
100
AcDbEntity
8
1
62
256
6
ByLayer
370
13
48
1
60
0
100
AcDbLine
10
286.2
20
20
30
0
11
286.2
21
-20
31
0
39
0
210
0
220
0
230
1
0
LINE
5
108
100
AcDbEntity
8
1
62
256
6
ByLayer
370
18
48
1
60
0
100
AcDbLine
10
287.32476
20
-20
30
0
11
287.32476
21
20
31
0
39
0
210
0
220
0
230
1
0
LINE
5
109
100
AcDbEntity
8
1
62
256
6
ByLayer
370
18
48
1
60
0
100
AcDbLine
10
288.32476
20
-18.976857
30
0
11
288.32476
21
-18.991672
31
0
39
0
210
0
220
0
230
1
0
LINE
5
10A
100
AcDbEntity
8
1
62
256
6
ByLayer
370
18
48
1
60
0
100
AcDbLine
10
288.32476
20
-18.842999
30
0
11
288.32476
21
-18.887723
31
0
39
0
210
0
220
0
230
1
0
LINE
5
10B
100
AcDbEntity
8
1
62
256
6
ByLayer
370
18
48
1
60
0
100
AcDbLine
10
288.32476
20
-18.587525
30
0
11
288.32476
21
-18.663027
31
0
39
0
210
0
220
0
230
1
0
LINE
5
10C
100
AcDbEntity
8
1
62
256
6
ByLayer
370
18
48
1
60
0
100
AcDbLine
10
288.32476
20
-18.205318
30
0
11
288.32476
21
-18.31314
31
0
39
0
210
0
220
0
230
1
0
LINE
5
10D
100
AcDbEntity
8
1
62
256
6
ByLayer
370
18
48
1
60
0
100
AcDbLine
10
288.32476
20
-17.688163
30
0
11
288.32476
21
-17.830692
31
0
39
0
210
0
220
0
230
1
0
LINE
5
10E
100
AcDbEntity
8
1
62
256
6
ByLayer
370
18
48
1
60
0
100
AcDbLine
10
288.32476
20
-17.023766
30
0
11
288.32476
21
-17.204537
31
0
39
0
210
0
220
0
230
1
0
LINE
5
10F
100
AcDbEntity
8
1
62
256
6
ByLayer
370
18
48
1
60
0
100
AcDbLine
10
288.32476
20
-16.194014
30
0
11
288.32476
21
-16.41824
31
0
39
0
210
0
220
0
230
1
0
LINE
5
110
100
AcDbEntity
8
1
62
256
6
ByLayer
370
18
48
1
60
0
100
AcDbLine
10
288.32476
20
-15.171803
30
0
11
288.32476
21
-15.447365
31
0
39
0
210
0
220
0
230
1
0
LINE
5
111
100
AcDbEntity
8
1
62
256
6
ByLayer
370
18
48
1
60
0
100
AcDbLine
10
288.32476
20
-13.91478
30
0
11
288.32476
21
-14.254248
31
0
39
0
210
0
220
0
230
1
0
LINE
5
112
100
AcDbEntity
8
1
62
256
6
ByLayer
370
18
48
1
60
0
100
AcDbLine
10
288.32476
20
-12.351461
30
0
11
288.32476
21
-12.776779
31
0
39
0
210
0
220
0
230
1
0
LINE
5
113
100
AcDbEntity
8
1
62
256
6
ByLayer
370
18
48
1
60
0
100
AcDbLine
10
288.32476
20
-10.343892
30
0
11
288.32476
21
-10.899935
31
0
39
0
210
0
220
0
230
1
0
LINE
5
114
100
AcDbEntity
8
1
62
256
6
ByLayer
370
18
48
1
60
0
100
AcDbLine
10
288.32476
20
-7.545435
30
0
11
288.32476
21
-8.358893
31
0
39
0
210
0
220
0
230
1
0
LINE
5
115
100
AcDbEntity
8
1
62
256
6
ByLayer
370
18
48
1
60
0
100
AcDbLine
10
288.32476
20
-1.539836
30
0
11
288.32476
21
-4.053837
31
0
39
0
210
0
220
0
230
1
0
LINE
5
116
100
AcDbEntity
8
1
62
256
6
ByLayer
370
18
48
1
60
0
100
AcDbLine
10
288.32476
20
4.053837
30
0
11
288.32476
21
1.539836
31
0
39
0
210
0
220
0
230
1
0
LINE
5
117
100
AcDbEntity
8
1
62
256
6
ByLayer
370
18
48
1
60
0
100
AcDbLine
10
288.32476
20
8.358893
30
0
11
288.32476
21
7.545435
31
0
39
0
210
0
220
0
230
1
0
LINE
5
118
100
AcDbEntity
8
1
62
256
6
ByLayer
370
18
48
1
60
0
100
AcDbLine
10
288.32476
20
10.899935
30
0
11
288.32476
21
10.343892
31
0
39
0
210
0
220
0
230
1
0
LINE
5
119
100
AcDbEntity
8
1
62
256
6
ByLayer
370
18
48
1
60
0
100
AcDbLine
10
288.32476
20
12.776779
30
0
11
288.32476
21
12.351461
31
0
39
0
210
0
220
0
230
1
0
LINE
5
11A
100
AcDbEntity
8
1
62
256
6
ByLayer
370
18
48
1
60
0
100
AcDbLine
10
288.32476
20
14.254248
30
0
11
288.32476
21
13.91478
31
0
39
0
210
0
220
0
230
1
0
LINE
5
11B
100
AcDbEntity
8
1
62
256
6
ByLayer
370
18
48
1
60
0
100
AcDbLine
10
288.32476
20
15.447365
30
0
11
288.32476
21
15.171803
31
0
39
0
210
0
220
0
230
1
0
LINE
5
11C
100
AcDbEntity
8
1
62
256
6
ByLayer
370
18
48
1
60
0
100
AcDbLine
10
288.32476
20
16.41824
30
0
11
288.32476
21
16.194014
31
0
39
0
210
0
220
0
230
1
0
LINE
5
11D
100
AcDbEntity
8
1
62
256
6
ByLayer
370
18
48
1
60
0
100
AcDbLine
10
288.32476
20
17.204537
30
0
11
288.32476
21
17.023766
31
0
39
0
210
0
220
0
230
1
0
LINE
5
11E
100
AcDbEntity
8
1
62
256
6
ByLayer
370
18
48
1
60
0
100
AcDbLine
10
288.32476
20
17.830692
30
0
11
288.32476
21
17.688163
31
0
39
0
210
0
220
0
230
1
0
LINE
5
11F
100
AcDbEntity
8
1
62
256
6
ByLayer
370
18
48
1
60
0
100
AcDbLine
10
288.32476
20
18.31314
30
0
11
288.32476
21
18.205318
31
0
39
0
210
0
220
0
230
1
0
LINE
5
120
100
AcDbEntity
8
1
62
256
6
ByLayer
370
18
48
1
60
0
100
AcDbLine
10
288.32476
20
18.663027
30
0
11
288.32476
21
18.587525
31
0
39
0
210
0
220
0
230
1
0
LINE
5
121
100
AcDbEntity
8
1
62
256
6
ByLayer
370
18
48
1
60
0
100
AcDbLine
10
288.32476
20
18.887723
30
0
11
288.32476
21
18.842999
31
0
39
0
210
0
220
0
230
1
0
LINE
5
122
100
AcDbEntity
8
1
62
256
6
ByLayer
370
18
48
1
60
0
100
AcDbLine
10
288.32476
20
18.991672
30
0
11
288.32476
21
18.976857
31
0
39
0
210
0
220
0
230
1
0
LINE
5
123
100
AcDbEntity
8
1
62
256
6
ByLayer
370
18
48
1
60
0
100
AcDbLine
10
285.8
20
20
30
0
11
24.9
21
20
31
0
39
0
210
0
220
0
230
1
0
LINE
5
124
100
AcDbEntity
8
1
62
256
6
ByLayer
370
18
48
1
60
0
100
AcDbLine
10
24.9
20
-20
30
0
11
285.8
21
-20
31
0
39
0
210
0
220
0
230
1
0
LINE
5
125
100
AcDbEntity
8
1
62
256
6
ByLayer
370
18
48
1
60
0
100
AcDbLine
10
0
20
-24.7
30
0
11
0.3
21
-25
31
0
39
0
210
0
220
0
230
1
0
LINE
5
126
100
AcDbEntity
8
1
62
256
6
ByLayer
370
18
48
1
60
0
100
AcDbLine
10
0.3
20
25
30
0
11
0
21
24.7
31
0
39
0
210
0
220
0
230
1
0
LINE
5
127
100
AcDbEntity
8
1
62
256
6
ByLayer
370
18
48
1
60
0
100
AcDbLine
10
19.514835
20
25
30
0
11
0.3
21
25
31
0
39
0
210
0
220
0
230
1
0
LINE
5
128
100
AcDbEntity
8
1
62
256
6
ByLayer
370
18
48
1
60
0
100
AcDbLine
10
0.3
20
-25
30
0
11
19.514835
21
-25
31
0
39
0
210
0
220
0
230
1
0
LINE
5
129
100
AcDbEntity
8
1
62
256
6
ByLayer
370
18
48
1
60
0
100
AcDbLine
10
288.324609
20
-12.899495
30
0
11
292.8
21
-12.899495
31
0
39
0
210
0
220
0
230
1
0
LINE
5
12A
100
AcDbEntity
8
1
62
256
6
ByLayer
370
18
48
1
60
0
100
AcDbLine
10
292.8
20
-6.899495
30
0
11
288.324609
21
-6.899495
31
0
39
0
210
0
220
0
230
1
0
LINE
5
12B
100
AcDbEntity
8
1
62
256
6
ByLayer
370
18
48
1
60
0
100
AcDbLine
10
293
20
-14.899495
30
0
11
298.4
21
-14.899495
31
0
39
0
210
0
220
0
230
1
0
LINE
5
12C
100
AcDbEntity
8
1
62
256
6
ByLayer
370
18
48
1
60
0
100
AcDbLine
10
298.4
20
-4.899495
30
0
11
293
21
-4.899495
31
0
39
0
210
0
220
0
230
1
0
LINE
5
12D
100
AcDbEntity
8
1
62
256
6
ByLayer
370
18
48
1
60
0
100
AcDbLine
10
288.324609
20
6.899495
30
0
11
292.8
21
6.899495
31
0
39
0
210
0
220
0
230
1
0
LINE
5
12E
100
AcDbEntity
8
1
62
256
6
ByLayer
370
18
48
1
60
0
100
AcDbLine
10
292.8
20
12.899495
30
0
11
288.324609
21
12.899495
31
0
39
0
210
0
220
0
230
1
0
LINE
5
12F
100
AcDbEntity
8
1
62
256
6
ByLayer
370
18
48
1
60
0
100
AcDbLine
10
293
20
4.899495
30
0
11
298.4
21
4.899495
31
0
39
0
210
0
220
0
230
1
0
LINE
5
130
100
AcDbEntity
8
1
62
256
6
ByLayer
370
18
48
1
60
0
100
AcDbLine
10
298.4
20
14.899495
30
0
11
293
21
14.899495
31
0
39
0
210
0
220
0
230
1
0
LINE
5
131
100
AcDbEntity
8
1
62
256
6
ByLayer
370
18
48
1
60
0
100
AcDbLine
10
287.32476
20
20
30
0
11
286.2
21
20
31
0
39
0
210
0
220
0
230
1
0
LINE
5
132
100
AcDbEntity
8
1
62
256
6
ByLayer
370
18
48
1
60
0
100
AcDbLine
10
286.2
20
-20
30
0
11
287.32476
21
-20
31
0
39
0
210
0
220
0
230
1
0
LINE
5
133
100
AcDbEntity
8
1
62
256
6
ByLayer
370
18
48
1
60
0
100
AcDbLine
10
287.552123
20
19.772637
30
0
11
287.32476
21
20
31
0
39
0
210
0
220
0
230
1
0
LINE
5
134
100
AcDbEntity
8
1
62
256
6
ByLayer
370
18
48
1
60
0
100
AcDbLine
10
287.32476
20
-20
30
0
11
287.552123
21
-19.772637
31
0
39
0
210
0
220
0
230
1
0
LINE
5
135
100
AcDbEntity
8
1
62
256
6
ByLayer
370
13
48
0.05
60
0
100
AcDbLine
10
292.3
20
0
30
0
11
-6.5
21
0
31
0
39
0
210
0
220
0
230
1
0
LINE
5
136
100
AcDbEntity
8
SK2
62
256
6
ByLayer
370
18
48
1
60
0
100
AcDbLine
10
-36.6
20
-25
30
0
11
-36.6
21
25
31
0
39
0
210
0
220
0
230
1
0
LINE
5
138
100
AcDbEntity
8
SK2
62
256
6
ByLayer
370
18
48
1
60
0
100
AcDbLine
10
-1.2875
20
25
30
0
11
-38.6
21
25
31
0
39
0
210
0
220
0
230
1
0
LINE
5
139
100
AcDbEntity
8
SK2
62
256
6
ByLayer
370
18
48
1
60
0
100
AcDbLine
10
-1.2875
20
-25
30
0
11
-38.6
21
-25
31
0
39
0
210
0
220
0
230
1
0
LINE
5
13A
100
AcDbEntity
8
1
62
256
6
ByLayer
370
18
48
1
60
1
100
AcDbLine
10
-36.6
20
25
30
0
11
-36.139216
21
21.500002
31
0
39
0
210
0
220
0
230
1
0
LINE
5
13B
100
AcDbEntity
8
1
62
256
6
ByLayer
370
18
48
1
60
1
100
AcDbLine
10
-36.139216
20
21.500002
30
0
11
-37.060784
21
21.499998
31
0
39
0
210
0
220
0
230
1
0
LINE
5
13C
100
AcDbEntity
8
1
62
256
6
ByLayer
370
18
48
1
60
1
100
AcDbLine
10
-37.060784
20
21.499998
30
0
11
-36.6
21
25
31
0
39
0
210
0
220
0
230
1
0
LINE
5
13D
100
AcDbEntity
8
1
62
256
6
ByLayer
370
18
48
1
60
1
100
AcDbLine
10
-36.6
20
-25
30
0
11
-37.060784
21
-21.500002
31
0
39
0
210
0
220
0
230
1
0
LINE
5
13E
100
AcDbEntity
8
1
62
256
6
ByLayer
370
18
48
1
60
1
100
AcDbLine
10
-37.060784
20
-21.500002
30
0
11
-36.139216
21
-21.499998
31
0
39
0
210
0
220
0
230
1
0
LINE
5
13F
100
AcDbEntity
8
1
62
256
6
ByLayer
370
18
48
1
60
1
100
AcDbLine
10
-36.139216
20
-21.499998
30
0
11
-36.6
21
-25
31
0
39
0
210
0
220
0
230
1
0
LINE
5
140
100
AcDbEntity
8
SK2
62
256
6
ByLayer
370
18
48
1
60
0
100
AcDbLine
10
310.748181
20
-20
30
0
11
310.748181
21
20
31
0
39
0
210
0
220
0
230
1
0
LINE
5
141
100
AcDbEntity
8
SK2
62
256
6
ByLayer
370
18
48
1
60
0
100
AcDbLine
10
287.3875
20
20
30
0
11
312.748181
21
20
31
0
39
0
210
0
220
0
230
1
0
LINE
5
142
100
AcDbEntity
8
SK2
62
256
6
ByLayer
370
18
48
1
60
0
100
AcDbLine
10
287.3875
20
-20
30
0
11
312.748181
21
-20
31
0
39
0
210
0
220
0
230
1
0
LINE
5
143
100
AcDbEntity
8
1
62
256
6
ByLayer
370
18
48
1
60
1
100
AcDbLine
10
310.748181
20
20
30
0
11
311.208964
21
16.500002
31
0
39
0
210
0
220
0
230
1
0
LINE
5
144
100
AcDbEntity
8
1
62
256
6
ByLayer
370
18
48
1
60
1
100
AcDbLine
10
311.208964
20
16.500002
30
0
11
310.287397
21
16.499998
31
0
39
0
210
0
220
0
230
1
0
LINE
5
145
100
AcDbEntity
8
1
62
256
6
ByLayer
370
18
48
1
60
1
100
AcDbLine
10
310.287397
20
16.499998
30
0
11
310.748181
21
20
31
0
39
0
210
0
220
0
230
1
0
LINE
5
146
100
AcDbEntity
8
1
62
256
6
ByLayer
370
18
48
1
60
1
100
AcDbLine
10
310.748181
20
-20
30
0
11
310.287397
21
-16.500002
31
0
39
0
210
0
220
0
230
1
0
LINE
5
147
100
AcDbEntity
8
1
62
256
6
ByLayer
370
18
48
1
60
1
100
AcDbLine
10
310.287397
20
-16.500002
30
0
11
311.208964
21
-16.499998
31
0
39
0
210
0
220
0
230
1
0
LINE
5
148
100
AcDbEntity
8
1
62
256
6
ByLayer
370
18
48
1
60
1
100
AcDbLine
10
311.208964
20
-16.499998
30
0
11
310.748181
21
-20
31
0
39
0
210
0
220
0
230
1
0
LINE
5
149
100
AcDbEntity
8
SK2
62
256
6
ByLayer
370
18
48
1
60
0
100
AcDbLine
10
0
20
30.6
30
0
11
288
21
30.6
31
0
39
0
210
0
220
0
230
1
0
LINE
5
14A
100
AcDbEntity
8
SK2
62
256
6
ByLayer
370
18
48
1
60
0
100
AcDbLine
10
288
20
21.5875
30
0
11
288
21
32.6
31
0
39
0
210
0
220
0
230
1
0
LINE
5
14B
100
AcDbEntity
8
SK2
62
256
6
ByLayer
370
18
48
1
60
0
100
AcDbLine
10
0
20
26.2875
30
0
11
0
21
32.6
31
0
39
0
210
0
220
0
230
1
0
LINE
5
14C
100
AcDbEntity
8
1
62
256
6
ByLayer
370
18
48
1
60
1
100
AcDbLine
10
288
20
30.6
30
0
11
284.500002
21
30.139216
31
0
39
0
210
0
220
0
230
1
0
LINE
5
14D
100
AcDbEntity
8
1
62
256
6
ByLayer
370
18
48
1
60
1
100
AcDbLine
10
284.500002
20
30.139216
30
0
11
284.499998
21
31.060784
31
0
39
0
210
0
220
0
230
1
0
LINE
5
14E
100
AcDbEntity
8
1
62
256
6
ByLayer
370
18
48
1
60
1
100
AcDbLine
10
284.499998
20
31.060784
30
0
11
288
21
30.6
31
0
39
0
210
0
220
0
230
1
0
LINE
5
14F
100
AcDbEntity
8
1
62
256
6
ByLayer
370
18
48
1
60
1
100
AcDbLine
10
0
20
30.6
30
0
11
3.499998
21
31.060784
31
0
39
0
210
0
220
0
230
1
0
LINE
5
150
100
AcDbEntity
8
1
62
256
6
ByLayer
370
18
48
1
60
1
100
AcDbLine
10
3.499998
20
31.060784
30
0
11
3.500002
21
30.139216
31
0
39
0
210
0
220
0
230
1
0
LINE
5
151
100
AcDbEntity
8
1
62
256
6
ByLayer
370
18
48
1
60
1
100
AcDbLine
10
3.500002
20
30.139216
30
0
11
0
21
30.6
31
0
39
0
210
0
220
0
230
1
0
LINE
5
1D6
100
AcDbEntity
8
1
62
256
6
ByLayer
370
13
48
0.05
60
0
100
AcDbLine
10
275.05
20
-9.899495
30
0
11
299.3
21
-9.899495
31
0
39
0
210
0
220
0
230
1
0
LINE
5
1D7
100
AcDbEntity
8
1
62
256
6
ByLayer
370
13
48
0.05
60
0
100
AcDbLine
10
275.05
20
9.899495
30
0
11
299.3
21
9.899495
31
0
39
0
210
0
220
0
230
1
0
LINE
5
1DC
100
AcDbEntity
8
1
62
256
6
ByLayer
370
18
48
1
60
1
100
AcDbLine
10
-36.6
20
25
30
0
11
-36.139216
21
21.500002
31
0
39
0
210
0
220
0
230
1
0
LINE
5
1DD
100
AcDbEntity
8
1
62
256
6
ByLayer
370
18
48
1
60
1
100
AcDbLine
10
-36.139216
20
21.500002
30
0
11
-37.060784
21
21.499998
31
0
39
0
210
0
220
0
230
1
0
LINE
5
1DE
100
AcDbEntity
8
1
62
256
6
ByLayer
370
18
48
1
60
1
100
AcDbLine
10
-37.060784
20
21.499998
30
0
11
-36.6
21
25
31
0
39
0
210
0
220
0
230
1
0
LINE
5
1E0
100
AcDbEntity
8
1
62
256
6
ByLayer
370
18
48
1
60
1
100
AcDbLine
10
-36.6
20
-25
30
0
11
-37.060784
21
-21.500002
31
0
39
0
210
0
220
0
230
1
0
LINE
5
1E1
100
AcDbEntity
8
1
62
256
6
ByLayer
370
18
48
1
60
1
100
AcDbLine
10
-37.060784
20
-21.500002
30
0
11
-36.139216
21
-21.499998
31
0
39
0
210
0
220
0
230
1
0
LINE
5
1E2
100
AcDbEntity
8
1
62
256
6
ByLayer
370
18
48
1
60
1
100
AcDbLine
10
-36.139216
20
-21.499998
30
0
11
-36.6
21
-25
31
0
39
0
210
0
220
0
230
1
0
LINE
5
1E6
100
AcDbEntity
8
1
62
256
6
ByLayer
370
18
48
1
60
1
100
AcDbLine
10
310.748181
20
20
30
0
11
311.208964
21
16.500002
31
0
39
0
210
0
220
0
230
1
0
LINE
5
1E7
100
AcDbEntity
8
1
62
256
6
ByLayer
370
18
48
1
60
1
100
AcDbLine
10
311.208964
20
16.500002
30
0
11
310.287397
21
16.499998
31
0
39
0
210
0
220
0
230
1
0
LINE
5
1E8
100
AcDbEntity
8
1
62
256
6
ByLayer
370
18
48
1
60
1
100
AcDbLine
10
310.287397
20
16.499998
30
0
11
310.748181
21
20
31
0
39
0
210
0
220
0
230
1
0
LINE
5
1EA
100
AcDbEntity
8
1
62
256
6
ByLayer
370
18
48
1
60
1
100
AcDbLine
10
310.748181
20
-20
30
0
11
310.287397
21
-16.500002
31
0
39
0
210
0
220
0
230
1
0
LINE
5
1EB
100
AcDbEntity
8
1
62
256
6
ByLayer
370
18
48
1
60
1
100
AcDbLine
10
310.287397
20
-16.500002
30
0
11
311.208964
21
-16.499998
31
0
39
0
210
0
220
0
230
1
0
LINE
5
1EC
100
AcDbEntity
8
1
62
256
6
ByLayer
370
18
48
1
60
1
100
AcDbLine
10
311.208964
20
-16.499998
30
0
11
310.748181
21
-20
31
0
39
0
210
0
220
0
230
1
0
LINE
5
1EF
100
AcDbEntity
8
1
62
256
6
ByLayer
370
18
48
1
60
1
100
AcDbLine
10
288
20
30.6
30
0
11
284.500002
21
30.139216
31
0
39
0
210
0
220
0
230
1
0
LINE
5
1F0
100
AcDbEntity
8
1
62
256
6
ByLayer
370
18
48
1
60
1
100
AcDbLine
10
284.500002
20
30.139216
30
0
11
284.499998
21
31.060784
31
0
39
0
210
0
220
0
230
1
0
LINE
5
1F1
100
AcDbEntity
8
1
62
256
6
ByLayer
370
18
48
1
60
1
100
AcDbLine
10
284.499998
20
31.060784
30
0
11
288
21
30.6
31
0
39
0
210
0
220
0
230
1
0
LINE
5
1F3
100
AcDbEntity
8
1
62
256
6
ByLayer
370
18
48
1
60
1
100
AcDbLine
10
0
20
30.6
30
0
11
3.499998
21
31.060784
31
0
39
0
210
0
220
0
230
1
0
LINE
5
1F4
100
AcDbEntity
8
1
62
256
6
ByLayer
370
18
48
1
60
1
100
AcDbLine
10
3.499998
20
31.060784
30
0
11
3.500002
21
30.139216
31
0
39
0
210
0
220
0
230
1
0
LINE
5
1F5
100
AcDbEntity
8
1
62
256
6
ByLayer
370
18
48
1
60
1
100
AcDbLine
10
3.500002
20
30.139216
30
0
11
0
21
30.6
31
0
39
0
210
0
220
0
230
1
0
MTEXT
5
1D8
100
AcDbEntity
8
SK2
62
256
6
ByLayer
370
18
48
1
60
0
100
AcDbMText
10
-38.164634
20
-4.530622
30
0
210
0
220
0
230
1
1
%%c
40
3.5
41
0
44
1.084337
50
90
71
7
72
5
7
iso_b_vert
0
MTEXT
5
1DB
100
AcDbEntity
8
SK2
62
256
6
ByLayer
370
18
48
1
60
0
100
AcDbMText
10
-38.164634
20
2.442034
30
0
210
0
220
0
230
1
1
\W0.6740;50
40
3.5
41
0
44
1.084337
50
90
71
7
72
5
7
iso_b_vert
0
MTEXT
5
1E4
100
AcDbEntity
8
SK2
62
256
6
ByLayer
370
18
48
1
60
0
100
AcDbMText
10
309.183547
20
-4.714889
30
0
210
0
220
0
230
1
1
%%c
40
3.5
41
0
44
1.084337
50
90
71
7
72
5
7
iso_b_vert
0
MTEXT
5
1E5
100
AcDbEntity
8
SK2
62
256
6
ByLayer
370
18
48
1
60
0
100
AcDbMText
10
309.183547
20
2.257767
30
0
210
0
220
0
230
1
1
\W0.7361;40
40
3.5
41
0
44
1.084337
50
90
71
7
72
5
7
iso_b_vert
0
MTEXT
5
1EE
100
AcDbEntity
8
SK2
62
256
6
ByLayer
370
18
48
1
60
0
100
AcDbMText
10
140.787301
20
31.632634
30
0
210
0
220
0
230
1
1
\W0.7138;288
40
3.5
41
0
44
1.084337
50
0
71
7
72
5
7
iso_b_vert
0
MTEXT
5
1F7
100
AcDbEntity
8
SK6
62
256
6
ByLayer
370
18
48
1
60
0
100
AcDbMText
10
111.267894
20
-50.567366
30
0
210
0
220
0
230
1
1
\W0.7571;HT30D-C5 40 288-40
40
3.5
41
0
44
1.084337
50
0
71
7
72
5
7
iso_b_vert
0
HATCH
5
1DF
100
AcDbEntity
8
SK2
62
256
6
ByLayer
370
13
48
1
60
0
100
AcDbHatch
10
0
20
0
30
0
210
0
220
0
230
1
2
ANSI31
70
0
71
0
91
1
92
5
93
3
72
1
10
-36.6000000000001
20
24.9999999999999
11
-36.1392162584473
21
21.5000016925531
72
1
10
-36.1392162584473
20
21.5000016925531
11
-37.0607837415529
21
21.4999983074467
72
1
10
-37.0607837415529
20
21.4999983074467
11
-36.6000000000001
21
24.9999999999999
97
0
75
0
76
1
52
0
41
0.0062
77
0
78
1
53
45
43
0
44
0
45
-0.0139193969876572
46
0.0139193969876572
79
0
47
0
98
1
10
0
20
0
0
HATCH
5
1E3
100
AcDbEntity
8
SK2
62
256
6
ByLayer
370
13
48
1
60
0
100
AcDbHatch
10
0
20
0
30
0
210
0
220
0
230
1
2
ANSI31
70
0
71
0
91
1
92
5
93
3
72
1
10
-36.6000000000001
20
-25.0000000000001
11
-37.0607837415529
21
-21.5000016925533
72
1
10
-37.0607837415529
20
-21.5000016925533
11
-36.1392162584473
21
-21.4999983074469
72
1
10
-36.1392162584473
20
-21.4999983074469
11
-36.6000000000001
21
-25.0000000000001
97
0
75
0
76
1
52
0
41
0.0062
77
0
78
1
53
45
43
0
44
0
45
-0.0139193969876572
46
0.0139193969876572
79
0
47
0
98
1
10
0
20
0
0
HATCH
5
1E9
100
AcDbEntity
8
SK2
62
256
6
ByLayer
370
13
48
1
60
0
100
AcDbHatch
10
0
20
0
30
0
210
0
220
0
230
1
2
ANSI31
70
0
71
0
91
1
92
5
93
3
72
1
10
310.748180566759
20
19.9999999999989
11
311.208964308312
21
16.5000016925521
72
1
10
311.208964308312
20
16.5000016925521
11
310.287396825206
21
16.4999983074457
72
1
10
310.287396825206
20
16.4999983074457
11
310.748180566759
21
19.9999999999989
97
0
75
0
76
1
52
0
41
0.0062
77
0
78
1
53
45
43
0
44
0
45
-0.0139193969876572
46
0.0139193969876572
79
0
47
0
98
1
10
0
20
0
0
HATCH
5
1ED
100
AcDbEntity
8
SK2
62
256
6
ByLayer
370
13
48
1
60
0
100
AcDbHatch
10
0
20
0
30
0
210
0
220
0
230
1
2
ANSI31
70
0
71
0
91
1
92
5
93
3
72
1
10
310.748180566759
20
-20.0000000000011
11
310.287396825206
21
-16.5000016925543
72
1
10
310.287396825206
20
-16.5000016925543
11
311.208964308312
21
-16.4999983074479
72
1
10
311.208964308312
20
-16.4999983074479
11
310.748180566759
21
-20.0000000000011
97
0
75
0
76
1
52
0
41
0.0062
77
0
78
1
53
45
43
0
44
0
45
-0.0139193969876572
46
0.0139193969876572
79
0
47
0
98
1
10
0
20
0
0
HATCH
5
1F2
100
AcDbEntity
8
SK2
62
256
6
ByLayer
370
13
48
1
60
0
100
AcDbHatch
10
0
20
0
30
0
210
0
220
0
230
1
2
ANSI31
70
0
71
0
91
1
92
5
93
3
72
1
10
288
20
30.6000000000001
11
284.500001692553
21
30.1392162584473
72
1
10
284.500001692553
20
30.1392162584473
11
284.499998307447
21
31.0607837415529
72
1
10
284.499998307447
20
31.0607837415529
11
288
21
30.6000000000001
97
0
75
0
76
1
52
0
41
0.0062
77
0
78
1
53
45
43
0
44
0
45
-0.0139193969876572
46
0.0139193969876572
79
0
47
0
98
1
10
0
20
0
0
HATCH
5
1F6
100
AcDbEntity
8
SK2
62
256
6
ByLayer
370
13
48
1
60
0
100
AcDbHatch
10
0
20
0
30
0
210
0
220
0
230
1
2
ANSI31
70
0
71
0
91
1
92
5
93
3
72
1
10
0
20
30.6000000000001
11
3.4999983074468
21
31.0607837415529
72
1
10
3.4999983074468
20
31.0607837415529
11
3.5000016925532
21
30.1392162584473
72
1
10
3.5000016925532
20
30.1392162584473
11
0
21
30.6000000000001
97
0
75
0
76
1
52
0
41
0.0062
77
0
78
1
53
45
43
0
44
0
45
-0.0139193969876572
46
0.0139193969876572
79
0
47
0
98
1
10
0
20
0
0
DIMENSION
5
1FA
100
AcDbEntity
8
SK2
62
256
6
ByLayer
370
18
48
1
60
0
100
AcDbDimension
2
_U0
10
288
20
-38.1
30
0
11
156.45
21
-38.1
31
0
70
32
71
1
72
1
41
1
210
0
220
0
230
1
3
Standard
100
AcDbAlignedDimension
13
24.9
23
-20
33
0
14
288
24
20
34
0
50
0
100
AcDbRotatedDimension
1001
ACAD
1000
DSTYLE
1002
{
1070
   371
1070
    13
1070
   372
1070
    13
1070
   170
1070
     0
1070
   144
1040
1.0
1070
   277
1070
     2
1070
   284
1070
     8
1070
   278
1070
    46
1070
   146
1040
1.0
1070
   345
1005
16
1070
   347
1005
16
1070
   346
1005
16
1070
   344
1005
0
1070
   343
1005
0
1070
   172
1070
     1
1070
    76
1070
     0
1070
    75
1070
     0
1070
   282
1070
     0
1070
   281
1070
     0
1070
    71
1070
     0
1070
    74
1070
     0
1070
   279
1070
     0
1070
   173
1070
     1
1070
   340
1005
1D9
1070
   271
1070
     2
1070
   272
1070
     2
1070
    77
1070
     1
1070
    73
1070
     1
1070
   171
1070
     3
1070
   274
1070
     4
1070
   177
1070
     2
1070
   176
1070
     2
1070
   178
1070
     2
1070
    78
1070
     8
1070
    48
1040
-0.1
1070
    41
1040
3.5
1070
   147
1040
1.75
1070
    42
1040
1.5875
1070
    44
1040
2.0
1070
   140
1040
3.5
1002
}
1001
ACAD_DSTYLE_DIM_LINETYPE
1070
   380
1005
16
1001
ACAD_DSTYLE_DIM_EXT1_LINETYPE
1070
   381
1005
16
1001
ACAD_DSTYLE_DIM_EXT2_LINETYPE
1070
   382
1005
16
0
ENDSEC
0
SECTION
2
OBJECTS
0
DICTIONARY
5
283
330
0
100
AcDbDictionary
280
0
281
1
3
ACAD_GROUP
350
284
3
ACAD_MLINESTYLE
350
285
0
DICTIONARY
5
284
330
0
100
AcDbDictionary
280
0
281
1
0
DICTIONARY
5
285
330
0
100
AcDbDictionary
280
0
281
1
3
Standard
350
18
0
MLINESTYLE
5
18
330
285
100
AcDbMlineStyle
2
Standard
70
0
3

62
256
51
90
52
90
71
2
49
-0.5
62
256
6
ByLayer
49
0.5
62
256
6
ByLayer
0
RASTERVARIABLES
5
271
330

100
AcDbRasterVariables
90
0
70
1
71
1
72
1
0
ENDSEC
0
EOF
