0
SECTION
2
HEADER
9
$ACADVER
1
AC1015
9
$DWGCODEPAGE
3
ANSI_1252
9
$HANDSEED
5
2df
9
$ANGBASE
50
0
9
$ANGDIR
70
0
9
$ATTMODE
70
1
9
$AUNITS
70
0
9
$AUPREC
70
0
9
$CECOLOR
62
256
9
$CELTSCALE
40
1
9
$CELTYPE
6
ByLayer
9
$CELWEIGHT
370
18
9
$CLAYER
8
0
9
$CMLJUST
70
0
9
$CMLSCALE
40
1
9
$CMLSTYLE
2
Standard
9
$DIMSTYLE
2
Standard
9
$TEXTSIZE
40
0.2
9
$TEXTSTYLE
7
Standard
9
$LUNITS
70
2
9
$LUPREC
70
4
9
$EXTNAMES
290
1
9
$INSUNITS
70
4
9
$LTSCALE
40
1
9
$LWDISPLAY
290
1
9
$PDMODE
70
0
9
$PDSIZE
40
0
9
$PLINEGEN
70
0
0
ENDSEC
0
SECTION
2
CLASSES
0
CLASS
1
RASTERVARIABLES
2
AcDbRasterVariables
3
ISM
90
0
280
0
281
0
0
ENDSEC
0
SECTION
2
TABLES
0
TABLE
2
VPORT
5
2d5
100
AcDbSymbolTable
0
VPORT
5
1
100
AcDbSymbolTableRecord
100
AcDbViewportTableRecord
2
*Active
70
0
10
0
20
0
11
1
21
1
12
-1
22
1
13
0
23
0
14
0.5
24
0.5
15
10
25
10
16
0
26
0
36
1
17
0
27
0
37
0
0
ENDTAB
0
TABLE
2
LTYPE
5
2d6
100
AcDbSymbolTable
0
LTYPE
5
14
100
AcDbSymbolTableRecord
100
AcDbLinetypeTableRecord
70
0
2
ByBlock
3

72
65
73
0
40
0
0
LTYPE
5
15
100
AcDbSymbolTableRecord
100
AcDbLinetypeTableRecord
70
0
2
ByLayer
3

72
65
73
0
40
0
0
LTYPE
5
16
100
AcDbSymbolTableRecord
100
AcDbLinetypeTableRecord
70
0
2
Continuous
3
Solid line
72
65
73
0
40
0
0
LTYPE
5
6E
100
AcDbSymbolTableRecord
100
AcDbLinetypeTableRecord
70
0
2
CENTER
3
____ _ ____ _ ____ _ ____
72
65
73
4
40
47.5
49
22
74
0
49
-8.5
74
0
49
8.5
74
0
49
-8.5
74
0
0
LTYPE
5
6F
100
AcDbSymbolTableRecord
100
AcDbLinetypeTableRecord
70
0
2
DASHED
3
__ __ __ __ __ __ __ __ __
72
65
73
2
40
25.72
49
12.86
74
0
49
-12.86
74
0
0
ENDTAB
0
TABLE
2
LAYER
5
2d7
100
AcDbSymbolTable
0
LAYER
5
10
100
AcDbSymbolTableRecord
100
AcDbLayerTableRecord
2
0
70
0
62
7
6
Continuous
290
1
370
-3
390
0
0
LAYER
5
71
100
AcDbSymbolTableRecord
100
AcDbLayerTableRecord
2
2
70
0
62
7
6
Continuous
290
1
370
-3
390
0
0
LAYER
5
73
100
AcDbSymbolTableRecord
100
AcDbLayerTableRecord
2
80
70
0
62
-6
6
Continuous
290
1
370
-3
390
0
0
LAYER
5
75
100
AcDbSymbolTableRecord
100
AcDbLayerTableRecord
2
81
70
0
62
-3
6
Continuous
290
1
370
-3
390
0
0
LAYER
5
77
100
AcDbSymbolTableRecord
100
AcDbLayerTableRecord
2
1
70
0
62
4
6
Continuous
290
1
370
-3
390
0
0
LAYER
5
82
100
AcDbSymbolTableRecord
100
AcDbLayerTableRecord
2
4
70
0
62
-2
6
CENTER
290
1
370
-3
390
0
0
LAYER
5
21C
100
AcDbSymbolTableRecord
100
AcDbLayerTableRecord
2
Defpoints
70
0
62
7
6
Continuous
290
0
370
-3
390
0
0
LAYER
5
2c2
100
AcDbSymbolTableRecord
100
AcDbLayerTableRecord
2
SK1
70
0
62
4
6
Continuous
290
1
370
-3
390
0
0
LAYER
5
2c3
100
AcDbSymbolTableRecord
100
AcDbLayerTableRecord
2
SK2
70
0
62
7
6
Continuous
290
1
370
-3
390
0
0
LAYER
5
2c4
100
AcDbSymbolTableRecord
100
AcDbLayerTableRecord
2
SK6
70
0
62
5
6
Continuous
290
1
370
-3
390
0
0
ENDTAB
0
TABLE
2
STYLE
5
2d8
100
AcDbSymbolTable
0
STYLE
5
11
100
AcDbSymbolTableRecord
100
AcDbTextStyleTableRecord
2
Standard
3
txt
70
0
71
0
40
0
41
1
42
0
50
0
0
STYLE
5
1F9
100
AcDbSymbolTableRecord
100
AcDbTextStyleTableRecord
2
iso_b_vert
3
simplex.shx
70
0
71
0
40
0
41
1
42
0
50
0
0
STYLE
5
1FA
100
AcDbSymbolTableRecord
100
AcDbTextStyleTableRecord
2
DWGDirectTextStyle
3
simplex
70
0
71
0
40
0
41
1
42
0
50
0
0
ENDTAB
0
TABLE
2
DIMSTYLE
5
2d9
100
AcDbSymbolTable
100
AcDbDimStyleTable
0
DIMSTYLE
105
27
100
AcDbSymbolTableRecord
100
AcDbDimStyleTableRecord
2
Standard
70
0
3
<>
41
0.18
42
0.0625
44
0.18
140
0.18
147
0.09
73
0
74
0
77
1
271
2
275
0
278
52
280
0
340
11
0
ENDTAB
0
TABLE
2
VIEW
5
2da
100
AcDbSymbolTable
0
ENDTAB
0
TABLE
2
UCS
5
2db
100
AcDbSymbolTable
0
ENDTAB
0
TABLE
2
APPID
5
2dc
100
AcDbSymbolTable
0
APPID
5
12
100
AcDbSymbolTableRecord
100
AcDbRegAppTableRecord
2
ACAD
70
0
0
APPID
5
218
100
AcDbSymbolTableRecord
100
AcDbRegAppTableRecord
2
ACAD_DSTYLE_DIMBREAK
70
0
0
APPID
5
281
100
AcDbSymbolTableRecord
100
AcDbRegAppTableRecord
2
ACAD_DSTYLE_DIM_LINETYPE
70
0
0
APPID
5
282
100
AcDbSymbolTableRecord
100
AcDbRegAppTableRecord
2
ACAD_DSTYLE_DIM_EXT1_LINETYPE
70
0
0
APPID
5
283
100
AcDbSymbolTableRecord
100
AcDbRegAppTableRecord
2
ACAD_DSTYLE_DIM_EXT2_LINETYPE
70
0
0
APPID
5
2BE
100
AcDbSymbolTableRecord
100
AcDbRegAppTableRecord
2
ACAD_MLEADERVER
70
0
0
ENDTAB
0
TABLE
2
BLOCK_RECORD
5
2dd
100
AcDbSymbolTable
0
BLOCK_RECORD
5
1F
100
AcDbSymbolTableRecord
100
AcDbBlockTableRecord
2
*Model_Space
340
0
70
0
0
BLOCK_RECORD
5
1B
100
AcDbSymbolTableRecord
100
AcDbBlockTableRecord
2
*Paper_Space
340
0
70
0
0
BLOCK_RECORD
5
23
100
AcDbSymbolTableRecord
100
AcDbBlockTableRecord
2
*Paper_Space0
340
0
70
0
0
BLOCK_RECORD
5
21D
100
AcDbSymbolTableRecord
100
AcDbBlockTableRecord
2
*D1
340
0
70
0
0
BLOCK_RECORD
5
22A
100
AcDbSymbolTableRecord
100
AcDbBlockTableRecord
2
_U0
340
0
70
0
0
BLOCK_RECORD
5
236
100
AcDbSymbolTableRecord
100
AcDbBlockTableRecord
2
*D3
340
0
70
0
0
BLOCK_RECORD
5
242
100
AcDbSymbolTableRecord
100
AcDbBlockTableRecord
2
_U1
340
0
70
0
0
BLOCK_RECORD
5
24E
100
AcDbSymbolTableRecord
100
AcDbBlockTableRecord
2
*D5
340
0
70
0
0
BLOCK_RECORD
5
25A
100
AcDbSymbolTableRecord
100
AcDbBlockTableRecord
2
_U2
340
0
70
0
0
ENDTAB
0
ENDSEC
0
SECTION
2
BLOCKS
0
BLOCK
5
20
100
AcDbEntity
8
0
100
AcDbBlockBegin
2
*Model_Space
70
0
10
0
20
0
30
0
3
*Model_Space
0
ENDBLK
5
21
100
AcDbEntity
8
0
100
AcDbBlockEnd
0
BLOCK
5
1C
100
AcDbEntity
8
0
100
AcDbBlockBegin
2
*Paper_Space
70
0
10
0
20
0
30
0
3
*Paper_Space
0
ENDBLK
5
1D
100
AcDbEntity
8
0
100
AcDbBlockEnd
0
BLOCK
5
24
100
AcDbEntity
8
0
100
AcDbBlockBegin
2
*Paper_Space0
70
0
10
0
20
0
30
0
3
*Paper_Space0
0
ENDBLK
5
25
100
AcDbEntity
8
0
100
AcDbBlockEnd
0
BLOCK
5
21E
100
AcDbEntity
8
0
100
AcDbBlockBegin
2
*D1
70
1
10
0
20
0
30
0
3
*D1
0
LINE
5
220
100
AcDbEntity
8
0
62
256
6
ByLayer
370
-2
48
1
60
0
100
AcDbLine
10
84.3875
20
-6.5
30
0
11
116.755767
21
-6.5
31
0
39
0
210
0
220
0
230
1
0
LINE
5
221
100
AcDbEntity
8
0
62
256
6
ByLayer
370
-2
48
1
60
0
100
AcDbLine
10
84.3875
20
6.5
30
0
11
116.755767
21
6.5
31
0
39
0
210
0
220
0
230
1
0
LINE
5
222
100
AcDbEntity
8
0
62
256
6
ByLayer
370
-2
48
1
60
0
100
AcDbLine
10
114.755767
20
-10
30
0
11
114.755767
21
-13.5
31
0
39
0
210
0
220
0
230
1
0
LINE
5
223
100
AcDbEntity
8
0
62
256
6
ByLayer
370
-2
48
1
60
0
100
AcDbLine
10
114.755767
20
10
30
0
11
114.755767
21
13.5
31
0
39
0
210
0
220
0
230
1
0
SOLID
5
224
100
AcDbEntity
8
0
62
256
6
ByLayer
370
-1
48
1
60
0
100
AcDbTrace
10
115.3391
20
-10
30
0
11
114.172433
21
-10
31
0
12
114.755767
22
-6.5
32
0
13
114.755767
23
-6.5
33
0
39
0
210
0
220
0
230
1
0
SOLID
5
225
100
AcDbEntity
8
0
62
256
6
ByLayer
370
-1
48
1
60
0
100
AcDbTrace
10
114.172433
20
10
30
0
11
115.3391
21
10
31
0
12
114.755767
22
6.5
32
0
13
114.755767
23
6.5
33
0
39
0
210
0
220
0
230
1
0
MTEXT
5
226
100
AcDbEntity
8
0
62
256
6
ByLayer
370
18
48
1
60
0
100
AcDbMText
10
107.755767
20
0
30
0
210
0
220
0
230
1
1
\A1;13
40
3.5
41
0
44
1
50
90
71
5
72
5
7
iso_b_vert
0
POINT
5
227
100
AcDbEntity
8
Defpoints
62
0
6
ByLayer
370
-1
48
1
60
0
100
AcDbPoint
10
82.8
20
-6.5
30
0
39
0
210
0
220
0
230
1
50
360
0
POINT
5
228
100
AcDbEntity
8
Defpoints
62
0
6
ByLayer
370
-1
48
1
60
0
100
AcDbPoint
10
82.8
20
6.5
30
0
39
0
210
0
220
0
230
1
50
360
0
POINT
5
229
100
AcDbEntity
8
Defpoints
62
0
6
ByLayer
370
-1
48
1
60
0
100
AcDbPoint
10
114.755767
20
6.5
30
0
39
0
210
0
220
0
230
1
50
360
0
ENDBLK
5
21F
100
AcDbEntity
8
0
100
AcDbBlockEnd
0
BLOCK
5
231
100
AcDbEntity
8
0
100
AcDbBlockBegin
2
_U0
70
0
10
0
20
0
30
0
3
_U0
0
MTEXT
5
22B
100
AcDbEntity
8
2
62
256
6
ByLayer
370
18
48
1
60
0
100
AcDbMText
10
114.066133
20
-1.495533
30
0
210
0
220
0
230
1
1
\W0.5321;13
40
3.5
41
0
44
1.084337
50
90
71
7
72
5
7
iso_b_vert
0
LINE
5
22C
100
AcDbEntity
8
2
62
256
6
ByLayer
370
13
48
1
60
0
100
AcDbLine
10
84.3875
20
-6.5
30
0
11
116.755767
21
-6.5
31
0
39
0
210
0
220
0
230
1
0
LINE
5
22D
100
AcDbEntity
8
2
62
256
6
ByLayer
370
13
48
1
60
0
100
AcDbLine
10
84.3875
20
6.5
30
0
11
116.755767
21
6.5
31
0
39
0
210
0
220
0
230
1
0
LINE
5
22E
100
AcDbEntity
8
2
62
256
6
ByLayer
370
13
48
1
60
0
100
AcDbLine
10
114.755767
20
-6.5
30
0
11
114.755767
21
6.5
31
0
39
0
210
0
220
0
230
1
0
SOLID
5
22F
100
AcDbEntity
8
2
62
256
6
ByLayer
370
18
48
1
60
0
100
AcDbTrace
10
114.755767
20
-6.5
30
0
11
114.294983
21
-3.000002
31
0
12
115.21655
22
-2.999998
32
0
13
115.21655
23
-2.999998
33
0
39
0
210
0
220
0
230
1
0
SOLID
5
230
100
AcDbEntity
8
2
62
256
6
ByLayer
370
18
48
1
60
0
100
AcDbTrace
10
114.755767
20
6.5
30
0
11
115.21655
21
3.000002
31
0
12
114.294983
22
2.999998
32
0
13
114.294983
23
2.999998
33
0
39
0
210
0
220
0
230
1
0
ENDBLK
5
232
100
AcDbEntity
8
0
100
AcDbBlockEnd
0
BLOCK
5
237
100
AcDbEntity
8
0
100
AcDbBlockBegin
2
*D3
70
1
10
0
20
0
30
0
3
*D3
0
LINE
5
239
100
AcDbEntity
8
0
62
256
6
ByLayer
370
-2
48
1
60
0
100
AcDbLine
10
82.8
20
-8.0875
30
0
11
82.8
21
-40.163306
31
0
39
0
210
0
220
0
230
1
0
LINE
5
23A
100
AcDbEntity
8
0
62
256
6
ByLayer
370
-2
48
1
60
0
100
AcDbLine
10
13.9
20
-8.0875
30
0
11
13.9
21
-40.163306
31
0
39
0
210
0
220
0
230
1
0
LINE
5
23B
100
AcDbEntity
8
0
62
256
6
ByLayer
370
-2
48
1
60
0
100
AcDbLine
10
79.3
20
-38.163306
30
0
11
17.4
21
-38.163306
31
0
39
0
210
0
220
0
230
1
0
SOLID
5
23C
100
AcDbEntity
8
0
62
256
6
ByLayer
370
-1
48
1
60
0
100
AcDbTrace
10
79.3
20
-38.746639
30
0
11
79.3
21
-37.579973
31
0
12
82.8
22
-38.163306
32
0
13
82.8
23
-38.163306
33
0
39
0
210
0
220
0
230
1
0
SOLID
5
23D
100
AcDbEntity
8
0
62
256
6
ByLayer
370
-1
48
1
60
0
100
AcDbTrace
10
17.4
20
-37.579973
30
0
11
17.4
21
-38.746639
31
0
12
13.9
22
-38.163306
32
0
13
13.9
23
-38.163306
33
0
39
0
210
0
220
0
230
1
0
MTEXT
5
23E
100
AcDbEntity
8
0
62
256
6
ByLayer
370
18
48
1
60
0
100
AcDbMText
10
48.35
20
-31.163306
30
0
210
0
220
0
230
1
1
\A1;68.9
40
3.5
41
0
44
1
50
0
71
5
72
5
7
iso_b_vert
0
POINT
5
23F
100
AcDbEntity
8
Defpoints
62
0
6
ByLayer
370
-1
48
1
60
0
100
AcDbPoint
10
82.8
20
-6.5
30
0
39
0
210
0
220
0
230
1
50
360
0
POINT
5
240
100
AcDbEntity
8
Defpoints
62
0
6
ByLayer
370
-1
48
1
60
0
100
AcDbPoint
10
13.9
20
-6.5
30
0
39
0
210
0
220
0
230
1
50
360
0
POINT
5
241
100
AcDbEntity
8
Defpoints
62
0
6
ByLayer
370
-1
48
1
60
0
100
AcDbPoint
10
13.9
20
-38.163306
30
0
39
0
210
0
220
0
230
1
50
360
0
ENDBLK
5
238
100
AcDbEntity
8
0
100
AcDbBlockEnd
0
BLOCK
5
249
100
AcDbEntity
8
0
100
AcDbBlockBegin
2
_U1
70
0
10
0
20
0
30
0
3
_U1
0
MTEXT
5
243
100
AcDbEntity
8
SK2
62
256
6
ByLayer
370
18
48
1
60
0
100
AcDbMText
10
44.428301
20
-37.130672
30
0
210
0
220
0
230
1
1
\W0.7457;68.9
40
3.5
41
0
44
1.084337
50
0
71
7
72
5
7
iso_b_vert
0
LINE
5
244
100
AcDbEntity
8
SK2
62
256
6
ByLayer
370
13
48
1
60
0
100
AcDbLine
10
82.8
20
-8.0875
30
0
11
82.8
21
-40.163306
31
0
39
0
210
0
220
0
230
1
0
LINE
5
245
100
AcDbEntity
8
SK2
62
256
6
ByLayer
370
13
48
1
60
0
100
AcDbLine
10
13.9
20
-8.0875
30
0
11
13.9
21
-40.163306
31
0
39
0
210
0
220
0
230
1
0
LINE
5
246
100
AcDbEntity
8
SK2
62
256
6
ByLayer
370
13
48
1
60
0
100
AcDbLine
10
82.8
20
-38.163306
30
0
11
13.9
21
-38.163306
31
0
39
0
210
0
220
0
230
1
0
SOLID
5
247
100
AcDbEntity
8
SK2
62
256
6
ByLayer
370
18
48
1
60
0
100
AcDbTrace
10
82.8
20
-38.163306
30
0
11
79.300002
21
-38.62409
31
0
12
79.299998
22
-37.702522
32
0
13
79.299998
23
-37.702522
33
0
39
0
210
0
220
0
230
1
0
SOLID
5
248
100
AcDbEntity
8
SK2
62
256
6
ByLayer
370
18
48
1
60
0
100
AcDbTrace
10
13.9
20
-38.163306
30
0
11
17.399998
21
-37.702522
31
0
12
17.400002
22
-38.62409
32
0
13
17.400002
23
-38.62409
33
0
39
0
210
0
220
0
230
1
0
ENDBLK
5
24A
100
AcDbEntity
8
0
100
AcDbBlockEnd
0
BLOCK
5
24F
100
AcDbEntity
8
0
100
AcDbBlockBegin
2
*D5
70
1
10
0
20
0
30
0
3
*D5
0
LINE
5
251
100
AcDbEntity
8
0
62
256
6
ByLayer
370
-2
48
1
60
0
100
AcDbLine
10
82.8
20
-8.0875
30
0
11
82.8
21
-50.163306
31
0
39
0
210
0
220
0
230
1
0
LINE
5
252
100
AcDbEntity
8
0
62
256
6
ByLayer
370
-2
48
1
60
0
100
AcDbLine
10
12.4
20
-8.0875
30
0
11
12.4
21
-50.163306
31
0
39
0
210
0
220
0
230
1
0
LINE
5
253
100
AcDbEntity
8
0
62
256
6
ByLayer
370
-2
48
1
60
0
100
AcDbLine
10
79.3
20
-48.163306
30
0
11
15.9
21
-48.163306
31
0
39
0
210
0
220
0
230
1
0
SOLID
5
254
100
AcDbEntity
8
0
62
256
6
ByLayer
370
-1
48
1
60
0
100
AcDbTrace
10
79.3
20
-48.746639
30
0
11
79.3
21
-47.579973
31
0
12
82.8
22
-48.163306
32
0
13
82.8
23
-48.163306
33
0
39
0
210
0
220
0
230
1
0
SOLID
5
255
100
AcDbEntity
8
0
62
256
6
ByLayer
370
-1
48
1
60
0
100
AcDbTrace
10
15.9
20
-47.579973
30
0
11
15.9
21
-48.746639
31
0
12
12.4
22
-48.163306
32
0
13
12.4
23
-48.163306
33
0
39
0
210
0
220
0
230
1
0
MTEXT
5
256
100
AcDbEntity
8
0
62
256
6
ByLayer
370
18
48
1
60
0
100
AcDbMText
10
47.6
20
-41.163306
30
0
210
0
220
0
230
1
1
\A1;70.4
40
3.5
41
0
44
1
50
0
71
5
72
5
7
iso_b_vert
0
POINT
5
257
100
AcDbEntity
8
Defpoints
62
0
6
ByLayer
370
-1
48
1
60
0
100
AcDbPoint
10
82.8
20
-6.5
30
0
39
0
210
0
220
0
230
1
50
360
0
POINT
5
258
100
AcDbEntity
8
Defpoints
62
0
6
ByLayer
370
-1
48
1
60
0
100
AcDbPoint
10
12.4
20
-6.5
30
0
39
0
210
0
220
0
230
1
50
360
0
POINT
5
259
100
AcDbEntity
8
Defpoints
62
0
6
ByLayer
370
-1
48
1
60
0
100
AcDbPoint
10
12.4
20
-48.163306
30
0
39
0
210
0
220
0
230
1
50
360
0
ENDBLK
5
250
100
AcDbEntity
8
0
100
AcDbBlockEnd
0
BLOCK
5
261
100
AcDbEntity
8
0
100
AcDbBlockBegin
2
_U2
70
0
10
0
20
0
30
0
3
_U2
0
MTEXT
5
25B
100
AcDbEntity
8
SK2
62
256
6
ByLayer
370
18
48
1
60
0
100
AcDbMText
10
43.494034
20
-47.130672
30
0
210
0
220
0
230
1
1
\W0.7528;70.4
40
3.5
41
0
44
1.084337
50
0
71
7
72
5
7
iso_b_vert
0
LINE
5
25C
100
AcDbEntity
8
SK2
62
256
6
ByLayer
370
13
48
1
60
0
100
AcDbLine
10
82.8
20
-8.0875
30
0
11
82.8
21
-50.163306
31
0
39
0
210
0
220
0
230
1
0
LINE
5
25D
100
AcDbEntity
8
SK2
62
256
6
ByLayer
370
13
48
1
60
0
100
AcDbLine
10
12.4
20
-8.0875
30
0
11
12.4
21
-50.163306
31
0
39
0
210
0
220
0
230
1
0
LINE
5
25E
100
AcDbEntity
8
SK2
62
256
6
ByLayer
370
13
48
1
60
0
100
AcDbLine
10
82.8
20
-48.163306
30
0
11
12.4
21
-48.163306
31
0
39
0
210
0
220
0
230
1
0
SOLID
5
25F
100
AcDbEntity
8
SK2
62
256
6
ByLayer
370
18
48
1
60
0
100
AcDbTrace
10
82.8
20
-48.163306
30
0
11
79.300002
21
-48.62409
31
0
12
79.299998
22
-47.702522
32
0
13
79.299998
23
-47.702522
33
0
39
0
210
0
220
0
230
1
0
SOLID
5
260
100
AcDbEntity
8
SK2
62
256
6
ByLayer
370
18
48
1
60
0
100
AcDbTrace
10
12.4
20
-48.163306
30
0
11
15.899998
21
-47.702522
31
0
12
15.900002
22
-48.62409
32
0
13
15.900002
23
-48.62409
33
0
39
0
210
0
220
0
230
1
0
ENDBLK
5
262
100
AcDbEntity
8
0
100
AcDbBlockEnd
0
ENDSEC
0
SECTION
2
ENTITIES
0
ARC
5
FC
100
AcDbEntity
8
1
62
256
6
ByLayer
370
18
48
1
60
0
100
AcDbCircle
39
0
10
75.168669
20
-3.134337
30
0
40
0.23
210
0
220
0
230
1
100
AcDbArc
50
133.727959
51
153.994722
0
ARC
5
FD
100
AcDbEntity
8
1
62
256
6
ByLayer
370
13
48
1
60
0
100
AcDbCircle
39
0
10
75.168669
20
-3.134337
30
0
40
0.23
210
0
220
0
230
1
100
AcDbArc
50
121.349343
51
133.727966
0
ARC
5
FE
100
AcDbEntity
8
SK1
62
256
6
ByLayer
370
18
48
1
60
0
100
AcDbCircle
39
0
10
-0.15
20
8.14725
30
0
40
0.400000000000001
210
0
220
0
230
1
100
AcDbArc
50
270
51
292.024313
0
ARC
5
FF
100
AcDbEntity
8
SK1
62
256
6
ByLayer
370
18
48
1
60
0
100
AcDbCircle
39
0
10
-0.15
20
-8.14725
30
0
40
0.400000000000001
210
0
220
0
230
1
100
AcDbArc
50
67.975687
51
90
0
ARC
5
100
100
AcDbEntity
8
SK1
62
256
6
ByLayer
370
18
48
1
60
0
100
AcDbCircle
39
0
10
-1.375195
20
8.14725
30
0
40
0.400000000000001
210
0
220
0
230
1
100
AcDbArc
50
245
51
270
0
ARC
5
101
100
AcDbEntity
8
SK1
62
256
6
ByLayer
370
18
48
1
60
0
100
AcDbCircle
39
0
10
-1.375195
20
-8.14725
30
0
40
0.400000000000001
210
0
220
0
230
1
100
AcDbArc
50
90
51
115
0
ARC
5
102
100
AcDbEntity
8
SK1
62
256
6
ByLayer
370
18
48
1
60
0
100
AcDbCircle
39
0
10
-46.069289
20
-8.59725
30
0
40
0.799999999999992
210
0
220
0
230
1
100
AcDbArc
50
69
51
128.58302
0
ARC
5
103
100
AcDbEntity
8
SK1
62
256
6
ByLayer
370
18
48
1
60
0
100
AcDbCircle
39
0
10
-46.069289
20
8.59725
30
0
40
0.799999999999992
210
0
220
0
230
1
100
AcDbArc
50
231.41698
51
291
0
ARC
5
104
100
AcDbEntity
8
1
62
256
6
ByLayer
370
18
48
1
60
0
100
AcDbCircle
39
0
10
79.7548
20
-5.318077
30
0
40
0.23
210
0
220
0
230
1
100
AcDbArc
50
270.711286
51
0
0
ARC
5
105
100
AcDbEntity
8
1
62
256
6
ByLayer
370
18
48
1
60
0
100
AcDbCircle
39
0
10
79.957892
20
-4.688173
30
0
40
0.23
210
0
220
0
230
1
100
AcDbArc
50
297.53871
51
340.9023
0
ELLIPSE
5
106
100
AcDbEntity
8
1
62
256
6
ByLayer
370
18
48
1
60
0
100
AcDbEllipse
10
75.144484
20
-2.035325
30
0
11
-0.284424518999292
21
-1.55517494043369
31
0
210
0
220
0
230
1
40
0.021428
41
-0.829259699311839
42
-0.210818139845162
0
ELLIPSE
5
107
100
AcDbEntity
8
1
62
256
6
ByLayer
370
13
48
1
60
0
100
AcDbEllipse
10
76.055265
20
-2.299107
30
0
11
-0.0767463420078812
21
-0.419633259047218
31
0
210
0
220
0
230
1
40
0.021428
41
0.00391901690681543
42
0.269528012505652
0
ELLIPSE
5
108
100
AcDbEntity
8
1
62
256
6
ByLayer
370
13
48
1
60
0
100
AcDbEllipse
10
75.447976
20
-3.210583
30
0
11
4.93141226638738E-16
21
-0.7
31
0
210
0
220
0
230
1
40
0.999763
41
2.5237593733049
42
3.11829888676921
0
ELLIPSE
5
109
100
AcDbEntity
8
1
62
256
6
ByLayer
370
18
48
1
60
0
100
AcDbEllipse
10
75.447976
20
-3.210583
30
0
11
4.93141226638738E-16
21
-0.7
31
0
210
0
220
0
230
1
40
0.999763
41
2.34987947300841
42
2.5237591119792
0
ELLIPSE
5
10A
100
AcDbEntity
8
1
62
256
6
ByLayer
370
18
48
1
60
0
100
AcDbEllipse
10
75.480582
20
-3.210583
30
0
11
4.93141226638738E-16
21
-0.7
31
0
210
0
220
0
230
1
40
0.999763
41
-3.14157527655573
42
-2.66403590464723
0
ELLIPSE
5
10B
100
AcDbEntity
8
1
62
256
6
ByLayer
370
13
48
1
60
0
100
AcDbEllipse
10
75.480582
20
-3.210583
30
0
11
4.93141226638738E-16
21
-0.7
31
0
210
0
220
0
230
1
40
0.999763
41
2.34987947300841
42
-3.14157543685152
0
ELLIPSE
5
10C
100
AcDbEntity
8
1
62
256
6
ByLayer
370
13
48
1
60
0
100
AcDbEllipse
10
75.492606
20
-3.176088
30
0
11
0.676777200317626
21
-0.178808895556778
31
0
210
0
220
0
230
1
40
0.963675
41
1.04025097983241
42
3.14155547592183
0
ELLIPSE
5
10D
100
AcDbEntity
8
1
62
256
6
ByLayer
370
18
48
1
60
0
100
AcDbEllipse
10
71.678226
20
-0.001525
30
0
11
6.36031589149001
21
-6.25634714787652
31
0
210
0
220
0
230
1
40
0.166045
41
0.986201741112762
42
0.991995959079802
0
ELLIPSE
5
10E
100
AcDbEntity
8
1
62
256
6
ByLayer
370
13
48
1
60
0
100
AcDbEllipse
10
66.197859
20
-1.898019
30
0
11
-1
21
-3.21628574467825E-16
31
0
210
0
220
0
230
1
40
0.262046
41
-2.05808766342251
42
-1.5739329184627
0
ELLIPSE
5
10F
100
AcDbEntity
8
1
62
256
6
ByLayer
370
13
48
1
60
0
100
AcDbEllipse
10
14.367575
20
-2.680012
30
0
11
-1
21
-3.21628574467825E-16
31
0
210
0
220
0
230
1
40
0.370492
41
-1.57006171808545
42
-1.0864509079799
0
ELLIPSE
5
110
100
AcDbEntity
8
1
62
256
6
ByLayer
370
13
48
1
60
0
100
AcDbEllipse
10
14.367575
20
-2.680012
30
0
11
-0.266424629325899
21
-0.963855755229255
31
0
210
0
220
0
230
1
40
0.106425
41
-1.93574857973173
42
-1.48244916402306
0
ELLIPSE
5
111
100
AcDbEntity
8
1
62
256
6
ByLayer
370
13
48
1
60
0
100
AcDbEllipse
10
66.197859
20
-1.898019
30
0
11
-0.528195757887275
21
-0.849122630336683
31
0
210
0
220
0
230
1
40
0.139292
41
-1.79688230247382
42
-1.3327694880093
0
ELLIPSE
5
112
100
AcDbEntity
8
1
62
256
6
ByLayer
370
13
48
1
60
0
100
AcDbEllipse
10
80.383963
20
6.072375
30
0
11
-0.0996675452446612
21
-0.207283333688224
31
0
210
0
220
0
230
1
40
0.973841
41
3.13870751976223
42
-2.69187834608049
0
ELLIPSE
5
113
100
AcDbEntity
8
1
62
256
6
ByLayer
370
18
48
1
60
0
100
AcDbEllipse
10
74.5135
20
-5.889241
30
0
11
-0.23
21
-7.39745721275997E-17
31
0
210
0
220
0
230
1
40
0.990078
41
0.811318083865156
42
0.893819297892025
0
ELLIPSE
5
114
100
AcDbEntity
8
1
62
256
6
ByLayer
370
18
48
1
60
0
100
AcDbEllipse
10
74.515066
20
-2.815479
30
0
11
0.224717454693132
21
0.443566079567754
31
0
210
0
220
0
230
1
40
0.999983
41
-1.57342524766964
42
-1.55574790727262
0
ELLIPSE
5
115
100
AcDbEntity
8
1
62
256
6
ByLayer
370
13
48
1
60
0
100
AcDbEllipse
10
80.110109
20
-4.267973
30
0
11
-0.215232470352519
21
0.081086273227669
31
0
210
0
220
0
230
1
40
0.430104
41
3.14156943516927
42
-2.94987778770159
0
ELLIPSE
5
116
100
AcDbEntity
8
1
62
256
6
ByLayer
370
13
48
1
60
0
100
AcDbEllipse
10
79.957892
20
-4.688173
30
0
11
-0.217341270980995
21
0.0752513915377377
31
0
210
0
220
0
230
1
40
0.306778
41
3.14159157828695
42
-2.95986128195973
0
ELLIPSE
5
117
100
AcDbEntity
8
1
62
256
6
ByLayer
370
18
48
1
60
0
100
AcDbEllipse
10
74.515053
20
-2.81547
30
0
11
0.206381571965604
21
-0.452397238329887
31
0
210
0
220
0
230
1
40
0.999996
41
0.671244519452312
42
0.688921617868863
0
ELLIPSE
5
118
100
AcDbEntity
8
1
62
256
6
ByLayer
370
18
48
1
60
0
100
AcDbEllipse
10
75.436113
20
-0.010175
30
0
11
1.16652001807692
21
6.37536191964968
31
0
210
0
220
0
230
1
40
0.021083
41
-2.58687367712778
42
-2.09272609680138
0
ELLIPSE
5
119
100
AcDbEntity
8
1
62
256
6
ByLayer
370
13
48
1
60
0
100
AcDbEllipse
10
80.383963
20
-6.072375
30
0
11
0.0996675452446663
21
-0.207283333688221
31
0
210
0
220
0
230
1
40
0.973841
41
-0.000486366462643547
42
0.858735144121221
0
ELLIPSE
5
11A
100
AcDbEntity
8
1
62
256
6
ByLayer
370
13
48
1
60
0
100
AcDbEllipse
10
80.207396
20
-6.094559
30
0
11
-0.0704550211807653
21
-0.218943120445512
31
0
210
0
220
0
230
1
40
0.985077
41
0.324588743625141
42
1.60461157497113
0
ELLIPSE
5
11B
100
AcDbEntity
8
1
62
256
6
ByLayer
370
13
48
1
60
0
100
AcDbEllipse
10
80.207396
20
-6.094559
30
0
11
-0.21758023265066
21
0.0745576445422252
31
0
210
0
220
0
230
1
40
0.290926
41
-2.96081475005093
42
-1.83944442535381
0
ELLIPSE
5
11C
100
AcDbEntity
8
1
62
256
6
ByLayer
370
13
48
1
60
0
100
AcDbEllipse
10
80.207396
20
-6.094559
30
0
11
0.00264966306229299
21
0.229984737071085
31
0
210
0
220
0
230
1
40
0.345786
41
-3.08305940032253
42
-1.38652517623824
0
ELLIPSE
5
11D
100
AcDbEntity
8
1
62
256
6
ByLayer
370
13
48
1
60
0
100
AcDbEllipse
10
77.591152
20
0.068998
30
0
11
16.8274668734929
21
-1.33841162740556
31
0
210
0
220
0
230
1
40
0.355211
41
-1.38762591825685
42
-1.38177400596106
0
ELLIPSE
5
11E
100
AcDbEntity
8
1
62
256
6
ByLayer
370
13
48
1
60
0
100
AcDbEllipse
10
80.110109
20
-6.093334
30
0
11
0.00314246040537832
21
0.229978531481964
31
0
210
0
220
0
230
1
40
0.345434
41
-3.07680890115655
42
-1.38578461458985
0
ELLIPSE
5
11F
100
AcDbEntity
8
1
62
256
6
ByLayer
370
13
48
1
60
0
100
AcDbEllipse
10
79.7548
20
-6.044235
30
0
11
0.23
21
0
31
0
210
0
220
0
230
1
40
0.989607
41
-1.56206968053491
42
3.90220087675608E-15
0
ELLIPSE
5
120
100
AcDbEntity
8
1
62
256
6
ByLayer
370
13
48
1
60
0
100
AcDbEllipse
10
79.7548
20
-5.363815
30
0
11
-0.23
21
-7.39745721275997E-17
31
0
210
0
220
0
230
1
40
0.360549
41
3.14159265358979
42
-2.9949052080885
0
ELLIPSE
5
121
100
AcDbEntity
8
1
62
256
6
ByLayer
370
13
48
1
60
0
100
AcDbEllipse
10
79.7548
20
-5.912049
30
0
11
-0.23
21
-7.39745721275997E-17
31
0
210
0
220
0
230
1
40
0.360549
41
3.14159265358979
42
-1.57952297305488
0
ELLIPSE
5
122
100
AcDbEntity
8
1
62
256
6
ByLayer
370
13
48
1
60
0
100
AcDbEllipse
10
79.7548
20
-5.912049
30
0
11
0.23
21
0
31
0
210
0
220
0
230
1
40
0.967965
41
-1.56206968053491
42
0
0
ELLIPSE
5
123
100
AcDbEntity
8
1
62
256
6
ByLayer
370
13
48
1
60
0
100
AcDbEllipse
10
79.7548
20
-5.912049
30
0
11
0.00137728175257171
21
-0.229995876256454
31
0
210
0
220
0
230
1
40
0.01167
41
0.253810804283802
42
1.93957513624838
0
ELLIPSE
5
124
100
AcDbEntity
8
1
62
256
6
ByLayer
370
13
48
1
60
0
100
AcDbEllipse
10
78.719085
20
-5.918243
30
0
11
0.00137377832998124
21
-0.229995897209276
31
0
210
0
220
0
230
1
40
0.011664
41
0.255468952616028
42
1.93957531396182
0
ELLIPSE
5
125
100
AcDbEntity
8
1
62
256
6
ByLayer
370
13
48
1
60
0
100
AcDbEllipse
10
77.727641
20
-5.79279
30
0
11
-0.221084788687139
21
-0.0634154256562468
31
0
210
0
220
0
230
1
40
0.941897
41
1.31568893554906
42
1.83301732612853
0
ELLIPSE
5
126
100
AcDbEntity
8
1
62
256
6
ByLayer
370
13
48
1
60
0
100
AcDbEllipse
10
88.279318
20
-0.269251
30
0
11
10.4072560013671
21
5.77945284962754
31
0
210
0
220
0
230
1
40
0.166699
41
2.99556130332163
42
3.10300423644096
0
ELLIPSE
5
127
100
AcDbEntity
8
1
62
256
6
ByLayer
370
13
48
1
60
0
100
AcDbEllipse
10
79.7548
20
-5.318077
30
0
11
-0.00285521133419647
21
0.229982277074206
31
0
210
0
220
0
230
1
40
0.004235
41
2.62746724048586
42
-3.14140219753591
0
ELLIPSE
5
128
100
AcDbEntity
8
1
62
256
6
ByLayer
370
13
48
1
60
0
100
AcDbEllipse
10
77.727641
20
-5.55006
30
0
11
-0.224654275439419
21
0.0492996605139389
31
0
210
0
220
0
230
1
40
0.901836
41
1.77494101838597
42
2.2922694089654
0
ELLIPSE
5
129
100
AcDbEntity
8
1
62
256
6
ByLayer
370
13
48
1
60
0
100
AcDbEllipse
10
78.719085
20
-5.330927
30
0
11
-0.00285175106093979
21
0.229982320007183
31
0
210
0
220
0
230
1
40
0.004242
41
2.6291252748519
42
3.14099903818267
0
ELLIPSE
5
12A
100
AcDbEntity
8
1
62
256
6
ByLayer
370
13
48
1
60
0
100
AcDbEllipse
10
80.2948
20
-5.215589
30
0
11
-0.31
21
-9.97048580850257E-17
31
0
210
0
220
0
230
1
40
0.190809
41
0
42
1.22173047639606
0
ELLIPSE
5
12B
100
AcDbEntity
8
1
62
256
6
ByLayer
370
13
48
1
60
0
100
AcDbEllipse
10
80.466921
20
-5.337193
30
0
11
-0.21758023265066
21
0.0745576445422252
31
0
210
0
220
0
230
1
40
0.290926
41
-2.96081475005104
42
-1.83944442535375
0
ELLIPSE
5
12C
100
AcDbEntity
8
1
62
256
6
ByLayer
370
13
48
1
60
0
100
AcDbEllipse
10
79.7548
20
-5.318077
30
0
11
-0.23
21
-7.39745721275997E-17
31
0
210
0
220
0
230
1
40
0.870715
41
1.57952297305488
42
3.14159265358979
0
ELLIPSE
5
12D
100
AcDbEntity
8
1
62
256
6
ByLayer
370
13
48
1
60
0
100
AcDbEllipse
10
80.24102
20
-3.920487
30
0
11
0.215232470352519
21
-0.0810862732276688
31
0
210
0
220
0
230
1
40
0.430104
41
-2.32184205329489E-05
42
0.191714865888196
0
ELLIPSE
5
12E
100
AcDbEntity
8
1
62
256
6
ByLayer
370
13
48
1
60
0
100
AcDbEllipse
10
79.957892
20
-4.688173
30
0
11
0.106339989542832
21
-0.203940693889254
31
0
210
0
220
0
230
1
40
0.476515
41
-0.816438646689319
42
0.00597528304771713
0
ELLIPSE
5
12F
100
AcDbEntity
8
1
62
256
6
ByLayer
370
13
48
1
60
0
100
AcDbEllipse
10
79.7548
20
-4.949222
30
0
11
0.23
21
0
31
0
210
0
220
0
230
1
40
0.810323
41
-1.56206968053491
42
0
0
ELLIPSE
5
130
100
AcDbEntity
8
1
62
256
6
ByLayer
370
18
48
1
60
0
100
AcDbEllipse
10
81.023943
20
-2.377582
30
0
11
0.201837453295846
21
0.688315270988953
31
0
210
0
220
0
230
1
40
0.167571
41
2.6147320164407
42
-1.90899399274506
0
ELLIPSE
5
131
100
AcDbEntity
8
1
62
256
6
ByLayer
370
13
48
1
60
0
100
AcDbEllipse
10
80.512734
20
-4.149059
30
0
11
0.530610473218559
21
1.35844058966175
31
0
210
0
220
0
230
1
40
0.073807
41
1.73310759145283
42
2.05776899866013
0
ELLIPSE
5
132
100
AcDbEntity
8
1
62
256
6
ByLayer
370
13
48
1
60
0
100
AcDbEllipse
10
80.52142
20
-4.831373
30
0
11
0.554854294046356
21
1.88434610011953
31
0
210
0
220
0
230
1
40
0.166922
41
-1.8273750215554
42
1.15317550144493
0
ELLIPSE
5
133
100
AcDbEntity
8
1
62
256
6
ByLayer
370
13
48
1
60
0
100
AcDbEllipse
10
82.212877
20
-0.077067
30
0
11
1.78310707092558
21
6.08081840623052
31
0
210
0
220
0
230
1
40
0.167571
41
3.13721932733911
42
-2.99172442744757
0
ELLIPSE
5
134
100
AcDbEntity
8
1
62
256
6
ByLayer
370
18
48
1
60
0
100
AcDbEllipse
10
69.567422
20
-41.9
30
0
11
11.4223454977551
21
38.9530025735847
31
0
210
0
220
0
230
1
40
0.167571
41
0.02958135813017
42
0.0796368268972133
0
ELLIPSE
5
135
100
AcDbEntity
8
1
62
256
6
ByLayer
370
13
48
1
60
0
100
AcDbEllipse
10
75.168669
20
-3.134337
30
0
11
-0.11965860198768
21
0.19642255209205
31
0
210
0
220
0
230
1
40
0.287672
41
-1.12961768396096
42
-6.17350393016904E-08
0
ELLIPSE
5
136
100
AcDbEntity
8
1
62
256
6
ByLayer
370
18
48
1
60
0
100
AcDbEllipse
10
75.068434
20
-2.377582
30
0
11
0.126094219788095
21
0.68914060867407
31
0
210
0
220
0
230
1
40
0.021083
41
2.10435953177431
42
2.2468875861509
0
ELLIPSE
5
137
100
AcDbEntity
8
1
62
256
6
ByLayer
370
18
48
1
60
0
100
AcDbEllipse
10
74.985501
20
-3.100837
30
0
11
-0.0242782007661939
21
-0.132748222843955
31
0
210
0
220
0
230
1
40
0.021428
41
2.42321361237093
42
-3.11200757909981
0
ELLIPSE
5
138
100
AcDbEntity
8
1
62
256
6
ByLayer
370
13
48
1
60
0
100
AcDbEllipse
10
75.168669
20
-3.134337
30
0
11
0.206713366817209
21
-0.10084435521681
31
0
210
0
220
0
230
1
40
0.460581
41
1.79181830940706
42
2.66976562131387
0
ELLIPSE
5
139
100
AcDbEntity
8
1
62
256
6
ByLayer
370
13
48
1
60
0
100
AcDbEllipse
10
79.957892
20
-4.688173
30
0
11
0.229486769899228
21
-0.0153565113622527
31
0
210
0
220
0
230
1
40
0.76686
41
-1.51079081504842
42
-0.271335607416792
0
ELLIPSE
5
13A
100
AcDbEntity
8
1
62
256
6
ByLayer
370
13
48
1
60
0
100
AcDbEllipse
10
82.212877
20
-0.077067
30
0
11
1.7831070704584
21
6.08081840455794
31
0
210
0
220
0
230
1
40
0.167571
41
2.11160839174215
42
2.49493113872391
0
ELLIPSE
5
13B
100
AcDbEntity
8
1
62
256
6
ByLayer
370
13
48
1
60
0
100
AcDbEllipse
10
74.51505
20
-2.700471
30
0
11
0.00866016956740784
21
0.727198486776607
31
0
210
0
220
0
230
1
40
1
41
-2.20489005685736
42
-2.01276544656337
0
ELLIPSE
5
13C
100
AcDbEntity
8
1
62
256
6
ByLayer
370
18
48
1
60
0
100
AcDbEllipse
10
74.963517
20
-3.22909
30
0
11
-0.0335702315715805
21
-0.183555141688779
31
0
210
0
220
0
230
1
40
0.021428
41
1.67914082756326
42
2.3745167353043
0
ELLIPSE
5
13D
100
AcDbEntity
8
1
62
256
6
ByLayer
370
13
48
1
60
0
100
AcDbEllipse
10
75.095757
20
-3.253275
30
0
11
0.141467574298057
21
0.181347526650418
31
0
210
0
220
0
230
1
40
0.334641
41
1.1655623985617
42
1.35336879654933
0
ELLIPSE
5
13E
100
AcDbEntity
8
1
62
256
6
ByLayer
370
13
48
1
60
0
100
AcDbEllipse
10
75.095757
20
-3.253275
30
0
11
-0.183654290835207
21
0.138459746705738
31
0
210
0
220
0
230
1
40
0.418664
41
-1.26505579231891
42
-0.686299098337696
0
ELLIPSE
5
13F
100
AcDbEntity
8
1
62
256
6
ByLayer
370
18
48
1
60
0
100
AcDbEllipse
10
74.5135
20
-5.889985
30
0
11
0.23
21
0
31
0
210
0
220
0
230
1
40
1
41
-2.34143750202883
42
-2.29847786966784
0
ELLIPSE
5
140
100
AcDbEntity
8
1
62
256
6
ByLayer
370
18
48
1
60
0
100
AcDbEllipse
10
74.5135
20
5.889985
30
0
11
0.23
21
0
31
0
210
0
220
0
230
1
40
1
41
2.29764129649935
42
2.34389697459126
0
POINT
5
70
100
AcDbEntity
8
2
62
256
6
ByLayer
370
18
48
1
60
0
100
AcDbPoint
10
0
20
0
30
0
39
0
210
0
220
0
230
1
50
360
0
POINT
5
72
100
AcDbEntity
8
80
62
256
6
ByLayer
370
18
48
1
60
0
100
AcDbPoint
10
0
20
0
30
0
39
0
210
0
220
0
230
1
50
360
0
POINT
5
74
100
AcDbEntity
8
81
62
256
6
ByLayer
370
18
48
1
60
0
100
AcDbPoint
10
82.8
20
0
30
0
39
0
210
0
220
0
230
1
50
360
0
POINT
5
76
100
AcDbEntity
8
1
62
256
6
ByLayer
370
13
48
1
60
1
100
AcDbPoint
10
1.35
20
0
30
0
39
0
210
0
220
0
230
1
50
360
0
POINT
5
78
100
AcDbEntity
8
1
62
256
6
ByLayer
370
13
48
1
60
1
100
AcDbPoint
10
-49.5
20
0
30
0
39
0
210
0
220
0
230
1
50
360
0
POINT
5
79
100
AcDbEntity
8
1
62
256
6
ByLayer
370
18
48
1
60
1
100
AcDbPoint
10
82.8
20
-6.5
30
0
39
0
210
0
220
0
230
1
50
360
0
POINT
5
7A
100
AcDbEntity
8
1
62
256
6
ByLayer
370
18
48
1
60
1
100
AcDbPoint
10
82.8
20
6.5
30
0
39
0
210
0
220
0
230
1
50
360
0
POINT
5
7B
100
AcDbEntity
8
1
62
256
6
ByLayer
370
18
48
1
60
1
100
AcDbPoint
10
82.8
20
-6.5
30
0
39
0
210
0
220
0
230
1
50
360
0
POINT
5
7C
100
AcDbEntity
8
1
62
256
6
ByLayer
370
18
48
1
60
1
100
AcDbPoint
10
13.9
20
-6.5
30
0
39
0
210
0
220
0
230
1
50
360
0
POINT
5
7D
100
AcDbEntity
8
1
62
256
6
ByLayer
370
18
48
1
60
1
100
AcDbPoint
10
82.8
20
-6.5
30
0
39
0
210
0
220
0
230
1
50
360
0
POINT
5
7E
100
AcDbEntity
8
1
62
256
6
ByLayer
370
18
48
1
60
1
100
AcDbPoint
10
12.4
20
-6.5
30
0
39
0
210
0
220
0
230
1
50
360
0
SPLINE
5
141
100
AcDbEntity
8
1
62
256
6
ByLayer
370
18
48
1
60
0
100
AcDbSpline
70
4
71
3
72
20
73
16
40
0
40
0
40
0
40
0
40
0.123511153162395
40
0.123511153162395
40
0.415674102108262
40
0.415674102108262
40
0.561755576581196
40
0.561755576581196
40
0.70783705105413
40
0.70783705105413
40
0.853918525527064
40
0.853918525527064
40
0.926959262763532
40
0.926959262763532
40
1
40
1
40
1
40
1
41
1
10
74.8678333068655
20
3.30845826777886
30
0
41
1
10
74.8659426581637
20
3.31590746178628
30
0
41
1
10
74.8641097993705
20
3.32302625506395
30
0
41
1
10
74.8581426948331
20
3.34583327235708
30
0
41
1
10
74.8542806704566
20
3.35996513227923
30
0
41
1
10
74.8490848819274
20
3.3777482916131
30
0
41
1
10
74.8474563289337
20
3.38309143380675
30
0
41
1
10
74.8444523251443
20
3.39237969852115
30
0
41
1
10
74.8430737225755
20
3.39633807158373
30
0
41
1
10
74.840631622999
20
3.40250370143983
30
0
41
1
10
74.8395616164989
20
3.40473967150439
30
0
41
1
10
74.8383280638003
20
3.4060565620704
30
0
41
1
10
74.8379798306086
20
3.40615240995817
30
0
41
1
10
74.8374681142939
20
3.40533712259571
30
0
41
1
10
74.8373
20
3.40445122961427
30
0
41
1
10
74.8373
20
3.40264902704564
30
0
0
SPLINE
5
142
100
AcDbEntity
8
1
62
256
6
ByLayer
370
18
48
1
60
0
100
AcDbSpline
70
4
71
3
72
14
73
10
40
0
40
0
40
0
40
0
40
0.245067991137733
40
0.245067991137733
40
0.490135982275465
40
0.490135982275465
40
0.980271964550819
40
0.980271964550819
40
1
40
1
40
1
40
1
41
1
10
74.9477664300338
20
-2.95996198829894
30
0
41
1
10
74.9415947078327
20
-2.95012990377219
30
0
41
1
10
74.9357312663305
20
-2.94006651486313
30
0
41
1
10
74.9245946642056
20
-2.91951399599444
30
0
41
1
10
74.9193107013733
20
-2.90899841943516
30
0
41
1
10
74.9044650404036
20
-2.8772062643948
30
0
41
1
10
74.8958542762323
20
-2.85560519548241
30
0
41
1
10
74.8880437465463
20
-2.83284213254089
30
0
41
1
10
74.8877433254793
20
-2.83196090743346
30
0
41
1
10
74.887444685138
20
-2.83107923092547
30
0
0
SPLINE
5
143
100
AcDbEntity
8
1
62
256
6
ByLayer
370
18
48
1
60
0
100
AcDbSpline
70
4
71
3
72
8
73
4
40
0
40
0
40
0
40
0
40
1
40
1
40
1
40
1
41
1
10
74.6470922647371
20
3.26524761127408
30
0
41
1
10
74.7105296545892
20
3.29245387005335
30
0
41
1
10
74.7739308259662
20
3.31953584243502
30
0
41
1
10
74.8373
20
3.34648574020494
30
0
0
SPLINE
5
144
100
AcDbEntity
8
1
62
256
6
ByLayer
370
18
48
1
60
0
100
AcDbSpline
70
4
71
3
72
8
73
4
40
0
40
0
40
0
40
0
40
1
40
1
40
1
40
1
41
1
10
74.8373000000001
20
3.34648574020494
30
0
41
1
10
74.8373000000001
20
3.35384852389214
30
0
41
1
10
74.8373
20
3.36121115682093
30
0
41
1
10
74.8373
20
3.36857363920259
30
0
0
SPLINE
5
145
100
AcDbEntity
8
1
62
256
6
ByLayer
370
18
48
1
60
0
100
AcDbSpline
70
4
71
3
72
14
73
10
40
0
40
0
40
0
40
0
40
0.214942320498942
40
0.214942320498942
40
0.476628213665962
40
0.476628213665962
40
0.738314106832981
40
0.738314106832981
40
1
40
1
40
1
40
1
41
1
10
74.3899977103083
20
5.88489789310148
30
0
41
1
10
74.4213904867174
20
5.7070123438794
30
0
41
1
10
74.4529280028695
20
5.52857620105669
30
0
41
1
10
74.5231920298191
20
5.1316420411996
30
0
41
1
10
74.5619849980683
20
4.91290174339338
30
0
41
1
10
74.6399633568906
20
4.47404569390255
30
0
41
1
10
74.6791626223439
20
4.25385249992215
30
0
41
1
10
74.7579549195755
20
3.81211443391868
30
0
41
1
10
74.7975334897909
20
3.59065049018034
30
0
41
1
10
74.8373000000027
20
3.36857363918787
30
0
0
SPLINE
5
146
100
AcDbEntity
8
1
62
256
6
ByLayer
370
18
48
1
60
0
100
AcDbSpline
70
4
71
3
72
8
73
4
40
0
40
0
40
0
40
0
40
1
40
1
40
1
40
1
41
1
10
74.8582993245898
20
-3.53086548414453
30
0
41
1
10
74.8682345263242
20
-3.55194254014762
30
0
41
1
10
74.8788578695832
20
-3.57175942017838
30
0
41
1
10
74.8900489268306
20
-3.59051165866455
30
0
0
SPLINE
5
147
100
AcDbEntity
8
1
62
256
6
ByLayer
370
18
48
1
60
0
100
AcDbSpline
70
4
71
3
72
10
73
6
40
0
40
0
40
0
40
0
40
0.5
40
0.5
40
1
40
1
40
1
40
1
41
1
10
74.8125714193791
20
-3.35024122733756
30
0
41
1
10
74.8163144875252
20
-3.38579164391857
30
0
41
1
10
74.8219664603525
20
-3.41860085124009
30
0
41
1
10
74.8371549941353
20
-3.47882270998326
30
0
41
1
10
74.846689924212
20
-3.50623669566406
30
0
41
1
10
74.8582993245939
20
-3.53086548414291
30
0
0
SPLINE
5
148
100
AcDbEntity
8
1
62
256
6
ByLayer
370
18
48
1
60
0
100
AcDbSpline
70
4
71
3
72
8
73
4
40
0
40
0
40
0
40
0
40
1
40
1
40
1
40
1
41
1
10
76.1815674156267
20
-2.89700678641313
30
0
41
1
10
76.1819594553854
20
-2.8980055491086
30
0
41
1
10
76.1823618601828
20
-2.89900330820228
30
0
41
1
10
76.1827744431467
20
-2.89999999999989
30
0
0
SPLINE
5
149
100
AcDbEntity
8
1
62
256
6
ByLayer
370
18
48
1
60
0
100
AcDbSpline
70
2053
71
3
72
85
73
81
40
0
40
0
40
0
40
0
40
0.12500000000075
40
0.12500000000075
40
0.2500000000015
40
0.2500000000015
40
0.312500000001875
40
0.312500000001875
40
0.343750000002063
40
0.343750000002063
40
0.37500000000225
40
0.37500000000225
40
0.382812500002297
40
0.382812500002297
40
0.386718750002315
40
0.386718750002315
40
0.390625000002333
40
0.390625000002333
40
0.391601562502338
40
0.391601562502338
40
0.392089843752335
40
0.392089843752335
40
0.392578125002332
40
0.392578125002332
40
0.393066406252329
40
0.393066406252329
40
0.393554687502326
40
0.393554687502326
40
0.39453125000232
40
0.39453125000232
40
0.398437500002298
40
0.398437500002298
40
0.406250000002241
40
0.406250000002241
40
0.421875000002139
40
0.421875000002139
40
0.437500000002036
40
0.437500000002036
40
0.500000000001615
40
0.500000000001615
40
0.625000000000773
40
0.625000000000773
40
0.749999999999931
40
0.749999999999931
40
0.81249999999951
40
0.81249999999951
40
0.843749999999294
40
0.843749999999294
40
0.874999999999078
40
0.874999999999078
40
0.882812499999016
40
0.882812499999016
40
0.890624999998953
40
0.890624999998953
40
0.89257812499894
40
0.89257812499894
40
0.893554687498928
40
0.893554687498928
40
0.893798828123928
40
0.893798828123928
40
0.894042968748927
40
0.894042968748927
40
0.894531249998936
40
0.894531249998936
40
0.89648437499895
40
0.89648437499895
40
0.898437499998963
40
0.898437499998963
40
0.906249999999041
40
0.906249999999041
40
0.921874999999197
40
0.921874999999197
40
0.937499999999353
40
0.968749999999665
40
0.968749999999665
40
0.984374999999821
40
0.992187499999905
40
0.996093749999952
40
0.996093749999952
40
1
40
1
40
1
40
1
41
1
10
56.9603611534762
20
-0.548810907036252
30
0
41
1
10
56.8849807221836
20
-0.540360589626829
30
0
41
1
10
56.8096794618532
20
-0.531338204502021
30
0
41
1
10
56.6591714886413
20
-0.512576281978767
30
0
41
1
10
56.5839705274062
20
-0.502797551491739
30
0
41
1
10
56.4712963136966
20
-0.487184683942502
30
0
41
1
10
56.4337589887685
20
-0.481826203449629
30
0
41
1
10
56.377518173537
20
-0.473314176464186
30
0
41
1
10
56.3587836936004
20
-0.47039905556295
30
0
41
1
10
56.3213672801948
20
-0.464265623766352
30
0
41
1
10
56.3026680237019
20
-0.461121284340692
30
0
41
1
10
56.2794357802323
20
-0.456496020279218
30
0
41
1
10
56.2747983178057
20
-0.45553146568534
30
0
41
1
10
56.2678732098016
20
-0.453948277247093
30
0
41
1
10
56.265569060795
20
-0.453403130071877
30
0
41
1
10
56.2609864264276
20
-0.45222021108836
30
0
41
1
10
56.2586966132272
20
-0.451609100686738
30
0
41
1
10
56.2559257333774
20
-0.450586738922482
30
0
41
1
10
56.2553766585514
20
-0.450368722790614
30
0
41
1
10
56.2545864393728
20
-0.449978642290659
30
0
41
1
10
56.2543262569102
20
-0.44983820346414
30
0
41
1
10
56.2538450766796
20
-0.449498959355253
30
0
41
1
10
56.2535664849492
20
-0.449288238288062
30
0
41
1
10
56.2535625620274
20
-0.448713118650204
30
0
41
1
10
56.2538933580776
20
-0.448536459660573
30
0
41
1
10
56.2544368990676
20
-0.448310603257482
30
0
41
1
10
56.2547207805434
20
-0.448235957213114
30
0
41
1
10
56.2555824665782
20
-0.448043762248346
30
0
41
1
10
56.2561692666744
20
-0.447965499936004
30
0
41
1
10
56.2590929679957
20
-0.447648835186129
30
0
41
1
10
56.2614532403214
20
-0.447620219845419
30
0
41
1
10
56.2685143764249
20
-0.44759677989569
30
0
41
1
10
56.2732162695688
20
-0.447765935372018
30
0
41
1
10
56.2873179649751
20
-0.448406451502279
30
0
41
1
10
56.2967081927882
20
-0.449057125322383
30
0
41
1
10
56.3154671977513
20
-0.450502146723437
30
0
41
1
10
56.3248390133325
20
-0.451307390319471
30
0
41
1
10
56.3716780072895
20
-0.455548975377667
30
0
41
1
10
56.4090901163729
20
-0.459566808474307
30
0
41
1
10
56.5212149300385
20
-0.472249420852904
30
0
41
1
10
56.5958354010922
20
-0.481649449564088
30
0
41
1
10
56.7449435554182
20
-0.501375630642286
30
0
41
1
10
56.8194276021595
20
-0.511724661065557
30
0
41
1
10
56.9310169922062
20
-0.528005139919713
30
0
41
1
10
56.9681931373255
20
-0.533557154430696
30
0
41
1
10
57.0238996260632
20
-0.542193175786366
30
0
41
1
10
57.0424589328787
20
-0.545122815152212
30
0
41
1
10
57.0795426305801
20
-0.551172694510598
30
0
41
1
10
57.0980742304398
20
-0.554257904213586
30
0
41
1
10
57.1211526284192
20
-0.558526444409409
30
0
41
1
10
57.1257636120998
20
-0.55940295928076
30
0
41
1
10
57.1349637184517
20
-0.561262669363089
30
0
41
1
10
57.1395628064371
20
-0.562204314141241
30
0
41
1
10
57.145219686959
20
-0.563716021170478
30
0
41
1
10
57.1463509670209
20
-0.564032152625799
30
0
41
1
10
57.1479994878419
20
-0.564630180886923
30
0
41
1
10
57.1485756645691
20
-0.564815913085653
30
0
41
1
10
57.1491307207887
20
-0.565272663735271
30
0
41
1
10
57.149249756881
20
-0.565401481162752
30
0
41
1
10
57.1491689722649
20
-0.565667875004237
30
0
41
1
10
57.1490146890125
20
-0.565739733386209
30
0
41
1
10
57.1486107130911
20
-0.565900299942115
30
0
41
1
10
57.1483190805286
20
-0.565950587078191
30
0
41
1
10
57.1468799471412
20
-0.56616715990998
30
0
41
1
10
57.1457096918742
20
-0.566181713459429
30
0
41
1
10
57.1433796476773
20
-0.566205945035989
30
0
41
1
10
57.1422153179298
20
-0.566189457720668
30
0
41
1
10
57.136395094359
20
-0.566048141433185
30
0
41
1
10
57.1317430015428
20
-0.565764500276401
30
0
41
1
10
57.1178040169333
20
-0.564835355826375
30
0
41
1
10
57.1085256988551
20
-0.564052536920059
30
0
41
1
10
57.0899758202239
20
-0.562404129180152
30
0
41
1
10
57.0621689411253
20
-0.559768521424758
30
0
41
1
10
57.0343917669553
20
-0.556879355046419
30
0
41
1
10
57.0066237440239
20
-0.553910668147097
30
0
41
1
10
56.9927422457026
20
-0.55240454724256
30
0
41
1
10
56.9765506535326
20
-0.550616912734625
30
0
41
1
10
56.9696120804968
20
-0.549844809365538
30
0
41
1
10
56.964986509905
20
-0.54932880061142
30
0
41
1
10
56.9627167919541
20
-0.549074979455298
30
0
41
1
10
56.9603611534762
20
-0.548810907036252
30
0
0
SPLINE
5
14A
100
AcDbEntity
8
1
62
256
6
ByLayer
370
18
48
1
60
0
100
AcDbSpline
70
2053
71
3
72
87
73
83
40
0
40
0
40
0
40
0
40
0.0625000000003937
40
0.0625000000003937
40
0.125000000000788
40
0.125000000000788
40
0.156250000000984
40
0.156250000000984
40
0.171875000001083
40
0.171875000001083
40
0.179687500001132
40
0.179687500001132
40
0.181640625001144
40
0.181640625001144
40
0.18261718750115
40
0.18261718750115
40
0.183105468751153
40
0.183105468751153
40
0.183349609376151
40
0.183349609376151
40
0.183593750001149
40
0.183593750001149
40
0.184082031251145
40
0.184082031251145
40
0.18457031250114
40
0.18457031250114
40
0.185546875001142
40
0.185546875001142
40
0.187500000001136
40
0.187500000001136
40
0.195312500001142
40
0.195312500001142
40
0.203125000001148
40
0.203125000001148
40
0.218750000001172
40
0.218750000001172
40
0.250000000001208
40
0.250000000001208
40
0.312500000001281
40
0.312500000001281
40
0.375000000001354
40
0.375000000001354
40
0.500000000001488
40
0.500000000001488
40
0.562500000001561
40
0.562500000001561
40
0.625000000001634
40
0.625000000001634
40
0.65625000000167
40
0.65625000000167
40
0.671875000001683
40
0.671875000001683
40
0.679687500001695
40
0.679687500001695
40
0.681640625001695
40
0.681640625001695
40
0.682128906251698
40
0.682128906251698
40
0.682373046876701
40
0.682373046876701
40
0.682617187501705
40
0.682617187501705
40
0.683593750001699
40
0.683593750001699
40
0.687500000001672
40
0.687500000001672
40
0.69531250000163
40
0.69531250000163
40
0.703125000001588
40
0.718750000001505
40
0.718750000001505
40
0.750000000001337
40
0.750000000001337
40
0.812500000001003
40
0.812500000001003
40
0.875000000000669
40
0.875000000000669
40
0.937500000000334
40
0.937500000000334
40
0.968750000000167
40
0.968750000000167
40
1
40
1
40
1
40
1
41
1
10
58.5457372018011
20
-0.756435749849866
30
0
41
1
10
58.5078525752073
20
-0.751621985651497
30
0
41
1
10
58.4699892199495
20
-0.746677607068193
30
0
41
1
10
58.3943282839816
20
-0.736393128954148
30
0
41
1
10
58.3565265914656
20
-0.73107641670012
30
0
41
1
10
58.2999398278475
20
-0.722424931104655
30
0
41
1
10
58.2810952902747
20
-0.71943536438485
30
0
41
1
10
58.2529071976407
20
-0.714504941776482
30
0
41
1
10
58.2435259568627
20
-0.712799067450646
30
0
41
1
10
58.2295512647052
20
-0.709835134269298
30
0
41
1
10
58.2248946188551
20
-0.708812734277046
30
0
41
1
10
58.2191913552793
20
-0.707174949991497
30
0
41
1
10
58.2180551346179
20
-0.706827979293053
30
0
41
1
10
58.2164023218717
20
-0.706206532016239
30
0
41
1
10
58.2158578344516
20
-0.705986139893326
30
0
41
1
10
58.2150845915708
20
-0.705566313147045
30
0
41
1
10
58.214827549535
20
-0.705413146276101
30
0
41
1
10
58.214519575989
20
-0.705107585226301
30
0
41
1
10
58.2144278127202
20
-0.704990534865829
30
0
41
1
10
58.2143811626271
20
-0.704715833857733
30
0
41
1
10
58.2144528333498
20
-0.704579510730724
30
0
41
1
10
58.2147761640285
20
-0.704286071354289
30
0
41
1
10
58.2150720530869
20
-0.704187028015724
30
0
41
1
10
58.2156424121143
20
-0.704015167806801
30
0
41
1
10
58.2159355092317
20
-0.703951585340377
30
0
41
1
10
58.2168233135033
20
-0.703788007816399
30
0
41
1
10
58.2174191353187
20
-0.70371755595707
30
0
41
1
10
58.2192106580999
20
-0.703545832196397
30
0
41
1
10
58.2204108761111
20
-0.703488843160329
30
0
41
1
10
58.226422000792
20
-0.703300313529354
30
0
41
1
10
58.2312229840533
20
-0.703439570276203
30
0
41
1
10
58.240822972399
20
-0.703790537618772
30
0
41
1
10
58.2456216670832
20
-0.704038545530722
30
0
41
1
10
58.2600035316605
20
-0.704886865345856
30
0
41
1
10
58.2695774355061
20
-0.705594897843298
30
0
41
1
10
58.2982835170883
20
-0.707877083623828
30
0
41
1
10
58.3173988781122
20
-0.709630636871537
30
0
41
1
10
58.3747109877285
20
-0.71516970737855
30
0
41
1
10
58.4128618470229
20
-0.71927310159279
30
0
41
1
10
58.4891097689162
20
-0.727851198029072
30
0
41
1
10
58.5272056936864
20
-0.732342954157104
30
0
41
1
10
58.6414226738222
20
-0.746237815689824
30
0
41
1
10
58.7174674817992
20
-0.756041014262365
30
0
41
1
10
58.8314108444602
20
-0.771378551325142
30
0
41
1
10
58.8693702403551
20
-0.776602961438527
30
0
41
1
10
58.9452363218435
20
-0.787324786177891
30
0
41
1
10
58.9831493878825
20
-0.792805339307279
30
0
41
1
10
59.0399261194533
20
-0.801449355013943
30
0
41
1
10
59.0588382056722
20
-0.804390862203434
30
0
41
1
10
59.0871385106441
20
-0.809119836467175
30
0
41
1
10
59.0965670300793
20
-0.8107349601691
30
0
41
1
10
59.110628853384
20
-0.813453652688224
30
0
41
1
10
59.1153210779277
20
-0.814354360656267
30
0
41
1
10
59.1210635453478
20
-0.815903803604755
30
0
41
1
10
59.122225990242
20
-0.816205645843013
30
0
41
1
10
59.1235484290227
20
-0.816827290654032
30
0
41
1
10
59.1238458945201
20
-0.816949349729782
30
0
41
1
10
59.124046884311
20
-0.817306786025483
30
0
41
1
10
59.123963986467
20
-0.817447610273831
30
0
41
1
10
59.1237148857429
20
-0.817593921497576
30
0
41
1
10
59.1235704862255
20
-0.817638448842217
30
0
41
1
10
59.1228545437664
20
-0.817826201510741
30
0
41
1
10
59.1222521099981
20
-0.81787051155041
30
0
41
1
10
59.1192746384342
20
-0.818074128757928
30
0
41
1
10
59.1168793284518
20
-0.818005982280908
30
0
41
1
10
59.1097177139146
20
-0.81780258044634
30
0
41
1
10
59.1049508915505
20
-0.817525968960354
30
0
41
1
10
59.0954216119953
20
-0.816918171473105
30
0
41
1
10
59.0811412930133
20
-0.815884477733391
30
0
41
1
10
59.0668808716215
20
-0.814671716324739
30
0
41
1
10
59.0383711951526
20
-0.812144685230095
30
0
41
1
10
59.019379890969
20
-0.810320334556735
30
0
41
1
10
58.9624332885344
20
-0.804675324666704
30
0
41
1
10
58.9245018676392
20
-0.800670700582316
30
0
41
1
10
58.8486689579388
20
-0.792428720351921
30
0
41
1
10
58.8107690506795
20
-0.788180305458724
30
0
41
1
10
58.7349945292896
20
-0.779480778502233
30
0
41
1
10
58.6971207347099
20
-0.775030512250339
30
0
41
1
10
58.6403331281628
20
-0.768191943084531
30
0
41
1
10
58.621407796633
20
-0.765884637075118
30
0
41
1
10
58.5835657970477
20
-0.761208086466382
30
0
41
1
10
58.5646795150978
20
-0.758842631949022
30
0
41
1
10
58.5457372018011
20
-0.756435749849866
30
0
0
SPLINE
5
14B
100
AcDbEntity
8
1
62
256
6
ByLayer
370
13
48
1
60
0
100
AcDbSpline
70
4
71
3
72
184
73
180
40
0
40
0
40
0
40
0
40
0.0138713843522707
40
0.0138713843522707
40
0.0258580458928909
40
0.0258580458928909
40
0.0318513766632012
40
0.0318513766632012
40
0.0378447074335113
40
0.0378447074335113
40
0.0438380382038214
40
0.0438380382038214
40
0.0498313689741317
40
0.0498313689741317
40
0.0618180305147518
40
0.0618180305147518
40
0.0857913535959922
40
0.0857913535959922
40
0.109764676677233
40
0.109764676677233
40
0.133737999758474
40
0.133737999758474
40
0.157711322839714
40
0.157711322839714
40
0.181684645920954
40
0.181684645920954
40
0.205657969002195
40
0.205657969002195
40
0.229631292083435
40
0.229631292083435
40
0.253604615164676
40
0.253604615164676
40
0.277577938245916
40
0.277577938245916
40
0.301551261327156
40
0.301551261327156
40
0.313537922867777
40
0.313537922867777
40
0.319531253638087
40
0.319531253638087
40
0.325524584408397
40
0.325524584408397
40
0.331517915178707
40
0.331517915178707
40
0.337511245949017
40
0.337511245949017
40
0.349497907489638
40
0.349497907489638
40
0.373471230570878
40
0.373471230570878
40
0.397444553652119
40
0.397444553652119
40
0.409431215192739
40
0.409431215192739
40
0.415424545963049
40
0.415424545963049
40
0.42141787673336
40
0.42141787673336
40
0.42741120750367
40
0.42741120750367
40
0.43340453827398
40
0.43340453827398
40
0.4453911998146
40
0.4453911998146
40
0.469364522895841
40
0.469364522895841
40
0.493337845977082
40
0.493337845977082
40
0.505324507517702
40
0.505324507517702
40
0.511317838288011
40
0.511317838288011
40
0.514314503673166
40
0.514314503673166
40
0.517311169058322
40
0.517311169058322
40
0.520307834443477
40
0.520307834443477
40
0.523304499828632
40
0.523304499828632
40
0.529297830598942
40
0.529297830598942
40
0.541284492139562
40
0.541284492139562
40
0.565257815220803
40
0.565257815220803
40
0.589231138302043
40
0.589231138302043
40
0.601217799842664
40
0.601217799842664
40
0.607211130612974
40
0.607211130612974
40
0.610207795998129
40
0.610207795998129
40
0.613204461383284
40
0.613204461383284
40
0.616201126768439
40
0.616201126768439
40
0.619197792153594
40
0.619197792153594
40
0.625191122923904
40
0.625191122923904
40
0.637177784464525
40
0.637177784464525
40
0.661151107545765
40
0.661151107545765
40
0.685124430627005
40
0.685124430627005
40
0.697111092167626
40
0.697111092167626
40
0.703104422937936
40
0.703104422937936
40
0.706101088323091
40
0.706101088323091
40
0.709097753708246
40
0.709097753708246
40
0.712094419093401
40
0.712094419093401
40
0.715091084478557
40
0.715091084478557
40
0.721084415248867
40
0.721084415248867
40
0.733071076789487
40
0.733071076789487
40
0.757044399870729
40
0.757044399870729
40
0.781017722951971
40
0.781017722951971
40
0.793004384492591
40
0.793004384492591
40
0.798997715262902
40
0.798997715262902
40
0.801994380648057
40
0.801994380648057
40
0.804991046033212
40
0.804991046033212
40
0.807987711418368
40
0.807987711418368
40
0.810984376803523
40
0.810984376803523
40
0.816977707573833
40
0.816977707573833
40
0.828964369114454
40
0.828964369114454
40
0.852937692195695
40
0.852937692195695
40
0.876911015276937
40
0.876911015276937
40
0.888897676817558
40
0.888897676817558
40
0.894891007587868
40
0.894891007587868
40
0.897887672973023
40
0.897887672973023
40
0.900884338358179
40
0.900884338358179
40
0.903881003743334
40
0.903881003743334
40
0.906877669128488
40
0.906877669128488
40
0.912870999898798
40
0.912870999898798
40
0.924857661439418
40
0.924857661439418
40
0.948830984520658
40
0.948830984520658
40
0.972804307601897
40
0.972804307601897
40
0.984790969142516
40
0.984790969142516
40
0.990784299912826
40
0.990784299912826
40
0.993780965297981
40
0.993780965297981
40
0.996777630683136
40
0.996777630683136
40
0.999774296068291
40
0.999774296068291
40
1
40
1
40
1
40
1
41
1
10
39.6970620188044
20
1.27714747324907
30
0
41
1
10
39.7994722037387
20
1.27186331319163
30
0
41
1
10
39.9017980407084
20
1.26652432015231
30
0
41
1
10
40.0923848084591
20
1.25646172019481
30
0
41
1
10
40.1806677048612
20
1.25175298922758
30
0
41
1
10
40.3129923498249
20
1.24461892887862
30
0
41
1
10
40.3570839472422
20
1.24222907663966
30
0
41
1
10
40.4452334808693
20
1.23742485907016
30
0
41
1
10
40.4892359759107
20
1.23506126954254
30
0
41
1
10
40.5774286349199
20
1.2301055860467
30
0
41
1
10
40.6216237821949
20
1.22751276089616
30
0
41
1
10
40.7098787345598
20
1.2224019089405
30
0
41
1
10
40.7539939447862
20
1.21983311171064
30
0
41
1
10
40.8863019648693
20
1.21208677330705
30
0
41
1
10
40.9744571618694
20
1.20686930228817
30
0
41
1
10
41.2387658914336
20
1.19105790117189
30
0
41
1
10
41.4147625340155
20
1.18030528372569
30
0
41
1
10
41.7663040731966
20
1.15837386767248
30
0
41
1
10
41.9418489833648
20
1.14719510729535
30
0
41
1
10
42.2924544467036
20
1.1243985885952
30
0
41
1
10
42.4674609094995
20
1.11283686640257
30
0
41
1
10
42.8171736151033
20
1.08902642703052
30
0
41
1
10
42.9919752184991
20
1.07669751182141
30
0
41
1
10
43.3411035481827
20
1.05157792397415
30
0
41
1
10
43.5154842018743
20
1.03873145318923
30
0
41
1
10
43.8638381735228
20
1.01250615400244
30
0
41
1
10
44.0378114916049
20
0.999127383999934
30
0
41
1
10
44.3853120465174
20
0.971867322256088
30
0
41
1
10
44.5589325876094
20
0.957879094951181
30
0
41
1
10
44.905317134466
20
0.929844929542128
30
0
41
1
10
45.0781850428159
20
0.91564067312072
30
0
41
1
10
45.4237891289933
20
0.886316368234986
30
0
41
1
10
45.5964317863459
20
0.871303678680476
30
0
41
1
10
45.9413545948969
20
0.840669334093349
30
0
41
1
10
46.1136347225464
20
0.825047762237716
30
0
41
1
10
46.3717510038701
20
0.801218414685309
30
0
41
1
10
46.4577391233858
20
0.793209027242597
30
0
41
1
10
46.586641451222
20
0.78110195491044
30
0
41
1
10
46.6295955861104
20
0.777050757968851
30
0
41
1
10
46.715476602261
20
0.768918326960403
30
0
41
1
10
46.7584609112878
20
0.76476549697307
30
0
41
1
10
46.8441719336632
20
0.756717093177429
30
0
41
1
10
46.8869054826336
20
0.752806025500405
30
0
41
1
10
46.972472902112
20
0.744782440946778
30
0
41
1
10
47.0152492953287
20
0.740741632229799
30
0
41
1
10
47.1435555759234
20
0.728535909267976
30
0
41
1
10
47.2290625696816
20
0.720287716400321
30
0
41
1
10
47.4854841488859
20
0.695239408540544
30
0
41
1
10
47.6562993687656
20
0.678135945842683
30
0
41
1
10
47.9976215607217
20
0.643268628957003
30
0
41
1
10
48.1681284803468
20
0.625504886083377
30
0
41
1
10
48.4236247484212
20
0.598465556698415
30
0
41
1
10
48.5087461534211
20
0.58938671098295
30
0
41
1
10
48.6363581731633
20
0.575681362811082
30
0
41
1
10
48.6788838323201
20
0.571098391523861
30
0
41
1
10
48.7639111194997
20
0.561905219138936
30
0
41
1
10
48.8064985093007
20
0.557181092691934
30
0
41
1
10
48.8913055470301
20
0.548163050191505
30
0
41
1
10
48.9335319879303
20
0.543848222914249
30
0
41
1
10
49.0181450959573
20
0.534925885433921
30
0
41
1
10
49.060445952047
20
0.530432452035285
30
0
41
1
10
49.187330657329
20
0.516860403357498
30
0
41
1
10
49.2718966552004
20
0.507690056813232
30
0
41
1
10
49.5255166178219
20
0.479851863543786
30
0
41
1
10
49.6944926708498
20
0.460857250644551
30
0
41
1
10
50.0321979087218
20
0.422200682808352
30
0
41
1
10
50.2009270154298
20
0.402538866374812
30
0
41
1
10
50.4538039792648
20
0.372688484337829
30
0
41
1
10
50.5380601695784
20
0.362678623918612
30
0
41
1
10
50.6643862572858
20
0.347590824843195
30
0
41
1
10
50.7064852534138
20
0.342549380999998
30
0
41
1
10
50.7696186978136
20
0.334970935335406
30
0
41
1
10
50.7906606710053
20
0.332442072782811
30
0
41
1
10
50.832739517629
20
0.32737924310635
30
0
41
1
10
50.8538302828878
20
0.324770598946572
30
0
41
1
10
50.8957910634033
20
0.319847231942361
30
0
41
1
10
50.9166626731724
20
0.31752621918514
30
0
41
1
10
50.9585117856625
20
0.312717439330697
30
0
41
1
10
50.9794353731362
20
0.310304441580428
30
0
41
1
10
51.0422031688362
20
0.303040404222997
30
0
41
1
10
51.0840444116192
20
0.298164320983318
30
0
41
1
10
51.2095557475182
20
0.283442102551391
30
0
41
1
10
51.2932134659222
20
0.273502014591912
30
0
41
1
10
51.5441321871996
20
0.243355047910086
30
0
41
1
10
51.7113389644961
20
0.222821851357537
30
0
41
1
10
52.0455755495523
20
0.181139372809838
30
0
41
1
10
52.2126052611905
20
0.159990252676067
30
0
41
1
10
52.4629886588972
20
0.12798477764062
30
0
41
1
10
52.5464228960947
20
0.117269192736217
30
0
41
1
10
52.6715301501889
20
0.101146381380772
30
0
41
1
10
52.7132252168683
20
0.0957638619555041
30
0
41
1
10
52.7757563124933
20
0.0876802669682775
30
0
41
1
10
52.7965980936081
20
0.0849840985934804
30
0
41
1
10
52.8382777410164
20
0.0795889065364292
30
0
41
1
10
52.8591796806012
20
0.0767992961587538
30
0
41
1
10
52.90072327172
20
0.071579978812764
30
0
41
1
10
52.9213663849003
20
0.0691429815503852
30
0
41
1
10
52.9627798043126
20
0.0640707432337138
30
0
41
1
10
52.9834860157787
20
0.0615261958591589
30
0
41
1
10
53.045603134307
20
0.0538681617940711
30
0
41
1
10
53.0870125270767
20
0.048730283488851
30
0
41
1
10
53.2112344194485
20
0.0332261990852771
30
0
41
1
10
53.2940406563595
20
0.0227695577084432
30
0
41
1
10
53.5424315982593
20
-0.0089056443797233
30
0
41
1
10
53.7079888335925
20
-0.0304291148666778
30
0
41
1
10
54.0390073215502
20
-0.0739952901696768
30
0
41
1
10
54.2044684707309
20
-0.0960378167695808
30
0
41
1
10
54.4525649256804
20
-0.129280677800068
30
0
41
1
10
54.5352478108457
20
-0.140391603082492
30
0
41
1
10
54.6592449494623
20
-0.157077993501275
30
0
41
1
10
54.7005727952581
20
-0.1626434675469
30
0
41
1
10
54.7625573348136
20
-0.170993670224078
30
0
41
1
10
54.7832176430489
20
-0.173777403818235
30
0
41
1
10
54.8245357770341
20
-0.1793450407298
30
0
41
1
10
54.8452654991063
20
-0.182230114033899
30
0
41
1
10
54.8864348023169
20
-0.187595261198652
30
0
41
1
10
54.9068756486969
20
-0.190083227995842
30
0
41
1
10
54.9479012380469
20
-0.19527701988909
30
0
41
1
10
54.9684140661032
20
-0.197881559177716
30
0
41
1
10
55.0299526711794
20
-0.205717142700621
30
0
41
1
10
55.0709785709163
20
-0.210970152401075
30
0
41
1
10
55.1940568589378
20
-0.226809349377476
30
0
41
1
10
55.2761098636586
20
-0.237475691954927
30
0
41
1
10
55.5222710891501
20
-0.269734203358865
30
0
41
1
10
55.686381902472
20
-0.291585508691838
30
0
41
1
10
56.0145990061072
20
-0.33565980021919
30
0
41
1
10
56.1787051972656
20
-0.357882599600828
30
0
41
1
10
56.4248443324948
20
-0.391265665886891
30
0
41
1
10
56.5068872760135
20
-0.402401622061859
30
0
41
1
10
56.6299438778635
20
-0.41909054068455
30
0
41
1
10
56.6709614394237
20
-0.42465102103904
30
0
41
1
10
56.7324854621871
20
-0.432984670422144
30
0
41
1
10
56.7529930830081
20
-0.435761375799416
30
0
41
1
10
56.7940074889146
20
-0.44131188401866
30
0
41
1
10
56.8145926382801
20
-0.444192477464924
30
0
41
1
10
56.8554485807844
20
-0.449523058914963
30
0
41
1
10
56.8757203953525
20
-0.451981153550463
30
0
41
1
10
56.9164220332979
20
-0.457123750936631
30
0
41
1
10
56.936773477378
20
-0.459701344131474
30
0
41
1
10
56.9978297486899
20
-0.467452021529795
30
0
41
1
10
57.0385365169262
20
-0.472643003435678
30
0
41
1
10
57.1606650227741
20
-0.488279672936528
30
0
41
1
10
57.2420949920968
20
-0.498789072900251
30
0
41
1
10
57.4864201914736
20
-0.530509559640819
30
0
41
1
10
57.6493511618767
20
-0.55191260530566
30
0
41
1
10
57.9753095517308
20
-0.594903179648156
30
0
41
1
10
58.138336887925
20
-0.616490520271327
30
0
41
1
10
58.382941200758
20
-0.648773517103137
30
0
41
1
10
58.4644864268468
20
-0.659518298667678
30
0
41
1
10
58.5868180666751
20
-0.675582880664479
30
0
41
1
10
58.6275975752738
20
-0.680928986126958
30
0
41
1
10
58.6887700058938
20
-0.688931571237106
30
0
41
1
10
58.7091613438018
20
-0.691596338191601
30
0
41
1
10
58.7499450261478
20
-0.696919784101738
30
0
41
1
10
58.7704212136344
20
-0.699685714434594
30
0
41
1
10
58.8110391722626
20
-0.704781922906221
30
0
41
1
10
58.8311816822119
20
-0.707120124633519
30
0
41
1
10
58.8716369618546
20
-0.712020292781318
30
0
41
1
10
58.8918658776326
20
-0.714474891564748
30
0
41
1
10
58.9525565595096
20
-0.721851277714904
30
0
41
1
10
58.9930222621059
20
-0.726785654787278
30
0
41
1
10
59.1144358955186
20
-0.74163152768395
30
0
41
1
10
59.1954003840135
20
-0.751585754317603
30
0
41
1
10
59.4383651473186
20
-0.781558775445035
30
0
41
1
10
59.6004372196996
20
-0.801687596326303
30
0
41
1
10
59.9247874893585
20
-0.841921529509875
30
0
41
1
10
60.0870656303669
20
-0.862026458132362
30
0
41
1
10
60.3306371565719
20
-0.891937070833563
30
0
41
1
10
60.4118532702585
20
-0.901866259158794
30
0
41
1
10
60.5337148783807
20
-0.916671135246077
30
0
41
1
10
60.574341647913
20
-0.921591285769921
30
0
41
1
10
60.6352909792156
20
-0.928945966660194
30
0
41
1
10
60.6556089521443
20
-0.931393270218535
30
0
41
1
10
60.69624792344
20
-0.936278816420952
30
0
41
1
10
60.7166567828521
20
-0.938818716793406
30
0
41
1
10
60.757126047535
20
-0.943482284590232
30
0
41
1
10
60.7771868748521
20
-0.945613251148899
30
0
41
1
10
60.7988552656569
20
-0.948016751368073
30
0
41
1
10
60.8003729927449
20
-0.948185113107172
30
0
41
1
10
60.8018907310882
20
-0.948353488454757
30
0
0
SPLINE
5
14C
100
AcDbEntity
8
1
62
256
6
ByLayer
370
13
48
1
60
0
100
AcDbSpline
70
4
71
3
72
182
73
178
40
0
40
0
40
0
40
0
40
0.0004010204627203
40
0.0004010204627203
40
0.0241506813003832
40
0.0241506813003832
40
0.0479003421380465
40
0.0479003421380465
40
0.0716500029757094
40
0.0716500029757094
40
0.0953996638133723
40
0.0953996638133723
40
0.119149324651035
40
0.119149324651035
40
0.142898985488698
40
0.142898985488698
40
0.166648646326361
40
0.166648646326361
40
0.190398307164024
40
0.190398307164024
40
0.214147968001687
40
0.214147968001687
40
0.23789762883935
40
0.23789762883935
40
0.249772459258181
40
0.249772459258181
40
0.255709874467597
40
0.255709874467597
40
0.261647289677013
40
0.261647289677013
40
0.267584704886429
40
0.267584704886429
40
0.273522120095844
40
0.273522120095844
40
0.285396950514676
40
0.285396950514676
40
0.309146611352339
40
0.309146611352339
40
0.332896272190002
40
0.332896272190002
40
0.344771102608833
40
0.344771102608833
40
0.350708517818249
40
0.350708517818249
40
0.356645933027665
40
0.356645933027665
40
0.362583348237081
40
0.362583348237081
40
0.368520763446497
40
0.368520763446497
40
0.380395593865328
40
0.380395593865328
40
0.404145254702991
40
0.404145254702991
40
0.427894915540654
40
0.427894915540654
40
0.439769745959486
40
0.439769745959486
40
0.445707161168901
40
0.445707161168901
40
0.448675868773609
40
0.448675868773609
40
0.451644576378317
40
0.451644576378317
40
0.454613283983025
40
0.454613283983025
40
0.457581991587733
40
0.457581991587733
40
0.463519406797148
40
0.463519406797148
40
0.47539423721598
40
0.47539423721598
40
0.499143898053643
40
0.499143898053643
40
0.522893558891306
40
0.522893558891306
40
0.534768389310138
40
0.534768389310138
40
0.540705804519553
40
0.540705804519553
40
0.543674512124262
40
0.543674512124262
40
0.546643219728969
40
0.546643219728969
40
0.549611927333677
40
0.549611927333677
40
0.552580634938385
40
0.552580634938385
40
0.558518050147801
40
0.558518050147801
40
0.570392880566632
40
0.570392880566632
40
0.594142541404295
40
0.594142541404295
40
0.617892202241958
40
0.617892202241958
40
0.62976703266079
40
0.62976703266079
40
0.635704447870205
40
0.635704447870205
40
0.638673155474914
40
0.638673155474914
40
0.641641863079621
40
0.641641863079621
40
0.644610570684329
40
0.644610570684329
40
0.647579278289038
40
0.647579278289038
40
0.653516693498453
40
0.653516693498453
40
0.665391523917285
40
0.665391523917285
40
0.689141184754949
40
0.689141184754949
40
0.712890845592613
40
0.712890845592613
40
0.724765676011446
40
0.724765676011446
40
0.730703091220861
40
0.730703091220861
40
0.733671798825569
40
0.733671798825569
40
0.736640506430277
40
0.736640506430277
40
0.739609214034985
40
0.739609214034985
40
0.742577921639693
40
0.742577921639693
40
0.748515336849109
40
0.748515336849109
40
0.760390167267941
40
0.760390167267941
40
0.784139828105605
40
0.784139828105605
40
0.80788948894327
40
0.80788948894327
40
0.819764319362102
40
0.819764319362102
40
0.825701734571517
40
0.825701734571517
40
0.828670442176226
40
0.828670442176226
40
0.831639149780933
40
0.831639149780933
40
0.834607857385641
40
0.834607857385641
40
0.837576564990349
40
0.837576564990349
40
0.843513980199764
40
0.843513980199764
40
0.855388810618595
40
0.855388810618595
40
0.879138471456257
40
0.879138471456257
40
0.902888132293919
40
0.902888132293919
40
0.91476296271275
40
0.91476296271275
40
0.920700377922166
40
0.920700377922166
40
0.923669085526873
40
0.923669085526873
40
0.926637793131581
40
0.926637793131581
40
0.929606500736289
40
0.929606500736289
40
0.932575208340996
40
0.932575208340996
40
0.938512623550412
40
0.938512623550412
40
0.950387453969243
40
0.950387453969243
40
0.974137114806905
40
0.974137114806905
40
0.997886775644567
40
0.997886775644567
40
1
40
1
40
1
40
1
41
1
10
39.9122589128245
20
1.20213261484241
30
0
41
1
10
39.9152308204509
20
1.2019547487574
30
0
41
1
10
39.9182026831681
20
1.20177682222317
30
0
41
1
10
40.0971746611716
20
1.19105790117149
30
0
41
1
10
40.2730174337622
20
1.18030528372563
30
0
41
1
10
40.6243988668521
20
1.15837386767239
30
0
41
1
10
40.7999375138607
20
1.14719510729555
30
0
41
1
10
41.150720578278
20
1.12439858859486
30
0
41
1
10
41.3260190861421
20
1.1128368664024
30
0
41
1
10
41.6761150067542
20
1.08902642703052
30
0
41
1
10
41.8508170589813
20
1.07669751182235
30
0
41
1
10
42.1998784799532
20
1.0515779239731
30
0
41
1
10
42.3741839213488
20
1.03873145318903
30
0
41
1
10
42.7223683337765
20
1.01250615400249
30
0
41
1
10
42.8962473047423
20
0.99912738399982
30
0
41
1
10
43.2436012763305
20
0.971867322256088
30
0
41
1
10
43.4169829727374
20
0.957879094950613
30
0
41
1
10
43.7637366037982
20
0.929844929542583
30
0
41
1
10
43.9370046358979
20
0.915640673120663
30
0
41
1
10
44.2827970660067
20
0.886316368234901
30
0
41
1
10
44.4554149845208
20
0.871303678678203
30
0
41
1
10
44.8001288955511
20
0.840669334095509
30
0
41
1
10
44.9722249116452
20
0.825047762237773
30
0
41
1
10
45.2300027211776
20
0.801218414685195
30
0
41
1
10
45.3158676111616
20
0.793209027242483
30
0
41
1
10
45.4445764162988
20
0.781101954910412
30
0
41
1
10
45.4874645955273
20
0.777050757968851
30
0
41
1
10
45.5732119388332
20
0.768918326960289
30
0
41
1
10
45.6160136751533
20
0.764765496972927
30
0
41
1
10
45.7018183330171
20
0.7567170931774
30
0
41
1
10
45.7448144189424
20
0.752806025500348
30
0
41
1
10
45.8306498476013
20
0.744782440946693
30
0
41
1
10
45.8735466676263
20
0.740741632229685
30
0
41
1
10
46.0021753774719
20
0.728535909268004
30
0
41
1
10
46.0878455116271
20
0.720287716400179
30
0
41
1
10
46.344616584571
20
0.69523940854063
30
0
41
1
10
46.5154781573457
20
0.678135945845725
30
0
41
1
10
46.8566055494227
20
0.64326862895382
30
0
41
1
10
47.0268714211816
20
0.62550488608295
30
0
41
1
10
47.2818558014545
20
0.598465556698528
30
0
41
1
10
47.3667815227824
20
0.58938671098278
30
0
41
1
10
47.4940704906262
20
0.575681362811054
30
0
41
1
10
47.5364835436814
20
0.571098391523805
30
0
41
1
10
47.6212771024195
20
0.561905219138851
30
0
41
1
10
47.6635718463244
20
0.557181092691934
30
0
41
1
10
47.7484724863002
20
0.548163050191363
30
0
41
1
10
47.7910715893964
20
0.543848222914164
30
0
41
1
10
47.8760531075283
20
0.534925885433864
30
0
41
1
10
47.9185213335969
20
0.530432452035171
30
0
41
1
10
48.0458593738487
20
0.516860403357555
30
0
41
1
10
48.1306625383931
20
0.507690056813033
30
0
41
1
10
48.3848135937045
20
0.479851863543985
30
0
41
1
10
48.5539029268235
20
0.460857250644494
30
0
41
1
10
48.8914393934638
20
0.422200682808295
30
0
41
1
10
49.0598866050921
20
0.402538866374471
30
0
41
1
10
49.3121134557369
20
0.372688484337914
30
0
41
1
10
49.3961150930713
20
0.362678623918697
30
0
41
1
10
49.5220113483148
20
0.347590824843053
30
0
41
1
10
49.5639590667448
20
0.342549380999913
30
0
41
1
10
49.6268546904565
20
0.334970935335349
30
0
41
1
10
49.6478155726795
20
0.332442072782726
30
0
41
1
10
49.6897287849611
20
0.327379243106264
30
0
41
1
10
49.7106272231904
20
0.324770598946572
30
0
41
1
10
49.7526312137132
20
0.319847231942219
30
0
41
1
10
49.7737351714894
20
0.317526219185055
30
0
41
1
10
49.8158235912439
20
0.31271743933064
30
0
41
1
10
49.8368619684626
20
0.310304441580371
30
0
41
1
10
49.8999597122045
20
0.303040404222912
30
0
41
1
10
49.9420016895164
20
0.298164320983346
30
0
41
1
10
50.0680589924161
20
0.283442102551106
30
0
41
1
10
50.152005671187
20
0.273502014592026
30
0
41
1
10
50.4035792320209
20
0.24335504790966
30
0
41
1
10
50.570939430172
20
0.222821851357565
30
0
41
1
10
50.9049979792801
20
0.181139372809667
30
0
41
1
10
51.0716964263013
20
0.159990252675726
30
0
41
1
10
51.3212888603539
20
0.127984777640677
30
0
41
1
10
51.4044104993484
20
0.117269192735989
30
0
41
1
10
51.5289845462858
20
0.101146381380801
30
0
41
1
10
51.5704911610624
20
0.0957638619553336
30
0
41
1
10
51.6327246578501
20
0.087680266968249
30
0
41
1
10
51.653464752571
20
0.0849840985932815
30
0
41
1
10
51.6949362466716
20
0.0795889065365145
30
0
41
1
10
51.7156035727508
20
0.0767992961586401
30
0
41
1
10
51.757185935886
20
0.0715799788127072
30
0
41
1
10
51.7780995112872
20
0.0691429815502715
30
0
41
1
10
51.8197869423643
20
0.0640707432337138
30
0
41
1
10
51.8406248927956
20
0.0615261958582778
30
0
41
1
10
51.9031215455555
20
0.0538681617956911
30
0
41
1
10
51.9447630477317
20
0.0487302834887657
30
0
41
1
10
52.0696195873299
20
0.0332261990852487
30
0
41
1
10
52.1527666345117
20
0.0227695577081306
30
0
41
1
10
52.4019433717209
20
-0.008905644379297
30
0
41
1
10
52.5677083581083
20
-0.0304291148668483
30
0
41
1
10
52.8985809897467
20
-0.0739952901696199
30
0
41
1
10
53.0636887383437
20
-0.0960378167697797
30
0
41
1
10
53.3108999906721
20
-0.129280677800068
30
0
41
1
10
53.3932287346697
20
-0.140391603082748
30
0
41
1
10
53.5166150491519
20
-0.157077993501247
30
0
41
1
10
53.5577260225998
20
-0.162643467546985
30
0
41
1
10
53.6193665166537
20
-0.170993670224135
30
0
41
1
10
53.6399090204046
20
-0.173777403818349
30
0
41
1
10
53.6809854957124
20
-0.179345040729828
30
0
41
1
10
53.7014475709359
20
-0.182230114033928
30
0
41
1
10
53.7426508980367
20
-0.187595261198737
30
0
41
1
10
53.7633908846614
20
-0.190083227995814
30
0
41
1
10
53.8047160634506
20
-0.195277019889204
30
0
41
1
10
53.8253731705155
20
-0.197881559177773
30
0
41
1
10
53.887328123614
20
-0.205717142700706
30
0
41
1
10
53.9286095996974
20
-0.210970152401188
30
0
41
1
10
54.0523892472274
20
-0.226809349377419
30
0
41
1
10
54.1348226102535
20
-0.237475691955069
30
0
41
1
10
54.3818700954766
20
-0.26973420335878
30
0
41
1
10
54.5462312324394
20
-0.291585508691497
30
0
41
1
10
54.8743243168676
20
-0.335659800219673
30
0
41
1
10
55.0380563633817
20
-0.357882599600771
30
0
41
1
10
55.2832248010306
20
-0.391265665887005
30
0
41
1
10
55.3648760844926
20
-0.402401622062087
30
0
41
1
10
55.4872515648181
20
-0.41909054068455
30
0
41
1
10
55.528026487581
20
-0.424651021039239
30
0
41
1
10
55.589164275188
20
-0.432984670422144
30
0
41
1
10
55.609539438461
20
-0.435761375799501
30
0
41
1
10
55.6502816951202
20
-0.441311884018688
30
0
41
1
10
55.6705704242116
20
-0.444192477465009
30
0
41
1
10
55.7114533994082
20
-0.449523058915048
30
0
41
1
10
55.7320466240685
20
-0.451981153550548
30
0
41
1
10
55.7730663062625
20
-0.45712375093666
30
0
41
1
10
55.7935711430765
20
-0.459701344131304
30
0
41
1
10
55.8550706983142
20
-0.467452021530335
30
0
41
1
10
55.8960504595484
20
-0.472643003435849
30
0
41
1
10
56.018930448266
20
-0.488279672936528
30
0
41
1
10
56.100771350089
20
-0.498789072898717
30
0
41
1
10
56.3460621545222
20
-0.530509559644059
30
0
41
1
10
56.5092797069844
20
-0.551912605306114
30
0
41
1
10
56.8351354884749
20
-0.594903179647815
30
0
41
1
10
56.9977738006234
20
-0.616490520271327
30
0
41
1
10
57.2413368680619
20
-0.648773517103194
30
0
41
1
10
57.3224589199712
20
-0.659518298667621
30
0
41
1
10
57.4440493070461
20
-0.675582880664592
30
0
41
1
10
57.4845639923743
20
-0.680928986126929
30
0
41
1
10
57.5453136155013
20
-0.688931571237191
30
0
41
1
10
57.5655597559728
20
-0.691596338191658
30
0
41
1
10
57.6060446989066
20
-0.696919784101794
30
0
41
1
10
57.6261996583042
20
-0.699685714434708
30
0
41
1
10
57.6668377428614
20
-0.704781922906335
30
0
41
1
10
57.6873201291964
20
-0.707120124633519
30
0
41
1
10
57.7281084845359
20
-0.712020292781432
30
0
41
1
10
57.7484983074379
20
-0.714474891564834
30
0
41
1
10
57.8096547447203
20
-0.721851277714904
30
0
41
1
10
57.8504083256638
20
-0.726785654787335
30
0
41
1
10
57.972617271251
20
-0.741631527684007
30
0
41
1
10
58.0540208064833
20
-0.751585754317432
30
0
41
1
10
58.2980279554431
20
-0.78155877544549
30
0
41
1
10
58.4604276124791
20
-0.801687596326616
30
0
41
1
10
58.7847159921236
20
-0.841921529509676
30
0
41
1
10
58.9466047708474
20
-0.862026458132448
30
0
41
1
10
59.1890907278695
20
-0.89193707083362
30
0
41
1
10
59.2698616258046
20
-0.901866259160187
30
0
41
1
10
59.3909367749029
20
-0.916671135245451
30
0
41
1
10
59.4312816310444
20
-0.921591285769381
30
0
41
1
10
59.4917793561937
20
-0.928945966660535
30
0
41
1
10
59.5119420050582
20
-0.931393270218621
30
0
41
1
10
59.552260909669
20
-0.93627881642098
30
0
41
1
10
59.5723293043506
20
-0.93881871679352
30
0
41
1
10
59.6128112731732
20
-0.943482284590289
30
0
41
1
10
59.6332244252473
20
-0.945613251149013
30
0
41
1
10
59.6738678615835
20
-0.950083555575134
30
0
41
1
10
59.6941860130901
20
-0.952321128618848
30
0
41
1
10
59.7551297737596
20
-0.959040235899039
30
0
41
1
10
59.7957446871328
20
-0.963528158109341
30
0
41
1
10
59.917546764
20
-0.977010500662942
30
0
41
1
10
59.9986912320582
20
-0.986023485489937
30
0
41
1
10
60.2419559655393
20
-1.01308126491116
30
0
41
1
10
60.4039070293432
20
-1.031144566476
30
0
41
1
10
60.7273819269767
20
-1.06703100694148
30
0
41
1
10
60.8889057814456
20
-1.08485396887588
30
0
41
1
10
61.0645912308701
20
-1.10398082501496
30
0
41
1
10
61.0789447441202
20
-1.10554161028068
30
0
41
1
10
61.0932967482152
20
-1.10710025585985
30
0
0
SPLINE
5
14D
100
AcDbEntity
8
1
62
256
6
ByLayer
370
18
48
1
60
0
100
AcDbSpline
70
4
71
3
72
67
73
63
40
0
40
0
40
0
40
0
40
0.0223996605289567
40
0.0223996605289567
40
0.0623277890469657
40
0.0623277890469657
40
0.102255917564974
40
0.102255917564974
40
0.142184046082983
40
0.142184046082983
40
0.182112174600992
40
0.182112174600992
40
0.222040303119001
40
0.222040303119001
40
0.26196843163701
40
0.26196843163701
40
0.341824688673028
40
0.341824688673028
40
0.381752817191037
40
0.381752817191037
40
0.421680945709046
40
0.421680945709046
40
0.501537202745064
40
0.501537202745064
40
0.521501267004069
40
0.521501267004069
40
0.541465331263073
40
0.541465331263073
40
0.581393459781081
40
0.581393459781081
40
0.601357524040085
40
0.601357524040085
40
0.621321588299089
40
0.621321588299089
40
0.661249716817096
40
0.661249716817096
40
0.6812137810761
40
0.6812137810761
40
0.701177845335105
40
0.701177845335105
40
0.741105973853114
40
0.741105973853114
40
0.761070038112118
40
0.761070038112118
40
0.781034102371122
40
0.781034102371122
40
0.820962230889132
40
0.820962230889132
40
0.860890359407141
40
0.860890359407141
40
0.880854423666145
40
0.880854423666145
40
0.90081848792515
40
0.90081848792515
40
0.940746616443158
40
0.95072864857266
40
0.95072864857266
40
0.960710680702162
40
0.960710680702162
40
0.980674744961165
40
0.980674744961165
40
1
40
1
40
1
40
1
41
1
10
37.1986598140211
20
2.01689162578492
30
0
41
1
10
37.3663881653344
20
2.01463324833711
30
0
41
1
10
37.5341021415506
20
2.01215667173287
30
0
41
1
10
38.0007222751211
20
2.00464284943968
30
0
41
1
10
38.2995858587497
20
1.99915775246114
30
0
41
1
10
38.8972419361128
20
1.98660750901567
30
0
41
1
10
39.196026672384
20
1.97954635751796
30
0
41
1
10
39.7934950511138
20
1.96373320063785
30
0
41
1
10
40.0921732387017
20
1.95497542422896
30
0
41
1
10
40.6894389624103
20
1.9356978449315
30
0
41
1
10
40.9880138028154
20
1.92516706951398
30
0
41
1
10
41.5850311795228
20
1.9021525859084
30
0
41
1
10
41.8834760676004
20
1.88967459777643
30
0
41
1
10
42.480231558635
20
1.86264708480724
30
0
41
1
10
42.7785436874514
20
1.84810596607178
30
0
41
1
10
43.6733135218969
20
1.80119203498151
30
0
41
1
10
44.2696045000432
20
1.76555575525214
30
0
41
1
10
45.1634922873854
20
1.70480598883984
30
0
41
1
10
45.4613760941202
20
1.68334222198104
30
0
41
1
10
46.0570178569214
20
1.63795299416333
30
0
41
1
10
46.3547821081771
20
1.61404774492962
30
0
41
1
10
47.2478675610216
20
1.53826351901597
30
0
41
1
10
47.8428638109556
20
1.48246068640077
30
0
41
1
10
48.586268677251
20
1.40641056069944
30
0
41
1
10
48.734925923645
20
1.39080891133685
30
0
41
1
10
49.0321948629109
20
1.3589449860014
30
0
41
1
10
49.1808080513819
20
1.34267273366905
30
0
41
1
10
49.6265975464752
20
1.29286229377641
30
0
41
1
10
49.9237424213554
20
1.25833251898393
30
0
41
1
10
50.3693415592466
20
1.20471027564324
30
0
41
1
10
50.5178586509589
20
1.18656359338922
30
0
41
1
10
50.8148257205211
20
1.14947580156155
30
0
41
1
10
50.9632780828179
20
1.13058151864627
30
0
41
1
10
51.4085616305839
20
1.07292889481602
30
0
41
1
10
51.7053183049366
20
1.03318862333691
30
0
41
1
10
52.15037877647
20
0.971905170990397
30
0
41
1
10
52.2987199337954
20
0.951199563355544
30
0
41
1
10
52.5953893516505
20
0.90928117399244
30
0
41
1
10
52.7437113271603
20
0.887997437177916
30
0
41
1
10
53.1886055861484
20
0.823136496663579
30
0
41
1
10
53.4851212706055
20
0.778651278046056
30
0
41
1
10
53.9297397885404
20
0.710499321924999
30
0
41
1
10
54.077925713897
20
0.687544130303678
30
0
41
1
10
54.3742727972755
20
0.641236360840821
30
0
41
1
10
54.5224433768695
20
0.617944372576176
30
0
41
1
10
54.9668625258711
20
0.547064891837437
30
0
41
1
10
55.2630313314195
20
0.498695253506298
30
0
41
1
10
55.8552942399827
20
0.400470799903417
30
0
41
1
10
56.1514102318951
20
0.350611586998298
30
0
41
1
10
56.5955669012044
20
0.275344324184289
30
0
41
1
10
56.7435894813928
20
0.250071853664679
30
0
41
1
10
57.039565838951
20
0.199113951622394
30
0
41
1
10
57.1875255803687
20
0.173461720774441
30
0
41
1
10
57.6313492748653
20
0.0961538073594284
30
0
41
1
10
58.0011103129772
20
0.0311480568281866
30
0
41
1
10
58.3708932068287
20
-0.0338074116351947
30
0
41
1
10
58.5188110822943
20
-0.0597686080849087
30
0
41
1
10
58.5927683388835
20
-0.0727630300795283
30
0
41
1
10
58.8146193432844
20
-0.111873764695332
30
0
41
1
10
58.962503685843
20
-0.138052301901354
30
0
41
1
10
59.253530489849
20
-0.18965114136887
30
0
41
1
10
59.3966745846363
20
-0.215070721766466
30
0
41
1
10
59.5398149554904
20
-0.240464685063188
30
0
0
SPLINE
5
14E
100
AcDbEntity
8
1
62
256
6
ByLayer
370
18
48
1
60
0
100
AcDbSpline
70
4
71
3
72
78
73
74
40
0
40
0
40
0
40
0
40
0.0257587549789337
40
0.0257587549789337
40
0.0487166503999432
40
0.0487166503999432
40
0.0716745458209523
40
0.0716745458209523
40
0.0946324412419618
40
0.0946324412419618
40
0.117590336662971
40
0.117590336662971
40
0.163506127504989
40
0.163506127504989
40
0.186464022925998
40
0.186464022925998
40
0.209421918347008
40
0.209421918347008
40
0.255337709189028
40
0.255337709189028
40
0.266816656899532
40
0.266816656899532
40
0.278295604610038
40
0.278295604610038
40
0.289774552320543
40
0.289774552320543
40
0.301253500031048
40
0.301253500031048
40
0.324211395452057
40
0.324211395452057
40
0.347169290873066
40
0.347169290873066
40
0.370127186294075
40
0.370127186294075
40
0.393085081715084
40
0.393085081715084
40
0.439000872557102
40
0.439000872557102
40
0.46195876797811
40
0.46195876797811
40
0.48491666339912
40
0.48491666339912
40
0.507874558820128
40
0.507874558820128
40
0.530832454241138
40
0.530832454241138
40
0.553790349662147
40
0.553790349662147
40
0.576748245083156
40
0.576748245083156
40
0.599706140504165
40
0.599706140504165
40
0.622664035925174
40
0.622664035925174
40
0.645621931346183
40
0.645621931346183
40
0.668579826767192
40
0.668579826767192
40
0.714495617609211
40
0.714495617609211
40
0.760411408451229
40
0.760411408451229
40
0.806327199293248
40
0.806327199293248
40
0.852242990135267
40
0.852242990135267
40
0.898158780977285
40
0.898158780977285
40
0.944074571819304
40
0.944074571819304
40
0.989990362661323
40
0.989990362661323
40
1
40
1
40
1
40
1
41
1
10
63.2379542692069
20
-2.276567500834
30
0
41
1
10
63.0710514450107
20
-2.27832822324689
30
0
41
1
10
62.9041438969002
20
-2.27935185152086
30
0
41
1
10
62.5884516740122
20
-2.27982865772108
30
0
41
1
10
62.439669271511
20
-2.27943903031684
30
0
41
1
10
62.1420665985107
20
-2.27738757259837
30
0
41
1
10
61.9932403825675
20
-2.27580717328399
30
0
41
1
10
61.6956499435449
20
-2.27108287605304
30
0
41
1
10
61.5468697019724
20
-2.26799810921599
30
0
41
1
10
61.2493188574853
20
-2.26111048607223
30
0
41
1
10
61.1005544615665
20
-2.25714579869043
30
0
41
1
10
60.6542767614374
20
-2.24352101730128
30
0
41
1
10
60.35677564024
20
-2.23218862951936
30
0
41
1
10
59.9104164048145
20
-2.2115635967267
30
0
41
1
10
59.7616132941235
20
-2.20388199982108
30
0
41
1
10
59.4639849256669
20
-2.18752135363258
30
0
41
1
10
59.3151526598261
20
-2.17900101280372
30
0
41
1
10
58.8686128276136
20
-2.15165805970528
30
0
41
1
10
58.5708746042763
20
-2.13135523466235
30
0
41
1
10
58.1987097093007
20
-2.10335946876049
30
0
41
1
10
58.1242728980238
20
-2.09765513274962
30
0
41
1
10
57.9754004562729
20
-2.08587689855682
30
0
41
1
10
57.9009639899347
20
-2.07980932823421
30
0
41
1
10
57.7520789452512
20
-2.0674514067579
30
0
41
1
10
57.6776399677653
20
-2.06109652339308
30
0
41
1
10
57.5287507862173
20
-2.04827387696787
30
0
41
1
10
57.4543013978396
20
-2.04179735882394
30
0
41
1
10
57.2309477039961
20
-2.02200716839857
30
0
41
1
10
57.0820385750573
20
-2.00831528626998
30
0
41
1
10
56.7841807335446
20
-1.98010862638355
30
0
41
1
10
56.6352337675873
20
-1.96556364767446
30
0
41
1
10
56.3372864770964
20
-1.9355726535174
30
0
41
1
10
56.1882826594964
20
-1.92020043632707
30
0
41
1
10
55.8902091379438
20
-1.88833786054488
30
0
41
1
10
55.7411294037752
20
-1.87187108291752
30
0
41
1
10
55.2938723840616
20
-1.82179455879233
30
0
41
1
10
54.995682790561
20
-1.78703680557379
30
0
41
1
10
54.5483039761135
20
-1.73282978426249
30
0
41
1
10
54.399161450601
20
-1.7144176996128
30
0
41
1
10
54.1008229639016
20
-1.67699329633669
30
0
41
1
10
53.9516299947802
20
-1.65785560752056
30
0
41
1
10
53.6531989024237
20
-1.61899427913599
30
0
41
1
10
53.5039558232269
20
-1.5994031520502
30
0
41
1
10
53.2054223499379
20
-1.55964091509122
30
0
41
1
10
53.0561295661814
20
-1.53950948869829
30
0
41
1
10
52.7574777112126
20
-1.49882245164412
30
0
41
1
10
52.6081080202397
20
-1.47832602560143
30
0
41
1
10
52.3093402263935
20
-1.43672617822702
30
0
41
1
10
52.1599486430266
20
-1.41562740739315
30
0
41
1
10
51.8611147108828
20
-1.37311641074075
30
0
41
1
10
51.7116834257867
20
-1.35162779327803
30
0
41
1
10
51.4127781792525
20
-1.30846134940882
30
0
41
1
10
51.2633002050277
20
-1.28681386479135
30
0
41
1
10
50.9642989492698
20
-1.24326444238795
30
0
41
1
10
50.8147785938295
20
-1.22131826497372
30
0
41
1
10
50.515679303526
20
-1.17725072131381
30
0
41
1
10
50.3661046001652
20
-1.15506811716588
30
0
41
1
10
49.9172851122669
20
-1.08814868405673
30
0
41
1
10
49.6179337490803
20
-1.04311064403163
30
0
41
1
10
49.0189850948239
20
-0.953068848988551
30
0
41
1
10
48.7194425653405
20
-0.907920201508034
30
0
41
1
10
48.1201861059451
20
-0.817424838797336
30
0
41
1
10
47.8204637690335
20
-0.772089012109461
30
0
41
1
10
47.2208044084391
20
-0.681822431896876
30
0
41
1
10
46.9208657240039
20
-0.636904220636922
30
0
41
1
10
46.3207527168352
20
-0.547493127078951
30
0
41
1
10
46.0205588422904
20
-0.50300604405885
30
0
41
1
10
45.4200318486453
20
-0.414808155579522
30
0
41
1
10
45.1196891237482
20
-0.37108204402125
30
0
41
1
10
44.5188156801094
20
-0.284622159256202
30
0
41
1
10
44.2182862725456
20
-0.241878398470306
30
0
41
1
10
43.8521180518864
20
-0.190463986261051
30
0
41
1
10
43.7865758673119
20
-0.181286564493689
30
0
41
1
10
43.7210288776939
20
-0.172134969814834
30
0
0
SPLINE
5
14F
100
AcDbEntity
8
1
62
256
6
ByLayer
370
18
48
1
60
0
100
AcDbSpline
70
4
71
3
72
8
73
4
40
0
40
0
40
0
40
0
40
1
40
1
40
1
40
1
41
1
10
74.2000484956518
20
6.17560938467855
30
0
41
1
10
74.2563592587802
20
6.11786535370788
30
0
41
1
10
74.3128594303425
20
6.05962166878862
30
0
41
1
10
74.3695486937823
20
6.00089083718251
30
0
0
SPLINE
5
150
100
AcDbEntity
8
1
62
256
6
ByLayer
370
13
48
1
60
0
100
AcDbSpline
70
4
71
3
72
8
73
4
40
0
40
0
40
0
40
0
40
1
40
1
40
1
40
1
41
1
10
10.5018340871937
20
-6.77868090098792
30
0
41
1
10
10.5018340871937
20
-5.81759623432126
30
0
41
1
10
10.5018340871937
20
-4.85651156765456
30
0
41
1
10
10.5018340871937
20
-3.8954269009879
30
0
0
SPLINE
5
151
100
AcDbEntity
8
1
62
256
6
ByLayer
370
13
48
1
60
0
100
AcDbSpline
70
4
71
3
72
8
73
4
40
0
40
0
40
0
40
0
40
1
40
1
40
1
40
1
41
1
10
9.86932770638936
20
-4.14366261200092
30
0
41
1
10
8.9520668296957
20
-5.22099945466155
30
0
41
1
10
8.03480595300047
20
-6.29833629732229
30
0
41
1
10
7.11754507630474
20
-7.37567313998338
30
0
0
SPLINE
5
152
100
AcDbEntity
8
1
62
256
6
ByLayer
370
18
48
1
60
0
100
AcDbSpline
70
4
71
3
72
16
73
12
40
0
40
0
40
0
40
0
40
0.25
40
0.25
40
0.5
40
0.5
40
0.625
40
0.625
40
0.75
40
0.75
40
1
40
1
40
1
40
1
41
1
10
14.3671627449733
20
-6.00823262616171
30
0
41
1
10
14.3262312736952
20
-6.01104407475978
30
0
41
1
10
14.2858018126707
20
-6.01630243245381
30
0
41
1
10
14.2059140989624
20
-6.0314774643071
30
0
41
1
10
14.1664560015449
20
-6.04139508005468
30
0
41
1
10
14.1080035945127
20
-6.05974473774558
30
0
41
1
10
14.0886422180917
20
-6.06644167344817
30
0
41
1
10
14.0501697440734
20
-6.0810111311857
30
0
41
1
10
14.0310153347622
20
-6.08890323972008
30
0
41
1
10
13.9742367763269
20
-6.11425001715295
30
0
41
1
10
13.9376324104051
20
-6.13320510985861
30
0
41
1
10
13.9022348392654
20
-6.15414291236098
30
0
0
SPLINE
5
153
100
AcDbEntity
8
1
62
256
6
ByLayer
370
13
48
1
60
0
100
AcDbSpline
70
4
71
3
72
10
73
6
40
0
40
0
40
0
40
0
40
0.648960373054925
40
0.648960373054925
40
1
40
1
40
1
40
1
41
1
10
12.0588643458951
20
-3.70296135893594
30
0
41
1
10
12.0084078195374
20
-4.26498000152492
30
0
41
1
10
11.9587449923019
20
-4.82703993811771
30
0
41
1
10
11.8838897284279
20
-5.69318933069104
30
0
41
1
10
11.8579302884059
20
-5.99725280879403
30
0
41
1
10
11.8323233130247
20
-6.30132610969071
30
0
0
SPLINE
5
154
100
AcDbEntity
8
1
62
256
6
ByLayer
370
18
48
1
60
0
100
AcDbSpline
70
4
71
3
72
17
73
13
40
0
40
0
40
0
40
0
40
0.212224128292796
40
0.212224128292796
40
0.318336192439191
40
0.318336192439191
40
0.371392224512392
40
0.371392224512392
40
0.424448256585592
40
0.8488965131712
40
0.8488965131712
40
1
40
1
40
1
40
1
41
1
10
74.2000484956518
20
6.17560938467855
30
0
41
1
10
73.8992184012153
20
6.13645794195799
30
0
41
1
10
73.5978355511151
20
6.09061734602969
30
0
41
1
10
73.1445709275665
20
6.01185994160306
30
0
41
1
10
72.9932835276277
20
5.98394192265962
30
0
41
1
10
72.7660085741391
20
5.9395717734601
30
0
41
1
10
72.6901922961732
20
5.92436553155403
30
0
41
1
10
72.5387492050491
20
5.89318938485974
30
0
41
1
10
71.8577571708694
20
5.74939297132008
30
0
41
1
10
71.1809794261557
20
5.57440020950224
30
0
41
1
10
70.3672284250787
20
5.33287223117483
30
0
41
1
10
70.1537736779294
20
5.26660255190328
30
0
41
1
10
69.9404217940908
20
5.19756673340839
30
0
0
SPLINE
5
155
100
AcDbEntity
8
1
62
256
6
ByLayer
370
18
48
1
60
0
100
AcDbSpline
70
4
71
3
72
24
73
20
40
0
40
0
40
0
40
0
40
0.0172429010817321
40
0.0172429010817321
40
0.106584455528847
40
0.106584455528847
40
0.195926009975963
40
0.195926009975963
40
0.240596787199521
40
0.240596787199521
40
0.285267564423078
40
0.285267564423078
40
0.463950673317309
40
0.463950673317309
40
0.642633782211539
40
0.642633782211539
40
0.82131689110577
40
0.82131689110577
40
1
40
1
40
1
40
1
41
1
10
35.4050383783095
20
-6.34705487152746
30
0
41
1
10
35.2766938847412
20
-6.34701194346295
30
0
41
1
10
35.1483180727337
20
-6.3466525471778
30
0
41
1
10
34.3545914040852
20
-6.34253363896283
30
0
41
1
10
33.6884179327735
20
-6.33087734022826
30
0
41
1
10
32.354753413326
20
-6.29306643942047
30
0
41
1
10
31.6872444832328
20
-6.26692679800303
30
0
41
1
10
30.6854687099046
20
-6.21741298353589
30
0
41
1
10
30.3514615735959
20
-6.1991793564587
30
0
41
1
10
29.683372838778
20
-6.1592291028669
30
0
41
1
10
29.3493000454324
20
-6.13750227331164
30
0
41
1
10
27.678758718974
20
-6.02014615385232
30
0
41
1
10
26.3417043933419
20
-5.89835661687579
30
0
41
1
10
23.6640488365864
20
-5.60171862948803
30
0
41
1
10
22.3269027165993
20
-5.42727972152292
30
0
41
1
10
19.6538332821905
20
-5.03085491648605
30
0
41
1
10
18.3178716237339
20
-4.80889919188468
30
0
41
1
10
15.6448116466438
20
-4.32307889074798
30
0
41
1
10
14.3076953086391
20
-4.05926278141817
30
0
41
1
10
12.9688589923736
20
-3.7777585183714
30
0
0
SPLINE
5
156
100
AcDbEntity
8
1
62
256
6
ByLayer
370
18
48
1
60
0
100
AcDbSpline
70
4
71
3
72
30
73
26
40
0
40
0
40
0
40
0
40
0.124999999999999
40
0.124999999999999
40
0.187499999999999
40
0.187499999999999
40
0.249999999999999
40
0.249999999999999
40
0.375000000000001
40
0.375000000000001
40
0.4375
40
0.4375
40
0.499999999999998
40
0.499999999999998
40
0.624999999999995
40
0.624999999999995
40
0.687499999999993
40
0.687499999999993
40
0.749999999999992
40
0.749999999999992
40
0.874999999999996
40
0.874999999999996
40
0.937499999999998
40
0.937499999999998
40
1
40
1
40
1
40
1
41
1
10
13.9019453747684
20
-2.35213430253853
30
0
41
1
10
13.9019500592154
20
-2.37455121986591
30
0
41
1
10
13.9040781405301
20
-2.39680231472207
30
0
41
1
10
13.9104896482038
20
-2.42993073988768
30
0
41
1
10
13.9131839664251
20
-2.44098215424774
30
0
41
1
10
13.9195672961691
20
-2.46262002589049
30
0
41
1
10
13.9232563827756
20
-2.47323493191635
30
0
41
1
10
13.9357690036423
20
-2.50448951200411
30
0
41
1
10
13.9460284523598
20
-2.52454269980325
30
0
41
1
10
13.9642886418784
20
-2.55346439141229
30
0
41
1
10
13.9708738626894
20
-2.56292601467092
30
0
41
1
10
13.9847612807365
20
-2.58112610688107
30
0
41
1
10
13.9920886449557
20
-2.58990874642194
30
0
41
1
10
14.0151847534695
20
-2.61533962471467
30
0
41
1
10
14.03206053038
20
-2.6310765164134
30
0
41
1
10
14.0595793818563
20
-2.65288571466826
30
0
41
1
10
14.0691171594804
20
-2.65984476429037
30
0
41
1
10
14.0886018180726
20
-2.67294099198816
30
0
41
1
10
14.0985872150232
20
-2.6791099443698
30
0
41
1
10
14.1292512831933
20
-2.6965170809207
30
0
41
1
10
14.1506335557983
20
-2.70666228239153
30
0
41
1
10
14.1841130301879
20
-2.71971183964203
30
0
41
1
10
14.1955257062407
20
-2.72370098207907
30
0
41
1
10
14.2185252534458
20
-2.73085136320722
30
0
41
1
10
14.2301469180799
20
-2.73402766348747
30
0
41
1
10
14.2418888043703
20
-2.73681145235619
30
0
0
SPLINE
5
157
100
AcDbEntity
8
1
62
256
6
ByLayer
370
18
48
1
60
0
100
AcDbSpline
70
4
71
2
72
6
73
3
40
0
40
0
40
0
40
1
40
1
40
1
41
0.50000011442098
10
12.5631788409741
20
-3.72348221771667
30
0
41
0.49999988557902
10
12.4815846427861
20
-3.71866819087346
30
0
41
0.50000011442098
10
12.4
20
-3.7138476404271
30
0
0
SPLINE
5
158
100
AcDbEntity
8
1
62
256
6
ByLayer
370
18
48
1
60
0
100
AcDbSpline
70
4
71
3
72
8
73
4
40
0
40
0
40
0
40
0
40
1
40
1
40
1
40
1
41
1
10
12.5631788409741
20
-3.72348221771665
30
0
41
1
10
12.7006169493101
20
-3.73159101414467
30
0
41
1
10
12.835829322114
20
-3.74978876449742
30
0
41
1
10
12.9688356159289
20
-3.77775350711957
30
0
0
SPLINE
5
159
100
AcDbEntity
8
1
62
256
6
ByLayer
370
18
48
1
60
0
100
AcDbSpline
70
4
71
3
72
8
73
4
40
0
40
0
40
0
40
0
40
1
40
1
40
1
40
1
41
1
10
12.4
20
-6.23845777359827
30
0
41
1
10
12.9008862966666
20
-6.21431721130375
30
0
41
1
10
13.4016098037001
20
-6.18619237019729
30
0
41
1
10
13.9022348392646
20
-6.15414291235047
30
0
0
SPLINE
5
15A
100
AcDbEntity
8
1
62
256
6
ByLayer
370
18
48
1
60
0
100
AcDbSpline
70
4
71
3
72
33
73
29
40
0
40
0
40
0
40
0
40
0.124999999999999
40
0.124999999999999
40
0.187499999999999
40
0.187499999999999
40
0.249999999999999
40
0.249999999999999
40
0.312499999999998
40
0.312499999999998
40
0.374999999999998
40
0.374999999999998
40
0.499999999999996
40
0.499999999999996
40
0.531249999999997
40
0.531249999999997
40
0.562499999999997
40
0.562499999999997
40
0.624999999999998
40
0.624999999999998
40
0.749999999999999
40
0.749999999999999
40
0.781249999999999
40
0.781249999999999
40
0.812499999999999
40
0.874999999999999
40
0.874999999999999
40
1
40
1
40
1
40
1
41
1
10
74.8125714193796
20
-3.35024122733699
30
0
41
1
10
74.7776708515144
20
-3.52522848217959
30
0
41
1
10
74.7435053170745
20
-3.69472865787463
30
0
41
1
10
74.6936093250472
20
-3.94071872692308
30
0
41
1
10
74.6772456174567
20
-4.0211031967701
30
0
41
1
10
74.6450703630607
20
-4.17849315352808
30
0
41
1
10
74.6292487170707
20
-4.25552641656262
30
0
41
1
10
74.5981344551255
20
-4.40626759581164
30
0
41
1
10
74.5828427269625
20
-4.4799756294131
30
0
41
1
10
74.552793750268
20
-4.6240411375689
30
0
41
1
10
74.5380241364019
20
-4.69445627085869
30
0
41
1
10
74.4947445620882
20
-4.89955972532465
30
0
41
1
10
74.467183118321
20
-5.02845432786677
30
0
41
1
10
74.4343791083549
20
-5.17974910693192
30
0
41
1
10
74.4279009964263
20
-5.20951579335909
30
0
41
1
10
74.4151112184027
20
-5.26805957159223
30
0
41
1
10
74.4087955644838
20
-5.29685474113242
30
0
41
1
10
74.3901308560459
20
-5.3816035153539
30
0
41
1
10
74.3780727365489
20
-5.43588307161355
30
0
41
1
10
74.3430344269949
20
-5.59209697374371
30
0
41
1
10
74.3211850279067
20
-5.68742258993009
30
0
41
1
10
74.2958199699598
20
-5.79543640813714
30
0
41
1
10
74.2908407125541
20
-5.81649512635943
30
0
41
1
10
74.281115706826
20
-5.8573289563158
30
0
41
1
10
74.2668661826642
20
-5.91670975689789
30
0
41
1
10
74.2536116053492
20
-5.97053839195496
30
0
41
1
10
74.2284061348838
20
-6.07089456297714
30
0
41
1
10
74.2133512239275
20
-6.12808124176902
30
0
41
1
10
74.2000484956479
20
-6.1756093846779
30
0
0
SPLINE
5
15B
100
AcDbEntity
8
1
62
256
6
ByLayer
370
18
48
1
60
0
100
AcDbSpline
70
4
71
3
72
8
73
4
40
0
40
0
40
0
40
0
40
1
40
1
40
1
40
1
41
1
10
74.8125714193791
20
-3.35024122733708
30
0
41
1
10
74.8081468440752
20
-3.32418427772717
30
0
41
1
10
74.8049908463559
20
-3.29762765551976
30
0
41
1
10
74.8030480203826
20
-3.2709531356349
30
0
0
SPLINE
5
15C
100
AcDbEntity
8
1
62
256
6
ByLayer
370
18
48
1
60
0
100
AcDbSpline
70
4
71
3
72
50
73
46
40
0
40
0
40
0
40
0
40
0.0625000000000374
40
0.0625000000000374
40
0.0937500000000561
40
0.0937500000000561
40
0.125000000000075
40
0.125000000000075
40
0.187500000000094
40
0.187500000000094
40
0.203125000000099
40
0.203125000000099
40
0.218750000000104
40
0.218750000000104
40
0.250000000000114
40
0.281250000000124
40
0.281250000000124
40
0.312500000000134
40
0.312500000000134
40
0.375000000000153
40
0.375000000000153
40
0.406250000000163
40
0.406250000000163
40
0.437500000000173
40
0.437500000000173
40
0.500000000000175
40
0.500000000000175
40
0.531250000000168
40
0.531250000000168
40
0.562500000000161
40
0.593750000000154
40
0.593750000000154
40
0.625000000000147
40
0.625000000000147
40
0.687500000000121
40
0.687500000000121
40
0.750000000000095
40
0.750000000000095
40
0.781250000000081
40
0.781250000000081
40
0.812500000000068
40
0.812500000000068
40
0.875000000000045
40
0.875000000000045
40
1
40
1
40
1
40
1
41
1
10
76.0270756502771
20
-2.53979196493316
30
0
41
1
10
76.0015146808612
20
-2.50853986989498
30
0
41
1
10
75.9733848652161
20
-2.47959526230386
30
0
41
1
10
75.9270168972253
20
-2.44001259215364
30
0
41
1
10
75.9108621741758
20
-2.42746036000611
30
0
41
1
10
75.8770510524126
20
-2.40374969790582
30
0
41
1
10
75.8593469202569
20
-2.39257967503477
30
0
41
1
10
75.8051363493
20
-2.36207776744752
30
0
41
1
10
75.7671656723938
20
-2.34543722355602
30
0
41
1
10
75.7172968033978
20
-2.32954322974285
30
0
41
1
10
75.7072018011173
20
-2.3266116383416
30
0
41
1
10
75.6867622286605
20
-2.32125833438434
30
0
41
1
10
75.6763814105549
20
-2.31882993220029
30
0
41
1
10
75.6451982810829
20
-2.31240573264591
30
0
41
1
10
75.6034677755006
20
-2.30610087076553
30
0
41
1
10
75.5614406826996
20
-2.30418651742949
30
0
41
1
10
75.5192659184584
20
-2.30445945049661
30
0
41
1
10
75.4980609090311
20
-2.30569447619035
30
0
41
1
10
75.4344952571204
20
-2.31272180841719
30
0
41
1
10
75.3933871833751
20
-2.32165280080079
30
0
41
1
10
75.3334556037304
20
-2.34080784504192
30
0
41
1
10
75.3137361834291
20
-2.3481740416301
30
0
41
1
10
75.2750111796124
20
-2.36475316515737
30
0
41
1
10
75.2562294848477
20
-2.37386569961461
30
0
41
1
10
75.2014988947708
20
-2.40347595455063
30
0
41
1
10
75.1671541209419
20
-2.42623195722325
30
0
41
1
10
75.1185898040484
20
-2.46445634650612
30
0
41
1
10
75.102998412767
20
-2.47780890663401
30
0
41
1
10
75.0731849629208
20
-2.5054128614359
30
0
41
1
10
75.0446530060289
20
-2.53398489787071
30
0
41
1
10
75.0185237984663
20
-2.56434817703112
30
0
41
1
10
74.9935407771206
20
-2.5955543178996
30
0
41
1
10
74.9815906246996
20
-2.61162563489407
30
0
41
1
10
74.9476329361308
20
-2.66071155904885
30
0
41
1
10
74.9276569268104
20
-2.69433950135061
30
0
41
1
10
74.8923204196008
20
-2.76307974166457
30
0
41
1
10
74.8769651164998
20
-2.798194199802
30
0
41
1
10
74.8571111905341
20
-2.85183638799595
30
0
41
1
10
74.8510250738178
20
-2.86987966886807
30
0
41
1
10
74.8398894080095
20
-2.90627531276027
30
0
41
1
10
74.8348442526914
20
-2.92462673259107
30
0
41
1
10
74.8213697354661
20
-2.97950264134286
30
0
41
1
10
74.8145258149172
20
-3.01605850858158
30
0
41
1
10
74.7998405561113
20
-3.12558225488087
30
0
41
1
10
74.7977636616519
20
-3.19840019781418
30
0
41
1
10
74.8030480203826
20
-3.2709531356349
30
0
0
SPLINE
5
15D
100
AcDbEntity
8
1
62
256
6
ByLayer
370
18
48
1
60
0
100
AcDbSpline
70
4
71
3
72
25
73
21
40
0
40
0
40
0
40
0
40
0.249999999999998
40
0.249999999999998
40
0.312499999999998
40
0.312499999999998
40
0.343749999999998
40
0.343749999999998
40
0.374999999999998
40
0.499999999999999
40
0.499999999999999
40
0.624999999999999
40
0.624999999999999
40
0.656249999999999
40
0.656249999999999
40
0.687499999999999
40
0.687499999999999
40
0.749999999999999
40
0.749999999999999
40
1
40
1
40
1
40
1
41
1
10
66.6653376481098
20
6.02376101878619
30
0
41
1
10
67.6115060062395
20
5.85568243306849
30
0
41
1
10
68.5578396230797
20
5.6237409715888
30
0
41
1
10
69.7499590821972
20
5.25916043119545
30
0
41
1
10
69.9888456038729
20
5.18251409844652
30
0
41
1
10
70.3480493989587
20
5.06205904192939
30
0
41
1
10
70.4680073483197
20
5.02096584928091
30
0
41
1
10
70.7078060521369
20
4.93712484469432
30
0
41
1
10
71.3069355506852
20
4.72342065767253
30
0
41
1
10
71.9045816248803
20
4.48967213330124
30
0
41
1
10
72.8607744358441
20
4.09245175280972
30
0
41
1
10
73.3388592490027
20
3.88224129337755
30
0
41
1
10
73.9376249982762
20
3.60653071104446
30
0
41
1
10
74.0574357216356
20
3.55074066959628
30
0
41
1
10
74.2971998714506
20
3.43790081018417
30
0
41
1
10
74.4171837751355
20
3.38083651927036
30
0
41
1
10
74.776632691209
20
3.20818601366517
30
0
41
1
10
75.0158356642015
20
3.09103069007017
30
0
41
1
10
76.210304384271
20
2.49599892819575
30
0
41
1
10
77.1609449740702
20
1.99037650881362
30
0
41
1
10
78.11398315499
20
1.46764031087514
30
0
0
SPLINE
5
15E
100
AcDbEntity
8
1
62
256
6
ByLayer
370
18
48
1
60
0
100
AcDbSpline
70
4
71
3
72
41
73
37
40
0
40
0
40
0
40
0
40
0.0624999999999394
40
0.0624999999999394
40
0.0937499999999089
40
0.0937499999999089
40
0.124999999999878
40
0.124999999999878
40
0.249999999999882
40
0.249999999999882
40
0.374999999999885
40
0.374999999999885
40
0.406249999999886
40
0.406249999999886
40
0.437499999999887
40
0.437499999999887
40
0.499999999999849
40
0.562499999999811
40
0.562499999999811
40
0.593749999999809
40
0.593749999999809
40
0.624999999999808
40
0.624999999999808
40
0.749999999999833
40
0.749999999999833
40
0.781249999999858
40
0.781249999999858
40
0.812499999999882
40
0.812499999999882
40
0.874999999999912
40
0.874999999999912
40
0.906249999999932
40
0.906249999999932
40
0.937499999999953
40
0.937499999999953
40
1
40
1
40
1
40
1
41
1
10
65.9583769517614
20
-2.02673023646224
30
0
41
1
10
65.9758242349605
20
-2.03595435700186
30
0
41
1
10
65.9938692893497
20
-2.0441283862757
30
0
41
1
10
66.0218332773638
20
-2.0548211749321
30
0
41
1
10
66.0313362784125
20
-2.05813271462421
30
0
41
1
10
66.0504698374501
20
-2.06416834025728
30
0
41
1
10
66.0600922458541
20
-2.06689248421424
30
0
41
1
10
66.1084747975984
20
-2.07908708618095
30
0
41
1
10
66.1480332290889
20
-2.08435047317704
30
0
41
1
10
66.2288793759251
20
-2.08578832370509
30
0
41
1
10
66.2686267618015
20
-2.08192827555825
30
0
41
1
10
66.3173699454974
20
-2.07151450990634
30
0
41
1
10
66.3270728240831
20
-2.06914790636026
30
0
41
1
10
66.3463847838897
20
-2.06383215879154
30
0
41
1
10
66.3560263651851
20
-2.06087091820575
30
0
41
1
10
66.3844631550592
20
-2.05120127227011
30
0
41
1
10
66.4211863906367
20
-2.03620936318839
30
0
41
1
10
66.455559170976
20
-2.01706426341198
30
0
41
1
10
66.4804250289132
20
-2.00108363328849
30
0
41
1
10
66.4885608706049
20
-1.9954855713917
30
0
41
1
10
66.5045151218818
20
-1.9837246276924
30
0
41
1
10
66.5122973515572
20
-1.97758552502711
30
0
41
1
10
66.5498319265343
20
-1.94592256091903
30
0
41
1
10
66.5759259543929
20
-1.91726157269281
30
0
41
1
10
66.6033308126263
20
-1.87696715318594
30
0
41
1
10
66.6085637024723
20
-1.86864813191824
30
0
41
1
10
66.6183275461512
20
-1.85179589425084
30
0
41
1
10
66.6228744270979
20
-1.84324406654105
30
0
41
1
10
66.6355228615869
20
-1.81721475205026
30
0
41
1
10
66.6426367767392
20
-1.79936510140465
30
0
41
1
10
66.6512990305251
20
-1.77182863850771
30
0
41
1
10
66.6538505564595
20
-1.76252241137803
30
0
41
1
10
66.6582620710686
20
-1.74364700590803
30
0
41
1
10
66.6601257932448
20
-1.7340436049881
30
0
41
1
10
66.664582361179
20
-1.70521184102733
30
0
41
1
10
66.6660734649107
20
-1.6858920853625
30
0
41
1
10
66.666093630131
20
-1.66647362363301
30
0
0
SPLINE
5
15F
100
AcDbEntity
8
1
62
256
6
ByLayer
370
18
48
1
60
0
100
AcDbSpline
70
4
71
3
72
83
73
79
40
0
40
0
40
0
40
0
40
0.0179720353675848
40
0.0179720353675848
40
0.0269580530513772
40
0.0269580530513772
40
0.0314510618932731
40
0.0314510618932731
40
0.035944070735169
40
0.0718881414703385
40
0.0718881414703385
40
0.143776282940678
40
0.143776282940678
40
0.161748318308262
40
0.161748318308262
40
0.170734335992054
40
0.170734335992054
40
0.17522734483395
40
0.17522734483395
40
0.179720353675845
40
0.215664424411014
40
0.215664424411014
40
0.233636459778599
40
0.233636459778599
40
0.242622477462391
40
0.247115486304287
40
0.247115486304287
40
0.251608495146183
40
0.251608495146183
40
0.287552565881352
40
0.287552565881352
40
0.323496636616521
40
0.323496636616521
40
0.35944070735169
40
0.35944070735169
40
0.395384778086859
40
0.395384778086859
40
0.404370795770651
40
0.404370795770651
40
0.413356813454443
40
0.413356813454443
40
0.431328848822027
40
0.431328848822027
40
0.467272919557194
40
0.467272919557194
40
0.503216990292361
40
0.503216990292361
40
0.539161061027528
40
0.539161061027528
40
0.575105131762695
40
0.575105131762695
40
0.611049202497862
40
0.611049202497862
40
0.620035220181654
40
0.620035220181654
40
0.629021237865445
40
0.646993273233028
40
0.646993273233028
40
0.682937343968195
40
0.682937343968195
40
0.718881414703361
40
0.718881414703361
40
0.727867432387152
40
0.727867432387152
40
0.736853450070943
40
0.754825485438527
40
0.754825485438527
40
0.790769556173693
40
0.790769556173693
40
0.82671362690886
40
0.82671362690886
40
0.844685662276443
40
0.844685662276443
40
0.862657697644026
40
0.862657697644026
40
0.934545839114358
40
0.934545839114358
40
1
40
1
40
1
40
1
41
1
10
74.2000484956479
20
-6.17560938467787
30
0
41
1
10
73.8992184012114
20
-6.13645794195725
30
0
41
1
10
73.5978355511113
20
-6.09061734602889
30
0
41
1
10
73.1445709275626
20
-6.01185994160221
30
0
41
1
10
72.9932835276239
20
-5.98394192265874
30
0
41
1
10
72.7660085741353
20
-5.93957177345916
30
0
41
1
10
72.6901922961694
20
-5.92436553155309
30
0
41
1
10
72.5387492050453
20
-5.89318938485877
30
0
41
1
10
71.8577571708657
20
-5.74939297131902
30
0
41
1
10
71.1809794261521
20
-5.57440020950105
30
0
41
1
10
69.3806450635824
20
-5.0400461892547
30
0
41
1
10
68.1862547509643
20
-4.59355291042974
30
0
41
1
10
66.682397103883
20
-3.94335337295166
30
0
41
1
10
66.3810773614094
20
-3.80871729385433
30
0
41
1
10
65.9279286994868
20
-3.60026989165826
30
0
41
1
10
65.7766851646832
20
-3.52970380880552
30
0
41
1
10
65.5494801569189
20
-3.42228767326097
30
0
41
1
10
65.473663342526
20
-3.38620893010975
30
0
41
1
10
65.3221266250786
20
-3.31364296596141
30
0
41
1
10
64.6404774059552
20
-2.98517574947127
30
0
41
1
10
63.9608925543954
20
-2.63996633463316
30
0
41
1
10
63.05445918205
20
-2.16439573310606
30
0
41
1
10
62.7522687184399
20
-2.00330959260222
30
0
41
1
10
62.2984312452399
20
-1.75864498842037
30
0
41
1
10
62.0713753702376
20
-1.63555293694733
30
0
41
1
10
61.8440261346129
20
-1.51147191940868
30
0
41
1
10
61.6923852641928
20
-1.42854809239961
30
0
41
1
10
61.6165064070822
20
-1.38697298623495
30
0
41
1
10
60.9342418860967
20
-1.01252091978631
30
0
41
1
10
60.3308129280943
20
-0.676957463627701
30
0
41
1
10
59.1252056175786
20
-0.0093361910911938
30
0
41
1
10
58.523029303014
20
0.322726387427139
30
0
41
1
10
57.3154936492807
20
0.975263369245539
30
0
41
1
10
56.7101401372518
20
1.29574921067024
30
0
41
1
10
55.4922277618876
20
1.91795783796786
30
0
41
1
10
54.8796763956244
20
2.2196947133497
30
0
41
1
10
54.1072512593639
20
2.58126029332024
30
0
41
1
10
53.9524316026186
20
2.65279743995191
30
0
41
1
10
53.6420725155951
20
2.79423385247381
30
0
41
1
10
53.4869170047161
20
2.86395771081101
30
0
41
1
10
53.0215946015349
20
3.07000358382248
30
0
41
1
10
52.7114955123965
20
3.20321107632472
30
0
41
1
10
51.7809711709351
20
3.58998400450247
30
0
41
1
10
51.1603025759325
20
3.83065529097505
30
0
41
1
10
49.9154909960411
20
4.27630803944669
30
0
41
1
10
49.2913764191136
20
4.48134709375805
30
0
41
1
10
48.0374355013655
20
4.85581192601589
30
0
41
1
10
47.4076413687888
20
5.02529514051568
30
0
41
1
10
46.1406547815541
20
5.32984434775702
30
0
41
1
10
45.5034901477855
20
5.46495579115265
30
0
41
1
10
44.2206204153785
20
5.70287684881342
30
0
41
1
10
43.5749285323137
20
5.80571003150138
30
0
41
1
10
42.7620835479128
20
5.91580715855136
30
0
41
1
10
42.5992095071678
20
5.93690564470731
30
0
41
1
10
42.2733526312358
20
5.97725395000671
30
0
41
1
10
41.7842302554334
20
6.03502790047213
30
0
41
1
10
41.2940476838504
20
6.08483884288805
30
0
41
1
10
40.3121405528545
20
6.17456181301543
30
0
41
1
10
39.6554615423971
20
6.22118653241935
30
0
41
1
10
38.3376875678555
20
6.29184100563293
30
0
41
1
10
37.6765682024778
20
6.31586604550213
30
0
41
1
10
36.8474426629751
20
6.33387126794699
30
0
41
1
10
36.6814648561357
20
6.33686937977791
30
0
41
1
10
36.3494460385196
20
6.34170328372818
30
0
41
1
10
35.8512512697734
20
6.347211739366
30
0
41
1
10
35.352571466439
20
6.34771248508159
30
0
41
1
10
34.3545914040837
20
6.34253363896289
30
0
41
1
10
33.6884179327721
20
6.33087734022828
30
0
41
1
10
32.3547534133247
20
6.2930664394205
30
0
41
1
10
31.6872444832315
20
6.26692679800303
30
0
41
1
10
30.6854687099034
20
6.21741298353589
30
0
41
1
10
30.3514615735947
20
6.1991793564587
30
0
41
1
10
29.6833728387769
20
6.1592291028669
30
0
41
1
10
29.3493000454313
20
6.13750227331164
30
0
41
1
10
27.678758718973
20
6.02014615385232
30
0
41
1
10
26.341704393341
20
5.89835661687579
30
0
41
1
10
23.7838737723281
20
5.61499316275939
30
0
41
1
10
22.5662650420798
20
5.45829502033291
30
0
41
1
10
21.3492425801821
20
5.28171430661831
30
0
0
SPLINE
5
160
100
AcDbEntity
8
1
62
256
6
ByLayer
370
18
48
1
60
0
100
AcDbSpline
70
4
71
3
72
190
73
186
40
0
40
0
40
0
40
0
40
0.0035713317773964
40
0.0035713317773964
40
0.0139141206757796
40
0.0139141206757796
40
0.0190855151249711
40
0.0190855151249711
40
0.0216712123495668
40
0.0216712123495668
40
0.0242569095741627
40
0.0242569095741627
40
0.0268426067987454
40
0.0268426067987454
40
0.0294283040233278
40
0.0294283040233278
40
0.0345996984724928
40
0.0345996984724928
40
0.0449424873708225
40
0.0449424873708225
40
0.0656280651674822
40
0.0656280651674822
40
0.0863136429641417
40
0.0863136429641417
40
0.0966564318624717
40
0.0966564318624717
40
0.101827826311636
40
0.101827826311636
40
0.106999220760801
40
0.106999220760801
40
0.112170615209966
40
0.112170615209966
40
0.117342009659131
40
0.117342009659131
40
0.127684798557461
40
0.127684798557461
40
0.148370376354121
40
0.148370376354121
40
0.16905595415078
40
0.16905595415078
40
0.17939874304911
40
0.17939874304911
40
0.184570137498275
40
0.184570137498275
40
0.18974153194744
40
0.18974153194744
40
0.194912926396618
40
0.194912926396618
40
0.200084320845797
40
0.200084320845797
40
0.210427109744153
40
0.210427109744153
40
0.231112687540866
40
0.231112687540866
40
0.25179826533758
40
0.25179826533758
40
0.262141054235936
40
0.262141054235936
40
0.272483843134293
40
0.272483843134293
40
0.282826632032649
40
0.282826632032649
40
0.293169420931006
40
0.293169420931006
40
0.313854998727719
40
0.313854998727719
40
0.355226154321145
40
0.355226154321145
40
0.396597309914571
40
0.396597309914571
40
0.417282887711284
40
0.417282887711284
40
0.437968465507997
40
0.437968465507997
40
0.45865404330471
40
0.45865404330471
40
0.479339621101424
40
0.479339621101424
40
0.500025198898137
40
0.500025198898137
40
0.510367987796494
40
0.510367987796494
40
0.52071077669485
40
0.52071077669485
40
0.531053565593206
40
0.531053565593206
40
0.541396354491563
40
0.541396354491563
40
0.562081932288276
40
0.562081932288276
40
0.582767510084989
40
0.582767510084989
40
0.593110298983346
40
0.593110298983346
40
0.598281693432524
40
0.598281693432524
40
0.603453087881702
40
0.603453087881702
40
0.608624482330881
40
0.608624482330881
40
0.613795876780059
40
0.613795876780059
40
0.624138665678415
40
0.624138665678415
40
0.644824243475128
40
0.644824243475128
40
0.665509821271841
40
0.665509821271841
40
0.675852610170198
40
0.675852610170198
40
0.681024004619376
40
0.681024004619376
40
0.686195399068555
40
0.686195399068555
40
0.691366793517733
40
0.691366793517733
40
0.696538187966911
40
0.696538187966911
40
0.706880976865268
40
0.706880976865268
40
0.727566554661981
40
0.727566554661981
40
0.748252132458694
40
0.748252132458694
40
0.75859492135705
40
0.75859492135705
40
0.763766315806229
40
0.763766315806229
40
0.766352013030818
40
0.766352013030818
40
0.768937710255407
40
0.768937710255407
40
0.771523407479996
40
0.771523407479996
40
0.774109104704585
40
0.774109104704585
40
0.779280499153764
40
0.779280499153764
40
0.78962328805212
40
0.78962328805212
40
0.810308865848833
40
0.810308865848833
40
0.830994443645546
40
0.830994443645546
40
0.841337232543903
40
0.841337232543903
40
0.846508626993081
40
0.846508626993081
40
0.849094324217671
40
0.849094324217671
40
0.851680021442259
40
0.851680021442259
40
0.854265718666849
40
0.854265718666849
40
0.856851415891438
40
0.856851415891438
40
0.862022810340616
40
0.862022810340616
40
0.872365599238973
40
0.872365599238973
40
0.893051177035687
40
0.893051177035687
40
0.913736754832401
40
0.913736754832401
40
0.924079543730758
40
0.924079543730758
40
0.929250938179937
40
0.929250938179937
40
0.931836635404526
40
0.931836635404526
40
0.934422332629115
40
0.934422332629115
40
0.937008029853705
40
0.937008029853705
40
0.939593727078294
40
0.939593727078294
40
0.944765121527472
40
0.944765121527472
40
0.955107910425829
40
0.955107910425829
40
0.975793488222543
40
0.975793488222543
40
0.996479066019257
40
0.996479066019257
40
1
40
1
40
1
40
1
41
1
10
33.2094968009976
20
3.07677920836014
30
0
41
1
10
33.2407897457298
20
3.07742751760591
30
0
41
1
10
33.2720899629898
20
3.0780672515321
30
0
41
1
10
33.3940656573271
20
3.08052527252778
30
0
41
1
10
33.4847945366156
20
3.0822782239124
30
0
41
1
10
33.6209770407957
20
3.08478632475186
30
0
41
1
10
33.6663860701981
20
3.08560213325654
30
0
41
1
10
33.7345216591568
20
3.08679421339366
30
0
41
1
10
33.757237196117
20
3.08718630112503
30
0
41
1
10
33.802675574644
20
3.08795971319415
30
0
41
1
10
33.8255083289168
20
3.08834112785445
30
0
41
1
10
33.8707414465375
20
3.08909261212239
30
0
41
1
10
33.8931405937894
20
3.08946507449238
30
0
41
1
10
33.9381634395354
20
3.09020402963301
30
0
41
1
10
33.9606772432153
20
3.09057039697856
30
0
41
1
10
34.0282258038736
20
3.09165992068196
30
0
41
1
10
34.0732677108136
20
3.09237349995081
30
0
41
1
10
34.2084220765563
20
3.09447390640901
30
0
41
1
10
34.2985631860901
20
3.09582042067459
30
0
41
1
10
34.5691012723198
20
3.09968186387516
30
0
41
1
10
34.7496131089346
20
3.10201898042638
30
0
41
1
10
35.1109415333722
20
3.10612215295671
30
0
41
1
10
35.2917581313403
20
3.10788819650776
30
0
41
1
10
35.5632079587315
20
3.11002966022451
30
0
41
1
10
35.6537286954718
20
3.11065881203257
30
0
41
1
10
35.7895652814856
20
3.11146501880933
30
0
41
1
10
35.8348533885067
20
3.11171083020716
30
0
41
1
10
35.9254479522481
20
3.11215480331259
30
0
41
1
10
35.9709177035706
20
3.11235085768578
30
0
41
1
10
36.061222222428
20
3.11270191385799
30
0
41
1
10
36.1060509298874
20
3.11286516396035
30
0
41
1
10
36.1960408814623
20
3.1131535419751
30
0
41
1
10
36.2410388748942
20
3.11328071760755
30
0
41
1
10
36.3760421084829
20
3.11360923412926
30
0
41
1
10
36.4660566038278
20
3.11375758171758
30
0
41
1
10
36.7361386496506
20
3.11397427022189
30
0
41
1
10
36.9162448012801
20
3.11381453156704
30
0
41
1
10
37.2765673844978
20
3.11279286108032
30
0
41
1
10
37.4567838301168
20
3.11193093041862
30
0
41
1
10
37.7271956381205
20
3.11003445784516
30
0
41
1
10
37.8173474177108
20
3.10930163561724
30
0
41
1
10
37.9525972739304
20
3.10804117369489
30
0
41
1
10
37.9976842561694
20
3.10759414411282
30
0
41
1
10
38.0878656724223
20
3.10664457770824
30
0
41
1
10
38.1330884935841
20
3.10613827915972
30
0
41
1
10
38.2230280887147
20
3.10508343275555
30
0
41
1
10
38.2677378707552
20
3.10454224895403
30
0
41
1
10
38.357407718331
20
3.10340900398154
30
0
41
1
10
38.4022394473841
20
3.1028206513443
30
0
41
1
10
38.5367254971251
20
3.10098869450721
30
0
41
1
10
38.6263706796638
20
3.09967820900516
30
0
41
1
10
38.8952732803262
20
3.0954649247374
30
0
41
1
10
39.0744977507844
20
3.09228059161504
30
0
41
1
10
39.4328782115816
20
3.08507794052937
30
0
41
1
10
39.6120342167407
20
3.08105963750526
30
0
41
1
10
39.8807312993288
20
3.07433728207369
30
0
41
1
10
39.9702908366508
20
3.07198060419765
30
0
41
1
10
40.1493999477011
20
3.06702296490278
30
0
41
1
10
40.2390878084585
20
3.06441524530712
30
0
41
1
10
40.4179027170478
20
3.05896943209638
30
0
41
1
10
40.5069949858506
20
3.05615009095604
30
0
41
1
10
40.6853820397693
20
3.05027225751744
30
0
41
1
10
40.7745386635197
20
3.04722045734184
30
0
41
1
10
41.0419038042837
20
3.03771630995317
30
0
41
1
10
41.2200075640226
20
3.03091554399401
30
0
41
1
10
41.7539487470559
20
3.00902710742989
30
0
41
1
10
42.1095611035892
20
2.99244869536031
30
0
41
1
10
42.819486102306
20
2.95475867382694
30
0
41
1
10
43.1731409479653
20
2.93377188035717
30
0
41
1
10
43.7025880454609
20
2.89889384292078
30
0
41
1
10
43.8788619060559
20
2.88670268551488
30
0
41
1
10
44.2310406424674
20
2.86114841966219
30
0
41
1
10
44.4068114134992
20
2.84779854495602
30
0
41
1
10
44.7585697349863
20
2.81981869909151
30
0
41
1
10
44.9343756545991
20
2.80516811700593
30
0
41
1
10
45.2850923837569
20
2.7746496202457
30
0
41
1
10
45.4601376140611
20
2.75876858637781
30
0
41
1
10
45.8096614296232
20
2.72577411649732
30
0
41
1
10
45.9841400054277
20
2.70866072494647
30
0
41
1
10
46.2454790941375
20
2.68206340090435
30
0
41
1
10
46.3325290110909
20
2.67304296405797
30
0
41
1
10
46.5065105276996
20
2.65469073839009
30
0
41
1
10
46.5932657638121
20
2.64538145115594
30
0
41
1
10
46.76737141817
20
2.62635842896211
30
0
41
1
10
46.8546721278843
20
2.61662468700396
30
0
41
1
10
47.0287185944227
20
2.59685728619294
30
0
41
1
10
47.1156408924509
20
2.58680120035913
30
0
41
1
10
47.376117920869
20
2.55612928105444
30
0
41
1
10
47.5493827111562
20
2.53501032503019
30
0
41
1
10
47.8952096905885
20
2.49148991214696
30
0
41
1
10
48.0677718586139
20
2.46908850548439
30
0
41
1
10
48.3261429820388
20
2.4345558286999
30
0
41
1
10
48.4121880241319
20
2.42288969754827
30
0
41
1
10
48.5411446618744
20
2.40516019985202
30
0
41
1
10
48.5841117217525
20
2.39921197416882
30
0
41
1
10
48.6700100677022
20
2.38723904558705
30
0
41
1
10
48.7128016397249
20
2.38123646455119
30
0
41
1
10
48.7989090772356
20
2.3690665670305
30
0
41
1
10
48.8422122009906
20
2.36289062437726
30
0
41
1
10
48.9284795951839
20
2.35049124070386
30
0
41
1
10
48.9715836718203
20
2.34424574028392
30
0
41
1
10
49.1008088104101
20
2.32537490853358
30
0
41
1
10
49.1868427768357
20
2.31261528294834
30
0
41
1
10
49.4446105846191
20
2.27382266139369
30
0
41
1
10
49.6160102429069
20
2.24727654396187
30
0
41
1
10
49.9579964884102
20
2.19292628771379
30
0
41
1
10
50.1285830444507
20
2.16512220242689
30
0
41
1
10
50.3839140090948
20
2.12254021526235
30
0
41
1
10
50.4689328809523
20
2.10820007677137
30
0
41
1
10
50.5963319189058
20
2.08647755573767
30
0
41
1
10
50.6387767219557
20
2.07920131878825
30
0
41
1
10
50.7236245856334
20
2.06457906763114
30
0
41
1
10
50.7658427891227
20
2.05726800402567
30
0
41
1
10
50.8509782431708
20
2.04243722160535
30
0
41
1
10
50.8938828571218
20
2.03490573167042
30
0
41
1
10
50.9792573842354
20
2.01982271210713
30
0
41
1
10
51.0219122458942
20
2.012236317055
30
0
41
1
10
51.1497814619295
20
1.98934680510555
30
0
41
1
10
51.2349004420703
20
1.97391340255967
30
0
41
1
10
51.4898907479617
20
1.92712516883688
30
0
41
1
10
51.6593953266617
20
1.89528301662406
30
0
41
1
10
51.9975080847987
20
1.83045916489976
30
0
41
1
10
52.166116225691
20
1.79747752056303
30
0
41
1
10
52.4184202525213
20
1.74725336569421
30
0
41
1
10
52.5024202658494
20
1.73038651224448
30
0
41
1
10
52.6282766645031
20
1.70490915534953
30
0
41
1
10
52.6702048630542
20
1.69638717786179
30
0
41
1
10
52.7330623304067
20
1.68356120205914
30
0
41
1
10
52.7540090145926
20
1.67927870770691
30
0
41
1
10
52.7958909537942
20
1.6706995843742
30
0
41
1
10
52.8167112752122
20
1.66642796815435
30
0
41
1
10
52.8588004051944
20
1.65777074691118
30
0
41
1
10
52.8800662485341
20
1.65338153173391
30
0
41
1
10
52.9223507769112
20
1.64463211678961
30
0
41
1
10
52.943484439075
20
1.64024695720698
30
0
41
1
10
53.0068598423358
20
1.62706081320422
30
0
41
1
10
53.049075999767
20
1.61822916603654
30
0
41
1
10
53.175623932086
20
1.59161699839404
30
0
41
1
10
53.2598551603253
20
1.573719297114
30
0
41
1
10
53.5121612337181
20
1.51959921449583
30
0
41
1
10
53.6798483329092
20
1.48295062891924
30
0
41
1
10
54.014269142433
20
1.40872121803156
30
0
41
1
10
54.1810028109064
20
1.37114044805853
30
0
41
1
10
54.4304521914136
20
1.31420469273112
30
0
41
1
10
54.513493505854
20
1.29513180292923
30
0
41
1
10
54.6379011689084
20
1.26639593115496
30
0
41
1
10
54.679344674844
20
1.25679620420343
30
0
41
1
10
54.7414724413144
20
1.24236670195205
30
0
41
1
10
54.7621754482451
20
1.23755188166194
30
0
41
1
10
54.8035691476041
20
1.22791254883995
30
0
41
1
10
54.824126048899
20
1.22312038332166
30
0
41
1
10
54.865762885649
20
1.21339724484699
30
0
41
1
10
54.8868401624228
20
1.20846219277374
30
0
41
1
10
54.9287095862068
20
1.19863938229884
30
0
41
1
10
54.9496355633742
20
1.19371933669225
30
0
41
1
10
55.0123874938508
20
1.17893407507671
30
0
41
1
10
55.0541874455839
20
1.16904373694746
30
0
41
1
10
55.1794849360231
20
1.13927849281524
30
0
41
1
10
55.2628801016415
20
1.11930940576258
30
0
41
1
10
55.5126695203818
20
1.05907371053235
30
0
41
1
10
55.6786675382804
20
1.01847949885129
30
0
41
1
10
56.009681954052
20
0.936655326369333
30
0
41
1
10
56.1746983111898
20
0.895425420700889
30
0
41
1
10
56.421546881381
20
0.833262178670168
30
0
41
1
10
56.5037171239193
20
0.812487815387613
30
0
41
1
10
56.6268115689011
20
0.781264122739941
30
0
41
1
10
56.6678162341509
20
0.770845852842825
30
0
41
1
10
56.72928404018
20
0.755204981542505
30
0
41
1
10
56.749766777088
20
0.749989112402659
30
0
41
1
10
56.790719362392
20
0.739553221153642
30
0
41
1
10
56.8110390909685
20
0.734372102707823
30
0
41
1
10
56.8522663156461
20
0.723850428170351
30
0
41
1
10
56.8731716010498
20
0.718505564212848
30
0
41
1
10
56.9146647167549
20
0.70788140165098
30
0
41
1
10
56.9354026993178
20
0.702563262536785
30
0
41
1
10
56.9975910916125
20
0.686591526980635
30
0
41
1
10
57.0390159452794
20
0.675920615126529
30
0
41
1
10
57.163189667243
20
0.643845342950982
30
0
41
1
10
57.2458376864251
20
0.622378497113829
30
0
41
1
10
57.4933897819931
20
0.557779950042232
30
0
41
1
10
57.6579017186319
20
0.514451110454985
30
0
41
1
10
57.98594493906
20
0.427524043671013
30
0
41
1
10
58.1494761882125
20
0.383925871767758
30
0
41
1
10
58.3403101636582
20
0.332882794736463
30
0
41
1
10
58.3680545570872
20
0.325457754942448
30
0
41
1
10
58.3957859670339
20
0.318032602613698
30
0
0
SPLINE
5
161
100
AcDbEntity
8
1
62
256
6
ByLayer
370
18
48
1
60
0
100
AcDbSpline
70
4
71
3
72
8
73
4
40
0
40
0
40
0
40
0
40
1
40
1
40
1
40
1
41
1
10
74.2000484956479
20
-6.1756093846779
30
0
41
1
10
74.2563592590458
20
-6.11786535343074
30
0
41
1
10
74.3128594304298
20
-6.05962166869364
30
0
41
1
10
74.3695486937835
20
-6.00089083717671
30
0
0
SPLINE
5
162
100
AcDbEntity
8
1
62
256
6
ByLayer
370
18
48
1
60
0
100
AcDbSpline
70
4
71
3
72
10
73
6
40
0
40
0
40
0
40
0
40
0.968288572374335
40
0.968288572374335
40
1
40
1
40
1
40
1
41
1
10
14.3671627449791
20
-6.00823262616132
30
0
41
1
10
16.6219238789936
20
-5.85336047445819
30
0
41
1
10
18.8736759061141
20
-5.619097510882
30
0
41
1
10
21.2018865126833
20
-5.30455678664501
30
0
41
1
10
21.2757227419598
20
-5.29450659045298
30
0
41
1
10
21.3495625977058
20
-5.28438149543683
30
0
0
SPLINE
5
163
100
AcDbEntity
8
1
62
256
6
ByLayer
370
18
48
1
60
0
100
AcDbSpline
70
4
71
3
72
10
73
6
40
0
40
0
40
0
40
0
40
0.487442354535968
40
0.487442354535968
40
1
40
1
40
1
40
1
41
1
10
63.2356844123514
20
6.22624069063579
30
0
41
1
10
63.7149379235266
20
6.22177187747752
30
0
41
1
10
64.1947976849753
20
6.20037730712377
30
0
41
1
10
65.1822754207138
20
6.12223378740939
30
0
41
1
10
65.6900417348926
20
6.06369819265453
30
0
41
1
10
66.2004977986991
20
5.98648636690382
30
0
0
SPLINE
5
164
100
AcDbEntity
8
1
62
256
6
ByLayer
370
18
48
1
60
0
100
AcDbSpline
70
4
71
3
72
8
73
4
40
0
40
0
40
0
40
0
40
1
40
1
40
1
40
1
41
1
10
12.4
20
6.2384577735983
30
0
41
1
10
12.9008862966666
20
6.21431721130378
30
0
41
1
10
13.4016098037
20
6.18619237019732
30
0
41
1
10
13.9022348392646
20
6.15414291235049
30
0
0
SPLINE
5
165
100
AcDbEntity
8
1
62
256
6
ByLayer
370
18
48
1
60
0
100
AcDbSpline
70
4
71
3
72
16
73
12
40
0
40
0
40
0
40
0
40
0.25000000000005
40
0.25000000000005
40
0.500000000000099
40
0.500000000000099
40
0.625000000000091
40
0.625000000000091
40
0.750000000000083
40
0.750000000000083
40
1
40
1
40
1
40
1
41
1
10
66.6653376481095
20
-6.02376101878602
30
0
41
1
10
66.6288902394871
20
-6.0113285031386
30
0
41
1
10
66.5916973092865
20
-6.00132406021282
30
0
41
1
10
66.5159454562945
20
-5.98594022659449
30
0
41
1
10
66.4773861058632
20
-5.98056197835652
30
0
41
1
10
66.4185772530558
20
-5.97594133246005
30
0
41
1
10
66.3988158439435
20
-5.97498048443592
30
0
41
1
10
66.3593086837117
20
-5.97421670457265
30
0
41
1
10
66.3395216968051
20
-5.97440982282606
30
0
41
1
10
66.280074136975
20
-5.97668636888358
30
0
41
1
10
66.2403271981661
20
-5.98046175309366
30
0
41
1
10
66.2004977986991
20
-5.98648636690365
30
0
0
SPLINE
5
166
100
AcDbEntity
8
1
62
256
6
ByLayer
370
18
48
1
60
0
100
AcDbSpline
70
4
71
3
72
10
73
6
40
0
40
0
40
0
40
0
40
0.869565097013087
40
0.869565097013087
40
1
40
1
40
1
40
1
41
1
10
66.6653376481098
20
-6.02376101878602
30
0
41
1
10
67.6115060062393
20
-5.85568243306835
30
0
41
1
10
68.5578396230791
20
-5.62374097158877
30
0
41
1
10
69.6545896772953
20
-5.28832682799401
30
0
41
1
10
69.7978107113182
20
-5.24323423298199
30
0
41
1
10
69.9412242222864
20
-5.19681456255262
30
0
0
SPLINE
5
167
100
AcDbEntity
8
1
62
256
6
ByLayer
370
18
48
1
60
0
100
AcDbSpline
70
4
71
3
72
70
73
66
40
0
40
0
40
0
40
0
40
0.0074749213057069
40
0.0074749213057069
40
0.0570217103616409
40
0.0570217103616409
40
0.106568499417575
40
0.106568499417575
40
0.156115288473509
40
0.156115288473509
40
0.205662077529443
40
0.205662077529443
40
0.255208866585377
40
0.255208866585377
40
0.304755655641311
40
0.304755655641311
40
0.354302444697244
40
0.354302444697244
40
0.379075839225211
40
0.379075839225211
40
0.403849233753178
40
0.403849233753178
40
0.428622628281146
40
0.428622628281146
40
0.453396022809114
40
0.453396022809114
40
0.478169417337083
40
0.478169417337083
40
0.50294281186505
40
0.50294281186505
40
0.527716206393018
40
0.527716206393018
40
0.552489600920987
40
0.552489600920987
40
0.577262995448955
40
0.577262995448955
40
0.602036389976923
40
0.602036389976923
40
0.626809784504888
40
0.626809784504888
40
0.651583179032854
40
0.651583179032854
40
0.67635657356082
40
0.67635657356082
40
0.701129968088786
40
0.701129968088786
40
0.725903362616751
40
0.725903362616751
40
0.750676757144717
40
0.750676757144717
40
0.775450151672683
40
0.775450151672683
40
0.800223546200649
40
0.800223546200649
40
0.824993981623822
40
0.824993981623822
40
0.849764417046995
40
0.849764417046995
40
0.899305287893342
40
0.899305287893342
40
0.948846158739689
40
0.948846158739689
40
0.998387029586036
40
0.998387029586036
40
1
40
1
40
1
40
1
41
1
10
45.584229210257
20
-0.881988609710874
30
0
41
1
10
45.6352030822277
20
-0.893384956440542
30
0
41
1
10
45.6861458088619
20
-0.904785749197202
30
0
41
1
10
46.0745047621315
20
-0.991777763908118
30
0
41
1
10
46.4104811886943
20
-1.06782717547153
30
0
41
1
10
47.0828995348159
20
-1.22054247508461
30
0
41
1
10
47.4197245482727
20
-1.29730416328829
30
0
41
1
10
48.0877725291098
20
-1.44910028648582
30
0
41
1
10
48.4197894862975
20
-1.52487749807418
30
0
41
1
10
49.0855340240977
20
-1.67610467297735
30
0
41
1
10
49.4195961592505
20
-1.75163815110176
30
0
41
1
10
50.0812640714796
20
-1.89913228630138
30
0
41
1
10
50.4096558849429
20
-1.97207462549889
30
0
41
1
10
51.0693306602289
20
-2.11645765066137
30
0
41
1
10
51.4009464287222
20
-2.1879704760166
30
0
41
1
10
52.0569370255224
20
-2.32545780230311
30
0
41
1
10
52.3820593401849
20
-2.39264880793348
30
0
41
1
10
52.8728209457605
20
-2.49134451279014
30
0
41
1
10
53.0364934863015
20
-2.52379301590437
30
0
41
1
10
53.3639522711587
20
-2.58753775545921
30
0
41
1
10
53.5287315101523
20
-2.61905968499985
30
0
41
1
10
53.8543691925462
20
-2.67981044771585
30
0
41
1
10
54.0153948819423
20
-2.7093868951948
30
0
41
1
10
54.3397848962179
20
-2.76801115866175
30
0
41
1
10
54.5021559972389
20
-2.79683244181444
30
0
41
1
10
54.8272115309139
20
-2.8532129271577
30
0
41
1
10
54.9898960016808
20
-2.88077201789719
30
0
41
1
10
55.3155341832238
20
-2.93435976453233
30
0
41
1
10
55.4796007132409
20
-2.96061647822174
30
0
41
1
10
55.8035013052159
20
-3.01043409685849
30
0
41
1
10
55.96347432172
20
-3.03437238352592
30
0
41
1
10
56.2861271101176
20
-3.08139147718865
30
0
41
1
10
56.4476938774309
20
-3.10424331865667
30
0
41
1
10
56.7712862277278
20
-3.14835136622367
30
0
41
1
10
56.9333118431738
20
-3.16960745508882
30
0
41
1
10
57.2577941230815
20
-3.21025637131464
30
0
41
1
10
57.4214659442916
20
-3.22985892795421
30
0
41
1
10
57.744345415961
20
-3.26611016674613
30
0
41
1
10
57.9036563317913
20
-3.28314909017323
30
0
41
1
10
58.2253159493395
20
-3.31604485786457
30
0
41
1
10
58.3864493580267
20
-3.33169103042442
30
0
41
1
10
58.7093211519768
20
-3.36111755440473
30
0
41
1
10
58.8710595594576
20
-3.37489778398273
30
0
41
1
10
59.1951328779676
20
-3.40034305800933
30
0
41
1
10
59.3587569641624
20
-3.41217771260014
30
0
41
1
10
59.6814294734856
20
-3.43282050957677
30
0
41
1
10
59.8405390169174
20
-3.44201068751622
30
0
41
1
10
60.1620658158405
20
-3.45891306736098
30
0
41
1
10
60.3231938132224
20
-3.4664547217136
30
0
41
1
10
60.6461981984141
20
-3.47949085268269
30
0
41
1
10
60.8080745943998
20
-3.48498520329829
30
0
41
1
10
61.1325885502017
20
-3.49371215908082
30
0
41
1
10
61.2963540984257
20
-3.49703961591141
30
0
41
1
10
61.6201210395441
20
-3.5008556588146
30
0
41
1
10
61.7798901448346
20
-3.50162363879411
30
0
41
1
10
62.1020004714273
20
-3.50136438070783
30
0
41
1
10
62.2632142711008
20
-3.50024158039489
30
0
41
1
10
62.7473462605469
20
-3.49376640982885
30
0
41
1
10
63.070758513762
20
-3.48530264704169
30
0
41
1
10
63.7188922477337
20
-3.45948525371998
30
0
41
1
10
64.043599449372
20
-3.44193923300523
30
0
41
1
10
64.68893366538
20
-3.3985880128244
30
0
41
1
10
65.0129034580385
20
-3.37280877402051
30
0
41
1
10
65.3467496202542
20
-3.34180205553167
30
0
41
1
10
65.3572756804794
20
-3.34082011534181
30
0
41
1
10
65.3678011128719
20
-3.33983392584528
30
0
0
SPLINE
5
168
100
AcDbEntity
8
1
62
256
6
ByLayer
370
18
48
1
60
0
100
AcDbSpline
70
4
71
3
72
83
73
79
40
0
40
0
40
0
40
0
40
0.125000000000001
40
0.125000000000001
40
0.156250000000001
40
0.156250000000001
40
0.187500000000001
40
0.187500000000001
40
0.250000000000002
40
0.250000000000002
40
0.265625000000002
40
0.265625000000002
40
0.281250000000002
40
0.281250000000002
40
0.296875000000002
40
0.296875000000002
40
0.312500000000002
40
0.312500000000002
40
0.343750000000003
40
0.343750000000003
40
0.375000000000003
40
0.375000000000003
40
0.390625000000003
40
0.390625000000003
40
0.406250000000004
40
0.406250000000004
40
0.437500000000004
40
0.437500000000004
40
0.468750000000005
40
0.468750000000005
40
0.500000000000005
40
0.500000000000005
40
0.515625000000006
40
0.523437500000006
40
0.523437500000006
40
0.531250000000006
40
0.531250000000006
40
0.562500000000005
40
0.562500000000005
40
0.593750000000005
40
0.593750000000005
40
0.625000000000004
40
0.625000000000004
40
0.640625000000004
40
0.640625000000004
40
0.648437500000004
40
0.648437500000004
40
0.656250000000004
40
0.656250000000004
40
0.687500000000004
40
0.687500000000004
40
0.718750000000004
40
0.718750000000004
40
0.750000000000004
40
0.750000000000004
40
0.781250000000004
40
0.781250000000004
40
0.812500000000003
40
0.812500000000003
40
0.828125000000003
40
0.828125000000003
40
0.835937500000003
40
0.835937500000003
40
0.843750000000004
40
0.843750000000004
40
0.875000000000004
40
0.875000000000004
40
0.890625000000003
40
0.890625000000003
40
0.906250000000003
40
0.906250000000003
40
0.921875000000003
40
0.921875000000003
40
0.937500000000002
40
0.937500000000002
40
0.968750000000001
40
0.968750000000001
40
1
40
1
40
1
40
1
41
1
10
14.3671627449791
20
6.00823262616134
30
0
41
1
10
16.6219238789936
20
5.85336047445821
30
0
41
1
10
18.8736759061141
20
5.61909751088203
30
0
41
1
10
21.6916505616412
20
5.23838977485073
30
0
41
1
10
22.2555570792954
20
5.15783934177787
30
0
41
1
10
23.382462510518
20
4.98859857461838
30
0
41
1
10
23.9455995598904
20
4.89989391778943
30
0
41
1
10
25.6343222574942
20
4.62214607982199
30
0
41
1
10
26.7591894251632
20
4.4213909244092
30
0
41
1
10
28.1650038788372
20
4.15327504063589
30
0
41
1
10
28.4461533938217
20
4.09879821752361
30
0
41
1
10
29.0084516270684
20
3.98822017875077
30
0
41
1
10
29.2896010824495
20
3.93211845899722
30
0
41
1
10
29.8518358821356
20
3.81812215284799
30
0
41
1
10
30.1329218710063
20
3.76023134060552
30
0
41
1
10
30.6949662250599
20
3.64250958840745
30
0
41
1
10
30.9759206540056
20
3.58267641792003
30
0
41
1
10
31.8185505211094
20
3.40008618919273
30
0
41
1
10
32.3799813119859
20
3.27418288510083
30
0
41
1
10
33.5018109903797
20
3.01205885727057
30
0
41
1
10
34.0622475660456
20
2.87598579484199
30
0
41
1
10
34.9020253446015
20
2.66322649649933
30
0
41
1
10
35.1818017431328
20
2.59083987125285
30
0
41
1
10
35.7410649214408
20
2.44299714726284
30
0
41
1
10
36.0206347767181
20
2.36751724246062
30
0
41
1
10
36.8579752448885
20
2.13649416851996
30
0
41
1
10
37.4145145064675
20
1.97625962688588
30
0
41
1
10
38.5241932519862
20
1.64284153957436
30
0
41
1
10
39.0773296456381
20
1.46964189184553
30
0
41
1
10
40.1802712283427
20
1.10991568886507
30
0
41
1
10
40.7301004622663
20
0.92345967273522
30
0
41
1
10
41.5526116530352
20
0.634131599143899
30
0
41
1
10
41.9633082239987
20
0.487052570283794
30
0
41
1
10
42.3732554175832
20
0.336526301811943
30
0
41
1
10
42.6463967595774
20
0.235428108060603
30
0
41
1
10
42.78292259049
20
0.184492682051399
30
0
41
1
10
43.4646743970239
20
-0.0718147509690539
30
0
41
1
10
44.0072501669846
20
-0.282163197211929
30
0
41
1
10
45.087481745846
20
-0.711163547572369
30
0
41
1
10
45.6251283113902
20
-0.929842292370722
30
0
41
1
10
46.6963989238557
20
-1.37282560743415
30
0
41
1
10
47.2300595621858
20
-1.59704152775473
30
0
41
1
10
48.0284556060754
20
-1.93496334717594
30
0
41
1
10
48.2942461288122
20
-2.0478528144227
30
0
41
1
10
48.6925682485233
20
-2.21716443992341
30
0
41
1
10
48.8252193823466
20
-2.27357113187818
30
0
41
1
10
49.0898897675305
20
-2.38608385774757
30
0
41
1
10
49.2219678686388
20
-2.4422149094689
30
0
41
1
10
49.8811169567594
20
-2.72208528739981
30
0
41
1
10
50.4044233505482
20
-2.94353755694885
30
0
41
1
10
51.4446795405663
20
-3.37651524882531
30
0
41
1
10
51.9615804962953
20
-3.58812235793925
30
0
41
1
10
52.9908586726122
20
-3.99691876495856
30
0
41
1
10
53.5032491847186
20
-4.19408727717186
30
0
41
1
10
54.5255148455123
20
-4.56911945128104
30
0
41
1
10
55.0354605126556
20
-4.74682032579636
30
0
41
1
10
56.0552217094369
20
-5.07840143839687
30
0
41
1
10
56.5650402740031
20
-5.23228263505908
30
0
41
1
10
57.3316606023094
20
-5.44161584459027
30
0
41
1
10
57.5875028978906
20
-5.50781283660245
30
0
41
1
10
57.9719808144358
20
-5.60132707039878
30
0
41
1
10
58.1003697313385
20
-5.63156097079889
30
0
41
1
10
58.3566034557039
20
-5.68986173436028
30
0
41
1
10
58.4845052888458
20
-5.71794409888889
30
0
41
1
10
59.1230503636478
20
-5.8529518908943
30
0
41
1
10
59.6307854689207
20
-5.94370013693575
30
0
41
1
10
60.3897155084165
20
-6.05251840043417
30
0
41
1
10
60.6422537831096
20
-6.0842213489162
30
0
41
1
10
61.1468134089109
20
-6.13828641232158
30
0
41
1
10
61.3988329519497
20
-6.16066657722683
30
0
41
1
10
61.9026030016345
20
-6.19595644284541
30
0
41
1
10
62.1543551855206
20
-6.20883827389594
30
0
41
1
10
62.6578861274001
20
-6.22495860054528
30
0
41
1
10
62.9096672212628
20
-6.22822880313495
30
0
41
1
10
63.6654926480655
20
-6.22393224841195
30
0
41
1
10
64.1699968943573
20
-6.2023399043554
30
0
41
1
10
65.1822754207139
20
-6.12223378740924
30
0
41
1
10
65.6900417348926
20
-6.06369819265439
30
0
41
1
10
66.2004977986991
20
-5.98648636690365
30
0
0
SPLINE
5
169
100
AcDbEntity
8
1
62
256
6
ByLayer
370
18
48
1
60
0
100
AcDbSpline
70
4
71
3
72
50
73
46
40
0
40
0
40
0
40
0
40
0.0625000000000001
40
0.0625000000000001
40
0.125
40
0.1875
40
0.1875
40
0.203125
40
0.203125
40
0.21875
40
0.21875
40
0.250000000000001
40
0.250000000000001
40
0.312500000000001
40
0.375000000000001
40
0.375000000000001
40
0.406250000000001
40
0.406250000000001
40
0.421875000000001
40
0.421875000000001
40
0.437500000000001
40
0.437500000000001
40
0.500000000000001
40
0.500000000000001
40
0.5625
40
0.5625
40
0.625
40
0.625
40
0.640625
40
0.640625
40
0.65625
40
0.65625
40
0.6875
40
0.6875
40
0.75
40
0.8125
40
0.8125
40
0.843749999999999
40
0.859374999999999
40
0.859374999999999
40
0.874999999999999
40
0.874999999999999
40
0.9375
40
0.9375
40
1
40
1
40
1
40
1
41
1
10
66.666093630131
20
-1.66647362363301
30
0
41
1
10
66.6662963529483
20
-1.47125803926787
30
0
41
1
10
66.6664954744516
20
-1.27501416097064
30
0
41
1
10
66.6668805387985
20
-0.880535207634239
30
0
41
1
10
66.6672524350871
20
-0.484064643354429
30
0
41
1
10
66.6675868162191
20
-0.0836315223910447
30
0
41
1
10
66.6677806309343
20
0.16790476514899
30
0
41
1
10
66.6678186350262
20
0.218275438455123
30
0
41
1
10
66.6678930380771
20
0.319144861552729
30
0
41
1
10
66.6679294729469
20
0.36969690130897
30
0
41
1
10
66.6680357434077
20
0.520832117008098
30
0
41
1
10
66.6681026801311
20
0.621068944189346
30
0
41
1
10
66.66829121943
20
0.920247245289602
30
0
41
1
10
66.6685098677484
20
1.31507263839026
30
0
41
1
10
66.6686576661364
20
1.70186428497061
30
0
41
1
10
66.6687400080979
20
1.98891054798284
30
0
41
1
10
66.6687627047275
20
2.08408388356614
30
0
41
1
10
66.6687893810191
20
2.22606848717928
30
0
41
1
10
66.6687970449831
20
2.2732673980459
30
0
41
1
10
66.6688098757652
20
2.36740388121169
30
0
41
1
10
66.6688150211109
20
2.41419097170953
30
0
41
1
10
66.6688344078339
20
2.64646865686552
30
0
41
1
10
66.6688296671865
20
2.82727729238147
30
0
41
1
10
66.6687809035535
20
3.17914596124532
30
0
41
1
10
66.6687368786615
20
3.35020534849298
30
0
41
1
10
66.6686108076801
20
3.68258558652454
30
0
41
1
10
66.6685287590288
20
3.8439069772395
30
0
41
1
10
66.6684032933464
20
4.03931396395677
30
0
41
1
10
66.6683770553504
20
4.07808244362866
30
0
41
1
10
66.6683223129809
20
4.15498678406436
30
0
41
1
10
66.668293813249
20
4.19310972224213
30
0
41
1
10
66.6682054559889
20
4.30591458114111
30
0
41
1
10
66.6681425967278
20
4.3792412112536
30
0
41
1
10
66.6679430546509
20
4.59369380232206
30
0
41
1
10
66.6676477664914
20
4.86491569657161
30
0
41
1
10
66.6673034460272
20
5.10718072956874
30
0
41
1
10
66.6670304602602
20
5.27790538538173
30
0
41
1
10
66.6668902835798
20
5.36051966056118
30
0
41
1
10
66.6667452999878
20
5.43894749416904
30
0
41
1
10
66.6666476595038
20
5.4902920874537
30
0
41
1
10
66.6665982876064
20
5.51552241121138
30
0
41
1
10
66.6663503955045
20
5.63870128051616
30
0
41
1
10
66.6661481683689
20
5.72810440498821
30
0
41
1
10
66.6657423419486
20
5.8891989218971
30
0
41
1
10
66.6655387329645
20
5.96088886475937
30
0
41
1
10
66.6653376481098
20
6.02376101878622
30
0
0
SPLINE
5
16A
100
AcDbEntity
8
1
62
256
6
ByLayer
370
18
48
1
60
0
100
AcDbSpline
70
4
71
3
72
16
73
12
40
0
40
0
40
0
40
0
40
0.249999999999951
40
0.249999999999951
40
0.499999999999901
40
0.499999999999901
40
0.624999999999909
40
0.624999999999909
40
0.749999999999917
40
0.749999999999917
40
1
40
1
40
1
40
1
41
1
10
66.6653376481095
20
6.02376101878619
30
0
41
1
10
66.628890239487
20
6.01132850313877
30
0
41
1
10
66.5916973092865
20
6.00132406021297
30
0
41
1
10
66.5159454562944
20
5.98594022659464
30
0
41
1
10
66.4773861058632
20
5.98056197835669
30
0
41
1
10
66.4185772530558
20
5.97594133246022
30
0
41
1
10
66.3988158439435
20
5.97498048443606
30
0
41
1
10
66.3593086837117
20
5.9742167045728
30
0
41
1
10
66.3395216968051
20
5.97440982282623
30
0
41
1
10
66.280074136975
20
5.97668636888375
30
0
41
1
10
66.2403271981661
20
5.98046175309381
30
0
41
1
10
66.2004977986991
20
5.98648636690379
30
0
0
SPLINE
5
16B
100
AcDbEntity
8
1
62
256
6
ByLayer
370
13
48
1
60
0
100
AcDbSpline
70
4
71
3
72
50
73
46
40
0
40
0
40
0
40
0
40
0.0624999999999999
40
0.0624999999999999
40
0.0781249999999998
40
0.0781249999999998
40
0.0937499999999998
40
0.0937499999999998
40
0.125
40
0.125
40
0.1875
40
0.25
40
0.25
40
0.28125
40
0.296875
40
0.296875
40
0.3125
40
0.3125
40
0.375
40
0.375
40
0.4375
40
0.4375
40
0.5
40
0.5
40
0.53125
40
0.53125
40
0.5625
40
0.5625
40
0.625
40
0.6875
40
0.6875
40
0.703125
40
0.703125
40
0.71875
40
0.71875
40
0.75
40
0.75
40
0.8125
40
0.875
40
0.875
40
0.90625
40
0.90625
40
0.9375
40
0.9375
40
1
40
1
40
1
40
1
41
1
10
66.2009959947149
20
-1.63597390698439
30
0
41
1
10
66.2012158862632
20
-1.43951107418641
30
0
41
1
10
66.2014351021018
20
-1.2410428898377
30
0
41
1
10
66.2017036387818
20
-0.990461517133753
30
0
41
1
10
66.2017570723182
20
-0.940220154741553
30
0
41
1
10
66.2018632765522
20
-0.839486391496052
30
0
41
1
10
66.2019159621801
20
-0.789074009402782
30
0
41
1
10
66.2020723281211
20
-0.637977213997573
30
0
41
1
10
66.2021744376648
20
-0.537318358088982
30
0
41
1
10
66.2024732152892
20
-0.235554914276435
30
0
41
1
10
66.2028514331109
20
0.166228998385179
30
0
41
1
10
66.203177704998
20
0.566894840390233
30
0
41
1
10
66.2033986971047
20
0.866969295089632
30
0
41
1
10
66.2035032642437
20
1.0169001069367
30
0
41
1
10
66.2035981350456
20
1.16666848283089
30
0
41
1
10
66.2036591368108
20
1.26647752668012
30
0
41
1
10
66.2036883992612
20
1.31617559967793
30
0
41
1
10
66.2038283199527
20
1.56343852777349
30
0
41
1
10
66.2039199272888
20
1.75754971618744
30
0
41
1
10
66.2040608563776
20
2.13860752974497
30
0
41
1
10
66.2041101809061
20
2.3255535448065
30
0
41
1
10
66.204165150551
20
2.69230685968529
30
0
41
1
10
66.2041707976124
20
2.8721145041923
30
0
41
1
10
66.2041455804154
20
3.13634066936393
30
0
41
1
10
66.2041315611
20
3.22350023653485
30
0
41
1
10
66.2040921507596
20
3.39594498392012
30
0
41
1
10
66.2040668912758
20
3.48063872885947
30
0
41
1
10
66.2039750575577
20
3.72994795521353
30
0
41
1
10
66.2038097386741
20
4.04988073577951
30
0
41
1
10
66.203564662438
20
4.34504276945333
30
0
41
1
10
66.2033885581811
20
4.52161450657769
30
0
41
1
10
66.203352268844
20
4.55645336151531
30
0
41
1
10
66.203277790886
20
4.62505164976923
30
0
41
1
10
66.2032395803303
20
4.65883317971566
30
0
41
1
10
66.2031221793278
20
4.75864015768758
30
0
41
1
10
66.2030402198154
20
4.82312892701637
30
0
41
1
10
66.2027844134803
20
5.01053457546553
30
0
41
1
10
66.2024168588351
20
5.24427491518185
30
0
41
1
10
66.2020085284352
20
5.44598052936601
30
0
41
1
10
66.2016916949985
20
5.58499329737035
30
0
41
1
10
66.2015843232404
20
5.62928283439206
30
0
41
1
10
66.2013668894703
20
5.7136773694167
30
0
41
1
10
66.201257734497
20
5.75343155326681
30
0
41
1
10
66.2009303572782
20
5.86551359642652
30
0
41
1
10
66.2007122204885
20
5.93067992144645
30
0
41
1
10
66.2004977986991
20
5.98648636690376
30
0
0
SPLINE
5
16C
100
AcDbEntity
8
1
62
256
6
ByLayer
370
13
48
1
60
0
100
AcDbSpline
70
4
71
3
72
55
73
51
40
0
40
0
40
0
40
0
40
0.0624999999999999
40
0.0624999999999999
40
0.125
40
0.125
40
0.140625
40
0.140625
40
0.15625
40
0.15625
40
0.1875
40
0.1875
40
0.25
40
0.312500000000001
40
0.312500000000001
40
0.328125000000001
40
0.328125000000001
40
0.343750000000001
40
0.343750000000001
40
0.375000000000001
40
0.375000000000001
40
0.4375
40
0.5
40
0.5
40
0.53125
40
0.546875
40
0.546875
40
0.5625
40
0.5625
40
0.625
40
0.625
40
0.6875
40
0.6875
40
0.75
40
0.75
40
0.765625
40
0.765625
40
0.78125
40
0.78125
40
0.8125
40
0.8125
40
0.875
40
0.875
40
0.9375
40
0.9375
40
0.953125
40
0.953125
40
0.96875
40
0.96875
40
1
40
1
40
1
40
1
41
1
10
14.3671627449732
20
6.00823262616134
30
0
41
1
10
14.3671231348264
20
5.95075547087188
30
0
41
1
10
14.3670809055328
20
5.8825209747809
30
0
41
1
10
14.3669929056407
20
5.72434095763342
30
0
41
1
10
14.3669471318152
20
5.63439856538514
30
0
41
1
10
14.3668887942924
20
5.50781709091572
30
0
41
1
10
14.3668770595461
20
5.48176310231173
30
0
41
1
10
14.3668536588757
20
5.42856468348592
30
0
41
1
10
14.3668419760203
20
5.40138472966265
30
0
41
1
10
14.3668070238017
20
5.31812283269673
30
0
41
1
10
14.3667838510335
20
5.26032008753191
30
0
41
1
10
14.3667150593552
20
5.08014261088718
30
0
41
1
10
14.3666252776456
20
4.82189107652769
30
0
41
1
10
14.3665428686745
20
4.527925153659
30
0
41
1
10
14.3664947484778
20
4.33276266446086
30
0
41
1
10
14.3664852939152
20
4.29315694043137
30
0
41
1
10
14.3664667515368
20
4.21278592591528
30
0
41
1
10
14.3664576498398
20
4.17195453680912
30
0
41
1
10
14.3664310618018
20
4.0482860526871
30
0
41
1
10
14.3664142905796
20
3.96428988010874
30
0
41
1
10
14.3663670235736
20
3.7077574593624
30
0
41
1
10
14.366312131231
20
3.35362208052174
30
0
41
1
10
14.3662753136696
20
2.97581331830321
30
0
41
1
10
14.3662551237763
20
2.68347649441478
30
0
41
1
10
14.366246884289
20
2.53505849309545
30
0
41
1
10
14.3662415479993
20
2.38320378185958
30
0
41
1
10
14.3662386490637
20
2.28119345230419
30
0
41
1
10
14.3662375285907
20
2.22973439320654
30
0
41
1
10
14.3662336219392
20
1.97196637624091
30
0
41
1
10
14.3662358857889
20
1.76340329150182
30
0
41
1
10
14.3662508342168
20
1.34173147408481
30
0
41
1
10
14.3662635194008
20
1.12862233104355
30
0
41
1
10
14.3662989172496
20
0.697855405736107
30
0
41
1
10
14.3663216307752
20
0.480198059141855
30
0
41
1
10
14.3663560078231
20
0.205186267252145
30
0
41
1
10
14.3663631850835
20
0.150023438809114
30
0
41
1
10
14.3663780361545
20
0.0400628263596161
30
0
41
1
10
14.366385719941
20
-0.0148173875167004
30
0
41
1
10
14.3664095119018
20
-0.179161050190174
30
0
41
1
10
14.3664263606238
20
-0.288327731445918
30
0
41
1
10
14.3664795990533
20
-0.614658948982026
30
0
41
1
10
14.3665186820984
20
-0.830657808757053
30
0
41
1
10
14.3666025902168
20
-1.25956473728254
30
0
41
1
10
14.3666474180271
20
-1.47247298095405
30
0
41
1
10
14.3667061035764
20
-1.7366243581566
30
0
41
1
10
14.3667179729453
20
-1.78935517246995
30
0
41
1
10
14.3667419513475
20
-1.89461547087657
30
0
41
1
10
14.3667540495121
20
-1.94709629551795
30
0
41
1
10
14.3667905342654
20
-2.10368269710838
30
0
41
1
10
14.3668151475696
20
-2.207092814649
30
0
41
1
10
14.3668399341589
20
-2.30952042757755
30
0
0
SPLINE
5
16D
100
AcDbEntity
8
1
62
256
6
ByLayer
370
18
48
1
60
0
100
AcDbSpline
70
4
71
3
72
16
73
12
40
0
40
0
40
0
40
0
40
0.249999999999997
40
0.249999999999997
40
0.499999999999994
40
0.499999999999994
40
0.624999999999993
40
0.624999999999993
40
0.749999999999992
40
0.749999999999992
40
1
40
1
40
1
40
1
41
1
10
14.3671627449732
20
6.00823262616177
30
0
41
1
10
14.3262312736952
20
6.01104407475984
30
0
41
1
10
14.2858018126707
20
6.01630243245384
30
0
41
1
10
14.2059140989624
20
6.03147746430713
30
0
41
1
10
14.1664560015449
20
6.04139508005471
30
0
41
1
10
14.1080035945127
20
6.0597447377456
30
0
41
1
10
14.0886422180917
20
6.0664416734482
30
0
41
1
10
14.0501697440733
20
6.08101113118573
30
0
41
1
10
14.0310153347622
20
6.08890323972011
30
0
41
1
10
13.9742367763268
20
6.11425001715298
30
0
41
1
10
13.937632410405
20
6.13320510985864
30
0
41
1
10
13.9022348392653
20
6.15414291236101
30
0
0
SPLINE
5
16E
100
AcDbEntity
8
1
62
256
6
ByLayer
370
18
48
1
60
0
100
AcDbSpline
70
4
71
3
72
55
73
51
40
0
40
0
40
0
40
0
40
0.0624999999999993
40
0.0624999999999993
40
0.0781249999999992
40
0.0781249999999992
40
0.0937499999999991
40
0.0937499999999991
40
0.124999999999999
40
0.124999999999999
40
0.187499999999999
40
0.249999999999999
40
0.249999999999999
40
0.28125
40
0.28125
40
0.296875
40
0.296875
40
0.3125
40
0.3125
40
0.375
40
0.4375
40
0.4375
40
0.46875
40
0.46875
40
0.484375
40
0.484375
40
0.5
40
0.5
40
0.5625
40
0.5625
40
0.625
40
0.625
40
0.65625
40
0.65625
40
0.671875
40
0.671875
40
0.6875
40
0.6875
40
0.75
40
0.75
40
0.8125
40
0.8125
40
0.875
40
0.875
40
0.890625
40
0.890625
40
0.90625
40
0.9375
40
0.9375
40
1
40
1
40
1
40
1
41
1
10
13.9022348392848
20
6.15414291235084
30
0
41
1
10
13.9021988817901
20
6.099168653227
30
0
41
1
10
13.9021604172882
20
6.03267936851043
30
0
41
1
10
13.9021101963234
20
5.93495922580169
30
0
41
1
10
13.9021000451751
20
5.91468281769073
30
0
41
1
10
13.9020795542398
20
5.87265187084964
30
0
41
1
10
13.9020692029919
20
5.85087245184474
30
0
41
1
10
13.9020379854579
20
5.78346705146615
30
0
41
1
10
13.9020170277015
20
5.73593601978445
30
0
41
1
10
13.9019540523411
20
5.58573119466928
30
0
41
1
10
13.9018698206724
20
5.36520245738271
30
0
41
1
10
13.9017884471906
20
5.1048986255777
30
0
41
1
10
13.9017297360379
20
4.89452283433306
30
0
41
1
10
13.9017105521463
20
4.82186767849018
30
0
41
1
10
13.9016825151462
20
4.70901096111297
30
0
41
1
10
13.9016732820189
20
4.67069780777459
30
0
41
1
10
13.9016551901701
20
4.59320461893137
30
0
41
1
10
13.901646321076
20
4.55398562740425
30
0
41
1
10
13.901602905449
20
4.35555567589429
30
0
41
1
10
13.9015394004945
20
4.02316476956705
30
0
41
1
10
13.9014900139896
20
3.66167869074695
30
0
41
1
10
13.9014590569587
20
3.37954775134108
30
0
41
1
10
13.9014497515319
20
3.28366424035377
30
0
41
1
10
13.9014374124172
20
3.13703011350472
30
0
41
1
10
13.9014335692339
20
3.08768366913617
30
0
41
1
10
13.901426439175
20
2.98804255079801
30
0
41
1
10
13.9014231582276
20
2.93781737621498
30
0
41
1
10
13.9014082572729
20
2.68579174694463
30
0
41
1
10
13.9014010746808
20
2.48027299959344
30
0
41
1
10
13.9013962181606
20
2.0616707078276
30
0
41
1
10
13.9013985441415
20
1.84858659584714
30
0
41
1
10
13.9014091584871
20
1.52326431043693
30
0
41
1
10
13.901413883861
20
1.41387222736114
30
0
41
1
10
13.9014227492196
20
1.24833607871759
30
0
41
1
10
13.9014260005335
20
1.1929158942452
30
0
41
1
10
13.901433094703
20
1.08158744833031
30
0
41
1
10
13.9014369410141
20
1.02563270296875
30
0
41
1
10
13.9014576109581
20
0.745132864060054
30
0
41
1
10
13.9014785580459
20
0.520886094708203
30
0
41
1
10
13.9015282185313
20
0.0726878852625248
30
0
41
1
10
13.9015569339201
20
-0.15126352255939
30
0
41
1
10
13.9016210718423
20
-0.598871531558075
30
0
41
1
10
13.9016564965745
20
-0.8225281579941
30
0
41
1
10
13.9017042645425
20
-1.10190872008943
30
0
41
1
10
13.901714003547
20
-1.15783802905207
30
0
41
1
10
13.9017337276751
20
-1.26921260586499
30
0
41
1
10
13.9017636974907
20
-1.43564042441775
30
0
41
1
10
13.9017947032673
20
-1.60017906169878
30
0
41
1
10
13.9018577892751
20
-1.9267514769704
30
0
41
1
10
13.9019012821602
20
-2.14113386600374
30
0
41
1
10
13.9019453747684
20
-2.35213430253856
30
0
0
SPLINE
5
16F
100
AcDbEntity
8
1
62
256
6
ByLayer
370
18
48
1
60
0
100
AcDbSpline
70
4
71
3
72
41
73
37
40
0
40
0
40
0
40
0
40
0.054751019833913
40
0.054751019833913
40
0.109502039667826
40
0.109502039667826
40
0.219004079335652
40
0.219004079335652
40
0.273755099169566
40
0.301130609086522
40
0.301130609086522
40
0.328506119003479
40
0.328506119003479
40
0.438008158671306
40
0.438008158671306
40
0.547510198339132
40
0.547510198339132
40
0.574885708256089
40
0.574885708256089
40
0.602261218173046
40
0.602261218173046
40
0.65701223800696
40
0.65701223800696
40
0.711763257840874
40
0.711763257840874
40
0.766514277674788
40
0.766514277674788
40
0.821265297508702
40
0.821265297508702
40
0.876016317342616
40
0.876016317342616
40
0.930767337176531
40
0.930767337176531
40
0.985518357010445
40
0.985518357010445
40
1
40
1
40
1
40
1
41
1
10
14.2418888043703
20
-2.73681145235619
30
0
41
1
10
14.800910232829
20
-2.86934532224902
30
0
41
1
10
15.359855960619
20
-2.99975441805188
30
0
41
1
10
16.4778154733278
20
-3.25557251415444
30
0
41
1
10
17.0367152479454
20
-3.38095452480749
30
0
41
1
10
18.7128852498851
20
-3.74843644571874
30
0
41
1
10
19.8298734038671
20
-3.98188852401134
30
0
41
1
10
21.5056327782259
20
-4.3118882673547
30
0
41
1
10
22.3435797902988
20
-4.47185239824285
30
0
41
1
10
23.1817967337157
20
-4.62377796695606
30
0
41
1
10
23.7406842847567
20
-4.72322875849954
30
0
41
1
10
24.0201951570623
20
-4.77204347522223
30
0
41
1
10
25.4173858707591
20
-5.01130482324075
30
0
41
1
10
26.5343056836893
20
-5.18728698177878
30
0
41
1
10
28.7680327684752
20
-5.5047578241861
30
0
41
1
10
29.8847854914857
20
-5.64636940218759
30
0
41
1
10
31.2814744821439
20
-5.80019159904208
30
0
41
1
10
31.5608723066178
20
-5.82981938082801
30
0
41
1
10
32.1194803371283
20
-5.88687319169671
30
0
41
1
10
32.3986535290487
20
-5.91429856023407
30
0
41
1
10
33.2356995989555
20
-5.99327724974958
30
0
41
1
10
33.7930973898909
20
-6.04154586087765
30
0
41
1
10
34.9063827987642
20
-6.12877683949373
30
0
41
1
10
35.4622564706828
20
-6.16775556446188
30
0
41
1
10
36.5722145176626
20
-6.2354521726902
30
0
41
1
10
37.1262829400812
20
-6.26417462749629
30
0
41
1
10
38.2325949701333
20
-6.30977754360981
30
0
41
1
10
38.7848523608606
20
-6.3266557538588
30
0
41
1
10
39.8875609723667
20
-6.34662383894121
30
0
41
1
10
40.4370215336162
20
-6.34968057841769
30
0
41
1
10
41.5320225847947
20
-6.33978674189086
30
0
41
1
10
42.0775926662752
20
-6.3268352008611
30
0
41
1
10
43.1651257568098
20
-6.28259297215953
30
0
41
1
10
43.7070956879098
20
-6.25130475752692
30
0
41
1
10
44.3903815714486
20
-6.19858515493789
30
0
41
1
10
44.53319598181
20
-6.18683008278344
30
0
41
1
10
44.6759061127544
20
-6.17432563752507
30
0
0
SPLINE
5
170
100
AcDbEntity
8
1
62
256
6
ByLayer
370
13
48
1
60
0
100
AcDbSpline
70
4
71
3
72
36
73
32
40
0
40
0
40
0
40
0
40
0.0621310971714511
40
0.0931966457571766
40
0.0931966457571766
40
0.124262194342902
40
0.124262194342902
40
0.248524388685805
40
0.248524388685805
40
0.372786583028707
40
0.372786583028707
40
0.49704877737161
40
0.49704877737161
40
0.559179874543061
40
0.559179874543061
40
0.621310971714513
40
0.621310971714513
40
0.683442068885964
40
0.683442068885964
40
0.745573166057415
40
0.745573166057415
40
0.807704263228866
40
0.838769811814592
40
0.838769811814592
40
0.869835360400317
40
0.869835360400317
40
0.931966457571768
40
0.931966457571768
40
0.994097554743219
40
0.994097554743219
40
1
40
1
40
1
40
1
41
1
10
14.3668399341589
20
-2.30952042757755
30
0
41
1
10
14.9271065170878
20
-2.44307890916065
30
0
41
1
10
15.7674100843078
20
-2.64052226396171
30
0
41
1
10
16.6077500084032
20
-2.83304160019219
30
0
41
1
10
17.1680049164147
20
-2.96022692882275
30
0
41
1
10
17.4481608367028
20
-3.02324219159976
30
0
41
1
10
18.8481549035452
20
-3.33504803435585
30
0
41
1
10
19.9663435090273
20
-3.57420549712123
30
0
41
1
10
22.2003505012116
20
-4.02770499070445
30
0
41
1
10
23.3161689334893
20
-4.24204178782077
30
0
41
1
10
25.5467041964256
20
-4.6416831201017
30
0
41
1
10
26.6614348591269
20
-4.82700738877961
30
0
41
1
10
28.3336877867402
20
-5.08105939475843
30
0
41
1
10
28.8911260157214
20
-5.16175742428931
30
0
41
1
10
30.0062420681827
20
-5.3145941005935
30
0
41
1
10
30.5639585011926
20
-5.38667136965574
30
0
41
1
10
31.6796054501303
20
-5.52278446324479
30
0
41
1
10
32.2374969657796
20
-5.58685793935632
30
0
41
1
10
33.3530450834207
20
-5.70714409133478
30
0
41
1
10
33.9107217173497
20
-5.76332028443696
30
0
41
1
10
35.0256127629349
20
-5.86766576082414
30
0
41
1
10
35.8614049086226
20
-5.93993097126472
30
0
41
1
10
36.6966343331261
20
-6.00173428069053
30
0
41
1
10
37.2533269708464
20
-6.04044533102064
30
0
41
1
10
37.5313572782403
20
-6.0585366703329
30
0
41
1
10
38.3641150162881
20
-6.10874260901778
30
0
41
1
10
38.9176522282103
20
-6.13681153862024
30
0
41
1
10
40.0213565076926
20
-6.18015665688037
30
0
41
1
10
40.5715302474587
20
-6.19541932524942
30
0
41
1
10
41.172209239481
20
-6.20395583104806
30
0
41
1
10
41.2243080890081
20
-6.20462924928498
30
0
41
1
10
41.2763922790809
20
-6.20523440542632
30
0
0
SPLINE
5
171
100
AcDbEntity
8
1
62
256
6
ByLayer
370
18
48
1
60
0
100
AcDbSpline
70
4
71
3
72
8
73
4
40
0
40
0
40
0
40
0
40
1
40
1
40
1
40
1
41
1
10
41.2763922734144
20
-6.20523440536047
30
0
41
1
10
41.5362654020272
20
-6.20825382105679
30
0
41
1
10
41.7957735845399
20
-6.20957385662348
30
0
41
1
10
42.0549318705454
20
-6.2090614467613
30
0
0
SPLINE
5
172
100
AcDbEntity
8
1
62
256
6
ByLayer
370
18
48
1
60
0
100
AcDbSpline
70
4
71
3
72
60
73
56
40
0
40
0
40
0
40
0
40
0.0202981847498359
40
0.0202981847498359
40
0.0815295482029702
40
0.0815295482029702
40
0.142760911656105
40
0.142760911656105
40
0.203992275109239
40
0.203992275109239
40
0.234607956835807
40
0.234607956835807
40
0.249915797699091
40
0.249915797699091
40
0.265223638562374
40
0.265223638562374
40
0.32645500201551
40
0.32645500201551
40
0.357070683742078
40
0.357070683742078
40
0.387686365468645
40
0.387686365468645
40
0.448917728921779
40
0.448917728921779
40
0.510149092374914
40
0.510149092374914
40
0.540764774101481
40
0.540764774101481
40
0.571380455828049
40
0.571380455828049
40
0.632611819281184
40
0.632611819281184
40
0.663227501007752
40
0.663227501007752
40
0.678535341871035
40
0.678535341871035
40
0.693843182734319
40
0.693843182734319
40
0.755074546187455
40
0.755074546187455
40
0.816305909640591
40
0.816305909640591
40
0.846921591367159
40
0.846921591367159
40
0.877537273093728
40
0.877537273093728
40
0.908152954820296
40
0.908152954820296
40
0.938768636546864
40
0.938768636546864
40
0.954076477410148
40
0.954076477410148
40
0.969384318273432
40
0.969384318273432
40
1
40
1
40
1
40
1
41
1
10
40.4393893522287
20
6.34705396146691
30
0
41
1
10
40.6213140370668
20
6.34713392608913
30
0
41
1
10
40.8030257443705
20
6.34637356257025
30
0
41
1
10
41.5320225847944
20
6.33978674189097
30
0
41
1
10
42.0775926662749
20
6.32683520086118
30
0
41
1
10
43.1651257568096
20
6.28259297215965
30
0
41
1
10
43.7070956879096
20
6.25130475752704
30
0
41
1
10
44.7878167648169
20
6.16792064692746
30
0
41
1
10
45.326591620676
20
6.11582947153198
30
0
41
1
10
46.1329148694188
20
6.02032297829814
30
0
41
1
10
46.4013796221614
20
5.98558966802014
30
0
41
1
10
46.8036825533347
20
5.92891502949689
30
0
41
1
10
46.9377513584556
20
5.90925640516775
30
0
41
1
10
47.2055648071315
20
5.86841200862187
30
0
41
1
10
47.3393143596163
20
5.84722601384112
30
0
41
1
10
48.0073071796156
20
5.7374060597447
30
0
41
1
10
48.5392772690944
20
5.63708683910741
30
0
41
1
10
49.3344132624836
20
5.46682671084372
30
0
41
1
10
49.5989911215729
20
5.40678060637958
30
0
41
1
10
50.1273497381149
20
5.27993437046658
30
0
41
1
10
50.3911716346652
20
5.21312380806566
30
0
41
1
10
51.1814087029658
20
5.0023988457979
30
0
41
1
10
51.7054171184052
20
4.84845236028082
30
0
41
1
10
52.7494639149549
20
4.51382797086515
30
0
41
1
10
53.2695124011497
20
4.3331746711674
30
0
41
1
10
54.047769347821
20
4.0423646766136
30
0
41
1
10
54.3070116093681
20
3.94203944020623
30
0
41
1
10
54.8240473192041
20
3.73536969689911
30
0
41
1
10
55.0819307306308
20
3.62901327210503
30
0
41
1
10
55.8541367403697
20
3.30140150899456
30
0
41
1
10
56.3670338112868
20
3.07163284341988
30
0
41
1
10
57.1349680998501
20
2.71155527292191
30
0
41
1
10
57.3906955418516
20
2.58893199693455
30
0
41
1
10
57.7741531925604
20
2.40141974568604
30
0
41
1
10
57.9019700204984
20
2.33831346881109
30
0
41
1
10
58.1570593032774
20
2.21125512399934
30
0
41
1
10
58.2843991139473
20
2.14727042840863
30
0
41
1
10
58.9201737046417
20
1.82524573650909
30
0
41
1
10
59.4258571674579
20
1.56094056636556
30
0
41
1
10
60.4335256116935
20
1.0228240949763
30
0
41
1
10
60.935510358646
20
0.749015006954522
30
0
41
1
10
61.6867934907479
20
0.333073501819342
30
0
41
1
10
61.936900118522
20
0.193483303707239
30
0
41
1
10
62.436875802305
20
-0.0868562303428746
30
0
41
1
10
62.686783575027
20
-0.227534490803151
30
0
41
1
10
63.187061567194
20
-0.508767080369438
30
0
41
1
10
63.4374380178486
20
-0.649309629715816
30
0
41
1
10
63.9391405025023
20
-0.92936903386817
30
0
41
1
10
64.1904632337236
20
-1.06889177176973
30
0
41
1
10
64.5683825526989
20
-1.27699158194466
30
0
41
1
10
64.6945099545054
20
-1.34616373241391
30
0
41
1
10
64.9471045486176
20
-1.4840611568639
30
0
41
1
10
65.0735166528213
20
-1.55275585045203
30
0
41
1
10
65.4526400712603
20
-1.75772906116384
30
0
41
1
10
65.7054340538132
20
-1.89300306795778
30
0
41
1
10
65.9583769517613
20
-2.02673023646224
30
0
0
SPLINE
5
173
100
AcDbEntity
8
1
62
256
6
ByLayer
370
13
48
1
60
0
100
AcDbSpline
70
4
71
3
72
50
73
46
40
0
40
0
40
0
40
0
40
0.0117450382565827
40
0.0117450382565827
40
0.0307499413670335
40
0.0307499413670335
40
0.0497548444774839
40
0.0497548444774839
40
0.0877646506983853
40
0.0877646506983853
40
0.163784263140187
40
0.163784263140187
40
0.239803875581988
40
0.239803875581988
40
0.31582348802379
40
0.31582348802379
40
0.391843100465591
40
0.391843100465591
40
0.467862712907393
40
0.467862712907393
40
0.486867616017843
40
0.486867616017843
40
0.505872519128293
40
0.505872519128293
40
0.543882325349192
40
0.543882325349192
40
0.581892131570092
40
0.581892131570092
40
0.619901937790992
40
0.619901937790992
40
0.695921550232791
40
0.695921550232791
40
0.77194116267459
40
0.77194116267459
40
0.80995096889549
40
0.80995096889549
40
0.847960775116391
40
0.847960775116391
40
0.866965678226842
40
0.866965678226842
40
0.885970581337293
40
0.885970581337293
40
0.923980387558195
40
0.923980387558195
40
1
40
1
40
1
40
1
41
1
10
45.767046521508
20
6.05969242907582
30
0
41
1
10
45.8505963597018
20
6.05275637701433
30
0
41
1
10
45.9341227323751
20
6.04555579016068
30
0
41
1
10
46.1527466463429
20
6.02599889316971
30
0
41
1
10
46.2878082377955
20
6.01320579181916
30
0
41
1
10
46.557825700174
20
5.98616343442453
30
0
41
1
10
46.6928347351694
20
5.97190768588791
30
0
41
1
10
47.0972042879988
20
5.92695091468926
30
0
41
1
10
47.3659504962688
20
5.89405874176236
30
0
41
1
10
48.1698251075453
20
5.7862648488551
30
0
41
1
10
48.7026092051026
20
5.70225162447449
30
0
41
1
10
49.7626787472044
20
5.50856675964084
30
0
41
1
10
50.2899587182474
20
5.39888092973175
30
0
41
1
10
51.3401077753926
20
5.15249378760458
30
0
41
1
10
51.863025828604
20
5.01580162083707
30
0
41
1
10
52.9058787826667
20
4.71515492205106
30
0
41
1
10
53.42579114813
20
4.55117418164238
30
0
41
1
10
54.4642119197567
20
4.19560294194045
30
0
41
1
10
54.9827684007712
20
4.00397703049214
30
0
41
1
10
55.6313521040774
20
3.74801201947147
30
0
41
1
10
55.7610867794119
20
3.69599508677538
30
0
41
1
10
56.0206213722547
20
3.59032904411021
30
0
41
1
10
56.1502775581486
20
3.53673772730545
30
0
41
1
10
56.5384043780728
20
3.3739664479279
30
0
41
1
10
56.7962578748121
20
3.2626954956385
30
0
41
1
10
57.3103985065245
20
3.03493894042057
30
0
41
1
10
57.5666795276736
20
2.91843695501078
30
0
41
1
10
58.0780308943368
20
2.68075879327628
30
0
41
1
10
58.3330908947224
20
2.55957080577437
30
0
41
1
10
59.096795255045
20
2.1895551627419
30
0
41
1
10
59.6039445147846
20
1.93424729162436
30
0
41
1
10
60.616475814381
20
1.40976076097121
30
0
41
1
10
61.1218635595506
20
1.1405931748088
30
0
41
1
10
61.8805113726478
20
0.729257887859035
30
0
41
1
10
62.1334617877824
20
0.590815436229775
30
0
41
1
10
62.6401703813403
20
0.312516801464483
30
0
41
1
10
62.8939063937301
20
0.172637467062117
30
0
41
1
10
63.2752986365785
20
-0.0377956924788236
30
0
41
1
10
63.4026116179157
20
-0.108071071576489
30
0
41
1
10
63.6573024879502
20
-0.248616657435747
30
0
41
1
10
63.7845852649111
20
-0.318839990371373
30
0
41
1
10
64.1662918396854
20
-0.529278905956858
30
0
41
1
10
64.420588259137
20
-0.669237162185652
30
0
41
1
10
65.1833836353115
20
-1.08733203562903
30
0
41
1
10
65.6917600342485
20
-1.36374361495581
30
0
41
1
10
66.200995994715
20
-1.63597390698436
30
0
0
SPLINE
5
174
100
AcDbEntity
8
1
62
256
6
ByLayer
370
18
48
1
60
0
100
AcDbSpline
70
4
71
3
72
8
73
4
40
0
40
0
40
0
40
0
40
1
40
1
40
1
40
1
41
1
10
6.85859475818376
20
-6.84342300711324
30
0
41
1
10
7.34676865136126
20
-6.27005534900491
30
0
41
1
10
7.83494254453859
20
-5.69668769089662
30
0
41
1
10
8.32311643771567
20
-5.12332003278846
30
0
0
SPLINE
5
175
100
AcDbEntity
8
1
62
256
6
ByLayer
370
18
48
1
60
0
100
AcDbSpline
70
4
71
3
72
8
73
4
40
0
40
0
40
0
40
0
40
1
40
1
40
1
40
1
41
1
10
0.249999999999972
20
-3
30
0
41
1
10
0.153050936703408
20
-2.67683645567808
30
0
41
1
10
0.0689254141365438
20
-2.34898110958088
30
0
41
1
10
0
20
-2.01556443707466
30
0
0
SPLINE
5
176
100
AcDbEntity
8
1
62
256
6
ByLayer
370
18
48
1
60
0
100
AcDbSpline
70
4
71
3
72
8
73
4
40
0
40
0
40
0
40
0
40
1
40
1
40
1
40
1
41
1
10
8.53E-14
20
2.01556443707514
30
0
41
1
10
0.0688258738772731
20
2.3484995980449
30
0
41
1
10
0.152918250951103
20
2.67639416983727
30
0
41
1
10
0.249999999999915
20
3.00000000000003
30
0
0
SPLINE
5
177
100
AcDbEntity
8
1
62
256
6
ByLayer
370
18
48
1
60
0
100
AcDbSpline
70
4
71
3
72
8
73
4
40
0
40
0
40
0
40
0
40
1
40
1
40
1
40
1
41
1
10
12.4
20
-6.23845777359827
30
0
41
1
10
12.2096011649428
20
-6.24763417744299
30
0
41
1
10
12.0203126667373
20
-6.26863850864871
30
0
41
1
10
11.8323233130845
20
-6.30132610898073
30
0
0
SPLINE
5
178
100
AcDbEntity
8
1
62
256
6
ByLayer
370
18
48
1
60
0
100
AcDbSpline
70
4
71
3
72
27
73
23
40
0
40
0
40
0
40
0
40
0.124999999999992
40
0.124999999999992
40
0.249999999999984
40
0.249999999999984
40
0.281249999999983
40
0.281249999999983
40
0.312499999999983
40
0.374999999999986
40
0.374999999999986
40
0.499999999999988
40
0.499999999999988
40
0.624999999999991
40
0.624999999999991
40
0.687499999999992
40
0.687499999999992
40
0.749999999999994
40
0.749999999999994
40
0.874999999999997
40
0.874999999999997
40
1
40
1
40
1
40
1
41
1
10
11.832358314851
20
-6.30131998787002
30
0
41
1
10
11.7632898668725
20
-6.31332888013594
30
0
41
1
10
11.6955288149991
20
-6.32727589742632
30
0
41
1
10
11.5624874349108
20
-6.35853765425023
30
0
41
1
10
11.4972072526379
20
-6.37585323802665
30
0
41
1
10
11.4171130907574
20
-6.39929152145254
30
0
41
1
10
11.4011605551485
20
-6.40407195136919
30
0
41
1
10
11.3695699782588
20
-6.41375279777654
30
0
41
1
10
11.3225954792663
20
-6.42847134445131
30
0
41
1
10
11.2768248391187
20
-6.44373256585286
30
0
41
1
10
11.186822949896
20
-6.47485300559299
30
0
41
1
10
11.1288699503593
20
-6.49639689300776
30
0
41
1
10
11.0168228591914
20
-6.54043552582007
30
0
41
1
10
10.9627291423224
20
-6.56293192927836
30
0
41
1
10
10.8844048634503
20
-6.59690496495162
30
0
41
1
10
10.8587390929362
20
-6.60827987408928
30
0
41
1
10
10.8084712184321
20
-6.63096344626791
30
0
41
1
10
10.7839553557002
20
-6.64223249519242
30
0
41
1
10
10.7122215536097
20
-6.67569061862233
30
0
41
1
10
10.666811891044
20
-6.69753300049456
30
0
41
1
10
10.5807384142524
20
-6.73955767097695
30
0
41
1
10
10.5400740741478
20
-6.75974229195737
30
0
41
1
10
10.5018340871937
20
-6.77868090098792
30
0
0
SPLINE
5
179
100
AcDbEntity
8
1
62
256
6
ByLayer
370
18
48
1
60
0
100
AcDbSpline
70
4
71
3
72
33
73
29
40
0
40
0
40
0
40
0
40
0.113629446890606
40
0.113629446890606
40
0.176941629255565
40
0.176941629255565
40
0.240253811620523
40
0.240253811620523
40
0.271909902803003
40
0.287737948394242
40
0.295651971189862
40
0.295651971189862
40
0.303565993985481
40
0.303565993985481
40
0.366878176350437
40
0.366878176350437
40
0.493502541080349
40
0.493502541080349
40
0.62012690581026
40
0.62012690581026
40
0.683439088175216
40
0.683439088175216
40
0.715095179357695
40
0.715095179357695
40
0.746751270540173
40
0.746751270540173
40
0.873375635270086
40
1
40
1
40
1
40
1
41
1
10
10.4590654552762
20
-6.79981722260823
30
0
41
1
10
10.3343957531572
20
-6.86130631577205
30
0
41
1
10
10.2096339844129
20
-6.92184238698138
30
0
41
1
10
10.0154993603547
20
-7.01757840062496
30
0
41
1
10
9.94606500190966
20
-7.05214169721546
30
0
41
1
10
9.80734162241706
20
-7.12277274144066
30
0
41
1
10
9.73805237199005
20
-7.15883811466864
30
0
41
1
10
9.63430804279645
20
-7.21489825278448
30
0
41
1
10
9.582483551758
20
-7.24342181172128
30
0
41
1
10
9.52212634495478
20
-7.27778308657088
30
0
41
1
10
9.49628395970205
20
-7.2927680202412
30
0
41
1
10
9.47906154956632
20
-7.30281849777293
30
0
41
1
10
9.47045269599093
20
-7.3078680778753
30
0
41
1
10
9.39290244322714
20
-7.35258379169215
30
0
41
1
10
9.32363851749074
20
-7.38891131188205
30
0
41
1
10
9.1148670444193
20
-7.48775261157351
30
0
41
1
10
8.97438241378157
20
-7.54015217394422
30
0
41
1
10
8.69080261244167
20
-7.61792845532355
30
0
41
1
10
8.54770769652373
20
-7.64330781171583
30
0
41
1
10
8.33103995724528
20
-7.66041140212519
30
0
41
1
10
8.25847911826764
20
-7.66261112963775
30
0
41
1
10
8.14911502952305
20
-7.66049867575018
30
0
41
1
10
8.11254688677636
20
-7.65888687350116
30
0
41
1
10
8.03973563076488
20
-7.65387241913734
30
0
41
1
10
8.00343233684868
20
-7.65047019575681
30
0
41
1
10
7.82242207144856
20
-7.62903190488433
30
0
41
1
10
7.53603667976464
20
-7.56647258564027
30
0
41
1
10
7.25597565556038
20
-7.44860144530992
30
0
41
1
10
7.11754507630178
20
-7.37567313998576
30
0
0
SPLINE
5
17A
100
AcDbEntity
8
1
62
256
6
ByLayer
370
18
48
1
60
0
100
AcDbSpline
70
4
71
3
72
22
73
18
40
0
40
0
40
0
40
0
40
0.25
40
0.25
40
0.375000000000001
40
0.375000000000001
40
0.437500000000002
40
0.437500000000002
40
0.500000000000002
40
0.500000000000002
40
0.750000000000001
40
0.750000000000001
40
0.812500000000001
40
0.812500000000001
40
0.875000000000001
40
0.875000000000001
40
1
40
1
40
1
40
1
41
1
10
7.11754507630619
20
-7.37567313998247
30
0
41
1
10
7.07121865850118
20
-7.35128816265856
30
0
41
1
10
7.02911742381471
20
-7.32261333956041
30
0
41
1
10
6.9738054166034
20
-7.27212893681369
30
0
41
1
10
6.95668292168364
20
-7.25404854660562
30
0
41
1
10
6.93328233719026
20
-7.22481810029569
30
0
41
1
10
6.92586481707221
20
-7.21472130970852
30
0
41
1
10
6.91185397516136
20
-7.19377577039833
30
0
41
1
10
6.90524827855489
20
-7.18290098850926
30
0
41
1
10
6.87474351074002
20
-7.1271044220108
30
0
41
1
10
6.85807569113931
20
-7.07768578397102
30
0
41
1
10
6.84892067475852
20
-7.00898840548788
30
0
41
1
10
6.84767753962319
20
-6.99490006554339
30
0
41
1
10
6.84643097319685
20
-6.96599171975637
30
0
41
1
10
6.84643305368459
20
-6.95121297105698
30
0
41
1
10
6.84834855785996
20
-6.90626147821172
30
0
41
1
10
6.85215808119594
20
-6.87533537096419
30
0
41
1
10
6.85859475819331
20
-6.84342300707058
30
0
0
SPLINE
5
17B
100
AcDbEntity
8
1
62
256
6
ByLayer
370
18
48
1
60
0
100
AcDbSpline
70
4
71
3
72
40
73
36
40
0
40
0
40
0
40
0
40
0.0625000000000014
40
0.125000000000003
40
0.125000000000003
40
0.140625000000003
40
0.140625000000003
40
0.156250000000003
40
0.156250000000003
40
0.187500000000002
40
0.187500000000002
40
0.250000000000002
40
0.250000000000002
40
0.281250000000002
40
0.296875000000001
40
0.296875000000001
40
0.312500000000001
40
0.312500000000001
40
0.375
40
0.375
40
0.499999999999999
40
0.499999999999999
40
0.531249999999999
40
0.531249999999999
40
0.562499999999999
40
0.562499999999999
40
0.625
40
0.625
40
0.75
40
0.75
40
0.8125
40
0.8125
40
0.875
40
0.875
40
1
40
1
40
1
40
1
41
1
10
6.85859475819328
20
-6.84342300707061
30
0
41
1
10
6.85958635114653
20
-6.80330071606866
30
0
41
1
10
6.8691052027865
20
-6.7206883518532
30
0
41
1
10
6.89348566239292
20
-6.63344656292841
30
0
41
1
10
6.91345329081264
20
-6.57744327284669
30
0
41
1
10
6.91768391590605
20
-6.56616850187754
30
0
41
1
10
6.92662400230253
20
-6.54346892667022
30
0
41
1
10
6.93133471546042
20
-6.53204417637093
30
0
41
1
10
6.94604979711548
20
-6.49785790777094
30
0
41
1
10
6.95667648094559
20
-6.47507966645875
30
0
41
1
10
6.99088253301204
20
-6.40677539327046
30
0
41
1
10
7.01678443346376
20
-6.36128045471281
30
0
41
1
10
7.05982038588118
20
-6.2930523876137
30
0
41
1
10
7.08238726342833
20
-6.25894187943845
30
0
41
1
10
7.10646521099449
20
-6.22482721985611
30
0
41
1
10
7.12284746049039
20
-6.20208210048324
30
0
41
1
10
7.13120794025031
20
-6.19070365407029
30
0
41
1
10
7.17353319036496
20
-6.13418211821153
30
0
41
1
10
7.2092745085568
20
-6.08984011992743
30
0
41
1
10
7.3212855081095
20
-5.95897972606932
30
0
41
1
10
7.40233535593381
20
-5.87462665975022
30
0
41
1
10
7.50963638342338
20
-5.77166510098761
30
0
41
1
10
7.53135050726854
20
-5.75124691966741
30
0
41
1
10
7.57499454365689
20
-5.71095568930801
30
0
41
1
10
7.59696239338547
20
-5.69104615005708
30
0
41
1
10
7.66325932122035
20
-5.63196073188288
30
0
41
1
10
7.70798023824489
20
-5.59342572753988
30
0
41
1
10
7.84342860867429
20
-5.47997145593979
30
0
41
1
10
7.93544147959437
20
-5.40720183006198
30
0
41
1
10
8.07515082671003
20
-5.30107398638742
30
0
41
1
10
8.12200516380682
20
-5.26620688319542
30
0
41
1
10
8.2161711942521
20
-5.19733113837881
30
0
41
1
10
8.26341698560412
20
-5.16337229143957
30
0
41
1
10
8.4049159457939
20
-5.06312199124272
30
0
41
1
10
8.49917247801861
20
-4.99826603133135
30
0
41
1
10
8.59315413649821
20
-4.93483236537821
30
0
0
SPLINE
5
17C
100
AcDbEntity
8
1
62
256
6
ByLayer
370
18
48
1
60
0
100
AcDbSpline
70
4
71
3
72
26
73
22
40
0
40
0
40
0
40
0
40
0.125000000000001
40
0.125000000000001
40
0.250000000000003
40
0.250000000000003
40
0.375000000000004
40
0.375000000000004
40
0.437500000000005
40
0.437500000000005
40
0.500000000000006
40
0.500000000000006
40
0.625000000000006
40
0.625000000000006
40
0.687500000000005
40
0.687500000000005
40
0.750000000000004
40
0.750000000000004
40
0.875000000000002
40
0.875000000000002
40
1
40
1
40
1
40
1
41
1
10
8.59315413650097
20
-4.93483236537662
30
0
41
1
10
8.68016130253395
20
-4.87608795048206
30
0
41
1
10
8.76647143689758
20
-4.8188558036174
30
0
41
1
10
8.93757467916078
20
-4.70654700932468
30
0
41
1
10
9.0223680488709
20
-4.65147382623127
30
0
41
1
10
9.19032833157479
20
-4.54282199956535
30
0
41
1
10
9.27349553904571
20
-4.48924611789988
30
0
41
1
10
9.39694762719347
20
-4.40958622969365
30
0
41
1
10
9.43788192637692
20
-4.3831511208553
30
0
41
1
10
9.51930508887898
20
-4.33045600306284
30
0
41
1
10
9.56062774068258
20
-4.30458916054013
30
0
41
1
10
9.68655262982182
20
-4.22873325066087
30
0
41
1
10
9.77289578737108
20
-4.18052805505295
30
0
41
1
10
9.90607528285273
20
-4.11256002603523
30
0
41
1
10
9.95108018348409
20
-4.09062847906321
30
0
41
1
10
10.0423381948325
20
-4.04836809646093
30
0
41
1
10
10.088620093642
20
-4.02802723597603
30
0
41
1
10
10.2292002357399
20
-3.9697479597728
30
0
41
1
10
10.3248131723997
20
-3.93471580585012
30
0
41
1
10
10.5198559832705
20
-3.87363492948444
30
0
41
1
10
10.619286276444
20
-3.84757684508014
30
0
41
1
10
10.7206725877085
20
-3.82686712138528
30
0
0
SPLINE
5
17D
100
AcDbEntity
8
1
62
256
6
ByLayer
370
18
48
1
60
0
100
AcDbSpline
70
4
71
3
72
15
73
11
40
0
40
0
40
0
40
0
40
0.249999999999999
40
0.249999999999999
40
0.499999999999999
40
0.749999999999998
40
0.749999999999998
40
0.874999999999999
40
0.874999999999999
40
1
40
1
40
1
40
1
41
1
10
10.7206725877116
20
-3.82686712138522
30
0
41
1
10
10.8541729760829
20
-3.79959362089167
30
0
41
1
10
10.9893720903135
20
-3.77688243091583
30
0
41
1
10
11.2630600766447
20
-3.74029543593673
30
0
41
1
10
11.5400385519784
20
-3.71254578955154
30
0
41
1
10
11.8235746471543
20
-3.70240810675185
30
0
41
1
10
12.038748836122
20
-3.7015785589189
30
0
41
1
10
12.1109900201718
20
-3.70243853122804
30
0
41
1
10
12.2554089906482
20
-3.70643803183737
30
0
41
1
10
12.3276758107212
20
-3.70957425770456
30
0
41
1
10
12.4
20
-3.71384764042711
30
0
0
SPLINE
5
17E
100
AcDbEntity
8
1
62
256
6
ByLayer
370
18
48
1
60
0
100
AcDbSpline
70
4
71
3
72
8
73
4
40
0
40
0
40
0
40
0
40
1
40
1
40
1
40
1
41
1
10
12.4
20
6.2384577735983
30
0
41
1
10
12.2096011649428
20
6.24763417744302
30
0
41
1
10
12.0203126667373
20
6.26863850864873
30
0
41
1
10
11.8323233130845
20
6.30132610898076
30
0
0
SPLINE
5
17F
100
AcDbEntity
8
1
62
256
6
ByLayer
370
18
48
1
60
0
100
AcDbSpline
70
4
71
3
72
27
73
23
40
0
40
0
40
0
40
0
40
0.12500000000001
40
0.12500000000001
40
0.25000000000002
40
0.25000000000002
40
0.281250000000021
40
0.281250000000021
40
0.312500000000022
40
0.375000000000021
40
0.375000000000021
40
0.500000000000018
40
0.500000000000018
40
0.625000000000014
40
0.625000000000014
40
0.687500000000012
40
0.687500000000012
40
0.75000000000001
40
0.75000000000001
40
0.875000000000005
40
0.875000000000005
40
1
40
1
40
1
40
1
41
1
10
11.832358314851
20
6.30131998787002
30
0
41
1
10
11.7632898668725
20
6.31332888013597
30
0
41
1
10
11.6955288149991
20
6.32727589742635
30
0
41
1
10
11.5624874349108
20
6.35853765425026
30
0
41
1
10
11.4972072526379
20
6.37585323802668
30
0
41
1
10
11.4171130907574
20
6.39929152145257
30
0
41
1
10
11.4011605551485
20
6.40407195136919
30
0
41
1
10
11.3695699782588
20
6.41375279777657
30
0
41
1
10
11.3225954792663
20
6.42847134445134
30
0
41
1
10
11.2768248391187
20
6.44373256585288
30
0
41
1
10
11.186822949896
20
6.47485300559302
30
0
41
1
10
11.1288699503593
20
6.49639689300776
30
0
41
1
10
11.0168228591914
20
6.5404355258201
30
0
41
1
10
10.9627291423224
20
6.56293192927839
30
0
41
1
10
10.8844048634503
20
6.59690496495162
30
0
41
1
10
10.8587390929362
20
6.60827987408928
30
0
41
1
10
10.8084712184321
20
6.63096344626794
30
0
41
1
10
10.7839553557002
20
6.64223249519245
30
0
41
1
10
10.7122215536096
20
6.67569061862235
30
0
41
1
10
10.666811891044
20
6.69753300049459
30
0
41
1
10
10.5807384142523
20
6.73955767097698
30
0
41
1
10
10.5400740741478
20
6.75974229195739
30
0
41
1
10
10.5018340871937
20
6.77868090098795
30
0
0
SPLINE
5
180
100
AcDbEntity
8
1
62
256
6
ByLayer
370
18
48
1
60
0
100
AcDbSpline
70
4
71
3
72
8
73
4
40
0
40
0
40
0
40
0
40
1
40
1
40
1
40
1
41
1
10
10.5018340871937
20
6.77868090098795
30
0
41
1
10
10.4876487256777
20
6.78570629605491
30
0
41
1
10
10.4734619002752
20
6.79271653779116
30
0
41
1
10
10.4592738811425
20
6.79971442270346
30
0
0
SPLINE
5
181
100
AcDbEntity
8
1
62
256
6
ByLayer
370
18
48
1
60
0
100
AcDbSpline
70
4
71
3
72
60
73
56
40
0
40
0
40
0
40
0
40
0.0624999999999987
40
0.0624999999999987
40
0.124999999999997
40
0.124999999999997
40
0.140624999999997
40
0.140624999999997
40
0.156249999999997
40
0.156249999999997
40
0.187499999999996
40
0.187499999999996
40
0.249999999999996
40
0.249999999999996
40
0.281249999999995
40
0.281249999999995
40
0.296874999999995
40
0.296874999999995
40
0.312499999999995
40
0.312499999999995
40
0.374999999999996
40
0.437499999999996
40
0.437499999999996
40
0.453124999999996
40
0.453124999999996
40
0.468749999999996
40
0.499999999999996
40
0.499999999999996
40
0.562499999999996
40
0.562499999999996
40
0.593749999999996
40
0.593749999999996
40
0.609374999999996
40
0.609374999999996
40
0.624999999999996
40
0.624999999999996
40
0.687499999999997
40
0.687499999999997
40
0.718749999999997
40
0.718749999999997
40
0.734374999999997
40
0.734374999999997
40
0.749999999999997
40
0.749999999999997
40
0.812499999999997
40
0.812499999999997
40
0.874999999999998
40
0.874999999999998
40
0.890624999999998
40
0.890624999999998
40
0.906249999999999
40
0.906249999999999
40
0.937499999999999
40
0.937499999999999
40
1
40
1
40
1
40
1
41
1
10
4
20
-3
30
0
41
1
10
4.14322927617272
20
-2.93290145990954
30
0
41
1
10
4.28011984806824
20
-2.85663754839626
30
0
41
1
10
4.54166875010782
20
-2.68642266598289
30
0
41
1
10
4.6663263550945
20
-2.5924706465504
30
0
41
1
10
4.81432244471358
20
-2.46371483446515
30
0
41
1
10
4.8435285521152
20
-2.43739525872752
30
0
41
1
10
4.90114249669699
20
-2.38360185825198
30
0
41
1
10
4.92960417374476
20
-2.35607231303797
30
0
41
1
10
5.01321913352004
20
-2.27228029389957
30
0
41
1
10
5.06668173049468
20
-2.21476130413097
30
0
41
1
10
5.22037871389642
20
-2.03734138556624
30
0
41
1
10
5.31395448044708
20
-1.91260090183039
30
0
41
1
10
5.44098380430063
20
-1.71579864790323
30
0
41
1
10
5.48109647677174
20
-1.64857679263486
30
0
41
1
10
5.53784394950017
20
-1.54525720140688
30
0
41
1
10
5.55618897196129
20
-1.51040247292747
30
0
41
1
10
5.59171780627935
20
-1.43984903589171
30
0
41
1
10
5.60887366382593
20
-1.40419882935464
30
0
41
1
10
5.69106731951078
20
-1.22526884726989
30
0
41
1
10
5.80081498823606
20
-0.932548026913878
30
0
41
1
10
5.8681641747406
20
-0.627294315543338
30
0
41
1
10
5.89655328721366
20
-0.432459837805993
30
0
41
1
10
5.90154996252795
20
-0.39321833147784
30
0
41
1
10
5.91010461263161
20
-0.314671694101946
30
0
41
1
10
5.9207631954811
20
-0.196967575260231
30
0
41
1
10
5.92501032547656
20
-0.0796051733214256
30
0
41
1
10
5.92511874544005
20
0.154672682984426
30
0
41
1
10
5.91405082560456
20
0.310264171387786
30
0
41
1
10
5.88062705527545
20
0.542754832734801
30
0
41
1
10
5.86667199878966
20
0.62010175026569
30
0
41
1
10
5.84140759941351
20
0.7358912499854
30
0
41
1
10
5.8322751410976
20
0.774381711497625
30
0
41
1
10
5.81271497488336
20
0.850678875661288
30
0
41
1
10
5.80227253754862
20
0.888554916383214
30
0
41
1
10
5.7467949539076
20
1.07659149494603
30
0
41
1
10
5.69201224541462
20
1.22274116708502
30
0
41
1
10
5.59452359706131
20
1.43566412573668
30
0
41
1
10
5.5594653785096
20
1.50558424860773
30
0
41
1
10
5.50298436133784
20
1.60886228206411
30
0
41
1
10
5.48350780270397
20
1.64302101926219
30
0
41
1
10
5.44323957040362
20
1.71079735837984
30
0
41
1
10
5.42240553121076
20
1.74447826717557
30
0
41
1
10
5.31563021763864
20
1.9103895356333
30
0
41
1
10
5.22171628301123
20
2.03560626103453
30
0
41
1
10
5.01758689903758
20
2.27162173973264
30
0
41
1
10
4.90736959842795
20
2.38241885566853
30
0
41
1
10
4.75921786818896
20
2.51173450515648
30
0
41
1
10
4.72906610442081
20
2.53713646403548
30
0
41
1
10
4.66770501832832
20
2.58700501780899
30
0
41
1
10
4.63662380305038
20
2.61136668543236
30
0
41
1
10
4.54231672747898
20
2.68265508860307
30
0
41
1
10
4.47797483250716
20
2.72783135399314
30
0
41
1
10
4.28059914425663
20
2.85641044302517
30
0
41
1
10
4.14323684971308
20
2.93289791193729
30
0
41
1
10
4
20
3.00000000000003
30
0
0
SPLINE
5
182
100
AcDbEntity
8
SK1
62
256
6
ByLayer
370
18
48
1
60
0
100
AcDbSpline
70
4
71
3
72
101
73
97
40
0
40
0
40
0
40
0
40
0.0312499999999995
40
0.0312499999999995
40
0.0624999999999991
40
0.0624999999999991
40
0.0664062499999991
40
0.0664062499999991
40
0.0703124999999991
40
0.0781249999999992
40
0.0937499999999993
40
0.0937499999999993
40
0.124999999999999
40
0.124999999999999
40
0.132812499999999
40
0.132812499999999
40
0.140624999999999
40
0.156249999999999
40
0.156249999999999
40
0.1875
40
0.1875
40
0.1953125
40
0.1953125
40
0.203125
40
0.21875
40
0.21875
40
0.25
40
0.25
40
0.28125
40
0.28125
40
0.296875
40
0.296875
40
0.3125
40
0.3125
40
0.34375
40
0.34375
40
0.375
40
0.375
40
0.406250000000001
40
0.406250000000001
40
0.421875000000001
40
0.421875000000001
40
0.437500000000001
40
0.437500000000001
40
0.468750000000001
40
0.468750000000001
40
0.500000000000001
40
0.531250000000001
40
0.531250000000001
40
0.546875000000001
40
0.554687500000001
40
0.554687500000001
40
0.562500000000001
40
0.562500000000001
40
0.593750000000001
40
0.593750000000001
40
0.625000000000001
40
0.625000000000001
40
0.656250000000001
40
0.656250000000001
40
0.687500000000002
40
0.687500000000002
40
0.703125000000002
40
0.703125000000002
40
0.710937500000002
40
0.710937500000002
40
0.718750000000002
40
0.718750000000002
40
0.750000000000002
40
0.750000000000002
40
0.781250000000002
40
0.781250000000002
40
0.796875000000002
40
0.796875000000002
40
0.804687500000002
40
0.804687500000002
40
0.812500000000002
40
0.812500000000002
40
0.843750000000002
40
0.843750000000002
40
0.875000000000002
40
0.875000000000002
40
0.882812500000002
40
0.882812500000002
40
0.890625000000002
40
0.906250000000002
40
0.906250000000002
40
0.937500000000001
40
0.937500000000001
40
0.953125000000001
40
0.953125000000001
40
0.960937500000001
40
0.960937500000001
40
0.968750000000001
40
0.968750000000001
40
1
40
1
40
1
40
1
41
1
10
-6.5
20
5.22687526156881
30
0
41
1
10
-6.343948459026
20
5.22687526156881
30
0
41
1
10
-6.19042122799684
20
5.21639296166185
30
0
41
1
10
-5.88813127356264
20
5.17538167389495
30
0
41
1
10
-5.73937086802019
20
5.14484388887027
30
0
41
1
10
-5.57473670420697
20
5.09860687112661
30
0
41
1
10
-5.55647894093065
20
5.09330170483324
30
0
41
1
10
-5.5202202247128
20
5.08241108192499
30
0
41
1
10
-5.46614882538665
20
5.06563586394549
30
0
41
1
10
-5.3421664432459
20
5.02344307049907
30
0
41
1
10
-5.23953907709282
20
4.98211626303794
30
0
41
1
10
-5.03894522260003
20
4.8926459573745
30
0
41
1
10
-4.9114150500626
20
4.82393877072772
30
0
41
1
10
-4.75940028409514
20
4.72642752465833
30
0
41
1
10
-4.72937335016044
20
4.70634050185819
30
0
41
1
10
-4.67050967943553
20
4.66531579986059
30
0
41
1
10
-4.58381784207435
20
4.60238824494405
30
0
41
1
10
-4.50175836413925
20
4.53535298108227
30
0
41
1
10
-4.34341957458059
20
4.39591890548189
30
0
41
1
10
-4.24555238453496
20
4.29582260896419
30
0
41
1
10
-4.13182214497604
20
4.16193054759162
30
0
41
1
10
-4.10947351877206
20
4.13466839928509
30
0
41
1
10
-4.06584124737483
20
4.07955246255293
30
0
41
1
10
-4.00196083489496
20
3.99596599943942
30
0
41
1
10
-3.94255192832324
20
3.90970415853499
30
0
41
1
10
-3.82916464826297
20
3.73374973224327
30
0
41
1
10
-3.76079493452553
20
3.61187897183513
30
0
41
1
10
-3.63624704359685
20
3.35953204614827
30
0
41
1
10
-3.58007582712935
20
3.22905393387657
30
0
41
1
10
-3.50368534031753
20
3.02713488258104
30
0
41
1
10
-3.47949436639314
20
2.958651604848
30
0
41
1
10
-3.4339477004539
20
2.82086244160965
30
0
41
1
10
-3.4125456138502
20
2.75145220702811
30
0
41
1
10
-3.35205551292631
20
2.54173671759224
30
0
41
1
10
-3.31666749723331
20
2.39994973387724
30
0
41
1
10
-3.2541079485631
20
2.11267087697482
30
0
41
1
10
-3.22694068378331
20
1.96717848460725
30
0
41
1
10
-3.17964256237121
20
1.67264361464774
30
0
41
1
10
-3.15951387424582
20
1.52360098026489
30
0
41
1
10
-3.13399319858206
20
1.29742909599551
30
0
41
1
10
-3.12626776929963
20
1.22160318371979
30
0
41
1
10
-3.11231012525477
20
1.06908228113443
30
0
41
1
10
-3.10610670348481
20
0.992692856671823
30
0
41
1
10
-3.08971936201314
20
0.763595585517635
30
0
41
1
10
-3.0817292776955
20
0.610763442152972
30
0
41
1
10
-3.07113180564016
20
0.30490432603591
30
0
41
1
10
-3.06591930509566
20
-0.0011496454859241
30
0
41
1
10
-3.07118881096969
20
-0.307590124534187
30
0
41
1
10
-3.07921175215586
20
-0.537567760050763
30
0
41
1
10
-3.08424480078529
20
-0.652593452244759
30
0
41
1
10
-3.09087325944364
20
-0.767675417171716
30
0
41
1
10
-3.09565649069916
20
-0.844409377336149
30
0
41
1
10
-3.09823282277333
20
-0.882818026779717
30
0
41
1
10
-3.11200607703205
20
-1.07428686064839
30
0
41
1
10
-3.12587088990344
20
-1.2258164666429
30
0
41
1
10
-3.15978006216073
20
-1.52558313873919
30
0
41
1
10
-3.17982358349593
20
-1.67382011952591
30
0
41
1
10
-3.2269074823576
20
-1.96692232770067
30
0
41
1
10
-3.25394557884201
20
-2.11178774225416
30
0
41
1
10
-3.3162109211415
20
-2.39798925613692
30
0
41
1
10
-3.35143375845678
20
-2.53932589267029
30
0
41
1
10
-3.41165809518847
20
-2.7484990845951
30
0
41
1
10
-3.43296863667575
20
-2.8177507794785
30
0
41
1
10
-3.46698859559811
20
-2.92088846461408
30
0
41
1
10
-3.47867128057166
20
-2.95514432555672
30
0
41
1
10
-3.50275996656805
20
-3.02340342666111
30
0
41
1
10
-3.5151832699342
20
-3.05745143955357
30
0
41
1
10
-3.5789463395341
20
-3.2263526489771
30
0
41
1
10
-3.63520900785142
20
-3.35725729466216
30
0
41
1
10
-3.7599345985283
20
-3.6103048347239
30
0
41
1
10
-3.82839078776152
20
-3.73244962227668
30
0
41
1
10
-3.94187917539884
20
-3.90870910519672
30
0
41
1
10
-3.98151393492188
20
-3.9663010269658
30
0
41
1
10
-4.0439349386501
20
-4.05088011634268
30
0
41
1
10
-4.06523718030837
20
-4.07877153354468
30
0
41
1
10
-4.10888151360791
20
-4.1339379762008
30
0
41
1
10
-4.1312377157945
20
-4.16122605344313
30
0
41
1
10
-4.24496561123757
20
-4.29519660450947
30
0
41
1
10
-4.34271557537107
20
-4.39520968227586
30
0
41
1
10
-4.55322047860304
20
-4.58075924804601
30
0
41
1
10
-4.66596168590081
20
-4.66630522750236
30
0
41
1
10
-4.81758001314904
20
-4.76379134862236
30
0
41
1
10
-4.84849502793097
20
-4.78284642538415
30
0
41
1
10
-4.9111906587284
20
-4.81984297803342
30
0
41
1
10
-5.00623066629257
20
-4.87349696512672
30
0
41
1
10
-5.10426107134134
20
-4.92172722181593
30
0
41
1
10
-5.30435113991211
20
-5.01112499993621
30
0
41
1
10
-5.44309556549268
20
-5.06134953831224
30
0
41
1
10
-5.65972848213718
20
-5.12261167611467
30
0
41
1
10
-5.73336359710805
20
-5.14067671547699
30
0
41
1
10
-5.84606996052636
20
-5.16412882368041
30
0
41
1
10
-5.88404560830736
20
-5.17133934600346
30
0
41
1
10
-5.96003686577882
20
-5.18440060029576
30
0
41
1
10
-5.99813963634401
20
-5.19027098673104
30
0
41
1
10
-6.18918677634795
20
-5.21636047859616
30
0
41
1
10
-6.34372076022839
20
-5.22687526156881
30
0
41
1
10
-6.5
20
-5.22687526156881
30
0
0
SPLINE
5
183
100
AcDbEntity
8
SK1
62
256
6
ByLayer
370
18
48
1
60
0
100
AcDbSpline
70
4
71
3
72
101
73
97
40
0
40
0
40
0
40
0
40
0.0312500000000045
40
0.0312500000000045
40
0.062500000000009
40
0.062500000000009
40
0.0664062500000086
40
0.0664062500000086
40
0.0703125000000082
40
0.0781250000000075
40
0.093750000000006
40
0.093750000000006
40
0.125000000000003
40
0.125000000000003
40
0.132812500000002
40
0.132812500000002
40
0.140625000000001
40
0.15625
40
0.15625
40
0.187499999999997
40
0.187499999999997
40
0.195312499999997
40
0.195312499999997
40
0.203124999999996
40
0.218749999999995
40
0.218749999999995
40
0.249999999999995
40
0.249999999999995
40
0.281249999999994
40
0.281249999999994
40
0.296874999999994
40
0.296874999999994
40
0.312499999999994
40
0.312499999999994
40
0.343749999999994
40
0.343749999999994
40
0.374999999999994
40
0.374999999999994
40
0.406249999999994
40
0.406249999999994
40
0.421874999999994
40
0.421874999999994
40
0.437499999999994
40
0.437499999999994
40
0.468749999999994
40
0.468749999999994
40
0.499999999999994
40
0.531249999999994
40
0.531249999999994
40
0.546874999999994
40
0.554687499999994
40
0.554687499999994
40
0.562499999999994
40
0.562499999999994
40
0.593749999999994
40
0.593749999999994
40
0.624999999999994
40
0.624999999999994
40
0.656249999999994
40
0.656249999999994
40
0.687499999999994
40
0.687499999999994
40
0.703124999999994
40
0.703124999999994
40
0.710937499999994
40
0.710937499999994
40
0.718749999999994
40
0.718749999999994
40
0.749999999999992
40
0.749999999999992
40
0.78124999999999
40
0.78124999999999
40
0.796874999999989
40
0.796874999999989
40
0.804687499999989
40
0.804687499999989
40
0.812499999999989
40
0.812499999999989
40
0.843749999999988
40
0.843749999999988
40
0.874999999999987
40
0.874999999999987
40
0.882812499999988
40
0.882812499999988
40
0.890624999999989
40
0.90624999999999
40
0.90624999999999
40
0.937499999999992
40
0.937499999999992
40
0.953124999999992
40
0.953124999999992
40
0.960937499999993
40
0.960937499999993
40
0.968749999999994
40
0.968749999999994
40
1
40
1
40
1
40
1
41
1
10
-41.5
20
-5.22687526156886
30
0
41
1
10
-41.656051540974
20
-5.22687526156886
30
0
41
1
10
-41.8095787720032
20
-5.21639296166191
30
0
41
1
10
-42.1118687264374
20
-5.175381673895
30
0
41
1
10
-42.2606291319798
20
-5.14484388887033
30
0
41
1
10
-42.425263295793
20
-5.09860687112666
30
0
41
1
10
-42.4435210590693
20
-5.09330170483329
30
0
41
1
10
-42.4797797752872
20
-5.08241108192505
30
0
41
1
10
-42.5338511746134
20
-5.06563586394554
30
0
41
1
10
-42.6578335567541
20
-5.0234430704991
30
0
41
1
10
-42.7604609229072
20
-4.98211626303799
30
0
41
1
10
-42.9610547774
20
-4.89264595737455
30
0
41
1
10
-43.0885849499374
20
-4.82393877072778
30
0
41
1
10
-43.2405997159049
20
-4.72642752465839
30
0
41
1
10
-43.2706266498396
20
-4.70634050185825
30
0
41
1
10
-43.3294903205645
20
-4.66531579986065
30
0
41
1
10
-43.4161821579256
20
-4.60238824494411
30
0
41
1
10
-43.4982416358608
20
-4.53535298108233
30
0
41
1
10
-43.6565804254194
20
-4.39591890548195
30
0
41
1
10
-43.754447615465
20
-4.29582260896424
30
0
41
1
10
-43.868177855024
20
-4.16193054759168
30
0
41
1
10
-43.8905264812279
20
-4.13466839928515
30
0
41
1
10
-43.9341587526251
20
-4.07955246255295
30
0
41
1
10
-43.998039165105
20
-3.99596599943948
30
0
41
1
10
-44.0574480716768
20
-3.90970415853505
30
0
41
1
10
-44.170835351737
20
-3.73374973224333
30
0
41
1
10
-44.2392050654745
20
-3.61187897183518
30
0
41
1
10
-44.3637529564032
20
-3.35953204614833
30
0
41
1
10
-44.4199241728707
20
-3.22905393387663
30
0
41
1
10
-44.4963146596825
20
-3.0271348825811
30
0
41
1
10
-44.5205056336069
20
-2.95865160484806
30
0
41
1
10
-44.5660522995461
20
-2.8208624416097
30
0
41
1
10
-44.5874543861498
20
-2.75145220702817
30
0
41
1
10
-44.6479444870737
20
-2.5417367175923
30
0
41
1
10
-44.6833325027667
20
-2.39994973387729
30
0
41
1
10
-44.7458920514369
20
-2.11267087697488
30
0
41
1
10
-44.7730593162167
20
-1.9671784846073
30
0
41
1
10
-44.8203574376288
20
-1.6726436146478
30
0
41
1
10
-44.8404861257542
20
-1.52360098026495
30
0
41
1
10
-44.866006801418
20
-1.29742909599557
30
0
41
1
10
-44.8737322307004
20
-1.22160318371985
30
0
41
1
10
-44.8876898747452
20
-1.06908228113448
30
0
41
1
10
-44.8938932965152
20
-0.99269285667188
30
0
41
1
10
-44.9102806379869
20
-0.763595585517692
30
0
41
1
10
-44.9182707223045
20
-0.610763442153029
30
0
41
1
10
-44.9288681943598
20
-0.304904326035967
30
0
41
1
10
-44.9340806949043
20
0.0011496454858673
30
0
41
1
10
-44.9288111890303
20
0.30759012453413
30
0
41
1
10
-44.9207882478441
20
0.537567760050706
30
0
41
1
10
-44.9157551992147
20
0.652593452244702
30
0
41
1
10
-44.9091267405564
20
0.76767541717166
30
0
41
1
10
-44.9043435093008
20
0.844409377336092
30
0
41
1
10
-44.9017671772267
20
0.88281802677966
30
0
41
1
10
-44.887993922968
20
1.07428686064833
30
0
41
1
10
-44.8741291100966
20
1.22581646664284
30
0
41
1
10
-44.8402199378393
20
1.52558313873916
30
0
41
1
10
-44.8201764165041
20
1.67382011952586
30
0
41
1
10
-44.7730925176425
20
1.96692232770061
30
0
41
1
10
-44.746054421158
20
2.11178774225411
30
0
41
1
10
-44.6837890788585
20
2.39798925613687
30
0
41
1
10
-44.6485662415432
20
2.53932589267023
30
0
41
1
10
-44.5883419048116
20
2.74849908459504
30
0
41
1
10
-44.5670313633242
20
2.81775077947845
30
0
41
1
10
-44.5330114044019
20
2.92088846461402
30
0
41
1
10
-44.5213287194284
20
2.95514432555666
30
0
41
1
10
-44.497240033432
20
3.02340342666105
30
0
41
1
10
-44.4848167300658
20
3.05745143955352
30
0
41
1
10
-44.4210536604659
20
3.22635264897704
30
0
41
1
10
-44.3647909921486
20
3.35725729466211
30
0
41
1
10
-44.2400654014717
20
3.61030483472385
30
0
41
1
10
-44.1716092122385
20
3.73244962227662
30
0
41
1
10
-44.0581208246012
20
3.90870910519666
30
0
41
1
10
-44.0184860650781
20
3.96630102696574
30
0
41
1
10
-43.9560650613499
20
4.05088011634263
30
0
41
1
10
-43.9347628196916
20
4.07877153354463
30
0
41
1
10
-43.8911184863921
20
4.13393797620074
30
0
41
1
10
-43.8687622842055
20
4.16122605344307
30
0
41
1
10
-43.7550343887625
20
4.29519660450941
30
0
41
1
10
-43.6572844246289
20
4.39520968227581
30
0
41
1
10
-43.446779521397
20
4.58075924804595
30
0
41
1
10
-43.3340383140992
20
4.66630522750231
30
0
41
1
10
-43.182419986851
20
4.76379134862231
30
0
41
1
10
-43.151504972069
20
4.78284642538409
30
0
41
1
10
-43.0888093412716
20
4.81984297803336
30
0
41
1
10
-42.9937693337075
20
4.87349696512666
30
0
41
1
10
-42.8957389286587
20
4.92172722181587
30
0
41
1
10
-42.6956488600879
20
5.01112499993616
30
0
41
1
10
-42.5569044345073
20
5.06134953831219
30
0
41
1
10
-42.3402715178628
20
5.12261167611462
30
0
41
1
10
-42.266636402892
20
5.14067671547693
30
0
41
1
10
-42.1539300394736
20
5.16412882368036
30
0
41
1
10
-42.1159543916926
20
5.17133934600341
30
0
41
1
10
-42.0399631342212
20
5.1844006002957
30
0
41
1
10
-42.001860363656
20
5.19027098673098
30
0
41
1
10
-41.810813223652
20
5.2163604785961
30
0
41
1
10
-41.6562792397716
20
5.22687526156875
30
0
41
1
10
-41.5
20
5.22687526156875
30
0
0
SPLINE
5
184
100
AcDbEntity
8
1
62
256
6
ByLayer
370
18
48
1
60
0
100
AcDbSpline
70
4
71
3
72
10
73
6
40
0
40
0
40
0
40
0
40
0.5
40
0.5
40
1
40
1
40
1
40
1
41
1
10
74.3694188978237
20
6.06674039901029
30
0
41
1
10
74.4371882219698
20
6.12712216472309
30
0
41
1
10
74.5047101136416
20
6.18684073540746
30
0
41
1
10
74.6392647135569
20
6.30485914297753
30
0
41
1
10
74.7062951475206
20
6.36316056607015
30
0
41
1
10
74.7731624587498
20
6.42076704789261
30
0
0
SPLINE
5
185
100
AcDbEntity
8
1
62
256
6
ByLayer
370
13
48
1
60
0
100
AcDbSpline
70
4
71
3
72
8
73
4
40
0
40
0
40
0
40
0
40
1
40
1
40
1
40
1
41
1
10
74.3608738026724
20
6.06205914082307
30
0
41
1
10
74.3581292630501
20
6.05961914212867
30
0
41
1
10
74.3558109304074
20
6.05638058507719
30
0
41
1
10
74.3539250278628
20
6.05233765555769
30
0
0
SPLINE
5
186
100
AcDbEntity
8
1
62
256
6
ByLayer
370
18
48
1
60
0
100
AcDbSpline
70
4
71
3
72
14
73
10
40
0
40
0
40
0
40
0
40
0.0102124312514417
40
0.0102124312514417
40
0.100193119319494
40
0.100193119319494
40
0.280154495455598
40
0.280154495455598
40
1
40
1
40
1
40
1
41
1
10
81.1144878563314
20
-5.7023537009253
30
0
41
1
10
81.1149439107641
20
-5.7001064734298
30
0
41
1
10
81.1153999249907
20
-5.69785997175057
30
0
41
1
10
81.1198829443443
20
-5.67580232193734
30
0
41
1
10
81.123929883876
20
-5.65595278838788
30
0
41
1
10
81.1360989965635
20
-5.59629025644739
30
0
41
1
10
81.1442023385256
20
-5.5565319540888
30
0
41
1
10
81.1847391190445
20
-5.3577433467994
30
0
41
1
10
81.2171760186766
20
-5.19869988819158
30
0
41
1
10
81.2496057050109
20
-5.03966118453454
30
0
0
SPLINE
5
187
100
AcDbEntity
8
1
62
256
6
ByLayer
370
18
48
1
60
0
100
AcDbSpline
70
4
71
3
72
42
73
38
40
0
40
0
40
0
40
0
40
0.0625000000000017
40
0.0625000000000017
40
0.0937500000000026
40
0.0937500000000026
40
0.125000000000003
40
0.125000000000003
40
0.187500000000005
40
0.187500000000005
40
0.250000000000007
40
0.250000000000007
40
0.312500000000008
40
0.312500000000008
40
0.343750000000009
40
0.343750000000009
40
0.37500000000001
40
0.37500000000001
40
0.437500000000012
40
0.437500000000012
40
0.500000000000013
40
0.500000000000013
40
0.531250000000014
40
0.531250000000014
40
0.562500000000015
40
0.562500000000015
40
0.62500000000001
40
0.62500000000001
40
0.687500000000005
40
0.687500000000005
40
0.718750000000005
40
0.718750000000005
40
0.734375000000005
40
0.734375000000005
40
0.750000000000005
40
0.750000000000005
40
1
40
1
40
1
40
1
41
1
10
82.7969964315656
20
-0.0115102664011033
30
0
41
1
10
82.7753248437326
20
-0.0474682869616458
30
0
41
1
10
82.7533136599637
20
-0.0843414620509577
30
0
41
1
10
82.719705966901
20
-0.14124369034468
30
0
41
1
10
82.7084048019511
20
-0.160476818887673
30
0
41
1
10
82.6855906072844
20
-0.199514037228255
30
0
41
1
10
82.6740558391929
20
-0.219355786855175
30
0
41
1
10
82.6392763075574
20
-0.279515906305477
30
0
41
1
10
82.6159135140699
20
-0.320367504496147
30
0
41
1
10
82.5687926556716
20
-0.403734208984474
30
0
41
1
10
82.5450347707189
20
-0.446248158878149
30
0
41
1
10
82.4970622811521
20
-0.533190661376267
30
0
41
1
10
82.472845848576
20
-0.577620401749186
30
0
41
1
10
82.4361313355606
20
-0.645926116264263
30
0
41
1
10
82.4239210580159
20
-0.668800490750613
30
0
41
1
10
82.3996705255606
20
-0.714559232256164
30
0
41
1
10
82.3876134060108
20
-0.737476535872077
30
0
41
1
10
82.3516227100432
20
-0.806330876228884
30
0
41
1
10
82.3277967038157
20
-0.852334293191063
30
0
41
1
10
82.2814944296866
20
-0.945045164260534
30
0
41
1
10
82.2589807705749
20
-0.991734031432145
30
0
41
1
10
82.2260850806424
20
-1.06222894481525
30
0
41
1
10
82.2152378828325
20
-1.08586807317988
30
0
41
1
10
82.194121211407
20
-1.13262357842973
30
0
41
1
10
82.1838191010297
20
-1.15580782740398
30
0
41
1
10
82.1536420565507
20
-1.22474592899766
30
0
41
1
10
82.1344982618907
20
-1.26988065250743
30
0
41
1
10
82.0979550858009
20
-1.35834913356231
30
0
41
1
10
82.0805530246303
20
-1.40168739684464
30
0
41
1
10
82.0556442421216
20
-1.46521180900851
30
0
41
1
10
82.0475640282525
20
-1.48608012161929
30
0
41
1
10
82.0358404336194
20
-1.51669751411063
30
0
41
1
10
82.0319974067556
20
-1.52679447073083
30
0
41
1
10
82.0244319893216
20
-1.54678141580536
30
0
41
1
10
82.0207058352928
20
-1.55667851125256
30
0
41
1
10
81.9573797618441
20
-1.72514226307843
30
0
41
1
10
81.8985007049569
20
-1.88609273689823
30
0
41
1
10
81.8405654551096
20
-2.05002604247281
30
0
0
SPLINE
5
188
100
AcDbEntity
8
1
62
256
6
ByLayer
370
13
48
1
60
0
100
AcDbSpline
70
4
71
3
72
12
73
8
40
0
40
0
40
0
40
0
40
0.388502021779109
40
0.388502021779109
40
0.777004043558218
40
0.777004043558218
40
1
40
1
40
1
40
1
41
1
10
80.3859696090854
20
6.30124178805139
30
0
41
1
10
80.3696493434974
20
6.30937944061497
30
0
41
1
10
80.3537215850653
20
6.31597202851185
30
0
41
1
10
80.3226540011583
20
6.32605563177057
30
0
41
1
10
80.3075091552265
20
6.32954722469205
30
0
41
1
10
80.2843144327555
20
6.33257998939746
30
0
41
1
10
80.2759940505405
20
6.33317089080009
30
0
41
1
10
80.2678121945385
20
6.33324505011154
30
0
0
SPLINE
5
189
100
AcDbEntity
8
1
62
256
6
ByLayer
370
18
48
1
60
0
100
AcDbSpline
70
4
71
3
72
26
73
22
40
0
40
0
40
0
40
0
40
0.0624999999999999
40
0.0624999999999999
40
0.125
40
0.125
40
0.1875
40
0.1875
40
0.25
40
0.25
40
0.375
40
0.375
40
0.499999999999999
40
0.499999999999999
40
0.562499999999999
40
0.562499999999999
40
0.624999999999999
40
0.624999999999999
40
0.749999999999999
40
0.749999999999999
40
1
40
1
40
1
40
1
41
1
10
74.7731624587645
20
-6.42076704789963
30
0
41
1
10
74.7746860764518
20
-6.42339961875734
30
0
41
1
10
74.7773518381989
20
-6.42590038249949
30
0
41
1
10
74.7843925935396
20
-6.43068890917056
30
0
41
1
10
74.7887738905023
20
-6.4329761639911
30
0
41
1
10
74.7989342227134
20
-6.43736686885495
30
0
41
1
10
74.8047157857633
20
-6.43947011202187
30
0
41
1
10
74.817484045802
20
-6.44351228480224
30
0
41
1
10
74.8244870697732
20
-6.44545306214312
30
0
41
1
10
74.846742979554
20
-6.45096723896444
30
0
41
1
10
74.8633245852104
20
-6.45427046294651
30
0
41
1
10
74.8992088597891
20
-6.46029642881697
30
0
41
1
10
74.9185221306168
20
-6.46301732853334
30
0
41
1
10
74.9492866533133
20
-6.46673282163508
30
0
41
1
10
74.9598633546597
20
-6.46791204484592
30
0
41
1
10
74.9814989780756
20
-6.47014635727928
30
0
41
1
10
74.9925334296766
20
-6.47119932065547
30
0
41
1
10
75.0262510904723
20
-6.47418348317157
30
0
41
1
10
75.049545043299
20
-6.47594077274277
30
0
41
1
10
75.1217396329332
20
-6.48062096757474
30
0
41
1
10
75.1728962273233
20
-6.48296049615249
30
0
41
1
10
75.2273934024096
20
-6.48466811640179
30
0
0
SPLINE
5
18A
100
AcDbEntity
8
1
62
256
6
ByLayer
370
18
48
1
60
0
100
AcDbSpline
70
4
71
3
72
8
73
4
40
0
40
0
40
0
40
0
40
1
40
1
40
1
40
1
41
1
10
82.6414695105667
20
0.186111613171477
30
0
41
1
10
82.6933121071917
20
0.120237878167444
30
0
41
1
10
82.7451532466856
20
0.0543630119126419
30
0
41
1
10
82.7969964315656
20
-0.0115102664011033
30
0
0
SPLINE
5
18B
100
AcDbEntity
8
1
62
256
6
ByLayer
370
18
48
1
60
0
100
AcDbSpline
70
4
71
3
72
8
73
4
40
0
40
0
40
0
40
0
40
1
40
1
40
1
40
1
41
1
10
82.7969964315656
20
-0.0115102664011033
30
0
41
1
10
82.7969964238716
20
-0.0038367555904415
30
0
41
1
10
82.7969964238717
20
0.0038367555906689
30
0
41
1
10
82.7969964315656
20
0.0115102664013307
30
0
0
SPLINE
5
18C
100
AcDbEntity
8
1
62
256
6
ByLayer
370
18
48
1
60
0
100
AcDbSpline
70
4
71
3
72
42
73
38
40
0
40
0
40
0
40
0
40
0.0689548069355856
40
0.0689548069355856
40
0.103432210403374
40
0.103432210403374
40
0.137909613871163
40
0.137909613871163
40
0.206864420806749
40
0.206864420806749
40
0.275819227742335
40
0.275819227742335
40
0.34477403467792
40
0.34477403467792
40
0.379251438145713
40
0.379251438145713
40
0.413728841613506
40
0.413728841613506
40
0.482683648549092
40
0.482683648549092
40
0.551638455484677
40
0.551638455484677
40
0.586115858952474
40
0.586115858952474
40
0.62059326242027
40
0.62059326242027
40
0.689548069355871
40
0.689548069355871
40
0.758502876291471
40
0.758502876291471
40
0.792980279759274
40
0.792980279759274
40
0.810218981493175
40
0.810218981493175
40
0.827457683227076
40
0.827457683227076
40
1
40
1
40
1
40
1
41
1
10
82.7969964315656
20
0.0115102664013023
30
0
41
1
10
82.7753248209976
20
0.0474683246843313
30
0
41
1
10
82.7533136137831
20
0.0843415394111844
30
0
41
1
10
82.719705884221
20
0.141243830748067
30
0
41
1
10
82.7084047068839
20
0.1604769809
30
0
41
1
10
82.6855904869486
20
0.199514243791071
30
0
41
1
10
82.6740557057821
20
0.219356016698441
30
0
41
1
10
82.6392761365452
20
0.279516203965358
30
0
41
1
10
82.6159133175863
20
0.320367849073392
30
0
41
1
10
82.5687924072577
20
0.403734651524871
30
0
41
1
10
82.5450344958484
20
0.44624865245595
30
0
41
1
10
82.4970619521048
20
0.533191262303632
30
0
41
1
10
82.4728454918171
20
0.577621058883523
30
0
41
1
10
82.4361309361989
20
0.645926862559122
30
0
41
1
10
82.4239206494103
20
0.668801257948246
30
0
41
1
10
82.3996700946301
20
0.714560049194205
30
0
41
1
10
82.3876129639955
20
0.737477377728851
30
0
41
1
10
82.3516222348312
20
0.80633179290345
30
0
41
1
10
82.3277962087053
20
0.852335260892403
30
0
41
1
10
82.281493904737
20
0.945046239022702
30
0
41
1
10
82.2589802316294
20
0.991735160225517
30
0
41
1
10
82.2260845218786
20
1.06223015531634
30
0
41
1
10
82.2152373198672
20
1.08586930632887
30
0
41
1
10
82.1941206445773
20
1.13262484681906
30
0
41
1
10
82.1838185325557
20
1.15580911281305
30
0
41
1
10
82.1536414839774
20
1.22474726350575
30
0
41
1
10
82.1344976877011
20
1.26988201710799
30
0
41
1
10
82.0979545099012
20
1.35835055324893
30
0
41
1
10
82.0805524487718
20
1.40168884132945
30
0
41
1
10
82.0556436677269
20
1.46521328593593
30
0
41
1
10
82.0475634632907
20
1.48608158613976
30
0
41
1
10
82.0358399030037
20
1.51669890533799
30
0
41
1
10
82.0319968911802
20
1.52679582818303
30
0
41
1
10
82.0244315064357
20
1.5467826961719
30
0
41
1
10
82.0207053686958
20
1.5566797511496
30
0
41
1
10
81.9796962684606
20
1.66577459099923
30
0
41
1
10
81.9426947126165
20
1.76589765501504
30
0
41
1
10
81.9060299592064
20
1.86710212413283
30
0
0
SPLINE
5
18D
100
AcDbEntity
8
1
62
256
6
ByLayer
370
18
48
1
60
0
100
AcDbSpline
70
4
71
3
72
26
73
22
40
0
40
0
40
0
40
0
40
0.0870089576813636
40
0.0870089576813636
40
0.174017915362727
40
0.174017915362727
40
0.261026873044091
40
0.261026873044091
40
0.348035830725454
40
0.348035830725454
40
0.435044788406818
40
0.435044788406818
40
0.522053746088181
40
0.522053746088181
40
0.696071661450868
40
0.696071661450868
40
0.783080619132219
40
0.783080619132219
40
0.870089576813569
40
0.870089576813569
40
1
40
1
40
1
40
1
41
1
10
80.900771467235
20
6.22510580733746
30
0
41
1
10
80.9052228561122
20
6.22033392308356
30
0
41
1
10
80.9096880006161
20
6.21564964188647
30
0
41
1
10
80.9184615478723
20
6.20646801270979
30
0
41
1
10
80.9226467786951
20
6.20199791643526
30
0
41
1
10
80.9303684050038
20
6.19331164153382
30
0
41
1
10
80.9339220585976
20
6.18909782851483
30
0
41
1
10
80.9404199332619
20
6.18098096626989
30
0
41
1
10
80.9433002540453
20
6.17716211029014
30
0
41
1
10
80.9483655224446
20
6.17008956192308
30
0
41
1
10
80.9505631426552
20
6.16681862355736
30
0
41
1
10
80.9543871259618
20
6.16079451597898
30
0
41
1
10
80.9560003691895
20
6.1580611094513
30
0
41
1
10
80.9600297355749
20
6.15078900136237
30
0
41
1
10
80.9617051901737
20
6.14708308253785
30
0
41
1
10
80.9632308719604
20
6.14294314676064
30
0
41
1
10
80.963567492782
20
6.14180934843895
30
0
41
1
10
80.9639602155739
20
6.14001007396323
30
0
41
1
10
80.9640183237117
20
6.13933879883371
30
0
41
1
10
80.9638898054242
20
6.13817840015577
30
0
41
1
10
80.96356708471
20
6.13794008152854
30
0
41
1
10
80.9630730371816
20
6.13811495612222
30
0
0
SPLINE
5
18E
100
AcDbEntity
8
1
62
256
6
ByLayer
370
18
48
1
60
0
100
AcDbSpline
70
4
71
3
72
34
73
30
40
0
40
0
40
0
40
0
40
0.0624999999999417
40
0.0624999999999417
40
0.0937499999999125
40
0.0937499999999125
40
0.109374999999911
40
0.109374999999911
40
0.12499999999991
40
0.12499999999991
40
0.15624999999991
40
0.15624999999991
40
0.187499999999909
40
0.187499999999909
40
0.218749999999909
40
0.218749999999909
40
0.249999999999908
40
0.249999999999908
40
0.281249999999908
40
0.281249999999908
40
0.296874999999909
40
0.296874999999909
40
0.31249999999991
40
0.31249999999991
40
0.374999999999918
40
0.374999999999918
40
0.499999999999935
40
0.499999999999935
40
1
40
1
40
1
40
1
41
1
10
80.9666986374847
20
5.96193249852942
30
0
41
1
10
80.9803830335185
20
5.94589511253511
30
0
41
1
10
80.9940733081477
20
5.92986923114265
30
0
41
1
10
81.0146174878765
20
5.90585243676256
30
0
41
1
10
81.0214524049116
20
5.89783773633243
30
0
41
1
10
81.0317698154236
20
5.88587204660723
30
0
41
1
10
81.0352112199387
20
5.88188157001872
30
0
41
1
10
81.041940387178
20
5.87379884810312
30
0
41
1
10
81.0452265699671
20
5.86970612630358
30
0
41
1
10
81.0547984534542
20
5.85723086915505
30
0
41
1
10
81.0608044339044
20
5.84861329468842
30
0
41
1
10
81.0718770858305
20
5.83098440581324
30
0
41
1
10
81.0769498174054
20
5.8219694633604
30
0
41
1
10
81.0861591717763
20
5.80351382409896
30
0
41
1
10
81.0902872197047
20
5.79409548570763
30
0
41
1
10
81.0975237298937
20
5.77497195045305
30
0
41
1
10
81.1006421409739
20
5.76522674387226
30
0
41
1
10
81.1057766392526
20
5.74544543634244
30
0
41
1
10
81.1077588841
20
5.73538404483725
30
0
41
1
10
81.1108210758068
20
5.72041039130323
30
0
41
1
10
81.111832610657
20
5.71543144377492
30
0
41
1
10
81.1138483351034
20
5.70550774533879
30
0
41
1
10
81.1148503486831
20
5.7005640336304
30
0
41
1
10
81.1198829443442
20
5.67580232193751
30
0
41
1
10
81.123929883876
20
5.65595278838805
30
0
41
1
10
81.1360989965635
20
5.59629025644759
30
0
41
1
10
81.1442023385256
20
5.55653195408897
30
0
41
1
10
81.1847391190446
20
5.35774334679954
30
0
41
1
10
81.2171760186766
20
5.19869988819167
30
0
41
1
10
81.2496057050109
20
5.03966118453459
30
0
0
SPLINE
5
18F
100
AcDbEntity
8
1
62
256
6
ByLayer
370
18
48
1
60
0
100
AcDbSpline
70
4
71
2
72
13
73
10
40
0
40
0
40
0
40
0.291426019242398
40
0.354637778034227
40
0.481061295617884
40
0.575878933805627
40
0.670696571993371
40
0.797120089577028
40
0.923543607160686
40
1
40
1
40
1
41
1
10
81.1472835954277
20
5.26312332141524
30
0
41
1
10
81.1254553960183
20
5.37017326770956
30
0
41
1
10
81.0988879655296
20
5.50044236066984
30
0
41
1
10
81.0847205359105
20
5.57010611094182
30
0
41
1
10
81.0679663810631
20
5.65135072219621
30
0
41
1
10
81.0552760155618
20
5.72121104552662
30
0
41
1
10
81.02639291342
20
5.8008413723372
30
0
41
1
10
80.9594745568049
20
5.87543066587031
30
0
41
1
10
80.9094980023644
20
5.93568116905624
30
0
41
1
10
80.8906640672
20
5.95838689743883
30
0
0
SPLINE
5
190
100
AcDbEntity
8
1
62
256
6
ByLayer
370
18
48
1
60
0
100
AcDbSpline
70
4
71
3
72
8
73
4
40
0
40
0
40
0
40
0
40
1
40
1
40
1
40
1
41
1
10
80.8906640671894
20
5.9583868974307
30
0
41
1
10
80.7044155188535
20
5.98242947374354
30
0
41
1
10
80.518153049049
20
6.00577278829726
30
0
41
1
10
80.3318766066154
20
6.0284142713376
30
0
0
SPLINE
5
191
100
AcDbEntity
8
1
62
256
6
ByLayer
370
18
48
1
60
0
100
AcDbSpline
70
4
71
3
72
8
73
4
40
0
40
0
40
0
40
0
40
1
40
1
40
1
40
1
41
1
10
80.8906640671863
20
5.95838689742703
30
0
41
1
10
80.9159537463067
20
5.95969016831634
30
0
41
1
10
80.9412924121428
20
5.96088446704053
30
0
41
1
10
80.9666986374846
20
5.96193249852945
30
0
0
SPLINE
5
192
100
AcDbEntity
8
1
62
256
6
ByLayer
370
18
48
1
60
0
100
AcDbSpline
70
4
71
3
72
8
73
4
40
0
40
0
40
0
40
0
40
1
40
1
40
1
40
1
41
1
10
80.900771467235
20
6.22510580733743
30
0
41
1
10
80.9058062306684
20
6.15549861830044
30
0
41
1
10
80.9281723577711
20
6.06734971508877
30
0
41
1
10
80.9666986374847
20
5.96193249852942
30
0
0
SPLINE
5
193
100
AcDbEntity
8
1
62
256
6
ByLayer
370
18
48
1
60
0
100
AcDbSpline
70
4
71
3
72
10
73
6
40
0
40
0
40
0
40
0
40
0.442644629302678
40
0.442644629302678
40
1
40
1
40
1
40
1
41
1
10
78.1197164181893
20
6.45908422903594
30
0
41
1
10
78.5299181548025
20
6.45170309972212
30
0
41
1
10
78.9397934798254
20
6.4322023550512
30
0
41
1
10
79.8661669057567
20
6.36108544180385
30
0
41
1
10
80.3827573467769
20
6.30243999789815
30
0
41
1
10
80.900771467235
20
6.22510580733746
30
0
0
SPLINE
5
194
100
AcDbEntity
8
1
62
256
6
ByLayer
370
18
48
1
60
0
100
AcDbSpline
70
4
71
3
72
34
73
30
40
0
40
0
40
0
40
0
40
0.0634354370331029
40
0.0634354370331029
40
0.0801598042289431
40
0.0801598042289431
40
0.0968841714247832
40
0.0968841714247832
40
0.130332905816463
40
0.130332905816463
40
0.197230374599823
40
0.197230374599823
40
0.213954741795662
40
0.213954741795662
40
0.2306791089915
40
0.2306791089915
40
0.264127843383176
40
0.264127843383176
40
0.331025312166524
40
0.331025312166524
40
0.46482024973322
40
0.46482024973322
40
0.732410124866611
40
0.732410124866611
40
0.799307593649958
40
0.799307593649958
40
0.866205062433305
40
0.866205062433305
40
1
40
1
40
1
40
1
41
1
10
81.9043876932238
20
-1.85959418191155
30
0
41
1
10
81.8855004393425
20
-1.92853969737945
30
0
41
1
10
81.8672486790298
20
-1.99849163723937
30
0
41
1
10
81.8452796824541
20
-2.08834133775062
30
0
41
1
10
81.8407563883422
20
-2.10716828952221
30
0
41
1
10
81.8318417517573
20
-2.14499212107467
30
0
41
1
10
81.8274603640429
20
-2.16395020216993
30
0
41
1
10
81.814637805949
20
-2.22060220056412
30
0
41
1
10
81.8065159392917
20
-2.25821987508488
30
0
41
1
10
81.7822845911106
20
-2.37042819816696
30
0
41
1
10
81.7665385301968
20
-2.44441984399992
30
0
41
1
10
81.7474862325595
20
-2.53586815806594
30
0
41
1
10
81.7437120026354
20
-2.55409465595625
30
0
41
1
10
81.7361949112571
20
-2.59049335385996
30
0
41
1
10
81.7324408462244
20
-2.60868521412982
30
0
41
1
10
81.7211914772622
20
-2.66323924987049
30
0
41
1
10
81.7137105236331
20
-2.69957720655853
30
0
41
1
10
81.6913209773622
20
-2.80850006462771
30
0
41
1
10
81.6764575740336
20
-2.88103519419479
30
0
41
1
10
81.632163443493
20
-3.09785242901342
30
0
41
1
10
81.6030167763439
20
-3.24139190854208
30
0
41
1
10
81.5167648794755
20
-3.66889619999338
30
0
41
1
10
81.4608452517813
20
-3.94976365883298
30
0
41
1
10
81.3930584648541
20
-4.29534331603912
30
0
41
1
10
81.3796069122385
20
-4.36418340754764
30
0
41
1
10
81.3529206510418
20
-4.50129856513144
30
0
41
1
10
81.3396893615973
20
-4.56955632589222
30
0
41
1
10
81.3004052003262
20
-4.77306006593574
30
0
41
1
10
81.2747366394478
20
-4.90716862157362
30
0
41
1
10
81.2496057050109
20
-5.03966118453454
30
0
0
SPLINE
5
195
100
AcDbEntity
8
1
62
256
6
ByLayer
370
18
48
1
60
0
100
AcDbSpline
70
4
71
3
72
14
73
10
40
0
40
0
40
0
40
0
40
0.0525069883027565
40
0.0525069883027565
40
0.368337992201838
40
0.368337992201838
40
0.684168996100919
40
0.684168996100919
40
1
40
1
40
1
40
1
41
1
10
76.2418190212067
20
-6.4919295774487
30
0
41
1
10
76.2241197864474
20
-6.49223002932297
30
0
41
1
10
76.2064185510546
20
-6.492507971126
30
0
41
1
10
76.0822280428134
20
-6.49429970608557
30
0
41
1
10
75.9755840033756
20
-6.49502414380532
30
0
41
1
10
75.7620244260654
20
-6.49486272026567
30
0
41
1
10
75.6551570403086
20
-6.49397364172049
30
0
41
1
10
75.4413686994104
20
-6.49055212258489
30
0
41
1
10
75.3344211339833
20
-6.4880217346649
30
0
41
1
10
75.2273934024254
20
-6.48466811640227
30
0
0
SPLINE
5
196
100
AcDbEntity
8
1
62
256
6
ByLayer
370
18
48
1
60
0
100
AcDbSpline
70
4
71
3
72
41
73
37
40
0
40
0
40
0
40
0
40
0.0625000000000032
40
0.0625000000000032
40
0.0937500000000047
40
0.0937500000000047
40
0.125000000000006
40
0.125000000000006
40
0.250000000000013
40
0.250000000000013
40
0.312500000000016
40
0.343750000000017
40
0.343750000000017
40
0.375000000000019
40
0.375000000000019
40
0.500000000000016
40
0.500000000000016
40
0.625000000000014
40
0.625000000000014
40
0.687500000000012
40
0.687500000000012
40
0.718750000000012
40
0.718750000000012
40
0.750000000000011
40
0.750000000000011
40
0.81250000000001
40
0.81250000000001
40
0.843750000000009
40
0.843750000000009
40
0.875000000000009
40
0.875000000000009
40
0.937500000000004
40
0.937500000000004
40
0.968750000000002
40
0.968750000000002
40
1
40
1
40
1
40
1
41
1
10
82.6414695105667
20
0.186111613171505
30
0
41
1
10
82.6099559197912
20
0.155336625364498
30
0
41
1
10
82.580726998728
20
0.12344043607149
30
0
41
1
10
82.5400184774401
20
0.074092843816743
30
0
41
1
10
82.5268444430673
20
0.0574236233300951
30
0
41
1
10
82.5006270231783
20
0.023801635588967
30
0
41
1
10
82.4876088923367
20
0.0068422118592366
30
0
41
1
10
82.4231583906936
20
-0.078742875306375
30
0
41
1
10
82.3735298790019
20
-0.149695597534617
30
0
41
1
10
82.3025511703258
20
-0.260154238453651
30
0
41
1
10
82.2679468938942
20
-0.316400397215688
30
0
41
1
10
82.2347451369698
20
-0.37421715930617
30
0
41
1
10
82.2129334503509
20
-0.413118045125117
30
0
41
1
10
82.2021728612756
20
-0.432777561175726
30
0
41
1
10
82.1494943505686
20
-0.531447993305562
30
0
41
1
10
82.1108356003159
20
-0.61175149469392
30
0
41
1
10
82.0408799129967
20
-0.775238790163542
30
0
41
1
10
82.0095325408543
20
-0.858403309887109
30
0
41
1
10
81.9683017699583
20
-0.985411627609437
30
0
41
1
10
81.9555341764144
20
-1.02812885658719
30
0
41
1
10
81.9378999885865
20
-1.09279664348028
30
0
41
1
10
81.9322741235095
20
-1.11445097594219
30
0
41
1
10
81.9215386327639
20
-1.15796097084663
30
0
41
1
10
81.916424786402
20
-1.17983659934794
30
0
41
1
10
81.9019491950015
20
-1.2454764232489
30
0
41
1
10
81.8934207483221
20
-1.28932855988225
30
0
41
1
10
81.8823825044839
20
-1.35528180423392
30
0
41
1
10
81.879105410785
20
-1.37733788883651
30
0
41
1
10
81.8720140201119
20
-1.4210764694337
30
0
41
1
10
81.8682630579524
20
-1.44278290054507
30
0
41
1
10
81.85637398967
20
-1.50739693455802
30
0
41
1
10
81.8476012616035
20
-1.54980048190097
30
0
41
1
10
81.8330673420063
20
-1.61231192057372
30
0
41
1
10
81.8280263230133
20
-1.63281769371707
30
0
41
1
10
81.8176288073184
20
-1.67288663779982
30
0
41
1
10
81.8122614954711
20
-1.69249664715471
30
0
41
1
10
81.8067288625472
20
-1.71169033516293
30
0
0
SPLINE
5
197
100
AcDbEntity
8
1
62
256
6
ByLayer
370
18
48
1
60
0
100
AcDbSpline
70
4
71
3
72
29
73
25
40
0
40
0
40
0
40
0
40
0.249999999999946
40
0.249999999999946
40
0.281249999999943
40
0.281249999999943
40
0.31249999999994
40
0.374999999999942
40
0.374999999999942
40
0.499999999999954
40
0.499999999999954
40
0.624999999999966
40
0.624999999999966
40
0.656249999999969
40
0.656249999999969
40
0.687499999999972
40
0.687499999999972
40
0.749999999999977
40
0.749999999999977
40
0.874999999999989
40
0.874999999999989
40
0.937499999999994
40
0.937499999999994
40
1
40
1
40
1
40
1
41
1
10
81.9693068804592
20
1.63380623617411
30
0
41
1
10
82.0083793956954
20
1.49881797920594
30
0
41
1
10
82.0525977556107
20
1.36513515431852
30
0
41
1
10
82.108220510807
20
1.21615851092443
30
0
41
1
10
82.1144777649689
20
1.19964125746665
30
0
41
1
10
82.1271228130873
20
1.16676195893763
30
0
41
1
10
82.1462919618977
20
1.11765712720376
30
0
41
1
10
82.1660731230893
20
1.0692026838764
30
0
41
1
10
82.2064742933246
20
0.973181256607859
30
0
41
1
10
82.2345254085135
20
0.910351220659805
30
0
41
1
10
82.2929762187776
20
0.787160985778286
30
0
41
1
10
82.3233743751227
20
0.726803382208004
30
0
41
1
10
82.3629246117104
20
0.653014727059144
30
0
41
1
10
82.3709108726158
20
0.638343562054928
30
0
41
1
10
82.3869527365813
20
0.609327474509854
30
0
41
1
10
82.3950189553639
20
0.594962576771707
30
0
41
1
10
82.4193518560018
20
0.552296194282576
30
0
41
1
10
82.4358272593927
20
0.52446546344126
30
0
41
1
10
82.4849087004146
20
0.442181222820778
30
0
41
1
10
82.5170000965948
20
0.388828939065348
30
0
41
1
10
82.5643169290404
20
0.311111217970392
30
0
41
1
10
82.5799458586206
20
0.285586722767192
30
0
41
1
10
82.610918221455
20
0.235291304569017
30
0
41
1
10
82.6262520446618
20
0.210547101570853
30
0
41
1
10
82.6414695105667
20
0.186111613171477
30
0
0
SPLINE
5
198
100
AcDbEntity
8
1
62
256
6
ByLayer
370
18
48
1
60
0
100
AcDbSpline
70
4
71
3
72
8
73
4
40
0
40
0
40
0
40
0
40
1
40
1
40
1
40
1
41
1
10
75.102683862568
20
-2.90521662654879
30
0
41
1
10
75.0847925842853
20
-2.91611580478684
30
0
41
1
10
75.0669013059128
20
-2.92701498298126
30
0
41
1
10
75.0490100274508
20
-2.93791416113197
30
0
0
SPLINE
5
199
100
AcDbEntity
8
1
62
256
6
ByLayer
370
18
48
1
60
0
100
AcDbSpline
70
4
71
3
72
10
73
6
40
0
40
0
40
0
40
0
40
0.5
40
0.5
40
1
40
1
40
1
40
1
41
1
10
75.0886511704245
20
-2.91376530424742
30
0
41
1
10
75.1008123790475
20
-2.90635680303916
30
0
41
1
10
75.1080691946887
20
-2.90193600865405
30
0
41
1
10
75.1127523965031
20
-2.89908301584094
30
0
41
1
10
75.110175120102
20
-2.90065304861778
30
0
41
1
10
75.1026838625679
20
-2.90521662654879
30
0
0
SPLINE
5
19A
100
AcDbEntity
8
1
62
256
6
ByLayer
370
18
48
1
60
0
100
AcDbSpline
70
4
71
3
72
12
73
8
40
0
40
0
40
0
40
0
40
0.250000000000012
40
0.250000000000012
40
0.500000000000025
40
0.500000000000025
40
1
40
1
40
1
40
1
41
1
10
74.3857030890219
20
-5.8540736456826
30
0
41
1
10
74.38377594983
20
-5.86476175549043
30
0
41
1
10
74.381910344505
20
-5.87521823978113
30
0
41
1
10
74.3782925640909
20
-5.89570423486066
30
0
41
1
10
74.3765320287876
20
-5.90578240110616
30
0
41
1
10
74.3714768497384
20
-5.93504782853549
30
0
41
1
10
74.3684754865135
20
-5.95286677821176
30
0
41
1
10
74.3658128045246
20
-5.96913233403691
30
0
0
SPLINE
5
19B
100
AcDbEntity
8
1
62
256
6
ByLayer
370
18
48
1
60
0
100
AcDbSpline
70
4
71
3
72
18
73
14
40
0
40
0
40
0
40
0
40
0.249999999999982
40
0.249999999999982
40
0.374999999999988
40
0.374999999999988
40
0.499999999999994
40
0.499999999999994
40
0.749999999999998
40
0.749999999999998
40
0.874999999999999
40
0.874999999999999
40
1
40
1
40
1
40
1
41
1
10
74.3658128045246
20
-5.96913233403674
30
0
41
1
10
74.3640154139179
20
-5.98011207453004
30
0
41
1
10
74.3623930293457
20
-5.99024583491425
30
0
41
1
10
74.3602368011143
20
-6.00410577074135
30
0
41
1
10
74.3595629990997
20
-6.00851204454253
30
0
41
1
10
74.3583370903914
20
-6.01668887801287
30
0
41
1
10
74.3577812123727
20
-6.02048319209263
30
0
41
1
10
74.3562798551175
20
-6.03100934406788
30
0
41
1
10
74.3554998318562
20
-6.03688862124355
30
0
41
1
10
74.3546571409422
20
-6.04402080060075
30
0
41
1
10
74.3544317882332
20
-6.04611153780067
30
0
41
1
10
74.3540958464242
20
-6.04966824924671
30
0
41
1
10
74.3539837998326
20
-6.05114609047089
30
0
41
1
10
74.3539250278629
20
-6.05233765555656
30
0
0
SPLINE
5
19C
100
AcDbEntity
8
1
62
256
6
ByLayer
370
18
48
1
60
0
100
AcDbSpline
70
4
71
3
72
8
73
4
40
0
40
0
40
0
40
0
40
1
40
1
40
1
40
1
41
1
10
74.3539250278629
20
-6.05233765555656
30
0
41
1
10
74.3537307330346
20
-6.0562768622066
30
0
41
1
10
74.3541476312737
20
-6.05688413791552
30
0
41
1
10
74.3551350725002
20
-6.05438108738863
30
0
0
SPLINE
5
19D
100
AcDbEntity
8
1
62
256
6
ByLayer
370
18
48
1
60
0
100
AcDbSpline
70
4
71
3
72
8
73
4
40
0
40
0
40
0
40
0
40
1
40
1
40
1
40
1
41
1
10
74.3551350725006
20
-6.0543810873873
30
0
41
1
10
74.3592967770172
20
-6.0438316426158
30
0
41
1
10
74.3638979474392
20
-6.03083980931979
30
0
41
1
10
74.3689569093404
20
-6.01530374075506
30
0
0
SPLINE
5
19E
100
AcDbEntity
8
1
62
256
6
ByLayer
370
18
48
1
60
0
100
AcDbSpline
70
4
71
3
72
14
73
10
40
0
40
0
40
0
40
0
40
0.500000000000001
40
0.500000000000001
40
0.750000000000002
40
0.750000000000002
40
0.875000000000001
40
0.875000000000001
40
1
40
1
40
1
40
1
41
1
10
75.0096845700414
20
-2.96813194711919
30
0
41
1
10
75.0024529962179
20
-2.97504932271681
30
0
41
1
10
74.9950394479566
20
-2.98296430681572
30
0
41
1
10
74.983350605643
20
-2.99796444102259
30
0
41
1
10
74.9793590189628
20
-3.00348871736711
30
0
41
1
10
74.9731110717792
20
-3.01320838554838
30
0
41
1
10
74.9709843623946
20
-3.0166906294244
30
0
41
1
10
74.9665955895023
20
-3.02439963459975
30
0
41
1
10
74.9643361584801
20
-3.02861191587249
30
0
41
1
10
74.9619552597864
20
-3.03349233192822
30
0
0
SPLINE
5
19F
100
AcDbEntity
8
1
62
256
6
ByLayer
370
18
48
1
60
0
100
AcDbSpline
70
4
71
3
72
8
73
4
40
0
40
0
40
0
40
0
40
1
40
1
40
1
40
1
41
1
10
74.9580316677707
20
-3.04135780716234
30
0
41
1
10
74.9579732093133
20
-3.04147244859351
30
0
41
1
10
74.9579124813114
20
-3.04159960339464
30
0
41
1
10
74.9578497173839
20
-3.04173801266333
30
0
0
SPLINE
5
1A0
100
AcDbEntity
8
1
62
256
6
ByLayer
370
18
48
1
60
0
100
AcDbSpline
70
4
71
3
72
16
73
12
40
0
40
0
40
0
40
0
40
0.124999999999999
40
0.124999999999999
40
0.249999999999998
40
0.249999999999998
40
0.499999999999999
40
0.499999999999999
40
0.749999999999999
40
0.749999999999999
40
1
40
1
40
1
40
1
41
1
10
74.9578497173839
20
-3.04173801266333
30
0
41
1
10
74.9572798301406
20
-3.04299474849319
30
0
41
1
10
74.9565593405752
20
-3.0450905804268
30
0
41
1
10
74.9550322770599
20
-3.04976187216786
30
0
41
1
10
74.9542191828079
20
-3.05237366050011
30
0
41
1
10
74.951744047014
20
-3.06040878433049
30
0
41
1
10
74.9500484422468
20
-3.06601912074135
30
0
41
1
10
74.9467897094979
20
-3.07650168572346
30
0
41
1
10
74.9452207006554
20
-3.08140668010711
30
0
41
1
10
74.9423075812327
20
-3.08996362540927
30
0
41
1
10
74.9409628184658
20
-3.09361921005163
30
0
41
1
10
74.9397633390012
20
-3.0964653340487
30
0
0
SPLINE
5
1A1
100
AcDbEntity
8
1
62
256
6
ByLayer
370
13
48
1
60
0
100
AcDbSpline
70
4
71
3
72
8
73
4
40
0
40
0
40
0
40
0
40
1
40
1
40
1
40
1
41
1
10
80.2678122316746
20
-6.33324504977475
30
0
41
1
10
80.2474853277357
20
-6.33342929414493
30
0
41
1
10
80.2280134328659
20
-6.33042411201961
30
0
41
1
10
80.2094034701231
20
-6.32420373774951
30
0
0
SPLINE
5
1A2
100
AcDbEntity
8
1
62
256
6
ByLayer
370
13
48
1
60
0
100
AcDbSpline
70
4
71
3
72
8
73
4
40
0
40
0
40
0
40
0
40
1
40
1
40
1
40
1
41
1
10
80.2094034701231
20
-6.32420373774951
30
0
41
1
10
80.1769763440927
20
-6.3238054195055
30
0
41
1
10
80.1445472248739
20
-6.32337097521685
30
0
41
1
10
80.1121162257688
20
-6.32290049479224
30
0
0
SPLINE
5
1A3
100
AcDbEntity
8
1
62
256
6
ByLayer
370
18
48
1
60
0
100
AcDbSpline
70
4
71
3
72
10
73
6
40
0
40
0
40
0
40
0
40
0.5
40
0.5
40
1
40
1
40
1
40
1
41
1
10
81.8405654551067
20
-2.05002604247011
30
0
41
1
10
81.8359604462189
20
-1.99204967844565
30
0
41
1
10
81.830943029916
20
-1.93469639609043
30
0
41
1
10
81.8197923529704
20
-1.82167569378029
30
0
41
1
10
81.8136601586999
20
-1.76595342678894
30
0
41
1
10
81.8067288625478
20
-1.71169033516034
30
0
0
SPLINE
5
1A4
100
AcDbEntity
8
1
62
256
6
ByLayer
370
18
48
1
60
0
100
AcDbSpline
70
4
71
3
72
8
73
4
40
0
40
0
40
0
40
0
40
1
40
1
40
1
40
1
41
1
10
78.173712154242
20
1.31366198995718
30
0
41
1
10
78.3690324186723
20
1.26926645868357
30
0
41
1
10
78.5643443999437
20
1.22427865260352
30
0
41
1
10
78.7596952152731
20
1.17886443583609
30
0
0
SPLINE
5
1A5
100
AcDbEntity
8
1
62
256
6
ByLayer
370
18
48
1
60
0
100
AcDbSpline
70
4
71
3
72
20
73
16
40
0
40
0
40
0
40
0
40
0.124999999999969
40
0.124999999999969
40
0.249999999999938
40
0.312499999999923
40
0.312499999999923
40
0.374999999999908
40
0.374999999999908
40
0.499999999999926
40
0.624999999999944
40
0.624999999999944
40
0.749999999999963
40
0.749999999999963
40
1
40
1
40
1
40
1
41
1
10
81.8067288625473
20
-1.71169033516321
30
0
41
1
10
81.7930079107912
20
-1.70836223641908
30
0
41
1
10
81.7794070017532
20
-1.70651684618414
30
0
41
1
10
81.7527413125694
20
-1.70574961343422
30
0
41
1
10
81.7330842434467
20
-1.70735152356923
30
0
41
1
10
81.7140153066209
20
-1.7121087050997
30
0
41
1
10
81.7014437607751
20
-1.71597050215217
30
0
41
1
10
81.69522337937
20
-1.71825173932905
30
0
41
1
10
81.6770500276492
20
-1.72598694525368
30
0
41
1
10
81.6539297900366
20
-1.73871910861863
30
0
41
1
10
81.6329429325547
20
-1.75563454336498
30
0
41
1
10
81.6130062835826
20
-1.77439750353969
30
0
41
1
10
81.6036724648764
20
-1.7846010221686
30
0
41
1
10
81.5775303161553
20
-1.8171713398302
30
0
41
1
10
81.5625165228615
20
-1.84152102942727
30
0
41
1
10
81.5497218892065
20
-1.86789208384133
30
0
0
SPLINE
5
1A6
100
AcDbEntity
8
1
62
256
6
ByLayer
370
18
48
1
60
0
100
AcDbSpline
70
4
71
3
72
42
73
38
40
0
40
0
40
0
40
0
40
0.125000000000033
40
0.125000000000033
40
0.187500000000046
40
0.187500000000046
40
0.218750000000048
40
0.218750000000048
40
0.234375000000045
40
0.234375000000045
40
0.250000000000041
40
0.250000000000041
40
0.37500000000004
40
0.37500000000004
40
0.437500000000044
40
0.437500000000044
40
0.468750000000046
40
0.468750000000046
40
0.500000000000048
40
0.500000000000048
40
0.625000000000036
40
0.625000000000036
40
0.687500000000024
40
0.687500000000024
40
0.718750000000018
40
0.718750000000018
40
0.750000000000013
40
0.750000000000013
40
0.781250000000007
40
0.781250000000007
40
0.812500000000001
40
0.812500000000001
40
0.875000000000001
40
0.875000000000001
40
0.9375
40
0.9375
40
1
40
1
40
1
40
1
41
1
10
78.7596952152726
20
1.17886443583581
30
0
41
1
10
78.8591661784528
20
1.1679481390326
30
0
41
1
10
78.964579009939
20
1.15825193338321
30
0
41
1
10
79.1312962761764
20
1.14578469823721
30
0
41
1
10
79.1883153126851
20
1.14196945213288
30
0
41
1
10
79.2760336930829
20
1.13675747932018
30
0
41
1
10
79.3056384560612
20
1.13510511833951
30
0
41
1
10
79.350600281303
20
1.13275194748726
30
0
41
1
10
79.3656839234947
20
1.13193758625016
30
0
41
1
10
79.3960184904357
20
1.13060009256199
30
0
41
1
10
79.4112809583563
20
1.13012962602494
30
0
41
1
10
79.5488589654785
20
1.12771807912108
30
0
41
1
10
79.6733072334525
20
1.13862619794904
30
0
41
1
10
79.8661666783967
20
1.16906594888525
30
0
41
1
10
79.9314830031286
20
1.18153828716447
30
0
41
1
10
80.0313572015361
20
1.20296129222041
30
0
41
1
10
80.0649644120006
20
1.21055529962547
30
0
41
1
10
80.1328646634458
20
1.22651950953804
30
0
41
1
10
80.1672127408112
20
1.23490564653471
30
0
41
1
10
80.3401814010419
20
1.27822454017837
30
0
41
1
10
80.4806226961327
20
1.31673146125294
30
0
41
1
10
80.6961509059776
20
1.37193542889224
30
0
41
1
10
80.7687967677457
20
1.38993538694626
30
0
41
1
10
80.8791709468052
20
1.41527791901115
30
0
41
1
10
80.9161960783473
20
1.42344933968417
30
0
41
1
10
80.9907428764204
20
1.4390677099214
30
0
41
1
10
81.0282922046417
20
1.44651820058905
30
0
41
1
10
81.1037927137885
20
1.46051095953126
30
0
41
1
10
81.1416481848157
20
1.46705750543228
30
0
41
1
10
81.2176340744455
20
1.4789713726324
30
0
41
1
10
81.2557862518117
20
1.48424479861248
30
0
41
1
10
81.3699092138909
20
1.50150923409387
30
0
41
1
10
81.4457038980065
20
1.51426635972683
30
0
41
1
10
81.5966329350286
20
1.54264963296217
30
0
41
1
10
81.6717631660612
20
1.55829351136435
30
0
41
1
10
81.8212060800895
20
1.59313375678664
30
0
41
1
10
81.895520635408
20
1.61232197812535
30
0
41
1
10
81.9693068804592
20
1.63380623617411
30
0
0
SPLINE
5
1A7
100
AcDbEntity
8
1
62
256
6
ByLayer
370
18
48
1
60
0
100
AcDbSpline
70
4
71
3
72
28
73
24
40
0
40
0
40
0
40
0
40
0.124999999999946
40
0.124999999999946
40
0.18749999999995
40
0.18749999999995
40
0.249999999999954
40
0.249999999999954
40
0.374999999999959
40
0.374999999999959
40
0.437499999999963
40
0.437499999999963
40
0.499999999999967
40
0.499999999999967
40
0.624999999999976
40
0.624999999999976
40
0.749999999999985
40
0.749999999999985
40
0.812499999999989
40
0.812499999999989
40
0.874999999999992
40
0.874999999999992
40
1
40
1
40
1
40
1
41
1
10
78.7596952151816
20
1.1788644358511
30
0
41
1
10
78.7490355755427
20
1.18003426256331
30
0
41
1
10
78.7387560460516
20
1.18024760062619
30
0
41
1
10
78.7240285121165
20
1.17887892534012
30
0
41
1
10
78.7192351984063
20
1.17813983861899
30
0
41
1
10
78.7099103553409
20
1.17602961588855
30
0
41
1
10
78.7053583000156
20
1.17464991566047
30
0
41
1
10
78.6923168197679
20
1.16949515007968
30
0
41
1
10
78.6844750903162
20
1.16474484747462
30
0
41
1
10
78.6742122332984
20
1.15532229938074
30
0
41
1
10
78.6710255909808
20
1.15177223821604
30
0
41
1
10
78.6652934330119
20
1.14392977713825
30
0
41
1
10
78.6627668267647
20
1.13967301656606
30
0
41
1
10
78.6561986533765
20
1.1259001202545
30
0
41
1
10
78.6531574449938
20
1.1153438727147
30
0
41
1
10
78.6498758103154
20
1.09162915570386
30
0
41
1
10
78.6496802963964
20
1.07891190767526
30
0
41
1
10
78.6512354388607
20
1.05870803614826
30
0
41
1
10
78.652071093272
20
1.05174747563663
30
0
41
1
10
78.6542877765787
20
1.03770634654714
30
0
41
1
10
78.6556661595803
20
1.03061568261083
30
0
41
1
10
78.6605169586348
20
1.00915218030232
30
0
41
1
10
78.6646992658384
20
0.99458901026523
30
0
41
1
10
78.6696711633528
20
0.97980051222217
30
0
0
SPLINE
5
1A8
100
AcDbEntity
8
1
62
256
6
ByLayer
370
18
48
1
60
0
100
AcDbSpline
70
4
71
3
72
26
73
22
40
0
40
0
40
0
40
0
40
0.499999999999981
40
0.499999999999981
40
0.624999999999974
40
0.624999999999974
40
0.656249999999975
40
0.656249999999975
40
0.687499999999977
40
0.687499999999977
40
0.718749999999979
40
0.718749999999979
40
0.74999999999998
40
0.74999999999998
40
0.874999999999994
40
0.874999999999994
40
0.906249999999995
40
0.906249999999995
40
0.937499999999997
40
0.937499999999997
40
1
40
1
40
1
40
1
41
1
10
81.0657835232008
20
-2.63786242897461
30
0
41
1
10
81.1446944016711
20
-2.51983965957393
30
0
41
1
10
81.2236060456082
20
-2.40181273256988
30
0
41
1
10
81.3222442679693
20
-2.25428637469633
30
0
41
1
10
81.3419703877286
20
-2.22478980322788
30
0
41
1
10
81.3666323055924
20
-2.18789473448069
30
0
41
1
10
81.3715627425253
20
-2.18052682837907
30
0
41
1
10
81.3814210105215
20
-2.16580588542797
30
0
41
1
10
81.3863511799274
20
-2.15843950585179
30
0
41
1
10
81.396245518639
20
-2.14351274116876
30
0
41
1
10
81.401211347843
20
-2.13594288457918
30
0
41
1
10
81.4112238523728
20
-2.12034185843129
30
0
41
1
10
81.4162673852323
20
-2.11232861997985
30
0
41
1
10
81.4416521347223
20
-2.07130902928191
30
0
41
1
10
81.4625004049291
20
-2.03540939797867
30
0
41
1
10
81.4893257850842
20
-1.98616947963356
30
0
41
1
10
81.4947291834624
20
-1.97610282628239
30
0
41
1
10
81.5056157997649
20
-1.95551406431397
30
0
41
1
10
81.5110979470649
20
-1.94499336008821
30
0
41
1
10
81.5275680097364
20
-1.91291835162309
30
0
41
1
10
81.5386118634921
20
-1.89079098822239
30
0
41
1
10
81.5497218892065
20
-1.86789208384133
30
0
0
SPLINE
5
1A9
100
AcDbEntity
8
1
62
256
6
ByLayer
370
18
48
1
60
0
100
AcDbSpline
70
4
71
3
72
10
73
6
40
0
40
0
40
0
40
0
40
0.5
40
0.5
40
1
40
1
40
1
40
1
41
1
10
74.4625640924257
20
5.42869374784885
30
0
41
1
10
74.4497271123128
20
5.49965566433093
30
0
41
1
10
74.4368954261168
20
5.57060469455897
30
0
41
1
10
74.4112647516608
20
5.71242316301851
30
0
41
1
10
74.3984651063386
20
5.78329420063349
30
0
41
1
10
74.3857030890175
20
5.85407364566021
30
0
0
SPLINE
5
1AA
100
AcDbEntity
8
1
62
256
6
ByLayer
370
18
48
1
60
0
100
AcDbSpline
70
4
71
3
72
12
73
8
40
0
40
0
40
0
40
0
40
0.249999999999988
40
0.249999999999988
40
0.499999999999975
40
0.499999999999975
40
1
40
1
40
1
40
1
41
1
10
74.3857030890219
20
5.85407364568277
30
0
41
1
10
74.38377594983
20
5.86476175549063
30
0
41
1
10
74.381910344505
20
5.8752182397813
30
0
41
1
10
74.3782925640908
20
5.89570423486083
30
0
41
1
10
74.3765320287876
20
5.90578240110602
30
0
41
1
10
74.3714768497385
20
5.93504782853537
30
0
41
1
10
74.3684754865135
20
5.95286677821193
30
0
41
1
10
74.3658128045246
20
5.96913233403711
30
0
0
SPLINE
5
1AB
100
AcDbEntity
8
1
62
256
6
ByLayer
370
13
48
1
60
0
100
AcDbSpline
70
4
71
3
72
12
73
8
40
0
40
0
40
0
40
0
40
0.500000000000001
40
0.500000000000001
40
0.750000000000001
40
0.750000000000001
40
1
40
1
40
1
40
1
41
1
10
74.3857030890175
20
5.85407364566021
30
0
41
1
10
74.3960906954362
20
5.85203936202902
30
0
41
1
10
74.4071116745069
20
5.85000932228903
30
0
41
1
10
74.4246202756461
20
5.8469695369171
30
0
41
1
10
74.4306283711587
20
5.84595589178224
30
0
41
1
10
74.4428637647547
20
5.84394921445335
30
0
41
1
10
74.4491501206756
20
5.84294697553474
30
0
41
1
10
74.4554151131728
20
5.84197454290643
30
0
0
SPLINE
5
1AC
100
AcDbEntity
8
1
62
256
6
ByLayer
370
18
48
1
60
0
100
AcDbSpline
70
4
71
3
72
18
73
14
40
0
40
0
40
0
40
0
40
0.249999999999977
40
0.249999999999977
40
0.374999999999973
40
0.374999999999973
40
0.499999999999968
40
0.499999999999968
40
0.749999999999984
40
0.749999999999984
40
0.874999999999992
40
0.874999999999992
40
1
40
1
40
1
40
1
41
1
10
74.3658128045246
20
5.96913233403694
30
0
41
1
10
74.3640154139179
20
5.98011207453024
30
0
41
1
10
74.3623930293456
20
5.99024583491445
30
0
41
1
10
74.3602368011143
20
6.00410577074155
30
0
41
1
10
74.3595629990997
20
6.00851204454273
30
0
41
1
10
74.3583370903913
20
6.01668887801304
30
0
41
1
10
74.3577812123727
20
6.0204831920928
30
0
41
1
10
74.3562798551175
20
6.03100934406805
30
0
41
1
10
74.3554998318562
20
6.03688862124372
30
0
41
1
10
74.3546571409422
20
6.04402080060092
30
0
41
1
10
74.3544317882332
20
6.04611153780084
30
0
41
1
10
74.3540958464242
20
6.04966824924688
30
0
41
1
10
74.3539837998326
20
6.05114609047109
30
0
41
1
10
74.3539250278629
20
6.05233765555673
30
0
0
SPLINE
5
1AD
100
AcDbEntity
8
1
62
256
6
ByLayer
370
13
48
1
60
0
100
AcDbSpline
70
4
71
3
72
16
73
12
40
0
40
0
40
0
40
0
40
0.249999999999998
40
0.249999999999998
40
0.499999999999996
40
0.499999999999996
40
0.749999999999993
40
0.749999999999993
40
0.874999999999997
40
0.874999999999997
40
1
40
1
40
1
40
1
41
1
10
74.3658128045246
20
5.96913233403683
30
0
41
1
10
74.3702102639326
20
5.9597078995649
30
0
41
1
10
74.3754513348279
20
5.94984969593494
30
0
41
1
10
74.3876809420579
20
5.92923489409068
30
0
41
1
10
74.3945285770045
20
5.91871755272587
30
0
41
1
10
74.4095919234806
20
5.89733685652553
30
0
41
1
10
74.4178132904518
20
5.8864642183843
30
0
41
1
10
74.4312033997144
20
5.86987683465452
30
0
41
1
10
74.4358563405432
20
5.86428699905531
30
0
41
1
10
74.445439223614
20
5.85311463945231
30
0
41
1
10
74.4504146898922
20
5.84748100745497
30
0
41
1
10
74.4554151131728
20
5.84197454290643
30
0
0
SPLINE
5
1AE
100
AcDbEntity
8
1
62
256
6
ByLayer
370
18
48
1
60
0
100
AcDbSpline
70
4
71
3
72
22
73
18
40
0
40
0
40
0
40
0
40
0.125
40
0.125
40
0.25
40
0.25
40
0.375
40
0.375
40
0.5
40
0.5
40
0.625
40
0.625
40
0.75
40
0.75
40
0.875
40
0.875
40
1
40
1
40
1
40
1
41
1
10
80.9505583930211
20
-6.06045047864833
30
0
41
1
10
80.9479347729712
20
-6.07351710585368
30
0
41
1
10
80.9455630362824
20
-6.08581096051486
30
0
41
1
10
80.941309205279
20
-6.10889718208782
30
0
41
1
10
80.9394159983081
20
-6.11977154187665
30
0
41
1
10
80.9362802846244
20
-6.13905899191676
30
0
41
1
10
80.9350113725412
20
-6.14760462927262
30
0
41
1
10
80.9330294379253
20
-6.162654105916
30
0
41
1
10
80.932344035428
20
-6.16894763681069
30
0
41
1
10
80.9315070940011
20
-6.17935795417202
30
0
41
1
10
80.931358110266
20
-6.18349351751732
30
0
41
1
10
80.9315613079554
20
-6.18954301917665
30
0
41
1
10
80.9319082591366
20
-6.19149169725944
30
0
41
1
10
80.9330586362323
20
-6.1933893509383
30
0
41
1
10
80.9338687129885
20
-6.19332232872216
30
0
41
1
10
80.9358976000245
20
-6.19124515744303
30
0
41
1
10
80.9371181617917
20
-6.18924640512046
30
0
41
1
10
80.9385426095612
20
-6.18629549980719
30
0
0
SPLINE
5
1AF
100
AcDbEntity
8
1
62
256
6
ByLayer
370
13
48
1
60
0
100
AcDbSpline
70
4
71
3
72
19
73
15
40
0
40
0
40
0
40
0
40
0.249999999999956
40
0.249999999999956
40
0.374999999999947
40
0.374999999999947
40
0.499999999999938
40
0.499999999999938
40
0.74999999999992
40
0.74999999999992
40
0.81249999999994
40
0.81249999999994
40
0.87499999999996
40
1
40
1
40
1
40
1
41
1
10
80.601896958872
20
-6.13433714889007
30
0
41
1
10
80.6119688806107
20
-6.13165480325674
30
0
41
1
10
80.6271451863981
20
-6.12769770076545
30
0
41
1
10
80.657643374047
20
-6.12014419477151
30
0
41
1
10
80.6691221528725
20
-6.11735233292615
30
0
41
1
10
80.6947238253732
20
-6.11128830314902
30
0
41
1
10
80.7086290794896
20
-6.10806804354112
30
0
41
1
10
80.7535205194344
20
-6.09797410973002
30
0
41
1
10
80.7876537059615
20
-6.09066894803723
30
0
41
1
10
80.8355769496484
20
-6.08120180478352
30
0
41
1
10
80.8454586226093
20
-6.07928547287602
30
0
41
1
10
80.8655679000865
20
-6.07546470798144
30
0
41
1
10
80.8962517169616
20
-6.06975036232453
30
0
41
1
10
80.9284465015296
20
-6.06412679122389
30
0
41
1
10
80.9505583930211
20
-6.06045047864833
30
0
0
SPLINE
5
1B0
100
AcDbEntity
8
1
62
256
6
ByLayer
370
18
48
1
60
0
100
AcDbSpline
70
4
71
3
72
24
73
20
40
0
40
0
40
0
40
0
40
0.499999999999987
40
0.499999999999987
40
0.624999999999984
40
0.624999999999984
40
0.687499999999982
40
0.687499999999982
40
0.749999999999981
40
0.749999999999981
40
0.765624999999982
40
0.765624999999982
40
0.781249999999983
40
0.781249999999983
40
0.812499999999985
40
0.812499999999985
40
0.874999999999989
40
0.874999999999989
40
1
40
1
40
1
40
1
41
1
10
80.9505583930211
20
-6.06045047864833
30
0
41
1
10
81.0849418854735
20
-5.39116949852721
30
0
41
1
10
81.2192038872954
20
-4.72211886754556
30
0
41
1
10
81.3869269580535
20
-3.88608645756216
30
0
41
1
10
81.4204611724829
20
-3.71889377947096
30
0
41
1
10
81.4707515733155
20
-3.46812671972009
30
0
41
1
10
81.4875145733262
20
-3.38454139457622
30
0
41
1
10
81.5210477232306
20
-3.21737840539134
30
0
41
1
10
81.537849017323
20
-3.13380117549573
30
0
41
1
10
81.5587735130449
20
-3.02933330354875
30
0
41
1
10
81.5629219013768
20
-3.00843949736947
30
0
41
1
10
81.5713772259857
20
-2.96665446067041
30
0
41
1
10
81.5757063199856
20
-2.94576347579334
30
0
41
1
10
81.589113068957
20
-2.88309582191579
30
0
41
1
10
81.5985641939395
20
-2.84132360855037
30
0
41
1
10
81.6284367126764
20
-2.71602722704543
30
0
41
1
10
81.6503738685138
20
-2.63252018637937
30
0
41
1
10
81.7220492716188
20
-2.38220707209749
30
0
41
1
10
81.7776319802598
20
-2.2155884335065
30
0
41
1
10
81.8405654551114
20
-2.0500260424684
30
0
0
SPLINE
5
1B1
100
AcDbEntity
8
1
62
256
6
ByLayer
370
13
48
1
60
0
100
AcDbSpline
70
4
71
3
72
24
73
20
40
0
40
0
40
0
40
0
40
0.124999999999968
40
0.124999999999968
40
0.187499999999961
40
0.187499999999961
40
0.249999999999953
40
0.249999999999953
40
0.374999999999937
40
0.374999999999937
40
0.499999999999922
40
0.499999999999922
40
0.624999999999907
40
0.624999999999907
40
0.687499999999937
40
0.687499999999937
40
0.749999999999966
40
0.749999999999966
40
1
40
1
40
1
40
1
41
1
10
79.9848
20
-6.04423494305308
30
0
41
1
10
79.9848
20
-6.04598172579509
30
0
41
1
10
79.9860306022678
20
-6.04750615954868
30
0
41
1
10
79.9896862456238
20
-6.04947503322754
30
0
41
1
10
79.9912147214109
20
-6.0500801411718
30
0
41
1
10
79.9948500423513
20
-6.05117612041605
30
0
41
1
10
79.9969527828351
20
-6.05166705930785
30
0
41
1
10
80.0040925815371
20
-6.05298137994103
30
0
41
1
10
80.0099564013232
20
-6.05364654539494
30
0
41
1
10
80.0238878756247
20
-6.054612758823
30
0
41
1
10
80.0320368187809
20
-6.05491329844881
30
0
41
1
10
80.0501148933901
20
-6.05519819384199
30
0
41
1
10
80.0600569584653
20
-6.0551874211823
30
0
41
1
10
80.0763146030823
20
-6.05500428090366
30
0
41
1
10
80.0819589091487
20
-6.05491527578278
30
0
41
1
10
80.0937084313406
20
-6.05469067567577
30
0
41
1
10
80.0998398649389
20
-6.05455437466239
30
0
41
1
10
80.1312181691644
20
-6.05379089089413
30
0
41
1
10
80.1587352652838
20
-6.05292750853295
30
0
41
1
10
80.1887737555691
20
-6.05209470751925
30
0
0
SPLINE
5
1B2
100
AcDbEntity
8
1
62
256
6
ByLayer
370
13
48
1
60
0
100
AcDbSpline
70
4
71
3
72
8
73
4
40
0
40
0
40
0
40
0
40
1
40
1
40
1
40
1
41
1
10
78.7210921366216
20
-5.83531984859306
30
0
41
1
10
79.0663304863494
20
-5.83325772066257
30
0
41
1
10
79.4115688085995
20
-5.83119296995562
30
0
41
1
10
79.7568071031646
20
-5.82912558330881
30
0
0
SPLINE
5
1B3
100
AcDbEntity
8
1
62
256
6
ByLayer
370
18
48
1
60
0
100
AcDbSpline
70
4
71
3
72
20
73
16
40
0
40
0
40
0
40
0
40
0.151048831831477
40
0.151048831831477
40
0.302097663662953
40
0.302097663662953
40
0.45314649549443
40
0.45314649549443
40
0.528670911410168
40
0.528670911410168
40
0.604195327325906
40
0.604195327325906
40
0.906292990988854
40
0.906292990988854
40
1
40
1
40
1
40
1
41
1
10
74.6976730712893
20
-6.23906849310936
30
0
41
1
10
74.9562859119847
20
-6.27684992263397
30
0
41
1
10
75.2149437385511
20
-6.30990117303699
30
0
41
1
10
75.7319769191289
20
-6.3663964087425
30
0
41
1
10
75.9904315844806
20
-6.38984925269674
30
0
41
1
10
76.5074913730708
20
-6.42712687421025
30
0
41
1
10
76.7660970445776
20
-6.44095079085778
30
0
41
1
10
77.154315249309
20
-6.45443289970055
30
0
41
1
10
77.2837073617572
20
-6.45771559486121
30
0
41
1
10
77.5423058949937
20
-6.4618596154335
30
0
41
1
10
77.6715420536323
20
-6.46272157053542
30
0
41
1
10
78.3174929258136
20
-6.46100581094771
30
0
41
1
10
78.8335284973286
20
-6.44036022889534
30
0
41
1
10
79.510003618458
20
-6.38842779953509
30
0
41
1
10
79.6701856328213
20
-6.37430387621541
30
0
41
1
10
79.8304281394845
20
-6.35836059506528
30
0
0
SPLINE
5
1B4
100
AcDbEntity
8
1
62
256
6
ByLayer
370
18
48
1
60
0
100
AcDbSpline
70
4
71
3
72
8
73
4
40
0
40
0
40
0
40
0
40
1
40
1
40
1
40
1
41
1
10
80.5372473183538
20
-6.27633325408161
30
0
41
1
10
80.6583538898777
20
-6.260284037703
30
0
41
1
10
80.7795236801678
20
-6.24320685728901
30
0
41
1
10
80.900771467235
20
-6.22510580733726
30
0
0
SPLINE
5
1B5
100
AcDbEntity
8
1
62
256
6
ByLayer
370
18
48
1
60
0
100
AcDbSpline
70
4
71
3
72
12
73
8
40
0
40
0
40
0
40
0
40
0.405684034496672
40
0.405684034496672
40
0.811368068993344
40
0.811368068993344
40
1
40
1
40
1
40
1
41
1
10
80.900771467235
20
-6.22510580733726
30
0
41
1
10
80.9052228561123
20
-6.22033392308339
30
0
41
1
10
80.9096880006161
20
-6.2156496418863
30
0
41
1
10
80.9184615478723
20
-6.20646801270962
30
0
41
1
10
80.9226467786951
20
-6.20199791643509
30
0
41
1
10
80.9283027639011
20
-6.19563533938535
30
0
41
1
10
80.9300315282243
20
-6.19364385965753
30
0
41
1
10
80.931694130436
20
-6.19168295927463
30
0
0
SPLINE
5
1B6
100
AcDbEntity
8
1
62
256
6
ByLayer
370
18
48
1
60
0
100
AcDbSpline
70
4
71
3
72
20
73
16
40
0
40
0
40
0
40
0
40
0.0348122747342563
40
0.0348122747342563
40
0.163977978625404
40
0.163977978625404
40
0.293143682516551
40
0.293143682516551
40
0.551475090298844
40
0.551475090298844
40
0.680640794189989
40
0.680640794189989
40
0.809806498081134
40
0.809806498081134
40
1
40
1
40
1
40
1
41
1
10
80.9437089522726
20
-6.17654582519546
30
0
41
1
10
80.9444424597358
20
-6.17555253032188
30
0
41
1
10
80.9451503018083
20
-6.17457891997236
30
0
41
1
10
80.9483655224446
20
-6.17008956192291
30
0
41
1
10
80.9505631426553
20
-6.16681862355716
30
0
41
1
10
80.9543871259618
20
-6.16079451597881
30
0
41
1
10
80.9560003691896
20
-6.15806110945113
30
0
41
1
10
80.9600297355748
20
-6.1507890013622
30
0
41
1
10
80.9617051901737
20
-6.14708308253768
30
0
41
1
10
80.9632308719604
20
-6.14294314676047
30
0
41
1
10
80.963567492782
20
-6.14180934843875
30
0
41
1
10
80.963960215574
20
-6.14001007396306
30
0
41
1
10
80.9640183237117
20
-6.13933879883353
30
0
41
1
10
80.963890866984
20
-6.13818798503689
30
0
41
1
10
80.9635759400256
20
-6.13794674227222
30
0
41
1
10
80.9630933812368
20
-6.1381079563136
30
0
0
SPLINE
5
1B7
100
AcDbEntity
8
1
62
256
6
ByLayer
370
13
48
1
60
0
100
AcDbSpline
70
4
71
3
72
30
73
26
40
0
40
0
40
0
40
0
40
0.0312499999999841
40
0.0312499999999841
40
0.0624999999999683
40
0.0624999999999683
40
0.0937499999999524
40
0.0937499999999524
40
0.124999999999937
40
0.124999999999937
40
0.187499999999941
40
0.187499999999941
40
0.249999999999946
40
0.249999999999946
40
0.312499999999951
40
0.312499999999951
40
0.374999999999955
40
0.374999999999955
40
0.499999999999964
40
0.499999999999964
40
0.624999999999973
40
0.624999999999973
40
0.749999999999983
40
0.749999999999983
40
1
40
1
40
1
40
1
41
1
10
77.8426413726336
20
-5.9774719588539
30
0
41
1
10
77.8445234290871
20
-5.9802489178031
30
0
41
1
10
77.8486680797125
20
-5.98211165871453
30
0
41
1
10
77.8596278803238
20
-5.98475947192046
30
0
41
1
10
77.8663034734695
20
-5.98548880921214
30
0
41
1
10
77.8805782903744
20
-5.98625138756469
30
0
41
1
10
77.8882239488605
20
-5.98628667987324
30
0
41
1
10
77.9041519578811
20
-5.98592616516237
30
0
41
1
10
77.9124675727005
20
-5.98552408230415
30
0
41
1
10
77.9378943305492
20
-5.98386650817156
30
0
41
1
10
77.9554288239067
20
-5.98218024983515
30
0
41
1
10
77.9911607826674
20
-5.97816014283506
30
0
41
1
10
78.0093697247112
20
-5.97581462035853
30
0
41
1
10
78.0462607013861
20
-5.97067134356919
30
0
41
1
10
78.0649246209413
20
-5.96787324007653
30
0
41
1
10
78.1024419256942
20
-5.96196530120938
30
0
41
1
10
78.1213201265388
20
-5.95885101453729
30
0
41
1
10
78.1782447031952
20
-5.94913109086792
30
0
41
1
10
78.2165880041333
20
-5.94215074973658
30
0
41
1
10
78.2933920330626
20
-5.92757993944863
30
0
41
1
10
78.3319223221407
20
-5.9199738503836
30
0
41
1
10
78.40920034307
20
-5.90425991321484
30
0
41
1
10
78.4479485292766
20
-5.8961505704969
30
0
41
1
10
78.5644951098954
20
-5.87116809886288
30
0
41
1
10
78.6425905835468
20
-5.85365556744651
30
0
41
1
10
78.721092136622
20
-5.83531984859525
30
0
0
SPLINE
5
1B8
100
AcDbEntity
8
1
62
256
6
ByLayer
370
18
48
1
60
0
100
AcDbSpline
70
4
71
3
72
26
73
22
40
0
40
0
40
0
40
0
40
0.0624999999999953
40
0.0624999999999953
40
0.124999999999991
40
0.124999999999991
40
0.187499999999986
40
0.187499999999986
40
0.249999999999981
40
0.249999999999981
40
0.374999999999972
40
0.374999999999972
40
0.499999999999962
40
0.499999999999962
40
0.562499999999957
40
0.562499999999957
40
0.624999999999952
40
0.624999999999952
40
0.749999999999983
40
0.749999999999983
40
1
40
1
40
1
40
1
41
1
10
74.7731624587307
20
6.42076704788317
30
0
41
1
10
74.7746860764178
20
6.4233996187412
30
0
41
1
10
74.7773518381935
20
6.42590038249523
30
0
41
1
10
74.7843925935327
20
6.43068890916689
30
0
41
1
10
74.7887738904949
20
6.43297616398772
30
0
41
1
10
74.7989342227052
20
6.43736686885202
30
0
41
1
10
74.8047157857548
20
6.43947011201911
30
0
41
1
10
74.8174840457929
20
6.44351228479982
30
0
41
1
10
74.824487069764
20
6.44545306214084
30
0
41
1
10
74.8467429795444
20
6.45096723896256
30
0
41
1
10
74.8633245852006
20
6.45427046294489
30
0
41
1
10
74.8992088597798
20
6.46029642881578
30
0
41
1
10
74.9185221306078
20
6.46301732853235
30
0
41
1
10
74.9492866533051
20
6.46673282163434
30
0
41
1
10
74.9598633546519
20
6.46791204484524
30
0
41
1
10
74.9814989780682
20
6.47014635727874
30
0
41
1
10
74.9925334296694
20
6.47119932065499
30
0
41
1
10
75.026251090466
20
6.47418348317126
30
0
41
1
10
75.0495450432932
20
6.47594077274255
30
0
41
1
10
75.1217396329295
20
6.48062096757474
30
0
41
1
10
75.1728962273167
20
6.48296049615243
30
0
41
1
10
75.2273934024049
20
6.48466811640182
30
0
0
SPLINE
5
1B9
100
AcDbEntity
8
1
62
256
6
ByLayer
370
13
48
1
60
0
100
AcDbSpline
70
4
71
3
72
8
73
4
40
0
40
0
40
0
40
0
40
1
40
1
40
1
40
1
41
1
10
78.6696711633518
20
0.979800512222113
30
0
41
1
10
78.5326820867583
20
1.01473823014189
30
0
41
1
10
78.3957135313286
20
1.04951003998116
30
0
41
1
10
78.2587472674585
20
1.08405147611663
30
0
0
SPLINE
5
1BA
100
AcDbEntity
8
1
62
256
6
ByLayer
370
13
48
1
60
0
100
AcDbSpline
70
4
71
3
72
14
73
10
40
0
40
0
40
0
40
0
40
0.105544296362315
40
0.105544296362315
40
0.403696197574876
40
0.403696197574876
40
0.701848098787438
40
0.701848098787438
40
1
40
1
40
1
40
1
41
1
10
77.904877530599
20
-5.68678915922592
30
0
41
1
10
77.9019895274495
20
-5.68834380966894
30
0
41
1
10
77.8991371905943
20
-5.68991025873007
30
0
41
1
10
77.8883792798208
20
-5.69595190328505
30
0
41
1
10
77.8807448065809
20
-5.70051656105608
30
0
41
1
10
77.8664712028665
20
-5.70997165434758
30
0
41
1
10
77.8597615829574
20
-5.71491596356006
30
0
41
1
10
77.8488321683314
20
-5.7248534650129
30
0
41
1
10
77.8445228946316
20
-5.72995147073718
30
0
41
1
10
77.8426413726336
20
-5.73474203561099
30
0
0
SPLINE
5
1BB
100
AcDbEntity
8
1
62
256
6
ByLayer
370
18
48
1
60
0
100
AcDbSpline
70
4
71
3
72
10
73
6
40
0
40
0
40
0
40
0
40
0.5
40
0.5
40
1
40
1
40
1
40
1
41
1
10
74.6976730712893
20
-6.23906849310936
30
0
41
1
10
74.709861186165
20
-6.2771940408424
30
0
41
1
10
74.7222594857901
20
-6.31143714393082
30
0
41
1
10
74.747446125719
20
-6.37205927066253
30
0
41
1
10
74.7602155587398
20
-6.39839684836482
30
0
41
1
10
74.7731624587498
20
-6.42076704789241
30
0
0
SPLINE
5
1BC
100
AcDbEntity
8
1
62
256
6
ByLayer
370
18
48
1
60
0
100
AcDbSpline
70
4
71
3
72
16
73
12
40
0
40
0
40
0
40
0
40
0.250000000000001
40
0.250000000000001
40
0.500000000000002
40
0.500000000000002
40
0.625000000000001
40
0.625000000000001
40
0.75
40
0.75
40
1
40
1
40
1
40
1
41
1
10
74.6976730712893
20
-6.23906849310936
30
0
41
1
10
74.6845703582314
20
-6.2245702274254
30
0
41
1
10
74.6721023566129
20
-6.21030508078525
30
0
41
1
10
74.6488563478629
20
-6.18246923118343
30
0
41
1
10
74.6382253192177
20
-6.16907728377294
30
0
41
1
10
74.6241678871962
20
-6.15000137732656
30
0
41
1
10
74.6197993324879
20
-6.14381283882156
30
0
41
1
10
74.6118122447924
20
-6.13184200955462
30
0
41
1
10
74.6081813251522
20
-6.12603880314222
30
0
41
1
10
74.5987594118275
20
-6.10953941167961
30
0
41
1
10
74.5944152189296
20
-6.09979209832571
30
0
41
1
10
74.5930546176764
20
-6.09203164028236
30
0
0
SPLINE
5
1BD
100
AcDbEntity
8
1
62
256
6
ByLayer
370
13
48
1
60
0
100
AcDbSpline
70
4
71
3
72
8
73
4
40
0
40
0
40
0
40
0
40
1
40
1
40
1
40
1
41
1
10
74.3689569093404
20
-6.01530374075506
30
0
41
1
10
74.3691100186772
20
-6.03500733007448
30
0
41
1
10
74.3692640124926
20
-6.0521504548264
30
0
41
1
10
74.3694188978238
20
-6.06674039901012
30
0
0
SPLINE
5
1BE
100
AcDbEntity
8
1
62
256
6
ByLayer
370
18
48
1
60
0
100
AcDbSpline
70
4
71
3
72
10
73
6
40
0
40
0
40
0
40
0
40
0.5
40
0.5
40
1
40
1
40
1
40
1
41
1
10
74.3694188978238
20
-6.06674039901012
30
0
41
1
10
74.4371882219699
20
-6.12712216472292
30
0
41
1
10
74.5047101136417
20
-6.18684073540729
30
0
41
1
10
74.6392647135569
20
-6.30485914297736
30
0
41
1
10
74.7062951475206
20
-6.36316056606998
30
0
41
1
10
74.7731624587498
20
-6.42076704789241
30
0
0
SPLINE
5
1BF
100
AcDbEntity
8
1
62
256
6
ByLayer
370
18
48
1
60
0
100
AcDbSpline
70
4
71
3
72
36
73
32
40
0
40
0
40
0
40
0
40
0.062500000000012
40
0.062500000000012
40
0.125000000000024
40
0.125000000000024
40
0.140625000000025
40
0.140625000000025
40
0.156250000000026
40
0.156250000000026
40
0.187500000000028
40
0.187500000000028
40
0.250000000000034
40
0.250000000000034
40
0.265625000000034
40
0.265625000000034
40
0.281250000000034
40
0.281250000000034
40
0.312500000000033
40
0.312500000000033
40
0.37500000000003
40
0.37500000000003
40
0.500000000000024
40
0.500000000000024
40
0.750000000000012
40
0.750000000000012
40
0.812500000000009
40
0.812500000000009
40
0.875000000000006
40
0.875000000000006
40
1
40
1
40
1
40
1
41
1
10
81.9693068804589
20
1.63380623617397
30
0
41
1
10
81.9481594270576
20
1.70425253144794
30
0
41
1
10
81.9274761520659
20
1.77572203525267
30
0
41
1
10
81.8874952239545
20
1.92090777919418
30
0
41
1
10
81.868197500754
20
1.9946111073541
30
0
41
1
10
81.8452796824541
20
2.08834133775079
30
0
41
1
10
81.8407563883423
20
2.10716828952238
30
0
41
1
10
81.8318417517573
20
2.14499212107486
30
0
41
1
10
81.827460364043
20
2.1639502021701
30
0
41
1
10
81.814637805949
20
2.22060220056429
30
0
41
1
10
81.8065159392916
20
2.25821987508505
30
0
41
1
10
81.7822845911107
20
2.37042819816716
30
0
41
1
10
81.7665385301969
20
2.4444198440001
30
0
41
1
10
81.7474862325595
20
2.53586815806611
30
0
41
1
10
81.7437120026354
20
2.55409465595642
30
0
41
1
10
81.7361949112572
20
2.59049335386015
30
0
41
1
10
81.7324408462244
20
2.60868521412999
30
0
41
1
10
81.7211914772622
20
2.66323924987066
30
0
41
1
10
81.7137105236331
20
2.6995772065587
30
0
41
1
10
81.6913209773623
20
2.80850006462788
30
0
41
1
10
81.6764575740336
20
2.88103519419496
30
0
41
1
10
81.632163443493
20
3.09785242901356
30
0
41
1
10
81.603016776344
20
3.24139190854225
30
0
41
1
10
81.5167648794755
20
3.6688961999935
30
0
41
1
10
81.4608452517813
20
3.94976365883309
30
0
41
1
10
81.3930584648542
20
4.29534331603924
30
0
41
1
10
81.3796069122385
20
4.36418340754773
30
0
41
1
10
81.3529206510419
20
4.50129856513152
30
0
41
1
10
81.3396893615974
20
4.56955632589231
30
0
41
1
10
81.3004052003262
20
4.77306006593579
30
0
41
1
10
81.2747366394478
20
4.90716862157367
30
0
41
1
10
81.2496057050109
20
5.03966118453459
30
0
0
SPLINE
5
1C0
100
AcDbEntity
8
1
62
256
6
ByLayer
370
18
48
1
60
0
100
AcDbSpline
70
4
71
3
72
8
73
4
40
0
40
0
40
0
40
0
40
1
40
1
40
1
40
1
41
1
10
81.2496057050109
20
5.03966118453459
30
0
41
1
10
81.2159607021953
20
5.11443391214326
30
0
41
1
10
81.1818439034556
20
5.18891725671125
30
0
41
1
10
81.1472835954277
20
5.26312332141524
30
0
0
SPLINE
5
1C1
100
AcDbEntity
8
1
62
256
6
ByLayer
370
18
48
1
60
0
100
AcDbSpline
70
4
71
3
72
16
73
12
40
0
40
0
40
0
40
0
40
0.249999999999993
40
0.249999999999993
40
0.499999999999987
40
0.499999999999987
40
0.624999999999984
40
0.624999999999984
40
0.74999999999998
40
0.74999999999998
40
1
40
1
40
1
40
1
41
1
10
81.1472835954277
20
5.26312332141526
30
0
41
1
10
81.0758721700226
20
5.32275746192349
30
0
41
1
10
81.0051593307032
20
5.3833032036587
30
0
41
1
10
80.8649485066092
20
5.50597997907207
30
0
41
1
10
80.7954229982885
20
5.56807509663531
30
0
41
1
10
80.692008291495
20
5.66235769610859
30
0
41
1
10
80.6576608797891
20
5.69394724491644
30
0
41
1
10
80.5897745007639
20
5.75818130041034
30
0
41
1
10
80.5562415687959
20
5.79090406448967
30
0
41
1
10
80.4571655510616
20
5.89058717435944
30
0
41
1
10
80.393406901144
20
5.95869665912755
30
0
41
1
10
80.3318766066153
20
6.02841427133757
30
0
0
SPLINE
5
1C2
100
AcDbEntity
8
1
62
256
6
ByLayer
370
18
48
1
60
0
100
AcDbSpline
70
4
71
3
72
24
73
20
40
0
40
0
40
0
40
0
40
0.125000000000003
40
0.125000000000003
40
0.250000000000006
40
0.250000000000006
40
0.375000000000009
40
0.375000000000009
40
0.500000000000012
40
0.500000000000012
40
0.750000000000012
40
0.750000000000012
40
0.812500000000009
40
0.812500000000009
40
0.875000000000006
40
0.875000000000006
40
0.937500000000003
40
0.937500000000003
40
1
40
1
40
1
40
1
41
1
10
80.3318766066153
20
6.0284142713376
30
0
41
1
10
80.1189534292957
20
6.07255610005933
30
0
41
1
10
79.906235385594
20
6.1136216927344
30
0
41
1
10
79.4812032929997
20
6.18961663451202
30
0
41
1
10
79.2688797282438
20
6.22453573835605
30
0
41
1
10
78.844399804838
20
6.2881147266616
30
0
41
1
10
78.6322448490554
20
6.31677633173743
30
0
41
1
10
78.2078777976931
20
6.36776014788941
30
0
41
1
10
77.9956028663022
20
6.39006712698924
30
0
41
1
10
77.3584934673036
20
6.44746298111048
30
0
41
1
10
76.9335062106221
20
6.47306281462352
30
0
41
1
10
76.4016073541806
20
6.48887566683626
30
0
41
1
10
76.2952020705973
20
6.49122706376818
30
0
41
1
10
76.0822280428133
20
6.49429970608574
30
0
41
1
10
75.9755840033755
20
6.4950241438055
30
0
41
1
10
75.7620244260654
20
6.49486272026584
30
0
41
1
10
75.6551570403086
20
6.49397364172066
30
0
41
1
10
75.4413686994102
20
6.49055212258506
30
0
41
1
10
75.3344211339833
20
6.48802173466507
30
0
41
1
10
75.2273934024254
20
6.48466811640247
30
0
0
SPLINE
5
1C3
100
AcDbEntity
8
1
62
256
6
ByLayer
370
13
48
1
60
0
100
AcDbSpline
70
4
71
3
72
18
73
14
40
0
40
0
40
0
40
0
40
0.250000000000007
40
0.250000000000007
40
0.375000000000011
40
0.375000000000011
40
0.500000000000014
40
0.500000000000014
40
0.625000000000017
40
0.625000000000017
40
0.75000000000002
40
0.75000000000002
40
1
40
1
40
1
40
1
41
1
10
75.2273934024254
20
6.48466811640245
30
0
41
1
10
75.1636979888899
20
6.43292282594587
30
0
41
1
10
75.0999053032986
20
6.38058854176114
30
0
41
1
10
75.0042842443031
20
6.30116761312919
30
0
41
1
10
74.972420977099
20
6.27453375990805
30
0
41
1
10
74.9087185726086
20
6.22094867190353
30
0
41
1
10
74.8769351119382
20
6.19392671885061
30
0
41
1
10
74.8128347873853
20
6.14032244912374
30
0
41
1
10
74.7805257597507
20
6.11371157503467
30
0
41
1
10
74.7158295273711
20
6.06014122778839
30
0
41
1
10
74.683398691124
20
6.03325172208227
30
0
41
1
10
74.5859715900664
20
5.95207671308199
30
0
41
1
10
74.5208130757923
20
5.89733106720041
30
0
41
1
10
74.4554151131728
20
5.84197454290643
30
0
0
SPLINE
5
1C4
100
AcDbEntity
8
1
62
256
6
ByLayer
370
13
48
1
60
0
100
AcDbSpline
70
4
71
3
72
8
73
4
40
0
40
0
40
0
40
0
40
1
40
1
40
1
40
1
41
1
10
74.4554151131728
20
5.84197454290643
30
0
41
1
10
74.4577094494275
20
5.704123412846
30
0
41
1
10
74.4600918580348
20
5.56636345496
30
0
41
1
10
74.4625640924257
20
5.42869374784885
30
0
0
SPLINE
5
1C5
100
AcDbEntity
8
1
62
256
6
ByLayer
370
18
48
1
60
0
100
AcDbSpline
70
4
71
3
72
14
73
10
40
0
40
0
40
0
40
0
40
0.500000000000004
40
0.500000000000004
40
0.625000000000004
40
0.625000000000004
40
0.750000000000003
40
0.750000000000003
40
1
40
1
40
1
40
1
41
1
10
74.4625640924215
20
5.42869374784783
30
0
41
1
10
74.5279353678162
20
5.06732596943908
30
0
41
1
10
74.5925031869906
20
4.70819252528443
30
0
41
1
10
74.6722213138106
20
4.26203339516371
30
0
41
1
10
74.6881151512724
20
4.1729400244933
30
0
41
1
10
74.7198027793518
20
3.99503150377689
30
0
41
1
10
74.7356055910158
20
3.90616562035123
30
0
41
1
10
74.7827763167226
20
3.64047712191197
30
0
41
1
10
74.8139132263451
20
3.46452558547895
30
0
41
1
10
74.8447428387222
20
3.28973703795606
30
0
0
SPLINE
5
1C6
100
AcDbEntity
8
1
62
256
6
ByLayer
370
18
48
1
60
0
100
AcDbSpline
70
4
71
3
72
15
73
11
40
0
40
0
40
0
40
0
40
0.399201939927161
40
0.399201939927161
40
0.598802909890732
40
0.598802909890732
40
0.798403879854302
40
0.998004849817872
40
0.998004849817872
40
1
40
1
40
1
40
1
41
1
10
74.8447428387222
20
3.28973703795606
30
0
41
1
10
74.8474774127828
20
3.27423336498401
30
0
41
1
10
74.8482985674959
20
3.2586026890406
30
0
41
1
10
74.8468285579331
20
3.23498699857845
30
0
41
1
10
74.8458782293659
20
3.22705967908658
30
0
41
1
10
74.8430564725146
20
3.21126376659655
30
0
41
1
10
74.8393547803561
20
3.19571897475782
30
0
41
1
10
74.8339605424064
20
3.18065838728953
30
0
41
1
10
74.8308079199611
20
3.17317558925944
30
0
41
1
10
74.8307766745463
20
3.17310154197566
30
0
41
1
10
74.8307453845503
20
3.17302750307013
30
0
0
SPLINE
5
1C7
100
AcDbEntity
8
1
62
256
6
ByLayer
370
13
48
1
60
0
100
AcDbSpline
70
4
71
3
72
14
73
10
40
0
40
0
40
0
40
0
40
0.36988990182716
40
0.36988990182716
40
0.554834852740736
40
0.554834852740736
40
0.739779803654313
40
0.739779803654313
40
1
40
1
40
1
40
1
41
1
10
74.9781975195395
20
-2.8067371704694
30
0
41
1
10
74.9792479823776
20
-2.8304450691102
30
0
41
1
10
74.9807729411002
20
-2.85285999127646
30
0
41
1
10
74.9837533925956
20
-2.88451934304183
30
0
41
1
10
74.9848651845454
20
-2.89476482854826
30
0
41
1
10
74.9873085160931
20
-2.91449177063547
30
0
41
1
10
74.9886309696058
20
-2.92390585524652
30
0
41
1
10
74.992041190438
20
-2.94551588659874
30
0
41
1
10
74.9942208605287
20
-2.95728730429602
30
0
41
1
10
74.9965736178734
20
-2.96820968106644
30
0
0
SPLINE
5
1C8
100
AcDbEntity
8
1
62
256
6
ByLayer
370
13
48
1
60
0
100
AcDbSpline
70
4
71
3
72
48
73
44
40
0
40
0
40
0
40
0
40
0.0967305394914654
40
0.0967305394914654
40
0.120913174364332
40
0.120913174364332
40
0.145095809237198
40
0.145095809237198
40
0.193461078982931
40
0.193461078982931
40
0.290191618474401
40
0.290191618474401
40
0.314374253347268
40
0.314374253347268
40
0.338556888220135
40
0.338556888220135
40
0.38692215796587
40
0.38692215796587
40
0.483652697457339
40
0.483652697457339
40
0.507835332330205
40
0.507835332330205
40
0.532017967203072
40
0.580383236948804
40
0.628748506694536
40
0.628748506694536
40
0.652931141567402
40
0.652931141567402
40
0.677113776440267
40
0.677113776440267
40
0.773844315931731
40
0.773844315931731
40
0.798026950804598
40
0.798026950804598
40
0.822209585677464
40
0.822209585677464
40
0.870574855423199
40
0.870574855423199
40
0.967305394914669
40
0.967305394914669
40
0.991488029787537
40
0.991488029787537
40
1
40
1
40
1
40
1
41
1
10
80.5455858327636
20
-5.29595320432796
30
0
41
1
10
80.5830579931479
20
-5.19900613875754
30
0
41
1
10
80.6193134960743
20
-5.09984250047717
30
0
41
1
10
80.6631280661532
20
-4.97310930479694
30
0
41
1
10
80.6718151684872
20
-4.94762265386254
30
0
41
1
10
80.6890358037406
20
-4.89636467520279
30
0
41
1
10
80.6975874137306
20
-4.87053754265594
30
0
41
1
10
80.7228582805773
20
-4.79307874610029
30
0
41
1
10
80.7391734381278
20
-4.74154205234251
30
0
41
1
10
80.7865500397446
20
-4.58723858779024
30
0
41
1
10
80.816056780486
20
-4.48477557221452
30
0
41
1
10
80.8502289929234
20
-4.35724177570407
30
0
41
1
10
80.8569267411741
20
-4.33176249357604
30
0
41
1
10
80.8700410889837
20
-4.28086082120294
30
0
41
1
10
80.8764293702702
20
-4.25554615513815
30
0
41
1
10
80.8949734114986
20
-4.1804772257756
30
0
41
1
10
80.9065598768048
20
-4.1314022701799
30
0
41
1
10
80.93901343417
20
-3.98707406377059
30
0
41
1
10
80.9575979688315
20
-3.89468838683629
30
0
41
1
10
80.9767637404739
20
-3.78434897640736
30
0
41
1
10
80.9803998074041
20
-3.76248563849543
30
0
41
1
10
80.9871733162987
20
-3.71978054019033
30
0
41
1
10
80.9966114988162
20
-3.65711792348165
30
0
41
1
10
81.0087913965713
20
-3.55954649288594
30
0
41
1
10
81.0147734042362
20
-3.48877577549118
30
0
41
1
10
81.0178174865905
20
-3.4384941721884
30
0
41
1
10
81.0185913360525
20
-3.42220054936465
30
0
41
1
10
81.0196464719282
20
-3.39056843817244
30
0
41
1
10
81.0199260829706
20
-3.37521846948826
30
0
41
1
10
81.0200705683306
20
-3.30180282518037
30
0
41
1
10
81.0162477192935
20
-3.25286330025401
30
0
41
1
10
81.0066845531122
20
-3.20357228739297
30
0
41
1
10
81.0045304873601
20
-3.1943136203551
30
0
41
1
10
80.9997341472381
20
-3.1770078463289
30
0
41
1
10
80.9970876426625
20
-3.16895003168008
30
0
41
1
10
80.9884298343394
20
-3.14669583254675
30
0
41
1
10
80.9817693078698
20
-3.13457071759754
30
0
41
1
10
80.9592388810728
20
-3.10595456203106
30
0
41
1
10
80.9408427286336
20
-3.09715531058885
30
0
41
1
10
80.9136423652926
20
-3.09888515712783
30
0
41
1
10
80.9079864655398
20
-3.099877902
30
0
41
1
10
80.9001350693167
20
-3.10206655554177
30
0
41
1
10
80.8980704755604
20
-3.10271388908413
30
0
41
1
10
80.895985547787
20
-3.1034380591984
30
0
0
SPLINE
5
1C9
100
AcDbEntity
8
1
62
256
6
ByLayer
370
18
48
1
60
0
100
AcDbSpline
70
4
71
3
72
26
73
22
40
0
40
0
40
0
40
0
40
0.250000000000015
40
0.250000000000015
40
0.375000000000022
40
0.375000000000022
40
0.437500000000026
40
0.437500000000026
40
0.500000000000029
40
0.500000000000029
40
0.625000000000037
40
0.625000000000037
40
0.687500000000027
40
0.687500000000027
40
0.750000000000018
40
0.750000000000018
40
0.875000000000001
40
0.875000000000001
40
0.9375
40
0.9375
40
1
40
1
40
1
40
1
41
1
10
80.620764523931
20
-1.94914359749288
30
0
41
1
10
80.6659059660437
20
-1.99318753036303
30
0
41
1
10
80.7099203850804
20
-2.04104486398381
30
0
41
1
10
80.7741915303723
20
-2.11875384129556
30
0
41
1
10
80.7953205268563
20
-2.14565405206673
30
0
41
1
10
80.8265306605876
20
-2.18763988514982
30
0
41
1
10
80.8368797278229
20
-2.20194800667667
30
0
41
1
10
80.8571794390662
20
-2.23082081831188
30
0
41
1
10
80.8671500679419
20
-2.24541031452466
30
0
41
1
10
80.8965114876497
20
-2.28964899564795
30
0
41
1
10
80.9153549879297
20
-2.31976566008794
30
0
41
1
10
80.9424230298929
20
-2.36596327041409
30
0
41
1
10
80.951245450907
20
-2.38153352868002
30
0
41
1
10
80.9684619647055
20
-2.41303990781677
30
0
41
1
10
80.9768860671163
20
-2.42903607955071
30
0
41
1
10
81.0012234348099
20
-2.47714992102954
30
0
41
1
10
81.0161477086928
20
-2.509252710037
30
0
41
1
10
81.036424799924
20
-2.55745051333531
30
0
41
1
10
81.0428308857623
20
-2.5735237464792
30
0
41
1
10
81.0548899403586
20
-2.60568578697982
30
0
41
1
10
81.0605585937731
20
-2.62182263962222
30
0
41
1
10
81.0657835232008
20
-2.63786242897461
30
0
0
SPLINE
5
1CA
100
AcDbEntity
8
1
62
256
6
ByLayer
370
18
48
1
60
0
100
AcDbSpline
70
4
71
3
72
36
73
32
40
0
40
0
40
0
40
0
40
0.125000000000006
40
0.125000000000006
40
0.250000000000012
40
0.250000000000012
40
0.375000000000018
40
0.375000000000018
40
0.437500000000021
40
0.437500000000021
40
0.468750000000019
40
0.468750000000019
40
0.500000000000018
40
0.500000000000018
40
0.625000000000004
40
0.625000000000004
40
0.749999999999991
40
0.749999999999991
40
0.781249999999992
40
0.781249999999992
40
0.812499999999992
40
0.812499999999992
40
0.874999999999993
40
0.874999999999993
40
0.937499999999995
40
0.937499999999995
40
0.968749999999995
40
0.968749999999995
40
0.984374999999998
40
0.984374999999998
40
1
40
1
40
1
40
1
41
1
10
80.620764523931
20
-1.94914359749288
30
0
41
1
10
80.5241628029355
20
-1.85489052281176
30
0
41
1
10
80.4287438100714
20
-1.75678662897099
30
0
41
1
10
80.2402516760743
20
-1.5529410225835
30
0
41
1
10
80.1471783522022
20
-1.44719990464284
30
0
41
1
10
79.9634524634406
20
-1.22783595072679
30
0
41
1
10
79.8727989839295
20
-1.11421610383198
30
0
41
1
10
79.7387725262985
20
-0.937424941556259
30
0
41
1
10
79.694423605213
20
-0.877431275686291
30
0
41
1
10
79.6284177267553
20
-0.785755826376999
30
0
41
1
10
79.6064736331966
20
-0.754874899240264
30
0
41
1
10
79.5629968376657
20
-0.692867731242671
30
0
41
1
10
79.5414449287359
20
-0.661715903572116
30
0
41
1
10
79.4346257093867
20
-0.505209283500363
30
0
41
1
10
79.3521669451932
20
-0.377621921929261
30
0
41
1
10
79.1936335382705
20
-0.117372433847663
30
0
41
1
10
79.1175537904165
20
0.0152856318278225
30
0
41
1
10
79.0269272461438
20
0.184663776733629
30
0
41
1
10
79.0090267780411
20
0.218718128726039
30
0
41
1
10
78.9736929283394
20
0.287198152550246
30
0
41
1
10
78.9562435116501
20
0.321657939727999
30
0
41
1
10
78.9049328524604
20
0.4249891570106
30
0
41
1
10
78.8720118821991
20
0.493991605088638
30
0
41
1
10
78.808848156692
20
0.632236313331106
30
0
41
1
10
78.7786443656491
20
0.701495290102969
30
0
41
1
10
78.7353555792794
20
0.805529026398489
30
0
41
1
10
78.7212351271423
20
0.840219856129039
30
0
41
1
10
78.7009682061832
20
0.892459036293587
30
0
41
1
10
78.6943645859362
20
0.909931241318276
30
0
41
1
10
78.6816534882986
20
0.94487542405534
30
0
41
1
10
78.6755409072687
20
0.962341444298715
30
0
41
1
10
78.6696711633527
20
0.979800512222425
30
0
0
SPLINE
5
1CB
100
AcDbEntity
8
1
62
256
6
ByLayer
370
18
48
1
60
0
100
AcDbSpline
70
4
71
3
72
28
73
24
40
0
40
0
40
0
40
0
40
0.249999999999964
40
0.249999999999964
40
0.374999999999945
40
0.374999999999945
40
0.437499999999937
40
0.437499999999937
40
0.499999999999928
40
0.499999999999928
40
0.56249999999992
40
0.56249999999992
40
0.624999999999912
40
0.624999999999912
40
0.749999999999992
40
0.749999999999992
40
0.812499999999994
40
0.812499999999994
40
0.874999999999996
40
0.874999999999996
40
0.937499999999998
40
0.937499999999998
40
1
40
1
40
1
40
1
41
1
10
75.334712429048
20
-2.91818465674015
30
0
41
1
10
75.3075520943144
20
-2.91818465674015
30
0
41
1
10
75.2806909154966
20
-2.91812890691463
30
0
41
1
10
75.2410307990605
20
-2.91792934781449
30
0
41
1
10
75.2279172575969
20
-2.91784330645004
30
0
41
1
10
75.2084568199119
20
-2.91767648979743
30
0
41
1
10
75.2020052507371
20
-2.91761454883073
30
0
41
1
10
75.1891862068065
20
-2.91747573232348
30
0
41
1
10
75.1828042474785
20
-2.91739859072209
30
0
41
1
10
75.1703751455316
20
-2.91722958908983
30
0
41
1
10
75.164302135974
20
-2.91713749927055
30
0
41
1
10
75.1524888648537
20
-2.91693579794295
30
0
41
1
10
75.1467240953415
20
-2.91682567008425
30
0
41
1
10
75.1302050626833
20
-2.91646760302547
30
0
41
1
10
75.1203801802558
20
-2.91619652461975
30
0
41
1
10
75.1080145153258
20
-2.9157288447384
30
0
41
1
10
75.1043148240739
20
-2.91556278938276
30
0
41
1
10
75.0981003126267
20
-2.91522237448857
30
0
41
1
10
75.0955417655414
20
-2.91504650122909
30
0
41
1
10
75.0915632170078
20
-2.91468364463518
30
0
41
1
10
75.0901744892358
20
-2.91449854644324
30
0
41
1
10
75.0885767537837
20
-2.91413159276013
30
0
41
1
10
75.0883508380103
20
-2.91394826410962
30
0
41
1
10
75.0886511704242
20
-2.91376530424762
30
0
0
SPLINE
5
1CC
100
AcDbEntity
8
1
62
256
6
ByLayer
370
13
48
1
60
0
100
AcDbSpline
70
4
71
3
72
8
73
4
40
0
40
0
40
0
40
0
40
1
40
1
40
1
40
1
41
1
10
75.049010070589
20
-2.93791425519632
30
0
41
1
10
75.0622237705238
20
-2.9298646048662
30
0
41
1
10
75.0754374704696
20
-2.92181495454955
30
0
41
1
10
75.0886511704263
20
-2.91376530424631
30
0
0
SPLINE
5
1CD
100
AcDbEntity
8
1
62
256
6
ByLayer
370
18
48
1
60
0
100
AcDbSpline
70
4
71
3
72
16
73
12
40
0
40
0
40
0
40
0
40
0.25
40
0.25
40
0.500000000000001
40
0.500000000000001
40
0.750000000000001
40
0.750000000000001
40
0.875000000000001
40
0.875000000000001
40
1
40
1
40
1
40
1
41
1
10
74.3689569093404
20
-6.01530374075506
30
0
41
1
10
74.3771556583756
20
-5.99012538803331
30
0
41
1
10
74.386402323601
20
-5.95911779965303
30
0
41
1
10
74.4069085878293
20
-5.88575024490569
30
0
41
1
10
74.418180988162
20
-5.84334456970257
30
0
41
1
10
74.4426671908575
20
-5.74747886445493
30
0
41
1
10
74.4558964786496
20
-5.69395807891314
30
0
41
1
10
74.4771331763525
20
-5.60566142899569
30
0
41
1
10
74.4844454303442
20
-5.57488881125423
30
0
41
1
10
74.4995355532337
20
-5.51066906105095
30
0
41
1
10
74.5073139764971
20
-5.47721914356828
30
0
41
1
10
74.5153105135037
20
-5.44249609617287
30
0
0
SPLINE
5
1CE
100
AcDbEntity
8
1
62
256
6
ByLayer
370
18
48
1
60
0
100
AcDbSpline
70
4
71
3
72
22
73
18
40
0
40
0
40
0
40
0
40
0.124999999999999
40
0.124999999999999
40
0.249999999999999
40
0.249999999999999
40
0.312499999999999
40
0.312499999999999
40
0.374999999999999
40
0.374999999999999
40
0.499999999999999
40
0.624999999999999
40
0.624999999999999
40
0.75
40
0.75
40
0.875
40
1
40
1
40
1
40
1
41
1
10
74.9397633390012
20
-3.0964653340487
30
0
41
1
10
74.9385381504561
20
-3.09937246053343
30
0
41
1
10
74.9377191484281
20
-3.10007669889868
30
0
41
1
10
74.9368279862245
20
-3.09743479735971
30
0
41
1
10
74.9367561806444
20
-3.09408673436244
30
0
41
1
10
74.9371959924254
20
-3.08609525121133
30
0
41
1
10
74.9374346409064
20
-3.08292973600069
30
0
41
1
10
74.938095060134
20
-3.0756161955309
30
0
41
1
10
74.9385141757559
20
-3.0714960428943
30
0
41
1
10
74.9400289994921
20
-3.05779360311683
30
0
41
1
10
74.9427330141046
20
-3.0359573413383
30
0
41
1
10
74.9467696750597
20
-3.00717526255178
30
0
41
1
10
74.9514924511515
20
-2.97481711858228
30
0
41
1
10
74.9541544146485
20
-2.95714244194539
30
0
41
1
10
74.9600395622094
20
-2.91903156077419
30
0
41
1
10
74.9664916981968
20
-2.87812001178395
30
0
41
1
10
74.9740918160573
20
-2.83153794865459
30
0
41
1
10
74.9781975195395
20
-2.8067371704694
30
0
0
SPLINE
5
1CF
100
AcDbEntity
8
1
62
256
6
ByLayer
370
18
48
1
60
0
100
AcDbSpline
70
4
71
3
72
10
73
6
40
0
40
0
40
0
40
0
40
0.5
40
0.5
40
1
40
1
40
1
40
1
41
1
10
74.9904157263297
20
-3.09743985613554
30
0
41
1
10
74.9930791802736
20
-3.08079432111398
30
0
41
1
10
74.9956483112567
20
-3.06461371142808
30
0
41
1
10
75.000691015241
20
-3.03272350491045
30
0
41
1
10
75.003163101822
20
-3.01702123476085
30
0
41
1
10
75.0056517673414
20
-3.00123724571208
30
0
0
SPLINE
5
1D0
100
AcDbEntity
8
1
62
256
6
ByLayer
370
13
48
1
60
0
100
AcDbSpline
70
4
71
3
72
8
73
4
40
0
40
0
40
0
40
0
40
1
40
1
40
1
40
1
41
1
10
75.334712429048
20
-2.91818465674015
30
0
41
1
10
75.2793645088698
20
-2.95190204072858
30
0
41
1
10
75.2240165888832
20
-2.98561942495303
30
0
41
1
10
75.1686686690883
20
-3.01933680941343
30
0
0
SPLINE
5
1D1
100
AcDbEntity
8
1
62
256
6
ByLayer
370
18
48
1
60
0
100
AcDbSpline
70
4
71
3
72
24
73
20
40
0
40
0
40
0
40
0
40
0.124999999999764
40
0.124999999999764
40
0.187499999999709
40
0.187499999999709
40
0.249999999999655
40
0.249999999999655
40
0.374999999999661
40
0.374999999999661
40
0.437499999999664
40
0.437499999999664
40
0.499999999999668
40
0.499999999999668
40
0.624999999999769
40
0.624999999999769
40
0.749999999999869
40
0.749999999999869
40
1
40
1
40
1
40
1
41
1
10
80.1839509901175
20
-3.11903665375274
30
0
41
1
10
80.1976824786863
20
-3.11891620993688
30
0
41
1
10
80.2111501784083
20
-3.11760399602042
30
0
41
1
10
80.2309965580855
20
-3.11403105508833
30
0
41
1
10
80.2375523870793
20
-3.1125706686874
30
0
41
1
10
80.2505470598176
20
-3.10912136890462
30
0
41
1
10
80.2570162208183
20
-3.10712101853198
30
0
41
1
10
80.2759944139702
20
-3.10041914358126
30
0
41
1
10
80.2880520675056
20
-3.09504539531642
30
0
41
1
10
80.3053349929021
20
-3.08576035613655
30
0
41
1
10
80.3109611625841
20
-3.08245993327282
30
0
41
1
10
80.3219495327382
20
-3.07545686446403
30
0
41
1
10
80.3273165083509
20
-3.07174813966984
30
0
41
1
10
80.342796242749
20
-3.06020341711249
30
0
41
1
10
80.3523765629698
20
-3.05190131778565
30
0
41
1
10
80.3701736643589
20
-3.03418044536497
30
0
41
1
10
80.3784343294236
20
-3.0246980615571
30
0
41
1
10
80.4008276966342
20
-2.99509156057343
30
0
41
1
10
80.4125888675119
20
-2.97396560484213
30
0
41
1
10
80.421325359404
20
-2.95151405863112
30
0
0
SPLINE
5
1D2
100
AcDbEntity
8
1
62
256
6
ByLayer
370
13
48
1
60
0
100
AcDbSpline
70
4
71
3
72
8
73
4
40
0
40
0
40
0
40
0
40
1
40
1
40
1
40
1
41
1
10
75.0957568671593
20
-3.13827505219371
30
0
41
1
10
75.1064651817367
20
-3.14662851207299
30
0
41
1
10
75.1171746495559
20
-3.15498086332414
30
0
41
1
10
75.1278852510477
20
-3.16333212397959
30
0
0
SPLINE
5
1D3
100
AcDbEntity
8
1
62
256
6
ByLayer
370
13
48
1
60
0
100
AcDbSpline
70
4
71
3
72
8
73
4
40
0
40
0
40
0
40
0
40
1
40
1
40
1
40
1
41
1
10
74.5930546176763
20
-6.09203164028236
30
0
41
1
10
75.1048650811385
20
-6.17050732581987
30
0
41
1
10
75.6155020983872
20
-6.23139958985195
30
0
41
1
10
76.1259983030449
20
-6.2744878573746
30
0
0
SPLINE
5
1D4
100
AcDbEntity
8
1
62
256
6
ByLayer
370
18
48
1
60
0
100
AcDbSpline
70
4
71
3
72
12
73
8
40
0
40
0
40
0
40
0
40
0.0275867929939406
40
0.0275867929939406
40
0.807428032513931
40
0.807428032513931
40
1
40
1
40
1
40
1
41
1
10
76.1259987142412
20
-6.27448789208151
30
0
41
1
10
76.1447197161126
20
-6.27606803185668
30
0
41
1
10
76.1634405286129
20
-6.27762422796616
30
0
41
1
10
76.7113692793219
20
-6.32247086138025
30
0
41
1
10
77.2404592987048
20
-6.34665027423301
30
0
41
1
10
77.9014004018997
20
-6.35273266034292
30
0
41
1
10
78.0323578480659
20
-6.35276005347649
30
0
41
1
10
78.1633864716682
20
-6.35160860751171
30
0
0
SPLINE
5
1D5
100
AcDbEntity
8
1
62
256
6
ByLayer
370
18
48
1
60
0
100
AcDbSpline
70
4
71
3
72
8
73
4
40
0
40
0
40
0
40
0
40
1
40
1
40
1
40
1
41
1
10
80.9554148634144
20
-6.15021157804136
30
0
41
1
10
80.9496556889557
20
-6.16291132676901
30
0
41
1
10
80.9440244888704
20
-6.17493916430269
30
0
41
1
10
80.9385426095613
20
-6.18629549980705
30
0
0
SPLINE
5
1D6
100
AcDbEntity
8
1
62
256
6
ByLayer
370
13
48
1
60
0
100
AcDbSpline
70
4
71
3
72
28
73
24
40
0
40
0
40
0
40
0
40
0.125000000000061
40
0.125000000000061
40
0.250000000000122
40
0.250000000000122
40
0.312500000000128
40
0.312500000000128
40
0.375000000000135
40
0.375000000000135
40
0.500000000000107
40
0.500000000000107
40
0.562500000000094
40
0.562500000000094
40
0.62500000000008
40
0.62500000000008
40
0.750000000000053
40
0.750000000000053
40
0.81250000000004
40
0.81250000000004
40
0.875000000000027
40
0.875000000000027
40
1
40
1
40
1
40
1
41
1
10
80.1121162257688
20
-6.32290049479224
30
0
41
1
10
80.0855117221237
20
-6.32251454004165
30
0
41
1
10
80.060103118881
20
-6.32197268842376
30
0
41
1
10
80.011531419636
20
-6.32052722705959
30
0
41
1
10
79.9883690082659
20
-6.31962378779352
30
0
41
1
10
79.9553271799363
20
-6.31793129479141
30
0
41
1
10
79.9445940320292
20
-6.31730944384412
30
0
41
1
10
79.9240673773382
20
-6.31596374492443
30
0
41
1
10
79.9142237386423
20
-6.31523757956055
30
0
41
1
10
79.8859167013875
20
-6.31288709390088
30
0
41
1
10
79.8686702020786
20
-6.31109169913367
30
0
41
1
10
79.8452303187972
20
-6.30799303782712
30
0
41
1
10
79.8377984082599
20
-6.30688790315557
30
0
41
1
10
79.8238961988603
20
-6.30455053629473
30
0
41
1
10
79.8174443144371
20
-6.30332260671341
30
0
41
1
10
79.7995400349217
20
-6.29945334860395
30
0
41
1
10
79.7895309735702
20
-6.29662705815696
30
0
41
1
10
79.7773792804558
20
-6.29197836394198
30
0
41
1
10
79.7738077339408
20
-6.2903604718293
30
0
41
1
10
79.767642994787
20
-6.28697979092667
30
0
41
1
10
79.7650588305954
20
-6.2852193832322
30
0
41
1
10
79.7588792346243
20
-6.27978174777263
30
0
41
1
10
79.7568071031638
20
-6.27592770143721
30
0
41
1
10
79.7568071031638
20
-6.27183589741006
30
0
0
SPLINE
5
1D7
100
AcDbEntity
8
1
62
256
6
ByLayer
370
13
48
1
60
0
100
AcDbSpline
70
4
71
3
72
10
73
6
40
0
40
0
40
0
40
0
40
0.223966886266707
40
0.223966886266707
40
1
40
1
40
1
40
1
41
1
10
79.7568071031646
20
-6.13467207612678
30
0
41
1
10
79.6794851579976
20
-6.13512794255755
30
0
41
1
10
79.6021632112877
20
-6.13558367416059
30
0
41
1
10
79.2569249060281
20
-6.13761788975134
30
0
41
1
10
78.9890085305198
20
-6.13919489157161
30
0
41
1
10
78.7210921366216
20
-6.14077028303734
30
0
0
SPLINE
5
1D8
100
AcDbEntity
8
1
62
256
6
ByLayer
370
13
48
1
60
0
100
AcDbSpline
70
4
71
3
72
31
73
27
40
0
40
0
40
0
40
0
40
0.125000000000021
40
0.250000000000043
40
0.250000000000043
40
0.375000000000064
40
0.375000000000064
40
0.500000000000085
40
0.500000000000085
40
0.56250000000008
40
0.56250000000008
40
0.625000000000074
40
0.625000000000074
40
0.687500000000068
40
0.687500000000068
40
0.750000000000063
40
0.750000000000063
40
0.812500000000057
40
0.812500000000057
40
0.875000000000051
40
0.875000000000051
40
0.906250000000038
40
0.906250000000038
40
0.937500000000025
40
0.937500000000025
40
1
40
1
40
1
40
1
41
1
10
78.7210921366216
20
-6.14077028303734
30
0
41
1
10
78.6718147673088
20
-6.14106004189063
30
0
41
1
10
78.5740015656515
20
-6.14063379642201
30
0
41
1
10
78.4775970700889
20
-6.13827142243693
30
0
41
1
10
78.3819148158269
20
-6.13488343858853
30
0
41
1
10
78.3344340566504
20
-6.13267806094757
30
0
41
1
10
78.2402763963195
20
-6.12707140411692
30
0
41
1
10
78.1935970383949
20
-6.12367462513151
30
0
41
1
10
78.1243221071733
20
-6.11741069823807
30
0
41
1
10
78.1013030316998
20
-6.11511935080054
30
0
41
1
10
78.0560382410683
20
-6.11011756164442
30
0
41
1
10
78.0337495677995
20
-6.10740465026996
30
0
41
1
10
77.9899733396225
20
-6.10146977432257
30
0
41
1
10
77.9684681356209
20
-6.09824595948098
30
0
41
1
10
77.9265050334664
20
-6.09116981345633
30
0
41
1
10
77.9062217332678
20
-6.08734798797184
30
0
41
1
10
77.8673695136895
20
-6.07898792306389
30
0
41
1
10
77.8487948258314
20
-6.07445225031591
30
0
41
1
10
77.8139036275306
20
-6.06441498636352
30
0
41
1
10
77.7975155725934
20
-6.05887502684493
30
0
41
1
10
77.7761284836833
20
-6.04983926756512
30
0
41
1
10
77.7695031549754
20
-6.0466981404268
30
0
41
1
10
77.7574362347028
20
-6.04010963598253
30
0
41
1
10
77.7519687405661
20
-6.03663822613589
30
0
41
1
10
77.738029532872
20
-6.02593144488171
30
0
41
1
10
77.7318826226153
20
-6.01837468542399
30
0
41
1
10
77.7296484757982
20
-6.01029265104694
30
0
0
SPLINE
5
1D9
100
AcDbEntity
8
1
62
256
6
ByLayer
370
13
48
1
60
0
100
AcDbSpline
70
4
71
3
72
12
73
8
40
0
40
0
40
0
40
0
40
0.499999999999999
40
0.499999999999999
40
0.75
40
0.75
40
1
40
1
40
1
40
1
41
1
10
77.7296484757982
20
-6.01029265104694
30
0
41
1
10
77.719612747682
20
-5.97398836745526
30
0
41
1
10
77.7145766851224
20
-5.93483696644498
30
0
41
1
10
77.7145670292186
20
-5.87181361682624
30
0
41
1
10
77.7158245290298
20
-5.85006976437359
30
0
41
1
10
77.7208581857323
20
-5.80524320881383
30
0
41
1
10
77.7246305414621
20
-5.78217228300161
30
0
41
1
10
77.7296484757982
20
-5.75844891798889
30
0
0
SPLINE
5
1DA
100
AcDbEntity
8
1
62
256
6
ByLayer
370
13
48
1
60
0
100
AcDbSpline
70
4
71
3
72
32
73
28
40
0
40
0
40
0
40
0
40
0.062500000000024
40
0.062500000000024
40
0.093750000000029
40
0.093750000000029
40
0.125000000000034
40
0.156250000000039
40
0.156250000000039
40
0.187500000000044
40
0.187500000000044
40
0.250000000000053
40
0.250000000000053
40
0.312500000000061
40
0.312500000000061
40
0.37500000000007
40
0.37500000000007
40
0.500000000000055
40
0.500000000000055
40
0.625000000000041
40
0.625000000000041
40
0.687500000000034
40
0.687500000000034
40
0.750000000000027
40
0.750000000000027
40
0.875000000000014
40
1
40
1
40
1
40
1
41
1
10
77.7296484757982
20
-5.75844891798889
30
0
41
1
10
77.7318806061384
20
-5.74789604119377
30
0
41
1
10
77.7380214061126
20
-5.73763329637069
30
0
41
1
10
77.7519691162885
20
-5.72259564785068
30
0
41
1
10
77.7574299734828
20
-5.71764282679564
30
0
41
1
10
77.7694566771476
20
-5.70810415256429
30
0
41
1
10
77.7826512398504
20
-5.69885716664695
30
0
41
1
10
77.7978306534984
20
-5.69011002110381
30
0
41
1
10
77.8138759917276
20
-5.68158315532202
30
0
41
1
10
77.8223543385057
20
-5.67742171410259
30
0
41
1
10
77.8485319306794
20
-5.66541527736766
30
0
41
1
10
77.8670797571605
20
-5.6579752506932
30
0
41
1
10
77.9058097883831
20
-5.64395221232323
30
0
41
1
10
77.9259980129358
20
-5.63737220209507
30
0
41
1
10
77.9677045836524
20
-5.62492399168497
30
0
41
1
10
77.9892522333992
20
-5.61905423590656
30
0
41
1
10
78.0545730157959
20
-5.60261681806236
30
0
41
1
10
78.0993608839103
20
-5.59309357770601
30
0
41
1
10
78.1907637295679
20
-5.57623883261655
30
0
41
1
10
78.2373892946982
20
-5.56891867106958
30
0
41
1
10
78.3085013242211
20
-5.55939107894682
30
0
41
1
10
78.3324442178109
20
-5.55645498484202
30
0
41
1
10
78.3804854936273
20
-5.55108051000676
30
0
41
1
10
78.4045671959946
20
-5.54864290946659
30
0
41
1
10
78.4769861131172
20
-5.54204827003392
30
0
41
1
10
78.5740059218294
20
-5.5351623379868
30
0
41
1
10
78.6719106564687
20
-5.53199029864822
30
0
41
1
10
78.7210921366216
20
-5.53137158913739
30
0
0
SPLINE
5
1DB
100
AcDbEntity
8
1
62
256
6
ByLayer
370
13
48
1
60
0
100
AcDbSpline
70
4
71
3
72
10
73
6
40
0
40
0
40
0
40
0
40
0.444097838254641
40
0.444097838254641
40
1
40
1
40
1
40
1
41
1
10
78.7210921366216
20
-5.53137158913739
30
0
41
1
10
78.8744117427809
20
-5.52944280825821
30
0
41
1
10
79.027731342917
20
-5.52751347907895
30
0
41
1
10
79.3729696685403
20
-5.52316786294287
30
0
41
1
10
79.5648883906054
20
-5.52075126444871
30
0
41
1
10
79.7568071031646
20
-5.51833380239742
30
0
0
SPLINE
5
1DC
100
AcDbEntity
8
1
62
256
6
ByLayer
370
13
48
1
60
0
100
AcDbSpline
70
4
71
3
72
16
73
12
40
0
40
0
40
0
40
0
40
0.250000000000004
40
0.250000000000004
40
0.375000000000016
40
0.375000000000016
40
0.500000000000028
40
0.500000000000028
40
0.750000000000014
40
0.750000000000014
40
1
40
1
40
1
40
1
41
1
10
79.7568071031646
20
-5.13558902166665
30
0
41
1
10
79.7568071031646
20
-5.11096764626356
30
0
41
1
10
79.7612998482714
20
-5.08641170287436
30
0
41
1
10
79.7745572557571
20
-5.04970714336608
30
0
41
1
10
79.7800728612758
20
-5.03749469736255
30
0
41
1
10
79.7933862358714
20
-5.0131311719683
30
0
41
1
10
79.801076682898
20
-5.00118021313537
30
0
41
1
10
79.8271117579014
20
-4.96611571925814
30
0
41
1
10
79.8484023109955
20
-4.94373858766173
30
0
41
1
10
79.8993076836842
20
-4.90130079085887
30
0
41
1
10
79.9280241179226
20
-4.8820002398916
30
0
41
1
10
79.9598993903117
20
-4.86476164279094
30
0
0
SPLINE
5
1DD
100
AcDbEntity
8
1
62
256
6
ByLayer
370
13
48
1
60
0
100
AcDbSpline
70
4
71
3
72
15
73
11
40
0
40
0
40
0
40
0
40
0.125
40
0.125
40
0.25
40
0.25
40
0.500000000000001
40
0.500000000000001
40
0.75
40
1
40
1
40
1
40
1
41
1
10
79.9598993903121
20
-4.8647616427906
30
0
41
1
10
79.9638752149984
20
-4.80311021072674
30
0
41
1
10
79.9685541474681
20
-4.7398488338473
30
0
41
1
10
79.979312353035
20
-4.61011962842036
30
0
41
1
10
79.9854023752853
20
-4.54355194373233
30
0
41
1
10
80.005667568674
20
-4.34008251176994
30
0
41
1
10
80.02183746206
20
-4.19928838347488
30
0
41
1
10
80.0593340316536
20
-3.90771927317945
30
0
41
1
10
80.1019883013495
20
-3.60616753378997
30
0
41
1
10
80.1548911929153
20
-3.28477937548703
30
0
41
1
10
80.1839509901175
20
-3.11903665375274
30
0
0
SPLINE
5
1DE
100
AcDbEntity
8
1
62
256
6
ByLayer
370
18
48
1
60
0
100
AcDbSpline
70
4
71
3
72
8
73
4
40
0
40
0
40
0
40
0
40
1
40
1
40
1
40
1
41
1
10
75.1278852510478
20
-3.16333212398848
30
0
41
1
10
76.8132407020886
20
-3.14858450028132
30
0
41
1
10
78.4985959506101
20
-3.13381950784839
30
0
41
1
10
80.1839509901175
20
-3.11903665375274
30
0
0
SPLINE
5
1DF
100
AcDbEntity
8
1
62
256
6
ByLayer
370
18
48
1
60
0
100
AcDbSpline
70
4
71
3
72
8
73
4
40
0
40
0
40
0
40
0
40
1
40
1
40
1
40
1
41
1
10
75.1278852510477
20
-3.16333212397959
30
0
41
1
10
75.1073337290148
20
-3.16351195910775
30
0
41
1
10
75.0870233762961
20
-3.16493739696
30
0
41
1
10
75.0670165912902
20
-3.16792885133566
30
0
0
SPLINE
5
1E0
100
AcDbEntity
8
1
62
256
6
ByLayer
370
18
48
1
60
0
100
AcDbSpline
70
4
71
3
72
12
73
8
40
0
40
0
40
0
40
0
40
0.5
40
0.5
40
0.75
40
0.75
40
1
40
1
40
1
40
1
41
1
10
75.0670165912898
20
-3.16792885133003
30
0
41
1
10
75.0489304226735
20
-3.17063313131422
30
0
41
1
10
75.0317505250604
20
-3.17559020580868
30
0
41
1
10
75.0073075111765
20
-3.18630956824407
30
0
41
1
10
74.999420672557
20
-3.19043615650404
30
0
41
1
10
74.9846151489658
20
-3.19952694413377
30
0
41
1
10
74.9776281219384
20
-3.20451911110123
30
0
41
1
10
74.9710575060241
20
-3.20995670069095
30
0
0
SPLINE
5
1E1
100
AcDbEntity
8
1
62
256
6
ByLayer
370
18
48
1
60
0
100
AcDbSpline
70
4
71
3
72
17
73
13
40
0
40
0
40
0
40
0
40
0.125000000000001
40
0.125000000000001
40
0.250000000000001
40
0.5
40
0.5
40
0.625
40
0.625
40
0.75
40
0.75
40
1
40
1
40
1
40
1
41
1
10
74.5930546176763
20
-6.09203164028236
30
0
41
1
10
74.5896237732831
20
-6.07246314149933
30
0
41
1
10
74.5862069584442
20
-6.05189080334623
30
0
41
1
10
74.5794251899231
20
-6.00888045778734
30
0
41
1
10
74.569325882372
20
-5.94154441694889
30
0
41
1
10
74.5594444011925
20
-5.86578873789307
30
0
41
1
10
74.5497066113314
20
-5.78441566501184
30
0
41
1
10
74.5464846455573
20
-5.75635441025736
30
0
41
1
10
74.5400885775169
20
-5.69834925348397
30
0
41
1
10
74.5369164559709
20
-5.66842154097509
30
0
41
1
10
74.5274989645769
20
-5.57607695408964
30
0
41
1
10
74.5213439166435
20
-5.51102530795649
30
0
41
1
10
74.5153105135037
20
-5.4424960961729
30
0
0
SPLINE
5
1E2
100
AcDbEntity
8
1
62
256
6
ByLayer
370
18
48
1
60
0
100
AcDbSpline
70
4
71
3
72
11
73
7
40
0
40
0
40
0
40
0
40
0.195970521331747
40
0.42795053141599
40
0.82839542308985
40
1
40
1
40
1
40
1
41
1
10
74.8376260692598
20
-2.936149888176
30
0
41
1
10
74.8477880665475
20
-2.91191687886206
30
0
41
1
10
74.8776022290256
20
-2.85056583223968
30
0
41
1
10
74.9549297396201
20
-2.74084203936917
30
0
41
1
10
75.052176561992
20
-2.64647351643021
30
0
41
1
10
75.1357835661623
20
-2.60438756078784
30
0
41
1
10
75.1621566277298
20
-2.59337802157876
30
0
0
SPLINE
5
1E3
100
AcDbEntity
8
1
62
256
6
ByLayer
370
18
48
1
60
0
100
AcDbSpline
70
4
71
3
72
10
73
6
40
0
40
0
40
0
40
0
40
0.269232896560507
40
0.812327298529641
40
1
40
1
40
1
40
1
41
1
10
75.1621566277298
20
-2.59337802157876
30
0
41
1
10
75.1878613918398
20
-2.57742290882263
30
0
41
1
10
75.267458527863
20
-2.53598441904
30
0
41
1
10
75.3790611832287
20
-2.51448437363544
30
0
41
1
10
75.4596654108975
20
-2.51059026769266
30
0
41
1
10
75.4805815710636
20
-2.51058285412415
30
0
0
SPLINE
5
1E4
100
AcDbEntity
8
1
62
256
6
ByLayer
370
18
48
1
60
0
100
AcDbSpline
70
4
71
3
72
10
73
6
40
0
40
0
40
0
40
0
40
0.430966754073277
40
0.864190068819829
40
1
40
1
40
1
40
1
41
1
10
75.4479758730037
20
-2.51058285412415
30
0
41
1
10
75.5116018994111
20
-2.5108758974682
30
0
41
1
10
75.6331155067146
20
-2.52841339722465
30
0
41
1
10
75.7715164215197
20
-2.58101927055341
30
0
41
1
10
75.8361135846248
20
-2.63093514853188
30
0
41
1
10
75.8510526091314
20
-2.64379276560641
30
0
0
SPLINE
5
1E5
100
AcDbEntity
8
1
62
256
6
ByLayer
370
18
48
1
60
0
100
AcDbSpline
70
4
71
2
72
6
73
3
40
0
40
0
40
0
40
1
40
1
40
1
41
1
10
58.3919323242397
20
0.319064401670374
30
0
41
1
10
58.6807468860444
20
0.238269932213285
30
0
41
1
10
58.8963875445811
20
0.115991046888922
30
0
0
SPLINE
5
1E6
100
AcDbEntity
8
1
62
256
6
ByLayer
370
18
48
1
60
0
100
AcDbSpline
70
4
71
3
72
31
73
27
40
0
40
0
40
0
40
0
40
0.013205509646815
40
0.0516409047238465
40
0.084028360703332
40
0.116391557880209
40
0.150719847795517
40
0.177894073375251
40
0.20053395697676
40
0.239176381528952
40
0.280747820034249
40
0.319208317456723
40
0.355564971636399
40
0.416570060263519
40
0.479926757763122
40
0.548745322493107
40
0.616287108969284
40
0.661776752730965
40
0.706426055260746
40
0.753759930557371
40
0.802347952206873
40
0.8512391257292
40
0.905208401702601
40
0.942160023769652
40
0.982551093489385
40
1
40
1
40
1
40
1
41
1
10
63.2360678915859
20
6.22576555951426
30
0
41
1
10
63.1559979765364
20
6.22538252570021
30
0
41
1
10
62.842208320155
20
6.2240772921256
30
0
41
1
10
62.3109600202627
20
6.22203838132424
30
0
41
1
10
61.6884728494482
20
6.22418057296875
30
0
41
1
10
61.0755890832425
20
6.22122171627515
30
0
41
1
10
60.4920948119065
20
6.21820999820991
30
0
41
1
10
59.9696345284429
20
6.21517041369847
30
0
41
1
10
59.4202455679257
20
6.21196219179666
30
0
41
1
10
58.7814744817663
20
6.2083426054044
30
0
41
1
10
58.0444358152197
20
6.20462573414633
30
0
41
1
10
57.3215940123634
20
6.20146154116657
30
0
41
1
10
56.478047698594
20
6.19821090040551
30
0
41
1
10
55.4799757579061
20
6.19546916076726
30
0
41
1
10
54.2801950433568
20
6.19387206179931
30
0
41
1
10
53.039820040919
20
6.19263477696973
30
0
41
1
10
51.9104438557708
20
6.19248122356723
30
0
41
1
10
50.9311400006259
20
6.19296865492282
30
0
41
1
10
50.0773255248776
20
6.1935594800679
30
0
41
1
10
49.2045653304324
20
6.19446937780327
30
0
41
1
10
48.3043620229409
20
6.19584205569848
30
0
41
1
10
47.3696779889298
20
6.19623297244786
30
0
41
1
10
46.5152465060966
20
6.19206436525491
30
0
41
1
10
45.7136649312144
20
6.18410769580814
30
0
41
1
10
45.1359412113345
20
6.17566667516564
30
0
41
1
10
44.7835847703588
20
6.16927381649887
30
0
41
1
10
44.6772980879253
20
6.16723230816237
30
0
0
SPLINE
5
1E7
100
AcDbEntity
8
1
62
256
6
ByLayer
370
18
48
1
60
0
100
AcDbSpline
70
4
71
2
72
6
73
3
40
0
40
0
40
0
40
1
40
1
40
1
41
1
10
45.5893673898888
20
-0.883137403045026
30
0
41
1
10
45.3992897492737
20
-0.840194582293663
30
0
41
1
10
45.2383710192206
20
-0.772730711710921
30
0
0
SPLINE
5
1E8
100
AcDbEntity
8
1
62
256
6
ByLayer
370
18
48
1
60
0
100
AcDbSpline
70
4
71
3
72
43
73
39
40
0
40
0
40
0
40
0
40
0.0117295601186172
40
0.02887687349887
40
0.0406418223913925
40
0.0449913613400003
40
0.0469510752413721
40
0.0488591907133296
40
0.0528231477379041
40
0.0684815058922951
40
0.0846395625148195
40
0.101933263112069
40
0.121931077220163
40
0.149261776893054
40
0.178490957235966
40
0.206044922099527
40
0.250887844910929
40
0.290154872757076
40
0.324625044477967
40
0.369622711994181
40
0.413991814275313
40
0.45576123345449
40
0.497587715617856
40
0.553656860745976
40
0.610699304338116
40
0.662932672538428
40
0.713795056157792
40
0.769296928594549
40
0.796084747123202
40
0.82312798516902
40
0.845387570926274
40
0.865769779586238
40
0.893852819356449
40
0.917459245528436
40
0.940462317470748
40
0.964466127559247
40
0.993131606543597
40
1
40
1
40
1
40
1
41
1
10
41.2748280184243
20
-6.19987865537416
30
0
41
1
10
41.2754859166267
20
-6.19867789483234
30
0
41
1
10
41.2892008045279
20
-6.18979810010717
30
0
41
1
10
41.3397496924519
20
-6.1516096416745
30
0
41
1
10
41.4301738159066
20
-6.11066596407622
30
0
41
1
10
41.5270508817668
20
-6.0907384585463
30
0
41
1
10
41.5819836491178
20
-6.08448831697152
30
0
41
1
10
41.6394023359954
20
-6.08058853517511
30
0
41
1
10
41.8061585079254
20
-6.08258443380601
30
0
41
1
10
42.0674479054824
20
-6.09718767596019
30
0
41
1
10
42.436554587412
20
-6.10838279914105
30
0
41
1
10
42.8356601531848
20
-6.12156054823041
30
0
41
1
10
43.3192249494181
20
-6.13547644816842
30
0
41
1
10
43.8915773396811
20
-6.15049361263848
30
0
41
1
10
44.5201769093206
20
-6.16459073477347
30
0
41
1
10
45.2799843869269
20
-6.17834290439285
30
0
41
1
10
46.1155834299855
20
-6.18892410592395
30
0
41
1
10
47.0049835267983
20
-6.19483986086334
30
0
41
1
10
47.89887101308
20
-6.19646412078382
30
0
41
1
10
48.8425296373267
20
-6.19493715481443
30
0
41
1
10
49.8421608259515
20
-6.19375425629713
30
0
41
1
10
50.8174601706942
20
-6.19302940820887
30
0
41
1
10
51.8820550458299
20
-6.19247418961461
30
0
41
1
10
53.0629909503626
20
-6.19264405544885
30
0
41
1
10
54.3233023921624
20
-6.1939158578144
30
0
41
1
10
55.5439051250223
20
-6.19557953400127
30
0
41
1
10
56.7526840900274
20
-6.19904954800344
30
0
41
1
10
57.767617735353
20
-6.20331421775853
30
0
41
1
10
58.6009679445923
20
-6.20740922522262
30
0
41
1
10
59.1809463653409
20
-6.21058764436896
30
0
41
1
10
59.7120860913621
20
-6.21366240816252
30
0
41
1
10
60.2512007631023
20
-6.21682350530713
30
0
41
1
10
60.8003537590667
20
-6.21985610651765
30
0
41
1
10
61.370307347176
20
-6.22270684378697
30
0
41
1
10
61.8989117594684
20
-6.223955110021
30
0
41
1
10
62.4674584257798
20
-6.22199702676616
30
0
41
1
10
62.9267710082819
20
-6.22456275321014
30
0
41
1
10
63.1916659656001
20
-6.2256280176976
30
0
41
1
10
63.242757427885
20
-6.22585186983642
30
0
0
SPLINE
5
1E9
100
AcDbEntity
8
1
62
256
6
ByLayer
370
18
48
1
60
0
100
AcDbSpline
70
4
71
3
72
14
73
10
40
0
40
0
40
0
40
0
40
0.17734455055716
40
0.356584495572322
40
0.536319767847627
40
0.71512704099251
40
0.826466029690105
40
0.937506433589336
40
1
40
1
40
1
40
1
41
1
10
4
20
-10
30
0
41
1
10
4.43020795414745
20
-9.93932664593771
30
0
41
1
10
5.28000264838587
20
-9.76540280093988
30
0
41
1
10
6.52193179881928
20
-9.34444702135872
30
0
41
1
10
7.70106047710294
20
-8.76848735762582
30
0
41
1
10
8.66556140437359
20
-8.14343269116381
30
0
41
1
10
9.41585924313188
20
-7.51989833366437
30
0
41
1
10
9.94643063494323
20
-7.06346240723366
30
0
41
1
10
10.3262773357185
20
-6.87724575341989
30
0
41
1
10
10.4674955302796
20
-6.8171178842193
30
0
0
SPLINE
5
1EA
100
AcDbEntity
8
1
62
256
6
ByLayer
370
18
48
1
60
0
100
AcDbSpline
70
4
71
3
72
14
73
10
40
0
40
0
40
0
40
0
40
0.0829024037965276
40
0.200476781173769
40
0.318847148428272
40
0.43813213126909
40
0.626353561872445
40
0.814180460094162
40
1
40
1
40
1
40
1
41
1
10
10.4678715687449
20
6.8161573001025
30
0
41
1
10
10.2818895166419
20
6.8997344849019
30
0
41
1
10
9.84785873474033
20
7.1254752031825
30
0
41
1
10
9.27270760774775
20
7.65657718615427
30
0
41
1
10
8.58887320201427
20
8.18595209773503
30
0
41
1
10
7.71785635738269
20
8.75234522847708
30
0
41
1
10
6.63829554770882
20
9.29836596515915
30
0
41
1
10
5.34102541945003
20
9.7515331123077
30
0
41
1
10
4.45105690474901
20
9.9363529779362
30
0
41
1
10
4
20
10
30
0
0
SPLINE
5
1EB
100
AcDbEntity
8
1
62
256
6
ByLayer
370
18
48
1
60
0
100
AcDbSpline
70
4
71
2
72
6
73
3
40
0
40
0
40
0
40
1
40
1
40
1
41
1
10
80.2709698457521
20
-6.32832695836089
30
0
41
1
10
80.3878690029118
20
-6.33162964357763
30
0
41
1
10
80.4836300511654
20
-6.27965876971433
30
0
0
SPLINE
5
1EC
100
AcDbEntity
8
1
62
256
6
ByLayer
370
18
48
1
60
0
100
AcDbSpline
70
4
71
2
72
6
73
3
40
0
40
0
40
0
40
1
40
1
40
1
41
1
10
80.964051587309
20
-6.11554786161835
30
0
41
1
10
81.0392587271201
20
-5.90897974005452
30
0
41
1
10
81.1144658827112
20
-5.70241153839962
30
0
0
SPLINE
5
1ED
100
AcDbEntity
8
1
62
256
6
ByLayer
370
18
48
1
60
0
100
AcDbSpline
70
4
71
2
72
6
73
3
40
0
40
0
40
0
40
1
40
1
40
1
41
1
10
80.4836300511654
20
6.27965876971453
30
0
41
1
10
80.387765485232
20
6.32813838100372
30
0
41
1
10
80.2724994657822
20
6.33171057904036
30
0
0
SPLINE
5
1EE
100
AcDbEntity
8
1
62
256
6
ByLayer
370
18
48
1
60
0
100
AcDbSpline
70
4
71
3
72
13
73
9
40
0
40
0
40
0
40
0
40
0.253194236332186
40
0.417007557473051
40
0.524423887211539
40
0.631584033402008
40
0.781750280323647
40
1
40
1
40
1
40
1
41
1
10
76.2248932340028
20
-6.4922164653241
30
0
41
1
10
76.3878323113329
20
-6.48945061785352
30
0
41
1
10
76.6561807413754
20
-6.48486005795814
30
0
41
1
10
76.9938781728304
20
-6.47900085238359
30
0
41
1
10
77.2372342639135
20
-6.47475470691717
30
0
41
1
10
77.4719947147885
20
-6.470620845577
30
0
41
1
10
77.7781501216747
20
-6.46519685545633
30
0
41
1
10
78.0152902575553
20
-6.46095972112778
30
0
41
1
10
78.1557712548732
20
-6.45843700655891
30
0
0
SPLINE
5
1EF
100
AcDbEntity
8
1
62
256
6
ByLayer
370
18
48
1
60
0
100
AcDbSpline
70
4
71
2
72
6
73
3
40
0
40
0
40
0
40
1
40
1
40
1
41
1
10
81.1144658827111
20
5.70241153839999
30
0
41
1
10
81.0392587271199
20
5.90897974005489
30
0
41
1
10
80.9640515873089
20
6.11554786161878
30
0
0
SPLINE
5
1F0
100
AcDbEntity
8
1
62
256
6
ByLayer
370
18
48
1
60
0
100
AcDbSpline
70
4
71
3
72
13
73
9
40
0
40
0
40
0
40
0
40
0.205456714096816
40
0.358080366769465
40
0.466994142453423
40
0.576168294018485
40
0.742662349383699
40
1
40
1
40
1
40
1
41
1
10
78.1246789506741
20
6.45899255763501
30
0
41
1
10
77.9945616307404
20
6.46132879666933
30
0
41
1
10
77.7677852314649
20
6.46538090889968
30
0
41
1
10
77.4719946682089
20
6.47062077865127
30
0
41
1
10
77.2372342744627
20
6.47475472207447
30
0
41
1
10
76.9938781683409
20
6.47900084593309
30
0
41
1
10
76.6561807437573
20
6.48486006138069
30
0
41
1
10
76.3878323113329
20
6.48945061785372
30
0
41
1
10
76.2248932340028
20
6.49221646532428
30
0
0
SPLINE
5
1F1
100
AcDbEntity
8
1
62
256
6
ByLayer
370
18
48
1
60
0
100
AcDbSpline
70
4
71
1
72
4
73
2
40
0
40
0
40
1
40
1
41
1
10
80.1736615952347
20
-4.76692999390977
30
0
41
1
10
80.3209655503545
20
-4.35762314276022
30
0
0
SPLINE
5
1F2
100
AcDbEntity
8
1
62
256
6
ByLayer
370
18
48
1
60
0
100
AcDbSpline
70
4
71
3
72
13
73
9
40
0
40
0
40
0
40
0
40
0.0160357361532352
40
0.144038805650588
40
0.334126576588837
40
0.569787634815518
40
0.824567478014985
40
1
40
1
40
1
40
1
41
1
10
80.4832247332841
20
-6.2797993805406
30
0
41
1
10
80.4830235624046
20
-6.27990906841231
30
0
41
1
10
80.4820584463444
20
-6.28053528407233
30
0
41
1
10
80.4991870119441
20
-6.27341686976771
30
0
41
1
10
80.5518078889471
20
-6.25809915465859
30
0
41
1
10
80.6559844670542
20
-6.23428891052737
30
0
41
1
10
80.7878443828239
20
-6.21081326846416
30
0
41
1
10
80.8894366936071
20
-6.19877658902112
30
0
41
1
10
80.9336258264632
20
-6.19418896454078
30
0
0
SPLINE
5
1F3
100
AcDbEntity
8
1
62
256
6
ByLayer
370
18
48
1
60
0
100
AcDbSpline
70
4
71
2
72
6
73
3
40
0
40
0
40
0
40
1
40
1
40
1
41
1
10
78.7219367694063
20
-5.56090762274474
30
0
41
1
10
79.2397961725478
20
-5.55449712205402
30
0
41
1
10
79.7576552094398
20
-5.54805217610976
30
0
0
SPLINE
5
1F4
100
AcDbEntity
8
1
62
256
6
ByLayer
370
18
48
1
60
0
100
AcDbSpline
70
4
71
3
72
14
73
10
40
0
40
0
40
0
40
0
40
0.0332293025888239
40
0.0864298621515665
40
0.187030795437003
40
0.350267880693709
40
0.580325498324566
40
0.861901342124567
40
1
40
1
40
1
40
1
41
1
10
77.9055121696193
20
-5.68648877206456
30
0
41
1
10
77.9090581555045
20
-5.68452276777211
30
0
41
1
10
77.9199866061595
20
-5.67909105587501
30
0
41
1
10
77.9562949158415
20
-5.66405858226332
30
0
41
1
10
78.031791968779
20
-5.64046793228789
30
0
41
1
10
78.1650516626428
20
-5.60980407889008
30
0
41
1
10
78.3598462188373
20
-5.58133964989375
30
0
41
1
10
78.5539470462627
20
-5.56348445309555
30
0
41
1
10
78.6801889693517
20
-5.56309947004931
30
0
41
1
10
78.7219377529815
20
-5.56391518000282
30
0
0
SPLINE
5
1F5
100
AcDbEntity
8
1
62
256
6
ByLayer
370
18
48
1
60
0
100
AcDbSpline
70
4
71
3
72
14
73
10
40
0
40
0
40
0
40
0
40
0.0978481631362386
40
0.282972302488535
40
0.465787915368864
40
0.643619215053905
40
0.792635614302748
40
0.921376801828258
40
1
40
1
40
1
40
1
41
1
10
80.456252578321
20
-4.0015737517584
30
0
41
1
10
80.4748212310583
20
-3.95230171670821
30
0
41
1
10
80.5283229142123
20
-3.81409343754086
30
0
41
1
10
80.6164980986336
20
-3.60449529442076
30
0
41
1
10
80.7159308786273
20
-3.39578384716259
30
0
41
1
10
80.8015044410408
20
-3.2414339976182
30
0
41
1
10
80.8676539766427
20
-3.14419746340266
30
0
41
1
10
80.904479020957
20
-3.10091788549613
30
0
41
1
10
80.9153897969382
20
-3.09466673404472
30
0
41
1
10
80.915074307559
20
-3.09453878103264
30
0
0
SPLINE
5
1F6
100
AcDbEntity
8
1
62
256
6
ByLayer
370
18
48
1
60
0
100
AcDbSpline
70
4
71
3
72
10
73
6
40
0
40
0
40
0
40
0
40
0.223636154685664
40
0.620705211105012
40
1
40
1
40
1
40
1
41
1
10
79.9835099071633
20
-4.95866521264793
30
0
41
1
10
79.983486536266
20
-4.95867013433769
30
0
41
1
10
79.9849752369677
20
-4.95519162157333
30
0
41
1
10
80.0047950177765
20
-4.92837499084749
30
0
41
1
10
80.0419886673659
20
-4.90545946537486
30
0
41
1
10
80.064969665414
20
-4.89226934139117
30
0
0
LINE
5
7F
100
AcDbEntity
8
81
62
256
6
ByLayer
370
18
48
1
60
0
100
AcDbLine
10
82.8
20
0
30
0
11
87.8
21
0
31
0
39
0
210
0
220
0
230
1
0
LINE
5
80
100
AcDbEntity
8
80
62
256
6
ByLayer
370
18
48
1
60
0
100
AcDbLine
10
0
20
0
30
0
11
-5
21
0
31
0
39
0
210
0
220
0
230
1
0
LINE
5
81
100
AcDbEntity
8
4
62
256
6
ByLayer
370
18
48
0.05
60
0
100
AcDbLine
10
0
20
0
30
0
11
82.8
21
0
31
0
39
0
210
0
220
0
230
1
0
LINE
5
83
100
AcDbEntity
8
1
62
256
6
ByLayer
370
18
48
1
60
0
100
AcDbLine
10
74.8373
20
3.402649
30
0
11
74.8373
21
3.368574
31
0
39
0
210
0
220
0
230
1
0
LINE
5
84
100
AcDbEntity
8
1
62
256
6
ByLayer
370
18
48
1
60
0
100
AcDbLine
10
74.8373
20
3.170459
30
0
11
74.8373
21
3.346486
31
0
39
0
210
0
220
0
230
1
0
LINE
5
85
100
AcDbEntity
8
1
62
256
6
ByLayer
370
18
48
1
60
0
100
AcDbLine
10
75.945948
20
-2.718744
30
0
11
76.116584
21
-2.891589
31
0
39
0
210
0
220
0
230
1
0
LINE
5
86
100
AcDbEntity
8
1
62
256
6
ByLayer
370
18
48
1
60
0
100
AcDbLine
10
76.125209
20
-2.9
30
0
11
76.116584
21
-2.891589
31
0
39
0
210
0
220
0
230
1
0
LINE
5
87
100
AcDbEntity
8
1
62
256
6
ByLayer
370
13
48
1
60
0
100
AcDbLine
10
75.945948
20
-2.718744
30
0
11
75.978554
21
-2.718744
31
0
39
0
210
0
220
0
230
1
0
LINE
5
88
100
AcDbEntity
8
1
62
256
6
ByLayer
370
13
48
1
60
0
100
AcDbLine
10
75.978554
20
-2.718744
30
0
11
76.157493
21
-2.9
31
0
39
0
210
0
220
0
230
1
0
LINE
5
89
100
AcDbEntity
8
1
62
256
6
ByLayer
370
18
48
1
60
0
100
AcDbLine
10
76.182774
20
-2.9
30
0
11
79.324438
21
-2.9
31
0
39
0
210
0
220
0
230
1
0
LINE
5
8A
100
AcDbEntity
8
1
62
256
6
ByLayer
370
13
48
1
60
0
100
AcDbLine
10
75.983683
20
-2.704028
30
0
11
76.181567
21
-2.897007
31
0
39
0
210
0
220
0
230
1
0
LINE
5
8B
100
AcDbEntity
8
1
62
256
6
ByLayer
370
18
48
1
60
0
100
AcDbLine
10
79.670848
20
-2.7
30
0
11
79.623571
21
-2.573443
31
0
39
0
210
0
220
0
230
1
0
LINE
5
8C
100
AcDbEntity
8
1
62
256
6
ByLayer
370
18
48
1
60
0
100
AcDbLine
10
79.670848
20
-2.7
30
0
11
79.324438
21
-2.9
31
0
39
0
210
0
220
0
230
1
0
LINE
5
8D
100
AcDbEntity
8
1
62
256
6
ByLayer
370
18
48
1
60
0
100
AcDbLine
10
76.181567
20
-2.897007
30
0
11
76.05456
21
-2.573443
31
0
39
0
210
0
220
0
230
1
0
LINE
5
8E
100
AcDbEntity
8
1
62
256
6
ByLayer
370
13
48
1
60
0
100
AcDbLine
10
76.027076
20
-2.539792
30
0
11
75.983683
21
-2.704028
31
0
39
0
210
0
220
0
230
1
0
LINE
5
8F
100
AcDbEntity
8
1
62
256
6
ByLayer
370
18
48
1
60
0
100
AcDbLine
10
76.05456
20
-2.573443
30
0
11
79.623571
21
-2.573443
31
0
39
0
210
0
220
0
230
1
0
LINE
5
90
100
AcDbEntity
8
1
62
256
6
ByLayer
370
18
48
1
60
0
100
AcDbLine
10
78.113983
20
1.46764
30
0
11
79.623571
21
-2.573443
31
0
39
0
210
0
220
0
230
1
0
LINE
5
91
100
AcDbEntity
8
1
62
256
6
ByLayer
370
18
48
1
60
0
100
AcDbLine
10
0.25
20
3
30
0
11
4
21
3
31
0
39
0
210
0
220
0
230
1
0
LINE
5
92
100
AcDbEntity
8
1
62
256
6
ByLayer
370
18
48
1
60
0
100
AcDbLine
10
0
20
-2.015564
30
0
11
0
21
2.015564
31
0
39
0
210
0
220
0
230
1
0
LINE
5
93
100
AcDbEntity
8
1
62
256
6
ByLayer
370
18
48
1
60
0
100
AcDbLine
10
4
20
-3
30
0
11
0.25
21
-3
31
0
39
0
210
0
220
0
230
1
0
LINE
5
94
100
AcDbEntity
8
1
62
256
6
ByLayer
370
18
48
1
60
0
100
AcDbLine
10
0.25
20
-10
30
0
11
0.25
21
-3
31
0
39
0
210
0
220
0
230
1
0
LINE
5
95
100
AcDbEntity
8
1
62
256
6
ByLayer
370
18
48
1
60
0
100
AcDbLine
10
0.25
20
3
30
0
11
0.25
21
10
31
0
39
0
210
0
220
0
230
1
0
LINE
5
96
100
AcDbEntity
8
1
62
256
6
ByLayer
370
18
48
1
60
0
100
AcDbLine
10
0
20
2.015564
30
0
11
0
21
9.75
31
0
39
0
210
0
220
0
230
1
0
LINE
5
97
100
AcDbEntity
8
1
62
256
6
ByLayer
370
18
48
1
60
0
100
AcDbLine
10
0
20
-9.75
30
0
11
0
21
-2.015564
31
0
39
0
210
0
220
0
230
1
0
LINE
5
98
100
AcDbEntity
8
1
62
256
6
ByLayer
370
13
48
1
60
0
100
AcDbLine
10
12.4
20
-3.713848
30
0
11
12.4
21
6.238458
31
0
39
0
210
0
220
0
230
1
0
LINE
5
99
100
AcDbEntity
8
1
62
256
6
ByLayer
370
18
48
1
60
0
100
AcDbLine
10
4
20
10
30
0
11
4
21
3
31
0
39
0
210
0
220
0
230
1
0
LINE
5
9A
100
AcDbEntity
8
1
62
256
6
ByLayer
370
18
48
1
60
0
100
AcDbLine
10
4
20
-3
30
0
11
4
21
-10
31
0
39
0
210
0
220
0
230
1
0
LINE
5
9B
100
AcDbEntity
8
SK1
62
256
6
ByLayer
370
13
48
1
60
0
100
AcDbLine
10
-0.15
20
-7.74725
30
0
11
-0.15
21
7.74725
31
0
39
0
210
0
220
0
230
1
0
LINE
5
9D
100
AcDbEntity
8
SK1
62
256
6
ByLayer
370
13
48
1
60
0
100
AcDbLine
10
-1.375195
20
-7.74725
30
0
11
-1.375195
21
7.74725
31
0
39
0
210
0
220
0
230
1
0
LINE
5
9E
100
AcDbEntity
8
SK1
62
256
6
ByLayer
370
18
48
1
60
0
100
AcDbLine
10
-46.6
20
-7.99725
30
0
11
-46.6
21
7.99725
31
0
39
0
210
0
220
0
230
1
0
LINE
5
9F
100
AcDbEntity
8
SK1
62
256
6
ByLayer
370
13
48
1
60
0
100
AcDbLine
10
-46.568207
20
7.971886
30
0
11
-46.568207
21
-7.971886
31
0
39
0
210
0
220
0
230
1
0
LINE
5
A0
100
AcDbEntity
8
SK1
62
256
6
ByLayer
370
13
48
1
60
0
100
AcDbLine
10
-41.5
20
-5.226875
30
0
11
-41.5
21
5.226875
31
0
39
0
210
0
220
0
230
1
0
LINE
5
A1
100
AcDbEntity
8
SK1
62
256
6
ByLayer
370
18
48
1
60
0
100
AcDbLine
10
-47
20
7.99725
30
0
11
-47
21
-7.99725
31
0
39
0
210
0
220
0
230
1
0
LINE
5
A2
100
AcDbEntity
8
SK1
62
256
6
ByLayer
370
18
48
1
60
0
100
AcDbLine
10
-48
20
-6.99725
30
0
11
-48
21
6.99725
31
0
39
0
210
0
220
0
230
1
0
LINE
5
A3
100
AcDbEntity
8
SK1
62
256
6
ByLayer
370
13
48
1
60
0
100
AcDbLine
10
-6.5
20
-5.226875
30
0
11
-6.5
21
5.226875
31
0
39
0
210
0
220
0
230
1
0
LINE
5
A4
100
AcDbEntity
8
SK1
62
256
6
ByLayer
370
18
48
1
60
0
100
AcDbLine
10
-41.5
20
5.226875
30
0
11
-6.5
21
5.226875
31
0
39
0
210
0
220
0
230
1
0
LINE
5
A5
100
AcDbEntity
8
SK1
62
256
6
ByLayer
370
18
48
1
60
0
100
AcDbLine
10
-6.5
20
-5.226875
30
0
11
-41.5
21
-5.226875
31
0
39
0
210
0
220
0
230
1
0
LINE
5
A6
100
AcDbEntity
8
SK1
62
256
6
ByLayer
370
18
48
1
60
0
100
AcDbLine
10
-45.4
20
7.99725
30
0
11
-45.4
21
-7.99725
31
0
39
0
210
0
220
0
230
1
0
LINE
5
A7
100
AcDbEntity
8
SK1
62
256
6
ByLayer
370
13
48
1
60
0
100
AcDbLine
10
-45.782595
20
7.850386
30
0
11
-45.782595
21
-7.850386
31
0
39
0
210
0
220
0
230
1
0
LINE
5
A8
100
AcDbEntity
8
SK1
62
256
6
ByLayer
370
18
48
1
60
0
100
AcDbLine
10
-2
20
-7.99725
30
0
11
-2
21
7.99725
31
0
39
0
210
0
220
0
230
1
0
LINE
5
A9
100
AcDbEntity
8
SK1
62
256
6
ByLayer
370
13
48
1
60
0
100
AcDbLine
10
-1.544243
20
-7.784727
30
0
11
-1.544243
21
7.784727
31
0
39
0
210
0
220
0
230
1
0
LINE
5
AA
100
AcDbEntity
8
1
62
256
6
ByLayer
370
18
48
1
60
0
100
AcDbLine
10
74.353925
20
6.052338
30
0
11
74.354133
21
6.055834
31
0
39
0
210
0
220
0
230
1
0
LINE
5
AB
100
AcDbEntity
8
1
62
256
6
ByLayer
370
18
48
1
60
0
100
AcDbLine
10
74.369419
20
6.06674
30
0
11
74.360874
21
6.062059
31
0
39
0
210
0
220
0
230
1
0
LINE
5
AC
100
AcDbEntity
8
1
62
256
6
ByLayer
370
18
48
1
60
0
100
AcDbLine
10
80.93317
20
6.193065
30
0
11
80.938543
21
6.186295
31
0
39
0
210
0
220
0
230
1
0
LINE
5
AD
100
AcDbEntity
8
1
62
256
6
ByLayer
370
18
48
1
60
0
100
AcDbLine
10
80.320787
20
-4.357892
30
0
11
80.325341
21
-4.349061
31
0
39
0
210
0
220
0
230
1
0
LINE
5
AE
100
AcDbEntity
8
1
62
256
6
ByLayer
370
13
48
1
60
0
100
AcDbLine
10
80.601897
20
-6.134337
30
0
11
81.549722
21
-1.867892
31
0
39
0
210
0
220
0
230
1
0
LINE
5
AF
100
AcDbEntity
8
1
62
256
6
ByLayer
370
18
48
1
60
0
100
AcDbLine
10
74.968905
20
-2.739502
30
0
11
74.927364
21
-2.923593
31
0
39
0
210
0
220
0
230
1
0
LINE
5
B0
100
AcDbEntity
8
1
62
256
6
ByLayer
370
13
48
1
60
0
100
AcDbLine
10
80.286061
20
-6.05332
30
0
11
80.545586
21
-5.295953
31
0
39
0
210
0
220
0
230
1
0
LINE
5
B1
100
AcDbEntity
8
1
62
256
6
ByLayer
370
13
48
1
60
0
100
AcDbLine
10
80.188774
20
-5.271173
30
0
11
80.188774
21
-6.052095
31
0
39
0
210
0
220
0
230
1
0
LINE
5
B2
100
AcDbEntity
8
1
62
256
6
ByLayer
370
18
48
1
60
0
100
AcDbLine
10
79.9848
20
-5.912049
30
0
11
79.9848
21
-6.044235
31
0
39
0
210
0
220
0
230
1
0
LINE
5
B3
100
AcDbEntity
8
1
62
256
6
ByLayer
370
18
48
1
60
0
100
AcDbLine
10
79.9848
20
-5.318071
30
0
11
79.9848
21
-5.363815
31
0
39
0
210
0
220
0
230
1
0
LINE
5
B4
100
AcDbEntity
8
1
62
256
6
ByLayer
370
18
48
1
60
0
100
AcDbLine
10
79.9848
20
-5.363815
30
0
11
79.9848
21
-5.912049
31
0
39
0
210
0
220
0
230
1
0
LINE
5
B5
100
AcDbEntity
8
1
62
256
6
ByLayer
370
13
48
1
60
0
100
AcDbLine
10
79.756807
20
-5.829126
30
0
11
79.756807
21
-5.54807
31
0
39
0
210
0
220
0
230
1
0
LINE
5
B6
100
AcDbEntity
8
1
62
256
6
ByLayer
370
13
48
1
60
0
100
AcDbLine
10
79.245844
20
-5.554415
30
0
11
78.721092
21
-5.83532
31
0
39
0
210
0
220
0
230
1
0
LINE
5
B7
100
AcDbEntity
8
1
62
256
6
ByLayer
370
13
48
1
60
0
100
AcDbLine
10
77.842641
20
-5.977472
30
0
11
78.614165
21
-5.564468
31
0
39
0
210
0
220
0
230
1
0
LINE
5
B8
100
AcDbEntity
8
1
62
256
6
ByLayer
370
13
48
1
60
0
100
AcDbLine
10
77.99604
20
-5.652626
30
0
11
77.842641
21
-5.734742
31
0
39
0
210
0
220
0
230
1
0
LINE
5
B9
100
AcDbEntity
8
1
62
256
6
ByLayer
370
18
48
1
60
0
100
AcDbLine
10
78.721915
20
-5.560857
30
0
11
78.721936
21
-5.56091
31
0
39
0
210
0
220
0
230
1
0
LINE
5
BA
100
AcDbEntity
8
1
62
256
6
ByLayer
370
13
48
1
60
0
100
AcDbLine
10
80.620765
20
-1.949144
30
0
11
79.39033
21
-1.949144
31
0
39
0
210
0
220
0
230
1
0
LINE
5
BB
100
AcDbEntity
8
1
62
256
6
ByLayer
370
13
48
1
60
0
100
AcDbLine
10
80.188774
20
-5.271173
30
0
11
80.545586
21
-5.295953
31
0
39
0
210
0
220
0
230
1
0
LINE
5
BC
100
AcDbEntity
8
1
62
256
6
ByLayer
370
13
48
1
60
0
100
AcDbLine
10
80.188774
20
-4.724011
30
0
11
80.188774
21
-5.271173
31
0
39
0
210
0
220
0
230
1
0
LINE
5
BD
100
AcDbEntity
8
1
62
256
6
ByLayer
370
18
48
1
60
0
100
AcDbLine
10
79.9848
20
-4.949222
30
0
11
79.9848
21
-5.318077
31
0
39
0
210
0
220
0
230
1
0
LINE
5
BE
100
AcDbEntity
8
1
62
256
6
ByLayer
370
18
48
1
60
0
100
AcDbLine
10
80.79148
20
-2.955548
30
0
11
80.791709
21
-2.907427
31
0
39
0
210
0
220
0
230
1
0
LINE
5
BF
100
AcDbEntity
8
1
62
256
6
ByLayer
370
13
48
1
60
0
100
AcDbLine
10
80.328044
20
-4.329935
30
0
11
80.458955
21
-3.982449
31
0
39
0
210
0
220
0
230
1
0
LINE
5
C0
100
AcDbEntity
8
1
62
256
6
ByLayer
370
13
48
1
60
0
100
AcDbLine
10
80.684856
20
-5.399154
30
0
11
80.425331
21
-6.156521
31
0
39
0
210
0
220
0
230
1
0
LINE
5
C1
100
AcDbEntity
8
1
62
256
6
ByLayer
370
18
48
1
60
0
100
AcDbLine
10
75.334712
20
-2.918185
30
0
11
80.434295
21
-2.918185
31
0
39
0
210
0
220
0
230
1
0
LINE
5
C2
100
AcDbEntity
8
1
62
256
6
ByLayer
370
18
48
1
60
0
100
AcDbLine
10
80.434295
20
-2.918185
30
0
11
80.421325
21
-2.951514
31
0
39
0
210
0
220
0
230
1
0
LINE
5
C3
100
AcDbEntity
8
1
62
256
6
ByLayer
370
13
48
1
60
0
100
AcDbLine
10
79.756807
20
-6.271836
30
0
11
79.756807
21
-6.134672
31
0
39
0
210
0
220
0
230
1
0
LINE
5
C4
100
AcDbEntity
8
1
62
256
6
ByLayer
370
13
48
1
60
0
100
AcDbLine
10
79.756807
20
-5.518334
30
0
11
79.756807
21
-5.135589
31
0
39
0
210
0
220
0
230
1
0
LINE
5
C5
100
AcDbEntity
8
1
62
256
6
ByLayer
370
18
48
1
60
0
100
AcDbLine
10
35.402709
20
-6.347059
30
0
11
40.436504
21
-6.347059
31
0
39
0
210
0
220
0
230
1
0
LINE
5
C6
100
AcDbEntity
8
1
62
256
6
ByLayer
370
18
48
1
60
0
100
AcDbLine
10
40.436504
20
6.347059
30
0
11
35.402709
21
6.347059
31
0
39
0
210
0
220
0
230
1
0
LINE
5
C7
100
AcDbEntity
8
1
62
256
6
ByLayer
370
18
48
1
60
0
100
AcDbLine
10
0.25
20
-10
30
0
11
4
21
-10
31
0
39
0
210
0
220
0
230
1
0
LINE
5
C8
100
AcDbEntity
8
1
62
256
6
ByLayer
370
18
48
1
60
0
100
AcDbLine
10
4
20
10
30
0
11
0.25
21
10
31
0
39
0
210
0
220
0
230
1
0
LINE
5
C9
100
AcDbEntity
8
1
62
256
6
ByLayer
370
18
48
1
60
0
100
AcDbLine
10
0
20
-9.75
30
0
11
0.25
21
-10
31
0
39
0
210
0
220
0
230
1
0
LINE
5
CA
100
AcDbEntity
8
1
62
256
6
ByLayer
370
18
48
1
60
0
100
AcDbLine
10
0.25
20
10
30
0
11
0
21
9.75
31
0
39
0
210
0
220
0
230
1
0
LINE
5
CB
100
AcDbEntity
8
SK1
62
256
6
ByLayer
370
18
48
1
60
0
100
AcDbLine
10
-0.15
20
7.74725
30
0
11
-1.375195
21
7.74725
31
0
39
0
210
0
220
0
230
1
0
LINE
5
CC
100
AcDbEntity
8
SK1
62
256
6
ByLayer
370
18
48
1
60
0
100
AcDbLine
10
-1.375195
20
-7.74725
30
0
11
-0.15
21
-7.74725
31
0
39
0
210
0
220
0
230
1
0
LINE
5
CD
100
AcDbEntity
8
SK1
62
256
6
ByLayer
370
18
48
1
60
0
100
AcDbLine
10
-46.6
20
7.99725
30
0
11
-47
21
7.99725
31
0
39
0
210
0
220
0
230
1
0
LINE
5
CE
100
AcDbEntity
8
SK1
62
256
6
ByLayer
370
18
48
1
60
0
100
AcDbLine
10
-47
20
-7.99725
30
0
11
-46.6
21
-7.99725
31
0
39
0
210
0
220
0
230
1
0
LINE
5
CF
100
AcDbEntity
8
SK1
62
256
6
ByLayer
370
18
48
1
60
0
100
AcDbLine
10
-46.568207
20
7.971886
30
0
11
-46.6
21
7.99725
31
0
39
0
210
0
220
0
230
1
0
LINE
5
D0
100
AcDbEntity
8
SK1
62
256
6
ByLayer
370
18
48
1
60
0
100
AcDbLine
10
-46.6
20
-7.99725
30
0
11
-46.568207
21
-7.971886
31
0
39
0
210
0
220
0
230
1
0
LINE
5
D1
100
AcDbEntity
8
SK1
62
256
6
ByLayer
370
18
48
1
60
0
100
AcDbLine
10
-48
20
-6.99725
30
0
11
-47
21
-7.99725
31
0
39
0
210
0
220
0
230
1
0
LINE
5
D2
100
AcDbEntity
8
SK1
62
256
6
ByLayer
370
18
48
1
60
0
100
AcDbLine
10
-47
20
7.99725
30
0
11
-48
21
6.99725
31
0
39
0
210
0
220
0
230
1
0
LINE
5
D3
100
AcDbEntity
8
SK1
62
256
6
ByLayer
370
18
48
1
60
0
100
AcDbLine
10
-2
20
7.99725
30
0
11
-45.4
21
7.99725
31
0
39
0
210
0
220
0
230
1
0
LINE
5
D4
100
AcDbEntity
8
SK1
62
256
6
ByLayer
370
18
48
1
60
0
100
AcDbLine
10
-45.4
20
-7.99725
30
0
11
-2
21
-7.99725
31
0
39
0
210
0
220
0
230
1
0
LINE
5
D5
100
AcDbEntity
8
SK1
62
256
6
ByLayer
370
18
48
1
60
0
100
AcDbLine
10
-45.782595
20
-7.850386
30
0
11
-45.4
21
-7.99725
31
0
39
0
210
0
220
0
230
1
0
LINE
5
D6
100
AcDbEntity
8
SK1
62
256
6
ByLayer
370
18
48
1
60
0
100
AcDbLine
10
-45.4
20
7.99725
30
0
11
-45.782595
21
7.850386
31
0
39
0
210
0
220
0
230
1
0
LINE
5
D7
100
AcDbEntity
8
SK1
62
256
6
ByLayer
370
18
48
1
60
0
100
AcDbLine
10
-1.544243
20
7.784727
30
0
11
-2
21
7.99725
31
0
39
0
210
0
220
0
230
1
0
LINE
5
D8
100
AcDbEntity
8
SK1
62
256
6
ByLayer
370
18
48
1
60
0
100
AcDbLine
10
-2
20
-7.99725
30
0
11
-1.544243
21
-7.784727
31
0
39
0
210
0
220
0
230
1
0
LINE
5
D9
100
AcDbEntity
8
1
62
256
6
ByLayer
370
18
48
1
60
0
100
AcDbLine
10
80.481138
20
6.281211
30
0
11
80.484279
21
6.279258
31
0
39
0
210
0
220
0
230
1
0
LINE
5
DA
100
AcDbEntity
8
1
62
256
6
ByLayer
370
18
48
1
60
0
100
AcDbLine
10
80.269127
20
6.333232
30
0
11
79.830564
21
6.33706
31
0
39
0
210
0
220
0
230
1
0
LINE
5
DB
100
AcDbEntity
8
1
62
256
6
ByLayer
370
18
48
1
60
0
100
AcDbLine
10
80.65565
20
-2.9
30
0
11
79.324371
21
-2.9
31
0
39
0
210
0
220
0
230
1
0
LINE
5
DC
100
AcDbEntity
8
1
62
256
6
ByLayer
370
18
48
1
60
0
100
AcDbLine
10
76.127119
20
-2.9
30
0
11
75.111183
21
-2.9
31
0
39
0
210
0
220
0
230
1
0
LINE
5
DD
100
AcDbEntity
8
1
62
256
6
ByLayer
370
18
48
1
60
0
100
AcDbLine
10
80.325342
20
-4.349059
30
0
11
80.456253
21
-4.001574
31
0
39
0
210
0
220
0
230
1
0
LINE
5
DE
100
AcDbEntity
8
1
62
256
6
ByLayer
370
18
48
1
60
0
100
AcDbLine
10
78.163498
20
-6.351608
30
0
11
80.269127
21
-6.333232
31
0
39
0
210
0
220
0
230
1
0
LINE
5
DF
100
AcDbEntity
8
1
62
256
6
ByLayer
370
13
48
0.05
60
0
100
AcDbLine
10
63.5245
20
0
30
0
11
90.218
21
0
31
0
39
0
210
0
220
0
230
1
0
LINE
5
E0
100
AcDbEntity
8
SK2
62
256
6
ByLayer
370
18
48
1
60
0
100
AcDbLine
10
82.8
20
-58.163306
30
0
11
0
21
-58.163306
31
0
39
0
210
0
220
0
230
1
0
LINE
5
E2
100
AcDbEntity
8
SK2
62
256
6
ByLayer
370
18
48
1
60
0
100
AcDbLine
10
0
20
-11.3375
30
0
11
0
21
-60.163306
31
0
39
0
210
0
220
0
230
1
0
LINE
5
E3
100
AcDbEntity
8
SK2
62
256
6
ByLayer
370
18
48
1
60
0
100
AcDbLine
10
82.8
20
-8.0875
30
0
11
82.8
21
-60.163306
31
0
39
0
210
0
220
0
230
1
0
LINE
5
E4
100
AcDbEntity
8
1
62
256
6
ByLayer
370
18
48
1
60
1
100
AcDbLine
10
0
20
-58.163306
30
0
11
3.499998
21
-57.702522
31
0
39
0
210
0
220
0
230
1
0
LINE
5
E5
100
AcDbEntity
8
1
62
256
6
ByLayer
370
18
48
1
60
1
100
AcDbLine
10
3.499998
20
-57.702522
30
0
11
3.500002
21
-58.62409
31
0
39
0
210
0
220
0
230
1
0
LINE
5
E6
100
AcDbEntity
8
1
62
256
6
ByLayer
370
18
48
1
60
1
100
AcDbLine
10
3.500002
20
-58.62409
30
0
11
0
21
-58.163306
31
0
39
0
210
0
220
0
230
1
0
LINE
5
E7
100
AcDbEntity
8
1
62
256
6
ByLayer
370
18
48
1
60
1
100
AcDbLine
10
82.8
20
-58.163306
30
0
11
79.300002
21
-58.62409
31
0
39
0
210
0
220
0
230
1
0
LINE
5
E8
100
AcDbEntity
8
1
62
256
6
ByLayer
370
18
48
1
60
1
100
AcDbLine
10
79.300002
20
-58.62409
30
0
11
79.299998
21
-57.702522
31
0
39
0
210
0
220
0
230
1
0
LINE
5
E9
100
AcDbEntity
8
1
62
256
6
ByLayer
370
18
48
1
60
1
100
AcDbLine
10
79.299998
20
-57.702522
30
0
11
82.8
21
-58.163306
31
0
39
0
210
0
220
0
230
1
0
LINE
5
EA
100
AcDbEntity
8
2
62
256
6
ByLayer
370
18
48
1
60
0
100
AcDbLine
10
82.8
20
-68.163306
30
0
11
-48
21
-68.163306
31
0
39
0
210
0
220
0
230
1
0
LINE
5
EB
100
AcDbEntity
8
2
62
256
6
ByLayer
370
18
48
1
60
0
100
AcDbLine
10
-48
20
-8.58475
30
0
11
-48
21
-70.163306
31
0
39
0
210
0
220
0
230
1
0
LINE
5
EC
100
AcDbEntity
8
2
62
256
6
ByLayer
370
18
48
1
60
0
100
AcDbLine
10
82.8
20
-8.0875
30
0
11
82.8
21
-70.163306
31
0
39
0
210
0
220
0
230
1
0
LINE
5
ED
100
AcDbEntity
8
1
62
256
6
ByLayer
370
18
48
1
60
1
100
AcDbLine
10
-48
20
-68.163306
30
0
11
-44.500002
21
-67.702522
31
0
39
0
210
0
220
0
230
1
0
LINE
5
EE
100
AcDbEntity
8
1
62
256
6
ByLayer
370
18
48
1
60
1
100
AcDbLine
10
-44.500002
20
-67.702522
30
0
11
-44.499998
21
-68.62409
31
0
39
0
210
0
220
0
230
1
0
LINE
5
EF
100
AcDbEntity
8
1
62
256
6
ByLayer
370
18
48
1
60
1
100
AcDbLine
10
-44.499998
20
-68.62409
30
0
11
-48
21
-68.163306
31
0
39
0
210
0
220
0
230
1
0
LINE
5
F0
100
AcDbEntity
8
1
62
256
6
ByLayer
370
18
48
1
60
1
100
AcDbLine
10
82.8
20
-68.163306
30
0
11
79.300002
21
-68.62409
31
0
39
0
210
0
220
0
230
1
0
LINE
5
F1
100
AcDbEntity
8
1
62
256
6
ByLayer
370
18
48
1
60
1
100
AcDbLine
10
79.300002
20
-68.62409
30
0
11
79.299998
21
-67.702522
31
0
39
0
210
0
220
0
230
1
0
LINE
5
F2
100
AcDbEntity
8
1
62
256
6
ByLayer
370
18
48
1
60
1
100
AcDbLine
10
79.299998
20
-67.702522
30
0
11
82.8
21
-68.163306
31
0
39
0
210
0
220
0
230
1
0
LINE
5
F3
100
AcDbEntity
8
SK2
62
256
6
ByLayer
370
18
48
1
60
0
100
AcDbLine
10
-57.975
20
-7.99725
30
0
11
-57.975
21
7.99725
31
0
39
0
210
0
220
0
230
1
0
LINE
5
F4
100
AcDbEntity
8
SK2
62
256
6
ByLayer
370
18
48
1
60
0
100
AcDbLine
10
-48.5875
20
7.99725
30
0
11
-59.975
21
7.99725
31
0
39
0
210
0
220
0
230
1
0
LINE
5
F5
100
AcDbEntity
8
SK2
62
256
6
ByLayer
370
18
48
1
60
0
100
AcDbLine
10
-48.5875
20
-7.99725
30
0
11
-59.975
21
-7.99725
31
0
39
0
210
0
220
0
230
1
0
LINE
5
F6
100
AcDbEntity
8
1
62
256
6
ByLayer
370
18
48
1
60
1
100
AcDbLine
10
-57.975
20
7.99725
30
0
11
-57.514216
21
4.497252
31
0
39
0
210
0
220
0
230
1
0
LINE
5
F7
100
AcDbEntity
8
1
62
256
6
ByLayer
370
18
48
1
60
1
100
AcDbLine
10
-57.514216
20
4.497252
30
0
11
-58.435784
21
4.497248
31
0
39
0
210
0
220
0
230
1
0
LINE
5
F8
100
AcDbEntity
8
1
62
256
6
ByLayer
370
18
48
1
60
1
100
AcDbLine
10
-58.435784
20
4.497248
30
0
11
-57.975
21
7.99725
31
0
39
0
210
0
220
0
230
1
0
LINE
5
F9
100
AcDbEntity
8
1
62
256
6
ByLayer
370
18
48
1
60
1
100
AcDbLine
10
-57.975
20
-7.99725
30
0
11
-58.435784
21
-4.497252
31
0
39
0
210
0
220
0
230
1
0
LINE
5
FA
100
AcDbEntity
8
1
62
256
6
ByLayer
370
18
48
1
60
1
100
AcDbLine
10
-58.435784
20
-4.497252
30
0
11
-57.514216
21
-4.497248
31
0
39
0
210
0
220
0
230
1
0
LINE
5
FB
100
AcDbEntity
8
1
62
256
6
ByLayer
370
18
48
1
60
1
100
AcDbLine
10
-57.514216
20
-4.497248
30
0
11
-57.975
21
-7.99725
31
0
39
0
210
0
220
0
230
1
0
LINE
5
1F7
100
AcDbEntity
8
1
62
256
6
ByLayer
370
13
48
0.05
60
0
100
AcDbLine
10
6.35
20
0
30
0
11
-54.5
21
0
31
0
39
0
210
0
220
0
230
1
0
LINE
5
1FB
100
AcDbEntity
8
1
62
256
6
ByLayer
370
18
48
1
60
1
100
AcDbLine
10
0
20
-58.163306
30
0
11
3.499998
21
-57.702522
31
0
39
0
210
0
220
0
230
1
0
LINE
5
1FC
100
AcDbEntity
8
1
62
256
6
ByLayer
370
18
48
1
60
1
100
AcDbLine
10
3.499998
20
-57.702522
30
0
11
3.500002
21
-58.62409
31
0
39
0
210
0
220
0
230
1
0
LINE
5
1FD
100
AcDbEntity
8
1
62
256
6
ByLayer
370
18
48
1
60
1
100
AcDbLine
10
3.500002
20
-58.62409
30
0
11
0
21
-58.163306
31
0
39
0
210
0
220
0
230
1
0
LINE
5
1FF
100
AcDbEntity
8
1
62
256
6
ByLayer
370
18
48
1
60
1
100
AcDbLine
10
82.8
20
-58.163306
30
0
11
79.300002
21
-58.62409
31
0
39
0
210
0
220
0
230
1
0
LINE
5
200
100
AcDbEntity
8
1
62
256
6
ByLayer
370
18
48
1
60
1
100
AcDbLine
10
79.300002
20
-58.62409
30
0
11
79.299998
21
-57.702522
31
0
39
0
210
0
220
0
230
1
0
LINE
5
201
100
AcDbEntity
8
1
62
256
6
ByLayer
370
18
48
1
60
1
100
AcDbLine
10
79.299998
20
-57.702522
30
0
11
82.8
21
-58.163306
31
0
39
0
210
0
220
0
230
1
0
LINE
5
204
100
AcDbEntity
8
1
62
256
6
ByLayer
370
18
48
1
60
1
100
AcDbLine
10
-48
20
-68.163306
30
0
11
-44.500002
21
-67.702522
31
0
39
0
210
0
220
0
230
1
0
LINE
5
205
100
AcDbEntity
8
1
62
256
6
ByLayer
370
18
48
1
60
1
100
AcDbLine
10
-44.500002
20
-67.702522
30
0
11
-44.499998
21
-68.62409
31
0
39
0
210
0
220
0
230
1
0
LINE
5
206
100
AcDbEntity
8
1
62
256
6
ByLayer
370
18
48
1
60
1
100
AcDbLine
10
-44.499998
20
-68.62409
30
0
11
-48
21
-68.163306
31
0
39
0
210
0
220
0
230
1
0
LINE
5
208
100
AcDbEntity
8
1
62
256
6
ByLayer
370
18
48
1
60
1
100
AcDbLine
10
82.8
20
-68.163306
30
0
11
79.300002
21
-68.62409
31
0
39
0
210
0
220
0
230
1
0
LINE
5
209
100
AcDbEntity
8
1
62
256
6
ByLayer
370
18
48
1
60
1
100
AcDbLine
10
79.300002
20
-68.62409
30
0
11
79.299998
21
-67.702522
31
0
39
0
210
0
220
0
230
1
0
LINE
5
20A
100
AcDbEntity
8
1
62
256
6
ByLayer
370
18
48
1
60
1
100
AcDbLine
10
79.299998
20
-67.702522
30
0
11
82.8
21
-68.163306
31
0
39
0
210
0
220
0
230
1
0
LINE
5
20E
100
AcDbEntity
8
1
62
256
6
ByLayer
370
18
48
1
60
1
100
AcDbLine
10
-57.975
20
7.99725
30
0
11
-57.514216
21
4.497252
31
0
39
0
210
0
220
0
230
1
0
LINE
5
20F
100
AcDbEntity
8
1
62
256
6
ByLayer
370
18
48
1
60
1
100
AcDbLine
10
-57.514216
20
4.497252
30
0
11
-58.435784
21
4.497248
31
0
39
0
210
0
220
0
230
1
0
LINE
5
210
100
AcDbEntity
8
1
62
256
6
ByLayer
370
18
48
1
60
1
100
AcDbLine
10
-58.435784
20
4.497248
30
0
11
-57.975
21
7.99725
31
0
39
0
210
0
220
0
230
1
0
LINE
5
212
100
AcDbEntity
8
1
62
256
6
ByLayer
370
18
48
1
60
1
100
AcDbLine
10
-57.975
20
-7.99725
30
0
11
-58.435784
21
-4.497252
31
0
39
0
210
0
220
0
230
1
0
LINE
5
213
100
AcDbEntity
8
1
62
256
6
ByLayer
370
18
48
1
60
1
100
AcDbLine
10
-58.435784
20
-4.497252
30
0
11
-57.514216
21
-4.497248
31
0
39
0
210
0
220
0
230
1
0
LINE
5
214
100
AcDbEntity
8
1
62
256
6
ByLayer
370
18
48
1
60
1
100
AcDbLine
10
-57.514216
20
-4.497248
30
0
11
-57.975
21
-7.99725
31
0
39
0
210
0
220
0
230
1
0
MTEXT
5
1F8
100
AcDbEntity
8
SK2
62
256
6
ByLayer
370
18
48
1
60
0
100
AcDbMText
10
37.478301
20
-57.130672
30
0
210
0
220
0
230
1
1
\W0.7346;82.8
40
3.5
41
0
44
1.084337
50
0
71
7
72
5
7
iso_b_vert
0
MTEXT
5
203
100
AcDbEntity
8
2
62
256
6
ByLayer
370
18
48
1
60
0
100
AcDbMText
10
12.608001
20
-67.130672
30
0
210
0
220
0
230
1
1
\W0.6864;130.8
40
3.5
41
0
44
1.084337
50
0
71
7
72
5
7
iso_b_vert
0
MTEXT
5
20C
100
AcDbEntity
8
SK2
62
256
6
ByLayer
370
18
48
1
60
0
100
AcDbMText
10
-59.539634
20
-4.093189
30
0
210
0
220
0
230
1
1
%%c
40
3.5
41
0
44
1.084337
50
90
71
7
72
5
7
iso_b_vert
0
MTEXT
5
20D
100
AcDbEntity
8
SK2
62
256
6
ByLayer
370
18
48
1
60
0
100
AcDbMText
10
-59.539634
20
2.879467
30
0
210
0
220
0
230
1
1
\W0.5321;16
40
3.5
41
0
44
1.084337
50
90
71
7
72
5
7
iso_b_vert
0
MTEXT
5
216
100
AcDbEntity
8
SK6
62
256
6
ByLayer
370
18
48
1
60
0
100
AcDbMText
10
-12.840806
20
-117.23095
30
0
210
0
220
0
230
1
1
\W0.6997;DE10-D1300-130L16-5
40
3
41
0
44
1.084337
50
0
71
7
72
5
7
iso_b_vert
0
HATCH
5
1FE
100
AcDbEntity
8
SK2
62
256
6
ByLayer
370
13
48
1
60
0
100
AcDbHatch
10
0
20
0
30
0
210
0
220
0
230
1
2
ANSI31
70
0
71
0
91
1
92
5
93
3
72
1
10
0
20
-58.1633058558202
11
3.49999830744682
21
-57.7025221142675
72
1
10
3.49999830744682
20
-57.7025221142675
11
3.50000169255318
21
-58.624089597373
72
1
10
3.50000169255318
20
-58.624089597373
11
0
21
-58.1633058558202
97
0
75
0
76
1
52
0
41
0.0062
77
0
78
1
53
45
43
0
44
0
45
-0.0139193969876572
46
0.0139193969876572
79
0
47
0
98
1
10
0
20
0
0
HATCH
5
202
100
AcDbEntity
8
SK2
62
256
6
ByLayer
370
13
48
1
60
0
100
AcDbHatch
10
0
20
0
30
0
210
0
220
0
230
1
2
ANSI31
70
0
71
0
91
1
92
5
93
3
72
1
10
82.8
20
-58.1633058558202
11
79.3000016925532
21
-58.624089597373
72
1
10
79.3000016925532
20
-58.624089597373
11
79.2999983074468
21
-57.7025221142675
72
1
10
79.2999983074468
20
-57.7025221142675
11
82.8
21
-58.1633058558202
97
0
75
0
76
1
52
0
41
0.0062
77
0
78
1
53
45
43
0
44
0
45
-0.0139193969876572
46
0.0139193969876572
79
0
47
0
98
1
10
0
20
0
0
HATCH
5
207
100
AcDbEntity
8
2
62
256
6
ByLayer
370
13
48
1
60
0
100
AcDbHatch
10
0
20
0
30
0
210
0
220
0
230
1
2
ANSI31
70
0
71
0
91
1
92
5
93
3
72
1
10
-48
20
-68.1633058558202
11
-44.5000016925532
21
-67.7025221142675
72
1
10
-44.5000016925532
20
-67.7025221142675
11
-44.4999983074468
21
-68.624089597373
72
1
10
-44.4999983074468
20
-68.624089597373
11
-48
21
-68.1633058558202
97
0
75
0
76
1
52
0
41
0.0062
77
0
78
1
53
45
43
0
44
0
45
-0.0139193969876572
46
0.0139193969876572
79
0
47
0
98
1
10
0
20
0
0
HATCH
5
20B
100
AcDbEntity
8
2
62
256
6
ByLayer
370
13
48
1
60
0
100
AcDbHatch
10
0
20
0
30
0
210
0
220
0
230
1
2
ANSI31
70
0
71
0
91
1
92
5
93
3
72
1
10
82.8
20
-68.1633058558202
11
79.3000016925532
21
-68.624089597373
72
1
10
79.3000016925532
20
-68.624089597373
11
79.2999983074468
21
-67.7025221142675
72
1
10
79.2999983074468
20
-67.7025221142675
11
82.8
21
-68.1633058558202
97
0
75
0
76
1
52
0
41
0.0062
77
0
78
1
53
45
43
0
44
0
45
-0.0139193969876572
46
0.0139193969876572
79
0
47
0
98
1
10
0
20
0
0
HATCH
5
211
100
AcDbEntity
8
SK2
62
256
6
ByLayer
370
13
48
1
60
0
100
AcDbHatch
10
0
20
0
30
0
210
0
220
0
230
1
2
ANSI31
70
0
71
0
91
1
92
5
93
3
72
1
10
-57.975
20
7.99724999999995
11
-57.5142162584472
21
4.49725169255314
72
1
10
-57.5142162584472
20
4.49725169255314
11
-58.4357837415528
21
4.49724830744677
72
1
10
-58.4357837415528
20
4.49724830744677
11
-57.975
21
7.99724999999995
97
0
75
0
76
1
52
0
41
0.0062
77
0
78
1
53
45
43
0
44
0
45
-0.0139193969876572
46
0.0139193969876572
79
0
47
0
98
1
10
0
20
0
0
HATCH
5
215
100
AcDbEntity
8
SK2
62
256
6
ByLayer
370
13
48
1
60
0
100
AcDbHatch
10
0
20
0
30
0
210
0
220
0
230
1
2
ANSI31
70
0
71
0
91
1
92
5
93
3
72
1
10
-57.975
20
-7.99725000000007
11
-58.4357837415528
21
-4.49725169255325
72
1
10
-58.4357837415528
20
-4.49725169255325
11
-57.5142162584472
21
-4.49724830744688
72
1
10
-57.5142162584472
20
-4.49724830744688
11
-57.975
21
-7.99725000000007
97
0
75
0
76
1
52
0
41
0.0062
77
0
78
1
53
45
43
0
44
0
45
-0.0139193969876572
46
0.0139193969876572
79
0
47
0
98
1
10
0
20
0
0
DIMENSION
5
219
100
AcDbEntity
8
2
62
256
6
ByLayer
370
18
48
1
60
0
100
AcDbDimension
2
_U0
10
114.755767
20
6.5
30
0
11
114.755767
21
0
31
0
70
32
71
1
72
1
41
1
210
0
220
0
230
1
3
Standard
100
AcDbAlignedDimension
13
82.8
23
-6.5
33
0
14
82.8
24
6.5
34
0
50
90
100
AcDbRotatedDimension
1001
ACAD
1000
DSTYLE
1002
{
1070
   371
1070
    13
1070
   372
1070
    13
1070
   170
1070
     0
1070
   144
1040
1.0
1070
   277
1070
     2
1070
   284
1070
     8
1070
   278
1070
    46
1070
   146
1040
1.0
1070
   345
1005
16
1070
   347
1005
16
1070
   346
1005
16
1070
   344
1005
0
1070
   343
1005
0
1070
   172
1070
     1
1070
    76
1070
     0
1070
    75
1070
     0
1070
   282
1070
     0
1070
   281
1070
     0
1070
    71
1070
     0
1070
    74
1070
     0
1070
   279
1070
     0
1070
   173
1070
     1
1070
   340
1005
1F9
1070
   271
1070
     1
1070
   272
1070
     2
1070
    77
1070
     1
1070
    73
1070
     0
1070
   171
1070
     3
1070
   274
1070
     4
1070
   177
1070
     2
1070
   176
1070
     2
1070
   178
1070
     2
1070
    78
1070
     8
1070
    48
1040
-0.1
1070
    41
1040
3.5
1070
   147
1040
1.75
1070
    42
1040
1.5875
1070
    44
1040
2.0
1070
   140
1040
3.5
1002
}
1001
ACAD_DSTYLE_DIM_LINETYPE
1070
   380
1005
16
1001
ACAD_DSTYLE_DIM_EXT1_LINETYPE
1070
   381
1005
16
1001
ACAD_DSTYLE_DIM_EXT2_LINETYPE
1070
   382
1005
16
0
DIMENSION
5
233
100
AcDbEntity
8
SK2
62
256
6
ByLayer
370
18
48
1
60
0
100
AcDbDimension
2
_U1
10
13.9
20
-38.163306
30
0
11
48.35
21
-38.163306
31
0
70
32
71
1
72
1
41
1
210
0
220
0
230
1
3
Standard
100
AcDbAlignedDimension
13
82.8
23
-6.5
33
0
14
13.9
24
-6.5
34
0
50
0
100
AcDbRotatedDimension
1001
ACAD
1000
DSTYLE
1002
{
1070
   371
1070
    13
1070
   372
1070
    13
1070
   170
1070
     0
1070
   144
1040
1.0
1070
   277
1070
     2
1070
   284
1070
     8
1070
   278
1070
    46
1070
   146
1040
1.0
1070
   345
1005
16
1070
   347
1005
16
1070
   346
1005
16
1070
   344
1005
0
1070
   343
1005
0
1070
   172
1070
     1
1070
    76
1070
     0
1070
    75
1070
     0
1070
   282
1070
     0
1070
   281
1070
     0
1070
    71
1070
     0
1070
    74
1070
     0
1070
   279
1070
     0
1070
   173
1070
     1
1070
   340
1005
1F9
1070
   271
1070
     1
1070
   272
1070
     2
1070
    77
1070
     1
1070
    73
1070
     1
1070
   171
1070
     3
1070
   274
1070
     4
1070
   177
1070
     2
1070
   176
1070
     2
1070
   178
1070
     2
1070
    78
1070
     8
1070
    48
1040
-0.1
1070
    41
1040
3.5
1070
   147
1040
1.75
1070
    42
1040
1.5875
1070
    44
1040
2.0
1070
   140
1040
3.5
1002
}
1001
ACAD_DSTYLE_DIM_LINETYPE
1070
   380
1005
16
1001
ACAD_DSTYLE_DIM_EXT1_LINETYPE
1070
   381
1005
16
1001
ACAD_DSTYLE_DIM_EXT2_LINETYPE
1070
   382
1005
16
0
DIMENSION
5
24B
100
AcDbEntity
8
SK2
62
256
6
ByLayer
370
18
48
1
60
0
100
AcDbDimension
2
_U2
10
12.4
20
-48.163306
30
0
11
47.6
21
-48.163306
31
0
70
32
71
1
72
1
41
1
210
0
220
0
230
1
3
Standard
100
AcDbAlignedDimension
13
82.8
23
-6.5
33
0
14
12.4
24
-6.5
34
0
50
0
100
AcDbRotatedDimension
1001
ACAD
1000
DSTYLE
1002
{
1070
   371
1070
    13
1070
   372
1070
    13
1070
   170
1070
     0
1070
   144
1040
1.0
1070
   277
1070
     2
1070
   284
1070
     8
1070
   278
1070
    46
1070
   146
1040
1.0
1070
   345
1005
16
1070
   347
1005
16
1070
   346
1005
16
1070
   344
1005
0
1070
   343
1005
0
1070
   172
1070
     1
1070
    76
1070
     0
1070
    75
1070
     0
1070
   282
1070
     0
1070
   281
1070
     0
1070
    71
1070
     0
1070
    74
1070
     0
1070
   279
1070
     0
1070
   173
1070
     1
1070
   340
1005
1F9
1070
   271
1070
     1
1070
   272
1070
     2
1070
    77
1070
     1
1070
    73
1070
     1
1070
   171
1070
     3
1070
   274
1070
     4
1070
   177
1070
     2
1070
   176
1070
     2
1070
   178
1070
     2
1070
    78
1070
     8
1070
    48
1040
-0.1
1070
    41
1040
3.5
1070
   147
1040
1.75
1070
    42
1040
1.5875
1070
    44
1040
2.0
1070
   140
1040
3.5
1002
}
1001
ACAD_DSTYLE_DIM_LINETYPE
1070
   380
1005
16
1001
ACAD_DSTYLE_DIM_EXT1_LINETYPE
1070
   381
1005
16
1001
ACAD_DSTYLE_DIM_EXT2_LINETYPE
1070
   382
1005
16
0
ENDSEC
0
SECTION
2
OBJECTS
0
DICTIONARY
5
2d2
330
0
100
AcDbDictionary
280
0
281
1
3
ACAD_GROUP
350
2d3
3
ACAD_MLINESTYLE
350
2d4
0
DICTIONARY
5
2d3
330
0
100
AcDbDictionary
280
0
281
1
0
DICTIONARY
5
2d4
330
0
100
AcDbDictionary
280
0
281
1
3
Standard
350
18
0
MLINESTYLE
5
18
330
2d4
100
AcDbMlineStyle
2
Standard
70
0
3

62
256
51
90
52
90
71
2
49
-0.5
62
256
6
ByLayer
49
0.5
62
256
6
ByLayer
0
RASTERVARIABLES
5
2c1
330

100
AcDbRasterVariables
90
0
70
1
71
1
72
1
0
ENDSEC
0
EOF
