0
SECTION
2
HEADER
9
$ACADVER
1
AC1015
9
$DWGCODEPAGE
3
ANSI_1252
9
$HANDSEED
5
32e
9
$ANGBASE
50
0
9
$ANGDIR
70
0
9
$ATTMODE
70
1
9
$AUNITS
70
0
9
$AUPREC
70
0
9
$CECOLOR
62
256
9
$CELTSCALE
40
1
9
$CELTYPE
6
ByLayer
9
$CELWEIGHT
370
18
9
$CLAYER
8
0
9
$CMLJUST
70
0
9
$CMLSCALE
40
1
9
$CMLSTYLE
2
Standard
9
$DIMSTYLE
2
Standard
9
$TEXTSIZE
40
0.2
9
$TEXTSTYLE
7
Standard
9
$LUNITS
70
2
9
$LUPREC
70
4
9
$EXTNAMES
290
1
9
$INSUNITS
70
4
9
$LTSCALE
40
1
9
$LWDISPLAY
290
1
9
$PDMODE
70
0
9
$PDSIZE
40
0
9
$PLINEGEN
70
0
0
ENDSEC
0
SECTION
2
CLASSES
0
CLASS
1
RASTERVARIABLES
2
AcDbRasterVariables
3
ISM
90
0
280
0
281
0
0
ENDSEC
0
SECTION
2
TABLES
0
TABLE
2
VPORT
5
324
100
AcDbSymbolTable
0
VPORT
5
1
100
AcDbSymbolTableRecord
100
AcDbViewportTableRecord
2
*Active
70
0
10
0
20
0
11
1
21
1
12
-1
22
1
13
0
23
0
14
0.5
24
0.5
15
10
25
10
16
0
26
0
36
1
17
0
27
0
37
0
0
ENDTAB
0
TABLE
2
LTYPE
5
325
100
AcDbSymbolTable
0
LTYPE
5
14
100
AcDbSymbolTableRecord
100
AcDbLinetypeTableRecord
70
0
2
ByBlock
3

72
65
73
0
40
0
0
LTYPE
5
15
100
AcDbSymbolTableRecord
100
AcDbLinetypeTableRecord
70
0
2
ByLayer
3

72
65
73
0
40
0
0
LTYPE
5
16
100
AcDbSymbolTableRecord
100
AcDbLinetypeTableRecord
70
0
2
Continuous
3
Solid line
72
65
73
0
40
0
0
LTYPE
5
6E
100
AcDbSymbolTableRecord
100
AcDbLinetypeTableRecord
70
0
2
CENTER
3
____ _ ____ _ ____ _ ____
72
65
73
4
40
47.5
49
22
74
0
49
-8.5
74
0
49
8.5
74
0
49
-8.5
74
0
0
LTYPE
5
6F
100
AcDbSymbolTableRecord
100
AcDbLinetypeTableRecord
70
0
2
DASHED
3
__ __ __ __ __ __ __ __ __
72
65
73
2
40
25.72
49
12.86
74
0
49
-12.86
74
0
0
ENDTAB
0
TABLE
2
LAYER
5
326
100
AcDbSymbolTable
0
LAYER
5
10
100
AcDbSymbolTableRecord
100
AcDbLayerTableRecord
2
0
70
0
62
7
6
Continuous
290
1
370
-3
390
0
0
LAYER
5
71
100
AcDbSymbolTableRecord
100
AcDbLayerTableRecord
2
80
70
0
62
-6
6
Continuous
290
1
370
-3
390
0
0
LAYER
5
73
100
AcDbSymbolTableRecord
100
AcDbLayerTableRecord
2
81
70
0
62
-3
6
Continuous
290
1
370
-3
390
0
0
LAYER
5
7E
100
AcDbSymbolTableRecord
100
AcDbLayerTableRecord
2
4
70
0
62
-2
6
CENTER
290
1
370
-3
390
0
0
LAYER
5
85
100
AcDbSymbolTableRecord
100
AcDbLayerTableRecord
2
1
70
0
62
4
6
Continuous
290
1
370
-3
390
0
0
LAYER
5
209
100
AcDbSymbolTableRecord
100
AcDbLayerTableRecord
2
Defpoints
70
0
62
7
6
Continuous
290
0
370
-3
390
0
0
LAYER
5
216
100
AcDbSymbolTableRecord
100
AcDbLayerTableRecord
2
2
70
0
62
7
6
Continuous
290
1
370
-3
390
0
0
LAYER
5
310
100
AcDbSymbolTableRecord
100
AcDbLayerTableRecord
2
SK1
70
0
62
4
6
Continuous
290
1
370
-3
390
0
0
LAYER
5
311
100
AcDbSymbolTableRecord
100
AcDbLayerTableRecord
2
SK4
70
0
62
2
6
CENTER
290
1
370
-3
390
0
0
LAYER
5
312
100
AcDbSymbolTableRecord
100
AcDbLayerTableRecord
2
SK6
70
0
62
5
6
Continuous
290
1
370
-3
390
0
0
LAYER
5
313
100
AcDbSymbolTableRecord
100
AcDbLayerTableRecord
2
SK2
70
0
62
7
6
Continuous
290
1
370
-3
390
0
0
ENDTAB
0
TABLE
2
STYLE
5
327
100
AcDbSymbolTable
0
STYLE
5
11
100
AcDbSymbolTableRecord
100
AcDbTextStyleTableRecord
2
Standard
3
txt
70
0
71
0
40
0
41
1
42
0
50
0
0
STYLE
5
202
100
AcDbSymbolTableRecord
100
AcDbTextStyleTableRecord
2
iso_b_vert
3
simplex.shx
70
0
71
0
40
0
41
1
42
0
50
0
0
STYLE
5
203
100
AcDbSymbolTableRecord
100
AcDbTextStyleTableRecord
2
DWGDirectTextStyle
3
simplex
70
0
71
0
40
0
41
1
42
0
50
0
0
ENDTAB
0
TABLE
2
DIMSTYLE
5
328
100
AcDbSymbolTable
100
AcDbDimStyleTable
0
DIMSTYLE
105
27
100
AcDbSymbolTableRecord
100
AcDbDimStyleTableRecord
2
Standard
70
0
3
<>
41
0.18
42
0.0625
44
0.18
140
0.18
147
0.09
73
0
74
0
77
1
271
2
275
0
278
52
280
0
340
11
0
ENDTAB
0
TABLE
2
VIEW
5
329
100
AcDbSymbolTable
0
ENDTAB
0
TABLE
2
UCS
5
32a
100
AcDbSymbolTable
0
ENDTAB
0
TABLE
2
APPID
5
32b
100
AcDbSymbolTable
0
APPID
5
12
100
AcDbSymbolTableRecord
100
AcDbRegAppTableRecord
2
ACAD
70
0
0
APPID
5
205
100
AcDbSymbolTableRecord
100
AcDbRegAppTableRecord
2
ACAD_DSTYLE_DIMBREAK
70
0
0
APPID
5
282
100
AcDbSymbolTableRecord
100
AcDbRegAppTableRecord
2
ACAD_DSTYLE_DIMANGULAR_EXTENSION
70
0
0
APPID
5
2CF
100
AcDbSymbolTableRecord
100
AcDbRegAppTableRecord
2
ACAD_DSTYLE_DIM_LINETYPE
70
0
0
APPID
5
2D0
100
AcDbSymbolTableRecord
100
AcDbRegAppTableRecord
2
ACAD_DSTYLE_DIM_EXT1_LINETYPE
70
0
0
APPID
5
2D1
100
AcDbSymbolTableRecord
100
AcDbRegAppTableRecord
2
ACAD_DSTYLE_DIM_EXT2_LINETYPE
70
0
0
APPID
5
30C
100
AcDbSymbolTableRecord
100
AcDbRegAppTableRecord
2
ACAD_MLEADERVER
70
0
0
ENDTAB
0
TABLE
2
BLOCK_RECORD
5
32c
100
AcDbSymbolTable
0
BLOCK_RECORD
5
1F
100
AcDbSymbolTableRecord
100
AcDbBlockTableRecord
2
*Model_Space
340
0
70
0
0
BLOCK_RECORD
5
1B
100
AcDbSymbolTableRecord
100
AcDbBlockTableRecord
2
*Paper_Space
340
0
70
0
0
BLOCK_RECORD
5
23
100
AcDbSymbolTableRecord
100
AcDbBlockTableRecord
2
*Paper_Space0
340
0
70
0
0
BLOCK_RECORD
5
20A
100
AcDbSymbolTableRecord
100
AcDbBlockTableRecord
2
*D1
340
0
70
0
0
BLOCK_RECORD
5
217
100
AcDbSymbolTableRecord
100
AcDbBlockTableRecord
2
_U0
340
0
70
0
0
BLOCK_RECORD
5
223
100
AcDbSymbolTableRecord
100
AcDbBlockTableRecord
2
*D3
340
0
70
0
0
BLOCK_RECORD
5
22F
100
AcDbSymbolTableRecord
100
AcDbBlockTableRecord
2
_U1
340
0
70
0
0
BLOCK_RECORD
5
23B
100
AcDbSymbolTableRecord
100
AcDbBlockTableRecord
2
*D5
340
0
70
0
0
BLOCK_RECORD
5
248
100
AcDbSymbolTableRecord
100
AcDbBlockTableRecord
2
_U2
340
0
70
0
0
BLOCK_RECORD
5
254
100
AcDbSymbolTableRecord
100
AcDbBlockTableRecord
2
*D7
340
0
70
0
0
BLOCK_RECORD
5
260
100
AcDbSymbolTableRecord
100
AcDbBlockTableRecord
2
_U3
340
0
70
0
0
BLOCK_RECORD
5
26C
100
AcDbSymbolTableRecord
100
AcDbBlockTableRecord
2
*D9
340
0
70
0
0
BLOCK_RECORD
5
278
100
AcDbSymbolTableRecord
100
AcDbBlockTableRecord
2
_U4
340
0
70
0
0
BLOCK_RECORD
5
285
100
AcDbSymbolTableRecord
100
AcDbBlockTableRecord
2
*D11
340
0
70
0
0
BLOCK_RECORD
5
293
100
AcDbSymbolTableRecord
100
AcDbBlockTableRecord
2
_U5
340
0
70
0
0
BLOCK_RECORD
5
29F
100
AcDbSymbolTableRecord
100
AcDbBlockTableRecord
2
*D13
340
0
70
0
0
BLOCK_RECORD
5
2AA
100
AcDbSymbolTableRecord
100
AcDbBlockTableRecord
2
_U6
340
0
70
0
0
ENDTAB
0
ENDSEC
0
SECTION
2
BLOCKS
0
BLOCK
5
20
100
AcDbEntity
8
0
100
AcDbBlockBegin
2
*Model_Space
70
0
10
0
20
0
30
0
3
*Model_Space
0
ENDBLK
5
21
100
AcDbEntity
8
0
100
AcDbBlockEnd
0
BLOCK
5
1C
100
AcDbEntity
8
0
100
AcDbBlockBegin
2
*Paper_Space
70
0
10
0
20
0
30
0
3
*Paper_Space
0
ENDBLK
5
1D
100
AcDbEntity
8
0
100
AcDbBlockEnd
0
BLOCK
5
24
100
AcDbEntity
8
0
100
AcDbBlockBegin
2
*Paper_Space0
70
0
10
0
20
0
30
0
3
*Paper_Space0
0
ENDBLK
5
25
100
AcDbEntity
8
0
100
AcDbBlockEnd
0
BLOCK
5
20B
100
AcDbEntity
8
0
100
AcDbBlockBegin
2
*D1
70
1
10
0
20
0
30
0
3
*D1
0
LINE
5
20D
100
AcDbEntity
8
0
62
256
6
ByLayer
370
-2
48
1
60
0
100
AcDbLine
10
0
20
-26.7
30
0
11
0
21
-48.5
31
0
39
0
210
0
220
0
230
1
0
LINE
5
20E
100
AcDbEntity
8
0
62
256
6
ByLayer
370
-2
48
1
60
0
100
AcDbLine
10
237
20
-27.808402
30
0
11
237
21
-48.5
31
0
39
0
210
0
220
0
230
1
0
LINE
5
20F
100
AcDbEntity
8
0
62
256
6
ByLayer
370
-2
48
1
60
0
100
AcDbLine
10
3.175
20
-46.5
30
0
11
233.825
21
-46.5
31
0
39
0
210
0
220
0
230
1
0
SOLID
5
210
100
AcDbEntity
8
0
62
256
6
ByLayer
370
-1
48
1
60
0
100
AcDbTrace
10
3.175
20
-45.970833
30
0
11
3.175
21
-47.029167
31
0
12
0
22
-46.5
32
0
13
0
23
-46.5
33
0
39
0
210
0
220
0
230
1
0
SOLID
5
211
100
AcDbEntity
8
0
62
256
6
ByLayer
370
-1
48
1
60
0
100
AcDbTrace
10
233.825
20
-47.029167
30
0
11
233.825
21
-45.970833
31
0
12
237
22
-46.5
32
0
13
237
23
-46.5
33
0
39
0
210
0
220
0
230
1
0
MTEXT
5
212
100
AcDbEntity
8
0
62
256
6
ByLayer
370
18
48
1
60
0
100
AcDbMText
10
118.5
20
-39
30
0
210
0
220
0
230
1
1
\A1;237.0
40
3
41
0
44
1
50
0
71
5
72
5
7
iso_b_vert
0
POINT
5
213
100
AcDbEntity
8
Defpoints
62
0
6
ByLayer
370
-1
48
1
60
0
100
AcDbPoint
10
0
20
-24.7
30
0
39
0
210
0
220
0
230
1
50
360
0
POINT
5
214
100
AcDbEntity
8
Defpoints
62
0
6
ByLayer
370
-1
48
1
60
0
100
AcDbPoint
10
237
20
-25.808402
30
0
39
0
210
0
220
0
230
1
50
360
0
POINT
5
215
100
AcDbEntity
8
Defpoints
62
0
6
ByLayer
370
-1
48
1
60
0
100
AcDbPoint
10
237
20
-46.5
30
0
39
0
210
0
220
0
230
1
50
360
0
ENDBLK
5
20C
100
AcDbEntity
8
0
100
AcDbBlockEnd
0
BLOCK
5
21E
100
AcDbEntity
8
0
100
AcDbBlockBegin
2
_U0
70
0
10
0
20
0
30
0
3
_U0
0
MTEXT
5
218
100
AcDbEntity
8
2
62
256
6
ByLayer
370
18
48
1
60
0
100
AcDbMText
10
114.018774
20
-45.614886
30
0
210
0
220
0
230
1
1
\W0.7305;237.0
40
3
41
0
44
1.084337
50
0
71
7
72
5
7
iso_b_vert
0
LINE
5
219
100
AcDbEntity
8
2
62
256
6
ByLayer
370
18
48
1
60
0
100
AcDbLine
10
0
20
-26.7
30
0
11
0
21
-48.5
31
0
39
0
210
0
220
0
230
1
0
LINE
5
21A
100
AcDbEntity
8
2
62
256
6
ByLayer
370
18
48
1
60
0
100
AcDbLine
10
237
20
-27.808402
30
0
11
237
21
-48.5
31
0
39
0
210
0
220
0
230
1
0
LINE
5
21B
100
AcDbEntity
8
2
62
256
6
ByLayer
370
18
48
1
60
0
100
AcDbLine
10
0
20
-46.5
30
0
11
237
21
-46.5
31
0
39
0
210
0
220
0
230
1
0
SOLID
5
21C
100
AcDbEntity
8
2
62
256
6
ByLayer
370
18
48
1
60
0
100
AcDbTrace
10
0
20
-46.5
30
0
11
3.174998
21
-46.082003
31
0
12
3.175002
22
-46.917997
32
0
13
3.175002
23
-46.917997
33
0
39
0
210
0
220
0
230
1
0
SOLID
5
21D
100
AcDbEntity
8
2
62
256
6
ByLayer
370
18
48
1
60
0
100
AcDbTrace
10
237
20
-46.5
30
0
11
233.825002
21
-46.917997
31
0
12
233.824998
22
-46.082003
32
0
13
233.824998
23
-46.082003
33
0
39
0
210
0
220
0
230
1
0
ENDBLK
5
21F
100
AcDbEntity
8
0
100
AcDbBlockEnd
0
BLOCK
5
224
100
AcDbEntity
8
0
100
AcDbBlockBegin
2
*D3
70
1
10
0
20
0
30
0
3
*D3
0
LINE
5
226
100
AcDbEntity
8
0
62
256
6
ByLayer
370
-2
48
1
60
0
100
AcDbLine
10
0
20
-26.7
30
0
11
0
21
-63.5
31
0
39
0
210
0
220
0
230
1
0
LINE
5
227
100
AcDbEntity
8
0
62
256
6
ByLayer
370
-2
48
1
60
0
100
AcDbLine
10
256
20
-20.4
30
0
11
256
21
-63.5
31
0
39
0
210
0
220
0
230
1
0
LINE
5
228
100
AcDbEntity
8
0
62
256
6
ByLayer
370
-2
48
1
60
0
100
AcDbLine
10
3.175
20
-61.5
30
0
11
252.825
21
-61.5
31
0
39
0
210
0
220
0
230
1
0
SOLID
5
229
100
AcDbEntity
8
0
62
256
6
ByLayer
370
-1
48
1
60
0
100
AcDbTrace
10
3.175
20
-60.970833
30
0
11
3.175
21
-62.029167
31
0
12
0
22
-61.5
32
0
13
0
23
-61.5
33
0
39
0
210
0
220
0
230
1
0
SOLID
5
22A
100
AcDbEntity
8
0
62
256
6
ByLayer
370
-1
48
1
60
0
100
AcDbTrace
10
252.825
20
-62.029167
30
0
11
252.825
21
-60.970833
31
0
12
256
22
-61.5
32
0
13
256
23
-61.5
33
0
39
0
210
0
220
0
230
1
0
MTEXT
5
22B
100
AcDbEntity
8
0
62
256
6
ByLayer
370
18
48
1
60
0
100
AcDbMText
10
128
20
-54
30
0
210
0
220
0
230
1
1
\A1;256.0
40
3
41
0
44
1
50
0
71
5
72
5
7
iso_b_vert
0
POINT
5
22C
100
AcDbEntity
8
Defpoints
62
0
6
ByLayer
370
-1
48
1
60
0
100
AcDbPoint
10
0
20
-24.7
30
0
39
0
210
0
220
0
230
1
50
360
0
POINT
5
22D
100
AcDbEntity
8
Defpoints
62
0
6
ByLayer
370
-1
48
1
60
0
100
AcDbPoint
10
256
20
-18.4
30
0
39
0
210
0
220
0
230
1
50
360
0
POINT
5
22E
100
AcDbEntity
8
Defpoints
62
0
6
ByLayer
370
-1
48
1
60
0
100
AcDbPoint
10
256
20
-61.5
30
0
39
0
210
0
220
0
230
1
50
360
0
ENDBLK
5
225
100
AcDbEntity
8
0
100
AcDbBlockEnd
0
BLOCK
5
236
100
AcDbEntity
8
0
100
AcDbBlockBegin
2
_U1
70
0
10
0
20
0
30
0
3
_U1
0
MTEXT
5
230
100
AcDbEntity
8
2
62
256
6
ByLayer
370
18
48
1
60
0
100
AcDbMText
10
123.518774
20
-60.614886
30
0
210
0
220
0
230
1
1
\W0.7305;256.0
40
3
41
0
44
1.084337
50
0
71
7
72
5
7
iso_b_vert
0
LINE
5
231
100
AcDbEntity
8
2
62
256
6
ByLayer
370
18
48
1
60
0
100
AcDbLine
10
0
20
-26.7
30
0
11
0
21
-63.5
31
0
39
0
210
0
220
0
230
1
0
LINE
5
232
100
AcDbEntity
8
2
62
256
6
ByLayer
370
18
48
1
60
0
100
AcDbLine
10
256
20
-20.4
30
0
11
256
21
-63.5
31
0
39
0
210
0
220
0
230
1
0
LINE
5
233
100
AcDbEntity
8
2
62
256
6
ByLayer
370
18
48
1
60
0
100
AcDbLine
10
0
20
-61.5
30
0
11
256
21
-61.5
31
0
39
0
210
0
220
0
230
1
0
SOLID
5
234
100
AcDbEntity
8
2
62
256
6
ByLayer
370
18
48
1
60
0
100
AcDbTrace
10
0
20
-61.5
30
0
11
3.174998
21
-61.082003
31
0
12
3.175002
22
-61.917997
32
0
13
3.175002
23
-61.917997
33
0
39
0
210
0
220
0
230
1
0
SOLID
5
235
100
AcDbEntity
8
2
62
256
6
ByLayer
370
18
48
1
60
0
100
AcDbTrace
10
256
20
-61.5
30
0
11
252.825002
21
-61.917997
31
0
12
252.824998
22
-61.082003
32
0
13
252.824998
23
-61.082003
33
0
39
0
210
0
220
0
230
1
0
ENDBLK
5
237
100
AcDbEntity
8
0
100
AcDbBlockEnd
0
BLOCK
5
23C
100
AcDbEntity
8
0
100
AcDbBlockBegin
2
*D5
70
1
10
0
20
0
30
0
3
*D5
0
LINE
5
23E
100
AcDbEntity
8
0
62
256
6
ByLayer
370
-2
48
1
60
0
100
AcDbLine
10
-30
20
-17.993345
30
0
11
-30
21
-78.5
31
0
39
0
210
0
220
0
230
1
0
LINE
5
23F
100
AcDbEntity
8
0
62
256
6
ByLayer
370
-2
48
1
60
0
100
AcDbLine
10
256
20
-20.4
30
0
11
256
21
-78.5
31
0
39
0
210
0
220
0
230
1
0
LINE
5
240
100
AcDbEntity
8
0
62
256
6
ByLayer
370
-2
48
1
60
0
100
AcDbLine
10
-26.825
20
-76.5
30
0
11
252.825
21
-76.5
31
0
39
0
210
0
220
0
230
1
0
SOLID
5
241
100
AcDbEntity
8
0
62
256
6
ByLayer
370
-1
48
1
60
0
100
AcDbTrace
10
-26.825
20
-75.970833
30
0
11
-26.825
21
-77.029167
31
0
12
-30
22
-76.5
32
0
13
-30
23
-76.5
33
0
39
0
210
0
220
0
230
1
0
SOLID
5
242
100
AcDbEntity
8
0
62
256
6
ByLayer
370
-1
48
1
60
0
100
AcDbTrace
10
252.825
20
-77.029167
30
0
11
252.825
21
-75.970833
31
0
12
256
22
-76.5
32
0
13
256
23
-76.5
33
0
39
0
210
0
220
0
230
1
0
MTEXT
5
243
100
AcDbEntity
8
0
62
256
6
ByLayer
370
18
48
1
60
0
100
AcDbMText
10
113
20
-69
30
0
210
0
220
0
230
1
1
\A1;286.0
40
3
41
0
44
1
50
0
71
5
72
5
7
iso_b_vert
0
POINT
5
244
100
AcDbEntity
8
Defpoints
62
0
6
ByLayer
370
-1
48
1
60
0
100
AcDbPoint
10
-30
20
-15.993345
30
0
39
0
210
0
220
0
230
1
50
360
0
POINT
5
245
100
AcDbEntity
8
Defpoints
62
0
6
ByLayer
370
-1
48
1
60
0
100
AcDbPoint
10
256
20
-18.4
30
0
39
0
210
0
220
0
230
1
50
360
0
POINT
5
246
100
AcDbEntity
8
Defpoints
62
0
6
ByLayer
370
-1
48
1
60
0
100
AcDbPoint
10
256
20
-76.5
30
0
39
0
210
0
220
0
230
1
50
360
0
ENDBLK
5
23D
100
AcDbEntity
8
0
100
AcDbBlockEnd
0
BLOCK
5
24F
100
AcDbEntity
8
0
100
AcDbBlockBegin
2
_U2
70
0
10
0
20
0
30
0
3
_U2
0
MTEXT
5
249
100
AcDbEntity
8
SK2
62
256
6
ByLayer
370
18
48
1
60
0
100
AcDbMText
10
108.518774
20
-75.614886
30
0
210
0
220
0
230
1
1
\W0.7305;286.0
40
3
41
0
44
1.084337
50
0
71
7
72
5
7
iso_b_vert
0
LINE
5
24A
100
AcDbEntity
8
SK2
62
256
6
ByLayer
370
18
48
1
60
0
100
AcDbLine
10
-30
20
-17.993345
30
0
11
-30
21
-78.5
31
0
39
0
210
0
220
0
230
1
0
LINE
5
24B
100
AcDbEntity
8
SK2
62
256
6
ByLayer
370
18
48
1
60
0
100
AcDbLine
10
256
20
-20.4
30
0
11
256
21
-78.5
31
0
39
0
210
0
220
0
230
1
0
LINE
5
24C
100
AcDbEntity
8
SK2
62
256
6
ByLayer
370
18
48
1
60
0
100
AcDbLine
10
-30
20
-76.5
30
0
11
256
21
-76.5
31
0
39
0
210
0
220
0
230
1
0
SOLID
5
24D
100
AcDbEntity
8
SK2
62
256
6
ByLayer
370
18
48
1
60
0
100
AcDbTrace
10
-30
20
-76.5
30
0
11
-26.825002
21
-76.082003
31
0
12
-26.824998
22
-76.917997
32
0
13
-26.824998
23
-76.917997
33
0
39
0
210
0
220
0
230
1
0
SOLID
5
24E
100
AcDbEntity
8
SK2
62
256
6
ByLayer
370
18
48
1
60
0
100
AcDbTrace
10
256
20
-76.5
30
0
11
252.825002
21
-76.917997
31
0
12
252.824998
22
-76.082003
32
0
13
252.824998
23
-76.082003
33
0
39
0
210
0
220
0
230
1
0
ENDBLK
5
250
100
AcDbEntity
8
0
100
AcDbBlockEnd
0
BLOCK
5
255
100
AcDbEntity
8
0
100
AcDbBlockBegin
2
*D7
70
1
10
0
20
0
30
0
3
*D7
0
LINE
5
257
100
AcDbEntity
8
0
62
256
6
ByLayer
370
-2
48
1
60
0
100
AcDbLine
10
-1.7
20
25
30
0
11
-41.657786
21
25
31
0
39
0
210
0
220
0
230
1
0
LINE
5
258
100
AcDbEntity
8
0
62
256
6
ByLayer
370
-2
48
1
60
0
100
AcDbLine
10
-1.7
20
-25
30
0
11
-41.657786
21
-25
31
0
39
0
210
0
220
0
230
1
0
LINE
5
259
100
AcDbEntity
8
0
62
256
6
ByLayer
370
-2
48
1
60
0
100
AcDbLine
10
-39.657786
20
21.825
30
0
11
-39.657786
21
-21.825
31
0
39
0
210
0
220
0
230
1
0
SOLID
5
25A
100
AcDbEntity
8
0
62
256
6
ByLayer
370
-1
48
1
60
0
100
AcDbTrace
10
-39.128619
20
21.825
30
0
11
-40.186952
21
21.825
31
0
12
-39.657786
22
25
32
0
13
-39.657786
23
25
33
0
39
0
210
0
220
0
230
1
0
SOLID
5
25B
100
AcDbEntity
8
0
62
256
6
ByLayer
370
-1
48
1
60
0
100
AcDbTrace
10
-40.186952
20
-21.825
30
0
11
-39.128619
21
-21.825
31
0
12
-39.657786
22
-25
32
0
13
-39.657786
23
-25
33
0
39
0
210
0
220
0
230
1
0
MTEXT
5
25C
100
AcDbEntity
8
0
62
256
6
ByLayer
370
18
48
1
60
0
100
AcDbMText
10
-47.157786
20
0
30
0
210
0
220
0
230
1
1
\A1;50
40
3
41
0
44
1
50
90
71
5
72
5
7
iso_b_vert
0
POINT
5
25D
100
AcDbEntity
8
Defpoints
62
0
6
ByLayer
370
-1
48
1
60
0
100
AcDbPoint
10
0.3
20
25
30
0
39
0
210
0
220
0
230
1
50
360
0
POINT
5
25E
100
AcDbEntity
8
Defpoints
62
0
6
ByLayer
370
-1
48
1
60
0
100
AcDbPoint
10
0.3
20
-25
30
0
39
0
210
0
220
0
230
1
50
360
0
POINT
5
25F
100
AcDbEntity
8
Defpoints
62
0
6
ByLayer
370
-1
48
1
60
0
100
AcDbPoint
10
-39.657786
20
-25
30
0
39
0
210
0
220
0
230
1
50
360
0
ENDBLK
5
256
100
AcDbEntity
8
0
100
AcDbBlockEnd
0
BLOCK
5
267
100
AcDbEntity
8
0
100
AcDbBlockBegin
2
_U3
70
0
10
0
20
0
30
0
3
_U3
0
MTEXT
5
261
100
AcDbEntity
8
SK2
62
256
6
ByLayer
370
18
48
1
60
0
100
AcDbMText
10
-40.2489
20
-4.016312
30
0
210
0
220
0
230
1
1
\W0.8320;%%c 50
40
3
41
0
44
1.084337
50
90
71
7
72
5
7
iso_b_vert
0
LINE
5
262
100
AcDbEntity
8
SK2
62
256
6
ByLayer
370
18
48
1
60
0
100
AcDbLine
10
-1.7
20
25
30
0
11
-41.657786
21
25
31
0
39
0
210
0
220
0
230
1
0
LINE
5
263
100
AcDbEntity
8
SK2
62
256
6
ByLayer
370
18
48
1
60
0
100
AcDbLine
10
-1.7
20
-25
30
0
11
-41.657786
21
-25
31
0
39
0
210
0
220
0
230
1
0
LINE
5
264
100
AcDbEntity
8
SK2
62
256
6
ByLayer
370
18
48
1
60
0
100
AcDbLine
10
-39.657786
20
25
30
0
11
-39.657786
21
-25
31
0
39
0
210
0
220
0
230
1
0
SOLID
5
265
100
AcDbEntity
8
SK2
62
256
6
ByLayer
370
18
48
1
60
0
100
AcDbTrace
10
-39.657786
20
25
30
0
11
-39.239789
21
21.825002
31
0
12
-40.075782
22
21.824998
32
0
13
-40.075782
23
21.824998
33
0
39
0
210
0
220
0
230
1
0
SOLID
5
266
100
AcDbEntity
8
SK2
62
256
6
ByLayer
370
18
48
1
60
0
100
AcDbTrace
10
-39.657786
20
-25
30
0
11
-40.075782
21
-21.825002
31
0
12
-39.239789
22
-21.824998
32
0
13
-39.239789
23
-21.824998
33
0
39
0
210
0
220
0
230
1
0
ENDBLK
5
268
100
AcDbEntity
8
0
100
AcDbBlockEnd
0
BLOCK
5
26D
100
AcDbEntity
8
0
100
AcDbBlockBegin
2
*D9
70
1
10
0
20
0
30
0
3
*D9
0
LINE
5
26F
100
AcDbEntity
8
0
62
256
6
ByLayer
370
-2
48
1
60
0
100
AcDbLine
10
260
20
29.480119
30
0
11
260
21
75.5
31
0
39
0
210
0
220
0
230
1
0
LINE
5
270
100
AcDbEntity
8
0
62
256
6
ByLayer
370
-2
48
1
60
0
100
AcDbLine
10
0
20
26.7
30
0
11
0
21
75.5
31
0
39
0
210
0
220
0
230
1
0
LINE
5
271
100
AcDbEntity
8
0
62
256
6
ByLayer
370
-2
48
1
60
0
100
AcDbLine
10
256.825
20
73.5
30
0
11
3.175
21
73.5
31
0
39
0
210
0
220
0
230
1
0
SOLID
5
272
100
AcDbEntity
8
0
62
256
6
ByLayer
370
-1
48
1
60
0
100
AcDbTrace
10
256.825
20
72.970833
30
0
11
256.825
21
74.029167
31
0
12
260
22
73.5
32
0
13
260
23
73.5
33
0
39
0
210
0
220
0
230
1
0
SOLID
5
273
100
AcDbEntity
8
0
62
256
6
ByLayer
370
-1
48
1
60
0
100
AcDbTrace
10
3.175
20
74.029167
30
0
11
3.175
21
72.970833
31
0
12
0
22
73.5
32
0
13
0
23
73.5
33
0
39
0
210
0
220
0
230
1
0
MTEXT
5
274
100
AcDbEntity
8
0
62
256
6
ByLayer
370
18
48
1
60
0
100
AcDbMText
10
130
20
81
30
0
210
0
220
0
230
1
1
\A1;260.0
40
3
41
0
44
1
50
0
71
5
72
5
7
iso_b_vert
0
POINT
5
275
100
AcDbEntity
8
Defpoints
62
0
6
ByLayer
370
-1
48
1
60
0
100
AcDbPoint
10
260
20
27.480119
30
0
39
0
210
0
220
0
230
1
50
360
0
POINT
5
276
100
AcDbEntity
8
Defpoints
62
0
6
ByLayer
370
-1
48
1
60
0
100
AcDbPoint
10
0
20
24.7
30
0
39
0
210
0
220
0
230
1
50
360
0
POINT
5
277
100
AcDbEntity
8
Defpoints
62
0
6
ByLayer
370
-1
48
1
60
0
100
AcDbPoint
10
0
20
73.5
30
0
39
0
210
0
220
0
230
1
50
360
0
ENDBLK
5
26E
100
AcDbEntity
8
0
100
AcDbBlockEnd
0
BLOCK
5
27F
100
AcDbEntity
8
0
100
AcDbBlockBegin
2
_U4
70
0
10
0
20
0
30
0
3
_U4
0
MTEXT
5
279
100
AcDbEntity
8
2
62
256
6
ByLayer
370
18
48
1
60
0
100
AcDbMText
10
125.518774
20
74.385114
30
0
210
0
220
0
230
1
1
\W0.7305;260.0
40
3
41
0
44
1.084337
50
0
71
7
72
5
7
iso_b_vert
0
LINE
5
27A
100
AcDbEntity
8
2
62
256
6
ByLayer
370
18
48
1
60
0
100
AcDbLine
10
260
20
29.480119
30
0
11
260
21
75.5
31
0
39
0
210
0
220
0
230
1
0
LINE
5
27B
100
AcDbEntity
8
2
62
256
6
ByLayer
370
18
48
1
60
0
100
AcDbLine
10
0
20
26.7
30
0
11
0
21
75.5
31
0
39
0
210
0
220
0
230
1
0
LINE
5
27C
100
AcDbEntity
8
2
62
256
6
ByLayer
370
18
48
1
60
0
100
AcDbLine
10
260
20
73.5
30
0
11
0
21
73.5
31
0
39
0
210
0
220
0
230
1
0
SOLID
5
27D
100
AcDbEntity
8
2
62
256
6
ByLayer
370
18
48
1
60
0
100
AcDbTrace
10
260
20
73.5
30
0
11
256.825002
21
73.082003
31
0
12
256.824998
22
73.917997
32
0
13
256.824998
23
73.917997
33
0
39
0
210
0
220
0
230
1
0
SOLID
5
27E
100
AcDbEntity
8
2
62
256
6
ByLayer
370
18
48
1
60
0
100
AcDbTrace
10
0
20
73.5
30
0
11
3.174998
21
73.917997
31
0
12
3.175002
22
73.082003
32
0
13
3.175002
23
73.082003
33
0
39
0
210
0
220
0
230
1
0
ENDBLK
5
280
100
AcDbEntity
8
0
100
AcDbBlockEnd
0
BLOCK
5
286
100
AcDbEntity
8
0
100
AcDbBlockBegin
2
*D11
70
1
10
0
20
0
30
0
3
*D11
0
LINE
5
288
100
AcDbEntity
8
0
62
256
6
ByLayer
370
-2
48
1
60
0
100
AcDbLine
10
259.594104
20
15.452854
30
0
11
259.386492
21
9.507599
31
0
39
0
210
0
220
0
230
1
0
LINE
5
289
100
AcDbEntity
8
0
62
256
6
ByLayer
370
-2
48
1
60
0
100
AcDbLine
10
263
20
27.480119
30
0
11
277.99758
21
27.480119
31
0
39
0
210
0
220
0
230
1
0
ARC
5
28A
100
AcDbEntity
8
0
62
256
6
ByLayer
370
-2
48
1
60
0
100
AcDbCircle
39
0
10
260.014105
20
27.480119
30
0
40
15.9834750216605
210
0
220
0
230
1
100
AcDbArc
50
279.400185
51
348.599818
0
SOLID
5
28B
100
AcDbEntity
8
0
62
256
6
ByLayer
370
-1
48
1
60
0
100
AcDbTrace
10
262.590523
20
12.23934
30
0
11
262.658821
21
11.183212
31
0
12
259.45629
22
11.506381
32
0
13
259.45629
23
11.506381
33
0
39
0
210
0
220
0
230
1
0
SOLID
5
28C
100
AcDbEntity
8
0
62
256
6
ByLayer
370
-1
48
1
60
0
100
AcDbTrace
10
276.208785
20
24.268261
30
0
11
275.155684
21
24.373376
31
0
12
275.99758
22
27.480119
32
0
13
275.99758
23
27.480119
33
0
39
0
210
0
220
0
230
1
0
MTEXT
5
28D
100
AcDbEntity
8
0
62
256
6
ByLayer
370
18
48
1
60
0
100
AcDbMText
10
265.857603
20
21.428999
30
0
210
0
220
0
230
1
1
\A1;92%%d
40
3
41
0
44
1
50
0
71
5
72
5
7
iso_b_vert
0
POINT
5
28E
100
AcDbEntity
8
Defpoints
62
0
6
ByLayer
370
-1
48
1
60
0
100
AcDbPoint
10
267.681588
20
13.455812
30
0
39
0
210
0
220
0
230
1
50
360
0
POINT
5
28F
100
AcDbEntity
8
Defpoints
62
0
6
ByLayer
370
-1
48
1
60
0
100
AcDbPoint
10
260
20
27.480119
30
0
39
0
210
0
220
0
230
1
50
360
0
POINT
5
290
100
AcDbEntity
8
Defpoints
62
0
6
ByLayer
370
-1
48
1
60
0
100
AcDbPoint
10
259.663903
20
17.451636
30
0
39
0
210
0
220
0
230
1
50
360
0
POINT
5
291
100
AcDbEntity
8
Defpoints
62
0
6
ByLayer
370
-1
48
1
60
0
100
AcDbPoint
10
259.999765
20
27.069481
30
0
39
0
210
0
220
0
230
1
50
360
0
POINT
5
292
100
AcDbEntity
8
Defpoints
62
0
6
ByLayer
370
-1
48
1
60
0
100
AcDbPoint
10
261
20
27.480119
30
0
39
0
210
0
220
0
230
1
50
360
0
ENDBLK
5
287
100
AcDbEntity
8
0
100
AcDbBlockEnd
0
BLOCK
5
29A
100
AcDbEntity
8
0
100
AcDbBlockBegin
2
_U5
70
0
10
0
20
0
30
0
3
_U5
0
MTEXT
5
294
100
AcDbEntity
8
2
62
256
6
ByLayer
370
18
48
1
60
0
100
AcDbMText
10
269.621611
20
11.392081
30
0
210
0
220
0
230
1
1
\W0.6673;92.0%%d
40
3
41
0
44
1.084337
50
44.0000016310455
71
7
72
5
7
iso_b_vert
0
LINE
5
295
100
AcDbEntity
8
2
62
256
6
ByLayer
370
13
48
1
60
0
100
AcDbLine
10
259.594104
20
15.452854
30
0
11
259.281793
21
6.509427
31
0
39
0
210
0
220
0
230
1
0
LINE
5
296
100
AcDbEntity
8
2
62
256
6
ByLayer
370
13
48
1
60
0
100
AcDbLine
10
262
20
27.480119
30
0
11
280.99758
21
27.480119
31
0
39
0
210
0
220
0
230
1
0
ARC
5
297
100
AcDbEntity
8
2
62
256
6
ByLayer
370
13
48
1
60
0
100
AcDbCircle
39
0
10
260.014105
20
27.480119
30
0
40
18.9834750216605
210
0
220
0
230
1
100
AcDbArc
50
268.000003
51
359.999943
0
SOLID
5
298
100
AcDbEntity
8
2
62
256
6
ByLayer
370
18
48
1
60
0
100
AcDbTrace
10
259.351592
20
8.508208
30
0
11
262.523671
21
8.947814
31
0
12
262.529366
22
8.11184
32
0
13
262.529366
23
8.11184
33
0
39
0
210
0
220
0
230
1
0
SOLID
5
299
100
AcDbEntity
8
2
62
256
6
ByLayer
370
18
48
1
60
0
100
AcDbTrace
10
278.99758
20
27.480119
30
0
11
279.282804
21
24.290451
31
0
12
278.447538
22
24.325312
32
0
13
278.447538
23
24.325312
33
0
39
0
210
0
220
0
230
1
0
ENDBLK
5
29B
100
AcDbEntity
8
0
100
AcDbBlockEnd
0
BLOCK
5
2A0
100
AcDbEntity
8
0
100
AcDbBlockBegin
2
*D13
70
1
10
0
20
0
30
0
3
*D13
0
LINE
5
2A2
100
AcDbEntity
8
0
62
256
6
ByLayer
370
-2
48
1
60
0
100
AcDbLine
10
250.285824
20
0
30
0
11
290.5
21
0
31
0
39
0
210
0
220
0
230
1
0
LINE
5
2A3
100
AcDbEntity
8
0
62
256
6
ByLayer
370
-2
48
1
60
0
100
AcDbLine
10
262
20
27.480119
30
0
11
290.5
21
27.480119
31
0
39
0
210
0
220
0
230
1
0
LINE
5
2A4
100
AcDbEntity
8
0
62
256
6
ByLayer
370
-2
48
1
60
0
100
AcDbLine
10
288.5
20
0
30
0
11
288.5
21
27.480119
31
0
39
0
210
0
220
0
230
1
0
SOLID
5
2A5
100
AcDbEntity
8
0
62
256
6
ByLayer
370
-1
48
1
60
0
100
AcDbTrace
10
289.029167
20
24.305119
30
0
11
287.970833
21
24.305119
31
0
12
288.5
22
27.480119
32
0
13
288.5
23
27.480119
33
0
39
0
210
0
220
0
230
1
0
MTEXT
5
2A6
100
AcDbEntity
8
0
62
256
6
ByLayer
370
18
48
1
60
0
100
AcDbMText
10
279.75
20
-13.008333
30
0
210
0
220
0
230
1
1
\A1;27
40
3.5
41
0
44
1
50
90
71
5
72
5
7
iso_b_vert
0
POINT
5
2A7
100
AcDbEntity
8
Defpoints
62
0
6
ByLayer
370
-1
48
1
60
0
100
AcDbPoint
10
248.285824
20
0
30
0
39
0
210
0
220
0
230
1
50
360
0
POINT
5
2A8
100
AcDbEntity
8
Defpoints
62
0
6
ByLayer
370
-1
48
1
60
0
100
AcDbPoint
10
260
20
27.480119
30
0
39
0
210
0
220
0
230
1
50
360
0
POINT
5
2A9
100
AcDbEntity
8
Defpoints
62
0
6
ByLayer
370
-1
48
1
60
0
100
AcDbPoint
10
288.5
20
27.480119
30
0
39
0
210
0
220
0
230
1
50
360
0
ENDBLK
5
2A1
100
AcDbEntity
8
0
100
AcDbBlockEnd
0
BLOCK
5
2AF
100
AcDbEntity
8
0
100
AcDbBlockBegin
2
_U6
70
0
10
0
20
0
30
0
3
_U6
0
MTEXT
5
2AB
100
AcDbEntity
8
2
62
256
6
ByLayer
370
18
48
1
60
0
100
AcDbMText
10
287.810366
20
-18.00813
30
0
210
0
220
0
230
1
1
\W0.7215;Dc = 69.0 - 87.0
40
3.5
41
0
44
1.084337
50
90
71
7
72
5
7
iso_b_vert
0
LINE
5
2AC
100
AcDbEntity
8
2
62
256
6
ByLayer
370
18
48
1
60
0
100
AcDbLine
10
262
20
27.480119
30
0
11
290.5
21
27.480119
31
0
39
0
210
0
220
0
230
1
0
LINE
5
2AD
100
AcDbEntity
8
2
62
256
6
ByLayer
370
18
48
1
60
0
100
AcDbLine
10
288.5
20
27.480119
30
0
11
288.5
21
-18.16563
31
0
39
0
210
0
220
0
230
1
0
SOLID
5
2AE
100
AcDbEntity
8
2
62
256
6
ByLayer
370
18
48
1
60
0
100
AcDbTrace
10
288.5
20
27.480119
30
0
11
288.917997
21
24.305121
31
0
12
288.082003
22
24.305117
32
0
13
288.082003
23
24.305117
33
0
39
0
210
0
220
0
230
1
0
ENDBLK
5
2B0
100
AcDbEntity
8
0
100
AcDbBlockEnd
0
ENDSEC
0
SECTION
2
ENTITIES
0
ARC
5
11C
100
AcDbEntity
8
1
62
256
6
ByLayer
370
18
48
1
60
0
100
AcDbCircle
39
0
10
237
20
2.5
30
0
40
3.30950000000001
210
0
220
0
230
1
100
AcDbArc
50
75
51
345
0
ARC
5
11E
100
AcDbEntity
8
1
62
256
6
ByLayer
370
18
48
1
60
0
100
AcDbCircle
39
0
10
259.26727
20
17.465486
30
0
40
0.396875000000014
210
0
220
0
230
1
100
AcDbArc
50
238
51
358
0
ARC
5
11F
100
AcDbEntity
8
1
62
256
6
ByLayer
370
18
48
1
60
0
100
AcDbCircle
39
0
10
259.603132
20
27.083331
30
0
40
0.396874999999996
210
0
220
0
230
1
100
AcDbArc
50
358
51
118
0
ARC
5
120
100
AcDbEntity
8
1
62
256
6
ByLayer
370
18
48
1
60
0
100
AcDbCircle
39
0
10
251.105903
20
22.565274
30
0
40
0.396874999999988
210
0
220
0
230
1
100
AcDbArc
50
118
51
238
0
ARC
5
125
100
AcDbEntity
8
1
62
256
6
ByLayer
370
18
48
1
60
0
100
AcDbCircle
39
0
10
251.105903
20
22.565274
30
0
40
0.396874999999988
210
0
220
0
230
1
100
AcDbArc
50
118
51
238
0
ARC
5
126
100
AcDbEntity
8
1
62
256
6
ByLayer
370
18
48
1
60
0
100
AcDbCircle
39
0
10
259.26727
20
17.465486
30
0
40
0.396875000000014
210
0
220
0
230
1
100
AcDbArc
50
238
51
358
0
ARC
5
127
100
AcDbEntity
8
1
62
256
6
ByLayer
370
18
48
1
60
0
100
AcDbCircle
39
0
10
259.603132
20
27.083331
30
0
40
0.396874999999996
210
0
220
0
230
1
100
AcDbArc
50
358
51
118
0
ARC
5
12A
100
AcDbEntity
8
1
62
256
6
ByLayer
370
18
48
1
60
0
100
AcDbCircle
39
0
10
224.86188
20
22.7
30
0
40
0.799999999994028
210
0
220
0
230
1
100
AcDbArc
50
210
51
270
0
ARC
5
12C
100
AcDbEntity
8
1
62
256
6
ByLayer
370
18
48
1
60
0
100
AcDbCircle
39
0
10
256.658768
20
22.371364
30
0
40
0.747999999999993
210
0
220
0
230
1
100
AcDbArc
50
208.024579
51
267.975421
0
ARC
5
12D
100
AcDbEntity
8
1
62
256
6
ByLayer
370
18
48
1
60
0
100
AcDbCircle
39
0
10
256.658768
20
22.371364
30
0
40
0.748000000000028
210
0
220
0
230
1
100
AcDbArc
50
150.161847
51
208.024579
0
ARC
5
12E
100
AcDbEntity
8
1
62
256
6
ByLayer
370
18
48
1
60
0
100
AcDbCircle
39
0
10
256.658768
20
22.371364
30
0
40
0.747999999999991
210
0
220
0
230
1
100
AcDbArc
50
87.975421
51
145.838153
0
ARC
5
12F
100
AcDbEntity
8
1
62
256
6
ByLayer
370
18
48
1
60
0
100
AcDbCircle
39
0
10
256.658768
20
22.371364
30
0
40
0.747999999999993
210
0
220
0
230
1
100
AcDbArc
50
28.024579
51
87.975421
0
ARC
5
130
100
AcDbEntity
8
1
62
256
6
ByLayer
370
18
48
1
60
0
100
AcDbCircle
39
0
10
256.658768
20
22.371364
30
0
40
0.748000000000028
210
0
220
0
230
1
100
AcDbArc
50
330.161847
51
28.024579
0
ARC
5
131
100
AcDbEntity
8
1
62
256
6
ByLayer
370
18
48
1
60
0
100
AcDbCircle
39
0
10
256.658768
20
22.371364
30
0
40
0.747999999999991
210
0
220
0
230
1
100
AcDbArc
50
267.975421
51
325.838153
0
ARC
5
132
100
AcDbEntity
8
1
62
256
6
ByLayer
370
18
48
1
60
0
100
AcDbCircle
39
0
10
256.658768
20
22.371364
30
0
40
0.748000000000013
210
0
220
0
230
1
100
AcDbArc
50
325.838153
51
330.161847
0
ARC
5
134
100
AcDbEntity
8
1
62
256
6
ByLayer
370
18
48
1
60
0
100
AcDbCircle
39
0
10
256.658768
20
22.371364
30
0
40
1.03499999999999
210
0
220
0
230
1
100
AcDbArc
50
238
51
297.950841
0
ARC
5
135
100
AcDbEntity
8
1
62
256
6
ByLayer
370
18
48
1
60
0
100
AcDbCircle
39
0
10
256.658768
20
22.371364
30
0
40
1.03499999999998
210
0
220
0
230
1
100
AcDbArc
50
297.950841
51
358.049159
0
ARC
5
137
100
AcDbEntity
8
1
62
256
6
ByLayer
370
18
48
1
60
0
100
AcDbCircle
39
0
10
256.658768
20
22.371364
30
0
40
1.03499999999999
210
0
220
0
230
1
100
AcDbArc
50
358.049159
51
58
0
ARC
5
138
100
AcDbEntity
8
1
62
256
6
ByLayer
370
18
48
1
60
0
100
AcDbCircle
39
0
10
256.658768
20
22.371364
30
0
40
1.03499999999999
210
0
220
0
230
1
100
AcDbArc
50
178.049159
51
238
0
ARC
5
139
100
AcDbEntity
8
1
62
256
6
ByLayer
370
18
48
1
60
0
100
AcDbCircle
39
0
10
256.658768
20
22.371364
30
0
40
1.03499999999999
210
0
220
0
230
1
100
AcDbArc
50
58
51
117.950841
0
ARC
5
13A
100
AcDbEntity
8
1
62
256
6
ByLayer
370
18
48
1
60
0
100
AcDbCircle
39
0
10
256.658768
20
22.371364
30
0
40
1.03499999999998
210
0
220
0
230
1
100
AcDbArc
50
117.950841
51
178.049159
0
ARC
5
13B
100
AcDbEntity
8
1
62
256
6
ByLayer
370
18
48
1
60
0
100
AcDbCircle
39
0
10
256.658768
20
22.371364
30
0
40
0.748000000000013
210
0
220
0
230
1
100
AcDbArc
50
145.838153
51
150.161847
0
ARC
5
13C
100
AcDbEntity
8
1
62
256
6
ByLayer
370
18
48
1
60
0
100
AcDbCircle
39
0
10
219.7
20
24.7
30
0
40
0.300000000000011
210
0
220
0
230
1
100
AcDbArc
50
0
51
90
0
ARC
5
13D
100
AcDbEntity
8
1
62
256
6
ByLayer
370
18
48
1
60
0
100
AcDbCircle
39
0
10
219.7
20
-24.7
30
0
40
0.300000000000011
210
0
220
0
230
1
100
AcDbArc
50
270
51
0
0
ARC
5
13E
100
AcDbEntity
8
1
62
256
6
ByLayer
370
18
48
1
60
0
100
AcDbCircle
39
0
10
251.061961
20
22.566938
30
0
40
1.05000000000008
210
0
220
0
230
1
100
AcDbArc
50
48.911654
51
94.602037
0
ARC
5
13F
100
AcDbEntity
8
1
62
256
6
ByLayer
370
18
48
1
60
0
100
AcDbCircle
39
0
10
251.061961
20
22.566938
30
0
40
1.05000000000008
210
0
220
0
230
1
100
AcDbArc
50
94.602037
51
307.073559
0
ARC
5
140
100
AcDbEntity
8
1
62
256
6
ByLayer
370
18
48
1
60
0
100
AcDbCircle
39
0
10
252.14648
20
23.170284
30
0
40
1.25
210
0
220
0
230
1
100
AcDbArc
50
148
51
159.230131
0
ARC
5
141
100
AcDbEntity
8
1
62
256
6
ByLayer
370
18
48
1
60
0
100
AcDbCircle
39
0
10
252.252464
20
23.339893
30
0
40
1.25
210
0
220
0
230
1
100
AcDbArc
50
58
51
148
0
ARC
5
142
100
AcDbEntity
8
1
62
256
6
ByLayer
370
18
48
1
60
0
100
AcDbCircle
39
0
10
252.271646
20
23.445825
30
0
40
1.24999999999977
210
0
220
0
230
1
100
AcDbArc
50
59.252344
51
126
0
CIRCLE
5
11D
100
AcDbEntity
8
1
62
256
6
ByLayer
370
18
48
1
60
0
100
AcDbCircle
10
256.658768
20
22.371364
30
0
40
1.8014146404184
39
0
210
0
220
0
230
1
0
CIRCLE
5
121
100
AcDbEntity
8
1
62
256
6
ByLayer
370
18
48
1
60
0
100
AcDbCircle
10
256.658768
20
22.371364
30
0
40
1.88122167929295
39
0
210
0
220
0
230
1
0
CIRCLE
5
122
100
AcDbEntity
8
1
62
256
6
ByLayer
370
18
48
1
60
0
100
AcDbCircle
10
256.658768
20
22.371364
30
0
40
1.90468944117779
39
0
210
0
220
0
230
1
0
CIRCLE
5
123
100
AcDbEntity
8
1
62
256
6
ByLayer
370
18
48
1
60
0
100
AcDbCircle
10
256.658768
20
22.371364
30
0
40
1.8014146404184
39
0
210
0
220
0
230
1
0
CIRCLE
5
124
100
AcDbEntity
8
1
62
256
6
ByLayer
370
18
48
1
60
0
100
AcDbCircle
10
256.658768
20
22.371364
30
0
40
1.88122167929295
39
0
210
0
220
0
230
1
0
CIRCLE
5
128
100
AcDbEntity
8
1
62
256
6
ByLayer
370
18
48
1
60
0
100
AcDbCircle
10
256.658768
20
22.371364
30
0
40
1.90468944117779
39
0
210
0
220
0
230
1
0
CIRCLE
5
129
100
AcDbEntity
8
1
62
256
6
ByLayer
370
18
48
1
60
0
100
AcDbCircle
10
237
20
2.5
30
0
40
3
39
0
210
0
220
0
230
1
0
CIRCLE
5
12B
100
AcDbEntity
8
1
62
256
6
ByLayer
370
18
48
1
60
0
100
AcDbCircle
10
237
20
2.5
30
0
40
4
39
0
210
0
220
0
230
1
0
CIRCLE
5
133
100
AcDbEntity
8
1
62
256
6
ByLayer
370
18
48
1
60
0
100
AcDbCircle
10
256.658768
20
22.371364
30
0
40
1.725
39
0
210
0
220
0
230
1
0
CIRCLE
5
136
100
AcDbEntity
8
1
62
256
6
ByLayer
370
18
48
1
60
0
100
AcDbCircle
10
256.658768
20
22.371364
30
0
40
1.3
39
0
210
0
220
0
230
1
0
ELLIPSE
5
143
100
AcDbEntity
8
1
62
256
6
ByLayer
370
18
48
1
60
0
100
AcDbEllipse
10
-1.056258
20
0
30
0
11
11.7092723497287
21
24.6771864409393
31
0
210
0
220
0
230
-1
40
0.341999
41
0.167213071908995
42
1.0818327004892
0
ELLIPSE
5
144
100
AcDbEntity
8
1
62
256
6
ByLayer
370
18
48
1
60
0
100
AcDbEllipse
10
21.056258
20
0
30
0
11
11.7092723497283
21
24.6771864409388
31
0
210
0
220
0
230
-1
40
0.341999
41
-2.9743795816808
42
-2.05975995310058
0
ELLIPSE
5
145
100
AcDbEntity
8
1
62
256
6
ByLayer
370
18
48
1
60
0
100
AcDbEllipse
10
21.056258
20
0
30
0
11
11.7092723497267
21
-24.6771864409364
31
0
210
0
220
0
230
-1
40
0.341999
41
2.05975995310052
42
2.97437958168078
0
ELLIPSE
5
146
100
AcDbEntity
8
1
62
256
6
ByLayer
370
18
48
1
60
0
100
AcDbEllipse
10
-1.056258
20
0
30
0
11
11.7092723497185
21
-24.6771864409264
31
0
210
0
220
0
230
-1
40
0.341999
41
-1.08183270048959
42
-0.167213071909056
0
ELLIPSE
5
147
100
AcDbEntity
8
1
62
256
6
ByLayer
370
18
48
1
60
0
100
AcDbEllipse
10
200.724707
20
0
30
0
11
36.9969811032251
21
8.0072230717358
31
0
210
0
220
0
230
1
40
0.640135
41
0.736537600620744
42
0.833344088607861
0
ELLIPSE
5
148
100
AcDbEntity
8
1
62
256
6
ByLayer
370
18
48
1
60
0
100
AcDbEllipse
10
201.473683
20
-0.000188
30
0
11
44.623886369756
21
7.85764155748482
31
0
210
0
220
0
230
1
40
0.531853
41
0.972151606718224
42
0.981628133988889
0
ELLIPSE
5
149
100
AcDbEntity
8
1
62
256
6
ByLayer
370
18
48
1
60
0
100
AcDbEllipse
10
282.860183
20
2.965979
30
0
11
285.74802931659
21
15.0895577710508
31
0
210
0
220
0
230
1
40
0.08737
41
1.66320884766917
42
1.67642345188899
0
ELLIPSE
5
14A
100
AcDbEntity
8
1
62
256
6
ByLayer
370
18
48
1
60
0
100
AcDbEllipse
10
258.642588
20
1.696848
30
0
11
43.3315963433235
21
4.03295858887363
31
0
210
0
220
0
230
1
40
0.573509
41
1.57370106905683
42
1.59737403835071
0
POINT
5
70
100
AcDbEntity
8
80
62
256
6
ByLayer
370
18
48
0.05
60
0
100
AcDbPoint
10
0
20
0
30
0
39
0
210
0
220
0
230
1
50
360
0
POINT
5
72
100
AcDbEntity
8
81
62
256
6
ByLayer
370
18
48
0.05
60
0
100
AcDbPoint
10
260
20
27.480119
30
0
39
0
210
0
220
0
230
1
50
360
0
SPLINE
5
14B
100
AcDbEntity
8
SK1
62
256
6
ByLayer
370
18
48
1
60
0
100
AcDbSpline
70
4
71
3
72
99
73
95
40
0
40
0
40
0
40
0
40
0.0104424465868291
40
0.0208860069249972
40
0.0313292544239288
40
0.0417712743639738
40
0.0522618125946398
40
0.0627545162861932
40
0.073246458350479
40
0.0837359577703941
40
0.0930215336491557
40
0.102308304150665
40
0.111593181577023
40
0.118562358509986
40
0.125533873008045
40
0.132504613993139
40
0.13947273576056
40
0.145273709666613
40
0.151079487580057
40
0.156885537468134
40
0.162688740594793
40
0.168487553290549
40
0.173594347608976
40
0.178712320844104
40
0.183833368573323
40
0.188951283386959
40
0.194062019569834
40
0.199163979755982
40
0.202976242249888
40
0.206792121637275
40
0.210607456762975
40
0.21441897635831
40
0.218369673275422
40
0.222325540917774
40
0.22628107890692
40
0.230231325701698
40
0.234805754004257
40
0.239394836261913
40
0.24399295379161
40
0.248592886540824
40
0.253186164924168
40
0.257763400027171
40
0.262106470137898
40
0.26645395685489
40
0.270802326301232
40
0.275146601313094
40
0.279609648988336
40
0.284075627242828
40
0.288542279983532
40
0.293006247991247
40
0.299201543364285
40
0.305402177767111
40
0.311606394513637
40
0.317810379926365
40
0.324008488367351
40
0.331935377740595
40
0.339865886191155
40
0.347797581679156
40
0.355726090434629
40
0.365473808800029
40
0.375225326350325
40
0.384979492881884
40
0.394733584320488
40
0.404483462318066
40
0.416653356441307
40
0.428825618684912
40
0.440998621617785
40
0.453169525957197
40
0.465334003614638
40
0.477499686618893
40
0.489665674940774
40
0.501830568979786
40
0.519249030046912
40
0.536668659739487
40
0.5540875039978
40
0.572542489462384
40
0.59099960889922
40
0.609458392522769
40
0.627917860493154
40
0.646376559296014
40
0.66483259780804
40
0.686970836606969
40
0.709110618093432
40
0.73125122779287
40
0.753391597693763
40
0.775530330037013
40
0.803199526650467
40
0.830870078909528
40
0.858540851856932
40
0.886210349423342
40
0.914657155382
40
0.943105032478262
40
0.971553029923308
40
1
40
1
40
1
40
1
41
1
10
-0.194913899692015
20
5.10883889935718
30
0
41
1
10
-0.198480464686641
20
5.11590233820878
30
0
41
1
10
-0.205724278915126
20
5.12997765659484
30
0
41
1
10
-0.216909975318463
20
5.15094075143897
30
0
41
1
10
-0.228448541361908
20
5.17173280884247
30
0
41
1
10
-0.240379371769497
20
5.19237005379123
30
0
41
1
10
-0.252727248306189
20
5.21283614814114
30
0
41
1
10
-0.265532012120619
20
5.23310437775911
30
0
41
1
10
-0.278813017845025
20
5.25311181935929
30
0
41
1
10
-0.292078664483769
20
5.272071343231
30
0
41
1
10
-0.30529574628617
20
5.2899908977664
30
0
41
1
10
-0.318439686850065
20
5.30687391174552
30
0
41
1
10
-0.330962719793539
20
5.32204687621202
30
0
41
1
10
-0.342752626995306
20
5.33556861187927
30
0
41
1
10
-0.35370275273488
20
5.3475039670658
30
0
41
1
10
-0.365011332546668
20
5.3591698891759
30
0
41
1
10
-0.376047103536052
20
5.36989885648936
30
0
41
1
10
-0.386757997059512
20
5.37972185563429
30
0
41
1
10
-0.397095340866505
20
5.38867010915357
30
0
41
1
10
-0.407748134975659
20
5.39732793073493
30
0
41
1
10
-0.418726508007873
20
5.40565658389849
30
0
41
1
10
-0.429592247798409
20
5.41330391665501
30
0
41
1
10
-0.440320005149277
20
5.42028689131479
30
0
41
1
10
-0.450879914725248
20
5.42662430951638
30
0
41
1
10
-0.46173789896028
20
5.43258028380149
30
0
41
1
10
-0.47288381897171
20
5.43810703672809
30
0
41
1
10
-0.484307183709983
20
5.44315682351086
30
0
41
1
10
-0.495018826494902
20
5.44730341810392
30
0
41
1
10
-0.504938964556282
20
5.45065334943749
30
0
41
1
10
-0.513999163186754
20
5.45332953687589
30
0
41
1
10
-0.523189676918391
20
5.45565233652387
30
0
41
1
10
-0.532607478208623
20
5.45762565973321
30
0
41
1
10
-0.54224677067337
20
5.45920965671652
30
0
41
1
10
-0.55209119836819
20
5.46037842109105
30
0
41
1
10
-0.561997654551909
20
5.46110314668586
30
0
41
1
10
-0.572459515986137
20
5.46138969864598
30
0
41
1
10
-0.583464919739455
20
5.46112233204966
30
0
41
1
10
-0.594981321170117
20
5.46021919654204
30
0
41
1
10
-0.606447158782274
20
5.45872071397662
30
0
41
1
10
-0.617808579488788
20
5.45665017882911
30
0
41
1
10
-0.629012346617618
20
5.45403339285335
30
0
41
1
10
-0.639836689570202
20
5.45093808488778
30
0
41
1
10
-0.650275547833311
20
5.44741994828617
30
0
41
1
10
-0.660347034039853
20
5.44355204176922
30
0
41
1
10
-0.670221239978211
20
5.43930035194941
30
0
41
1
10
-0.679976402613867
20
5.43465336441872
30
0
41
1
10
-0.689603517843077
20
5.42962670693208
30
0
41
1
10
-0.699099721643823
20
5.42423845140425
30
0
41
1
10
-0.708378549333905
20
5.41856093651692
30
0
41
1
10
-0.718612539960875
20
5.41185205530258
30
0
41
1
10
-0.72970764394461
20
5.40401335164499
30
0
41
1
10
-0.741560045239208
20
5.39495494209208
30
0
41
1
10
-0.753044864299266
20
5.38552536483552
30
0
41
1
10
-0.764173737689669
20
5.37577151724783
30
0
41
1
10
-0.77596881315163
20
5.36480004359295
30
0
41
1
10
-0.788346054451594
20
5.35255280814505
30
0
41
1
10
-0.801215275252289
20
5.33897464818142
30
0
41
1
10
-0.813636351890159
20
5.32507107386752
30
0
41
1
10
-0.826558700430988
20
5.30979910631376
30
0
41
1
10
-0.839913414872237
20
5.29312360673228
30
0
41
1
10
-0.853621518705046
20
5.2750066080644
30
0
41
1
10
-0.866833250628326
20
5.25659132259563
30
0
41
1
10
-0.879583290269262
20
5.23791726051675
30
0
41
1
10
-0.892931253909626
20
5.21745485842522
30
0
41
1
10
-0.906796615631601
20
5.19516685388242
30
0
41
1
10
-0.921086462230001
20
5.17101303513815
30
0
41
1
10
-0.934858932336295
20
5.14660793981789
30
0
41
1
10
-0.948154164939904
20
5.12198568361283
30
0
41
1
10
-0.961014373402779
20
5.09717084512452
30
0
41
1
10
-0.973463798727465
20
5.07217760848126
30
0
41
1
10
-0.985530670804216
20
5.04701801817814
30
0
41
1
10
-0.998926559573794
20
5.01806391510439
30
0
41
1
10
-1.01349021517771
20
4.98524895008248
30
0
41
1
10
-1.02905098370521
20
4.94850837807042
30
0
41
1
10
-1.04432652559881
20
4.91080092153416
30
0
41
1
10
-1.0593342138683
20
4.87213468084352
30
0
41
1
10
-1.07407358448636
20
4.83251076003025
30
0
41
1
10
-1.08828973182286
20
4.79268108650246
30
0
41
1
10
-1.10201516432179
20
4.75266215811708
30
0
41
1
10
-1.11528156600762
20
4.71247024539304
30
0
41
1
10
-1.12897725063157
20
4.66943497373439
30
0
41
1
10
-1.14303508210673
20
4.62352746790322
30
0
41
1
10
-1.15737556941752
20
4.57471596503777
30
0
41
1
10
-1.17120470443828
20
4.52570677229131
30
0
41
1
10
-1.18455129951634
20
4.47651264959531
30
0
41
1
10
-1.19851968882687
20
4.42303333983189
30
0
41
1
10
-1.21300602419933
20
4.36522389638887
30
0
41
1
10
-1.22789753572599
20
4.30303751241434
30
0
41
1
10
-1.24219571188596
20
4.24061300352598
30
0
41
1
10
-1.25606440673196
20
4.17737528175196
30
0
41
1
10
-1.26952043603931
20
4.11332594014812
30
0
41
1
10
-1.28257101590779
20
4.04846454364479
30
0
41
1
10
-1.2951150722795
20
3.98338734904591
30
0
41
1
10
-1.30316329066855
20
3.93986528950136
30
0
41
1
10
-1.30710678118804
20
3.91806976180375
30
0
0
SPLINE
5
14C
100
AcDbEntity
8
SK1
62
256
6
ByLayer
370
18
48
1
60
0
100
AcDbSpline
70
4
71
3
72
60
73
56
40
0
40
0
40
0
40
0
40
0.0220532726381536
40
0.0441102635031599
40
0.0661584494251626
40
0.0796248760211696
40
0.0931103706591706
40
0.106592277085106
40
0.120058204291374
40
0.13350819815208
40
0.144210762343582
40
0.154920348143896
40
0.165611725597162
40
0.172125794192604
40
0.178673002667942
40
0.185217684132049
40
0.191737965200395
40
0.198229341777416
40
0.20438403669155
40
0.210555585255598
40
0.216705629046547
40
0.222864476467315
40
0.229044873543131
40
0.235208561913823
40
0.241375389741445
40
0.247563822538041
40
0.253760997968654
40
0.259939786189125
40
0.268707984410123
40
0.27749717040414
40
0.286306925027948
40
0.295120940217037
40
0.303910017396275
40
0.31767206635502
40
0.331448795403157
40
0.345240210187751
40
0.359034907483125
40
0.372812044227608
40
0.396319716831331
40
0.419836519337802
40
0.443349601809538
40
0.47399702793421
40
0.504654925159286
40
0.53532241849342
40
0.565991580403107
40
0.596648457834707
40
0.634904504113724
40
0.67316529042558
40
0.711427870279977
40
0.749686362580987
40
0.800678860083839
40
0.851674375341925
40
0.902668024858802
40
0.956437384931673
40
1
40
1
40
1
40
1
41
1
10
-0.194913899692012
20
-5.1088388993695
30
0
41
1
10
-0.192654916292323
20
-5.10434709828034
30
0
41
1
10
-0.188005617437247
20
-5.09546384408826
30
0
41
1
10
-0.18067206711103
20
-5.08240889796441
30
0
41
1
10
-0.173891964271235
20
-5.07137280104649
30
0
41
1
10
-0.167828168018105
20
-5.0622380152471
30
0
41
1
10
-0.162607568196003
20
-5.05490035846743
30
0
41
1
10
-0.157125607465412
20
-5.04781961014568
30
0
41
1
10
-0.151348558157017
20
-5.04106232672456
30
0
41
1
10
-0.145659071572191
20
-5.03512659415957
30
0
41
1
10
-0.140102292506651
20
-5.029987195427
30
0
41
1
10
-0.134702255174332
20
-5.02564950229653
30
0
41
1
10
-0.129731423123592
20
-5.02231068963954
30
0
41
1
10
-0.125298931500163
20
-5.01984888078044
30
0
41
1
10
-0.121504887919087
20
-5.0181004417715
30
0
41
1
10
-0.11757455010647
20
-5.01668153185949
30
0
41
1
10
-0.113525498693779
20
-5.01565358399287
30
0
41
1
10
-0.109444880795436
20
-5.01508397508498
30
0
41
1
10
-0.105357582180632
20
-5.0150163582562
30
0
41
1
10
-0.101309318747534
20
-5.01544000810181
30
0
41
1
10
-0.0972718026182422
20
-5.01637307042189
30
0
41
1
10
-0.0933044602663997
20
-5.01784711292359
30
0
41
1
10
-0.0894540020869625
20
-5.01979846200061
30
0
41
1
10
-0.0857593050676028
20
-5.02218092663071
30
0
41
1
10
-0.0822538793566741
20
-5.02495059033154
30
0
41
1
10
-0.0789370507911621
20
-5.02803552188776
30
0
41
1
10
-0.0758116961957729
20
-5.03137751470871
30
0
41
1
10
-0.0724666220329617
20
-5.03542227620415
30
0
41
1
10
-0.0689762377617843
20
-5.04021883074874
30
0
41
1
10
-0.0654130061026165
20
-5.04579735337105
30
0
41
1
10
-0.0621307040030029
20
-5.05158073960512
30
0
41
1
10
-0.0590998269785834
20
-5.05751082558683
30
0
41
1
10
-0.0557549202743871
20
-5.06468208825899
30
0
41
1
10
-0.0521917086593754
20
-5.07312976093329
30
0
41
1
10
-0.0485272929758033
20
-5.08288744939168
30
0
41
1
10
-0.0452008588887799
20
-5.092760779698
30
0
41
1
10
-0.0421658929022885
20
-5.10271143099794
30
0
41
1
10
-0.0387102611696004
20
-5.11506442143652
30
0
41
1
10
-0.0349900313417903
20
-5.1298440180228
30
0
41
1
10
-0.0311868031648787
20
-5.14706130965087
30
0
41
1
10
-0.0274628440408926
20
-5.16606597685594
30
0
41
1
10
-0.0238549822723317
20
-5.18684605269227
30
0
41
1
10
-0.0204373399519607
20
-5.20939053014188
30
0
41
1
10
-0.0174527437287343
20
-5.2319361240649
30
0
41
1
10
-0.014839752528156
20
-5.25446627506798
30
0
41
1
10
-0.0123413237162629
20
-5.27883154728407
30
0
41
1
10
-0.0099881657988183
20
-5.30502201783436
30
0
41
1
10
-0.0078439123026966
20
-5.3330258367121
30
0
41
1
10
-0.006029834879082
20
-5.36098170002869
30
0
41
1
10
-0.0043357075093621
20
-5.3919829589111
30
0
41
1
10
-0.0028314996840771
20
-5.42600907229321
30
0
41
1
10
-0.0015993259950902
20
-5.4630336661683
30
0
41
1
10
-0.0007122109477131
20
-5.50063799267943
30
0
41
1
10
-0.0001857827821696
20
-5.53635957549738
30
0
41
1
10
-1.64358385408E-05
20
-5.5597462818796
30
0
41
1
10
2.28007309219E-05
20
-5.57020261023652
30
0
0
SPLINE
5
14D
100
AcDbEntity
8
SK1
62
256
6
ByLayer
370
18
48
1
60
0
100
AcDbSpline
70
4
71
3
72
99
73
95
40
0
40
0
40
0
40
0
40
0.0291393317431062
40
0.0582804583501135
40
0.0874219678275073
40
0.116562680364746
40
0.145701664802538
40
0.169987957136863
40
0.194276568743712
40
0.218565973233458
40
0.242854931871838
40
0.26714251454498
40
0.291428120862836
40
0.309638508817864
40
0.32784962514072
40
0.346060597547247
40
0.3642707892446
40
0.382509913093836
40
0.400750209367057
40
0.418990202511723
40
0.437228912976018
40
0.454087884506212
40
0.470947515743005
40
0.4878061919018
40
0.500452435677832
40
0.513099780655125
40
0.525746818953358
40
0.538392644492411
40
0.551169295536154
40
0.563948129302556
40
0.576726181766162
40
0.589501767203127
40
0.598386487434537
40
0.60727268731398
40
0.616158430724848
40
0.625042528389625
40
0.63399330248467
40
0.642947156394584
40
0.651899833487615
40
0.660849002241731
40
0.667464549005046
40
0.674082731151039
40
0.680700033684554
40
0.687314380469398
40
0.692703829011693
40
0.69809827487103
40
0.703493059336164
40
0.708884934164944
40
0.714272224441767
40
0.719363698252833
40
0.724468938540357
40
0.72957815077543
40
0.734683716855035
40
0.739780532444729
40
0.74486637613843
40
0.748661090219909
40
0.752459963295762
40
0.756258386109406
40
0.760052485510671
40
0.764000180296033
40
0.767953291677622
40
0.771906369556889
40
0.775854018594512
40
0.780212841737536
40
0.78458285881343
40
0.788960296270031
40
0.793339739133834
40
0.797714390535268
40
0.802076311704409
40
0.806890228171269
40
0.811709074606467
40
0.816529087996064
40
0.821344597323388
40
0.82628789537052
40
0.831234216248309
40
0.836181303582438
40
0.841125647406834
40
0.848481717933657
40
0.855843991279021
40
0.863210681185681
40
0.870577315453504
40
0.877937046785572
40
0.887339724634406
40
0.896746321933963
40
0.906154277016129
40
0.915558807109741
40
0.926082670485819
40
0.936609029940169
40
0.947136172489194
40
0.957661103960453
40
0.968244989204892
40
0.978830159471468
40
0.989415661838672
40
1
40
1
40
1
40
1
41
1
10
-1.30710678118655
20
-3.91806976180365
30
0
41
1
10
-1.30306763301215
20
-3.94039583411561
30
0
41
1
10
-1.29481998364749
20
-3.98497609079252
30
0
41
1
10
-1.28195430767806
20
-4.05163116200504
30
0
41
1
10
-1.26855443526119
20
-4.11806046220315
30
0
41
1
10
-1.254595574292
20
-4.18425387608104
30
0
41
1
10
-1.24085499912345
20
-4.24654115236023
30
0
41
1
10
-1.22742137563914
20
-4.30496234085517
30
0
41
1
10
-1.21437262752834
20
-4.35955514891197
30
0
41
1
10
-1.20083931522856
20
-4.41395840304912
30
0
41
1
10
-1.18679266403527
20
-4.46816007321545
30
0
41
1
10
-1.17220333161308
20
-4.52214798609705
30
0
41
1
10
-1.15830680265363
20
-4.57142892356816
30
0
41
1
10
-1.14523400208684
20
-4.61605531078036
30
0
41
1
10
-1.13310538877547
20
-4.65607697587486
30
0
41
1
10
-1.12059216087314
20
-4.69595164437678
30
0
41
1
10
-1.10766573177337
20
-4.73569139495682
30
0
41
1
10
-1.09430518406699
20
-4.7752883661192
30
0
41
1
10
-1.08047696673727
20
-4.81473024298546
30
0
41
1
10
-1.06615420314996
20
-4.85398126879268
30
0
41
1
10
-1.05167842495208
20
-4.89204129698103
30
0
41
1
10
-1.03706387509791
20
-4.9289138130432
30
0
41
1
10
-1.02231496410628
20
-4.9645990369952
30
0
41
1
10
-1.00827730236091
20
-4.99710293011454
30
0
41
1
10
-0.995074964281501
20
-5.0264716986575
30
0
41
1
10
-0.982826029691042
20
-5.05275280729826
30
0
41
1
10
-0.970184397989231
20
-5.07886586337425
30
0
41
1
10
-0.957078212949712
20
-5.10488382303932
30
0
41
1
10
-0.943477520477671
20
-5.13079032711569
30
0
41
1
10
-0.92933230108825
20
-5.15655767214
30
0
41
1
10
-0.914643132675436
20
-5.18206597362772
30
0
41
1
10
-0.900916910764155
20
-5.20472256320539
30
0
41
1
10
-0.888314102770298
20
-5.22459868664927
30
0
41
1
10
-0.876983336422326
20
-5.24176793444873
30
0
41
1
10
-0.865295153271582
20
-5.25874125826012
30
0
41
1
10
-0.853195038137295
20
-5.2755380248259
30
0
41
1
10
-0.84065623651613
20
-5.29213653491843
30
0
41
1
10
-0.827635287498128
20
-5.30849996635351
30
0
41
1
10
-0.814124519655808
20
-5.32454457695002
30
0
41
1
10
-0.801307940028096
20
-5.33886253989835
30
0
41
1
10
-0.789307087191002
20
-5.35152232931624
30
0
41
1
10
-0.778235087103398
20
-5.36259776634417
30
0
41
1
10
-0.766808997093239
20
-5.37338708619413
30
0
41
1
10
-0.755738063077615
20
-5.38320837290741
30
0
41
1
10
-0.745081566537473
20
-5.3920998716866
30
0
41
1
10
-0.734896061646768
20
-5.40010256627009
30
0
41
1
10
-0.724420006214021
20
-5.40781036091501
30
0
41
1
10
-0.713648140917995
20
-5.4151849683436
30
0
41
1
10
-0.702776487641617
20
-5.42206411026567
30
0
41
1
10
-0.691803271251097
20
-5.42843512199408
30
0
41
1
10
-0.680737365245582
20
-5.43428597650427
30
0
41
1
10
-0.669376180249366
20
-5.43969790924882
30
0
41
1
10
-0.657741479930964
20
-5.44461858582839
30
0
41
1
10
-0.645855659570994
20
-5.44899613255379
30
0
41
1
10
-0.634757320211656
20
-5.452460831985
30
0
41
1
10
-0.624525335038884
20
-5.45513731997736
30
0
41
1
10
-0.615221905181587
20
-5.45717229623647
30
0
41
1
10
-0.605826036458091
20
-5.45882272002226
30
0
41
1
10
-0.596232244039056
20
-5.46008945028833
30
0
41
1
10
-0.586453711634691
20
-5.46093352390369
30
0
41
1
10
-0.576512094038911
20
-5.46133509629807
30
0
41
1
10
-0.566567285352064
20
-5.46128249216755
30
0
41
1
10
-0.556306685753585
20
-5.46075744363588
30
0
41
1
10
-0.545755832393241
20
-5.45969135823298
30
0
41
1
10
-0.534945429356802
20
-5.4580477512216
30
0
41
1
10
-0.524243605890382
20
-5.45589036553185
30
0
41
1
10
-0.513687938901339
20
-5.4532471419645
30
0
41
1
10
-0.503315379293592
20
-5.4501474402923
30
0
41
1
10
-0.492797106958006
20
-5.44648901918418
30
0
41
1
10
-0.48216464477527
20
-5.44224596863504
30
0
41
1
10
-0.471437705118284
20
-5.43741479363933
30
0
41
1
10
-0.460968931744052
20
-5.43217011616058
30
0
41
1
10
-0.450672662461198
20
-5.42650054429038
30
0
41
1
10
-0.440553217078334
20
-5.42042849682702
30
0
41
1
10
-0.430609685856478
20
-5.41397517133703
30
0
41
1
10
-0.420925291030116
20
-5.40722430810514
30
0
41
1
10
-0.409960824753784
20
-5.3990637571425
30
0
41
1
10
-0.397854212018177
20
-5.38936184194187
30
0
41
1
10
-0.384760184040986
20
-5.37799514746738
30
0
41
1
10
-0.372137624319139
20
-5.36620792933951
30
0
41
1
10
-0.359963022170373
20
-5.35405837898608
30
0
41
1
10
-0.347116525403935
20
-5.3404430739313
30
0
41
1
10
-0.333693582172309
20
-5.32530308893505
30
0
41
1
10
-0.319799637148259
20
-5.30857934621002
30
0
41
1
10
-0.306440314516699
20
-5.29150531977977
30
0
41
1
10
-0.293060894484741
20
-5.27343929999191
30
0
41
1
10
-0.279678391741662
20
-5.25438221196241
30
0
41
1
10
-0.266323173403283
20
-5.23432621187161
30
0
41
1
10
-0.253449510550654
20
-5.21400590743936
30
0
41
1
10
-0.240995351325233
20
-5.19341476974044
30
0
41
1
10
-0.228924873626157
20
-5.17257759067721
30
0
41
1
10
-0.217217087988905
20
-5.15150903608622
30
0
41
1
10
-0.20587257966084
20
-5.13026427435949
30
0
41
1
10
-0.19852884538373
20
-5.11599836922845
30
0
41
1
10
-0.194913899692011
20
-5.10883889935726
30
0
0
SPLINE
5
14E
100
AcDbEntity
8
SK1
62
256
6
ByLayer
370
18
48
1
60
0
100
AcDbSpline
70
4
71
2
72
6
73
3
40
0
40
0
40
0
40
1
40
1
40
1
41
1
10
-28.5000001
20
-16.8593574820796
30
0
41
1
10
-15.2499685554643
20
-17.1922401453993
30
0
41
1
10
-1.99993701093306
20
-17.5251228076665
30
0
0
SPLINE
5
14F
100
AcDbEntity
8
SK1
62
256
6
ByLayer
370
18
48
1
60
0
100
AcDbSpline
70
4
71
2
72
6
73
3
40
0
40
0
40
0
40
1
40
1
40
1
41
1
10
-1.99993701093306
20
17.5251228076665
30
0
41
1
10
-15.2499685554643
20
17.1922401453994
30
0
41
1
10
-28.5000001
20
16.8593574820796
30
0
0
SPLINE
5
150
100
AcDbEntity
8
SK1
62
256
6
ByLayer
370
18
48
1
60
0
100
AcDbSpline
70
4
71
3
72
43
73
39
40
0
40
0
40
0
40
0
40
0.0386765278122269
40
0.0764452052760944
40
0.113150167887853
40
0.148646004011919
40
0.182799293161321
40
0.215489648520171
40
0.246610267912038
40
0.276068025524505
40
0.300984442588355
40
0.32445294558856
40
0.346432544186079
40
0.366889308358253
40
0.385795686534678
40
0.402834168178435
40
0.41833994012847
40
0.433352591707541
40
0.44990997637069
40
0.468409347406241
40
0.488561364994595
40
0.5103586175286
40
0.533788402395543
40
0.558831700063902
40
0.58497292451637
40
0.612612280073236
40
0.641708215283896
40
0.672209693489435
40
0.701107242072836
40
0.731062470550013
40
0.762014429346748
40
0.793894778785213
40
0.826627969446042
40
0.86013160987037
40
0.89431702739762
40
0.92909001939181
40
0.964351782741799
40
1
40
1
40
1
40
1
41
1
10
-1.99993701093306
20
-17.5251228132532
30
0
41
1
10
-1.99983494910591
20
-17.5210691085651
30
0
41
1
10
-1.99939123072536
20
-17.5130797362344
30
0
41
1
10
-1.99802451286923
20
-17.5013017331595
30
0
41
1
10
-1.99602972586597
20
-17.4899555851337
30
0
41
1
10
-1.99348162708644
20
-17.479108734839
30
0
41
1
10
-1.99046277844364
20
-17.4688214420282
30
0
41
1
10
-1.98706027713813
20
-17.4591393504623
30
0
41
1
10
-1.98336323535968
20
-17.4500954944575
30
0
41
1
10
-1.97958396541692
20
-17.4419762143779
30
0
41
1
10
-1.97583088650255
20
-17.4347380992897
30
0
41
1
10
-1.97219231617267
20
-17.428329109638
30
0
41
1
10
-1.96857244690546
20
-17.4224520128121
30
0
41
1
10
-1.96502291557901
20
-17.417097330289
30
0
41
1
10
-1.96160890892932
20
-17.4122775289449
30
0
41
1
10
-1.95837202826111
20
-17.4079708687115
30
0
41
1
10
-1.95527982963734
20
-17.4040684748417
30
0
41
1
10
-1.95212760612892
20
-17.4002804368874
30
0
41
1
10
-1.94867545811556
20
-17.3963350870497
30
0
41
1
10
-1.94475034079441
20
-17.3920908372262
30
0
41
1
10
-1.94031328467329
20
-17.3875759581811
30
0
41
1
10
-1.93535578175222
20
-17.3828532496378
30
0
41
1
10
-1.92985018800761
20
-17.3779693655201
30
0
41
1
10
-1.92381080775869
20
-17.3730095729212
30
0
41
1
10
-1.91722506268725
20
-17.3680304362392
30
0
41
1
10
-1.91008552758579
20
-17.3630921520297
30
0
41
1
10
-1.90234599539696
20
-17.3582338039816
30
0
41
1
10
-1.89427245213075
20
-17.3536779483275
30
0
41
1
10
-1.88591527388946
20
-17.3494632479975
30
0
41
1
10
-1.8773289153726
20
-17.3456197995474
30
0
41
1
10
-1.86827741388498
20
-17.3420773925792
30
0
41
1
10
-1.85878607165708
20
-17.3388931742333
30
0
41
1
10
-1.84888778831396
20
-17.3361224131583
30
0
41
1
10
-1.83862306120107
20
-17.3338171637615
30
0
41
1
10
-1.82803927490425
20
-17.3320249301299
30
0
41
1
10
-1.81719158238755
20
-17.3307873957059
30
0
41
1
10
-1.80613631357843
20
-17.3301391431741
30
0
41
1
10
-1.79871298149672
20
-17.3301178125386
30
0
41
1
10
-1.79497698875896
20
-17.3302115004059
30
0
0
SPLINE
5
151
100
AcDbEntity
8
SK1
62
256
6
ByLayer
370
18
48
1
60
0
100
AcDbSpline
70
4
71
3
72
43
73
39
40
0
40
0
40
0
40
0
40
0.03868435951279
40
0.0764600307603216
40
0.113171204038243
40
0.148672504455207
40
0.182830528711039
40
0.215524885608438
40
0.246648744312913
40
0.276108922390567
40
0.301026738473719
40
0.324495819812314
40
0.346475052694738
40
0.366930343828596
40
0.385833926643994
40
0.402868100527491
40
0.418367656030319
40
0.433372289719355
40
0.449921727592621
40
0.468413338916658
40
0.488558049684782
40
0.510348540916344
40
0.533772185192599
40
0.558810027178543
40
0.584946616327207
40
0.612582106302881
40
0.64167499971472
40
0.672174317669649
40
0.701070720973437
40
0.731025639230555
40
0.761978183655072
40
0.793860083454847
40
0.826595867280782
40
0.860103231929166
40
0.894293604093856
40
0.929072892421899
40
0.964342417764743
40
1
40
1
40
1
40
1
41
1
10
-1.79497698875896
20
17.3302115004059
30
0
41
1
10
-1.79903066504686
20
17.33010993105
30
0
41
1
10
-1.80703216619746
20
17.3301520075984
30
0
41
1
10
-1.81886395657442
20
17.3309256793201
30
0
41
1
10
-1.83029598310675
20
17.3323482847405
30
0
41
1
10
-1.84125713635847
20
17.3343485471388
30
0
41
1
10
-1.85168308670229
20
17.3368470396272
30
0
41
1
10
-1.86152387425268
20
17.3397590703576
30
0
41
1
10
-1.8707420310709
20
17.3429973019941
30
0
41
1
10
-1.87904092404732
20
17.3463640766331
30
0
41
1
10
-1.88645845668149
20
17.3497489353883
30
0
41
1
10
-1.89304214976845
20
17.3530610531257
30
0
41
1
10
-1.89909368521079
20
17.3563811961674
30
0
41
1
10
-1.90461993147095
20
17.3596573149872
30
0
41
1
10
-1.90960517174512
20
17.3628249377801
30
0
41
1
10
-1.91406899716797
20
17.3658414034449
30
0
41
1
10
-1.91812193189299
20
17.3687337542751
30
0
41
1
10
-1.92206399001994
20
17.3716920438374
30
0
41
1
10
-1.9261777460848
20
17.3749416265607
30
0
41
1
10
-1.93061383304273
20
17.3786485997284
30
0
41
1
10
-1.93534589544845
20
17.3828532489972
30
0
41
1
10
-1.94031166964571
20
17.3875672472174
30
0
41
1
10
-1.94546594066514
20
17.3928205410954
30
0
41
1
10
-1.95072283024451
20
17.3986031268362
30
0
41
1
10
-1.95602647794991
20
17.4049304094895
30
0
41
1
10
-1.96131713656202
20
17.4118128305439
30
0
41
1
10
-1.96655808918688
20
17.4192984988012
30
0
41
1
10
-1.97151369151179
20
17.4271329323156
30
0
41
1
10
-1.97614280780937
20
17.4352677720084
30
0
41
1
10
-1.98041264842312
20
17.4436501557782
30
0
41
1
10
-1.98440517807098
20
17.4525122069982
30
0
41
1
10
-1.9880620491327
20
17.4618315248277
30
0
41
1
10
-1.99132640847508
20
17.4715780261487
30
0
41
1
10
-1.99414423178021
20
17.4817138780397
30
0
41
1
10
-1.99646569279594
20
17.4921941406924
30
0
41
1
10
-1.9982463912394
20
17.502965821793
30
0
41
1
10
-1.99944894949249
20
17.5139744025046
30
0
41
1
10
-1.9998429981793
20
17.5213869868512
30
0
41
1
10
-1.99993701093306
20
17.5251228132532
30
0
0
SPLINE
5
152
100
AcDbEntity
8
SK1
62
256
6
ByLayer
370
18
48
1
60
0
100
AcDbSpline
70
4
71
2
72
6
73
3
40
0
40
0
40
0
40
1
40
1
40
1
41
1
10
-30
20
-15.9933445769747
30
0
41
1
10
-29.2500000499234
20
-16.4263517488186
30
0
41
1
10
-28.5000001
20
-16.8593589208717
30
0
0
SPLINE
5
153
100
AcDbEntity
8
SK1
62
256
6
ByLayer
370
18
48
1
60
0
100
AcDbSpline
70
4
71
2
72
6
73
3
40
0
40
0
40
0
40
1
40
1
40
1
41
1
10
-28.5000001
20
16.8593589208717
30
0
41
1
10
-29.2500000499234
20
16.4263517488186
30
0
41
1
10
-30
20
15.9933445769747
30
0
0
SPLINE
5
154
100
AcDbEntity
8
SK1
62
256
6
ByLayer
370
18
48
1
60
0
100
AcDbSpline
70
4
71
3
72
111
73
107
40
0
40
0
40
0
40
0
40
0.0123274854487407
40
0.0246553029795055
40
0.0369831010651626
40
0.0493105599971253
40
0.05917269006525
40
0.0690351164149021
40
0.0788976270076596
40
0.088760025689377
40
0.0986221325514447
40
0.108484474986433
40
0.118347158968548
40
0.128209938916226
40
0.138072588808483
40
0.147934902650996
40
0.157896657613496
40
0.167858822033234
40
0.177821100207745
40
0.187783221286661
40
0.197744939897311
40
0.207809216670942
40
0.21787398811119
40
0.227938896054333
40
0.238003613358403
40
0.248067844725287
40
0.258132526747656
40
0.268197789007392
40
0.278263211928853
40
0.288328411717194
40
0.298393041341206
40
0.308458178271951
40
0.318523990514196
40
0.328589992699896
40
0.338655737862442
40
0.348720818529049
40
0.357270436500101
40
0.365820691423519
40
0.37437124169931
40
0.382921764361107
40
0.391471955557588
40
0.400021531040903
40
0.408241935048014
40
0.416462961571243
40
0.424684284751455
40
0.432905590462701
40
0.44112657667142
40
0.449346953800176
40
0.457567547178265
40
0.465788793140014
40
0.474010359851158
40
0.482231919823113
40
0.490453150232275
40
0.498673733241152
40
0.506894348412371
40
0.515115612203812
40
0.523337205627807
40
0.531558805153313
40
0.539780083025721
40
0.548000707584995
40
0.556454603200921
40
0.564909163228229
40
0.573364071853468
40
0.58181899960659
40
0.590273603776922
40
0.598727528823869
40
0.60731840952677
40
0.615909916584112
40
0.624501760800973
40
0.633093633066704
40
0.641685204854609
40
0.65027612871442
40
0.658866595229281
40
0.667457606133032
40
0.676048914743706
40
0.684640253212355
40
0.693231333021352
40
0.701821845476017
40
0.712129958909558
40
0.722438683206165
40
0.732747647455642
40
0.743056440360195
40
0.753364611339326
40
0.763916228822578
40
0.774468401428797
40
0.785020793404785
40
0.795573030840703
40
0.80612470270014
40
0.815791676638519
40
0.82545901487916
40
0.835126494649769
40
0.844793870864138
40
0.85446087665266
40
0.864127604433311
40
0.873794646922955
40
0.883461810839546
40
0.893128884559063
40
0.902795638533372
40
0.914878833998546
40
0.926962393132729
40
0.939045974309559
40
0.951129199833782
40
0.963346723832533
40
0.97556457776661
40
0.987782450442944
40
1
40
1
40
1
40
1
41
1
10
-1.30710678118655
20
-3.91806976180369
30
0
41
1
10
-1.31262194829621
20
-3.88761595967491
30
0
41
1
10
-1.32359615322848
20
-3.826611555892
30
0
41
1
10
-1.33989304666623
20
-3.73481665993141
30
0
41
1
10
-1.35601237529627
20
-3.64273385406075
30
0
41
1
10
-1.37088340659692
20
-3.55652165935509
30
0
41
1
10
-1.38453952449382
20
-3.47624307885509
30
0
41
1
10
-1.39701474064604
20
-3.40195445019539
30
0
41
1
10
-1.40935394319725
20
-3.32748153281861
30
0
41
1
10
-1.42155143680397
20
-3.25282610129514
30
0
41
1
10
-1.43360180191491
20
-3.17798819637382
30
0
41
1
10
-1.44549970576545
20
-3.10296719123719
30
0
41
1
10
-1.45723921345056
20
-3.02776251526452
30
0
41
1
10
-1.46881405131526
20
-2.95237564363062
30
0
41
1
10
-1.48021779700314
20
-2.87680898891153
30
0
41
1
10
-1.49148195568662
20
-2.80080905681629
30
0
41
1
10
-1.50259834392453
20
-2.72437331672895
30
0
41
1
10
-1.51355795348691
20
-2.64749945903286
30
0
41
1
10
-1.52431655517091
20
-2.5704441909417
30
0
41
1
10
-1.53486675789188
20
-2.49321090972073
30
0
41
1
10
-1.54523686015598
20
-2.41553576521878
30
0
41
1
10
-1.55541718961452
20
-2.33741659805001
30
0
41
1
10
-1.56539728508388
20
-2.25885167848037
30
0
41
1
10
-1.57513440891305
20
-2.1801097736515
30
0
41
1
10
-1.58462020320026
20
-2.10119568331685
30
0
41
1
10
-1.59384671056693
20
-2.02211107988234
30
0
41
1
10
-1.6028059143856
20
-1.94285661585472
30
0
41
1
10
-1.61148952905378
20
-1.86343352602362
30
0
41
1
10
-1.61988893172156
20
-1.78384681079335
30
0
41
1
10
-1.62799527922697
20
-1.70410298588379
30
0
41
1
10
-1.63580015275131
20
-1.62420491889923
30
0
41
1
10
-1.64329496084328
20
-1.54415421562379
30
0
41
1
10
-1.65047142645701
20
-1.4639533261616
30
0
41
1
10
-1.65732103975323
20
-1.38360907617898
30
0
41
1
10
-1.66383503636621
20
-1.30313011940184
30
0
41
1
10
-1.66969531714553
20
-1.22656782669998
30
0
41
1
10
-1.67495250751165
20
-1.15394674914832
30
0
41
1
10
-1.67965744229362
20
-1.08528768109054
30
0
41
1
10
-1.68409895467013
20
-1.01654342053035
30
0
41
1
10
-1.68827233223651
20
-0.94772070522272
30
0
41
1
10
-1.69217286738029
20
-0.878826292539904
30
0
41
1
10
-1.69574952698865
20
-0.810749585139686
30
0
41
1
10
-1.69901017695605
20
-0.743495545680927
30
0
41
1
10
-1.701964363137
20
-0.677068970972492
30
0
41
1
10
-1.70465226346755
20
-0.610588612910261
30
0
41
1
10
-1.7070709350916
20
-0.544061631580136
30
0
41
1
10
-1.70921743929708
20
-0.477495191584545
30
0
41
1
10
-1.71108895183354
20
-0.410893480921955
30
0
41
1
10
-1.7126825101314
20
-0.344258786857381
30
0
41
1
10
-1.71399708942215
20
-0.277593747451818
30
0
41
1
10
-1.71503166593527
20
-0.210904144734696
30
0
41
1
10
-1.7157851319058
20
-0.144197846281699
30
0
41
1
10
-1.71625638725913
20
-0.0774827204452048
30
0
41
1
10
-1.71644434269559
20
-0.0107639494186397
30
0
41
1
10
-1.7163478331378
20
0.0559557744087706
30
0
41
1
10
-1.71596788947796
20
0.12267374803091
30
0
41
1
10
-1.71530550860653
20
0.189384603061841
30
0
41
1
10
-1.71436168368841
20
0.256080450712469
30
0
41
1
10
-1.71313741539662
20
0.322753405104164
30
0
41
1
10
-1.71161939767108
20
0.390028604627077
30
0
41
1
10
-1.70979920943941
20
0.457902539184939
30
0
41
1
10
-1.70767055075351
20
0.526371467895197
30
0
41
1
10
-1.70525335045302
20
0.594800107849059
30
0
41
1
10
-1.70255072935321
20
0.66318062321224
30
0
41
1
10
-1.69956581964009
20
0.731505184476263
30
0
41
1
10
-1.6962839275561
20
0.800137385232114
30
0
41
1
10
-1.69270279244347
20
0.869073746350943
30
0
41
1
10
-1.68882187426983
20
0.938311100194095
30
0
41
1
10
-1.6846648720895
20
1.00747669286061
30
0
41
1
10
-1.68023654121454
20
1.07656364119623
30
0
41
1
10
-1.6755416372518
20
1.14556506513799
30
0
41
1
10
-1.67058474471182
20
1.21447555770065
30
0
41
1
10
-1.66537039836667
20
1.28329345878184
30
0
41
1
10
-1.65990395857997
20
1.35201777325076
30
0
41
1
10
-1.65419055017674
20
1.42064637793007
30
0
41
1
10
-1.64823561176461
20
1.48917388485561
30
0
41
1
10
-1.64204457529674
20
1.55759491904518
30
0
41
1
10
-1.63519461357531
20
1.63045908709189
30
0
41
1
10
-1.62763508106542
20
1.70773896905514
30
0
41
1
10
-1.61931502670684
20
1.78940288582476
30
0
41
1
10
-1.61068818334628
20
1.87090178625364
30
0
41
1
10
-1.60176404802036
20
1.95222868978383
30
0
41
1
10
-1.59247921275948
20
2.03401835216732
30
0
41
1
10
-1.58283480332737
20
2.11626467094724
30
0
41
1
10
-1.5728322016718
20
2.19896181289601
30
0
41
1
10
-1.56255544238356
20
2.28146914043355
30
0
41
1
10
-1.55201411655461
20
2.36378120466221
30
0
41
1
10
-1.54151919339358
20
2.44360031397952
30
0
41
1
10
-1.53110313163078
20
2.52094467585839
30
0
41
1
10
-1.52079487493067
20
2.59583296178461
30
0
41
1
10
-1.51029259582241
20
2.67055314638873
30
0
41
1
10
-1.49960300337583
20
2.74510219122293
30
0
41
1
10
-1.48873266650572
20
2.81947802567289
30
0
41
1
10
-1.47768779106815
20
2.89368087936638
30
0
41
1
10
-1.46647402898132
20
2.96771112869152
30
0
41
1
10
-1.45509711431903
20
3.04156848921489
30
0
41
1
10
-1.44356306804927
20
3.11525072583364
30
0
41
1
10
-1.43090402268796
20
3.19488182404333
30
0
41
1
10
-1.41707991261685
20
3.28040794130711
30
0
41
1
10
-1.40205061797575
20
3.37176858426885
30
0
41
1
10
-1.38681365696133
20
3.46285383552342
30
0
41
1
10
-1.37132199901498
20
3.55399876427987
30
0
41
1
10
-1.35558292996909
20
3.64520038458868
30
0
41
1
10
-1.33960336770432
20
3.73645561709063
30
0
41
1
10
-1.32344957101572
20
3.82742804046678
30
0
41
1
10
-1.31257274529972
20
3.88788754589646
30
0
41
1
10
-1.30710678118655
20
3.91806976180357
30
0
0
SPLINE
5
155
100
AcDbEntity
8
SK1
62
256
6
ByLayer
370
18
48
1
60
0
100
AcDbSpline
70
4
71
2
72
6
73
3
40
0
40
0
40
0
40
1
40
1
40
1
41
1
10
-1.79497698875896
20
-17.330211500406
30
0
41
1
10
-0.99494544422549
20
-17.3503108209267
30
0
41
1
10
-0.194913899692036
20
-17.3704101414438
30
0
0
SPLINE
5
156
100
AcDbEntity
8
SK1
62
256
6
ByLayer
370
18
48
1
60
0
100
AcDbSpline
70
4
71
2
72
6
73
3
40
0
40
0
40
0
40
1
40
1
40
1
41
1
10
-0.194913899692036
20
17.3704101414437
30
0
41
1
10
-0.99494544422549
20
17.3503108209267
30
0
41
1
10
-1.79497698875896
20
17.3302115004059
30
0
0
SPLINE
5
157
100
AcDbEntity
8
SK1
62
256
6
ByLayer
370
18
48
1
60
0
100
AcDbSpline
70
4
71
3
72
60
73
56
40
0
40
0
40
0
40
0
40
0.051931946679807
40
0.110765408093044
40
0.154898088338184
40
0.19903410254052
40
0.243168905514442
40
0.287299933951448
40
0.322931451869407
40
0.358571029303696
40
0.394210099867115
40
0.4298434693518
40
0.465469779497642
40
0.492453983348462
40
0.519445006379588
40
0.54643193270514
40
0.573410548573003
40
0.592773869770098
40
0.612159008280194
40
0.631539267814461
40
0.650900455552246
40
0.67024366835362
40
0.680767092418964
40
0.691299779632741
40
0.701826565739501
40
0.712341934930972
40
0.720884234294597
40
0.729469907427953
40
0.738047536120489
40
0.746588419337976
40
0.75509297733503
40
0.761559474890859
40
0.768039769645582
40
0.774498200688885
40
0.781003931508041
40
0.787534365916419
40
0.794040906488208
40
0.800030323109739
40
0.806036293516579
40
0.812031738671025
40
0.819799185122905
40
0.827592812150697
40
0.835399788701423
40
0.843185494586633
40
0.852821535789485
40
0.862470866145724
40
0.872127078237004
40
0.881772515335875
40
0.89497845938208
40
0.908191057382525
40
0.921400609041088
40
0.941041419310938
40
0.960693346738868
40
0.980351159776072
40
1
40
1
40
1
40
1
41
1
10
1.79062759488E-05
20
5.56901350743794
30
0
41
1
10
-3.06620122916E-05
20
5.55656799084989
30
0
41
1
10
-0.0002467129655002
20
5.52999032586754
30
0
41
1
10
-0.0008715876690387
20
5.4927254229259
30
0
41
1
10
-0.0017822335469553
20
5.45725052454714
30
0
41
1
10
-0.0028750422148253
20
5.42525267288203
30
0
41
1
10
-0.0042745099641646
20
5.39318701665493
30
0
41
1
10
-0.0059043625282288
20
5.36311768134642
30
0
41
1
10
-0.0077096624278603
20
5.33505965361877
30
0
41
1
10
-0.0096568162926216
20
5.30902466805747
30
0
41
1
10
-0.0119269166855734
20
5.28294907605796
30
0
41
1
10
-0.0145645288456285
20
5.25684071003746
30
0
41
1
10
-0.0173696297876427
20
5.232819287982
30
0
41
1
10
-0.0202640499369002
20
5.21089710849274
30
0
41
1
10
-0.0231991039241011
20
5.19108409231283
30
0
41
1
10
-0.0265122208957134
20
5.17127861080301
30
0
41
1
10
-0.0299162988785746
20
5.15335949880591
30
0
41
1
10
-0.0332993263349435
20
5.13732709117298
30
0
41
1
10
-0.0365938777561033
20
5.12318336444497
30
0
41
1
10
-0.0402730829922323
20
5.10910004587472
30
0
41
1
10
-0.0444094501159895
20
5.0951202323229
30
0
41
1
10
-0.0483658447118268
20
5.08338761138487
30
0
41
1
10
-0.0519398434538333
20
5.07386657359053
30
0
41
1
10
-0.0549587548260203
20
5.06650618666255
30
0
41
1
10
-0.0582384202799719
20
5.05925915317388
30
0
41
1
10
-0.0615913664815176
20
5.05260726897573
30
0
41
1
10
-0.0649857812734268
20
5.04654359628901
30
0
41
1
10
-0.0684000250672203
20
5.04107540767044
30
0
41
1
10
-0.0721124566427111
20
5.03583801873992
30
0
41
1
10
-0.0761469212041828
20
5.03092588735614
30
0
41
1
10
-0.0801758833618771
20
5.02678673585385
30
0
41
1
10
-0.0841251944088246
20
5.02340746589312
30
0
41
1
10
-0.0879066214806226
20
5.02072769473845
30
0
41
1
10
-0.0918827579266209
20
5.01848382739499
30
0
41
1
10
-0.0960277160094542
20
5.016777881355
30
0
41
1
10
-0.100274398308447
20
5.01562409204976
30
0
41
1
10
-0.104440106748326
20
5.01505488325924
30
0
41
1
10
-0.108461602641071
20
5.01503416485333
30
0
41
1
10
-0.112308391440832
20
5.01544672083213
30
0
41
1
10
-0.116436492985207
20
5.01633294686408
30
0
41
1
10
-0.120792389789404
20
5.01777934570382
30
0
41
1
10
-0.125321645826443
20
5.01983057093274
30
0
41
1
10
-0.129661976942494
20
5.02228604941262
30
0
41
1
10
-0.13414763533174
20
5.02529033782668
30
0
41
1
10
-0.138749099498651
20
5.02885779359569
30
0
41
1
10
-0.143434943829176
20
5.03300844898472
30
0
41
1
10
-0.147909418959022
20
5.03743978392791
30
0
41
1
10
-0.152724542785685
20
5.04266837531318
30
0
41
1
10
-0.157829563117991
20
5.0487383985521
30
0
41
1
10
-0.163164218503748
20
5.0556959458919
30
0
41
1
10
-0.169086276747472
20
5.06405563662671
30
0
41
1
10
-0.175505469822051
20
5.07388987379153
30
0
41
1
10
-0.182318827644261
20
5.08526866155518
30
0
41
1
10
-0.188781399188437
20
5.09693125481352
30
0
41
1
10
-0.192903739816946
20
5.10484451034383
30
0
41
1
10
-0.194913899692012
20
5.10883889935552
30
0
0
SPLINE
5
158
100
AcDbEntity
8
SK1
62
256
6
ByLayer
370
18
48
1
60
0
100
AcDbSpline
70
4
71
3
72
62
73
58
40
0
40
0
40
0
40
0
40
0.0067512038255902
40
0.0295612208771625
40
0.0508725050507058
40
0.0706852288727693
40
0.0889995928482491
40
0.108999327813414
40
0.126842287011019
40
0.142529161472348
40
0.156060927517852
40
0.167439063875198
40
0.175277471765055
40
0.181624460998765
40
0.186484735033413
40
0.189160610648144
40
0.191017674897331
40
0.191649726771023
40
0.192099280764171
40
0.192266883176386
40
0.193095390179427
40
0.193742509021559
40
0.194898098303432
40
0.196961738094297
40
0.219275654608294
40
0.241711282262842
40
0.264703797696217
40
0.288358935139654
40
0.312673387206776
40
0.343300711351807
40
0.374038046224445
40
0.404777355752336
40
0.435463645420692
40
0.466042362049623
40
0.480261971608774
40
0.494449562944907
40
0.509431199284942
40
0.525756468267859
40
0.54342440669892
40
0.562430509437292
40
0.581568435425014
40
0.601876541152409
40
0.62333847863132
40
0.645932542687571
40
0.66963107408147
40
0.69306039343593
40
0.717414845029305
40
0.742653809037801
40
0.768730622036139
40
0.795592520949438
40
0.823180720603531
40
0.851430637506916
40
0.880272267422096
40
0.909630718021194
40
0.939426890796805
40
0.969578298872944
40
1
40
1
40
1
40
1
41
1
10
-4.78292406E-08
20
17.5651639271478
30
0
41
1
10
-9.077918438E-07
20
17.5651332215163
30
0
41
1
10
-4.7430850426E-06
20
17.564997428593
30
0
41
1
10
-1.18272933067E-05
20
17.564754393561
30
0
41
1
10
-2.18193550333E-05
20
17.5644280821153
30
0
41
1
10
-3.22341291475E-05
20
17.5641032375979
30
0
41
1
10
-4.36647167591E-05
20
17.5637618512147
30
0
41
1
10
-5.62070260857E-05
20
17.5634035262968
30
0
41
1
10
-7.00488685963E-05
20
17.5630260569239
30
0
41
1
10
-8.42675061845E-05
20
17.5626550626415
30
0
41
1
10
-9.87935763307E-05
20
17.5622916540847
30
0
41
1
10
-0.000112944017128
20
17.561951547785
30
0
41
1
10
-0.0001264986961194
20
17.5616373196798
30
0
41
1
10
-0.0001390541192441
20
17.5613552022952
30
0
41
1
10
-0.0001508007196867
20
17.5610986299282
30
0
41
1
10
-0.0001618354156835
20
17.5608641670859
30
0
41
1
10
-0.0001700951660695
20
17.560691921798
30
0
41
1
10
-0.0001774238288168
20
17.5605419336686
30
0
41
1
10
-0.0001816832692157
20
17.5604555900995
30
0
41
1
10
-0.0001888246211358
20
17.5603120639736
30
0
41
1
10
-0.0001999461788011
20
17.5600921794069
30
0
41
1
10
-0.0002163737919078
20
17.559776684702
30
0
41
1
10
-0.0002419274860144
20
17.5593004416758
30
0
41
1
10
-0.0004186726388799
20
17.5561812025919
30
0
41
1
10
-0.0008738073997645
20
17.5504270046245
30
0
41
1
10
-0.001878837262655
20
17.5421227879946
30
0
41
1
10
-0.0032590297716568
20
17.5337038193715
30
0
41
1
10
-0.0050490114139108
20
17.5251247841333
30
0
41
1
10
-0.0074516348556489
20
17.515719847669
30
0
41
1
10
-0.010589600996104
20
17.5056113837618
30
0
41
1
10
-0.014574524215693
20
17.4949544942917
30
0
41
1
10
-0.0191623294019266
20
17.4845349912633
30
0
41
1
10
-0.0243259996510185
20
17.4744110259461
30
0
41
1
10
-0.029026934870303
20
17.4663581477382
30
0
41
1
10
-0.0329561895579377
20
17.4602262746635
30
0
41
1
10
-0.0359641101194096
20
17.4557933251472
30
0
41
1
10
-0.0392424808848165
20
17.4512319768319
30
0
41
1
10
-0.0429127103307671
20
17.4464257515277
30
0
41
1
10
-0.0470464465626961
20
17.4413519366705
30
0
41
1
10
-0.05157868219309
20
17.4361595038002
30
0
41
1
10
-0.0565144450768981
20
17.4308924199268
30
0
41
1
10
-0.0618547865378866
20
17.4255953390102
30
0
41
1
10
-0.0677106024927779
20
17.4202199340563
30
0
41
1
10
-0.0741007511146015
20
17.4148173370747
30
0
41
1
10
-0.0809089237865299
20
17.4095446012501
30
0
41
1
10
-0.088118126312828
20
17.4044484851094
30
0
41
1
10
-0.0957060058599443
20
17.3995732816381
30
0
41
1
10
-0.103792847301935
20
17.3948875391518
30
0
41
1
10
-0.112368419660896
20
17.3904487785294
30
0
41
1
10
-0.121415360213377
20
17.3863149194901
30
0
41
1
10
-0.130908835739246
20
17.3825431335453
30
0
41
1
10
-0.140816428413365
20
17.3791886044756
30
0
41
1
10
-0.15109813899677
20
17.3763032307122
30
0
41
1
10
-0.161707156542269
20
17.3739342870951
30
0
41
1
10
-0.172588965973354
20
17.3721232698834
30
0
41
1
10
-0.183688091301194
20
17.3709043617841
30
0
41
1
10
-0.191154520491279
20
17.3705061618754
30
0
41
1
10
-0.194913899692036
20
17.370411546412
30
0
0
SPLINE
5
159
100
AcDbEntity
8
SK1
62
256
6
ByLayer
370
18
48
1
60
0
100
AcDbSpline
70
4
71
3
72
63
73
59
40
0
40
0
40
0
40
0
40
0.0247581423985809
40
0.0491363413997247
40
0.0730641433019719
40
0.0964742445195943
40
0.119303119060166
40
0.141491526106805
40
0.167194710861481
40
0.19181247523728
40
0.215270333121389
40
0.237504190370277
40
0.258459989020603
40
0.2768263250863
40
0.294010904869367
40
0.309990224208641
40
0.324746030251676
40
0.338833768560415
40
0.353060888429789
40
0.375695596738696
40
0.398648061368342
40
0.42188967885112
40
0.444776450528634
40
0.467878228052409
40
0.491163268093441
40
0.514598481207728
40
0.537673001653951
40
0.55985706613658
40
0.581147539649233
40
0.604858675636975
40
0.62736508608622
40
0.648857940432
40
0.66471121887925
40
0.680363524424726
40
0.684244824661651
40
0.684729762319995
40
0.68499785905834
40
0.685318785578283
40
0.687360794204684
40
0.690824932565094
40
0.695774942063494
40
0.702230757209117
40
0.710201070019269
40
0.719690453855694
40
0.730701627307636
40
0.743236353404972
40
0.75729585399341
40
0.772881022138893
40
0.789992540099657
40
0.808699253498016
40
0.828944074252563
40
0.850727380035405
40
0.874049497229424
40
0.898910714147587
40
0.924826351575967
40
0.95222708736999
40
0.981113130918353
40
1
40
1
40
1
40
1
41
1
10
-0.194913899692036
20
-17.3704115465572
30
0
41
1
10
-0.191382842633709
20
-17.370500391634
30
0
41
1
10
-0.184390781084941
20
-17.3708613431072
30
0
41
1
10
-0.174027448595603
20
-17.3719441383402
30
0
41
1
10
-0.1639261349805
20
-17.3735303361157
30
0
41
1
10
-0.15413370131643
20
-17.3755802390884
30
0
41
1
10
-0.144694685840771
20
-17.3780487095639
30
0
41
1
10
-0.13507362897477
20
-17.381066134418
30
0
41
1
10
-0.125378860907597
20
-17.384661251713
30
0
41
1
10
-0.115725848300822
20
-17.3888442368748
30
0
41
1
10
-0.106743942131333
20
-17.3932977199456
30
0
41
1
10
-0.0984464362431167
20
-17.3979297749151
30
0
41
1
10
-0.0909886618257245
20
-17.4025570031611
30
0
41
1
10
-0.0843276970308462
20
-17.4070882824477
30
0
41
1
10
-0.0784148642951964
20
-17.4114482358407
30
0
41
1
10
-0.0730636157397516
20
-17.4156949695009
30
0
41
1
10
-0.0681914950140231
20
-17.4198294626627
30
0
41
1
10
-0.0636345605860395
20
-17.4239447757357
30
0
41
1
10
-0.0583939051823094
20
-17.4289737409496
30
0
41
1
10
-0.0524771508736739
20
-17.4351172443105
30
0
41
1
10
-0.0460213386509272
20
-17.4425098166238
30
0
41
1
10
-0.0399159311994308
20
-17.4502404815462
30
0
41
1
10
-0.0341868022630081
20
-17.4582799478618
30
0
41
1
10
-0.0288563248272822
20
-17.4665966007599
30
0
41
1
10
-0.023905784982681
20
-17.4752352019197
30
0
41
1
10
-0.019394485318318
20
-17.4841068292785
30
0
41
1
10
-0.0153939188443995
20
-17.4930482962761
30
0
41
1
10
-0.0119418985079026
20
-17.5018876962961
30
0
41
1
10
-0.0088753991637875
20
-17.5109634548385
30
0
41
1
10
-0.0062360537966937
20
-17.5202217750388
30
0
41
1
10
-0.004050962811901
20
-17.5296252137855
30
0
41
1
10
-0.0025121646623235
20
-17.5380235950264
30
0
41
1
10
-0.0014487220572444
20
-17.5454936363125
30
0
41
1
10
-0.0009045950384614
20
-17.5505350760475
30
0
41
1
10
-0.0006596967347499
20
-17.5533486629625
30
0
41
1
10
-0.0006044227979042
20
-17.5540204995485
30
0
41
1
10
-0.000592884712624
20
-17.5541621351026
30
0
41
1
10
-0.0005701251160183
20
-17.5544434836636
30
0
41
1
10
-0.0005432767031716
20
-17.5547840645526
30
0
41
1
10
-0.0005105598471535
20
-17.5552080058318
30
0
41
1
10
-0.0004776408049902
20
-17.5556480467958
30
0
41
1
10
-0.0004438770822919
20
-17.5561124876969
30
0
41
1
10
-0.0004101034609498
20
-17.5565924548167
30
0
41
1
10
-0.0003763459289045
20
-17.5570884660911
30
0
41
1
10
-0.0003428449420514
20
-17.5575985285241
30
0
41
1
10
-0.0003097264245194
20
-17.5581219490746
30
0
41
1
10
-0.0002771374432757
20
-17.5586577534407
30
0
41
1
10
-0.0002452101995235
20
-17.5592051012549
30
0
41
1
10
-0.0002140371503827
20
-17.5597638345008
30
0
41
1
10
-0.0001837612786234
20
-17.5603329598724
30
0
41
1
10
-0.0001545244242718
20
-17.5609114574262
30
0
41
1
10
-0.0001264943092933
20
-17.5614976874214
30
0
41
1
10
-9.98093350513E-05
20
-17.562090529038
30
0
41
1
10
-7.47732170729E-05
20
-17.5626849084637
30
0
41
1
10
-5.14767957894E-05
20
-17.5632798512248
30
0
41
1
10
-3.00117161495E-05
20
-17.5638743170352
30
0
41
1
10
-1.30040800389E-05
20
-17.5643911241077
30
0
41
1
10
-3.4368132597E-06
20
-17.5647068765401
30
0
41
1
10
1.413932701E-07
20
-17.5648296210346
30
0
0
SPLINE
5
15A
100
AcDbEntity
8
1
62
256
6
ByLayer
370
18
48
1
60
0
100
AcDbSpline
70
4
71
3
72
16
73
12
40
0
40
0
40
0
40
0
40
0.111430279628005
40
0.111430279628005
40
0.248747543515421
40
0.248747543515421
40
0.465535329195189
40
0.465535329195189
40
0.883855351867497
40
0.883855351867497
40
1
40
1
40
1
40
1
41
1
10
8.538675134595
20
-23.8391299750501
30
0
41
1
10
8.51081528400596
20
-23.8391299750501
30
0
41
1
10
8.48260885722465
20
-23.8375361275705
30
0
41
1
10
8.4241507967609
20
-23.8311506585889
30
0
41
1
10
8.39395861076963
20
-23.8256668770177
30
0
41
1
10
8.32484624564262
20
-23.8089605749785
30
0
41
1
10
8.28921459142975
20
-23.7960379707758
30
0
41
1
10
8.20100610925414
20
-23.7556824246831
30
0
41
1
10
8.16026799314932
20
-23.725016539998
30
0
41
1
10
8.12070829847335
20
-23.6845451449631
30
0
41
1
10
8.11283840142704
20
-23.6755726082076
30
0
41
1
10
8.10566243270262
20
-23.6665017920807
30
0
0
SPLINE
5
15B
100
AcDbEntity
8
1
62
256
6
ByLayer
370
18
48
1
60
0
100
AcDbSpline
70
4
71
3
72
16
73
12
40
0
40
0
40
0
40
0
40
0.461208588217139
40
0.461208588217139
40
0.643534962278581
40
0.643534962278581
40
0.8284084729753
40
0.8284084729753
40
0.94300364416
40
0.94300364416
40
1
40
1
40
1
40
1
41
1
10
8.10566243270279
20
-8.05584836782828
30
0
41
1
10
8.13394960848501
20
-7.95080268681499
30
0
41
1
10
8.1726660807094
20
-7.84628670970858
30
0
41
1
10
8.25268397516868
20
-7.71442469145177
30
0
41
1
10
8.27872153625253
20
-7.67825379650776
30
0
41
1
10
8.33934560108378
20
-7.61290523367279
30
0
41
1
10
8.37482777731282
20
-7.58305923051466
30
0
41
1
10
8.44007741480442
20
-7.54855881865649
30
0
41
1
10
8.46752172250581
20
-7.5385201810235
30
0
41
1
10
8.50983152523025
20
-7.53097042135312
30
0
41
1
10
8.52428260692477
20
-7.52966679426527
30
0
41
1
10
8.53867513459494
20
-7.52966679426527
30
0
0
SPLINE
5
15C
100
AcDbEntity
8
1
62
256
6
ByLayer
370
18
48
1
60
0
100
AcDbSpline
70
4
71
3
72
16
73
12
40
0
40
0
40
0
40
0
40
0.111430279628059
40
0.111430279628059
40
0.248747543515479
40
0.248747543515479
40
0.465535329195251
40
0.465535329195251
40
0.883855351867493
40
0.883855351867493
40
1
40
1
40
1
40
1
41
1
10
11.4613248654054
20
-7.52966679426549
30
0
41
1
10
11.4891847159944
20
-7.52966679426549
30
0
41
1
10
11.5173911427757
20
-7.53471706780908
30
0
41
1
10
11.5758492032394
20
-7.55489210221083
30
0
41
1
10
11.6060413892307
20
-7.57218953888491
30
0
41
1
10
11.6751537543577
20
-7.62460019394143
30
0
41
1
10
11.7107854085706
20
-7.66489294253961
30
0
41
1
10
11.7989938907462
20
-7.78941367630409
30
0
41
1
10
11.8397320068511
20
-7.88247511004204
30
0
41
1
10
11.879291701527
20
-8.00269269538057
30
0
41
1
10
11.8871615985733
20
-8.02920008991634
30
0
41
1
10
11.8943375672977
20
-8.05584836782828
30
0
0
SPLINE
5
15D
100
AcDbEntity
8
1
62
256
6
ByLayer
370
18
48
1
60
0
100
AcDbSpline
70
4
71
3
72
16
73
12
40
0
40
0
40
0
40
0
40
0.461208588217074
40
0.461208588217074
40
0.643534962278515
40
0.643534962278515
40
0.828408472975245
40
0.828408472975245
40
0.943003644159952
40
0.943003644159952
40
1
40
1
40
1
40
1
41
1
10
11.8943375672975
20
-23.6665017920807
30
0
41
1
10
11.8660503915153
20
-23.702258326163
30
0
41
1
10
11.827333919291
20
-23.7370095736336
30
0
41
1
10
11.7473160248317
20
-23.7800170858172
30
0
41
1
10
11.7212784637479
20
-23.7917125768791
30
0
41
1
10
11.6606543989166
20
-23.8127037684949
30
0
41
1
10
11.6251722226876
20
-23.8222104320953
30
0
41
1
10
11.559922585196
20
-23.8331586856491
30
0
41
1
10
11.5324782774945
20
-23.8363323784729
30
0
41
1
10
11.4901684747701
20
-23.8387183279984
30
0
41
1
10
11.4757173930756
20
-23.8391299750504
30
0
41
1
10
11.4613248654054
20
-23.8391299750504
30
0
0
SPLINE
5
15E
100
AcDbEntity
8
1
62
256
6
ByLayer
370
18
48
1
60
0
100
AcDbSpline
70
4
71
3
72
16
73
12
40
0
40
0
40
0
40
0
40
0.111430279628006
40
0.111430279628006
40
0.248747543515425
40
0.248747543515425
40
0.46553532919521
40
0.46553532919521
40
0.883855351867531
40
0.883855351867531
40
1
40
1
40
1
40
1
41
1
10
8.538675134595
20
7.52966679426561
30
0
41
1
10
8.51081528400596
20
7.52966679426561
30
0
41
1
10
8.48260885722465
20
7.53471706780908
30
0
41
1
10
8.4241507967609
20
7.55489210221083
30
0
41
1
10
8.39395861076963
20
7.57218953888503
30
0
41
1
10
8.32484624564262
20
7.62460019394143
30
0
41
1
10
8.2892145914297
20
7.66489294253961
30
0
41
1
10
8.20100610925414
20
7.78941367630409
30
0
41
1
10
8.16026799314932
20
7.88247511004204
30
0
41
1
10
8.12070829847335
20
8.00269269538069
30
0
41
1
10
8.11283840142704
20
8.02920008991634
30
0
41
1
10
8.10566243270262
20
8.05584836782828
30
0
0
SPLINE
5
15F
100
AcDbEntity
8
1
62
256
6
ByLayer
370
18
48
1
60
0
100
AcDbSpline
70
4
71
3
72
16
73
12
40
0
40
0
40
0
40
0
40
0.46120858821708
40
0.46120858821708
40
0.643534962278528
40
0.643534962278528
40
0.828408472975254
40
0.828408472975254
40
0.943003644159956
40
0.943003644159956
40
1
40
1
40
1
40
1
41
1
10
8.10566243270279
20
23.6665017920807
30
0
41
1
10
8.13394960848501
20
23.702258326163
30
0
41
1
10
8.1726660807094
20
23.7370095736336
30
0
41
1
10
8.25268397516868
20
23.7800170858172
30
0
41
1
10
8.27872153625248
20
23.7917125768791
30
0
41
1
10
8.33934560108372
20
23.8127037684949
30
0
41
1
10
8.37482777731276
20
23.8222104320953
30
0
41
1
10
8.44007741480436
20
23.8331586856491
30
0
41
1
10
8.46752172250581
20
23.8363323784729
30
0
41
1
10
8.5098315252302
20
23.8387183279984
30
0
41
1
10
8.52428260692477
20
23.8391299750504
30
0
41
1
10
8.53867513459488
20
23.8391299750504
30
0
0
SPLINE
5
160
100
AcDbEntity
8
1
62
256
6
ByLayer
370
18
48
1
60
0
100
AcDbSpline
70
4
71
3
72
16
73
12
40
0
40
0
40
0
40
0
40
0.111430279628059
40
0.111430279628059
40
0.248747543515489
40
0.248747543515489
40
0.465535329195228
40
0.465535329195228
40
0.883855351867515
40
0.883855351867515
40
1
40
1
40
1
40
1
41
1
10
11.4613248654054
20
23.8391299750501
30
0
41
1
10
11.4891847159944
20
23.8391299750501
30
0
41
1
10
11.5173911427757
20
23.8375361275705
30
0
41
1
10
11.5758492032394
20
23.8311506585889
30
0
41
1
10
11.6060413892307
20
23.8256668770177
30
0
41
1
10
11.6751537543577
20
23.8089605749785
30
0
41
1
10
11.7107854085706
20
23.7960379707758
30
0
41
1
10
11.7989938907462
20
23.7556824246831
30
0
41
1
10
11.8397320068511
20
23.725016539998
30
0
41
1
10
11.879291701527
20
23.6845451449631
30
0
41
1
10
11.8871615985733
20
23.6755726082076
30
0
41
1
10
11.8943375672977
20
23.6665017920807
30
0
0
SPLINE
5
161
100
AcDbEntity
8
1
62
256
6
ByLayer
370
18
48
1
60
0
100
AcDbSpline
70
4
71
3
72
16
73
12
40
0
40
0
40
0
40
0
40
0.46120858821709
40
0.46120858821709
40
0.643534962278529
40
0.643534962278529
40
0.828408472975256
40
0.828408472975256
40
0.943003644159954
40
0.943003644159954
40
1
40
1
40
1
40
1
41
1
10
11.8943375672975
20
8.05584836782828
30
0
41
1
10
11.8660503915153
20
7.95080268681499
30
0
41
1
10
11.8273339192909
20
7.84628670970858
30
0
41
1
10
11.7473160248317
20
7.71442469145177
30
0
41
1
10
11.7212784637479
20
7.67825379650788
30
0
41
1
10
11.6606543989166
20
7.61290523367279
30
0
41
1
10
11.6251722226876
20
7.58305923051466
30
0
41
1
10
11.559922585196
20
7.54855881865649
30
0
41
1
10
11.5324782774945
20
7.5385201810235
30
0
41
1
10
11.4901684747701
20
7.53097042135312
30
0
41
1
10
11.4757173930756
20
7.52966679426527
30
0
41
1
10
11.4613248654054
20
7.52966679426527
30
0
0
SPLINE
5
162
100
AcDbEntity
8
1
62
256
6
ByLayer
370
18
48
1
60
0
100
AcDbSpline
70
4
71
3
72
59
73
55
40
0
40
0
40
0
40
0
40
0.0625000000000028
40
0.0625000000000028
40
0.093750000000005
40
0.093750000000005
40
0.109375000000006
40
0.109375000000006
40
0.125000000000007
40
0.125000000000007
40
0.187500000000006
40
0.187500000000006
40
0.250000000000005
40
0.250000000000005
40
0.281250000000005
40
0.281250000000005
40
0.296875000000006
40
0.296875000000006
40
0.312500000000006
40
0.375000000000003
40
0.375000000000003
40
0.437499999999999
40
0.437499999999999
40
0.453124999999997
40
0.453124999999997
40
0.468749999999994
40
0.468749999999994
40
0.499999999999988
40
0.499999999999988
40
0.562499999999976
40
0.562499999999976
40
0.59374999999997
40
0.59374999999997
40
0.609374999999967
40
0.609374999999967
40
0.624999999999965
40
0.624999999999965
40
0.687499999999961
40
0.687499999999961
40
0.718749999999961
40
0.718749999999961
40
0.734374999999963
40
0.734374999999963
40
0.749999999999965
40
0.749999999999965
40
0.812499999999974
40
0.812499999999974
40
0.874999999999982
40
0.874999999999982
40
0.937499999999991
40
0.937499999999991
40
0.968749999999996
40
0.968749999999996
40
1
40
1
40
1
40
1
41
1
10
256.000003859828
20
12.91460501614
30
0
41
1
10
255.999995378499
20
12.9146103158627
30
0
41
1
10
255.996303083319
20
12.9169175179587
30
0
41
1
10
255.984480795046
20
12.9243049035698
30
0
41
1
10
255.979491433422
20
12.9274226027343
30
0
41
1
10
255.970316239338
20
12.9331559003155
30
0
41
1
10
255.966975767454
20
12.9352432588164
30
0
41
1
10
255.959708054286
20
12.9397846300334
30
0
41
1
10
255.955774588818
20
12.9422425320513
30
0
41
1
10
255.934666661303
20
12.9554322290381
30
0
41
1
10
255.913212413152
20
12.9688383311758
30
0
41
1
10
255.860404178929
20
13.0018365782702
30
0
41
1
10
255.829055518303
20
13.0214253955184
30
0
41
1
10
255.77376037396
20
13.0559776365282
30
0
41
1
10
255.753946597095
20
13.0683586584365
30
0
41
1
10
255.722007081028
20
13.0883166831415
30
0
41
1
10
255.710982253859
20
13.0952057597494
30
0
41
1
10
255.688358821737
20
13.1093424491177
30
0
41
1
10
255.630258118963
20
13.1456477976056
30
0
41
1
10
255.564463487304
20
13.1867608464495
30
0
41
1
10
255.449051470367
20
13.2588782786753
30
0
41
1
10
255.386278685467
20
13.2981030680934
30
0
41
1
10
255.301057965017
20
13.3513548844499
30
0
41
1
10
255.283674986874
20
13.3622169747367
30
0
41
1
10
255.248216076543
20
13.3843741610546
30
0
41
1
10
255.230178741007
20
13.3956451392209
30
0
41
1
10
255.175533399654
20
13.429791338257
30
0
41
1
10
255.138246256828
20
13.4530909310293
30
0
41
1
10
255.023890191428
20
13.5245485315031
30
0
41
1
10
254.944334514548
20
13.5742604357555
30
0
41
1
10
254.82017348535
20
13.651844857603
30
0
41
1
10
254.777979864639
20
13.6782103580312
30
0
41
1
10
254.713480590556
20
13.7185139776263
30
0
41
1
10
254.691755129776
20
13.7320895522236
30
0
41
1
10
254.648228195175
20
13.7592881996382
30
0
41
1
10
254.626389977844
20
13.7729342323487
30
0
41
1
10
254.516835701203
20
13.8413913421927
30
0
41
1
10
254.428034406169
20
13.8968805498689
30
0
41
1
10
254.293241538634
20
13.9811084816479
30
0
41
1
10
254.248044563258
20
14.0093506863593
30
0
41
1
10
254.17986155957
20
14.0519561556847
30
0
41
1
10
254.157069260118
20
14.0661983650721
30
0
41
1
10
254.1113568433
20
14.0947626533432
30
0
41
1
10
254.088414451644
20
14.1090986507489
30
0
41
1
10
253.974082886336
20
14.1805409418651
30
0
41
1
10
253.883330272215
20
14.2372494690356
30
0
41
1
10
253.703084803786
20
14.3498793380769
30
0
41
1
10
253.61359283382
20
14.4058001273507
30
0
41
1
10
253.435765660139
20
14.5169188781207
30
0
41
1
10
253.347430923503
20
14.5721165477536
30
0
41
1
10
253.21574930503
20
14.6544003553473
30
0
41
1
10
253.17212782815
20
14.6816580793345
30
0
41
1
10
253.08558742691
20
14.735734523771
30
0
41
1
10
253.042638766615
20
14.7625718252951
30
0
41
1
10
252.999999619163
20
14.7892157217293
30
0
0
SPLINE
5
163
100
AcDbEntity
8
1
62
256
6
ByLayer
370
18
48
1
60
0
100
AcDbSpline
70
4
71
3
72
49
73
45
40
0
40
0
40
0
40
0
40
0.0624999999999956
40
0.0624999999999956
40
0.124999999999991
40
0.187499999999987
40
0.187499999999987
40
0.218749999999984
40
0.218749999999984
40
0.249999999999982
40
0.249999999999982
40
0.312499999999981
40
0.37499999999998
40
0.37499999999998
40
0.406249999999977
40
0.406249999999977
40
0.421874999999976
40
0.421874999999976
40
0.437499999999975
40
0.499999999999974
40
0.562499999999974
40
0.562499999999974
40
0.593749999999973
40
0.609374999999973
40
0.609374999999973
40
0.624999999999974
40
0.624999999999974
40
0.687499999999979
40
0.687499999999979
40
0.749999999999984
40
0.812499999999989
40
0.812499999999989
40
0.843749999999992
40
0.843749999999992
40
0.874999999999994
40
0.874999999999994
40
0.9375
40
0.9375
40
0.968750000000002
40
0.984375000000002
40
0.992187500000001
40
0.99609375
40
0.99609375
40
1
40
1
40
1
40
1
41
1
10
252.999999619163
20
-21.4000003897266
30
0
41
1
10
253.10111058951
20
-21.4000003897266
30
0
41
1
10
253.201313445329
20
-21.3949025634198
30
0
41
1
10
253.399970902763
20
-21.374893540563
30
0
41
1
10
253.59687963167
20
-21.3450684927699
30
0
41
1
10
253.79031773609
20
-21.295766071579
30
0
41
1
10
253.934065340879
20
-21.2513222989558
30
0
41
1
10
253.981879826504
20
-21.2352120182379
30
0
41
1
10
254.076071063088
20
-21.2008188357497
30
0
41
1
10
254.122530548466
20
-21.18251741924
30
0
41
1
10
254.260042176686
20
-21.1243717998541
30
0
41
1
10
254.438422057072
20
-21.0382166757982
30
0
41
1
10
254.607072405895
20
-20.9351790055178
30
0
41
1
10
254.72988167653
20
-20.851522663041
30
0
41
1
10
254.770203913006
20
-20.8225722898157
30
0
41
1
10
254.829751905124
20
-20.7775255810301
30
0
41
1
10
254.849417648866
20
-20.7622595588087
30
0
41
1
10
254.888230479111
20
-20.7313518540153
30
0
41
1
10
254.984079498649
20
-20.6530545562224
30
0
41
1
10
255.146138006402
20
-20.5030241516452
30
0
41
1
10
255.275765168019
20
-20.3571470733974
30
0
41
1
10
255.36759239856
20
-20.2430650724326
30
0
41
1
10
255.412155351628
20
-20.1848534620733
30
0
41
1
10
255.454673599777
20
-20.1248707661161
30
0
41
1
10
255.482561083695
20
-20.0844856942836
30
0
41
1
10
255.496288072494
20
-20.0640751612696
30
0
41
1
10
255.56343605676
20
-19.9615406007529
30
0
41
1
10
255.612647248558
20
-19.8776435751265
30
0
41
1
10
255.702411290211
20
-19.7062653624343
30
0
41
1
10
255.783514752544
20
-19.5313020448291
30
0
41
1
10
255.847502552793
20
-19.3492660890872
30
0
41
1
10
255.888972814869
20
-19.2100488177516
30
0
41
1
10
255.901731010708
20
-19.1630893045358
30
0
41
1
10
255.924869924047
20
-19.0689424351916
30
0
41
1
10
255.935264002325
20
-19.0217317700951
30
0
41
1
10
255.962971244133
20
-18.8796948583264
30
0
41
1
10
255.976817301361
20
-18.7844646544259
30
0
41
1
10
255.990705213033
20
-18.640820076979
30
0
41
1
10
255.995925893226
20
-18.5687976074131
30
0
41
1
10
255.998981815837
20
-18.4844192309274
30
0
41
1
10
255.999746259527
20
-18.4421414793436
30
0
41
1
10
255.999909690616
20
-18.4240034015129
30
0
41
1
10
255.999982087675
20
-18.4119071103089
30
0
41
1
10
255.999999619163
20
-18.4059686477233
30
0
41
1
10
255.999999619163
20
-18.4000003897266
30
0
0
SPLINE
5
164
100
AcDbEntity
8
1
62
256
6
ByLayer
370
18
48
1
60
0
100
AcDbSpline
70
2053
71
3
72
167
73
163
40
0
40
0
40
0
40
0
40
0.0156249999999989
40
0.0156249999999989
40
0.0312499999999977
40
0.0468749999999966
40
0.0468749999999966
40
0.0507812499999964
40
0.0507812499999964
40
0.0546874999999961
40
0.0546874999999961
40
0.0624999999999961
40
0.0624999999999961
40
0.0781249999999956
40
0.0937499999999951
40
0.0937499999999951
40
0.101562499999995
40
0.105468749999995
40
0.105468749999995
40
0.109374999999995
40
0.109374999999995
40
0.124999999999993
40
0.124999999999993
40
0.140624999999991
40
0.15624999999999
40
0.15624999999999
40
0.164062499999989
40
0.164062499999989
40
0.171874999999988
40
0.171874999999988
40
0.187499999999986
40
0.203124999999984
40
0.203124999999984
40
0.210937499999984
40
0.210937499999984
40
0.214843749999983
40
0.214843749999983
40
0.218749999999983
40
0.234374999999981
40
0.24999999999998
40
0.24999999999998
40
0.265624999999979
40
0.265624999999979
40
0.269531249999979
40
0.269531249999979
40
0.273437499999979
40
0.281249999999978
40
0.281249999999978
40
0.296874999999978
40
0.312499999999977
40
0.312499999999977
40
0.320312499999977
40
0.320312499999977
40
0.328124999999977
40
0.328124999999977
40
0.343749999999976
40
0.359374999999976
40
0.359374999999976
40
0.367187499999976
40
0.371093749999976
40
0.371093749999976
40
0.374999999999975
40
0.374999999999975
40
0.390624999999975
40
0.390624999999975
40
0.406249999999975
40
0.421874999999974
40
0.421874999999974
40
0.425781249999974
40
0.425781249999974
40
0.429687499999974
40
0.429687499999974
40
0.437499999999974
40
0.437499999999974
40
0.453124999999973
40
0.468749999999973
40
0.468749999999973
40
0.476562499999972
40
0.476562499999972
40
0.484374999999972
40
0.484374999999972
40
0.499999999999971
40
0.515624999999971
40
0.515624999999971
40
0.53124999999997
40
0.53124999999997
40
0.53906249999997
40
0.53906249999997
40
0.54687499999997
40
0.54687499999997
40
0.56249999999997
40
0.578124999999969
40
0.578124999999969
40
0.585937499999969
40
0.585937499999969
40
0.593749999999969
40
0.593749999999969
40
0.609374999999969
40
0.624999999999969
40
0.624999999999969
40
0.64062499999997
40
0.64062499999997
40
0.64453124999997
40
0.64453124999997
40
0.64843749999997
40
0.65624999999997
40
0.65624999999997
40
0.67187499999997
40
0.68749999999997
40
0.68749999999997
40
0.69531249999997
40
0.69531249999997
40
0.70312499999997
40
0.70312499999997
40
0.71874999999997
40
0.73437499999997
40
0.73437499999997
40
0.74218749999997
40
0.74609374999997
40
0.74609374999997
40
0.74999999999997
40
0.74999999999997
40
0.765624999999971
40
0.765624999999971
40
0.781249999999972
40
0.796874999999974
40
0.796874999999974
40
0.800781249999974
40
0.800781249999974
40
0.804687499999975
40
0.812499999999975
40
0.812499999999975
40
0.828124999999977
40
0.843749999999979
40
0.843749999999979
40
0.85156249999998
40
0.85156249999998
40
0.855468749999981
40
0.855468749999981
40
0.859374999999981
40
0.859374999999981
40
0.874999999999983
40
0.890624999999986
40
0.890624999999986
40
0.906249999999988
40
0.906249999999988
40
0.910156249999988
40
0.910156249999988
40
0.914062499999989
40
0.92187499999999
40
0.92187499999999
40
0.937499999999992
40
0.953124999999995
40
0.953124999999995
40
0.960937499999996
40
0.960937499999996
40
0.964843749999996
40
0.964843749999996
40
0.968749999999997
40
0.984374999999998
40
0.984374999999998
40
1
40
1
40
1
40
1
41
1
10
250.884019561665
20
-3.897266744E-07
30
0
41
1
10
250.801084825973
20
-0.103968035961117
30
0
41
1
10
250.713695521658
20
-0.202935369465791
30
0
41
1
10
250.530319347495
20
-0.391224571073991
30
0
41
1
10
250.33834242591
20
-0.569864754473798
30
0
41
1
10
250.129270249791
20
-0.729336831966606
30
0
41
1
10
249.993132570664
20
-0.822879700102817
30
0
41
1
10
249.965631017402
20
-0.841281198392295
30
0
41
1
10
249.91007410668
20
-0.877463660229608
30
0
41
1
10
249.88197872083
20
-0.895268886283191
30
0
41
1
10
249.797200706179
20
-0.947529493872196
30
0
41
1
10
249.740044698716
20
-0.980826509265512
30
0
41
1
10
249.566702287175
20
-1.0761807599774
30
0
41
1
10
249.330590178267
20
-1.19124479615459
30
0
41
1
10
249.084672374651
20
-1.28259729565499
30
0
41
1
10
248.896514314364
20
-1.3421238238362
30
0
41
1
10
248.801503851699
20
-1.36963646626719
30
0
41
1
10
248.70507204309
20
-1.3937157840316
30
0
41
1
10
248.640464689172
20
-1.40899704691219
30
0
41
1
10
248.607993258588
20
-1.4162521015067
30
0
41
1
10
248.445748881007
20
-1.45039364226182
30
0
41
1
10
248.315590149786
20
-1.47107386017652
30
0
41
1
10
248.054567915661
20
-1.4995697801497
30
0
41
1
10
247.792840754844
20
-1.51519832570841
30
0
41
1
10
247.529705784025
20
-1.50513364094431
30
0
41
1
10
247.331811857408
20
-1.4876795617979
30
0
41
1
10
247.265603321862
20
-1.48018000819371
30
0
41
1
10
247.13436363273
20
-1.46200264872499
30
0
41
1
10
247.069207423828
20
-1.45132157885149
30
0
41
1
10
246.875104593683
20
-1.41458648608679
30
0
41
1
10
246.619936491132
20
-1.3531169948989
30
0
41
1
10
246.371935531742
20
-1.26701246922769
30
0
41
1
10
246.188661640307
20
-1.19305395348891
30
0
41
1
10
246.12802562447
20
-1.1668349556183
30
0
41
1
10
246.03776713144
20
-1.12511273298659
30
0
41
1
10
246.007756196737
20
-1.11078579745561
30
0
41
1
10
245.948189805701
20
-1.08143481113251
30
0
41
1
10
245.800491826942
20
-1.00634976040851
30
0
41
1
10
245.545404526357
20
-0.856096308156197
30
0
41
1
10
245.333580810499
20
-0.701600999682199
30
0
41
1
10
245.12923820582
20
-0.536599793478302
30
0
41
1
10
245.030806797694
20
-0.448847185698611
30
0
41
1
10
244.912595629535
20
-0.332370638527806
30
0
41
1
10
244.889183672107
20
-0.308721293278211
30
0
41
1
10
244.8431055246
20
-0.261005507722814
30
0
41
1
10
244.775010547128
20
-0.188712004849009
30
0
41
1
10
244.709946432711
20
-0.114284481886699
30
0
41
1
10
244.583796771585
20
0.0373713572250836
30
0
41
1
10
244.426189526894
20
0.247035775347683
30
0
41
1
10
244.289571038522
20
0.471470442921998
30
0
41
1
10
244.195135434774
20
0.64544426823781
30
0
41
1
10
244.164997345543
20
0.704378538402892
30
0
41
1
10
244.10745912358
20
0.824172926620406
30
0
41
1
10
244.080263328254
20
0.884613545893984
30
0
41
1
10
244.003489886862
20
1.0671130137525
30
0
41
1
10
243.913761520509
20
1.31394270829199
30
0
41
1
10
243.848731035113
20
1.56758535330519
30
0
41
1
10
243.809270450863
20
1.760379707901
30
0
41
1
10
243.791871957287
20
1.85741853483521
30
0
41
1
10
243.778020265995
20
1.95543244955579
30
0
41
1
10
243.769581702127
20
2.02099378539509
30
0
41
1
10
243.765755887698
20
2.05392995628199
30
0
41
1
10
243.748702945203
20
2.21852155813289
30
0
41
1
10
243.741684900264
20
2.34971606902511
30
0
41
1
10
243.74040922575
20
2.61117830014101
30
0
41
1
10
243.751898514101
20
2.87171350228451
30
0
41
1
10
243.788700759753
20
3.13041374698199
30
0
41
1
10
243.819776783846
20
3.29152113056691
30
0
41
1
10
243.826396654206
20
3.3237135424169
30
0
41
1
10
243.840453687139
20
3.3880398537411
30
0
41
1
10
243.847887274244
20
3.4201513778716
30
0
41
1
10
243.87128998186
20
3.51587788085709
30
0
41
1
10
243.888396267293
20
3.57905388202059
30
0
41
1
10
243.94413819948
20
3.7666996335013
30
0
41
1
10
244.030233484987
20
4.0118839441455
30
0
41
1
10
244.139456437783
20
4.24728180285999
30
0
41
1
10
244.230147412146
20
4.42014425900209
30
0
41
1
10
244.261842688565
20
4.47714968800199
30
0
41
1
10
244.328213498824
20
4.58991371113871
30
0
41
1
10
244.362959262487
20
4.6457659860661
30
0
41
1
10
244.470617263389
20
4.80972372907809
30
0
41
1
10
244.623824107807
20
5.01980241894171
30
0
41
1
10
244.795899498464
20
5.21333641091991
30
0
41
1
10
244.977463964398
20
5.39861137453428
30
0
41
1
10
245.072989835439
20
5.48712001534361
30
0
41
1
10
245.223654161044
20
5.6135115823682
30
0
41
1
10
245.275194225029
20
5.65463356973891
30
0
41
1
10
245.379642631215
20
5.73384946868319
30
0
41
1
10
245.432673475316
20
5.77205305388111
30
0
41
1
10
245.594154908741
20
5.88251794482039
30
0
41
1
10
245.8158238199
20
6.0187672189941
30
0
41
1
10
246.050166959014
20
6.13315467712118
30
0
41
1
10
246.230800330316
20
6.21057988481749
30
0
41
1
10
246.291825588635
20
6.23499148797779
30
0
41
1
10
246.415543781164
20
6.28096026151749
30
0
41
1
10
246.478350899636
20
6.3025444879425
30
0
41
1
10
246.667159257808
20
6.36224775033091
30
0
41
1
10
246.921191491707
20
6.42893391458759
30
0
41
1
10
247.179704988269
20
6.47039662562389
30
0
41
1
10
247.440474883447
20
6.49918488524008
30
0
41
1
10
247.571987820748
20
6.50724297504661
30
0
41
1
10
247.737839476285
20
6.50911840902219
30
0
41
1
10
247.771130931314
20
6.50908141873541
30
0
41
1
10
247.837532073699
20
6.50818163170871
30
0
41
1
10
247.936910108033
20
6.50559669830821
30
0
41
1
10
248.035625582135
20
6.4993526831536
30
0
41
1
10
248.232188593821
20
6.4820693688082
30
0
41
1
10
248.491962056287
20
6.44626022688161
30
0
41
1
10
248.747179496415
20
6.385236683286
30
0
41
1
10
248.936860296371
20
6.32985354850319
30
0
41
1
10
248.999846090075
20
6.30977030725879
30
0
41
1
10
249.125029045463
20
6.26639882454541
30
0
41
1
10
249.186794306838
20
6.2432630208119
30
0
41
1
10
249.369674208325
20
6.16960598781
30
0
41
1
10
249.607083726753
20
6.06008577370679
30
0
41
1
10
249.831997104207
20
5.9284706938989
30
0
41
1
10
249.995994813951
20
5.82142222863089
30
0
41
1
10
250.076819918409
20
5.7658102333219
30
0
41
1
10
250.15586388275
20
5.70702003813051
30
0
41
1
10
250.208160616723
20
5.667113026236
30
0
41
1
10
250.234068870074
20
5.64683242447649
30
0
41
1
10
250.361957278875
20
5.544169619603
30
0
41
1
10
250.459440171877
20
5.45767800260398
30
0
41
1
10
250.645090343539
20
5.27621633070189
30
0
41
1
10
250.821422654837
20
5.08627429137229
30
0
41
1
10
250.979228450189
20
4.87934659694579
30
0
41
1
10
251.0719252569
20
4.74454002597778
30
0
41
1
10
251.090186002805
20
4.71727536540129
30
0
41
1
10
251.126018491578
20
4.6623258957905
30
0
41
1
10
251.178648508149
20
4.57940521246471
30
0
41
1
10
251.227964393726
20
4.4950105237474
30
0
41
1
10
251.322251645962
20
4.324280983569
30
0
41
1
10
251.43640349135
20
4.0914767134343
30
0
41
1
10
251.527689556546
20
3.84838607388178
30
0
41
1
10
251.587422682083
20
3.6621169949351
30
0
41
1
10
251.605875834132
20
3.5993676388247
30
0
41
1
10
251.631323771826
20
3.50423137326069
30
0
41
1
10
251.639442779602
20
3.47231474490019
30
0
41
1
10
251.65488623241
20
3.4083086749595
30
0
41
1
10
251.66219936955
20
3.37627042174231
30
0
41
1
10
251.69674310772
20
3.2159043433623
30
0
41
1
10
251.739103274127
20
2.9582019364878
30
0
41
1
10
251.756219325378
20
2.69829711314839
30
0
41
1
10
251.760633559142
20
2.43728092401139
30
0
41
1
10
251.756490950409
20
2.30621723684351
30
0
41
1
10
251.743090058682
20
2.141670217046
30
0
41
1
10
251.739993313746
20
2.10868445239021
30
0
41
1
10
251.732986111131
20
2.04283731428089
30
0
41
1
10
251.721271244786
20
1.94438641787158
30
0
41
1
10
251.705986293943
20
1.84688406873579
30
0
41
1
10
251.670729593491
20
1.6531257147453
30
0
41
1
10
251.611244199361
20
1.39809889954819
30
0
41
1
10
251.52703884584
20
1.14966148733299
30
0
41
1
10
251.454434586857
20
0.965860792675699
30
0
41
1
10
251.428655338903
20
0.905015889192498
30
0
41
1
10
251.387570416747
20
0.814395953927487
30
0
41
1
10
251.373458109277
20
0.78426903203561
30
0
41
1
10
251.344551948686
20
0.724504212863707
30
0
41
1
10
251.270518273675
20
0.576185739231789
30
0
41
1
10
251.187753148086
20
0.433267875343603
30
0
41
1
10
251.044251363259
20
0.211455348890496
30
0
41
1
10
250.966954297357
20
0.103967256507787
30
0
41
1
10
250.884019561665
20
-3.897266744E-07
30
0
0
SPLINE
5
165
100
AcDbEntity
8
1
62
256
6
ByLayer
370
18
48
1
60
0
100
AcDbSpline
70
2053
71
3
72
175
73
171
40
0
40
0
40
0
40
0
40
0.0156250000000027
40
0.0156250000000027
40
0.0312500000000055
40
0.0468750000000082
40
0.0468750000000082
40
0.0507812500000088
40
0.0507812500000088
40
0.0546875000000093
40
0.0546875000000093
40
0.0625000000000103
40
0.0625000000000103
40
0.0781250000000124
40
0.0937500000000145
40
0.0937500000000145
40
0.101562500000016
40
0.105468750000016
40
0.105468750000016
40
0.109375000000017
40
0.109375000000017
40
0.125000000000018
40
0.125000000000018
40
0.140625000000019
40
0.140625000000019
40
0.15625000000002
40
0.15625000000002
40
0.16406250000002
40
0.16406250000002
40
0.17187500000002
40
0.17187500000002
40
0.18750000000002
40
0.203125000000021
40
0.203125000000021
40
0.210937500000021
40
0.210937500000021
40
0.214843750000021
40
0.214843750000021
40
0.218750000000021
40
0.218750000000021
40
0.234375000000021
40
0.250000000000021
40
0.250000000000021
40
0.265625000000021
40
0.265625000000021
40
0.269531250000021
40
0.269531250000021
40
0.273437500000021
40
0.281250000000021
40
0.281250000000021
40
0.296875000000021
40
0.312500000000021
40
0.312500000000021
40
0.320312500000021
40
0.320312500000021
40
0.328125000000021
40
0.328125000000021
40
0.343750000000021
40
0.359375000000021
40
0.359375000000021
40
0.367187500000021
40
0.371093750000021
40
0.371093750000021
40
0.375000000000021
40
0.375000000000021
40
0.390625000000021
40
0.390625000000021
40
0.406250000000021
40
0.421875000000021
40
0.421875000000021
40
0.425781250000021
40
0.425781250000021
40
0.429687500000022
40
0.429687500000022
40
0.437500000000022
40
0.437500000000022
40
0.453125000000022
40
0.468750000000022
40
0.468750000000022
40
0.476562500000022
40
0.476562500000022
40
0.480468750000022
40
0.480468750000022
40
0.484375000000022
40
0.500000000000023
40
0.515625000000023
40
0.515625000000023
40
0.531250000000023
40
0.531250000000023
40
0.535156250000024
40
0.535156250000024
40
0.539062500000024
40
0.546875000000024
40
0.546875000000024
40
0.562500000000024
40
0.578125000000025
40
0.578125000000025
40
0.585937500000025
40
0.585937500000025
40
0.589843750000025
40
0.589843750000025
40
0.593750000000025
40
0.593750000000025
40
0.609375000000025
40
0.625000000000025
40
0.625000000000025
40
0.640625000000025
40
0.640625000000025
40
0.644531250000024
40
0.644531250000024
40
0.648437500000024
40
0.656250000000023
40
0.656250000000023
40
0.671875000000022
40
0.687500000000021
40
0.687500000000021
40
0.691406250000021
40
0.691406250000021
40
0.695312500000021
40
0.695312500000021
40
0.70312500000002
40
0.70312500000002
40
0.71875000000002
40
0.734375000000019
40
0.734375000000019
40
0.742187500000019
40
0.742187500000019
40
0.750000000000019
40
0.750000000000019
40
0.765625000000018
40
0.765625000000018
40
0.781250000000017
40
0.796875000000016
40
0.796875000000016
40
0.800781250000016
40
0.800781250000016
40
0.804687500000016
40
0.812500000000016
40
0.812500000000016
40
0.828125000000014
40
0.843750000000013
40
0.843750000000013
40
0.851562500000012
40
0.851562500000012
40
0.855468750000012
40
0.855468750000012
40
0.859375000000012
40
0.859375000000012
40
0.87500000000001
40
0.890625000000009
40
0.890625000000009
40
0.906250000000008
40
0.906250000000008
40
0.910156250000007
40
0.910156250000007
40
0.914062500000007
40
0.921875000000006
40
0.921875000000006
40
0.937500000000005
40
0.953125000000004
40
0.953125000000004
40
0.960937500000003
40
0.960937500000003
40
0.964843750000003
40
0.964843750000003
40
0.968750000000003
40
0.968750000000003
40
0.984375000000001
40
0.984375000000001
40
1
40
1
40
1
40
1
41
1
10
240.43693139038
20
-3.897266358E-07
30
0
41
1
10
240.353977925314
20
-0.114042549574208
30
0
41
1
10
240.266070304013
20
-0.222994795351099
30
0
41
1
10
240.080693868473
20
-0.431082758135091
30
0
41
1
10
239.885752695136
20
-0.629350575510898
30
0
41
1
10
239.671800540883
20
-0.808113212925093
30
0
41
1
10
239.532000025186
20
-0.913605647723301
30
0
41
1
10
239.503735189483
20
-0.934391694390911
30
0
41
1
10
239.446589629325
20
-0.975332425923
30
0
41
1
10
239.417667582493
20
-0.995514718420793
30
0
41
1
10
239.330331186688
20
-1.05485762982371
30
0
41
1
10
239.271359083426
20
-1.0928147117188
30
0
41
1
10
239.092243160989
20
-1.20196865912891
30
0
41
1
10
238.847567420411
20
-1.3349519171787
30
0
41
1
10
238.591381812724
20
-1.4432810763725
30
0
41
1
10
238.394875141234
20
-1.51518248308702
30
0
41
1
10
238.295528168468
20
-1.54879300650381
30
0
41
1
10
238.194512052512
20
-1.57883342358571
30
0
41
1
10
238.126792762768
20
-1.5980579885227
30
0
41
1
10
238.092740875543
20
-1.60726864341879
30
0
41
1
10
237.922500887245
20
-1.65105649502189
30
0
41
1
10
237.785608705748
20
-1.67907861916441
30
0
41
1
10
237.51046523638
20
-1.72152870756651
30
0
41
1
10
237.37221384347
20
-1.7359556022796
30
0
41
1
10
237.094353008342
20
-1.7512304975285
30
0
41
1
10
236.954743653623
20
-1.75207937564511
30
0
41
1
10
236.744282352969
20
-1.74288144285509
30
0
41
1
10
236.673793448952
20
-1.7380451429664
30
0
41
1
10
236.533923068089
20
-1.7249508562393
30
0
41
1
10
236.464403921308
20
-1.7166948552246
30
0
41
1
10
236.257072116912
20
-1.68689173321971
30
0
41
1
10
235.983892352267
20
-1.6337508985527
30
0
41
1
10
235.717144454616
20
-1.5541712222697
30
0
41
1
10
235.51953051998
20
-1.48441890119432
30
0
41
1
10
235.454067765187
20
-1.4594871878005
30
0
41
1
10
235.356497757667
20
-1.4195203707412
30
0
41
1
10
235.324033573219
20
-1.40574959977081
30
0
41
1
10
235.259569333432
20
-1.37745335519591
30
0
41
1
10
235.227578147453
20
-1.3629334743471
30
0
41
1
10
235.068813708726
20
-1.2884952088553
30
0
41
1
10
234.82239412087
20
-1.15765917483469
30
0
41
1
10
234.590787537058
20
-1.00393883027209
30
0
41
1
10
234.366607429125
20
-0.838732637922107
30
0
41
1
10
234.2582299497
20
-0.750387668341091
30
0
41
1
10
234.127550684489
20
-0.63253542808161
30
0
41
1
10
234.101648417108
20
-0.6085847096127
30
0
41
1
10
234.050615467157
20
-0.560208066275891
30
0
41
1
10
233.975113515344
20
-0.486831588370592
30
0
41
1
10
233.902717422236
20
-0.411048831769392
30
0
41
1
10
233.762003106883
20
-0.256323800313794
30
0
41
1
10
233.585239279092
20
-0.0416131429493021
30
0
41
1
10
233.429994233868
20
0.189771930492583
30
0
41
1
10
233.321795147409
20
0.369692247512887
30
0
41
1
10
233.287103709102
20
0.430731188924682
30
0
41
1
10
233.220530012795
20
0.554986157087484
30
0
41
1
10
233.188900023916
20
0.6177353237087
30
0
41
1
10
233.099029156645
20
0.807508745294484
30
0
41
1
10
232.992420819766
20
1.06486313559171
30
0
41
1
10
232.911663320869
20
1.3306487852326
30
0
41
1
10
232.860848814235
20
1.53316230542009
30
0
41
1
10
232.837883875178
20
1.6352139360319
30
0
41
1
10
232.818635146723
20
1.73847401780679
30
0
41
1
10
232.80663672501
20
1.80758519873629
30
0
41
1
10
232.801047573089
20
1.84232593460641
30
0
41
1
10
232.775314034539
20
2.0159966212303
30
0
41
1
10
232.76177643491
20
2.15473788247209
30
0
41
1
10
232.748282883412
20
2.43183642987731
30
0
41
1
10
232.748374297288
20
2.70855096481171
30
0
41
1
10
232.775409931482
20
2.98450146145081
30
0
41
1
10
232.800902406559
20
3.15673022755101
30
0
41
1
10
232.806431654825
20
3.19116395488879
30
0
41
1
10
232.818360135114
20
3.26000727354429
30
0
41
1
10
232.824753525032
20
3.2943761341572
30
0
41
1
10
232.845131554386
20
3.39689837675519
30
0
41
1
10
232.860341376637
20
3.46463385851749
30
0
41
1
10
232.910745384284
20
3.66604343179859
30
0
41
1
10
232.990659574464
20
3.92980616605661
30
0
41
1
10
233.095526817337
20
4.18423092494319
30
0
41
1
10
233.183638328836
20
4.37153567646899
30
0
41
1
10
233.214588543648
20
4.43338395304738
30
0
41
1
10
233.263423478928
20
4.52526545828098
30
0
41
1
10
233.280120392128
20
4.55577372396439
30
0
41
1
10
233.31424851255
20
4.6163540445647
30
0
41
1
10
233.401255975318
20
4.76643747021501
30
0
41
1
10
233.572790277517
20
5.02451651669651
30
0
41
1
10
233.745979979989
20
5.23728590300829
30
0
41
1
10
233.929586482247
20
5.44175813693408
30
0
41
1
10
234.026597127011
20
5.53984635263831
30
0
41
1
10
234.154608144735
20
5.65712694688659
30
0
41
1
10
234.180582808295
20
5.6803454909799
30
0
41
1
10
234.233040839416
20
5.72608887086199
30
0
41
1
10
234.312424988723
20
5.79360952470938
30
0
41
1
10
234.393879322891
20
5.85788614079411
30
0
41
1
10
234.559514804051
20
5.98218192445279
30
0
41
1
10
234.787620797641
20
6.13657685702608
30
0
41
1
10
235.030212346792
20
6.2685133316472
30
0
41
1
10
235.217737694408
20
6.3588669082267
30
0
41
1
10
235.281178117636
20
6.38754897868108
30
0
41
1
10
235.377771833991
20
6.4283706307468
30
0
41
1
10
235.410248554211
20
6.44162628580631
30
0
41
1
10
235.475495198698
20
6.46731804591349
30
0
41
1
10
235.508216055382
20
6.4797361165802
30
0
41
1
10
235.672303532494
20
6.539709609049
30
0
41
1
10
235.937928869727
20
6.62215166343711
30
0
41
1
10
236.209610938319
20
6.6781705471229
30
0
41
1
10
236.484349834579
20
6.72089192636
30
0
41
1
10
236.623247388722
20
6.73560520241679
30
0
41
1
10
236.798852557915
20
6.74538265196819
30
0
41
1
10
236.834121614119
20
6.74690714788261
30
0
41
1
10
236.904491343156
20
6.74907234099859
30
0
41
1
10
237.009871065884
20
6.75100138913041
30
0
41
1
10
237.114732602088
20
6.74902314277929
30
0
41
1
10
237.32377640473
20
6.73994408494039
30
0
41
1
10
237.600693018802
20
6.71420148788388
30
0
41
1
10
237.874039332987
20
6.66150056365689
30
0
41
1
10
238.043748333999
20
6.61998863886009
30
0
41
1
10
238.077633387091
20
6.61125657064758
30
0
41
1
10
238.14528906845
20
6.5929252642959
30
0
41
1
10
238.179088580714
20
6.5833173708171
30
0
41
1
10
238.280120991377
20
6.5532363568368
30
0
41
1
10
238.346667330451
20
6.5316056316826
30
0
41
1
10
238.543941831333
20
6.46209268954229
30
0
41
1
10
238.800682350543
20
6.3571126578633
30
0
41
1
10
239.045197052566
20
6.22811604012509
30
0
41
1
10
239.223999287437
20
6.12230849267849
30
0
41
1
10
239.282834700802
20
6.0855265309626
30
0
41
1
10
239.398958089437
20
6.00889367633599
30
0
41
1
10
239.456375492752
20
5.96894088525949
30
0
41
1
10
239.624640923298
20
5.84560897647648
30
0
41
1
10
239.731906222721
20
5.7585453431362
30
0
41
1
10
239.936966016755
20
5.5750068146879
30
0
41
1
10
240.132551176382
20
5.38205295671699
30
0
41
1
10
240.309311874732
20
5.1702439168605
30
0
41
1
10
240.413762933792
20
5.0317822427393
30
0
41
1
10
240.434378232561
20
5.00374673997601
30
0
41
1
10
240.474836716339
20
4.94728688970599
30
0
41
1
10
240.534367361603
20
4.86201809911088
30
0
41
1
10
240.590469990995
20
4.77502989001138
30
0
41
1
10
240.698180890303
20
4.5987893583152
30
0
41
1
10
240.82983123818
20
4.35777394111071
30
0
41
1
10
240.937816647459
20
4.10474053233361
30
0
41
1
10
241.009763491193
20
3.91034275447089
30
0
41
1
10
241.032235969778
20
3.8447716859807
30
0
41
1
10
241.063632503326
20
3.74522981527758
30
0
41
1
10
241.073725612827
20
3.71180436432809
30
0
41
1
10
241.093047842144
20
3.64484478659651
30
0
41
1
10
241.102279809462
20
3.61130671940839
30
0
41
1
10
241.146314688771
20
3.44332707593819
30
0
41
1
10
241.203207833682
20
3.17271224998109
30
0
41
1
10
241.233540383579
20
2.89845052520511
30
0
41
1
10
241.250489286734
20
2.6223438845858
30
0
41
1
10
241.252273255867
20
2.48336828030921
30
0
41
1
10
241.245825251181
20
2.308452794424
30
0
41
1
10
241.244097136508
20
2.27335895715541
30
0
41
1
10
241.239779645858
20
2.2033571482564
30
0
41
1
10
241.232015172188
20
2.09862973624229
30
0
41
1
10
241.220429611821
20
1.99471913871159
30
0
41
1
10
241.192238928225
20
1.78797193669729
30
0
41
1
10
241.141287192005
20
1.51516829785359
30
0
41
1
10
241.063821889206
20
1.2480535140181
30
0
41
1
10
240.995572644
20
1.04990433036809
30
0
41
1
10
240.971128185677
20
0.98421976080391
30
0
41
1
10
240.931864606321
20
0.886253848474809
30
0
41
1
10
240.918336696801
20
0.853678736530497
30
0
41
1
10
240.890543553651
20
0.789033284732284
30
0
41
1
10
240.87626324148
20
0.756923958357703
30
0
41
1
10
240.802955758441
20
0.597437398232103
30
0
41
1
10
240.738224737579
20
0.473232614374496
30
0
41
1
10
240.596693478525
20
0.231540932306388
30
0
41
1
10
240.519884855446
20
0.114041770120906
30
0
41
1
10
240.43693139038
20
-3.89726636E-07
30
0
0
SPLINE
5
166
100
AcDbEntity
8
1
62
256
6
ByLayer
370
18
48
1
60
0
100
AcDbSpline
70
4
71
3
72
73
73
69
40
0
40
0
40
0
40
0
40
0.0624999999999977
40
0.0624999999999977
40
0.0781249999999972
40
0.0781249999999972
40
0.0937499999999967
40
0.124999999999995
40
0.124999999999995
40
0.187499999999992
40
0.187499999999992
40
0.24999999999999
40
0.24999999999999
40
0.281249999999988
40
0.281249999999988
40
0.312499999999987
40
0.312499999999987
40
0.374999999999984
40
0.374999999999984
40
0.406249999999982
40
0.406249999999982
40
0.421874999999983
40
0.421874999999983
40
0.437499999999983
40
0.437499999999983
40
0.499999999999986
40
0.499999999999986
40
0.531249999999987
40
0.531249999999987
40
0.546874999999988
40
0.546874999999988
40
0.562499999999989
40
0.562499999999989
40
0.59374999999999
40
0.59374999999999
40
0.624999999999991
40
0.624999999999991
40
0.656249999999992
40
0.656249999999992
40
0.687499999999993
40
0.687499999999993
40
0.703124999999994
40
0.703124999999994
40
0.718749999999994
40
0.718749999999994
40
0.749999999999994
40
0.749999999999994
40
0.765624999999995
40
0.765624999999995
40
0.781249999999995
40
0.781249999999995
40
0.812499999999995
40
0.812499999999995
40
0.828124999999995
40
0.828124999999995
40
0.835937499999996
40
0.835937499999996
40
0.843749999999996
40
0.843749999999996
40
0.874999999999996
40
0.874999999999996
40
0.890624999999997
40
0.890624999999997
40
0.906249999999997
40
0.906249999999997
40
0.937499999999998
40
0.937499999999998
40
1
40
1
40
1
40
1
41
1
10
221.80753968353
20
22.9137951577129
30
0
41
1
10
221.713655346155
20
22.9442399334263
30
0
41
1
10
221.624951068819
20
22.9769288652075
30
0
41
1
10
221.519777631392
20
23.0200146291467
30
0
41
1
10
221.499000080584
20
23.028758118971
30
0
41
1
10
221.458217338635
20
23.0463712103887
30
0
41
1
10
221.39817519676
20
23.0729891557429
30
0
41
1
10
221.341398181463
20
23.1001527621407
30
0
41
1
10
221.23196587438
20
23.1551069320239
30
0
41
1
10
221.164478665425
20
23.1925724440935
30
0
41
1
10
221.040004787953
20
23.2688260317107
30
0
41
1
10
220.983019100899
20
23.3076154807518
30
0
41
1
10
220.905771578132
20
23.3666909914805
30
0
41
1
10
220.881349179862
20
23.3865835101969
30
0
41
1
10
220.835887011402
20
23.4262357035588
30
0
41
1
10
220.814791700894
20
23.4460316482578
30
0
41
1
10
220.7565172077
20
23.5053136973096
30
0
41
1
10
220.724306662
20
23.5446910935515
30
0
41
1
10
220.687044288258
20
23.6035298460564
30
0
41
1
10
220.676475401898
20
23.6231055567379
30
0
41
1
10
220.663650536418
20
23.6524194127458
30
0
41
1
10
220.65988126047
20
23.6621824727988
30
0
41
1
10
220.653409157816
20
23.6816939961186
30
0
41
1
10
220.650703497913
20
23.6914603476427
30
0
41
1
10
220.640067703475
20
23.7399317875655
30
0
41
1
10
220.64063826467
20
23.7776920791622
30
0
41
1
10
220.657548057097
20
23.8327992199716
30
0
41
1
10
220.665878062196
20
23.8509124512575
30
0
41
1
10
220.682962273088
20
23.8776940905849
30
0
41
1
10
220.689445852096
20
23.8865803476762
30
0
41
1
10
220.703931690917
20
23.9040635499718
30
0
41
1
10
220.711933002396
20
23.9126671467964
30
0
41
1
10
220.73829642854
20
23.9380634970844
30
0
41
1
10
220.759008464379
20
23.9544427444419
30
0
41
1
10
220.807351087242
20
23.9860760958987
30
0
41
1
10
220.834975722051
20
24.0013307360532
30
0
41
1
10
220.898156273559
20
24.0306576611461
30
0
41
1
10
220.933047927795
20
24.0444139820326
30
0
41
1
10
221.009581264012
20
24.0700802549001
30
0
41
1
10
221.051242294391
20
24.0820013340776
30
0
41
1
10
221.119266874993
20
24.0984829523198
30
0
41
1
10
221.142963207751
20
24.1037596576816
30
0
41
1
10
221.191435657096
20
24.1136622798174
30
0
41
1
10
221.216282409123
20
24.1183087252143
30
0
41
1
10
221.292627213895
20
24.1313656534016
30
0
41
1
10
221.3459233558
20
24.1388974350866
30
0
41
1
10
221.429476656594
20
24.1484952037401
30
0
41
1
10
221.457930872156
20
24.1514102127875
30
0
41
1
10
221.516067342191
20
24.1566701985251
30
0
41
1
10
221.54537469131
20
24.1589811614425
30
0
41
1
10
221.633886670529
20
24.1650070706985
30
0
41
1
10
221.693720550126
20
24.1678231559293
30
0
41
1
10
221.784629703216
20
24.1703870034385
30
0
41
1
10
221.815126448047
20
24.1709637451347
30
0
41
1
10
221.861157204312
20
24.1714203316804
30
0
41
1
10
221.87656065052
20
24.1715041583532
30
0
41
1
10
221.907253223498
20
24.1715369145202
30
0
41
1
10
221.922567368657
20
24.1714862181797
30
0
41
1
10
221.998982533266
20
24.1709080152076
30
0
41
1
10
222.059618943261
20
24.1694114197919
30
0
41
1
10
222.149901229228
20
24.1657528400752
30
0
41
1
10
222.179882855781
20
24.1642966868166
30
0
41
1
10
222.239628827372
20
24.1609236005254
30
0
41
1
10
222.269476606602
20
24.159000292258
30
0
41
1
10
222.358019856889
20
24.1526006237988
30
0
41
1
10
222.415613063288
20
24.1475120911441
30
0
41
1
10
222.584586534853
20
24.1300025666346
30
0
41
1
10
222.692196369646
20
24.1153603473517
30
0
41
1
10
222.795432158536
20
24.0979327311494
30
0
0
SPLINE
5
167
100
AcDbEntity
8
1
62
256
6
ByLayer
370
18
48
1
60
0
100
AcDbSpline
70
4
71
3
72
32
73
28
40
0
40
0
40
0
40
0
40
0.124999999999988
40
0.124999999999988
40
0.187499999999982
40
0.187499999999982
40
0.249999999999976
40
0.249999999999976
40
0.374999999999964
40
0.374999999999964
40
0.406249999999964
40
0.406249999999964
40
0.437499999999964
40
0.499999999999964
40
0.562499999999963
40
0.562499999999963
40
0.624999999999963
40
0.624999999999963
40
0.687499999999963
40
0.687499999999963
40
0.749999999999963
40
0.749999999999963
40
0.874999999999975
40
0.874999999999975
40
0.937499999999988
40
0.937499999999988
40
1
40
1
40
1
40
1
41
1
10
256.923151812132
20
21.4929908252631
30
0
41
1
10
256.905440394016
20
21.5116046439127
30
0
41
1
10
256.886070241859
20
21.528594330467
30
0
41
1
10
256.854303646143
20
21.5515908151138
30
0
41
1
10
256.843259306597
20
21.558838928679
30
0
41
1
10
256.820166030519
20
21.5724502347234
30
0
41
1
10
256.808079130763
20
21.5788231630216
30
0
41
1
10
256.770989940401
20
21.5961106987446
30
0
41
1
10
256.744940328527
20
21.6053741590434
30
0
41
1
10
256.710410281054
20
21.6137860051113
30
0
41
1
10
256.703387782568
20
21.615309852382
30
0
41
1
10
256.68935400994
20
21.6179820896185
30
0
41
1
10
256.668248253982
20
21.6214467565563
30
0
41
1
10
256.632798385852
20
21.6245362070198
30
0
41
1
10
256.604144237913
20
21.6241319982505
30
0
41
1
10
256.575338200736
20
21.6222375733345
30
0
41
1
10
256.561129604445
20
21.6205595631595
30
0
41
1
10
256.533289653229
20
21.6158612391574
30
0
41
1
10
256.519620043593
20
21.6128381237561
30
0
41
1
10
256.492748877126
20
21.6054944342046
30
0
41
1
10
256.479483699491
20
21.6011436817648
30
0
41
1
10
256.441200744139
20
21.5865061432808
30
0
41
1
10
256.417439196332
20
21.574617771948
30
0
41
1
10
256.384004013721
20
21.5538987259328
30
0
41
1
10
256.373207868749
20
21.5464880498703
30
0
41
1
10
256.352444948872
20
21.5307799406421
30
0
41
1
10
256.342517620171
20
21.5225162520846
30
0
41
1
10
256.333020520316
20
21.5138521369287
30
0
0
SPLINE
5
168
100
AcDbEntity
8
1
62
256
6
ByLayer
370
18
48
1
60
0
100
AcDbSpline
70
4
71
3
72
24
73
20
40
0
40
0
40
0
40
0
40
0.125000000000025
40
0.125000000000025
40
0.250000000000049
40
0.250000000000049
40
0.312500000000062
40
0.312500000000062
40
0.375000000000075
40
0.375000000000075
40
0.50000000000006
40
0.50000000000006
40
0.625000000000045
40
0.625000000000045
40
0.75000000000003
40
0.75000000000003
40
0.875000000000015
40
0.875000000000015
40
1
40
1
40
1
40
1
41
1
10
256.110301748602
20
21.4936342785063
30
0
41
1
10
256.119173533349
20
21.4880905721212
30
0
41
1
10
256.128672034273
20
21.4832279220658
30
0
41
1
10
256.148016398451
20
21.4753215021422
30
0
41
1
10
256.157918668422
20
21.4722237984407
30
0
41
1
10
256.173108779099
20
21.46883415623
30
0
41
1
10
256.178254144092
20
21.4679121203852
30
0
41
1
10
256.188506483225
20
21.4665163212065
30
0
41
1
10
256.193613410843
20
21.4660396232376
30
0
41
1
10
256.208877924599
20
21.4652435313892
30
0
41
1
10
256.218979635153
20
21.4655542129004
30
0
41
1
10
256.239031228702
20
21.4678085356481
30
0
41
1
10
256.248858399834
20
21.469748990426
30
0
41
1
10
256.267755906668
20
21.4750504531602
30
0
41
1
10
256.276889278754
20
21.4784188591311
30
0
41
1
10
256.294534064696
20
21.4865433899516
30
0
41
1
10
256.302914712093
20
21.4912449478667
30
0
41
1
10
256.318671864657
20
21.5017256312626
30
0
41
1
10
256.326079163408
20
21.5075196021012
30
0
41
1
10
256.333020520316
20
21.5138521369287
30
0
0
SPLINE
5
169
100
AcDbEntity
8
1
62
256
6
ByLayer
370
18
48
1
60
0
100
AcDbSpline
70
4
71
3
72
24
73
20
40
0
40
0
40
0
40
0
40
0.249999999999979
40
0.249999999999979
40
0.312499999999966
40
0.312499999999966
40
0.374999999999952
40
0.374999999999952
40
0.499999999999962
40
0.499999999999962
40
0.624999999999972
40
0.624999999999972
40
0.749999999999982
40
0.749999999999982
40
0.812499999999986
40
0.812499999999986
40
0.874999999999991
40
0.874999999999991
40
1
40
1
40
1
40
1
41
1
10
256.923151812132
20
21.4929908252631
30
0
41
1
10
256.93613840122
20
21.4793425666897
30
0
41
1
10
256.951063340261
20
21.4677366379488
30
0
41
1
10
256.972314811204
20
21.4560559320466
30
0
41
1
10
256.97671655942
20
21.4538567993941
30
0
41
1
10
256.9856515305
20
21.4498313838801
30
0
41
1
10
256.990194865361
20
21.4479977011907
30
0
41
1
10
257.004051431343
20
21.4430364573336
30
0
41
1
10
257.013589683588
20
21.440444981838
30
0
41
1
10
257.033296468184
20
21.4367904942307
30
0
41
1
10
257.043574102407
20
21.4357337447852
30
0
41
1
10
257.064030492126
20
21.4353607514265
30
0
41
1
10
257.074257578931
20
21.4360170803722
30
0
41
1
10
257.089593211504
20
21.4383057194076
30
0
41
1
10
257.094704263265
20
21.4392870144611
30
0
41
1
10
257.104924217612
20
21.4417077103833
30
0
41
1
10
257.110028792529
20
21.4431495535215
30
0
41
1
10
257.124989442514
20
21.4480739091975
30
0
41
1
10
257.134613190724
20
21.4521759650476
30
0
41
1
10
257.143887010456
20
21.4570967408779
30
0
0
SPLINE
5
16A
100
AcDbEntity
8
1
62
256
6
ByLayer
370
18
48
1
60
0
100
AcDbSpline
70
4
71
3
72
18
73
14
40
0
40
0
40
0
40
0
40
0.250000000000025
40
0.250000000000025
40
0.375000000000026
40
0.375000000000026
40
0.500000000000026
40
0.500000000000026
40
0.750000000000001
40
0.750000000000001
40
0.875000000000001
40
0.875000000000001
40
1
40
1
40
1
40
1
41
1
10
257.551388320952
20
22.1625220062389
30
0
41
1
10
257.528399382715
20
22.1570129320553
30
0
41
1
10
257.505897253417
20
22.1495963292366
30
0
41
1
10
257.472820216945
20
22.1354555375052
30
0
41
1
10
257.461907628619
20
22.130236099008
30
0
41
1
10
257.440304923558
20
22.118711855373
30
0
41
1
10
257.429560531701
20
22.1123704729109
30
0
41
1
10
257.398109427166
20
22.0918423569251
30
0
41
1
10
257.378240774781
20
22.0762417769108
30
0
41
1
10
257.350162630752
20
22.0496445876518
30
0
41
1
10
257.341052793155
20
22.040195221066
30
0
41
1
10
257.323660240655
20
22.0203485468084
30
0
41
1
10
257.315407179237
20
22.0099942921
30
0
41
1
10
257.307609066077
20
21.9991953949912
30
0
0
SPLINE
5
16B
100
AcDbEntity
8
1
62
256
6
ByLayer
370
18
48
1
60
0
100
AcDbSpline
70
4
71
3
72
16
73
12
40
0
40
0
40
0
40
0
40
0.249999999999997
40
0.249999999999997
40
0.374999999999995
40
0.374999999999995
40
0.499999999999993
40
0.499999999999993
40
0.749999999999996
40
0.749999999999996
40
1
40
1
40
1
40
1
41
1
10
257.277704285848
20
21.9513377426078
30
0
41
1
10
257.265142124198
20
21.9278761369307
30
0
41
1
10
257.255119791883
20
21.9038818688721
30
0
41
1
10
257.243499126165
20
21.8671359044885
30
0
41
1
10
257.240199168623
20
21.8547601132402
30
0
41
1
10
257.234731900867
20
21.8297472813305
30
0
41
1
10
257.23260949744
20
21.8173158720255
30
0
41
1
10
257.227934173019
20
21.7802581814153
30
0
41
1
10
257.227051694258
20
21.7558376353613
30
0
41
1
10
257.229411992432
20
21.7073817594938
30
0
41
1
10
257.232644427649
20
21.6837213195588
30
0
41
1
10
257.23777309158
20
21.6606327258409
30
0
0
SPLINE
5
16C
100
AcDbEntity
8
1
62
256
6
ByLayer
370
18
48
1
60
0
100
AcDbSpline
70
4
71
3
72
24
73
20
40
0
40
0
40
0
40
0
40
0.124999999999965
40
0.124999999999965
40
0.24999999999993
40
0.24999999999993
40
0.312499999999926
40
0.312499999999926
40
0.374999999999923
40
0.374999999999923
40
0.499999999999938
40
0.499999999999938
40
0.624999999999953
40
0.624999999999953
40
0.749999999999969
40
0.749999999999969
40
0.874999999999984
40
0.874999999999984
40
1
40
1
40
1
40
1
41
1
10
257.143887010456
20
21.4570967408779
30
0
41
1
10
257.15315500293
20
21.4620144247099
30
0
41
1
10
257.162145280406
20
21.4678206227005
30
0
41
1
10
257.178716372923
20
21.4806505505855
30
0
41
1
10
257.186373101365
20
21.487696580371
30
0
41
1
10
257.196933366941
20
21.4991919032366
30
0
41
1
10
257.200313671184
20
21.5031997839729
30
0
41
1
10
257.2066623598
20
21.5114045404205
30
0
41
1
10
257.209634588858
20
21.5156014931765
30
0
41
1
10
257.217971289751
20
21.5284624976739
30
0
41
1
10
257.222759408972
20
21.5373950534604
30
0
41
1
10
257.230837288381
20
21.5559504077632
30
0
41
1
10
257.234064970896
20
21.5654554049412
30
0
41
1
10
257.238907277625
20
21.584528100624
30
0
41
1
10
257.24054550765
20
21.5941511612708
30
0
41
1
10
257.242300376603
20
21.6135545292216
30
0
41
1
10
257.242398744561
20
21.6231793964952
30
0
41
1
10
257.241155433708
20
21.6421064701773
30
0
41
1
10
257.239815647137
20
21.6514374001106
30
0
41
1
10
257.23777309158
20
21.6606327258409
30
0
0
SPLINE
5
16D
100
AcDbEntity
8
1
62
256
6
ByLayer
370
18
48
1
60
0
100
AcDbSpline
70
4
71
3
72
23
73
19
40
0
40
0
40
0
40
0
40
0.249999999999981
40
0.249999999999981
40
0.312499999999978
40
0.312499999999978
40
0.374999999999976
40
0.499999999999977
40
0.499999999999977
40
0.624999999999978
40
0.624999999999978
40
0.749999999999978
40
0.749999999999978
40
0.812499999999979
40
0.812499999999979
40
0.87499999999998
40
0.87499999999998
40
1
40
1
40
1
40
1
41
1
10
257.551388320952
20
22.1625220062389
30
0
41
1
10
257.569754547544
20
22.1669232927933
30
0
41
1
10
257.587322008821
20
22.1740388566875
30
0
41
1
10
257.608130940589
20
22.1866158053717
30
0
41
1
10
257.612249346142
20
22.1893317298621
30
0
41
1
10
257.620226554631
20
22.1950645232382
30
0
41
1
10
257.631838966621
20
22.2041338158904
30
0
41
1
10
257.642390901631
20
22.2146040125585
30
0
41
1
10
257.655448004594
20
22.2298838859407
30
0
41
1
10
257.661518472808
20
22.2382804610663
30
0
41
1
10
257.672091229921
20
22.2558570025204
30
0
41
1
10
257.676644325155
20
22.2650692098176
30
0
41
1
10
257.68233618315
20
22.2795414515971
30
0
41
1
10
257.684042916457
20
22.284475063583
30
0
41
1
10
257.687056157252
20
22.2945718503273
30
0
41
1
10
257.688356928645
20
22.2997271169767
30
0
41
1
10
257.691561745072
20
22.3151890045154
30
0
41
1
10
257.692809800735
20
22.3256054855304
30
0
41
1
10
257.693168303395
20
22.3361305601241
30
0
0
SPLINE
5
16E
100
AcDbEntity
8
1
62
256
6
ByLayer
370
18
48
1
60
0
100
AcDbSpline
70
4
71
3
72
24
73
20
40
0
40
0
40
0
40
0
40
0.250000000000002
40
0.250000000000002
40
0.312500000000003
40
0.312500000000003
40
0.375000000000004
40
0.375000000000004
40
0.500000000000003
40
0.500000000000003
40
0.625000000000002
40
0.625000000000002
40
0.750000000000001
40
0.750000000000001
40
0.812500000000001
40
0.812500000000001
40
0.875000000000001
40
0.875000000000001
40
1
40
1
40
1
40
1
41
1
10
257.286696418154
20
23.0400526057524
30
0
41
1
10
257.292007351449
20
23.0581279993612
30
0
41
1
10
257.294579845997
20
23.0768585515002
30
0
41
1
10
257.294049097426
20
23.1011027892556
30
0
41
1
10
257.293748513834
20
23.1060141266667
30
0
41
1
10
257.292758775794
20
23.1157638934242
30
0
41
1
10
257.292070962556
20
23.1206147872263
30
0
41
1
10
257.289426821254
20
23.1350932793176
30
0
41
1
10
257.286893781673
20
23.1446472170531
30
0
41
1
10
257.280189057678
20
23.1635353016337
30
0
41
1
10
257.275957321645
20
23.1729607453162
30
0
41
1
10
257.266036798034
20
23.190854480724
30
0
41
1
10
257.260347543041
20
23.1993783549453
30
0
41
1
10
257.25068729436
20
23.2115068039513
30
0
41
1
10
257.247278564568
20
23.2154395364425
30
0
41
1
10
257.240065644097
20
23.2230737493782
30
0
41
1
10
257.236261513887
20
23.226770253433
30
0
41
1
10
257.224507578244
20
23.2372542923387
30
0
41
1
10
257.216137832488
20
23.2435304964101
30
0
41
1
10
257.207234625565
20
23.2490938375501
30
0
0
SPLINE
5
16F
100
AcDbEntity
8
1
62
256
6
ByLayer
370
18
48
1
60
0
100
AcDbSpline
70
4
71
3
72
32
73
28
40
0
40
0
40
0
40
0
40
0.124999999999989
40
0.124999999999989
40
0.187499999999984
40
0.187499999999984
40
0.249999999999978
40
0.249999999999978
40
0.374999999999972
40
0.374999999999972
40
0.406249999999969
40
0.406249999999969
40
0.437499999999967
40
0.499999999999972
40
0.562499999999976
40
0.562499999999976
40
0.62499999999998
40
0.62499999999998
40
0.687499999999985
40
0.687499999999985
40
0.749999999999989
40
0.749999999999989
40
0.875
40
0.875
40
0.9375
40
0.9375
40
1
40
1
40
1
40
1
41
1
10
257.286696418154
20
23.0400526057524
30
0
41
1
10
257.27945323813
20
23.0154009442388
30
0
41
1
10
257.274446496486
20
22.9901267570169
30
0
41
1
10
257.270447723389
20
22.9511143892769
30
0
41
1
10
257.269704158044
20
22.9379250091726
30
0
41
1
10
257.269486056982
20
22.9111197881455
30
0
41
1
10
257.270022103702
20
22.8974662189688
30
0
41
1
10
257.273630225387
20
22.8567053599019
30
0
41
1
10
257.278655965263
20
22.8295183051494
30
0
41
1
10
257.288665381481
20
22.795417047329
30
0
41
1
10
257.290862810827
20
22.7885753454723
30
0
41
1
10
257.295577041994
20
22.7750896680293
30
0
41
1
10
257.303146593347
20
22.755085706733
30
0
41
1
10
257.318223642256
20
22.7228534208209
30
0
41
1
10
257.332921885683
20
22.6982529007502
30
0
41
1
10
257.348986115405
20
22.6742671177089
30
0
41
1
10
257.357553441097
20
22.6628084723404
30
0
41
1
10
257.375560946698
20
22.6410629722601
30
0
41
1
10
257.385022702929
20
22.6307444140797
30
0
41
1
10
257.404834918907
20
22.6111621338447
30
0
41
1
10
257.415243356669
20
22.6018584553433
30
0
41
1
10
257.447083463356
20
22.5760505247074
30
0
41
1
10
257.469272415934
20
22.561435637207
30
0
41
1
10
257.503949174788
20
22.5428691841751
30
0
41
1
10
257.515769924014
20
22.5372349240174
30
0
41
1
10
257.539763684986
20
22.5271283451197
30
0
41
1
10
257.551887741119
20
22.5226732706826
30
0
41
1
10
257.564142972026
20
22.5187911112514
30
0
0
SPLINE
5
170
100
AcDbEntity
8
1
62
256
6
ByLayer
370
18
48
1
60
0
100
AcDbSpline
70
4
71
3
72
23
73
19
40
0
40
0
40
0
40
0
40
0.124999999999988
40
0.124999999999988
40
0.249999999999977
40
0.249999999999977
40
0.312499999999971
40
0.312499999999971
40
0.374999999999966
40
0.499999999999973
40
0.499999999999973
40
0.624999999999979
40
0.624999999999979
40
0.749999999999986
40
0.749999999999986
40
0.874999999999993
40
0.874999999999993
40
1
40
1
40
1
40
1
41
1
10
257.693168303395
20
22.3361305601241
30
0
41
1
10
257.693524519791
20
22.3465885135839
30
0
41
1
10
257.692976777915
20
22.3572465287581
30
0
41
1
10
257.690134458718
20
22.3779453718113
30
0
41
1
10
257.687857544085
20
22.388068534698
30
0
41
1
10
257.683183482201
20
22.4029191599738
30
0
41
1
10
257.681404088161
20
22.4078366511831
30
0
41
1
10
257.677479614334
20
22.4174064873635
30
0
41
1
10
257.671045415299
20
22.4313799492893
30
0
41
1
10
257.663053495332
20
22.4442647154678
30
0
41
1
10
257.651056194382
20
22.4604984364042
30
0
41
1
10
257.644460050925
20
22.4680272080944
30
0
41
1
10
257.630408453555
20
22.4817296260128
30
0
41
1
10
257.622917867152
20
22.487949974346
30
0
41
1
10
257.607042861822
20
22.4991587633962
30
0
41
1
10
257.598783446004
20
22.5040538860562
30
0
41
1
10
257.581823995124
20
22.5124434076495
30
0
41
1
10
257.573100330206
20
22.5159536377841
30
0
41
1
10
257.564142972026
20
22.5187911112514
30
0
0
SPLINE
5
171
100
AcDbEntity
8
1
62
256
6
ByLayer
370
18
48
1
60
0
100
AcDbSpline
70
4
71
3
72
24
73
20
40
0
40
0
40
0
40
0
40
0.249999999999992
40
0.249999999999992
40
0.312499999999992
40
0.312499999999992
40
0.374999999999992
40
0.374999999999992
40
0.499999999999993
40
0.499999999999993
40
0.624999999999995
40
0.624999999999995
40
0.749999999999996
40
0.749999999999996
40
0.812499999999997
40
0.812499999999997
40
0.874999999999998
40
0.874999999999998
40
1
40
1
40
1
40
1
41
1
10
256.030839956013
20
21.7026755103042
30
0
41
1
10
256.025529022718
20
21.6846001166953
30
0
41
1
10
256.02295652817
20
21.6658695645563
30
0
41
1
10
256.023487276741
20
21.6416253268009
30
0
41
1
10
256.023787860334
20
21.6367139893898
30
0
41
1
10
256.024777598373
20
21.6269642226323
30
0
41
1
10
256.025465411611
20
21.6221133288302
30
0
41
1
10
256.028109552913
20
21.6076348367389
30
0
41
1
10
256.030642592494
20
21.5980808990034
30
0
41
1
10
256.03734731649
20
21.5791928144228
30
0
41
1
10
256.041579052522
20
21.5697673707403
30
0
41
1
10
256.051499576133
20
21.5518736353325
30
0
41
1
10
256.057188831127
20
21.5433497611112
30
0
41
1
10
256.066849079807
20
21.5312213121052
30
0
41
1
10
256.070257809599
20
21.527288579614
30
0
41
1
10
256.07747073007
20
21.5196543666783
30
0
41
1
10
256.081274860281
20
21.5159578626235
30
0
41
1
10
256.093028795923
20
21.5054738237178
30
0
41
1
10
256.101398541679
20
21.4991976196464
30
0
41
1
10
256.110301748602
20
21.4936342785063
30
0
0
SPLINE
5
172
100
AcDbEntity
8
1
62
256
6
ByLayer
370
18
48
1
60
0
100
AcDbSpline
70
4
71
3
72
32
73
28
40
0
40
0
40
0
40
0
40
0.12499999999999
40
0.12499999999999
40
0.187499999999983
40
0.187499999999983
40
0.249999999999976
40
0.249999999999976
40
0.374999999999968
40
0.374999999999968
40
0.406249999999965
40
0.406249999999965
40
0.437499999999962
40
0.499999999999962
40
0.562499999999962
40
0.562499999999962
40
0.624999999999962
40
0.624999999999962
40
0.687499999999962
40
0.687499999999962
40
0.749999999999962
40
0.749999999999962
40
0.874999999999976
40
0.874999999999976
40
0.937499999999988
40
0.937499999999988
40
1
40
1
40
1
40
1
41
1
10
256.030839956013
20
21.7026755103042
30
0
41
1
10
256.038083136037
20
21.7273271718177
30
0
41
1
10
256.043089877681
20
21.7526013590396
30
0
41
1
10
256.047088650778
20
21.7916137267795
30
0
41
1
10
256.047832216123
20
21.8048031068838
30
0
41
1
10
256.048050317185
20
21.831608327911
30
0
41
1
10
256.047514270466
20
21.8452618970877
30
0
41
1
10
256.04390614878
20
21.8860227561546
30
0
41
1
10
256.038880408905
20
21.9132098109071
30
0
41
1
10
256.028870992686
20
21.9473110687275
30
0
41
1
10
256.02667356334
20
21.9541527705842
30
0
41
1
10
256.021959332173
20
21.9676384480272
30
0
41
1
10
256.01438978082
20
21.9876424093235
30
0
41
1
10
255.999312731911
20
22.0198746952356
30
0
41
1
10
255.984614488484
20
22.0444752153063
30
0
41
1
10
255.968550258762
20
22.0684609983476
30
0
41
1
10
255.95998293307
20
22.0799196437161
30
0
41
1
10
255.941975427469
20
22.1016651437963
30
0
41
1
10
255.932513671238
20
22.1119837019768
30
0
41
1
10
255.91270145526
20
22.1315659822118
30
0
41
1
10
255.902293017498
20
22.1408696607132
30
0
41
1
10
255.870452910811
20
22.1666775913491
30
0
41
1
10
255.848263958233
20
22.1812924788495
30
0
41
1
10
255.81358719938
20
22.1998589318814
30
0
41
1
10
255.801766450153
20
22.2054931920391
30
0
41
1
10
255.777772689181
20
22.2155997709368
30
0
41
1
10
255.765648633048
20
22.2200548453739
30
0
41
1
10
255.753393402141
20
22.2239370048051
30
0
0
SPLINE
5
173
100
AcDbEntity
8
1
62
256
6
ByLayer
370
18
48
1
60
0
100
AcDbSpline
70
4
71
3
72
23
73
19
40
0
40
0
40
0
40
0
40
0.125000000000004
40
0.125000000000004
40
0.250000000000008
40
0.250000000000008
40
0.312500000000015
40
0.312500000000015
40
0.375000000000022
40
0.500000000000018
40
0.500000000000018
40
0.625000000000013
40
0.625000000000013
40
0.750000000000009
40
0.750000000000009
40
0.875000000000004
40
0.875000000000004
40
1
40
1
40
1
40
1
41
1
10
255.624368070772
20
22.4065975559324
30
0
41
1
10
255.624011854376
20
22.3961396024726
30
0
41
1
10
255.624559596252
20
22.3854815872984
30
0
41
1
10
255.627401915449
20
22.3647827442452
30
0
41
1
10
255.629678830082
20
22.3546595813585
30
0
41
1
10
255.634352891966
20
22.3398089560826
30
0
41
1
10
255.636132286006
20
22.3348914648734
30
0
41
1
10
255.640056759833
20
22.325321628693
30
0
41
1
10
255.646490958869
20
22.3113481667672
30
0
41
1
10
255.654482878835
20
22.2984634005887
30
0
41
1
10
255.666480179785
20
22.2822296796523
30
0
41
1
10
255.673076323242
20
22.2747009079621
30
0
41
1
10
255.687127920612
20
22.2609984900437
30
0
41
1
10
255.694618507015
20
22.2547781417105
30
0
41
1
10
255.710493512345
20
22.2435693526603
30
0
41
1
10
255.718752928163
20
22.2386742300003
30
0
41
1
10
255.735712379043
20
22.230284708407
30
0
41
1
10
255.744436043961
20
22.2267744782724
30
0
41
1
10
255.753393402141
20
22.2239370048051
30
0
0
SPLINE
5
174
100
AcDbEntity
8
1
62
256
6
ByLayer
370
18
48
1
60
0
100
AcDbSpline
70
4
71
3
72
24
73
20
40
0
40
0
40
0
40
0
40
0.249999999999906
40
0.249999999999906
40
0.312499999999898
40
0.312499999999898
40
0.37499999999989
40
0.37499999999989
40
0.499999999999912
40
0.499999999999912
40
0.624999999999934
40
0.624999999999934
40
0.749999999999955
40
0.749999999999955
40
0.812499999999966
40
0.812499999999966
40
0.874999999999976
40
0.874999999999976
40
1
40
1
40
1
40
1
41
1
10
256.394384562035
20
23.2497372907934
30
0
41
1
10
256.381397972947
20
23.2633855493667
30
0
41
1
10
256.366473033906
20
23.2749914781077
30
0
41
1
10
256.345221562964
20
23.2866721840099
30
0
41
1
10
256.340819814747
20
23.2888713166624
30
0
41
1
10
256.331884843667
20
23.2928967321764
30
0
41
1
10
256.327341508806
20
23.2947304148658
30
0
41
1
10
256.313484942824
20
23.2996916587229
30
0
41
1
10
256.303946690579
20
23.3022831342185
30
0
41
1
10
256.284239905983
20
23.3059376218258
30
0
41
1
10
256.27396227176
20
23.3069943712713
30
0
41
1
10
256.253505882042
20
23.30736736463
30
0
41
1
10
256.243278795236
20
23.3067110356843
30
0
41
1
10
256.227943162663
20
23.3044223966489
30
0
41
1
10
256.222832110902
20
23.3034411015954
30
0
41
1
10
256.212612156555
20
23.3010204056732
30
0
41
1
10
256.207507581638
20
23.299578562535
30
0
41
1
10
256.192546931653
20
23.294654206859
30
0
41
1
10
256.182923183443
20
23.2905521510089
30
0
41
1
10
256.173649363711
20
23.2856313751786
30
0
0
SPLINE
5
175
100
AcDbEntity
8
1
62
256
6
ByLayer
370
18
48
1
60
0
100
AcDbSpline
70
4
71
3
72
32
73
28
40
0
40
0
40
0
40
0
40
0.125000000000007
40
0.125000000000007
40
0.187500000000011
40
0.187500000000011
40
0.250000000000015
40
0.250000000000015
40
0.375000000000009
40
0.375000000000009
40
0.406250000000011
40
0.406250000000011
40
0.437500000000012
40
0.500000000000015
40
0.562500000000018
40
0.562500000000018
40
0.625000000000021
40
0.625000000000021
40
0.687500000000024
40
0.687500000000024
40
0.750000000000027
40
0.750000000000027
40
0.875000000000019
40
0.875000000000019
40
0.93750000000001
40
0.93750000000001
40
1
40
1
40
1
40
1
41
1
10
256.394384562035
20
23.2497372907934
30
0
41
1
10
256.412095980151
20
23.2311234721438
30
0
41
1
10
256.431466132308
20
23.2141337855895
30
0
41
1
10
256.463232728024
20
23.1911373009426
30
0
41
1
10
256.47427706757
20
23.1838891873775
30
0
41
1
10
256.497370343648
20
23.1702778813331
30
0
41
1
10
256.509457243404
20
23.1639049530349
30
0
41
1
10
256.546546433766
20
23.1466174173119
30
0
41
1
10
256.57259604564
20
23.1373539570131
30
0
41
1
10
256.607126093113
20
23.1289421109452
30
0
41
1
10
256.614148591599
20
23.1274182636745
30
0
41
1
10
256.628182364227
20
23.124746026438
30
0
41
1
10
256.649288120185
20
23.1212813595002
30
0
41
1
10
256.684737988315
20
23.1181919090366
30
0
41
1
10
256.713392136254
20
23.118596117806
30
0
41
1
10
256.742198173431
20
23.120490542722
30
0
41
1
10
256.756406769722
20
23.122168552897
30
0
41
1
10
256.784246720938
20
23.1268668768991
30
0
41
1
10
256.797916330574
20
23.1298899923004
30
0
41
1
10
256.824787497041
20
23.1372336818519
30
0
41
1
10
256.838052674676
20
23.1415844342917
30
0
41
1
10
256.876335630028
20
23.1562219727757
30
0
41
1
10
256.900097177835
20
23.1681103441085
30
0
41
1
10
256.933532360446
20
23.1888293901237
30
0
41
1
10
256.944328505418
20
23.1962400661863
30
0
41
1
10
256.965091425295
20
23.2119481754145
30
0
41
1
10
256.975018753996
20
23.2202118639719
30
0
41
1
10
256.984515853851
20
23.2288759791278
30
0
0
SPLINE
5
176
100
AcDbEntity
8
1
62
256
6
ByLayer
370
18
48
1
60
0
100
AcDbSpline
70
4
71
3
72
24
73
20
40
0
40
0
40
0
40
0
40
0.124999999999974
40
0.124999999999974
40
0.249999999999948
40
0.249999999999948
40
0.312499999999935
40
0.312499999999935
40
0.374999999999922
40
0.374999999999922
40
0.499999999999938
40
0.499999999999938
40
0.624999999999953
40
0.624999999999953
40
0.749999999999969
40
0.749999999999969
40
0.874999999999984
40
0.874999999999984
40
1
40
1
40
1
40
1
41
1
10
257.207234625565
20
23.2490938375501
30
0
41
1
10
257.198362840818
20
23.2546375439353
30
0
41
1
10
257.188864339895
20
23.2595001939907
30
0
41
1
10
257.169519975717
20
23.2674066139142
30
0
41
1
10
257.159617705745
20
23.2705043176158
30
0
41
1
10
257.144427595068
20
23.2738939598264
30
0
41
1
10
257.139282230075
20
23.2748159956713
30
0
41
1
10
257.129029890943
20
23.27621179485
30
0
41
1
10
257.123922963324
20
23.2766884928189
30
0
41
1
10
257.108658449568
20
23.2774845846674
30
0
41
1
10
257.098556739014
20
23.2771739031561
30
0
41
1
10
257.078505145465
20
23.2749195804084
30
0
41
1
10
257.068677974333
20
23.2729791256305
30
0
41
1
10
257.049780467499
20
23.2676776628962
30
0
41
1
10
257.040647095414
20
23.2643092569254
30
0
41
1
10
257.023002309471
20
23.2561847261049
30
0
41
1
10
257.014621662075
20
23.2514831681898
30
0
41
1
10
256.99886450951
20
23.2410024847939
30
0
41
1
10
256.991457210759
20
23.2352085139553
30
0
41
1
10
256.984515853851
20
23.2288759791279
30
0
0
SPLINE
5
177
100
AcDbEntity
8
1
62
256
6
ByLayer
370
18
48
1
60
0
100
AcDbSpline
70
4
71
3
72
23
73
19
40
0
40
0
40
0
40
0
40
0.249999999999989
40
0.249999999999989
40
0.312499999999984
40
0.312499999999984
40
0.374999999999979
40
0.499999999999977
40
0.499999999999977
40
0.624999999999975
40
0.624999999999975
40
0.749999999999974
40
0.749999999999974
40
0.812499999999985
40
0.812499999999985
40
0.874999999999996
40
0.874999999999996
40
1
40
1
40
1
40
1
41
1
10
255.766148053215
20
22.5802061098176
30
0
41
1
10
255.747781826624
20
22.5758048232632
30
0
41
1
10
255.730214365347
20
22.568689259369
30
0
41
1
10
255.709405433578
20
22.5561123106848
30
0
41
1
10
255.705287028025
20
22.5533963861944
30
0
41
1
10
255.697309819536
20
22.5476635928183
30
0
41
1
10
255.685697407546
20
22.538594300166
30
0
41
1
10
255.675145472536
20
22.528124103498
30
0
41
1
10
255.662088369573
20
22.5128442301158
30
0
41
1
10
255.656017901359
20
22.5044476549902
30
0
41
1
10
255.645445144247
20
22.4868711135361
30
0
41
1
10
255.640892049013
20
22.4776589062389
30
0
41
1
10
255.635200191017
20
22.4631866644594
30
0
41
1
10
255.63349345771
20
22.4582530524735
30
0
41
1
10
255.630480216915
20
22.4481562657292
30
0
41
1
10
255.629179445522
20
22.4430009990798
30
0
41
1
10
255.625974629096
20
22.4275391115411
30
0
41
1
10
255.624726573432
20
22.4171226305261
30
0
41
1
10
255.624368070772
20
22.4065975559324
30
0
0
SPLINE
5
178
100
AcDbEntity
8
1
62
256
6
ByLayer
370
18
48
1
60
0
100
AcDbSpline
70
4
71
3
72
18
73
14
40
0
40
0
40
0
40
0
40
0.249999999999996
40
0.249999999999996
40
0.374999999999994
40
0.374999999999994
40
0.499999999999992
40
0.499999999999992
40
0.749999999999987
40
0.749999999999987
40
0.874999999999993
40
0.874999999999993
40
1
40
1
40
1
40
1
41
1
10
255.766148053215
20
22.5802061098176
30
0
41
1
10
255.789136991452
20
22.5857151840012
30
0
41
1
10
255.81163912075
20
22.5931317868199
30
0
41
1
10
255.844716157223
20
22.6072725785513
30
0
41
1
10
255.855628745548
20
22.6124920170486
30
0
41
1
10
255.87723145061
20
22.6240162606836
30
0
41
1
10
255.887975842466
20
22.6303576431457
30
0
41
1
10
255.919426947002
20
22.6508857591315
30
0
41
1
10
255.939295599386
20
22.6664863391458
30
0
41
1
10
255.967373743416
20
22.6930835284049
30
0
41
1
10
255.976483581012
20
22.7025328949907
30
0
41
1
10
255.993876133513
20
22.7223795692483
30
0
41
1
10
256.00212919493
20
22.7327338239566
30
0
41
1
10
256.00992730809
20
22.7435327210654
30
0
0
SPLINE
5
179
100
AcDbEntity
8
1
62
256
6
ByLayer
370
18
48
1
60
0
100
AcDbSpline
70
4
71
3
72
16
73
12
40
0
40
0
40
0
40
0
40
0.249999999999994
40
0.249999999999994
40
0.374999999999995
40
0.374999999999995
40
0.499999999999995
40
0.499999999999995
40
0.749999999999998
40
0.749999999999998
40
1
40
1
40
1
40
1
41
1
10
256.039832088319
20
22.7913903734487
30
0
41
1
10
256.05239424997
20
22.8148519791265
30
0
41
1
10
256.062416582284
20
22.8388462471854
30
0
41
1
10
256.074037248002
20
22.8755922115685
30
0
41
1
10
256.077337205545
20
22.8879680028165
30
0
41
1
10
256.0828044733
20
22.9129808347254
30
0
41
1
10
256.084926876728
20
22.9254122440312
30
0
41
1
10
256.089602201148
20
22.9624699346417
30
0
41
1
10
256.090484679909
20
22.9868904806956
30
0
41
1
10
256.088124381735
20
23.0353463565619
30
0
41
1
10
256.084891946518
20
23.0590067964977
30
0
41
1
10
256.079763282587
20
23.0820953902156
30
0
0
SPLINE
5
17A
100
AcDbEntity
8
1
62
256
6
ByLayer
370
18
48
1
60
0
100
AcDbSpline
70
4
71
3
72
24
73
20
40
0
40
0
40
0
40
0
40
0.125000000000014
40
0.125000000000014
40
0.250000000000028
40
0.250000000000028
40
0.312500000000035
40
0.312500000000035
40
0.375000000000042
40
0.375000000000042
40
0.500000000000034
40
0.500000000000034
40
0.625000000000025
40
0.625000000000025
40
0.750000000000017
40
0.750000000000017
40
0.875000000000008
40
0.875000000000008
40
1
40
1
40
1
40
1
41
1
10
256.173649363711
20
23.2856313751786
30
0
41
1
10
256.164381371237
20
23.2807136913466
30
0
41
1
10
256.155391093761
20
23.274907493356
30
0
41
1
10
256.138820001244
20
23.2620775654711
30
0
41
1
10
256.131163272802
20
23.2550315356855
30
0
41
1
10
256.120603007227
20
23.24353621282
30
0
41
1
10
256.117222702983
20
23.2395283320836
30
0
41
1
10
256.110874014367
20
23.2313235756361
30
0
41
1
10
256.107901785309
20
23.22712662288
30
0
41
1
10
256.099565084416
20
23.2142656183827
30
0
41
1
10
256.094776965195
20
23.2053330625962
30
0
41
1
10
256.086699085786
20
23.1867777082935
30
0
41
1
10
256.083471403272
20
23.1772727111154
30
0
41
1
10
256.078629096542
20
23.1582000154326
30
0
41
1
10
256.076990866517
20
23.1485769547859
30
0
41
1
10
256.075235997564
20
23.1291735868351
30
0
41
1
10
256.075137629606
20
23.1195487195614
30
0
41
1
10
256.076380940459
20
23.1006216458794
30
0
41
1
10
256.07772072703
20
23.0912907159461
30
0
41
1
10
256.079763282587
20
23.0820953902157
30
0
0
SPLINE
5
17B
100
AcDbEntity
8
1
62
256
6
ByLayer
370
18
48
1
60
0
100
AcDbSpline
70
4
71
3
72
10
73
6
40
0
40
0
40
0
40
0
40
0.876183133825518
40
0.876183133825518
40
1
40
1
40
1
40
1
41
1
10
237.037499619163
20
-21.4153316785174
30
0
41
1
10
237.037499619163
20
-21.6062587650067
30
0
41
1
10
237.037499619163
20
-21.7971856604488
30
0
41
1
10
237.037499619163
20
-22.0150926935797
30
0
41
1
10
237.037499619163
20
-22.0420732505415
30
0
41
1
10
237.037499619163
20
-22.069053797288
30
0
0
SPLINE
5
17C
100
AcDbEntity
8
1
62
256
6
ByLayer
370
18
48
1
60
0
100
AcDbSpline
70
4
71
3
72
10
73
6
40
0
40
0
40
0
40
0
40
0.876183133825518
40
0.876183133825518
40
1
40
1
40
1
40
1
41
1
10
236.962499619163
20
-21.4153316785174
30
0
41
1
10
236.962499619163
20
-21.6062587650067
30
0
41
1
10
236.962499619163
20
-21.7971856604488
30
0
41
1
10
236.962499619163
20
-22.0150926935797
30
0
41
1
10
236.962499619163
20
-22.0420732505415
30
0
41
1
10
236.962499619163
20
-22.069053797288
30
0
0
SPLINE
5
17D
100
AcDbEntity
8
1
62
256
6
ByLayer
370
18
48
1
60
0
100
AcDbSpline
70
4
71
3
72
8
73
4
40
0
40
0
40
0
40
0
40
1
40
1
40
1
40
1
41
1
10
238.515323794881
20
-21.4153316785174
30
0
41
1
10
238.429761435914
20
-21.5617482307116
30
0
41
1
10
238.344199073791
20
-21.7081646654489
30
0
41
1
10
238.25863670599
20
-21.8545808889766
30
0
0
SPLINE
5
17E
100
AcDbEntity
8
1
62
256
6
ByLayer
370
18
48
1
60
0
100
AcDbSpline
70
4
71
3
72
8
73
4
40
0
40
0
40
0
40
0
40
1
40
1
40
1
40
1
41
1
10
238.25863670599
20
-21.8545808889766
30
0
41
1
10
238.233834376746
20
-21.854600613621
30
0
41
1
10
238.209031493063
20
-21.854600613621
30
0
41
1
10
238.184228103391
20
-21.8545808889766
30
0
0
SPLINE
5
17F
100
AcDbEntity
8
1
62
256
6
ByLayer
370
18
48
1
60
0
100
AcDbSpline
70
4
71
3
72
8
73
4
40
0
40
0
40
0
40
0
40
1
40
1
40
1
40
1
41
1
10
238.440915192282
20
-21.4153316785174
30
0
41
1
10
238.355352833316
20
-21.5617482307116
30
0
41
1
10
238.269790471192
20
-21.7081646654489
30
0
41
1
10
238.184228103391
20
-21.8545808889766
30
0
0
SPLINE
5
180
100
AcDbEntity
8
1
62
256
6
ByLayer
370
18
48
1
60
0
100
AcDbSpline
70
4
71
3
72
8
73
4
40
0
40
0
40
0
40
0
40
1
40
1
40
1
40
1
41
1
10
236.962499619163
20
-22.069053797288
30
0
41
1
10
236.987499609056
20
-22.0690757773036
30
0
41
1
10
237.01249962927
20
-22.0690757773036
30
0
41
1
10
237.037499619163
20
-22.069053797288
30
0
0
SPLINE
5
181
100
AcDbEntity
8
1
62
256
6
ByLayer
370
18
48
1
60
0
100
AcDbSpline
70
4
71
3
72
8
73
4
40
0
40
0
40
0
40
0
40
1
40
1
40
1
40
1
41
1
10
235.559084046044
20
-21.4153316785174
30
0
41
1
10
235.644646405011
20
-21.5617482307116
30
0
41
1
10
235.730208767134
20
-21.7081646654489
30
0
41
1
10
235.815771134935
20
-21.8545808889766
30
0
0
SPLINE
5
182
100
AcDbEntity
8
1
62
256
6
ByLayer
370
18
48
1
60
0
100
AcDbSpline
70
4
71
3
72
8
73
4
40
0
40
0
40
0
40
0
40
1
40
1
40
1
40
1
41
1
10
235.815771134935
20
-21.8545808889766
30
0
41
1
10
235.790967745263
20
-21.854600613621
30
0
41
1
10
235.766164861581
20
-21.854600613621
30
0
41
1
10
235.741362532337
20
-21.8545808889766
30
0
0
SPLINE
5
183
100
AcDbEntity
8
1
62
256
6
ByLayer
370
18
48
1
60
0
100
AcDbSpline
70
4
71
3
72
8
73
4
40
0
40
0
40
0
40
0
40
1
40
1
40
1
40
1
41
1
10
235.484675443446
20
-21.4153316785174
30
0
41
1
10
235.570237802412
20
-21.5617482307116
30
0
41
1
10
235.655800164536
20
-21.7081646654489
30
0
41
1
10
235.741362532337
20
-21.8545808889766
30
0
0
SPLINE
5
184
100
AcDbEntity
8
1
62
256
6
ByLayer
370
18
48
1
60
0
100
AcDbSpline
70
4
71
3
72
8
73
4
40
0
40
0
40
0
40
0
40
1
40
1
40
1
40
1
41
1
10
234.103392572275
20
-21.4153316785174
30
0
41
1
10
234.273167920694
20
-21.5617482307116
30
0
41
1
10
234.442943275378
20
-21.7081646654489
30
0
41
1
10
234.612718641328
20
-21.8545808889766
30
0
0
SPLINE
5
185
100
AcDbEntity
8
1
62
256
6
ByLayer
370
18
48
1
60
0
100
AcDbSpline
70
4
71
3
72
8
73
4
40
0
40
0
40
0
40
0
40
1
40
1
40
1
40
1
41
1
10
234.612718641328
20
-21.8545808889766
30
0
41
1
10
234.588503018117
20
-21.854600613621
30
0
41
1
10
234.564288423321
20
-21.854600613621
30
0
41
1
10
234.540074904243
20
-21.8545808889766
30
0
0
SPLINE
5
186
100
AcDbEntity
8
1
62
256
6
ByLayer
370
18
48
1
60
0
100
AcDbSpline
70
4
71
3
72
8
73
4
40
0
40
0
40
0
40
0
40
1
40
1
40
1
40
1
41
1
10
234.03074883519
20
-21.4153316785174
30
0
41
1
10
234.200524183609
20
-21.5617482307116
30
0
41
1
10
234.370299538293
20
-21.7081646654489
30
0
41
1
10
234.540074904243
20
-21.8545808889766
30
0
0
SPLINE
5
187
100
AcDbEntity
8
1
62
256
6
ByLayer
370
18
48
1
60
0
100
AcDbSpline
70
4
71
3
72
8
73
4
40
0
40
0
40
0
40
0
40
1
40
1
40
1
40
1
41
1
10
232.693382321984
20
-21.4153316785174
30
0
41
1
10
232.944693201193
20
-21.5617482307116
30
0
41
1
10
233.196004089675
20
-21.7081646654489
30
0
41
1
10
233.447314994833
20
-21.8545808889766
30
0
0
SPLINE
5
188
100
AcDbEntity
8
1
62
256
6
ByLayer
370
18
48
1
60
0
100
AcDbSpline
70
4
71
3
72
8
73
4
40
0
40
0
40
0
40
0
40
1
40
1
40
1
40
1
41
1
10
233.447314994833
20
-21.8545808889766
30
0
41
1
10
233.424069032926
20
-21.854600613621
30
0
41
1
10
233.400824605644
20
-21.854600613621
30
0
41
1
10
233.377581758391
20
-21.8545808889766
30
0
0
SPLINE
5
189
100
AcDbEntity
8
1
62
256
6
ByLayer
370
18
48
1
60
0
100
AcDbSpline
70
4
71
3
72
8
73
4
40
0
40
0
40
0
40
0
40
1
40
1
40
1
40
1
41
1
10
232.623649085542
20
-21.4153316785174
30
0
41
1
10
232.874959964751
20
-21.5617482307116
30
0
41
1
10
233.126270853233
20
-21.7081646654489
30
0
41
1
10
233.377581758391
20
-21.8545808889766
30
0
0
SPLINE
5
18A
100
AcDbEntity
8
1
62
256
6
ByLayer
370
18
48
1
60
0
100
AcDbSpline
70
4
71
3
72
8
73
4
40
0
40
0
40
0
40
0
40
1
40
1
40
1
40
1
41
1
10
231.351289999118
20
-21.4153316785174
30
0
41
1
10
231.680173086425
20
-21.5617482307116
30
0
41
1
10
232.009056185869
20
-21.7081646654489
30
0
41
1
10
232.337939307135
20
-21.8545808889766
30
0
0
SPLINE
5
18B
100
AcDbEntity
8
1
62
256
6
ByLayer
370
18
48
1
60
0
100
AcDbSpline
70
4
71
3
72
8
73
4
40
0
40
0
40
0
40
0
40
1
40
1
40
1
40
1
41
1
10
232.337939307135
20
-21.8545808889766
30
0
41
1
10
232.316029609238
20
-21.854600613621
30
0
41
1
10
232.294121927972
20
-21.854600613621
30
0
41
1
10
232.272216306131
20
-21.8545808889766
30
0
0
SPLINE
5
18C
100
AcDbEntity
8
1
62
256
6
ByLayer
370
18
48
1
60
0
100
AcDbSpline
70
4
71
3
72
8
73
4
40
0
40
0
40
0
40
0
40
1
40
1
40
1
40
1
41
1
10
231.285566998115
20
-21.4153316785174
30
0
41
1
10
231.614450085422
20
-21.5617482307116
30
0
41
1
10
231.943333184865
20
-21.7081646654489
30
0
41
1
10
232.272216306131
20
-21.8545808889766
30
0
0
SPLINE
5
18D
100
AcDbEntity
8
1
62
256
6
ByLayer
370
18
48
1
60
0
100
AcDbSpline
70
4
71
3
72
8
73
4
40
0
40
0
40
0
40
0
40
1
40
1
40
1
40
1
41
1
10
230.098281201336
20
-21.4153316785174
30
0
41
1
10
230.695478274978
20
-21.6332394184846
30
0
41
1
10
231.292675378764
20
-21.8511469193309
30
0
41
1
10
231.889872561075
20
-22.069053797288
30
0
0
SPLINE
5
18E
100
AcDbEntity
8
1
62
256
6
ByLayer
370
18
48
1
60
0
100
AcDbSpline
70
4
71
3
72
8
73
4
40
0
40
0
40
0
40
0
40
1
40
1
40
1
40
1
41
1
10
231.829196286497
20
-22.069053797288
30
0
41
1
10
231.849418932268
20
-22.0690757773036
30
0
41
1
10
231.869644373481
20
-22.0690757773036
30
0
41
1
10
231.889872561075
20
-22.069053797288
30
0
0
SPLINE
5
18F
100
AcDbEntity
8
1
62
256
6
ByLayer
370
18
48
1
60
0
100
AcDbSpline
70
4
71
3
72
8
73
4
40
0
40
0
40
0
40
0
40
1
40
1
40
1
40
1
41
1
10
230.037604926758
20
-21.4153316785174
30
0
41
1
10
230.6348020004
20
-21.6332394184846
30
0
41
1
10
231.231999104186
20
-21.8511469193309
30
0
41
1
10
231.829196286497
20
-22.069053797288
30
0
0
SPLINE
5
190
100
AcDbEntity
8
1
62
256
6
ByLayer
370
18
48
1
60
0
100
AcDbSpline
70
4
71
3
72
8
73
4
40
0
40
0
40
0
40
0
40
1
40
1
40
1
40
1
41
1
10
228.954116625889
20
-21.4153316785174
30
0
41
1
10
229.421442518162
20
-21.5617482307116
30
0
41
1
10
229.888768427679
20
-21.7081646654489
30
0
41
1
10
230.356094368205
20
-21.8545808889766
30
0
0
SPLINE
5
191
100
AcDbEntity
8
1
62
256
6
ByLayer
370
18
48
1
60
0
100
AcDbSpline
70
4
71
3
72
8
73
4
40
0
40
0
40
0
40
0
40
1
40
1
40
1
40
1
41
1
10
230.356094368205
20
-21.8545808889766
30
0
41
1
10
230.33786726252
20
-21.854600613621
30
0
41
1
10
230.319643034969
20
-21.854600613621
30
0
41
1
10
230.301421721148
20
-21.8545808889766
30
0
0
SPLINE
5
192
100
AcDbEntity
8
1
62
256
6
ByLayer
370
18
48
1
60
0
100
AcDbSpline
70
4
71
3
72
8
73
4
40
0
40
0
40
0
40
0
40
1
40
1
40
1
40
1
41
1
10
228.899443978833
20
-21.4153316785174
30
0
41
1
10
229.366769871105
20
-21.5617482307116
30
0
41
1
10
229.834095780622
20
-21.7081646654489
30
0
41
1
10
230.301421721148
20
-21.8545808889766
30
0
0
SPLINE
5
193
100
AcDbEntity
8
1
62
256
6
ByLayer
370
18
48
1
60
0
100
AcDbSpline
70
4
71
3
72
8
73
4
40
0
40
0
40
0
40
0
40
1
40
1
40
1
40
1
41
1
10
227.936840431624
20
-21.4153316785174
30
0
41
1
10
228.462853595027
20
-21.5617482307116
30
0
41
1
10
228.988866777841
20
-21.7081646654489
30
0
41
1
10
229.514879995557
20
-21.8545808889766
30
0
0
SPLINE
5
194
100
AcDbEntity
8
1
62
256
6
ByLayer
370
18
48
1
60
0
100
AcDbSpline
70
4
71
3
72
8
73
4
40
0
40
0
40
0
40
0
40
1
40
1
40
1
40
1
41
1
10
229.514879995557
20
-21.8545808889766
30
0
41
1
10
229.498941141395
20
-21.854600613621
30
0
41
1
10
229.483005531275
20
-21.854600613621
30
0
41
1
10
229.467073196326
20
-21.8545808889766
30
0
0
SPLINE
5
195
100
AcDbEntity
8
1
62
256
6
ByLayer
370
18
48
1
60
0
100
AcDbSpline
70
4
71
3
72
8
73
4
40
0
40
0
40
0
40
0
40
1
40
1
40
1
40
1
41
1
10
227.889033632393
20
-21.4153316785174
30
0
41
1
10
228.415046795796
20
-21.5617482307116
30
0
41
1
10
228.94105997861
20
-21.7081646654489
30
0
41
1
10
229.467073196326
20
-21.8545808889766
30
0
0
SPLINE
5
196
100
AcDbEntity
8
1
62
256
6
ByLayer
370
18
48
1
60
0
100
AcDbSpline
70
4
71
3
72
8
73
4
40
0
40
0
40
0
40
0
40
1
40
1
40
1
40
1
41
1
10
227.062495671816
20
-21.4153316785174
30
0
41
1
10
227.638900564538
20
-21.5617482307116
30
0
41
1
10
228.215305478529
20
-21.7081646654489
30
0
41
1
10
228.791710430767
20
-21.8545808889766
30
0
0
SPLINE
5
197
100
AcDbEntity
8
1
62
256
6
ByLayer
370
18
48
1
60
0
100
AcDbSpline
70
4
71
3
72
8
73
4
40
0
40
0
40
0
40
0
40
1
40
1
40
1
40
1
41
1
10
228.791710430767
20
-21.8545808889766
30
0
41
1
10
228.778311193379
20
-21.854600613621
30
0
41
1
10
228.764915514783
20
-21.854600613621
30
0
41
1
10
228.751523421144
20
-21.8545808889766
30
0
0
SPLINE
5
198
100
AcDbEntity
8
1
62
256
6
ByLayer
370
18
48
1
60
0
100
AcDbSpline
70
4
71
3
72
8
73
4
40
0
40
0
40
0
40
0
40
1
40
1
40
1
40
1
41
1
10
227.022308662193
20
-21.4153316785174
30
0
41
1
10
227.598713554914
20
-21.5617482307116
30
0
41
1
10
228.175118468906
20
-21.7081646654489
30
0
41
1
10
228.751523421144
20
-21.8545808889766
30
0
0
SPLINE
5
199
100
AcDbEntity
8
1
62
256
6
ByLayer
370
18
48
1
60
0
100
AcDbSpline
70
4
71
3
72
8
73
4
40
0
40
0
40
0
40
0
40
1
40
1
40
1
40
1
41
1
10
226.344871285634
20
-21.4153316785174
30
0
41
1
10
226.962577658189
20
-21.5617482307116
30
0
41
1
10
227.580284053537
20
-21.7081646654489
30
0
41
1
10
228.197990489873
20
-21.8545808889766
30
0
0
SPLINE
5
19A
100
AcDbEntity
8
1
62
256
6
ByLayer
370
18
48
1
60
0
100
AcDbSpline
70
4
71
3
72
8
73
4
40
0
40
0
40
0
40
0
40
1
40
1
40
1
40
1
41
1
10
228.197990489873
20
-21.8545808889766
30
0
41
1
10
228.187342183237
20
-21.854600613621
30
0
41
1
10
228.176697694017
20
-21.854600613621
30
0
41
1
10
228.166057043005
20
-21.8545808889766
30
0
0
SPLINE
5
19B
100
AcDbEntity
8
1
62
256
6
ByLayer
370
18
48
1
60
0
100
AcDbSpline
70
4
71
3
72
8
73
4
40
0
40
0
40
0
40
0
40
1
40
1
40
1
40
1
41
1
10
226.312937838767
20
-21.4153316785174
30
0
41
1
10
226.930644211321
20
-21.5617482307116
30
0
41
1
10
227.548350606669
20
-21.7081646654489
30
0
41
1
10
228.166057043005
20
-21.8545808889766
30
0
0
SPLINE
5
19C
100
AcDbEntity
8
1
62
256
6
ByLayer
370
18
48
1
60
0
100
AcDbSpline
70
4
71
3
72
8
73
4
40
0
40
0
40
0
40
0
40
1
40
1
40
1
40
1
41
1
10
225.795284638337
20
-21.4153316785174
30
0
41
1
10
226.761569801472
20
-21.6332394184846
30
0
41
1
10
227.727855013382
20
-21.8511469193309
30
0
41
1
10
228.694140352346
20
-22.069053797288
30
0
0
SPLINE
5
19D
100
AcDbEntity
8
1
62
256
6
ByLayer
370
18
48
1
60
0
100
AcDbSpline
70
4
71
3
72
8
73
4
40
0
40
0
40
0
40
0
40
1
40
1
40
1
40
1
41
1
10
228.670964077768
20
-22.069053797288
30
0
41
1
10
228.678685016076
20
-22.0690757773036
30
0
41
1
10
228.686410447181
20
-22.0690757773036
30
0
41
1
10
228.694140352346
20
-22.069053797288
30
0
0
SPLINE
5
19E
100
AcDbEntity
8
1
62
256
6
ByLayer
370
18
48
1
60
0
100
AcDbSpline
70
4
71
3
72
8
73
4
40
0
40
0
40
0
40
0
40
1
40
1
40
1
40
1
41
1
10
225.772108363759
20
-21.4153316785174
30
0
41
1
10
226.738393526894
20
-21.6332394184846
30
0
41
1
10
227.704678738803
20
-21.8511469193309
30
0
41
1
10
228.670964077768
20
-22.069053797288
30
0
0
SPLINE
5
19F
100
AcDbEntity
8
1
62
256
6
ByLayer
370
18
48
1
60
0
100
AcDbSpline
70
4
71
3
72
8
73
4
40
0
40
0
40
0
40
0
40
1
40
1
40
1
40
1
41
1
10
225.42240303966
20
-21.4153316785174
30
0
41
1
10
226.092989858214
20
-21.5617482307116
30
0
41
1
10
226.763576701512
20
-21.7081646654489
30
0
41
1
10
227.434163589307
20
-21.8545808889766
30
0
0
SPLINE
5
1A0
100
AcDbEntity
8
1
62
256
6
ByLayer
370
18
48
1
60
0
100
AcDbSpline
70
4
71
3
72
8
73
4
40
0
40
0
40
0
40
0
40
1
40
1
40
1
40
1
41
1
10
227.434163589307
20
-21.8545808889766
30
0
41
1
10
227.429474902465
20
-21.854600613621
30
0
41
1
10
227.42479036655
20
-21.854600613621
30
0
41
1
10
227.420109990713
20
-21.8545808889766
30
0
0
SPLINE
5
1A1
100
AcDbEntity
8
1
62
256
6
ByLayer
370
18
48
1
60
0
100
AcDbSpline
70
4
71
3
72
8
73
4
40
0
40
0
40
0
40
0
40
1
40
1
40
1
40
1
41
1
10
225.408349441066
20
-21.4153316785174
30
0
41
1
10
226.07893625962
20
-21.5617482307116
30
0
41
1
10
226.749523102918
20
-21.7081646654489
30
0
41
1
10
227.420109990713
20
-21.8545808889766
30
0
0
SPLINE
5
1A2
100
AcDbEntity
8
1
62
256
6
ByLayer
370
18
48
1
60
0
100
AcDbSpline
70
4
71
3
72
8
73
4
40
0
40
0
40
0
40
0
40
1
40
1
40
1
40
1
41
1
10
225.232107055163
20
-21.4153316785174
30
0
41
1
10
225.91343888366
20
-21.5617482307116
30
0
41
1
10
226.594770737298
20
-21.7081646654489
30
0
41
1
10
227.276102636145
20
-21.8545808889766
30
0
0
SPLINE
5
1A3
100
AcDbEntity
8
1
62
256
6
ByLayer
370
18
48
1
60
0
100
AcDbSpline
70
4
71
3
72
8
73
4
40
0
40
0
40
0
40
0
40
1
40
1
40
1
40
1
41
1
10
227.276102636145
20
-21.8545808889766
30
0
41
1
10
227.274528651581
20
-21.854600613621
30
0
41
1
10
227.272958887571
20
-21.854600613621
30
0
41
1
10
227.271393347181
20
-21.8545808889766
30
0
0
SPLINE
5
1A4
100
AcDbEntity
8
1
62
256
6
ByLayer
370
18
48
1
60
0
100
AcDbSpline
70
4
71
3
72
8
73
4
40
0
40
0
40
0
40
0
40
1
40
1
40
1
40
1
41
1
10
225.227397766198
20
-21.4153316785174
30
0
41
1
10
225.908729594695
20
-21.5617482307116
30
0
41
1
10
226.590061448333
20
-21.7081646654489
30
0
41
1
10
227.271393347181
20
-21.8545808889766
30
0
0
SPLINE
5
1A5
100
AcDbEntity
8
1
62
256
6
ByLayer
370
18
48
1
60
0
100
AcDbSpline
70
4
71
3
72
8
73
4
40
0
40
0
40
0
40
0
40
1
40
1
40
1
40
1
41
1
10
248.772601472128
20
-21.4153316785174
30
0
41
1
10
248.091269643632
20
-21.5617482307116
30
0
41
1
10
247.409937789993
20
-21.7081646654489
30
0
41
1
10
246.728605891146
20
-21.8545808889766
30
0
0
SPLINE
5
1A6
100
AcDbEntity
8
1
62
256
6
ByLayer
370
18
48
1
60
0
100
AcDbSpline
70
4
71
3
72
8
73
4
40
0
40
0
40
0
40
0
40
1
40
1
40
1
40
1
41
1
10
246.728605891146
20
-21.8545808889766
30
0
41
1
10
246.727040350756
20
-21.854600613621
30
0
41
1
10
246.725470586746
20
-21.854600613621
30
0
41
1
10
246.723896602181
20
-21.8545808889766
30
0
0
SPLINE
5
1A7
100
AcDbEntity
8
1
62
256
6
ByLayer
370
18
48
1
60
0
100
AcDbSpline
70
4
71
3
72
8
73
4
40
0
40
0
40
0
40
0
40
1
40
1
40
1
40
1
41
1
10
248.767892183163
20
-21.4153316785174
30
0
41
1
10
248.086560354667
20
-21.5617482307116
30
0
41
1
10
247.405228501029
20
-21.7081646654489
30
0
41
1
10
246.723896602181
20
-21.8545808889766
30
0
0
SPLINE
5
1A8
100
AcDbEntity
8
1
62
256
6
ByLayer
370
18
48
1
60
0
100
AcDbSpline
70
4
71
3
72
8
73
4
40
0
40
0
40
0
40
0
40
1
40
1
40
1
40
1
41
1
10
248.59164979726
20
-21.4153316785174
30
0
41
1
10
247.921062978707
20
-21.5617482307116
30
0
41
1
10
247.250476135408
20
-21.7081646654489
30
0
41
1
10
246.579889247614
20
-21.8545808889766
30
0
0
SPLINE
5
1A9
100
AcDbEntity
8
1
62
256
6
ByLayer
370
18
48
1
60
0
100
AcDbSpline
70
4
71
3
72
8
73
4
40
0
40
0
40
0
40
0
40
1
40
1
40
1
40
1
41
1
10
246.579889247614
20
-21.8545808889766
30
0
41
1
10
246.575208871777
20
-21.854600613621
30
0
41
1
10
246.570524335862
20
-21.854600613621
30
0
41
1
10
246.56583564902
20
-21.8545808889766
30
0
0
SPLINE
5
1AA
100
AcDbEntity
8
1
62
256
6
ByLayer
370
18
48
1
60
0
100
AcDbSpline
70
4
71
3
72
8
73
4
40
0
40
0
40
0
40
0
40
1
40
1
40
1
40
1
41
1
10
248.577596198666
20
-21.4153316785174
30
0
41
1
10
247.907009380113
20
-21.5617482307116
30
0
41
1
10
247.236422536814
20
-21.7081646654489
30
0
41
1
10
246.56583564902
20
-21.8545808889766
30
0
0
SPLINE
5
1AB
100
AcDbEntity
8
1
62
256
6
ByLayer
370
18
48
1
60
0
100
AcDbSpline
70
4
71
3
72
8
73
4
40
0
40
0
40
0
40
0
40
1
40
1
40
1
40
1
41
1
10
248.227890874567
20
-21.4153316785174
30
0
41
1
10
247.261605711433
20
-21.6332394184846
30
0
41
1
10
246.295320499523
20
-21.8511469193309
30
0
41
1
10
245.329035160559
20
-22.069053797288
30
0
0
SPLINE
5
1AC
100
AcDbEntity
8
1
62
256
6
ByLayer
370
18
48
1
60
0
100
AcDbSpline
70
4
71
3
72
8
73
4
40
0
40
0
40
0
40
0
40
1
40
1
40
1
40
1
41
1
10
245.305858885981
20
-22.069053797288
30
0
41
1
10
245.313588791145
20
-22.0690757773036
30
0
41
1
10
245.321314222251
20
-22.0690757773036
30
0
41
1
10
245.329035160559
20
-22.069053797288
30
0
0
SPLINE
5
1AD
100
AcDbEntity
8
1
62
256
6
ByLayer
370
18
48
1
60
0
100
AcDbSpline
70
4
71
3
72
8
73
4
40
0
40
0
40
0
40
0
40
1
40
1
40
1
40
1
41
1
10
248.204714599989
20
-21.4153316785174
30
0
41
1
10
247.238429436854
20
-21.6332394184846
30
0
41
1
10
246.272144224945
20
-21.8511469193309
30
0
41
1
10
245.305858885981
20
-22.069053797288
30
0
0
SPLINE
5
1AE
100
AcDbEntity
8
1
62
256
6
ByLayer
370
18
48
1
60
0
100
AcDbSpline
70
4
71
3
72
8
73
4
40
0
40
0
40
0
40
0
40
1
40
1
40
1
40
1
41
1
10
247.68706139956
20
-21.4153316785174
30
0
41
1
10
247.069355027005
20
-21.5617482307116
30
0
41
1
10
246.451648631657
20
-21.7081646654489
30
0
41
1
10
245.833942195321
20
-21.8545808889766
30
0
0
SPLINE
5
1AF
100
AcDbEntity
8
1
62
256
6
ByLayer
370
18
48
1
60
0
100
AcDbSpline
70
4
71
3
72
8
73
4
40
0
40
0
40
0
40
0
40
1
40
1
40
1
40
1
41
1
10
245.833942195321
20
-21.8545808889766
30
0
41
1
10
245.82330154431
20
-21.854600613621
30
0
41
1
10
245.812657055089
20
-21.854600613621
30
0
41
1
10
245.802008748454
20
-21.8545808889766
30
0
0
SPLINE
5
1B0
100
AcDbEntity
8
1
62
256
6
ByLayer
370
18
48
1
60
0
100
AcDbSpline
70
4
71
3
72
8
73
4
40
0
40
0
40
0
40
0
40
1
40
1
40
1
40
1
41
1
10
247.655127952692
20
-21.4153316785174
30
0
41
1
10
247.037421580138
20
-21.5617482307116
30
0
41
1
10
246.41971518479
20
-21.7081646654489
30
0
41
1
10
245.802008748454
20
-21.8545808889766
30
0
0
SPLINE
5
1B1
100
AcDbEntity
8
1
62
256
6
ByLayer
370
18
48
1
60
0
100
AcDbSpline
70
4
71
3
72
8
73
4
40
0
40
0
40
0
40
0
40
1
40
1
40
1
40
1
41
1
10
246.977690576134
20
-21.4153316785174
30
0
41
1
10
246.401285683412
20
-21.5617482307116
30
0
41
1
10
245.824880769421
20
-21.7081646654489
30
0
41
1
10
245.248475817183
20
-21.8545808889766
30
0
0
SPLINE
5
1B2
100
AcDbEntity
8
1
62
256
6
ByLayer
370
18
48
1
60
0
100
AcDbSpline
70
4
71
3
72
8
73
4
40
0
40
0
40
0
40
0
40
1
40
1
40
1
40
1
41
1
10
245.248475817183
20
-21.8545808889766
30
0
41
1
10
245.235083723544
20
-21.854600613621
30
0
41
1
10
245.221688044947
20
-21.854600613621
30
0
41
1
10
245.208288807559
20
-21.8545808889766
30
0
0
SPLINE
5
1B3
100
AcDbEntity
8
1
62
256
6
ByLayer
370
18
48
1
60
0
100
AcDbSpline
70
4
71
3
72
8
73
4
40
0
40
0
40
0
40
0
40
1
40
1
40
1
40
1
41
1
10
246.93750356651
20
-21.4153316785174
30
0
41
1
10
246.361098673789
20
-21.5617482307116
30
0
41
1
10
245.784693759798
20
-21.7081646654489
30
0
41
1
10
245.208288807559
20
-21.8545808889766
30
0
0
SPLINE
5
1B4
100
AcDbEntity
8
1
62
256
6
ByLayer
370
18
48
1
60
0
100
AcDbSpline
70
4
71
3
72
8
73
4
40
0
40
0
40
0
40
0
40
1
40
1
40
1
40
1
41
1
10
246.110965605933
20
-21.4153316785174
30
0
41
1
10
245.58495244253
20
-21.5617482307116
30
0
41
1
10
245.058939259717
20
-21.7081646654489
30
0
41
1
10
244.532926042
20
-21.8545808889766
30
0
0
SPLINE
5
1B5
100
AcDbEntity
8
1
62
256
6
ByLayer
370
18
48
1
60
0
100
AcDbSpline
70
4
71
3
72
8
73
4
40
0
40
0
40
0
40
0
40
1
40
1
40
1
40
1
41
1
10
244.532926042
20
-21.8545808889766
30
0
41
1
10
244.516993707051
20
-21.854600613621
30
0
41
1
10
244.501058096931
20
-21.854600613621
30
0
41
1
10
244.485119242769
20
-21.8545808889766
30
0
0
SPLINE
5
1B6
100
AcDbEntity
8
1
62
256
6
ByLayer
370
18
48
1
60
0
100
AcDbSpline
70
4
71
3
72
8
73
4
40
0
40
0
40
0
40
0
40
1
40
1
40
1
40
1
41
1
10
246.063158806702
20
-21.4153316785174
30
0
41
1
10
245.537145643299
20
-21.5617482307116
30
0
41
1
10
245.011132460486
20
-21.7081646654489
30
0
41
1
10
244.485119242769
20
-21.8545808889766
30
0
0
SPLINE
5
1B7
100
AcDbEntity
8
1
62
256
6
ByLayer
370
18
48
1
60
0
100
AcDbSpline
70
4
71
3
72
8
73
4
40
0
40
0
40
0
40
0
40
1
40
1
40
1
40
1
41
1
10
245.100555259494
20
-21.4153316785174
30
0
41
1
10
244.633229367221
20
-21.5617482307116
30
0
41
1
10
244.165903457704
20
-21.7081646654489
30
0
41
1
10
243.698577517178
20
-21.8545808889766
30
0
0
SPLINE
5
1B8
100
AcDbEntity
8
1
62
256
6
ByLayer
370
18
48
1
60
0
100
AcDbSpline
70
4
71
3
72
8
73
4
40
0
40
0
40
0
40
0
40
1
40
1
40
1
40
1
41
1
10
243.698577517178
20
-21.8545808889766
30
0
41
1
10
243.680356203358
20
-21.854600613621
30
0
41
1
10
243.662131975806
20
-21.854600613621
30
0
41
1
10
243.643904870121
20
-21.8545808889766
30
0
0
SPLINE
5
1B9
100
AcDbEntity
8
1
62
256
6
ByLayer
370
18
48
1
60
0
100
AcDbSpline
70
4
71
3
72
8
73
4
40
0
40
0
40
0
40
0
40
1
40
1
40
1
40
1
41
1
10
245.045882612437
20
-21.4153316785174
30
0
41
1
10
244.578556720165
20
-21.5617482307116
30
0
41
1
10
244.111230810648
20
-21.7081646654489
30
0
41
1
10
243.643904870121
20
-21.8545808889766
30
0
0
SPLINE
5
1BA
100
AcDbEntity
8
1
62
256
6
ByLayer
370
18
48
1
60
0
100
AcDbSpline
70
4
71
3
72
8
73
4
40
0
40
0
40
0
40
0
40
1
40
1
40
1
40
1
41
1
10
243.962394311569
20
-21.4153316785174
30
0
41
1
10
243.365197237927
20
-21.6332394184846
30
0
41
1
10
242.76800013414
20
-21.8511469193309
30
0
41
1
10
242.17080295183
20
-22.069053797288
30
0
0
SPLINE
5
1BB
100
AcDbEntity
8
1
62
256
6
ByLayer
370
18
48
1
60
0
100
AcDbSpline
70
4
71
3
72
8
73
4
40
0
40
0
40
0
40
0
40
1
40
1
40
1
40
1
41
1
10
242.110126677252
20
-22.069053797288
30
0
41
1
10
242.130354864845
20
-22.0690757773036
30
0
41
1
10
242.150580306058
20
-22.0690757773036
30
0
41
1
10
242.17080295183
20
-22.069053797288
30
0
0
SPLINE
5
1BC
100
AcDbEntity
8
1
62
256
6
ByLayer
370
18
48
1
60
0
100
AcDbSpline
70
4
71
3
72
8
73
4
40
0
40
0
40
0
40
0
40
1
40
1
40
1
40
1
41
1
10
243.901718036991
20
-21.4153316785174
30
0
41
1
10
243.304520963349
20
-21.6332394184846
30
0
41
1
10
242.707323859562
20
-21.8511469193309
30
0
41
1
10
242.110126677252
20
-22.069053797288
30
0
0
SPLINE
5
1BD
100
AcDbEntity
8
1
62
256
6
ByLayer
370
18
48
1
60
0
100
AcDbSpline
70
4
71
3
72
8
73
4
40
0
40
0
40
0
40
0
40
1
40
1
40
1
40
1
41
1
10
242.714432240212
20
-21.4153316785174
30
0
41
1
10
242.385549152904
20
-21.5617482307116
30
0
41
1
10
242.056666053461
20
-21.7081646654489
30
0
41
1
10
241.727782932195
20
-21.8545808889766
30
0
0
SPLINE
5
1BE
100
AcDbEntity
8
1
62
256
6
ByLayer
370
18
48
1
60
0
100
AcDbSpline
70
4
71
3
72
8
73
4
40
0
40
0
40
0
40
0
40
1
40
1
40
1
40
1
41
1
10
241.727782932195
20
-21.8545808889766
30
0
41
1
10
241.705877310354
20
-21.854600613621
30
0
41
1
10
241.683969629088
20
-21.854600613621
30
0
41
1
10
241.662059931192
20
-21.8545808889766
30
0
0
SPLINE
5
1BF
100
AcDbEntity
8
1
62
256
6
ByLayer
370
18
48
1
60
0
100
AcDbSpline
70
4
71
3
72
8
73
4
40
0
40
0
40
0
40
0
40
1
40
1
40
1
40
1
41
1
10
242.648709239208
20
-21.4153316785174
30
0
41
1
10
242.319826151901
20
-21.5617482307116
30
0
41
1
10
241.990943052458
20
-21.7081646654489
30
0
41
1
10
241.662059931192
20
-21.8545808889766
30
0
0
SPLINE
5
1C0
100
AcDbEntity
8
1
62
256
6
ByLayer
370
18
48
1
60
0
100
AcDbSpline
70
4
71
3
72
8
73
4
40
0
40
0
40
0
40
0
40
1
40
1
40
1
40
1
41
1
10
241.376350152784
20
-21.4153316785174
30
0
41
1
10
241.125039273576
20
-21.5617482307116
30
0
41
1
10
240.873728385093
20
-21.7081646654489
30
0
41
1
10
240.622417479935
20
-21.8545808889766
30
0
0
SPLINE
5
1C1
100
AcDbEntity
8
1
62
256
6
ByLayer
370
18
48
1
60
0
100
AcDbSpline
70
4
71
3
72
8
73
4
40
0
40
0
40
0
40
0
40
1
40
1
40
1
40
1
41
1
10
240.622417479935
20
-21.8545808889766
30
0
41
1
10
240.599174632683
20
-21.854600613621
30
0
41
1
10
240.5759302054
20
-21.854600613621
30
0
41
1
10
240.552684243494
20
-21.8545808889766
30
0
0
SPLINE
5
1C2
100
AcDbEntity
8
1
62
256
6
ByLayer
370
18
48
1
60
0
100
AcDbSpline
70
4
71
3
72
8
73
4
40
0
40
0
40
0
40
0
40
1
40
1
40
1
40
1
41
1
10
241.306616916342
20
-21.4153316785174
30
0
41
1
10
241.055306037134
20
-21.5617482307116
30
0
41
1
10
240.803995148651
20
-21.7081646654489
30
0
41
1
10
240.552684243494
20
-21.8545808889766
30
0
0
SPLINE
5
1C3
100
AcDbEntity
8
1
62
256
6
ByLayer
370
18
48
1
60
0
100
AcDbSpline
70
4
71
3
72
8
73
4
40
0
40
0
40
0
40
0
40
1
40
1
40
1
40
1
41
1
10
239.969250403136
20
-21.4153316785174
30
0
41
1
10
239.799475054717
20
-21.5617482307116
30
0
41
1
10
239.629699700033
20
-21.7081646654489
30
0
41
1
10
239.459924334083
20
-21.8545808889766
30
0
0
SPLINE
5
1C4
100
AcDbEntity
8
1
62
256
6
ByLayer
370
18
48
1
60
0
100
AcDbSpline
70
4
71
3
72
8
73
4
40
0
40
0
40
0
40
0
40
1
40
1
40
1
40
1
41
1
10
239.459924334083
20
-21.8545808889766
30
0
41
1
10
239.435710815005
20
-21.854600613621
30
0
41
1
10
239.41149622021
20
-21.854600613621
30
0
41
1
10
239.387280596999
20
-21.8545808889766
30
0
0
SPLINE
5
1C5
100
AcDbEntity
8
1
62
256
6
ByLayer
370
18
48
1
60
0
100
AcDbSpline
70
4
71
3
72
8
73
4
40
0
40
0
40
0
40
0
40
1
40
1
40
1
40
1
41
1
10
239.896606666052
20
-21.4153316785174
30
0
41
1
10
239.726831317632
20
-21.5617482307116
30
0
41
1
10
239.557055962948
20
-21.7081646654489
30
0
41
1
10
239.387280596999
20
-21.8545808889766
30
0
0
SPLINE
5
1C6
100
AcDbEntity
8
1
62
256
6
ByLayer
370
18
48
1
60
0
100
AcDbSpline
70
4
71
3
72
8
73
4
40
0
40
0
40
0
40
0
40
1
40
1
40
1
40
1
41
1
10
238.517245419599
20
-21.3999996316076
30
0
41
1
10
238.516604878028
20
-21.4051103139276
30
0
41
1
10
238.515964336456
20
-21.4102209962309
30
0
41
1
10
238.515323794881
20
-21.4153316785174
30
0
0
SPLINE
5
1C7
100
AcDbEntity
8
1
62
256
6
ByLayer
370
18
48
1
60
0
100
AcDbSpline
70
4
71
3
72
8
73
4
40
0
40
0
40
0
40
0
40
1
40
1
40
1
40
1
41
1
10
239.900419596529
20
-21.3999996870558
30
0
41
1
10
239.899148619707
20
-21.4051103508931
30
0
41
1
10
239.897877642881
20
-21.4102210147136
30
0
41
1
10
239.896606666052
20
-21.4153316785174
30
0
0
SPLINE
5
1C8
100
AcDbEntity
8
1
62
256
6
ByLayer
370
18
48
1
60
0
100
AcDbSpline
70
4
71
3
72
8
73
4
40
0
40
0
40
0
40
0
40
1
40
1
40
1
40
1
41
1
10
239.973063333613
20
-21.3999996870558
30
0
41
1
10
239.971792356792
20
-21.4051103508931
30
0
41
1
10
239.970521379966
20
-21.4102210147136
30
0
41
1
10
239.969250403136
20
-21.4153316785174
30
0
0
SPLINE
5
1C9
100
AcDbEntity
8
1
62
256
6
ByLayer
370
18
48
1
60
0
100
AcDbSpline
70
4
71
3
72
8
73
4
40
0
40
0
40
0
40
0
40
1
40
1
40
1
40
1
41
1
10
241.312261072723
20
-21.3999995637658
30
0
41
1
10
241.310379687269
20
-21.4051102686998
30
0
41
1
10
241.308498301809
20
-21.410220973617
30
0
41
1
10
241.306616916342
20
-21.4153316785174
30
0
0
SPLINE
5
1CA
100
AcDbEntity
8
1
62
256
6
ByLayer
370
18
48
1
60
0
100
AcDbSpline
70
4
71
3
72
8
73
4
40
0
40
0
40
0
40
0
40
1
40
1
40
1
40
1
41
1
10
241.381994309164
20
-21.3999995637658
30
0
41
1
10
241.38011292371
20
-21.4051102686998
30
0
41
1
10
241.37823153825
20
-21.410220973617
30
0
41
1
10
241.376350152784
20
-21.4153316785174
30
0
0
SPLINE
5
1CB
100
AcDbEntity
8
1
62
256
6
ByLayer
370
18
48
1
60
0
100
AcDbSpline
70
4
71
3
72
8
73
4
40
0
40
0
40
0
40
0
40
1
40
1
40
1
40
1
41
1
10
242.656095765293
20
-21.3999991773056
30
0
41
1
10
242.653633589939
20
-21.4051100110596
30
0
41
1
10
242.651171414578
20
-21.4102208447969
30
0
41
1
10
242.648709239208
20
-21.4153316785174
30
0
0
SPLINE
5
1CC
100
AcDbEntity
8
1
62
256
6
ByLayer
370
18
48
1
60
0
100
AcDbSpline
70
4
71
3
72
8
73
4
40
0
40
0
40
0
40
0
40
1
40
1
40
1
40
1
41
1
10
242.721818766296
20
-21.3999991773057
30
0
41
1
10
242.719356590943
20
-21.4051100110597
30
0
41
1
10
242.716894415581
20
-21.4102208447969
30
0
41
1
10
242.714432240212
20
-21.4153316785174
30
0
0
SPLINE
5
1CD
100
AcDbEntity
8
1
62
256
6
ByLayer
370
18
48
1
60
0
100
AcDbSpline
70
4
71
3
72
8
73
4
40
0
40
0
40
0
40
0
40
1
40
1
40
1
40
1
41
1
10
243.91073029683
20
-21.3999991836915
30
0
41
1
10
243.907726210227
20
-21.4051100153169
30
0
41
1
10
243.904722123614
20
-21.4102208469255
30
0
41
1
10
243.901718036991
20
-21.4153316785174
30
0
0
SPLINE
5
1CE
100
AcDbEntity
8
1
62
256
6
ByLayer
370
18
48
1
60
0
100
AcDbSpline
70
4
71
3
72
8
73
4
40
0
40
0
40
0
40
0
40
1
40
1
40
1
40
1
41
1
10
243.971406571408
20
-21.3999991836916
30
0
41
1
10
243.968402484805
20
-21.4051100153169
30
0
41
1
10
243.965398398192
20
-21.4102208469256
30
0
41
1
10
243.962394311569
20
-21.4153316785174
30
0
0
SPLINE
5
1CF
100
AcDbEntity
8
1
62
256
6
ByLayer
370
18
48
1
60
0
100
AcDbSpline
70
4
71
3
72
8
73
4
40
0
40
0
40
0
40
0
40
1
40
1
40
1
40
1
41
1
10
245.056377990289
20
-21.3999998996333
30
0
41
1
10
245.052879531016
20
-21.4051104926114
30
0
41
1
10
245.049381071733
20
-21.4102210855728
30
0
41
1
10
245.045882612437
20
-21.4153316785174
30
0
0
SPLINE
5
1D0
100
AcDbEntity
8
1
62
256
6
ByLayer
370
18
48
1
60
0
100
AcDbSpline
70
4
71
3
72
8
73
4
40
0
40
0
40
0
40
0
40
1
40
1
40
1
40
1
41
1
10
245.111050637345
20
-21.3999998996333
30
0
41
1
10
245.107552178073
20
-21.4051104926114
30
0
41
1
10
245.104053718789
20
-21.4102210855728
30
0
41
1
10
245.100555259494
20
-21.4153316785174
30
0
0
SPLINE
5
1D1
100
AcDbEntity
8
1
62
256
6
ByLayer
370
18
48
1
60
0
100
AcDbSpline
70
4
71
3
72
8
73
4
40
0
40
0
40
0
40
0
40
1
40
1
40
1
40
1
41
1
10
246.074972755471
20
-21.3999991852278
30
0
41
1
10
246.071034772561
20
-21.4051100163411
30
0
41
1
10
246.067096789638
20
-21.4102208474376
30
0
41
1
10
246.063158806702
20
-21.4153316785174
30
0
0
SPLINE
5
1D2
100
AcDbEntity
8
1
62
256
6
ByLayer
370
18
48
1
60
0
100
AcDbSpline
70
4
71
3
72
8
73
4
40
0
40
0
40
0
40
0
40
1
40
1
40
1
40
1
41
1
10
246.122779554702
20
-21.3999991852278
30
0
41
1
10
246.118841571792
20
-21.4051100163411
30
0
41
1
10
246.114903588869
20
-21.4102208474376
30
0
41
1
10
246.110965605933
20
-21.4153316785174
30
0
0
SPLINE
5
1D3
100
AcDbEntity
8
1
62
256
6
ByLayer
370
18
48
1
60
0
100
AcDbSpline
70
4
71
3
72
8
73
4
40
0
40
0
40
0
40
0
40
1
40
1
40
1
40
1
41
1
10
246.950448760097
20
-21.3999998058656
30
0
41
1
10
246.946133695582
20
-21.4051104300996
30
0
41
1
10
246.941818631053
20
-21.4102210543169
30
0
41
1
10
246.93750356651
20
-21.4153316785174
30
0
0
SPLINE
5
1D4
100
AcDbEntity
8
1
62
256
6
ByLayer
370
18
48
1
60
0
100
AcDbSpline
70
4
71
3
72
8
73
4
40
0
40
0
40
0
40
0
40
1
40
1
40
1
40
1
41
1
10
246.99063576972
20
-21.3999998058656
30
0
41
1
10
246.986320705206
20
-21.4051104300996
30
0
41
1
10
246.982005640677
20
-21.4102210543169
30
0
41
1
10
246.977690576134
20
-21.4153316785174
30
0
0
SPLINE
5
1D5
100
AcDbEntity
8
1
62
256
6
ByLayer
370
18
48
1
60
0
100
AcDbSpline
70
4
71
3
72
8
73
4
40
0
40
0
40
0
40
0
40
1
40
1
40
1
40
1
41
1
10
247.669001015243
20
-21.3999994750074
30
0
41
1
10
247.664376661074
20
-21.4051102095275
30
0
41
1
10
247.659752306891
20
-21.4102209440308
30
0
41
1
10
247.655127952692
20
-21.4153316785174
30
0
0
SPLINE
5
1D6
100
AcDbEntity
8
1
62
256
6
ByLayer
370
18
48
1
60
0
100
AcDbSpline
70
4
71
3
72
8
73
4
40
0
40
0
40
0
40
0
40
1
40
1
40
1
40
1
41
1
10
247.70093446211
20
-21.3999994750074
30
0
41
1
10
247.696310107942
20
-21.4051102095275
30
0
41
1
10
247.691685753758
20
-21.4102209440308
30
0
41
1
10
247.68706139956
20
-21.4153316785174
30
0
0
SPLINE
5
1D7
100
AcDbEntity
8
1
62
256
6
ByLayer
370
18
48
1
60
0
100
AcDbSpline
70
4
71
3
72
8
73
4
40
0
40
0
40
0
40
0
40
1
40
1
40
1
40
1
41
1
10
248.219296400687
20
-21.3999995433298
30
0
41
1
10
248.21443580047
20
-21.4051102550758
30
0
41
1
10
248.209575200238
20
-21.410220966805
30
0
41
1
10
248.204714599989
20
-21.4153316785174
30
0
0
SPLINE
5
1D8
100
AcDbEntity
8
1
62
256
6
ByLayer
370
18
48
1
60
0
100
AcDbSpline
70
4
71
3
72
8
73
4
40
0
40
0
40
0
40
0
40
1
40
1
40
1
40
1
41
1
10
248.242472675265
20
-21.3999995433298
30
0
41
1
10
248.237612075048
20
-21.4051102550758
30
0
41
1
10
248.232751474816
20
-21.410220966805
30
0
41
1
10
248.227890874567
20
-21.4153316785174
30
0
0
SPLINE
5
1D9
100
AcDbEntity
8
1
62
256
6
ByLayer
370
18
48
1
60
0
100
AcDbSpline
70
4
71
3
72
8
73
4
40
0
40
0
40
0
40
0
40
1
40
1
40
1
40
1
41
1
10
248.592656980867
20
-21.3999993954682
30
0
41
1
10
248.58763672015
20
-21.4051101565014
30
0
41
1
10
248.582616459416
20
-21.4102209175178
30
0
41
1
10
248.577596198666
20
-21.4153316785174
30
0
0
SPLINE
5
1DA
100
AcDbEntity
8
1
62
256
6
ByLayer
370
18
48
1
60
0
100
AcDbSpline
70
4
71
3
72
8
73
4
40
0
40
0
40
0
40
0
40
1
40
1
40
1
40
1
41
1
10
248.606710579461
20
-21.3999993954683
30
0
41
1
10
248.601690318744
20
-21.4051101565014
30
0
41
1
10
248.59667005801
20
-21.4102209175178
30
0
41
1
10
248.59164979726
20
-21.4153316785174
30
0
0
SPLINE
5
1DB
100
AcDbEntity
8
1
62
256
6
ByLayer
370
18
48
1
60
0
100
AcDbSpline
70
4
71
3
72
8
73
4
40
0
40
0
40
0
40
0
40
1
40
1
40
1
40
1
41
1
10
248.783194433931
20
-21.3999992499607
30
0
41
1
10
248.778093683692
20
-21.4051100594963
30
0
41
1
10
248.772992933436
20
-21.4102208690153
30
0
41
1
10
248.767892183163
20
-21.4153316785174
30
0
0
SPLINE
5
1DC
100
AcDbEntity
8
1
62
256
6
ByLayer
370
18
48
1
60
0
100
AcDbSpline
70
4
71
3
72
8
73
4
40
0
40
0
40
0
40
0
40
1
40
1
40
1
40
1
41
1
10
248.787903722896
20
-21.3999992499607
30
0
41
1
10
248.782802972657
20
-21.4051100594963
30
0
41
1
10
248.777702222401
20
-21.4102208690153
30
0
41
1
10
248.772601472128
20
-21.4153316785174
30
0
0
SPLINE
5
1DD
100
AcDbEntity
8
1
62
256
6
ByLayer
370
18
48
1
60
0
100
AcDbSpline
70
4
71
3
72
8
73
4
40
0
40
0
40
0
40
0
40
1
40
1
40
1
40
1
41
1
10
225.212095515431
20
-21.3999992499606
30
0
41
1
10
225.21719626567
20
-21.4051100594963
30
0
41
1
10
225.222297015926
20
-21.4102208690153
30
0
41
1
10
225.227397766198
20
-21.4153316785174
30
0
0
SPLINE
5
1DE
100
AcDbEntity
8
1
62
256
6
ByLayer
370
18
48
1
60
0
100
AcDbSpline
70
4
71
3
72
8
73
4
40
0
40
0
40
0
40
0
40
1
40
1
40
1
40
1
41
1
10
225.216804804396
20
-21.3999992499607
30
0
41
1
10
225.221905554635
20
-21.4051100594963
30
0
41
1
10
225.227006304891
20
-21.4102208690153
30
0
41
1
10
225.232107055163
20
-21.4153316785174
30
0
0
SPLINE
5
1DF
100
AcDbEntity
8
1
62
256
6
ByLayer
370
18
48
1
60
0
100
AcDbSpline
70
4
71
3
72
8
73
4
40
0
40
0
40
0
40
0
40
1
40
1
40
1
40
1
41
1
10
225.393288658865
20
-21.3999993954683
30
0
41
1
10
225.398308919583
20
-21.4051101565014
30
0
41
1
10
225.403329180316
20
-21.4102209175178
30
0
41
1
10
225.408349441066
20
-21.4153316785174
30
0
0
SPLINE
5
1E0
100
AcDbEntity
8
1
62
256
6
ByLayer
370
18
48
1
60
0
100
AcDbSpline
70
4
71
3
72
8
73
4
40
0
40
0
40
0
40
0
40
1
40
1
40
1
40
1
41
1
10
225.407342257459
20
-21.3999993954683
30
0
41
1
10
225.412362518177
20
-21.4051101565014
30
0
41
1
10
225.41738277891
20
-21.4102209175178
30
0
41
1
10
225.42240303966
20
-21.4153316785174
30
0
0
SPLINE
5
1E1
100
AcDbEntity
8
1
62
256
6
ByLayer
370
18
48
1
60
0
100
AcDbSpline
70
4
71
3
72
8
73
4
40
0
40
0
40
0
40
0
40
1
40
1
40
1
40
1
41
1
10
225.757526563061
20
-21.3999995433298
30
0
41
1
10
225.762387163278
20
-21.4051102550758
30
0
41
1
10
225.767247763511
20
-21.410220966805
30
0
41
1
10
225.772108363759
20
-21.4153316785174
30
0
0
SPLINE
5
1E2
100
AcDbEntity
8
1
62
256
6
ByLayer
370
18
48
1
60
0
100
AcDbSpline
70
4
71
3
72
8
73
4
40
0
40
0
40
0
40
0
40
1
40
1
40
1
40
1
41
1
10
225.780702837639
20
-21.3999995433298
30
0
41
1
10
225.785563437856
20
-21.4051102550758
30
0
41
1
10
225.790424038089
20
-21.410220966805
30
0
41
1
10
225.795284638337
20
-21.4153316785174
30
0
0
SPLINE
5
1E3
100
AcDbEntity
8
1
62
256
6
ByLayer
370
18
48
1
60
0
100
AcDbSpline
70
4
71
3
72
8
73
4
40
0
40
0
40
0
40
0
40
1
40
1
40
1
40
1
41
1
10
226.299064776216
20
-21.3999994750074
30
0
41
1
10
226.303689130385
20
-21.4051102095275
30
0
41
1
10
226.308313484568
20
-21.4102209440308
30
0
41
1
10
226.312937838767
20
-21.4153316785174
30
0
0
SPLINE
5
1E4
100
AcDbEntity
8
1
62
256
6
ByLayer
370
18
48
1
60
0
100
AcDbSpline
70
4
71
3
72
8
73
4
40
0
40
0
40
0
40
0
40
1
40
1
40
1
40
1
41
1
10
226.330998223084
20
-21.3999994750074
30
0
41
1
10
226.335622577252
20
-21.4051102095275
30
0
41
1
10
226.340246931436
20
-21.4102209440308
30
0
41
1
10
226.344871285634
20
-21.4153316785174
30
0
0
SPLINE
5
1E5
100
AcDbEntity
8
1
62
256
6
ByLayer
370
18
48
1
60
0
100
AcDbSpline
70
4
71
3
72
8
73
4
40
0
40
0
40
0
40
0
40
1
40
1
40
1
40
1
41
1
10
227.009363468606
20
-21.3999998058656
30
0
41
1
10
227.013678533121
20
-21.4051104300996
30
0
41
1
10
227.01799359765
20
-21.4102210543169
30
0
41
1
10
227.022308662193
20
-21.4153316785174
30
0
0
SPLINE
5
1E6
100
AcDbEntity
8
1
62
256
6
ByLayer
370
18
48
1
60
0
100
AcDbSpline
70
4
71
3
72
8
73
4
40
0
40
0
40
0
40
0
40
1
40
1
40
1
40
1
41
1
10
227.04955047823
20
-21.3999998058656
30
0
41
1
10
227.053865542744
20
-21.4051104300996
30
0
41
1
10
227.058180607273
20
-21.4102210543169
30
0
41
1
10
227.062495671816
20
-21.4153316785174
30
0
0
SPLINE
5
1E7
100
AcDbEntity
8
1
62
256
6
ByLayer
370
18
48
1
60
0
100
AcDbSpline
70
4
71
3
72
8
73
4
40
0
40
0
40
0
40
0
40
1
40
1
40
1
40
1
41
1
10
227.877219683624
20
-21.3999991852278
30
0
41
1
10
227.881157666534
20
-21.4051100163411
30
0
41
1
10
227.885095649457
20
-21.4102208474376
30
0
41
1
10
227.889033632393
20
-21.4153316785174
30
0
0
SPLINE
5
1E8
100
AcDbEntity
8
1
62
256
6
ByLayer
370
18
48
1
60
0
100
AcDbSpline
70
4
71
3
72
8
73
4
40
0
40
0
40
0
40
0
40
1
40
1
40
1
40
1
41
1
10
227.925026482855
20
-21.3999991852278
30
0
41
1
10
227.928964465765
20
-21.405110016341
30
0
41
1
10
227.932902448689
20
-21.4102208474376
30
0
41
1
10
227.936840431624
20
-21.4153316785174
30
0
0
SPLINE
5
1E9
100
AcDbEntity
8
1
62
256
6
ByLayer
370
18
48
1
60
0
100
AcDbSpline
70
4
71
3
72
8
73
4
40
0
40
0
40
0
40
0
40
1
40
1
40
1
40
1
41
1
10
228.888948600981
20
-21.3999998996333
30
0
41
1
10
228.892447060253
20
-21.4051104926114
30
0
41
1
10
228.895945519537
20
-21.4102210855728
30
0
41
1
10
228.899443978833
20
-21.4153316785174
30
0
0
SPLINE
5
1EA
100
AcDbEntity
8
1
62
256
6
ByLayer
370
18
48
1
60
0
100
AcDbSpline
70
4
71
3
72
8
73
4
40
0
40
0
40
0
40
0
40
1
40
1
40
1
40
1
41
1
10
228.943621248038
20
-21.3999998996333
30
0
41
1
10
228.94711970731
20
-21.4051104926114
30
0
41
1
10
228.950618166594
20
-21.4102210855728
30
0
41
1
10
228.954116625889
20
-21.4153316785174
30
0
0
SPLINE
5
1EB
100
AcDbEntity
8
1
62
256
6
ByLayer
370
18
48
1
60
0
100
AcDbSpline
70
4
71
3
72
8
73
4
40
0
40
0
40
0
40
0
40
1
40
1
40
1
40
1
41
1
10
230.028592666918
20
-21.3999991836916
30
0
41
1
10
230.031596753522
20
-21.4051100153169
30
0
41
1
10
230.034600840135
20
-21.4102208469256
30
0
41
1
10
230.037604926758
20
-21.4153316785174
30
0
0
SPLINE
5
1EC
100
AcDbEntity
8
1
62
256
6
ByLayer
370
18
48
1
60
0
100
AcDbSpline
70
4
71
3
72
8
73
4
40
0
40
0
40
0
40
0
40
1
40
1
40
1
40
1
41
1
10
230.089268941496
20
-21.3999991836915
30
0
41
1
10
230.0922730281
20
-21.4051100153169
30
0
41
1
10
230.095277114713
20
-21.4102208469255
30
0
41
1
10
230.098281201336
20
-21.4153316785174
30
0
0
SPLINE
5
1ED
100
AcDbEntity
8
1
62
256
6
ByLayer
370
18
48
1
60
0
100
AcDbSpline
70
4
71
3
72
8
73
4
40
0
40
0
40
0
40
0
40
1
40
1
40
1
40
1
41
1
10
231.278180472031
20
-21.3999991773057
30
0
41
1
10
231.280642647384
20
-21.4051100110596
30
0
41
1
10
231.283104822745
20
-21.4102208447969
30
0
41
1
10
231.285566998115
20
-21.4153316785174
30
0
0
SPLINE
5
1EE
100
AcDbEntity
8
1
62
256
6
ByLayer
370
18
48
1
60
0
100
AcDbSpline
70
4
71
3
72
8
73
4
40
0
40
0
40
0
40
0
40
1
40
1
40
1
40
1
41
1
10
231.343903473034
20
-21.3999991773056
30
0
41
1
10
231.346365648387
20
-21.4051100110596
30
0
41
1
10
231.348827823749
20
-21.4102208447969
30
0
41
1
10
231.351289999118
20
-21.4153316785174
30
0
0
SPLINE
5
1EF
100
AcDbEntity
8
1
62
256
6
ByLayer
370
18
48
1
60
0
100
AcDbSpline
70
4
71
3
72
8
73
4
40
0
40
0
40
0
40
0
40
1
40
1
40
1
40
1
41
1
10
232.618004929162
20
-21.3999995637658
30
0
41
1
10
232.619886314616
20
-21.4051102686998
30
0
41
1
10
232.621767700076
20
-21.410220973617
30
0
41
1
10
232.623649085542
20
-21.4153316785174
30
0
0
SPLINE
5
1F0
100
AcDbEntity
8
1
62
256
6
ByLayer
370
18
48
1
60
0
100
AcDbSpline
70
4
71
3
72
8
73
4
40
0
40
0
40
0
40
0
40
1
40
1
40
1
40
1
41
1
10
232.687738165604
20
-21.3999995637658
30
0
41
1
10
232.689619551058
20
-21.4051102686998
30
0
41
1
10
232.691500936518
20
-21.410220973617
30
0
41
1
10
232.693382321984
20
-21.4153316785174
30
0
0
SPLINE
5
1F1
100
AcDbEntity
8
1
62
256
6
ByLayer
370
18
48
1
60
0
100
AcDbSpline
70
4
71
3
72
8
73
4
40
0
40
0
40
0
40
0
40
1
40
1
40
1
40
1
41
1
10
234.026935904713
20
-21.3999996870558
30
0
41
1
10
234.028206881535
20
-21.4051103508931
30
0
41
1
10
234.029477858361
20
-21.4102210147136
30
0
41
1
10
234.03074883519
20
-21.4153316785174
30
0
0
SPLINE
5
1F2
100
AcDbEntity
8
1
62
256
6
ByLayer
370
18
48
1
60
0
100
AcDbSpline
70
4
71
3
72
8
73
4
40
0
40
0
40
0
40
0
40
1
40
1
40
1
40
1
41
1
10
234.099579641798
20
-21.3999996870558
30
0
41
1
10
234.100850618619
20
-21.4051103508931
30
0
41
1
10
234.102121595445
20
-21.4102210147136
30
0
41
1
10
234.103392572275
20
-21.4153316785174
30
0
0
SPLINE
5
1F3
100
AcDbEntity
8
1
62
256
6
ByLayer
370
18
48
1
60
0
100
AcDbSpline
70
4
71
3
72
8
73
4
40
0
40
0
40
0
40
0
40
1
40
1
40
1
40
1
41
1
10
235.482753818728
20
-21.3999996316076
30
0
41
1
10
235.483394360298
20
-21.4051103139276
30
0
41
1
10
235.484034901871
20
-21.4102209962309
30
0
41
1
10
235.484675443446
20
-21.4153316785174
30
0
0
SPLINE
5
1F4
100
AcDbEntity
8
1
62
256
6
ByLayer
370
18
48
1
60
0
100
AcDbSpline
70
4
71
3
72
8
73
4
40
0
40
0
40
0
40
0
40
1
40
1
40
1
40
1
41
1
10
235.557162421326
20
-21.3999996316076
30
0
41
1
10
235.557802962897
20
-21.4051103139276
30
0
41
1
10
235.55844350447
20
-21.4102209962309
30
0
41
1
10
235.559084046044
20
-21.4153316785174
30
0
0
SPLINE
5
1F5
100
AcDbEntity
8
1
62
256
6
ByLayer
370
18
48
1
60
0
100
AcDbSpline
70
4
71
3
72
8
73
4
40
0
40
0
40
0
40
0
40
1
40
1
40
1
40
1
41
1
10
236.962499619163
20
-21.3999996785174
30
0
41
1
10
236.962499619163
20
-21.4051103452008
30
0
41
1
10
236.962499619163
20
-21.4102210118675
30
0
41
1
10
236.962499619163
20
-21.4153316785174
30
0
0
SPLINE
5
1F6
100
AcDbEntity
8
1
62
256
6
ByLayer
370
18
48
1
60
0
100
AcDbSpline
70
4
71
3
72
8
73
4
40
0
40
0
40
0
40
0
40
1
40
1
40
1
40
1
41
1
10
237.037499619163
20
-21.3999996785174
30
0
41
1
10
237.037499619163
20
-21.4051103452008
30
0
41
1
10
237.037499619163
20
-21.4102210118675
30
0
41
1
10
237.037499619163
20
-21.4153316785174
30
0
0
SPLINE
5
1F7
100
AcDbEntity
8
1
62
256
6
ByLayer
370
18
48
1
60
0
100
AcDbSpline
70
4
71
3
72
8
73
4
40
0
40
0
40
0
40
0
40
1
40
1
40
1
40
1
41
1
10
238.442836817
20
-21.3999996316076
30
0
41
1
10
238.442196275429
20
-21.4051103139276
30
0
41
1
10
238.441555733857
20
-21.4102209962309
30
0
41
1
10
238.440915192282
20
-21.4153316785174
30
0
0
SPLINE
5
1F8
100
AcDbEntity
8
1
62
256
6
ByLayer
370
18
48
1
60
0
100
AcDbSpline
70
4
71
3
72
15
73
11
40
0
40
0
40
0
40
0
40
0.249999999999997
40
0.499999999999995
40
0.499999999999995
40
0.624999999999999
40
0.624999999999999
40
0.750000000000003
40
0.750000000000003
40
1
40
1
40
1
40
1
41
1
10
250.460603310556
20
17.4801192802734
30
0
41
1
10
250.497579181068
20
17.4801192802734
30
0
41
1
10
250.570949511811
20
17.475016194436
30
0
41
1
10
250.643158464276
20
17.4598998983038
30
0
41
1
10
250.696846801099
20
17.4446682076008
30
0
41
1
10
250.714702407048
20
17.4389257643718
30
0
41
1
10
250.750075604735
20
17.4261483829568
30
0
41
1
10
250.767503615791
20
17.4191489424396
30
0
41
1
10
250.81901044354
20
17.3963279668205
30
0
41
1
10
250.852316123202
20
17.3786926715907
30
0
41
1
10
250.884538721943
20
17.3585577571985
30
0
0
SPLINE
5
1F9
100
AcDbEntity
8
1
62
256
6
ByLayer
370
18
48
1
60
0
100
AcDbSpline
70
4
71
3
72
63
73
59
40
0
40
0
40
0
40
0
40
0.0625000000000029
40
0.0625000000000029
40
0.0937500000000037
40
0.0937500000000037
40
0.125000000000004
40
0.125000000000004
40
0.187500000000006
40
0.187500000000006
40
0.218750000000007
40
0.218750000000007
40
0.234375000000006
40
0.234375000000006
40
0.250000000000006
40
0.250000000000006
40
0.312500000000007
40
0.312500000000007
40
0.343750000000007
40
0.343750000000007
40
0.359375000000008
40
0.359375000000008
40
0.375000000000008
40
0.375000000000008
40
0.43750000000001
40
0.43750000000001
40
0.468750000000011
40
0.468750000000011
40
0.484375000000012
40
0.484375000000012
40
0.500000000000012
40
0.500000000000012
40
0.562500000000013
40
0.562500000000013
40
0.593750000000014
40
0.593750000000014
40
0.609375000000014
40
0.609375000000014
40
0.625000000000014
40
0.625000000000014
40
0.687500000000014
40
0.687500000000014
40
0.703125000000014
40
0.703125000000014
40
0.718750000000014
40
0.718750000000014
40
0.750000000000013
40
0.750000000000013
40
0.812500000000011
40
0.812500000000011
40
0.82812500000001
40
0.82812500000001
40
0.843750000000009
40
0.875000000000007
40
0.875000000000007
40
0.937500000000004
40
0.937500000000004
40
1
40
1
40
1
40
1
41
1
10
251.393035313537
20
21.3615790412641
30
0
41
1
10
251.321849483874
20
21.3420265217482
30
0
41
1
10
251.250033508782
20
21.3290302018582
30
0
41
1
10
251.14143853552
20
21.3189374376258
30
0
41
1
10
251.105093888869
20
21.3171493516846
30
0
41
1
10
251.032110973138
20
21.3167615762949
30
0
41
1
10
250.995332224385
20
21.318185039798
30
0
41
1
10
250.886587403967
20
21.3271653812238
30
0
41
1
10
250.815658193709
20
21.3393442533004
30
0
41
1
10
250.711493301904
20
21.3665378189934
30
0
41
1
10
250.677145003383
20
21.3770988134439
30
0
41
1
10
250.626183490587
20
21.3952198386102
30
0
41
1
10
250.609253936065
20
21.4016562805178
30
0
41
1
10
250.575850876468
20
21.4151905816355
30
0
41
1
10
250.559358682283
20
21.4222931345997
30
0
41
1
10
250.477919367038
20
21.4594524584065
30
0
41
1
10
250.416014258625
20
21.4944085446233
30
0
41
1
10
250.327834026654
20
21.5546018242738
30
0
41
1
10
250.299224657506
20
21.5759672800405
30
0
41
1
10
250.2575038492
20
21.6100307971606
30
0
41
1
10
250.243791700731
20
21.6217285764864
30
0
41
1
10
250.217017695257
20
21.6455842889924
30
0
41
1
10
250.203923135472
20
21.657768000128
30
0
41
1
10
250.139888035299
20
21.7199544790114
30
0
41
1
10
250.093225487169
20
21.7737293729807
30
0
41
1
10
250.03003923273
20
21.8605954598942
30
0
41
1
10
250.010118530436
20
21.890590884038
30
0
41
1
10
249.982010831956
20
21.9372258976556
30
0
41
1
10
249.972923355618
20
21.9530748985067
30
0
41
1
10
249.95552854946
20
21.9850117848856
30
0
41
1
10
249.947199815663
20
22.0011324164318
30
0
41
1
10
249.907377145902
20
22.0824922232979
30
0
41
1
10
249.881302001695
20
22.1499841116116
30
0
41
1
10
249.850972703996
20
22.2549540092837
30
0
41
1
10
249.842335379989
20
22.2905693105489
30
0
41
1
10
249.831686220808
20
22.3449793678346
30
0
41
1
10
249.828518544332
20
22.3633155651396
30
0
41
1
10
249.823032750414
20
22.3999075630718
30
0
41
1
10
249.820704189481
20
22.4182086131193
30
0
41
1
10
249.811101652864
20
22.5097387859464
30
0
41
1
10
249.809901322883
20
22.583042169678
30
0
41
1
10
249.816484990034
20
22.6747703401111
30
0
41
1
10
249.818208870078
20
22.6931209528634
30
0
41
1
10
249.822482503101
20
22.7298322621727
30
0
41
1
10
249.825039015274
20
22.7482334025678
30
0
41
1
10
249.833924621713
20
22.8031640870045
30
0
41
1
10
249.841422161793
20
22.8391954666369
30
0
41
1
10
249.868449614589
20
22.9456033164816
30
0
41
1
10
249.892479088661
20
23.0143054052244
30
0
41
1
10
249.929981442044
20
23.0974613136182
30
0
41
1
10
249.937875380315
20
23.1139892350902
30
0
41
1
10
249.954340872485
20
23.146602709094
30
0
41
1
10
249.979999099136
20
23.1947578135517
30
0
41
1
10
250.008467816015
20
23.2406888581801
30
0
41
1
10
250.069062841368
20
23.32970024876
30
0
41
1
10
250.114306039531
20
23.3852630226143
30
0
41
1
10
250.214757358663
20
23.4888662595568
30
0
41
1
10
250.268984275594
20
23.5358914920937
30
0
41
1
10
250.327229415506
20
23.57820906329
30
0
0
SPLINE
5
1FA
100
AcDbEntity
8
1
62
256
6
ByLayer
370
18
48
1
60
0
100
AcDbSpline
70
4
71
3
72
105
73
101
40
0
40
0
40
0
40
0
40
0.0078084936441454
40
0.0078084936441454
40
0.0156169872882909
40
0.0156169872882909
40
0.0312339745765818
40
0.0312339745765818
40
0.0624679491531636
40
0.0624679491531636
40
0.0937019237297454
40
0.0937019237297454
40
0.101510417373891
40
0.101510417373891
40
0.109318911018036
40
0.124935898306327
40
0.124935898306327
40
0.156169872882909
40
0.156169872882909
40
0.187403847459491
40
0.187403847459491
40
0.195212341103637
40
0.195212341103637
40
0.203020834747782
40
0.218637822036073
40
0.218637822036073
40
0.249871796612655
40
0.249871796612655
40
0.281105771189237
40
0.281105771189237
40
0.288914264833383
40
0.288914264833383
40
0.296722758477528
40
0.296722758477528
40
0.312339745765819
40
0.312339745765819
40
0.343573720342401
40
0.343573720342401
40
0.374807694918983
40
0.406041669495565
40
0.406041669495565
40
0.413850163139711
40
0.413850163139711
40
0.421658656783856
40
0.437275644072147
40
0.437275644072147
40
0.468509618648729
40
0.499743593225311
40
0.499743593225311
40
0.530977567801893
40
0.530977567801893
40
0.538786061446039
40
0.538786061446039
40
0.546594555090185
40
0.562211542378475
40
0.562211542378475
40
0.593445516955057
40
0.593445516955057
40
0.624679491531639
40
0.624679491531639
40
0.655913466108221
40
0.655913466108221
40
0.663721959752367
40
0.663721959752367
40
0.671530453396512
40
0.687147440684803
40
0.687147440684803
40
0.718381415261385
40
0.718381415261385
40
0.749615389837967
40
0.749615389837967
40
0.780849364414548
40
0.780849364414548
40
0.788657858058694
40
0.788657858058694
40
0.796466351702839
40
0.796466351702839
40
0.81208333899113
40
0.81208333899113
40
0.843317313567712
40
0.843317313567712
40
0.874551288144294
40
0.874551288144294
40
0.890168275432585
40
0.890168275432585
40
0.905785262720875
40
0.905785262720875
40
0.937019237297457
40
0.937019237297457
40
0.968253211874039
40
0.968253211874039
40
0.98387019916233
40
0.98387019916233
40
0.987774445984403
40
0.987774445984403
40
0.991678692806476
40
0.991678692806476
40
0.999487186450621
40
0.999487186450621
40
1
40
1
40
1
40
1
41
1
10
228.863968045667
20
25.1567466098779
30
0
41
1
10
228.872147145504
20
25.1550507375149
30
0
41
1
10
228.88128392266
20
25.1531589751036
30
0
41
1
10
228.901492832149
20
25.1489838295925
30
0
41
1
10
228.912572479537
20
25.1466989235967
30
0
41
1
10
228.948476769426
20
25.1393134150456
30
0
41
1
10
228.976029487052
20
25.1336687018716
30
0
41
1
10
229.069204370297
20
25.1147117882443
30
0
41
1
10
229.145315265749
20
25.0993771534311
30
0
41
1
10
229.324493904212
20
25.0640393903723
30
0
41
1
10
229.427564321097
20
25.0440348058645
30
0
41
1
10
229.573154116723
20
25.0165663461818
30
0
41
1
10
229.603153171935
20
25.0109419390042
30
0
41
1
10
229.664525120444
20
24.9995165131726
30
0
41
1
10
229.758700170678
20
24.9821026024009
30
0
41
1
10
229.85909612702
20
24.9639359501141
30
0
41
1
10
230.067912202562
20
24.9267902337805
30
0
41
1
10
230.217800328255
20
24.9009439127207
30
0
41
1
10
230.538068567605
20
24.8480676960814
30
0
41
1
10
230.708451393936
20
24.8210359666251
30
0
41
1
10
230.934114864468
20
24.7871167694785
30
0
41
1
10
230.979877274393
20
24.7803277363204
30
0
41
1
10
231.072221648075
20
24.7668178229842
30
0
41
1
10
231.212131101276
20
24.7466304331951
30
0
41
1
10
231.356145002472
20
24.7267408546315
30
0
41
1
10
231.649493514769
20
24.6875282311631
30
0
41
1
10
231.852140551308
20
24.6621421776841
30
0
41
1
10
232.27113369016
20
24.613762409228
30
0
41
1
10
232.487481397206
20
24.5907674284625
30
0
41
1
10
232.766438775795
20
24.5640706647983
30
0
41
1
10
232.822657307614
20
24.5588337224022
30
0
41
1
10
232.935951111728
20
24.5485788145198
30
0
41
1
10
232.993071186274
20
24.543557310314
30
0
41
1
10
233.164978487051
20
24.5289045313287
30
0
41
1
10
233.280518421771
20
24.519665478094
30
0
41
1
10
233.629870692934
20
24.4936446528872
30
0
41
1
10
233.866409719587
20
24.4785598222795
30
0
41
1
10
234.346529227663
20
24.4534697181902
30
0
41
1
10
234.833691695758
20
24.4334586292495
30
0
41
1
10
235.334827227203
20
24.4246854696433
30
0
41
1
10
235.652470980384
20
24.4230526894166
30
0
41
1
10
235.716190223135
20
24.422919360147
30
0
41
1
10
235.843504515708
20
24.4230429650442
30
0
41
1
10
236.034496257533
20
24.4238124029413
30
0
41
1
10
236.225547059852
20
24.4263366206043
30
0
41
1
10
236.607723687163
20
24.4337298395207
30
0
41
1
10
237.117491822562
20
24.4498416819733
30
0
41
1
10
237.627637988235
20
24.478480995744
30
0
41
1
10
238.13797467984
20
24.5133717294781
30
0
41
1
10
238.393238260371
20
24.5339427395861
30
0
41
1
10
238.712445228986
20
24.5635432631899
30
0
41
1
10
238.776175665652
20
24.569647055919
30
0
41
1
10
238.903135171027
20
24.582187750702
30
0
41
1
10
239.092954147676
20
24.6015106359874
30
0
41
1
10
239.280932234213
20
24.6223331233074
30
0
41
1
10
239.654473860427
20
24.6658825986286
30
0
41
1
10
239.90028662424
20
24.6974549985151
30
0
41
1
10
240.38558649772
20
24.7651743534462
30
0
41
1
10
240.625073837085
20
24.8013217502382
30
0
41
1
10
241.097683093253
20
24.877679829983
30
0
41
1
10
241.330805899533
20
24.9178910788077
30
0
41
1
10
241.618106359618
20
24.9703610720759
30
0
41
1
10
241.675421865247
20
24.9809769379803
30
0
41
1
10
241.78915777162
20
25.0023296636117
30
0
41
1
10
241.958529555549
20
25.0345595101381
30
0
41
1
10
242.12423164259
20
25.0673342592894
30
0
41
1
10
242.450781559553
20
25.1334588160145
30
0
41
1
10
242.662020630772
20
25.1783091674677
30
0
41
1
10
243.071509406218
20
25.2687353045483
30
0
41
1
10
243.269760786565
20
25.3143125026968
30
0
41
1
10
243.65282105712
20
25.4053508039511
30
0
41
1
10
243.837633915566
20
25.4508138508983
30
0
41
1
10
244.059673335737
20
25.5069918589807
30
0
41
1
10
244.103631047873
20
25.5181946268462
30
0
41
1
10
244.190625868257
20
25.540518640181
30
0
41
1
10
244.233661102536
20
25.5516396741258
30
0
41
1
10
244.360646164704
20
25.5846705618041
30
0
41
1
10
244.442721869541
20
25.606310945062
30
0
41
1
10
244.681158842541
20
25.6699158603477
30
0
41
1
10
244.829752145692
20
25.7105672616319
30
0
41
1
10
245.105450989828
20
25.7873758735056
30
0
41
1
10
245.232562414417
20
25.8235357263677
30
0
41
1
10
245.405966061876
20
25.8735675389755
30
0
41
1
10
245.460883442151
20
25.8895422300032
30
0
41
1
10
245.564665045172
20
25.9199264759081
30
0
41
1
10
245.612989775935
20
25.9341777258036
30
0
41
1
10
245.747293498117
20
25.9739962809256
30
0
41
1
10
245.822642609666
20
25.9966347228209
30
0
41
1
10
245.944620353822
20
26.0334978248463
30
0
41
1
10
245.991252472978
20
26.0477239225019
30
0
41
1
10
246.038717832464
20
26.0622347547877
30
0
41
1
10
246.050785069012
20
26.0659327853033
30
0
41
1
10
246.061015093188
20
26.0690694903087
30
0
41
1
10
246.062818216747
20
26.069622514638
30
0
41
1
10
246.065933936064
20
26.0705782703571
30
0
41
1
10
246.067247305522
20
26.0709812391475
30
0
41
1
10
246.070434585809
20
26.0719592599997
30
0
41
1
10
246.071560366571
20
26.0723048390864
30
0
41
1
10
246.071703641045
20
26.0723488151858
30
0
41
1
10
246.071713202358
20
26.072351748022
30
0
41
1
10
246.071722774639
20
26.0723546446537
30
0
0
SPLINE
5
1FB
100
AcDbEntity
8
1
62
256
6
ByLayer
370
18
48
1
60
0
100
AcDbSpline
70
4
71
3
72
40
73
36
40
0
40
0
40
0
40
0
40
0.0312499999999998
40
0.0312499999999998
40
0.0468749999999998
40
0.0468749999999998
40
0.0624999999999997
40
0.125
40
0.187499999999999
40
0.249999999999999
40
0.312499999999999
40
0.312499999999999
40
0.328124999999999
40
0.328124999999999
40
0.343749999999999
40
0.343749999999999
40
0.374999999999999
40
0.374999999999999
40
0.437499999999999
40
0.499999999999999
40
0.562499999999999
40
0.624999999999999
40
0.624999999999999
40
0.640624999999999
40
0.640624999999999
40
0.656249999999999
40
0.656249999999999
40
0.687499999999999
40
0.687499999999999
40
0.749999999999999
40
0.812499999999999
40
0.875
40
0.9375
40
0.9375
40
1
40
1
40
1
40
1
41
1
10
238.059999619163
20
22.7405906569168
30
0
41
1
10
238.185120153292
20
22.7531595860591
30
0
41
1
10
238.310246472522
20
22.7667911229665
30
0
41
1
10
238.497945560768
20
22.7888283308331
30
0
41
1
10
238.560560974403
20
22.7964450530938
30
0
41
1
10
238.685574162078
20
22.8121796177159
30
0
41
1
10
238.997161042835
20
22.8527162889856
30
0
41
1
10
239.549629664919
20
22.9362579314315
30
0
41
1
10
240.269175705129
20
23.0683661524881
30
0
41
1
10
240.972251107901
20
23.2194150043226
30
0
41
1
10
241.430267739172
20
23.3315858931515
30
0
41
1
10
241.713233910481
20
23.404922192775
30
0
41
1
10
241.769662284786
20
23.4197509421487
30
0
41
1
10
241.882189954165
20
23.4497225788368
30
0
41
1
10
241.938312216124
20
23.464872056256
30
0
41
1
10
242.105653201251
20
23.510630899163
30
0
41
1
10
242.216015233261
20
23.5415947647122
30
0
41
1
10
242.543600429116
20
23.6357163053795
30
0
41
1
10
242.971054293201
20
23.7644879724493
30
0
41
1
10
243.585430142248
20
23.96530204872
30
0
41
1
10
244.173767907579
20
24.1717243270784
30
0
41
1
10
244.548894507089
20
24.3117635667861
30
0
41
1
10
244.778009192676
20
24.3996403668087
30
0
41
1
10
244.823564850668
20
24.4172333414462
30
0
41
1
10
244.914140459583
20
24.4524443495035
30
0
41
1
10
244.9591824772
20
24.4700712313567
30
0
41
1
10
245.093090571378
20
24.5228109731879
30
0
41
1
10
245.180864027644
20
24.5578309612134
30
0
41
1
10
245.439766086617
20
24.662355226163
30
0
41
1
10
245.773197973411
20
24.8002906873414
30
0
41
1
10
246.238855479408
20
25.0011069456764
30
0
41
1
10
246.670333419539
20
25.1940724804467
30
0
41
1
10
246.935076774438
20
25.31629476958
30
0
41
1
10
247.188133190557
20
25.4346871052292
30
0
41
1
10
247.308818739007
20
25.4919690547646
30
0
41
1
10
247.423450838594
20
25.5470043322704
30
0
0
SPLINE
5
1FC
100
AcDbEntity
8
1
62
256
6
ByLayer
370
18
48
1
60
0
100
AcDbSpline
70
4
71
3
72
30
73
26
40
0
40
0
40
0
40
0
40
0.125000000000002
40
0.125000000000002
40
0.250000000000005
40
0.250000000000005
40
0.312500000000006
40
0.312500000000006
40
0.343750000000006
40
0.343750000000006
40
0.375000000000006
40
0.375000000000006
40
0.500000000000005
40
0.500000000000005
40
0.625000000000003
40
0.625000000000003
40
0.656250000000003
40
0.656250000000003
40
0.687500000000002
40
0.687500000000002
40
0.750000000000002
40
0.750000000000002
40
0.875000000000001
40
0.875000000000001
40
1
40
1
40
1
40
1
41
1
10
251.42318328206
20
26.2008511580699
30
0
41
1
10
251.211278496896
20
26.1876908298256
30
0
41
1
10
251.002946078629
20
26.1732371598086
30
0
41
1
10
250.593147902323
20
26.1415539066968
30
0
41
1
10
250.391683254776
20
26.124324546801
30
0
41
1
10
250.094691877645
20
26.0959902376597
30
0
41
1
10
249.996564955017
20
26.0861276555165
30
0
41
1
10
249.850711169633
20
26.0706285449916
30
0
41
1
10
249.802229606155
20
26.0653345277464
30
0
41
1
10
249.706238084213
20
26.0545541975267
30
0
41
1
10
249.658727398125
20
26.0490684981031
30
0
41
1
10
249.423567025695
20
26.0211379336205
30
0
41
1
10
249.243068401283
20
25.9971964577028
30
0
41
1
10
248.896972533409
20
25.945344246571
30
0
41
1
10
248.731376017923
20
25.9174356828383
30
0
41
1
10
248.533902343881
20
25.8794148941232
30
0
41
1
10
248.494885403582
20
25.8716532016755
30
0
41
1
10
248.417819289887
20
25.855794958639
30
0
41
1
10
248.379772106357
20
25.8476975047888
30
0
41
1
10
248.267891435886
20
25.8230521237528
30
0
41
1
10
248.196037794011
20
25.8060952687451
30
0
41
1
10
247.988479985661
20
25.7534980654108
30
0
41
1
10
247.860751241068
20
25.7161357489072
30
0
41
1
10
247.626245749301
20
25.635936838981
30
0
41
1
10
247.519468461334
20
25.5931027334337
30
0
41
1
10
247.423450838594
20
25.5470043322704
30
0
0
SPLINE
5
1FD
100
AcDbEntity
8
1
62
256
6
ByLayer
370
18
48
1
60
0
100
AcDbSpline
70
4
71
3
72
34
73
30
40
0
40
0
40
0
40
0
40
0.0041700858249954
40
0.128648825096872
40
0.128648825096872
40
0.19088819473281
40
0.19088819473281
40
0.206448037141795
40
0.206448037141795
40
0.22200787955078
40
0.253127564368749
40
0.253127564368749
40
0.377606303640624
40
0.377606303640624
40
0.5020850429125
40
0.5020850429125
40
0.564324412548438
40
0.564324412548438
40
0.595444097366407
40
0.595444097366407
40
0.611003939775391
40
0.611003939775391
40
0.626563782184375
40
0.626563782184375
40
0.75104252145625
40
0.75104252145625
40
0.875521260728125
40
0.875521260728125
40
1
40
1
40
1
40
1
41
1
10
229.054468487887
20
21.8988973476193
30
0
41
1
10
229.064455533966
20
21.8997448440431
30
0
41
1
10
229.373047066794
20
21.9259344414531
30
0
41
1
10
229.696659181492
20
21.9534813096697
30
0
41
1
10
230.187785043319
20
21.9954353201318
30
0
41
1
10
230.355074449602
20
22.009749492396
30
0
41
1
10
230.568754928829
20
22.0280663696994
30
0
41
1
10
230.611749226276
20
22.0317535098527
30
0
41
1
10
230.697975417331
20
22.0391515048127
30
0
41
1
10
230.827715686366
20
22.0502878842877
30
0
41
1
10
230.958651059594
20
22.0615420702587
30
0
41
1
10
231.397728851959
20
22.0993167328983
30
0
41
1
10
231.757374477609
20
22.130368791481
30
0
41
1
10
232.493041443749
20
22.1941417434283
30
0
41
1
10
232.869063434486
20
22.2268626252248
30
0
41
1
10
233.445484730093
20
22.2772354988984
30
0
41
1
10
233.639693944499
20
22.2942420969346
30
0
41
1
10
233.934162367036
20
22.3200841032102
30
0
41
1
10
234.032844549665
20
22.3287534834718
30
0
41
1
10
234.181665896984
20
22.34184195423
30
0
41
1
10
234.231439571891
20
22.3462218002184
30
0
41
1
10
234.33100193096
20
22.3549876104973
30
0
41
1
10
234.380807858561
20
22.3593750878889
30
0
41
1
10
234.829282568383
20
22.3989035489578
30
0
41
1
10
235.229496503052
20
22.4343322772997
30
0
41
1
10
236.032969466672
20
22.5057816808277
30
0
41
1
10
236.436228723267
20
22.5418023612021
30
0
41
1
10
237.245798910532
20
22.6144526317244
30
0
41
1
10
237.652109528447
20
22.6510821769374
30
0
41
1
10
238.059999619163
20
22.6880297232754
30
0
0
SPLINE
5
1FE
100
AcDbEntity
8
1
62
256
6
ByLayer
370
18
48
1
60
0
100
AcDbSpline
70
4
71
3
72
60
73
56
40
0
40
0
40
0
40
0
40
0.0624999999999996
40
0.0624999999999996
40
0.124999999999999
40
0.124999999999999
40
0.156249999999999
40
0.156249999999999
40
0.187499999999999
40
0.187499999999999
40
0.249999999999998
40
0.249999999999998
40
0.312499999999998
40
0.312499999999998
40
0.374999999999998
40
0.374999999999998
40
0.390624999999998
40
0.390624999999998
40
0.406249999999998
40
0.437499999999998
40
0.437499999999998
40
0.499999999999998
40
0.499999999999998
40
0.562499999999998
40
0.562499999999998
40
0.624999999999997
40
0.624999999999997
40
0.656249999999997
40
0.656249999999997
40
0.664062499999997
40
0.664062499999997
40
0.671874999999997
40
0.671874999999997
40
0.687499999999997
40
0.687499999999997
40
0.718749999999997
40
0.718749999999997
40
0.749999999999997
40
0.749999999999997
40
0.781249999999997
40
0.781249999999997
40
0.796874999999997
40
0.804687499999997
40
0.804687499999997
40
0.812499999999997
40
0.812499999999997
40
0.874999999999998
40
0.874999999999998
40
0.906249999999998
40
0.906249999999998
40
0.921874999999999
40
0.921874999999999
40
0.937499999999999
40
0.937499999999999
40
1
40
1
40
1
40
1
41
1
10
228.863968045667
20
25.1567466098779
30
0
41
1
10
228.883588695065
20
25.1469000305376
30
0
41
1
10
228.914800237284
20
25.1312467444868
30
0
41
1
10
229.000597745458
20
25.0884176288932
30
0
41
1
10
229.0551818588
20
25.0612415705737
30
0
41
1
10
229.155025535672
20
25.0118777387067
30
0
41
1
10
229.191103571243
20
24.9940891943054
30
0
41
1
10
229.268682205743
20
24.9559845722085
30
0
41
1
10
229.310192483455
20
24.935663674909
30
0
41
1
10
229.44276196619
20
24.8710546925149
30
0
41
1
10
229.541845064384
20
24.8231212397814
30
0
41
1
10
229.761106996934
20
24.7183452932613
30
0
41
1
10
229.881283784147
20
24.6615010964161
30
0
41
1
10
230.142916719567
20
24.539703591374
30
0
41
1
10
230.284367899665
20
24.4747480772766
30
0
41
1
10
230.474968611989
20
24.3890151617846
30
0
41
1
10
230.513779938012
20
24.3716418055229
30
0
41
1
10
230.592803762494
20
24.336456281711
30
0
41
1
10
230.71306865768
20
24.2831861713153
30
0
41
1
10
230.838507556143
20
24.2285395637466
30
0
41
1
10
231.096308702656
20
24.1176818981872
30
0
41
1
10
231.277381318976
20
24.0416839755091
30
0
41
1
10
231.658639612529
20
23.8870623390536
30
0
41
1
10
231.858814806881
20
23.808431739439
30
0
41
1
10
232.279920006821
20
23.6503943568983
30
0
41
1
10
232.500828564764
20
23.5709759940932
30
0
41
1
10
232.850040610599
20
23.4530766400387
30
0
41
1
10
232.969432272016
20
23.4139869598003
30
0
41
1
10
233.122774505416
20
23.3656338385707
30
0
41
1
10
233.153648503071
20
23.3559888519574
30
0
41
1
10
233.215818589001
20
23.3367571217075
30
0
41
1
10
233.247136531062
20
23.3271637887596
30
0
41
1
10
233.341555464532
20
23.2985382548793
30
0
41
1
10
233.405103166996
20
23.2796652543264
30
0
41
1
10
233.597614250427
20
23.2237687108087
30
0
41
1
10
233.728442080248
20
23.1874649846872
30
0
41
1
10
233.995484043119
20
23.1173179390852
30
0
41
1
10
234.1316972427
20
23.0834738468001
30
0
41
1
10
234.41004447223
20
23.0188776052968
30
0
41
1
10
234.552177190104
20
22.9881244440278
30
0
41
1
10
234.770335500482
20
22.9448773703227
30
0
41
1
10
234.880656485943
20
22.9239760491024
30
0
41
1
10
234.992958634747
20
22.904279883238
30
0
41
1
10
235.068281811028
20
22.8914317114189
30
0
41
1
10
235.10618067559
20
22.8851477372218
30
0
41
1
10
235.44798963644
20
22.8301489062245
30
0
41
1
10
235.759276300153
20
22.7918960846262
30
0
41
1
10
236.239011179593
20
22.7547716649199
30
0
41
1
10
236.401062402156
20
22.7457770609693
30
0
41
1
10
236.647601426013
20
22.7379210572888
30
0
41
1
10
236.730410400168
20
22.7362414309267
30
0
41
1
10
236.897014811472
20
22.7348578782979
30
0
41
1
10
236.980273599347
20
22.7351574336509
30
0
41
1
10
237.396350172838
20
22.7416123527809
30
0
41
1
10
237.728512537613
20
22.7627038034932
30
0
41
1
10
238.059999619163
20
22.7992002870579
30
0
0
SPLINE
5
1FF
100
AcDbEntity
8
1
62
256
6
ByLayer
370
18
48
1
60
0
100
AcDbSpline
70
4
71
3
72
10
73
6
40
0
40
0
40
0
40
0
40
0.000727470022821
40
0.000727470022821
40
1
40
1
40
1
40
1
41
1
10
228.824186953036
20
25.1542970089981
30
0
41
1
10
228.824176970943
20
25.1542963943371
30
0
41
1
10
228.824166988849
20
25.1542957796717
30
0
41
1
10
228.824123023625
20
25.1542930724337
30
0
41
1
10
228.83727063889
20
25.1551026577228
30
0
41
1
10
228.863968045667
20
25.1567466098779
30
0
0
SPLINE
5
200
100
AcDbEntity
8
1
62
256
6
ByLayer
370
18
48
1
60
0
100
AcDbSpline
70
4
71
3
72
23
73
19
40
0
40
0
40
0
40
0
40
0.0395573881691717
40
0.09403933806866
40
0.148520577418603
40
0.202954662078837
40
0.257386313872227
40
0.311517203706338
40
0.365644214650048
40
0.419103165812743
40
0.472559510388441
40
0.525292213296079
40
0.578025747237355
40
0.682698928901819
40
0.788300602741219
40
0.842032961403902
40
0.895766859516012
40
1
40
1
40
1
40
1
41
1
10
214.289640265218
20
24.9999996102734
30
0
41
1
10
214.289614470829
20
24.9999825190274
30
0
41
1
10
214.275931579311
20
24.9987238636546
30
0
41
1
10
214.201940742701
20
24.9918084068956
30
0
41
1
10
214.058067106597
20
24.9791505172572
30
0
41
1
10
213.853335965788
20
24.9625458269086
30
0
41
1
10
213.596123017997
20
24.9441272743514
30
0
41
1
10
213.291703973323
20
24.9259323901169
30
0
41
1
10
212.951979276386
20
24.9100262821676
30
0
41
1
10
212.585170068552
20
24.8984209642301
30
0
41
1
10
212.204837491447
20
24.8920677469808
30
0
41
1
10
211.820127396398
20
24.8920031531139
30
0
41
1
10
211.31865766786
20
24.8995414228586
30
0
41
1
10
210.727727682977
20
24.9227097759814
30
0
41
1
10
210.253493421114
20
24.9542073960631
30
0
41
1
10
209.975347649181
20
24.9762923188058
30
0
41
1
10
209.77227497156
20
24.9941104478326
30
0
41
1
10
209.711798865472
20
24.9995059848064
30
0
41
1
10
209.710358973108
20
24.9999996102734
30
0
0
LINE
5
74
100
AcDbEntity
8
SK1
62
256
6
ByLayer
370
18
48
1
60
0
100
AcDbLine
10
-1.999937
20
17.525123
30
0
11
-1.999937
21
-17.525123
31
0
39
0
210
0
220
0
230
1
0
LINE
5
76
100
AcDbEntity
8
SK1
62
256
6
ByLayer
370
18
48
1
60
0
100
AcDbLine
10
-28.5
20
-16.859357
30
0
11
-28.5
21
16.859357
31
0
39
0
210
0
220
0
230
1
0
LINE
5
77
100
AcDbEntity
8
SK1
62
256
6
ByLayer
370
18
48
1
60
0
100
AcDbLine
10
-1.794977
20
17.330212
30
0
11
-1.794977
21
-17.330212
31
0
39
0
210
0
220
0
230
1
0
LINE
5
78
100
AcDbEntity
8
SK1
62
256
6
ByLayer
370
18
48
1
60
0
100
AcDbLine
10
-30
20
15.993345
30
0
11
-30
21
-15.993345
31
0
39
0
210
0
220
0
230
1
0
LINE
5
79
100
AcDbEntity
8
SK1
62
256
6
ByLayer
370
18
48
1
60
0
100
AcDbLine
10
-0.194914
20
17.37041
30
0
11
-0.194914
21
5.108839
31
0
39
0
210
0
220
0
230
1
0
LINE
5
7A
100
AcDbEntity
8
SK1
62
256
6
ByLayer
370
18
48
1
60
0
100
AcDbLine
10
-0.194914
20
-5.108839
30
0
11
-0.194914
21
-17.37041
31
0
39
0
210
0
220
0
230
1
0
LINE
5
7B
100
AcDbEntity
8
SK1
62
256
6
ByLayer
370
18
48
1
60
0
100
AcDbLine
10
-1.307107
20
-3.91807
30
0
11
-1.307107
21
3.91807
31
0
39
0
210
0
220
0
230
1
0
LINE
5
7C
100
AcDbEntity
8
80
62
256
6
ByLayer
370
18
48
0.05
60
0
100
AcDbLine
10
0
20
0
30
0
11
-32.306743
21
0
31
0
39
0
210
0
220
0
230
1
0
LINE
5
7D
100
AcDbEntity
8
4
62
256
6
ByLayer
370
18
48
0.05
60
0
100
AcDbLine
10
237
20
21.25
30
0
11
237
21
-24.821476
31
0
39
0
210
0
220
0
230
1
0
LINE
5
7F
100
AcDbEntity
8
SK4
62
256
6
ByLayer
370
18
48
0.05
60
0
100
AcDbLine
10
237
20
-25.808402
30
0
11
237
21
31.191598
31
0
39
0
210
0
220
0
230
1
0
LINE
5
81
100
AcDbEntity
8
4
62
256
6
ByLayer
370
18
48
0.05
60
0
100
AcDbLine
10
0
20
0
30
0
11
260.704086
21
0
31
0
39
0
210
0
220
0
230
1
0
LINE
5
82
100
AcDbEntity
8
SK4
62
256
6
ByLayer
370
18
48
0.05
60
0
100
AcDbLine
10
260.704086
20
0
30
0
11
-32.306743
21
0
31
0
39
0
210
0
220
0
230
1
0
LINE
5
83
100
AcDbEntity
8
81
62
256
6
ByLayer
370
18
48
0.05
60
0
100
AcDbLine
10
260
20
27.480119
30
0
11
270.236752
21
27.480119
31
0
39
0
210
0
220
0
230
1
0
LINE
5
84
100
AcDbEntity
8
1
62
256
6
ByLayer
370
18
48
1
60
0
100
AcDbLine
10
0
20
24.7
30
0
11
0
21
0
31
0
39
0
210
0
220
0
230
1
0
LINE
5
86
100
AcDbEntity
8
1
62
256
6
ByLayer
370
18
48
1
60
0
100
AcDbLine
10
0
20
0
30
0
11
0
21
-24.7
31
0
39
0
210
0
220
0
230
1
0
LINE
5
87
100
AcDbEntity
8
1
62
256
6
ByLayer
370
18
48
1
60
0
100
AcDbLine
10
11.461325
20
-23.83913
30
0
11
8.538675
21
-23.83913
31
0
39
0
210
0
220
0
230
1
0
LINE
5
88
100
AcDbEntity
8
1
62
256
6
ByLayer
370
18
48
1
60
0
100
AcDbLine
10
8.538675
20
23.83913
30
0
11
11.461325
21
23.83913
31
0
39
0
210
0
220
0
230
1
0
LINE
5
89
100
AcDbEntity
8
1
62
256
6
ByLayer
370
18
48
1
60
0
100
AcDbLine
10
11.461325
20
7.529667
30
0
11
8.538675
21
7.529667
31
0
39
0
210
0
220
0
230
1
0
LINE
5
8A
100
AcDbEntity
8
1
62
256
6
ByLayer
370
13
48
1
60
0
100
AcDbLine
10
8.538675
20
-23.83913
30
0
11
8.538675
21
-7.529667
31
0
39
0
210
0
220
0
230
1
0
LINE
5
8B
100
AcDbEntity
8
1
62
256
6
ByLayer
370
13
48
1
60
0
100
AcDbLine
10
8.105662
20
-23.666502
30
0
11
8.105662
21
-8.055848
31
0
39
0
210
0
220
0
230
1
0
LINE
5
8C
100
AcDbEntity
8
1
62
256
6
ByLayer
370
13
48
1
60
0
100
AcDbLine
10
8.105662
20
8.055848
30
0
11
8.105662
21
23.666502
31
0
39
0
210
0
220
0
230
1
0
LINE
5
8D
100
AcDbEntity
8
1
62
256
6
ByLayer
370
13
48
1
60
0
100
AcDbLine
10
11.894338
20
-23.666502
30
0
11
11.894338
21
-8.055848
31
0
39
0
210
0
220
0
230
1
0
LINE
5
8E
100
AcDbEntity
8
1
62
256
6
ByLayer
370
13
48
1
60
0
100
AcDbLine
10
11.461325
20
-23.83913
30
0
11
11.461325
21
-7.529667
31
0
39
0
210
0
220
0
230
1
0
LINE
5
8F
100
AcDbEntity
8
1
62
256
6
ByLayer
370
13
48
1
60
0
100
AcDbLine
10
8.538675
20
7.529667
30
0
11
8.538675
21
23.83913
31
0
39
0
210
0
220
0
230
1
0
LINE
5
90
100
AcDbEntity
8
1
62
256
6
ByLayer
370
18
48
1
60
0
100
AcDbLine
10
0.3
20
25
30
0
11
0
21
24.7
31
0
39
0
210
0
220
0
230
1
0
LINE
5
91
100
AcDbEntity
8
1
62
256
6
ByLayer
370
18
48
1
60
0
100
AcDbLine
10
8.538675
20
-7.529667
30
0
11
11.461325
21
-7.529667
31
0
39
0
210
0
220
0
230
1
0
LINE
5
92
100
AcDbEntity
8
1
62
256
6
ByLayer
370
13
48
1
60
0
100
AcDbLine
10
11.894338
20
8.055848
30
0
11
11.894338
21
23.666502
31
0
39
0
210
0
220
0
230
1
0
LINE
5
93
100
AcDbEntity
8
1
62
256
6
ByLayer
370
18
48
1
60
0
100
AcDbLine
10
0
20
-24.7
30
0
11
0.3
21
-25
31
0
39
0
210
0
220
0
230
1
0
LINE
5
94
100
AcDbEntity
8
1
62
256
6
ByLayer
370
13
48
1
60
0
100
AcDbLine
10
11.461325
20
7.529667
30
0
11
11.461325
21
23.83913
31
0
39
0
210
0
220
0
230
1
0
LINE
5
95
100
AcDbEntity
8
1
62
256
6
ByLayer
370
18
48
1
60
0
100
AcDbLine
10
0.3
20
25
30
0
11
0.3
21
0
31
0
39
0
210
0
220
0
230
1
0
LINE
5
96
100
AcDbEntity
8
1
62
256
6
ByLayer
370
18
48
1
60
0
100
AcDbLine
10
0.3
20
0
30
0
11
0.3
21
-25
31
0
39
0
210
0
220
0
230
1
0
LINE
5
97
100
AcDbEntity
8
1
62
256
6
ByLayer
370
18
48
1
60
0
100
AcDbLine
10
250.895591
20
22.228705
30
0
11
259.056958
21
17.128917
31
0
39
0
210
0
220
0
230
1
0
LINE
5
98
100
AcDbEntity
8
1
62
256
6
ByLayer
370
18
48
1
60
0
100
AcDbLine
10
259.663903
20
17.451636
30
0
11
259.999765
21
27.069481
31
0
39
0
210
0
220
0
230
1
0
LINE
5
99
100
AcDbEntity
8
1
62
256
6
ByLayer
370
18
48
1
60
0
100
AcDbLine
10
259.416811
20
27.433751
30
0
11
250.919581
21
22.915694
31
0
39
0
210
0
220
0
230
1
0
LINE
5
9A
100
AcDbEntity
8
1
62
256
6
ByLayer
370
18
48
1
60
0
100
AcDbLine
10
250.895591
20
22.228705
30
0
11
259.056958
21
17.128917
31
0
39
0
210
0
220
0
230
1
0
LINE
5
9B
100
AcDbEntity
8
1
62
256
6
ByLayer
370
18
48
1
60
0
100
AcDbLine
10
259.416811
20
27.433751
30
0
11
250.919581
21
22.915694
31
0
39
0
210
0
220
0
230
1
0
LINE
5
9C
100
AcDbEntity
8
1
62
256
6
ByLayer
370
18
48
1
60
0
100
AcDbLine
10
259.663903
20
17.451636
30
0
11
259.999765
21
27.069481
31
0
39
0
210
0
220
0
230
1
0
LINE
5
9D
100
AcDbEntity
8
1
62
256
6
ByLayer
370
18
48
1
60
0
100
AcDbLine
10
235.044938
20
1.270744
30
0
11
237.087035
21
0.192239
31
0
39
0
210
0
220
0
230
1
0
LINE
5
9E
100
AcDbEntity
8
1
62
256
6
ByLayer
370
18
48
1
60
0
100
AcDbLine
10
234.957903
20
3.578505
30
0
11
235.044938
21
1.270744
31
0
39
0
210
0
220
0
230
1
0
LINE
5
9F
100
AcDbEntity
8
1
62
256
6
ByLayer
370
18
48
1
60
0
100
AcDbLine
10
236.912964
20
4.80776
30
0
11
234.957903
21
3.578505
31
0
39
0
210
0
220
0
230
1
0
LINE
5
A0
100
AcDbEntity
8
1
62
256
6
ByLayer
370
18
48
1
60
0
100
AcDbLine
10
238.955061
20
3.729255
30
0
11
236.912964
21
4.80776
31
0
39
0
210
0
220
0
230
1
0
LINE
5
A1
100
AcDbEntity
8
1
62
256
6
ByLayer
370
18
48
1
60
0
100
AcDbLine
10
239.042097
20
1.421495
30
0
11
238.955061
21
3.729255
31
0
39
0
210
0
220
0
230
1
0
LINE
5
A2
100
AcDbEntity
8
1
62
256
6
ByLayer
370
18
48
1
60
0
100
AcDbLine
10
237.087035
20
0.192239
30
0
11
239.042097
21
1.421495
31
0
39
0
210
0
220
0
230
1
0
LINE
5
A3
100
AcDbEntity
8
1
62
256
6
ByLayer
370
18
48
1
60
0
100
AcDbLine
10
224.98345
20
21.9
30
0
11
224.86188
21
21.9
31
0
39
0
210
0
220
0
230
1
0
LINE
5
A4
100
AcDbEntity
8
1
62
256
6
ByLayer
370
18
48
1
60
0
100
AcDbLine
10
224.16906
20
22.3
30
0
11
223.168058
21
24.033785
31
0
39
0
210
0
220
0
230
1
0
LINE
5
A5
100
AcDbEntity
8
1
62
256
6
ByLayer
370
18
48
1
60
0
100
AcDbLine
10
222.795432
20
24.097933
30
0
11
223.434066
21
22.343299
31
0
39
0
210
0
220
0
230
1
0
LINE
5
A6
100
AcDbEntity
8
1
62
256
6
ByLayer
370
18
48
1
60
0
100
AcDbLine
10
256
20
12.914608
30
0
11
256
21
-18.4
31
0
39
0
210
0
220
0
230
1
0
LINE
5
A7
100
AcDbEntity
8
1
62
256
6
ByLayer
370
18
48
1
60
0
100
AcDbLine
10
220
20
25
30
0
11
220
21
-25
31
0
39
0
210
0
220
0
230
1
0
LINE
5
A8
100
AcDbEntity
8
1
62
256
6
ByLayer
370
18
48
1
60
0
100
AcDbLine
10
220.9
20
-25
30
0
11
224.5
21
-21.4
31
0
39
0
210
0
220
0
230
1
0
LINE
5
A9
100
AcDbEntity
8
1
62
256
6
ByLayer
370
18
48
1
60
0
100
AcDbLine
10
224.5
20
-21.4
30
0
11
253
21
-21.4
31
0
39
0
210
0
220
0
230
1
0
LINE
5
AA
100
AcDbEntity
8
1
62
256
6
ByLayer
370
18
48
1
60
0
100
AcDbLine
10
253
20
-21.4
30
0
11
253
21
14.789216
31
0
39
0
210
0
220
0
230
1
0
LINE
5
AB
100
AcDbEntity
8
1
62
256
6
ByLayer
370
18
48
1
60
0
100
AcDbLine
10
249.5
20
16.976258
30
0
11
253
21
14.789216
31
0
39
0
210
0
220
0
230
1
0
LINE
5
AC
100
AcDbEntity
8
1
62
256
6
ByLayer
370
18
48
1
60
0
100
AcDbLine
10
234.375137
20
21.9
30
0
11
249.5
21
16.976258
31
0
39
0
210
0
220
0
230
1
0
LINE
5
AD
100
AcDbEntity
8
1
62
256
6
ByLayer
370
18
48
1
60
0
100
AcDbLine
10
224.983439
20
21.9
30
0
11
234.375137
21
21.9
31
0
39
0
210
0
220
0
230
1
0
LINE
5
AE
100
AcDbEntity
8
1
62
256
6
ByLayer
370
18
48
1
60
0
100
AcDbLine
10
223.168058
20
24.033785
30
0
11
222.610214
21
25
31
0
39
0
210
0
220
0
230
1
0
LINE
5
AF
100
AcDbEntity
8
1
62
256
6
ByLayer
370
18
48
1
60
0
100
AcDbLine
10
222.610214
20
25
30
0
11
220
21
25
31
0
39
0
210
0
220
0
230
1
0
LINE
5
B0
100
AcDbEntity
8
1
62
256
6
ByLayer
370
18
48
1
60
0
100
AcDbLine
10
220
20
-25
30
0
11
220.9
21
-25
31
0
39
0
210
0
220
0
230
1
0
LINE
5
B1
100
AcDbEntity
8
1
62
256
6
ByLayer
370
18
48
1
60
0
100
AcDbLine
10
241.75
20
-22.956
30
0
11
232.25
21
-22.956
31
0
39
0
210
0
220
0
230
1
0
LINE
5
B2
100
AcDbEntity
8
1
62
256
6
ByLayer
370
18
48
1
60
0
100
AcDbLine
10
232.25
20
-22.925991
30
0
11
232.25
21
-22.956
31
0
39
0
210
0
220
0
230
1
0
LINE
5
B3
100
AcDbEntity
8
1
62
256
6
ByLayer
370
18
48
1
60
0
100
AcDbLine
10
241.75
20
-22.956
30
0
11
241.75
21
-22.925991
31
0
39
0
210
0
220
0
230
1
0
LINE
5
B4
100
AcDbEntity
8
1
62
256
6
ByLayer
370
18
48
1
60
0
100
AcDbLine
10
249
20
17.138913
30
0
11
249
21
17.330119
31
0
39
0
210
0
220
0
230
1
0
LINE
5
B5
100
AcDbEntity
8
1
62
256
6
ByLayer
370
18
48
1
60
0
100
AcDbLine
10
248.413042
20
17.330119
30
0
11
249
21
17.330119
31
0
39
0
210
0
220
0
230
1
0
LINE
5
B6
100
AcDbEntity
8
1
62
256
6
ByLayer
370
18
48
1
60
0
100
AcDbLine
10
249
20
17.330119
30
0
11
248.85
21
17.480119
31
0
39
0
210
0
220
0
230
1
0
LINE
5
B7
100
AcDbEntity
8
1
62
256
6
ByLayer
370
18
48
1
60
0
100
AcDbLine
10
219.7
20
25
30
0
11
219.7
21
0
31
0
39
0
210
0
220
0
230
1
0
LINE
5
B8
100
AcDbEntity
8
1
62
256
6
ByLayer
370
18
48
1
60
0
100
AcDbLine
10
219.7
20
0
30
0
11
219.7
21
-25
31
0
39
0
210
0
220
0
230
1
0
LINE
5
B9
100
AcDbEntity
8
1
62
256
6
ByLayer
370
18
48
1
60
0
100
AcDbLine
10
219.7
20
25
30
0
11
214.28699
21
25
31
0
39
0
210
0
220
0
230
1
0
LINE
5
BA
100
AcDbEntity
8
1
62
256
6
ByLayer
370
18
48
1
60
0
100
AcDbLine
10
209.707015
20
25
30
0
11
0.3
21
25
31
0
39
0
210
0
220
0
230
1
0
LINE
5
BB
100
AcDbEntity
8
1
62
256
6
ByLayer
370
18
48
1
60
0
100
AcDbLine
10
0.3
20
-25
30
0
11
219.7
21
-25
31
0
39
0
210
0
220
0
230
1
0
LINE
5
BC
100
AcDbEntity
8
1
62
256
6
ByLayer
370
18
48
1
60
0
100
AcDbLine
10
227.2716
20
-21.853613
30
0
11
227.271393
21
-21.854581
31
0
39
0
210
0
220
0
230
1
0
LINE
5
BD
100
AcDbEntity
8
1
62
256
6
ByLayer
370
18
48
1
60
0
100
AcDbLine
10
246.728399
20
-21.853613
30
0
11
246.728606
21
-21.854581
31
0
39
0
210
0
220
0
230
1
0
LINE
5
BE
100
AcDbEntity
8
1
62
256
6
ByLayer
370
18
48
1
60
0
100
AcDbLine
10
227.420728
20
-21.851647
30
0
11
227.42011
21
-21.854581
31
0
39
0
210
0
220
0
230
1
0
LINE
5
BF
100
AcDbEntity
8
1
62
256
6
ByLayer
370
18
48
1
60
0
100
AcDbLine
10
246.579271
20
-21.851647
30
0
11
246.579889
21
-21.854581
31
0
39
0
210
0
220
0
230
1
0
LINE
5
C0
100
AcDbEntity
8
1
62
256
6
ByLayer
370
18
48
1
60
0
100
AcDbLine
10
228.670964
20
-22.069054
30
0
11
228.671983
21
-22.064057
31
0
39
0
210
0
220
0
230
1
0
LINE
5
C1
100
AcDbEntity
8
1
62
256
6
ByLayer
370
18
48
1
60
0
100
AcDbLine
10
245.329035
20
-22.069054
30
0
11
245.328016
21
-22.064057
31
0
39
0
210
0
220
0
230
1
0
LINE
5
C2
100
AcDbEntity
8
1
62
256
6
ByLayer
370
18
48
1
60
0
100
AcDbLine
10
245.832538
20
-21.847344
30
0
11
245.833942
21
-21.854581
31
0
39
0
210
0
220
0
230
1
0
LINE
5
C3
100
AcDbEntity
8
1
62
256
6
ByLayer
370
18
48
1
60
0
100
AcDbLine
10
228.167461
20
-21.847344
30
0
11
228.166057
21
-21.854581
31
0
39
0
210
0
220
0
230
1
0
LINE
5
C4
100
AcDbEntity
8
1
62
256
6
ByLayer
370
18
48
1
60
0
100
AcDbLine
10
245.246709
20
-21.844821
30
0
11
245.248476
21
-21.854581
31
0
39
0
210
0
220
0
230
1
0
LINE
5
C5
100
AcDbEntity
8
1
62
256
6
ByLayer
370
18
48
1
60
0
100
AcDbLine
10
228.753291
20
-21.844821
30
0
11
228.751523
21
-21.854581
31
0
39
0
210
0
220
0
230
1
0
LINE
5
C6
100
AcDbEntity
8
1
62
256
6
ByLayer
370
18
48
1
60
0
100
AcDbLine
10
244.530824
20
-21.841859
30
0
11
244.532926
21
-21.854581
31
0
39
0
210
0
220
0
230
1
0
LINE
5
C7
100
AcDbEntity
8
1
62
256
6
ByLayer
370
18
48
1
60
0
100
AcDbLine
10
229.469176
20
-21.841859
30
0
11
229.467073
21
-21.854581
31
0
39
0
210
0
220
0
230
1
0
LINE
5
C8
100
AcDbEntity
8
1
62
256
6
ByLayer
370
18
48
1
60
0
100
AcDbLine
10
243.696173
20
-21.838204
30
0
11
243.698578
21
-21.854581
31
0
39
0
210
0
220
0
230
1
0
LINE
5
C9
100
AcDbEntity
8
1
62
256
6
ByLayer
370
18
48
1
60
0
100
AcDbLine
10
230.303826
20
-21.838204
30
0
11
230.301422
21
-21.854581
31
0
39
0
210
0
220
0
230
1
0
LINE
5
CA
100
AcDbEntity
8
1
62
256
6
ByLayer
370
18
48
1
60
0
100
AcDbLine
10
231.829196
20
-22.069054
30
0
11
231.831865
21
-22.047887
31
0
39
0
210
0
220
0
230
1
0
LINE
5
CB
100
AcDbEntity
8
1
62
256
6
ByLayer
370
18
48
1
60
0
100
AcDbLine
10
242.170803
20
-22.069054
30
0
11
242.168135
21
-22.047887
31
0
39
0
210
0
220
0
230
1
0
LINE
5
CC
100
AcDbEntity
8
1
62
256
6
ByLayer
370
18
48
1
60
0
100
AcDbLine
10
241.724893
20
-21.826608
30
0
11
241.727783
21
-21.854581
31
0
39
0
210
0
220
0
230
1
0
LINE
5
CD
100
AcDbEntity
8
1
62
256
6
ByLayer
370
18
48
1
60
0
100
AcDbLine
10
232.275107
20
-21.826608
30
0
11
232.272216
21
-21.854581
31
0
39
0
210
0
220
0
230
1
0
LINE
5
CE
100
AcDbEntity
8
1
62
256
6
ByLayer
370
18
48
1
60
0
100
AcDbLine
10
240.619351
20
-21.81574
30
0
11
240.622417
21
-21.854581
31
0
39
0
210
0
220
0
230
1
0
LINE
5
CF
100
AcDbEntity
8
1
62
256
6
ByLayer
370
18
48
1
60
0
100
AcDbLine
10
233.380648
20
-21.81574
30
0
11
233.377582
21
-21.854581
31
0
39
0
210
0
220
0
230
1
0
LINE
5
D0
100
AcDbEntity
8
1
62
256
6
ByLayer
370
18
48
1
60
0
100
AcDbLine
10
241.314915
20
-21.4
30
0
11
241.311531
21
-21.401972
31
0
39
0
210
0
220
0
230
1
0
LINE
5
D1
100
AcDbEntity
8
1
62
256
6
ByLayer
370
18
48
1
60
0
100
AcDbLine
10
232.685084
20
-21.4
30
0
11
232.688468
21
-21.401972
31
0
39
0
210
0
220
0
230
1
0
LINE
5
D2
100
AcDbEntity
8
1
62
256
6
ByLayer
370
18
48
1
60
0
100
AcDbLine
10
239.457318
20
-21.805707
30
0
11
239.459924
21
-21.854581
31
0
39
0
210
0
220
0
230
1
0
LINE
5
D3
100
AcDbEntity
8
1
62
256
6
ByLayer
370
18
48
1
60
0
100
AcDbLine
10
234.542682
20
-21.805707
30
0
11
234.540075
21
-21.854581
31
0
39
0
210
0
220
0
230
1
0
LINE
5
D4
100
AcDbEntity
8
1
62
256
6
ByLayer
370
18
48
1
60
0
100
AcDbLine
10
239.457318
20
-21.805707
30
0
11
239.443951
21
-21.805707
31
0
39
0
210
0
220
0
230
1
0
LINE
5
D5
100
AcDbEntity
8
1
62
256
6
ByLayer
370
18
48
1
60
0
100
AcDbLine
10
239.927747
20
-21.4
30
0
11
239.457318
21
-21.805707
31
0
39
0
210
0
220
0
230
1
0
LINE
5
D6
100
AcDbEntity
8
1
62
256
6
ByLayer
370
18
48
1
60
0
100
AcDbLine
10
234.072252
20
-21.4
30
0
11
234.542682
21
-21.805707
31
0
39
0
210
0
220
0
230
1
0
LINE
5
D7
100
AcDbEntity
8
1
62
256
6
ByLayer
370
18
48
1
60
0
100
AcDbLine
10
234.556048
20
-21.805707
30
0
11
234.542682
21
-21.805707
31
0
39
0
210
0
220
0
230
1
0
LINE
5
D8
100
AcDbEntity
8
1
62
256
6
ByLayer
370
18
48
1
60
0
100
AcDbLine
10
238.257323
20
-21.805707
30
0
11
238.258637
21
-21.854581
31
0
39
0
210
0
220
0
230
1
0
LINE
5
D9
100
AcDbEntity
8
1
62
256
6
ByLayer
370
18
48
1
60
0
100
AcDbLine
10
235.742676
20
-21.805707
30
0
11
235.741363
21
-21.854581
31
0
39
0
210
0
220
0
230
1
0
LINE
5
DA
100
AcDbEntity
8
1
62
256
6
ByLayer
370
18
48
1
60
0
100
AcDbLine
10
238.257323
20
-21.805707
30
0
11
238.212789
21
-21.805707
31
0
39
0
210
0
220
0
230
1
0
LINE
5
DB
100
AcDbEntity
8
1
62
256
6
ByLayer
370
18
48
1
60
0
100
AcDbLine
10
238.494407
20
-21.4
30
0
11
238.257323
21
-21.805707
31
0
39
0
210
0
220
0
230
1
0
LINE
5
DC
100
AcDbEntity
8
1
62
256
6
ByLayer
370
18
48
1
60
0
100
AcDbLine
10
235.505592
20
-21.4
30
0
11
235.742676
21
-21.805707
31
0
39
0
210
0
220
0
230
1
0
LINE
5
DD
100
AcDbEntity
8
1
62
256
6
ByLayer
370
18
48
1
60
0
100
AcDbLine
10
235.78721
20
-21.805707
30
0
11
235.742676
21
-21.805707
31
0
39
0
210
0
220
0
230
1
0
LINE
5
DE
100
AcDbEntity
8
1
62
256
6
ByLayer
370
18
48
1
60
0
100
AcDbLine
10
232.25
20
-22.926
30
0
11
241.75
21
-22.926
31
0
39
0
210
0
220
0
230
1
0
LINE
5
DF
100
AcDbEntity
8
1
62
256
6
ByLayer
370
18
48
1
60
0
100
AcDbLine
10
241.75
20
-22.926
30
0
11
248.793578
21
-21.415332
31
0
39
0
210
0
220
0
230
1
0
LINE
5
E0
100
AcDbEntity
8
1
62
256
6
ByLayer
370
18
48
1
60
0
100
AcDbLine
10
225.206421
20
-21.415332
30
0
11
232.25
21
-22.926
31
0
39
0
210
0
220
0
230
1
0
LINE
5
E1
100
AcDbEntity
8
1
62
256
6
ByLayer
370
18
48
1
60
0
100
AcDbLine
10
237.0375
20
-22.020182
30
0
11
236.9625
21
-22.020182
31
0
39
0
210
0
220
0
230
1
0
LINE
5
E2
100
AcDbEntity
8
1
62
256
6
ByLayer
370
18
48
1
60
0
100
AcDbLine
10
238.515324
20
-21.415332
30
0
11
239.896607
21
-21.415332
31
0
39
0
210
0
220
0
230
1
0
LINE
5
E3
100
AcDbEntity
8
1
62
256
6
ByLayer
370
18
48
1
60
0
100
AcDbLine
10
239.96925
20
-21.415332
30
0
11
241.306617
21
-21.415332
31
0
39
0
210
0
220
0
230
1
0
LINE
5
E4
100
AcDbEntity
8
1
62
256
6
ByLayer
370
18
48
1
60
0
100
AcDbLine
10
241.37635
20
-21.415332
30
0
11
242.648709
21
-21.415332
31
0
39
0
210
0
220
0
230
1
0
LINE
5
E5
100
AcDbEntity
8
1
62
256
6
ByLayer
370
18
48
1
60
0
100
AcDbLine
10
242.714432
20
-21.415332
30
0
11
243.901718
21
-21.415332
31
0
39
0
210
0
220
0
230
1
0
LINE
5
E6
100
AcDbEntity
8
1
62
256
6
ByLayer
370
18
48
1
60
0
100
AcDbLine
10
243.962394
20
-21.415332
30
0
11
245.045883
21
-21.415332
31
0
39
0
210
0
220
0
230
1
0
LINE
5
E7
100
AcDbEntity
8
1
62
256
6
ByLayer
370
18
48
1
60
0
100
AcDbLine
10
245.100555
20
-21.415332
30
0
11
246.063159
21
-21.415332
31
0
39
0
210
0
220
0
230
1
0
LINE
5
E8
100
AcDbEntity
8
1
62
256
6
ByLayer
370
18
48
1
60
0
100
AcDbLine
10
246.110966
20
-21.415332
30
0
11
246.937504
21
-21.415332
31
0
39
0
210
0
220
0
230
1
0
LINE
5
E9
100
AcDbEntity
8
1
62
256
6
ByLayer
370
18
48
1
60
0
100
AcDbLine
10
246.977691
20
-21.415332
30
0
11
247.655128
21
-21.415332
31
0
39
0
210
0
220
0
230
1
0
LINE
5
EA
100
AcDbEntity
8
1
62
256
6
ByLayer
370
18
48
1
60
0
100
AcDbLine
10
247.687061
20
-21.415332
30
0
11
248.204715
21
-21.415332
31
0
39
0
210
0
220
0
230
1
0
LINE
5
EB
100
AcDbEntity
8
1
62
256
6
ByLayer
370
18
48
1
60
0
100
AcDbLine
10
248.227891
20
-21.415332
30
0
11
248.577596
21
-21.415332
31
0
39
0
210
0
220
0
230
1
0
LINE
5
EC
100
AcDbEntity
8
1
62
256
6
ByLayer
370
18
48
1
60
0
100
AcDbLine
10
248.59165
20
-21.415332
30
0
11
248.767892
21
-21.415332
31
0
39
0
210
0
220
0
230
1
0
LINE
5
ED
100
AcDbEntity
8
1
62
256
6
ByLayer
370
18
48
1
60
0
100
AcDbLine
10
248.772601
20
-21.415332
30
0
11
248.793578
21
-21.415332
31
0
39
0
210
0
220
0
230
1
0
LINE
5
EE
100
AcDbEntity
8
1
62
256
6
ByLayer
370
18
48
1
60
0
100
AcDbLine
10
225.206421
20
-21.415332
30
0
11
225.227398
21
-21.415332
31
0
39
0
210
0
220
0
230
1
0
LINE
5
EF
100
AcDbEntity
8
1
62
256
6
ByLayer
370
18
48
1
60
0
100
AcDbLine
10
225.232107
20
-21.415332
30
0
11
225.408349
21
-21.415332
31
0
39
0
210
0
220
0
230
1
0
LINE
5
F0
100
AcDbEntity
8
1
62
256
6
ByLayer
370
18
48
1
60
0
100
AcDbLine
10
225.422403
20
-21.415332
30
0
11
225.772108
21
-21.415332
31
0
39
0
210
0
220
0
230
1
0
LINE
5
F1
100
AcDbEntity
8
1
62
256
6
ByLayer
370
18
48
1
60
0
100
AcDbLine
10
225.795285
20
-21.415332
30
0
11
226.312938
21
-21.415332
31
0
39
0
210
0
220
0
230
1
0
LINE
5
F2
100
AcDbEntity
8
1
62
256
6
ByLayer
370
18
48
1
60
0
100
AcDbLine
10
226.344871
20
-21.415332
30
0
11
227.022309
21
-21.415332
31
0
39
0
210
0
220
0
230
1
0
LINE
5
F3
100
AcDbEntity
8
1
62
256
6
ByLayer
370
18
48
1
60
0
100
AcDbLine
10
227.062496
20
-21.415332
30
0
11
227.889034
21
-21.415332
31
0
39
0
210
0
220
0
230
1
0
LINE
5
F4
100
AcDbEntity
8
1
62
256
6
ByLayer
370
18
48
1
60
0
100
AcDbLine
10
227.93684
20
-21.415332
30
0
11
228.899444
21
-21.415332
31
0
39
0
210
0
220
0
230
1
0
LINE
5
F5
100
AcDbEntity
8
1
62
256
6
ByLayer
370
18
48
1
60
0
100
AcDbLine
10
228.954117
20
-21.415332
30
0
11
230.037605
21
-21.415332
31
0
39
0
210
0
220
0
230
1
0
LINE
5
F6
100
AcDbEntity
8
1
62
256
6
ByLayer
370
18
48
1
60
0
100
AcDbLine
10
230.098281
20
-21.415332
30
0
11
231.285567
21
-21.415332
31
0
39
0
210
0
220
0
230
1
0
LINE
5
F7
100
AcDbEntity
8
1
62
256
6
ByLayer
370
18
48
1
60
0
100
AcDbLine
10
231.35129
20
-21.415332
30
0
11
232.623649
21
-21.415332
31
0
39
0
210
0
220
0
230
1
0
LINE
5
F8
100
AcDbEntity
8
1
62
256
6
ByLayer
370
18
48
1
60
0
100
AcDbLine
10
232.693382
20
-21.415332
30
0
11
234.030749
21
-21.415332
31
0
39
0
210
0
220
0
230
1
0
LINE
5
F9
100
AcDbEntity
8
1
62
256
6
ByLayer
370
18
48
1
60
0
100
AcDbLine
10
234.103393
20
-21.415332
30
0
11
235.484675
21
-21.415332
31
0
39
0
210
0
220
0
230
1
0
LINE
5
FA
100
AcDbEntity
8
1
62
256
6
ByLayer
370
18
48
1
60
0
100
AcDbLine
10
235.559084
20
-21.415332
30
0
11
236.9625
21
-21.415332
31
0
39
0
210
0
220
0
230
1
0
LINE
5
FB
100
AcDbEntity
8
1
62
256
6
ByLayer
370
18
48
1
60
0
100
AcDbLine
10
237.0375
20
-21.415332
30
0
11
238.440915
21
-21.415332
31
0
39
0
210
0
220
0
230
1
0
LINE
5
FC
100
AcDbEntity
8
1
62
256
6
ByLayer
370
18
48
1
60
0
100
AcDbLine
10
248.793578
20
-21.415332
30
0
11
248.808911
21
-21.399999
31
0
39
0
210
0
220
0
230
1
0
LINE
5
FD
100
AcDbEntity
8
1
62
256
6
ByLayer
370
18
48
1
60
0
100
AcDbLine
10
225.191088
20
-21.399999
30
0
11
225.206421
21
-21.415332
31
0
39
0
210
0
220
0
230
1
0
LINE
5
FE
100
AcDbEntity
8
1
62
256
6
ByLayer
370
18
48
1
60
0
100
AcDbLine
10
258.969706
20
16.62715
30
0
11
258.988717
21
17.171557
31
0
39
0
210
0
220
0
230
1
0
LINE
5
FF
100
AcDbEntity
8
1
62
256
6
ByLayer
370
18
48
1
60
0
100
AcDbLine
10
257.206437
20
26.593076
30
0
11
257.194532
21
26.252147
31
0
39
0
210
0
220
0
230
1
0
LINE
5
100
100
AcDbEntity
8
1
62
256
6
ByLayer
370
18
48
1
60
0
100
AcDbLine
10
251.192404
20
24.002292
30
0
11
251.08642
21
23.832683
31
0
39
0
210
0
220
0
230
1
0
LINE
5
101
100
AcDbEntity
8
1
62
256
6
ByLayer
370
18
48
1
60
0
100
AcDbLine
10
253.280894
20
24.171232
30
0
11
252.914863
21
24.399953
31
0
39
0
210
0
220
0
230
1
0
LINE
5
102
100
AcDbEntity
8
1
62
256
6
ByLayer
370
18
48
1
60
0
100
AcDbLine
10
256.193757
20
26.247399
30
0
11
255.153436
21
25.700061
31
0
39
0
210
0
220
0
230
1
0
LINE
5
103
100
AcDbEntity
8
1
62
256
6
ByLayer
370
18
48
1
60
0
100
AcDbLine
10
256.203836
20
26.536039
30
0
11
256.193757
21
26.247399
31
0
39
0
210
0
220
0
230
1
0
LINE
5
104
100
AcDbEntity
8
1
62
256
6
ByLayer
370
18
48
1
60
0
100
AcDbLine
10
251.423183
20
24.374466
30
0
11
251.536914
21
24.457096
31
0
39
0
210
0
220
0
230
1
0
LINE
5
105
100
AcDbEntity
8
1
62
256
6
ByLayer
370
18
48
1
60
0
100
AcDbLine
10
255.153436
20
25.700061
30
0
11
252.910718
21
24.520109
31
0
39
0
210
0
220
0
230
1
0
LINE
5
106
100
AcDbEntity
8
1
62
256
6
ByLayer
370
18
48
1
60
0
100
AcDbLine
10
255.153436
20
25.700061
30
0
11
255.178993
21
26.431906
31
0
39
0
210
0
220
0
230
1
0
LINE
5
107
100
AcDbEntity
8
1
62
256
6
ByLayer
370
18
48
1
60
0
100
AcDbLine
10
255.25
20
14.630715
30
0
11
251.423183
21
17.021975
31
0
39
0
210
0
220
0
230
1
0
LINE
5
108
100
AcDbEntity
8
1
62
256
6
ByLayer
370
18
48
1
60
0
100
AcDbLine
10
258.969706
20
16.62715
30
0
11
251.423183
21
21.34274
31
0
39
0
210
0
220
0
230
1
0
LINE
5
109
100
AcDbEntity
8
1
62
256
6
ByLayer
370
18
48
1
60
0
100
AcDbLine
10
258.888871
20
14.312355
30
0
11
255.25
21
14.630715
31
0
39
0
210
0
220
0
230
1
0
LINE
5
10A
100
AcDbEntity
8
1
62
256
6
ByLayer
370
18
48
1
60
0
100
AcDbLine
10
258.888871
20
14.312355
30
0
11
258.969706
21
16.62715
31
0
39
0
210
0
220
0
230
1
0
LINE
5
10B
100
AcDbEntity
8
1
62
256
6
ByLayer
370
18
48
1
60
0
100
AcDbLine
10
250.460603
20
17.480119
30
0
11
247.952233
21
17.480119
31
0
39
0
210
0
220
0
230
1
0
LINE
5
10C
100
AcDbEntity
8
1
62
256
6
ByLayer
370
18
48
1
60
0
100
AcDbLine
10
251.423183
20
26.200851
30
0
11
251.423183
21
24.374466
31
0
39
0
210
0
220
0
230
1
0
LINE
5
10D
100
AcDbEntity
8
1
62
256
6
ByLayer
370
18
48
1
60
0
100
AcDbLine
10
251.423183
20
17.021975
30
0
11
250.884539
21
17.358558
31
0
39
0
210
0
220
0
230
1
0
LINE
5
10E
100
AcDbEntity
8
1
62
256
6
ByLayer
370
18
48
1
60
0
100
AcDbLine
10
251.423183
20
21.34274
30
0
11
251.423183
21
17.021975
31
0
39
0
210
0
220
0
230
1
0
LINE
5
10F
100
AcDbEntity
8
1
62
256
6
ByLayer
370
18
48
1
60
0
100
AcDbLine
10
251.423183
20
21.34274
30
0
11
251.393035
21
21.361579
31
0
39
0
210
0
220
0
230
1
0
LINE
5
110
100
AcDbEntity
8
1
62
256
6
ByLayer
370
18
48
1
60
0
100
AcDbLine
10
250.327229
20
23.578209
30
0
11
251.423183
21
24.374466
31
0
39
0
210
0
220
0
230
1
0
LINE
5
111
100
AcDbEntity
8
1
62
256
6
ByLayer
370
18
48
1
60
0
100
AcDbLine
10
238.06
20
22.740591
30
0
11
238.06
21
22.68803
31
0
39
0
210
0
220
0
230
1
0
LINE
5
112
100
AcDbEntity
8
1
62
256
6
ByLayer
370
18
48
1
60
0
100
AcDbLine
10
247.423451
20
25.547004
30
0
11
247.423451
21
17.652297
31
0
39
0
210
0
220
0
230
1
0
LINE
5
113
100
AcDbEntity
8
1
62
256
6
ByLayer
370
18
48
1
60
0
100
AcDbLine
10
238.06
20
22.740591
30
0
11
238.06
21
22.7992
31
0
39
0
210
0
220
0
230
1
0
LINE
5
114
100
AcDbEntity
8
1
62
256
6
ByLayer
370
18
48
1
60
0
100
AcDbLine
10
256.203993
20
26.54054
30
0
11
256.203836
21
26.536039
31
0
39
0
210
0
220
0
230
1
0
LINE
5
115
100
AcDbEntity
8
1
62
256
6
ByLayer
370
18
48
1
60
0
100
AcDbLine
10
257.206437
20
26.593076
30
0
11
256.203993
21
26.54054
31
0
39
0
210
0
220
0
230
1
0
LINE
5
116
100
AcDbEntity
8
1
62
256
6
ByLayer
370
18
48
1
60
0
100
AcDbLine
10
257.206437
20
26.593076
30
0
11
257.208635
21
26.656014
31
0
39
0
210
0
220
0
230
1
0
LINE
5
117
100
AcDbEntity
8
1
62
256
6
ByLayer
370
18
48
1
60
0
100
AcDbLine
10
257.977413
20
26.668402
30
0
11
257.207659
21
26.628061
31
0
39
0
210
0
220
0
230
1
0
LINE
5
118
100
AcDbEntity
8
1
62
256
6
ByLayer
370
18
48
1
60
0
100
AcDbLine
10
257.208635
20
26.656014
30
0
11
246.066246
21
26.072066
31
0
39
0
210
0
220
0
230
1
0
LINE
5
119
100
AcDbEntity
8
1
62
256
6
ByLayer
370
18
48
1
60
0
100
AcDbLine
10
228.824274
20
25.154394
30
0
11
225.569897
21
21.900017
31
0
39
0
210
0
220
0
230
1
0
LINE
5
11A
100
AcDbEntity
8
1
62
256
6
ByLayer
370
18
48
1
60
0
100
AcDbLine
10
209.710359
20
25
30
0
11
214.28964
21
25
31
0
39
0
210
0
220
0
230
1
0
LINE
5
11B
100
AcDbEntity
8
1
62
256
6
ByLayer
370
18
48
1
60
0
100
AcDbLine
10
224.983435
20
21.900015
30
0
11
224.688815
21
21.840175
31
0
39
0
210
0
220
0
230
1
0
MTEXT
5
201
100
AcDbEntity
8
SK6
62
256
6
ByLayer
370
18
48
1
60
0
100
AcDbMText
10
270.159
20
44.385114
30
0
210
0
220
0
230
1
1
\W0.7366;825D-87TC11U-C5S
40
3
41
0
44
1.084337
50
0
71
7
72
5
7
iso_b_vert
0
DIMENSION
5
206
100
AcDbEntity
8
2
62
256
6
ByLayer
370
18
48
1
60
0
100
AcDbDimension
2
_U0
10
237
20
-46.5
30
0
11
118.5
21
-46.5
31
0
70
32
71
1
72
1
41
1
210
0
220
0
230
1
3
Standard
100
AcDbAlignedDimension
13
0
23
-24.7
33
0
14
237
24
-25.808402
34
0
50
0
100
AcDbRotatedDimension
1001
ACAD
1000
DSTYLE
1002
{
1070
   371
1070
    18
1070
   372
1070
    18
1070
   170
1070
     0
1070
   144
1040
1.0
1070
   277
1070
     2
1070
   278
1070
    46
1070
   146
1040
1.166667
1070
   345
1005
16
1070
   347
1005
16
1070
   346
1005
16
1070
   344
1005
0
1070
   343
1005
0
1070
   172
1070
     1
1070
    76
1070
     0
1070
    75
1070
     0
1070
   282
1070
     0
1070
   281
1070
     0
1070
    71
1070
     0
1070
   272
1070
     4
1070
    74
1070
     0
1070
   279
1070
     0
1070
   173
1070
     1
1070
   340
1005
202
1070
   271
1070
     1
1070
    77
1070
     1
1070
    73
1070
     1
1070
   171
1070
     4
1070
   274
1070
     4
1070
   177
1070
     7
1070
   176
1070
     7
1070
   178
1070
     7
1070
    41
1040
3.175
1070
   147
1040
1.5
1070
    42
1040
2.0
1070
    44
1040
2.0
1070
   140
1040
3.0
1002
}
1001
ACAD_DSTYLE_DIM_LINETYPE
1070
   380
1005
16
1001
ACAD_DSTYLE_DIM_EXT1_LINETYPE
1070
   381
1005
16
1001
ACAD_DSTYLE_DIM_EXT2_LINETYPE
1070
   382
1005
16
0
DIMENSION
5
220
100
AcDbEntity
8
2
62
256
6
ByLayer
370
18
48
1
60
0
100
AcDbDimension
2
_U1
10
256
20
-61.5
30
0
11
128
21
-61.5
31
0
70
32
71
1
72
1
41
1
210
0
220
0
230
1
3
Standard
100
AcDbAlignedDimension
13
0
23
-24.7
33
0
14
256
24
-18.4
34
0
50
0
100
AcDbRotatedDimension
1001
ACAD
1000
DSTYLE
1002
{
1070
   371
1070
    18
1070
   372
1070
    18
1070
   170
1070
     0
1070
   144
1040
1.0
1070
   277
1070
     2
1070
   278
1070
    46
1070
   146
1040
1.166667
1070
   345
1005
16
1070
   347
1005
16
1070
   346
1005
16
1070
   344
1005
0
1070
   343
1005
0
1070
   172
1070
     1
1070
    76
1070
     0
1070
    75
1070
     0
1070
   282
1070
     0
1070
   281
1070
     0
1070
    71
1070
     0
1070
   272
1070
     4
1070
    74
1070
     0
1070
   279
1070
     0
1070
   173
1070
     1
1070
   340
1005
202
1070
   271
1070
     1
1070
    77
1070
     1
1070
    73
1070
     1
1070
   171
1070
     4
1070
   274
1070
     4
1070
   177
1070
     7
1070
   176
1070
     7
1070
   178
1070
     7
1070
    41
1040
3.175
1070
   147
1040
1.5
1070
    42
1040
2.0
1070
    44
1040
2.0
1070
   140
1040
3.0
1002
}
1001
ACAD_DSTYLE_DIM_LINETYPE
1070
   380
1005
16
1001
ACAD_DSTYLE_DIM_EXT1_LINETYPE
1070
   381
1005
16
1001
ACAD_DSTYLE_DIM_EXT2_LINETYPE
1070
   382
1005
16
0
DIMENSION
5
238
100
AcDbEntity
8
SK2
62
256
6
ByLayer
370
18
48
1
60
0
100
AcDbDimension
2
_U2
10
256
20
-76.5
30
0
11
113
21
-76.5
31
0
70
32
71
1
72
1
41
1
210
0
220
0
230
1
3
Standard
100
AcDbAlignedDimension
13
-30
23
-15.993345
33
0
14
256
24
-18.4
34
0
50
0
100
AcDbRotatedDimension
1001
ACAD
1000
DSTYLE
1002
{
1070
   371
1070
    18
1070
   372
1070
    18
1070
   170
1070
     0
1070
   144
1040
1.0
1070
   277
1070
     2
1070
   278
1070
    46
1070
   146
1040
1.166667
1070
   345
1005
16
1070
   347
1005
16
1070
   346
1005
16
1070
   344
1005
0
1070
   343
1005
0
1070
   172
1070
     1
1070
    76
1070
     0
1070
    75
1070
     0
1070
   282
1070
     0
1070
   281
1070
     0
1070
    71
1070
     0
1070
   272
1070
     4
1070
    74
1070
     0
1070
   279
1070
     0
1070
   173
1070
     1
1070
   340
1005
202
1070
   271
1070
     1
1070
    77
1070
     1
1070
    73
1070
     1
1070
   171
1070
     4
1070
   274
1070
     4
1070
   177
1070
     7
1070
   176
1070
     7
1070
   178
1070
     7
1070
    41
1040
3.175
1070
   147
1040
1.5
1070
    42
1040
2.0
1070
    44
1040
2.0
1070
   140
1040
3.0
1002
}
1001
ACAD_DSTYLE_DIM_LINETYPE
1070
   380
1005
16
1001
ACAD_DSTYLE_DIM_EXT1_LINETYPE
1070
   381
1005
16
1001
ACAD_DSTYLE_DIM_EXT2_LINETYPE
1070
   382
1005
16
0
DIMENSION
5
251
100
AcDbEntity
8
SK2
62
256
6
ByLayer
370
18
48
1
60
0
100
AcDbDimension
2
_U3
10
-39.657786
20
-25
30
0
11
-39.657786
21
0
31
0
70
32
71
1
72
1
41
1
210
0
220
0
230
1
3
Standard
100
AcDbAlignedDimension
13
0.3
23
25
33
0
14
0.3
24
-25
34
0
50
-90
100
AcDbRotatedDimension
1001
ACAD
1000
DSTYLE
1002
{
1070
   371
1070
    18
1070
   372
1070
    18
1070
     3
1000

1070
   170
1070
     0
1070
   144
1040
1.0
1070
   277
1070
     2
1070
   284
1070
     8
1070
   278
1070
    46
1070
   146
1040
1.166667
1070
   345
1005
16
1070
   347
1005
16
1070
   346
1005
16
1070
   344
1005
0
1070
   343
1005
0
1070
   172
1070
     1
1070
    76
1070
     0
1070
    75
1070
     0
1070
   282
1070
     0
1070
   281
1070
     0
1070
    71
1070
     0
1070
   272
1070
     4
1070
    74
1070
     0
1070
   279
1070
     0
1070
   173
1070
     1
1070
   340
1005
202
1070
   271
1070
     0
1070
    77
1070
     1
1070
    73
1070
     0
1070
   171
1070
     4
1070
   274
1070
     4
1070
   177
1070
     7
1070
   176
1070
     7
1070
   178
1070
     7
1070
    78
1070
     8
1070
    41
1040
3.175
1070
   147
1040
1.5
1070
    42
1040
2.0
1070
    44
1040
2.0
1070
   140
1040
3.0
1002
}
1001
ACAD_DSTYLE_DIM_LINETYPE
1070
   380
1005
16
1001
ACAD_DSTYLE_DIM_EXT1_LINETYPE
1070
   381
1005
16
1001
ACAD_DSTYLE_DIM_EXT2_LINETYPE
1070
   382
1005
16
0
DIMENSION
5
269
100
AcDbEntity
8
2
62
256
6
ByLayer
370
18
48
1
60
0
100
AcDbDimension
2
_U4
10
0
20
73.5
30
0
11
130
21
73.5
31
0
70
32
71
1
72
1
41
1
210
0
220
0
230
1
3
Standard
100
AcDbAlignedDimension
13
260
23
27.480119
33
0
14
0
24
24.7
34
0
50
0
100
AcDbRotatedDimension
1001
ACAD
1000
DSTYLE
1002
{
1070
   371
1070
    18
1070
   372
1070
    18
1070
   170
1070
     0
1070
   144
1040
1.0
1070
   277
1070
     2
1070
   278
1070
    46
1070
   146
1040
1.166667
1070
   345
1005
16
1070
   347
1005
16
1070
   346
1005
16
1070
   344
1005
0
1070
   343
1005
0
1070
   172
1070
     1
1070
    76
1070
     0
1070
    75
1070
     0
1070
   282
1070
     0
1070
   281
1070
     0
1070
    71
1070
     0
1070
   272
1070
     4
1070
    74
1070
     0
1070
   279
1070
     0
1070
   173
1070
     1
1070
   340
1005
202
1070
   271
1070
     1
1070
    77
1070
     1
1070
    73
1070
     1
1070
   171
1070
     4
1070
   274
1070
     4
1070
   177
1070
     7
1070
   176
1070
     7
1070
   178
1070
     7
1070
    41
1040
3.175
1070
   147
1040
1.5
1070
    42
1040
2.0
1070
    44
1040
2.0
1070
   140
1040
3.0
1002
}
1001
ACAD_DSTYLE_DIM_LINETYPE
1070
   380
1005
16
1001
ACAD_DSTYLE_DIM_EXT1_LINETYPE
1070
   381
1005
16
1001
ACAD_DSTYLE_DIM_EXT2_LINETYPE
1070
   382
1005
16
0
DIMENSION
5
281
100
AcDbEntity
8
2
62
256
6
ByLayer
370
18
48
1
60
0
100
AcDbDimension
2
_U5
10
261
20
27.480119
30
0
11
271.11716
21
15.98257
31
0
70
34
71
1
72
1
41
1
210
0
220
0
230
1
3
Standard
100
AcDb2LineAngularDimension
13
259.663903
23
17.451636
33
0
14
259.999765
24
27.069481
34
0
15
260
25
27.480119
35
0
16
267.681588
26
13.455812
36
0
40
0
0
DIMENSION
5
29C
100
AcDbEntity
8
2
62
256
6
ByLayer
370
18
48
1
60
0
100
AcDbDimension
2
_U6
10
288.5
20
27.480119
30
0
11
288.5
21
-13.008333
31
0
70
32
71
1
72
1
41
1
210
0
220
0
230
1
3
Standard
100
AcDbAlignedDimension
13
248.285824
23
0
33
0
14
260
24
27.480119
34
0
50
-90
100
AcDbRotatedDimension
1001
ACAD
1000
DSTYLE
1002
{
1070
   371
1070
    18
1070
   372
1070
    18
1070
     3
1000

1070
   170
1070
     0
1070
   144
1040
1.0
1070
   277
1070
     2
1070
   284
1070
     8
1070
   278
1070
    46
1070
   146
1040
1.0
1070
   345
1005
16
1070
   347
1005
16
1070
   346
1005
16
1070
   344
1005
0
1070
   343
1005
0
1070
   172
1070
     1
1070
    75
1070
     1
1070
   282
1070
     0
1070
    71
1070
     0
1070
   272
1070
     4
1070
    74
1070
     0
1070
   279
1070
     0
1070
   173
1070
     1
1070
   340
1005
202
1070
   271
1070
     0
1070
    77
1070
     1
1070
    73
1070
     0
1070
   171
1070
     4
1070
   274
1070
     4
1070
   281
1070
     1
1070
   177
1070
     7
1070
   176
1070
     7
1070
   178
1070
     7
1070
    78
1070
     8
1070
    41
1040
3.175
1070
   147
1040
1.75
1070
    42
1040
2.0
1070
    44
1040
2.0
1070
   140
1040
3.5
1002
}
1001
ACAD_DSTYLE_DIM_LINETYPE
1070
   380
1005
16
1001
ACAD_DSTYLE_DIM_EXT1_LINETYPE
1070
   381
1005
16
1001
ACAD_DSTYLE_DIM_EXT2_LINETYPE
1070
   382
1005
16
0
ENDSEC
0
SECTION
2
OBJECTS
0
DICTIONARY
5
321
330
0
100
AcDbDictionary
280
0
281
1
3
ACAD_GROUP
350
322
3
ACAD_MLINESTYLE
350
323
0
DICTIONARY
5
322
330
0
100
AcDbDictionary
280
0
281
1
0
DICTIONARY
5
323
330
0
100
AcDbDictionary
280
0
281
1
3
Standard
350
18
0
MLINESTYLE
5
18
330
323
100
AcDbMlineStyle
2
Standard
70
0
3

62
256
51
90
52
90
71
2
49
-0.5
62
256
6
ByLayer
49
0.5
62
256
6
ByLayer
0
RASTERVARIABLES
5
30f
330

100
AcDbRasterVariables
90
0
70
1
71
1
72
1
0
ENDSEC
0
EOF
