0
SECTION
2
HEADER
9
$ACADVER
1
AC1015
9
$DWGCODEPAGE
3
ANSI_1252
9
$HANDSEED
5
34f
9
$ANGBASE
50
0
9
$ANGDIR
70
0
9
$ATTMODE
70
1
9
$AUNITS
70
0
9
$AUPREC
70
0
9
$CECOLOR
62
256
9
$CELTSCALE
40
1
9
$CELTYPE
6
ByLayer
9
$CELWEIGHT
370
18
9
$CLAYER
8
0
9
$CMLJUST
70
0
9
$CMLSCALE
40
1
9
$CMLSTYLE
2
Standard
9
$DIMSTYLE
2
Standard
9
$TEXTSIZE
40
0.2
9
$TEXTSTYLE
7
Standard
9
$LUNITS
70
2
9
$LUPREC
70
4
9
$EXTNAMES
290
1
9
$INSUNITS
70
4
9
$LTSCALE
40
1
9
$LWDISPLAY
290
1
9
$PDMODE
70
0
9
$PDSIZE
40
0
9
$PLINEGEN
70
0
0
ENDSEC
0
SECTION
2
CLASSES
0
CLASS
1
RASTERVARIABLES
2
AcDbRasterVariables
3
ISM
90
0
280
0
281
0
0
ENDSEC
0
SECTION
2
TABLES
0
TABLE
2
VPORT
5
345
100
AcDbSymbolTable
0
VPORT
5
1
100
AcDbSymbolTableRecord
100
AcDbViewportTableRecord
2
*Active
70
0
10
0
20
0
11
1
21
1
12
-1
22
1
13
0
23
0
14
0.5
24
0.5
15
10
25
10
16
0
26
0
36
1
17
0
27
0
37
0
0
ENDTAB
0
TABLE
2
LTYPE
5
346
100
AcDbSymbolTable
0
LTYPE
5
14
100
AcDbSymbolTableRecord
100
AcDbLinetypeTableRecord
70
0
2
ByBlock
3

72
65
73
0
40
0
0
LTYPE
5
15
100
AcDbSymbolTableRecord
100
AcDbLinetypeTableRecord
70
0
2
ByLayer
3

72
65
73
0
40
0
0
LTYPE
5
16
100
AcDbSymbolTableRecord
100
AcDbLinetypeTableRecord
70
0
2
Continuous
3
Solid line
72
65
73
0
40
0
0
LTYPE
5
6E
100
AcDbSymbolTableRecord
100
AcDbLinetypeTableRecord
70
0
2
CENTER
3
____ _ ____ _ ____ _ ____
72
65
73
4
40
47.5
49
22
74
0
49
-8.5
74
0
49
8.5
74
0
49
-8.5
74
0
0
LTYPE
5
6F
100
AcDbSymbolTableRecord
100
AcDbLinetypeTableRecord
70
0
2
DASHED
3
__ __ __ __ __ __ __ __ __
72
65
73
2
40
25.72
49
12.86
74
0
49
-12.86
74
0
0
ENDTAB
0
TABLE
2
LAYER
5
347
100
AcDbSymbolTable
0
LAYER
5
10
100
AcDbSymbolTableRecord
100
AcDbLayerTableRecord
2
0
70
0
62
7
6
Continuous
290
1
370
-3
390
0
0
LAYER
5
71
100
AcDbSymbolTableRecord
100
AcDbLayerTableRecord
2
80
70
0
62
-6
6
Continuous
290
1
370
-3
390
0
0
LAYER
5
73
100
AcDbSymbolTableRecord
100
AcDbLayerTableRecord
2
81
70
0
62
-3
6
Continuous
290
1
370
-3
390
0
0
LAYER
5
75
100
AcDbSymbolTableRecord
100
AcDbLayerTableRecord
2
1
70
0
62
4
6
Continuous
290
1
370
-3
390
0
0
LAYER
5
7A
100
AcDbSymbolTableRecord
100
AcDbLayerTableRecord
2
4
70
0
62
-2
6
CENTER
290
1
370
-3
390
0
0
LAYER
5
26E
100
AcDbSymbolTableRecord
100
AcDbLayerTableRecord
2
Defpoints
70
0
62
7
6
Continuous
290
0
370
-3
390
0
0
LAYER
5
27B
100
AcDbSymbolTableRecord
100
AcDbLayerTableRecord
2
2
70
0
62
7
6
Continuous
290
1
370
-3
390
0
0
LAYER
5
331
100
AcDbSymbolTableRecord
100
AcDbLayerTableRecord
2
SK4
70
0
62
2
6
CENTER
290
1
370
-3
390
0
0
LAYER
5
332
100
AcDbSymbolTableRecord
100
AcDbLayerTableRecord
2
SK1
70
0
62
4
6
Continuous
290
1
370
-3
390
0
0
LAYER
5
333
100
AcDbSymbolTableRecord
100
AcDbLayerTableRecord
2
SK6
70
0
62
5
6
Continuous
290
1
370
-3
390
0
0
LAYER
5
334
100
AcDbSymbolTableRecord
100
AcDbLayerTableRecord
2
SK2
70
0
62
7
6
Continuous
290
1
370
-3
390
0
0
ENDTAB
0
TABLE
2
STYLE
5
348
100
AcDbSymbolTable
0
STYLE
5
11
100
AcDbSymbolTableRecord
100
AcDbTextStyleTableRecord
2
Standard
3
txt
70
0
71
0
40
0
41
1
42
0
50
0
0
STYLE
5
267
100
AcDbSymbolTableRecord
100
AcDbTextStyleTableRecord
2
iso_b_vert
3
simplex.shx
70
0
71
0
40
0
41
1
42
0
50
0
0
STYLE
5
268
100
AcDbSymbolTableRecord
100
AcDbTextStyleTableRecord
2
DWGDirectTextStyle
3
simplex
70
0
71
0
40
0
41
1
42
0
50
0
0
ENDTAB
0
TABLE
2
DIMSTYLE
5
349
100
AcDbSymbolTable
100
AcDbDimStyleTable
0
DIMSTYLE
105
27
100
AcDbSymbolTableRecord
100
AcDbDimStyleTableRecord
2
Standard
70
0
3
<>
41
0.18
42
0.0625
44
0.18
140
0.18
147
0.09
73
0
74
0
77
1
271
2
275
0
278
52
280
0
340
11
0
ENDTAB
0
TABLE
2
VIEW
5
34a
100
AcDbSymbolTable
0
ENDTAB
0
TABLE
2
UCS
5
34b
100
AcDbSymbolTable
0
ENDTAB
0
TABLE
2
APPID
5
34c
100
AcDbSymbolTable
0
APPID
5
12
100
AcDbSymbolTableRecord
100
AcDbRegAppTableRecord
2
ACAD
70
0
0
APPID
5
26A
100
AcDbSymbolTableRecord
100
AcDbRegAppTableRecord
2
ACAD_DSTYLE_DIMBREAK
70
0
0
APPID
5
2B8
100
AcDbSymbolTableRecord
100
AcDbRegAppTableRecord
2
ACAD_DSTYLE_DIMANGULAR_EXTENSION
70
0
0
APPID
5
2F0
100
AcDbSymbolTableRecord
100
AcDbRegAppTableRecord
2
ACAD_DSTYLE_DIM_LINETYPE
70
0
0
APPID
5
2F1
100
AcDbSymbolTableRecord
100
AcDbRegAppTableRecord
2
ACAD_DSTYLE_DIM_EXT1_LINETYPE
70
0
0
APPID
5
2F2
100
AcDbSymbolTableRecord
100
AcDbRegAppTableRecord
2
ACAD_DSTYLE_DIM_EXT2_LINETYPE
70
0
0
APPID
5
32D
100
AcDbSymbolTableRecord
100
AcDbRegAppTableRecord
2
ACAD_MLEADERVER
70
0
0
ENDTAB
0
TABLE
2
BLOCK_RECORD
5
34d
100
AcDbSymbolTable
0
BLOCK_RECORD
5
1F
100
AcDbSymbolTableRecord
100
AcDbBlockTableRecord
2
*Model_Space
340
0
70
0
0
BLOCK_RECORD
5
1B
100
AcDbSymbolTableRecord
100
AcDbBlockTableRecord
2
*Paper_Space
340
0
70
0
0
BLOCK_RECORD
5
23
100
AcDbSymbolTableRecord
100
AcDbBlockTableRecord
2
*Paper_Space0
340
0
70
0
0
BLOCK_RECORD
5
26F
100
AcDbSymbolTableRecord
100
AcDbBlockTableRecord
2
*D1
340
0
70
0
0
BLOCK_RECORD
5
27C
100
AcDbSymbolTableRecord
100
AcDbBlockTableRecord
2
_U0
340
0
70
0
0
BLOCK_RECORD
5
288
100
AcDbSymbolTableRecord
100
AcDbBlockTableRecord
2
*D3
340
0
70
0
0
BLOCK_RECORD
5
294
100
AcDbSymbolTableRecord
100
AcDbBlockTableRecord
2
_U1
340
0
70
0
0
BLOCK_RECORD
5
2A0
100
AcDbSymbolTableRecord
100
AcDbBlockTableRecord
2
*D5
340
0
70
0
0
BLOCK_RECORD
5
2AD
100
AcDbSymbolTableRecord
100
AcDbBlockTableRecord
2
_U2
340
0
70
0
0
BLOCK_RECORD
5
2BB
100
AcDbSymbolTableRecord
100
AcDbBlockTableRecord
2
*D7
340
0
70
0
0
BLOCK_RECORD
5
2C9
100
AcDbSymbolTableRecord
100
AcDbBlockTableRecord
2
_U3
340
0
70
0
0
ENDTAB
0
ENDSEC
0
SECTION
2
BLOCKS
0
BLOCK
5
20
100
AcDbEntity
8
0
100
AcDbBlockBegin
2
*Model_Space
70
0
10
0
20
0
30
0
3
*Model_Space
0
ENDBLK
5
21
100
AcDbEntity
8
0
100
AcDbBlockEnd
0
BLOCK
5
1C
100
AcDbEntity
8
0
100
AcDbBlockBegin
2
*Paper_Space
70
0
10
0
20
0
30
0
3
*Paper_Space
0
ENDBLK
5
1D
100
AcDbEntity
8
0
100
AcDbBlockEnd
0
BLOCK
5
24
100
AcDbEntity
8
0
100
AcDbBlockBegin
2
*Paper_Space0
70
0
10
0
20
0
30
0
3
*Paper_Space0
0
ENDBLK
5
25
100
AcDbEntity
8
0
100
AcDbBlockEnd
0
BLOCK
5
270
100
AcDbEntity
8
0
100
AcDbBlockBegin
2
*D1
70
1
10
0
20
0
30
0
3
*D1
0
LINE
5
272
100
AcDbEntity
8
0
62
256
6
ByLayer
370
-2
48
1
60
0
100
AcDbLine
10
400.004125
20
53.236913
30
0
11
400.004125
21
68.242852
31
0
39
0
210
0
220
0
230
1
0
LINE
5
273
100
AcDbEntity
8
0
62
256
6
ByLayer
370
-2
48
1
60
0
100
AcDbLine
10
0
20
33.2
30
0
11
0
21
68.242852
31
0
39
0
210
0
220
0
230
1
0
LINE
5
274
100
AcDbEntity
8
0
62
256
6
ByLayer
370
-2
48
1
60
0
100
AcDbLine
10
396.829125
20
66.242852
30
0
11
3.175
21
66.242852
31
0
39
0
210
0
220
0
230
1
0
SOLID
5
275
100
AcDbEntity
8
0
62
256
6
ByLayer
370
-1
48
1
60
0
100
AcDbTrace
10
396.829125
20
65.713685
30
0
11
396.829125
21
66.772019
31
0
12
400.004125
22
66.242852
32
0
13
400.004125
23
66.242852
33
0
39
0
210
0
220
0
230
1
0
SOLID
5
276
100
AcDbEntity
8
0
62
256
6
ByLayer
370
-1
48
1
60
0
100
AcDbTrace
10
3.175
20
66.772019
30
0
11
3.175
21
65.713685
31
0
12
0
22
66.242852
32
0
13
0
23
66.242852
33
0
39
0
210
0
220
0
230
1
0
MTEXT
5
277
100
AcDbEntity
8
0
62
256
6
ByLayer
370
18
48
1
60
0
100
AcDbMText
10
200.002062
20
73.742852
30
0
210
0
220
0
230
1
1
\A1;400.0
40
3
41
0
44
1
50
0
71
5
72
5
7
iso_b_vert
0
POINT
5
278
100
AcDbEntity
8
Defpoints
62
0
6
ByLayer
370
-1
48
1
60
0
100
AcDbPoint
10
400.004125
20
51.236913
30
0
39
0
210
0
220
0
230
1
50
360
0
POINT
5
279
100
AcDbEntity
8
Defpoints
62
0
6
ByLayer
370
-1
48
1
60
0
100
AcDbPoint
10
0
20
31.2
30
0
39
0
210
0
220
0
230
1
50
360
0
POINT
5
27A
100
AcDbEntity
8
Defpoints
62
0
6
ByLayer
370
-1
48
1
60
0
100
AcDbPoint
10
0
20
66.242852
30
0
39
0
210
0
220
0
230
1
50
360
0
ENDBLK
5
271
100
AcDbEntity
8
0
100
AcDbBlockEnd
0
BLOCK
5
283
100
AcDbEntity
8
0
100
AcDbBlockBegin
2
_U0
70
0
10
0
20
0
30
0
3
_U0
0
MTEXT
5
27D
100
AcDbEntity
8
2
62
256
6
ByLayer
370
18
48
1
60
0
100
AcDbMText
10
195.362894
20
67.127966
30
0
210
0
220
0
230
1
1
\W0.7564;400.0
40
3
41
0
44
1.084337
50
0
71
7
72
5
7
iso_b_vert
0
LINE
5
27E
100
AcDbEntity
8
2
62
256
6
ByLayer
370
13
48
1
60
0
100
AcDbLine
10
400.004125
20
53.236913
30
0
11
400.004125
21
68.242852
31
0
39
0
210
0
220
0
230
1
0
LINE
5
27F
100
AcDbEntity
8
2
62
256
6
ByLayer
370
13
48
1
60
0
100
AcDbLine
10
0
20
33.2
30
0
11
0
21
68.242852
31
0
39
0
210
0
220
0
230
1
0
LINE
5
280
100
AcDbEntity
8
2
62
256
6
ByLayer
370
13
48
1
60
0
100
AcDbLine
10
400.004125
20
66.242852
30
0
11
0
21
66.242852
31
0
39
0
210
0
220
0
230
1
0
SOLID
5
281
100
AcDbEntity
8
2
62
256
6
ByLayer
370
18
48
1
60
0
100
AcDbTrace
10
400.004125
20
66.242852
30
0
11
396.829127
21
65.824855
31
0
12
396.829123
22
66.660849
32
0
13
396.829123
23
66.660849
33
0
39
0
210
0
220
0
230
1
0
SOLID
5
282
100
AcDbEntity
8
2
62
256
6
ByLayer
370
18
48
1
60
0
100
AcDbTrace
10
0
20
66.242852
30
0
11
3.174998
21
66.660849
31
0
12
3.175002
22
65.824855
32
0
13
3.175002
23
65.824855
33
0
39
0
210
0
220
0
230
1
0
ENDBLK
5
284
100
AcDbEntity
8
0
100
AcDbBlockEnd
0
BLOCK
5
289
100
AcDbEntity
8
0
100
AcDbBlockBegin
2
*D3
70
1
10
0
20
0
30
0
3
*D3
0
LINE
5
28B
100
AcDbEntity
8
0
62
256
6
ByLayer
370
-2
48
1
60
0
100
AcDbLine
10
402.004125
20
51.236913
30
0
11
433.405742
21
51.236913
31
0
39
0
210
0
220
0
230
1
0
LINE
5
28C
100
AcDbEntity
8
0
62
256
6
ByLayer
370
-2
48
1
60
0
100
AcDbLine
10
402.004125
20
-51.236606
30
0
11
433.405742
21
-51.236606
31
0
39
0
210
0
220
0
230
1
0
LINE
5
28D
100
AcDbEntity
8
0
62
256
6
ByLayer
370
-2
48
1
60
0
100
AcDbLine
10
431.405742
20
48.061913
30
0
11
431.405742
21
-48.061606
31
0
39
0
210
0
220
0
230
1
0
SOLID
5
28E
100
AcDbEntity
8
0
62
256
6
ByLayer
370
-1
48
1
60
0
100
AcDbTrace
10
431.934909
20
48.061913
30
0
11
430.876576
21
48.061913
31
0
12
431.405742
22
51.236913
32
0
13
431.405742
23
51.236913
33
0
39
0
210
0
220
0
230
1
0
SOLID
5
28F
100
AcDbEntity
8
0
62
256
6
ByLayer
370
-1
48
1
60
0
100
AcDbTrace
10
430.876576
20
-48.061606
30
0
11
431.934909
21
-48.061606
31
0
12
431.405742
22
-51.236606
32
0
13
431.405742
23
-51.236606
33
0
39
0
210
0
220
0
230
1
0
MTEXT
5
290
100
AcDbEntity
8
0
62
256
6
ByLayer
370
18
48
1
60
0
100
AcDbMText
10
423.905742
20
0.000153
30
0
210
0
220
0
230
1
1
\A1;102.5
40
3
41
0
44
1
50
90
71
5
72
5
7
iso_b_vert
0
POINT
5
291
100
AcDbEntity
8
Defpoints
62
0
6
ByLayer
370
-1
48
1
60
0
100
AcDbPoint
10
400.004125
20
51.236913
30
0
39
0
210
0
220
0
230
1
50
360
0
POINT
5
292
100
AcDbEntity
8
Defpoints
62
0
6
ByLayer
370
-1
48
1
60
0
100
AcDbPoint
10
400.004125
20
-51.236606
30
0
39
0
210
0
220
0
230
1
50
360
0
POINT
5
293
100
AcDbEntity
8
Defpoints
62
0
6
ByLayer
370
-1
48
1
60
0
100
AcDbPoint
10
431.405742
20
-51.236606
30
0
39
0
210
0
220
0
230
1
50
360
0
ENDBLK
5
28A
100
AcDbEntity
8
0
100
AcDbBlockEnd
0
BLOCK
5
29B
100
AcDbEntity
8
0
100
AcDbBlockBegin
2
_U1
70
0
10
0
20
0
30
0
3
_U1
0
MTEXT
5
295
100
AcDbEntity
8
2
62
256
6
ByLayer
370
18
48
1
60
0
100
AcDbMText
10
430.814628
20
-12.187783
30
0
210
0
220
0
230
1
1
\W0.7208;Dc=89.0-116.0
40
3
41
0
44
1.084337
50
90
71
7
72
5
7
iso_b_vert
0
LINE
5
296
100
AcDbEntity
8
2
62
256
6
ByLayer
370
13
48
1
60
0
100
AcDbLine
10
402.004125
20
51.236913
30
0
11
433.405742
21
51.236913
31
0
39
0
210
0
220
0
230
1
0
LINE
5
297
100
AcDbEntity
8
2
62
256
6
ByLayer
370
13
48
1
60
0
100
AcDbLine
10
402.004125
20
-51.236606
30
0
11
433.405742
21
-51.236606
31
0
39
0
210
0
220
0
230
1
0
LINE
5
298
100
AcDbEntity
8
2
62
256
6
ByLayer
370
13
48
1
60
0
100
AcDbLine
10
431.405742
20
51.236913
30
0
11
431.405742
21
-51.236606
31
0
39
0
210
0
220
0
230
1
0
SOLID
5
299
100
AcDbEntity
8
2
62
256
6
ByLayer
370
18
48
1
60
0
100
AcDbTrace
10
431.405742
20
51.236913
30
0
11
431.823739
21
48.061915
31
0
12
430.987746
22
48.061911
32
0
13
430.987746
23
48.061911
33
0
39
0
210
0
220
0
230
1
0
SOLID
5
29A
100
AcDbEntity
8
2
62
256
6
ByLayer
370
18
48
1
60
0
100
AcDbTrace
10
431.405742
20
-51.236606
30
0
11
430.987746
21
-48.061608
31
0
12
431.823739
22
-48.061604
32
0
13
431.823739
23
-48.061604
33
0
39
0
210
0
220
0
230
1
0
ENDBLK
5
29C
100
AcDbEntity
8
0
100
AcDbBlockEnd
0
BLOCK
5
2A1
100
AcDbEntity
8
0
100
AcDbBlockBegin
2
*D5
70
1
10
0
20
0
30
0
3
*D5
0
LINE
5
2A3
100
AcDbEntity
8
0
62
256
6
ByLayer
370
-2
48
1
60
0
100
AcDbLine
10
-1.7
20
31.5
30
0
11
-54.613275
21
31.5
31
0
39
0
210
0
220
0
230
1
0
LINE
5
2A4
100
AcDbEntity
8
0
62
256
6
ByLayer
370
-2
48
1
60
0
100
AcDbLine
10
-1.7
20
-31.5
30
0
11
-54.613275
21
-31.5
31
0
39
0
210
0
220
0
230
1
0
LINE
5
2A5
100
AcDbEntity
8
0
62
256
6
ByLayer
370
-2
48
1
60
0
100
AcDbLine
10
-52.613275
20
28.325
30
0
11
-52.613275
21
-28.325
31
0
39
0
210
0
220
0
230
1
0
SOLID
5
2A6
100
AcDbEntity
8
0
62
256
6
ByLayer
370
-1
48
1
60
0
100
AcDbTrace
10
-52.084109
20
28.325
30
0
11
-53.142442
21
28.325
31
0
12
-52.613275
22
31.5
32
0
13
-52.613275
23
31.5
33
0
39
0
210
0
220
0
230
1
0
SOLID
5
2A7
100
AcDbEntity
8
0
62
256
6
ByLayer
370
-1
48
1
60
0
100
AcDbTrace
10
-53.142442
20
-28.325
30
0
11
-52.084109
21
-28.325
31
0
12
-52.613275
22
-31.5
32
0
13
-52.613275
23
-31.5
33
0
39
0
210
0
220
0
230
1
0
MTEXT
5
2A8
100
AcDbEntity
8
0
62
256
6
ByLayer
370
18
48
1
60
0
100
AcDbMText
10
-60.113275
20
0
30
0
210
0
220
0
230
1
1
\A1;63
40
3
41
0
44
1
50
90
71
5
72
5
7
iso_b_vert
0
POINT
5
2A9
100
AcDbEntity
8
Defpoints
62
0
6
ByLayer
370
-1
48
1
60
0
100
AcDbPoint
10
0.3
20
31.5
30
0
39
0
210
0
220
0
230
1
50
360
0
POINT
5
2AA
100
AcDbEntity
8
Defpoints
62
0
6
ByLayer
370
-1
48
1
60
0
100
AcDbPoint
10
0.3
20
-31.5
30
0
39
0
210
0
220
0
230
1
50
360
0
POINT
5
2AB
100
AcDbEntity
8
Defpoints
62
0
6
ByLayer
370
-1
48
1
60
0
100
AcDbPoint
10
-52.613275
20
-31.5
30
0
39
0
210
0
220
0
230
1
50
360
0
ENDBLK
5
2A2
100
AcDbEntity
8
0
100
AcDbBlockEnd
0
BLOCK
5
2B5
100
AcDbEntity
8
0
100
AcDbBlockBegin
2
_U2
70
0
10
0
20
0
30
0
3
_U2
0
MTEXT
5
2AE
100
AcDbEntity
8
SK2
62
256
6
ByLayer
370
18
48
1
60
0
100
AcDbMText
10
-53.20439
20
0.549657
30
0
210
0
220
0
230
1
1
\W0.6337;63
40
3
41
0
44
1.084337
50
90
71
7
72
5
7
iso_b_vert
0
MTEXT
5
2AF
100
AcDbEntity
8
SK2
62
256
6
ByLayer
370
18
48
1
60
0
100
AcDbMText
10
-53.20439
20
-3.863314
30
0
210
0
220
0
230
1
1
\W1.1719;%%c
40
3
41
0
44
1.084337
50
90
71
7
72
5
7
iso_b_vert
0
LINE
5
2B0
100
AcDbEntity
8
SK2
62
256
6
ByLayer
370
13
48
1
60
0
100
AcDbLine
10
-1.7
20
31.5
30
0
11
-54.613275
21
31.5
31
0
39
0
210
0
220
0
230
1
0
LINE
5
2B1
100
AcDbEntity
8
SK2
62
256
6
ByLayer
370
13
48
1
60
0
100
AcDbLine
10
-1.7
20
-31.5
30
0
11
-54.613275
21
-31.5
31
0
39
0
210
0
220
0
230
1
0
LINE
5
2B2
100
AcDbEntity
8
SK2
62
256
6
ByLayer
370
13
48
1
60
0
100
AcDbLine
10
-52.613275
20
31.5
30
0
11
-52.613275
21
-31.5
31
0
39
0
210
0
220
0
230
1
0
SOLID
5
2B3
100
AcDbEntity
8
SK2
62
256
6
ByLayer
370
18
48
1
60
0
100
AcDbTrace
10
-52.613275
20
31.5
30
0
11
-52.195279
21
28.325002
31
0
12
-53.031272
22
28.324998
32
0
13
-53.031272
23
28.324998
33
0
39
0
210
0
220
0
230
1
0
SOLID
5
2B4
100
AcDbEntity
8
SK2
62
256
6
ByLayer
370
18
48
1
60
0
100
AcDbTrace
10
-52.613275
20
-31.5
30
0
11
-53.031272
21
-28.325002
31
0
12
-52.195279
22
-28.324998
32
0
13
-52.195279
23
-28.324998
33
0
39
0
210
0
220
0
230
1
0
ENDBLK
5
2B6
100
AcDbEntity
8
0
100
AcDbBlockEnd
0
BLOCK
5
2BC
100
AcDbEntity
8
0
100
AcDbBlockBegin
2
*D7
70
1
10
0
20
0
30
0
3
*D7
0
LINE
5
2BE
100
AcDbEntity
8
0
62
256
6
ByLayer
370
-2
48
1
60
0
100
AcDbLine
10
400.004125
20
34.695564
30
0
11
400.004125
21
26.799384
31
0
39
0
210
0
220
0
230
1
0
LINE
5
2BF
100
AcDbEntity
8
0
62
256
6
ByLayer
370
-2
48
1
60
0
100
AcDbLine
10
403.004125
20
51.236913
30
0
11
424.441654
21
51.236913
31
0
39
0
210
0
220
0
230
1
0
ARC
5
2C0
100
AcDbEntity
8
0
62
256
6
ByLayer
370
-2
48
1
60
0
100
AcDbCircle
39
0
10
400.004125
20
51.236913
30
0
40
22.437528934999
210
0
220
0
230
1
100
AcDbArc
50
278.114361
51
351.885639
0
SOLID
5
2C1
100
AcDbEntity
8
0
62
256
6
ByLayer
370
-1
48
1
60
0
100
AcDbTrace
10
403.133729
20
29.551862
30
0
11
403.208608
21
28.496181
31
0
12
400.004125
22
28.799384
32
0
13
400.004125
23
28.799384
33
0
39
0
210
0
220
0
230
1
0
SOLID
5
2C2
100
AcDbEntity
8
0
62
256
6
ByLayer
370
-1
48
1
60
0
100
AcDbTrace
10
422.744857
20
48.03243
30
0
11
421.689176
21
48.107309
31
0
12
422.441654
22
51.236913
32
0
13
422.441654
23
51.236913
33
0
39
0
210
0
220
0
230
1
0
MTEXT
5
2C3
100
AcDbEntity
8
0
62
256
6
ByLayer
370
18
48
1
60
0
100
AcDbMText
10
410.516045
20
40.724993
30
0
210
0
220
0
230
1
1
\A1;90%%d
40
3
41
0
44
1
50
45
71
5
72
5
7
iso_b_vert
0
POINT
5
2C4
100
AcDbEntity
8
Defpoints
62
0
6
ByLayer
370
-1
48
1
60
0
100
AcDbPoint
10
411.222889
20
31.805443
30
0
39
0
210
0
220
0
230
1
50
360
0
POINT
5
2C5
100
AcDbEntity
8
Defpoints
62
0
6
ByLayer
370
-1
48
1
60
0
100
AcDbPoint
10
400.004125
20
51.236913
30
0
39
0
210
0
220
0
230
1
50
360
0
POINT
5
2C6
100
AcDbEntity
8
Defpoints
62
0
6
ByLayer
370
-1
48
1
60
0
100
AcDbPoint
10
400.004125
20
36.695564
30
0
39
0
210
0
220
0
230
1
50
360
0
POINT
5
2C7
100
AcDbEntity
8
Defpoints
62
0
6
ByLayer
370
-1
48
1
60
0
100
AcDbPoint
10
400.004125
20
50.443193
30
0
39
0
210
0
220
0
230
1
50
360
0
POINT
5
2C8
100
AcDbEntity
8
Defpoints
62
0
6
ByLayer
370
-1
48
1
60
0
100
AcDbPoint
10
401.004125
20
51.236913
30
0
39
0
210
0
220
0
230
1
50
360
0
ENDBLK
5
2BD
100
AcDbEntity
8
0
100
AcDbBlockEnd
0
BLOCK
5
2D0
100
AcDbEntity
8
0
100
AcDbBlockBegin
2
_U3
70
0
10
0
20
0
30
0
3
_U3
0
MTEXT
5
2CA
100
AcDbEntity
8
2
62
256
6
ByLayer
370
18
48
1
60
0
100
AcDbMText
10
415.678705
20
31.974217
30
0
210
0
220
0
230
1
1
\W0.6002;90%%d
40
3
41
0
44
1.084337
50
45
71
7
72
5
7
iso_b_vert
0
LINE
5
2CB
100
AcDbEntity
8
2
62
256
6
ByLayer
370
18
48
1
60
0
100
AcDbLine
10
400.004125
20
34.695564
30
0
11
400.004125
21
23.799384
31
0
39
0
210
0
220
0
230
1
0
LINE
5
2CC
100
AcDbEntity
8
2
62
256
6
ByLayer
370
18
48
1
60
0
100
AcDbLine
10
402.004125
20
51.236913
30
0
11
427.441654
21
51.236913
31
0
39
0
210
0
220
0
230
1
0
ARC
5
2CD
100
AcDbEntity
8
2
62
256
6
ByLayer
370
18
48
1
60
0
100
AcDbCircle
39
0
10
400.004125
20
51.236913
30
0
40
25.437528934999
210
0
220
0
230
1
100
AcDbArc
50
270
51
359.999943
0
SOLID
5
2CE
100
AcDbEntity
8
2
62
256
6
ByLayer
370
18
48
1
60
0
100
AcDbTrace
10
400.004125
20
25.799384
30
0
11
403.164558
21
26.316106
31
0
12
403.190609
22
25.480518
32
0
13
403.190609
23
25.480518
33
0
39
0
210
0
220
0
230
1
0
SOLID
5
2CF
100
AcDbEntity
8
2
62
256
6
ByLayer
370
18
48
1
60
0
100
AcDbTrace
10
425.441654
20
51.236913
30
0
11
425.76052
21
48.050432
31
0
12
424.924932
22
48.076477
32
0
13
424.924932
23
48.076477
33
0
39
0
210
0
220
0
230
1
0
ENDBLK
5
2D1
100
AcDbEntity
8
0
100
AcDbBlockEnd
0
ENDSEC
0
SECTION
2
ENTITIES
0
ARC
5
179
100
AcDbEntity
8
1
62
256
6
ByLayer
370
18
48
1
60
0
100
AcDbCircle
39
0
10
359.2
20
31.2
30
0
40
0.300000000000011
210
0
220
0
230
1
100
AcDbArc
50
0
51
90
0
ARC
5
17A
100
AcDbEntity
8
1
62
256
6
ByLayer
370
18
48
1
60
0
100
AcDbCircle
39
0
10
359.2
20
-31.2
30
0
40
0.300000000000011
210
0
220
0
230
1
100
AcDbArc
50
270
51
0
0
ARC
5
17B
100
AcDbEntity
8
1
62
256
6
ByLayer
370
18
48
1
60
0
100
AcDbCircle
39
0
10
359.2
20
31.2
30
0
40
0.299999999999955
210
0
220
0
230
1
100
AcDbArc
50
0
51
90
0
ARC
5
17C
100
AcDbEntity
8
1
62
256
6
ByLayer
370
18
48
1
60
0
100
AcDbCircle
39
0
10
359.2
20
-31.2
30
0
40
0.300000000000011
210
0
220
0
230
1
100
AcDbArc
50
270
51
0
0
ARC
5
17D
100
AcDbEntity
8
1
62
256
6
ByLayer
370
18
48
1
60
0
100
AcDbCircle
39
0
10
362.825
20
-37.5
30
0
40
1.15358983848621
210
0
220
0
230
1
100
AcDbArc
50
15
51
345
0
ARC
5
17E
100
AcDbEntity
8
1
62
256
6
ByLayer
370
18
48
1
60
0
100
AcDbCircle
39
0
10
362.825
20
-37.5
30
0
40
0.89999999999999
210
0
220
0
230
1
100
AcDbArc
50
15
51
345
0
ARC
5
17F
100
AcDbEntity
8
1
62
256
6
ByLayer
370
18
48
1
60
0
100
AcDbCircle
39
0
10
362.825
20
37.5
30
0
40
0.899999999999996
210
0
220
0
230
1
100
AcDbArc
50
217.522674
51
187.522674
0
ARC
5
180
100
AcDbEntity
8
1
62
256
6
ByLayer
370
18
48
1
60
0
100
AcDbCircle
39
0
10
362.825
20
37.5
30
0
40
1.15358983848621
210
0
220
0
230
1
100
AcDbArc
50
217.522674
51
187.522674
0
ARC
5
181
100
AcDbEntity
8
1
62
256
6
ByLayer
370
18
48
1
60
0
100
AcDbCircle
39
0
10
394.042375
20
24.252162
30
0
40
5.63825058182111
210
0
220
0
230
1
100
AcDbArc
50
170.20567
51
180
0
ARC
5
182
100
AcDbEntity
8
1
62
256
6
ByLayer
370
18
48
1
60
0
100
AcDbCircle
39
0
10
394.042375
20
24.252162
30
0
40
5.63825058182761
210
0
220
0
230
1
100
AcDbArc
50
104
51
159.845411
0
ARC
5
183
100
AcDbEntity
8
1
62
256
6
ByLayer
370
18
48
1
60
0
100
AcDbCircle
39
0
10
359.2
20
31.2
30
0
40
0.300000000000011
210
0
220
0
230
1
100
AcDbArc
50
0
51
90
0
ARC
5
184
100
AcDbEntity
8
1
62
256
6
ByLayer
370
18
48
1
60
0
100
AcDbCircle
39
0
10
359.2
20
-31.2
30
0
40
0.300000000000011
210
0
220
0
230
1
100
AcDbArc
50
270
51
0
0
CIRCLE
5
185
100
AcDbEntity
8
1
62
256
6
ByLayer
370
18
48
1
60
0
100
AcDbCircle
10
362.825
20
37.5
30
0
40
1.5
39
0
210
0
220
0
230
1
0
CIRCLE
5
186
100
AcDbEntity
8
1
62
256
6
ByLayer
370
18
48
1
60
0
100
AcDbCircle
10
362.825
20
-37.5
30
0
40
1.5
39
0
210
0
220
0
230
1
0
ELLIPSE
5
187
100
AcDbEntity
8
1
62
256
6
ByLayer
370
18
48
1
60
0
100
AcDbEllipse
10
398.691629
20
-37.310943
30
0
11
0.799999999992493
21
0
31
0
210
0
220
0
230
1
40
0.99905
41
0
42
1.1283547753454
0
ELLIPSE
5
188
100
AcDbEntity
8
1
62
256
6
ByLayer
370
18
48
1
60
0
100
AcDbEllipse
10
398.691629
20
-49.371763
30
0
11
0.800003131951623
21
0.000289834237971739
31
0
210
0
220
0
230
1
40
0.999041
41
-2.09475474829463
42
-0.000359645900174714
0
ELLIPSE
5
189
100
AcDbEntity
8
1
62
256
6
ByLayer
370
18
48
1
60
0
100
AcDbEllipse
10
398.691629
20
-49.250713
30
0
11
0.800003131951623
21
0.000289834237971739
31
0
210
0
220
0
230
1
40
0.999041
41
-2.09475474829463
42
-0.000359645900174714
0
ELLIPSE
5
18A
100
AcDbEntity
8
1
62
256
6
ByLayer
370
18
48
1
60
0
100
AcDbEllipse
10
398.691629
20
-49.233273
30
0
11
0.400000428065044
21
0.000694337400021294
31
0
210
0
220
0
230
1
40
0.999049
41
-0.589182093243655
42
-0.00173801943432984
0
ELLIPSE
5
18B
100
AcDbEntity
8
1
62
256
6
ByLayer
370
18
48
1
60
0
100
AcDbEllipse
10
398.691629
20
-37.293493
30
0
11
-0.399999999438928
21
7.90502072070523E-08
31
0
210
0
220
0
230
1
40
0.99905
41
-3.14159245615765
42
-2.59875115150033
0
ELLIPSE
5
18C
100
AcDbEntity
8
1
62
256
6
ByLayer
370
18
48
1
60
0
100
AcDbEllipse
10
395.241629
20
-43.043393
30
0
11
1.35000000000003
21
0
31
0
210
0
220
0
230
1
40
0.99905
41
0
42
6.28318530717959
0
ELLIPSE
5
18D
100
AcDbEntity
8
1
62
256
6
ByLayer
370
18
48
1
60
0
100
AcDbEllipse
10
395.241629
20
-43.060843
30
0
11
1.75000000059082
21
2.62625011137454E-05
31
0
210
0
220
0
230
1
40
0.99905
41
1.50071132416751E-05
42
3.14150921407425
0
ELLIPSE
5
18E
100
AcDbEntity
8
1
62
256
6
ByLayer
370
18
48
1
60
0
100
AcDbEllipse
10
399.210379
20
-36.708543
30
0
11
0.793749999999675
21
0
31
0
210
0
220
0
230
1
40
0.99905
41
0
42
1.79469993647
0
ELLIPSE
5
18F
100
AcDbEntity
8
1
62
256
6
ByLayer
370
18
48
1
60
0
100
AcDbEllipse
10
399.210379
20
-50.443613
30
0
11
0.793753107484016
21
0.000287569592606871
31
0
210
0
220
0
230
1
40
0.999041
41
-2.09475474789662
42
-0.000359645503708179
0
ELLIPSE
5
190
100
AcDbEntity
8
1
62
256
6
ByLayer
370
18
48
1
60
0
100
AcDbEllipse
10
399.210379
20
-50.270493
30
0
11
0.306449973645239
21
0.000111024198219652
31
0
210
0
220
0
230
1
40
0.999041
41
-2.09475474834252
42
-0.000359645948152288
0
ELLIPSE
5
191
100
AcDbEntity
8
1
62
256
6
ByLayer
370
18
48
1
60
0
100
AcDbEllipse
10
399.210379
20
-36.535433
30
0
11
0.306448773916987
21
0
31
0
210
0
220
0
230
1
40
0.99905
41
0
42
2.09439510239268
0
ELLIPSE
5
192
100
AcDbEntity
8
1
62
256
6
ByLayer
370
18
48
1
60
0
100
AcDbEllipse
10
387.090829
20
44.137557
30
0
11
-1.52463838609198
21
0.0333892749912957
31
0
210
0
220
0
230
1
40
0.999955
41
-1.12904501884668
42
1.7559437761889
0
ELLIPSE
5
193
100
AcDbEntity
8
1
62
256
6
ByLayer
370
18
48
1
60
0
100
AcDbEllipse
10
387.759369
20
44.519647
30
0
11
-1.63803510189797
21
0.0491149772267396
31
0
210
0
220
0
230
1
40
0.999955
41
-2.06441904381999
42
-0.634430533316051
0
ELLIPSE
5
194
100
AcDbEntity
8
1
62
256
6
ByLayer
370
18
48
1
60
0
100
AcDbEllipse
10
387.759369
20
44.460737
30
0
11
-1.73799058168874
21
0.0521120545347418
31
0
210
0
220
0
230
1
40
0.999955
41
-2.06441904146117
42
-0.648663258125005
0
ELLIPSE
5
195
100
AcDbEntity
8
1
62
256
6
ByLayer
370
18
48
1
60
0
100
AcDbEllipse
10
387.090829
20
44.078657
30
0
11
1.62238496445806
21
0.0920575201805007
31
0
210
0
220
0
230
1
40
0.999968
41
1.94922821259116
42
2.86768154878311
0
ELLIPSE
5
196
100
AcDbEntity
8
1
62
256
6
ByLayer
370
18
48
1
60
0
100
AcDbEllipse
10
387.090829
20
44.078657
30
0
11
1.6154259725731
21
0.176151548383707
31
0
210
0
220
0
230
1
40
0.99996
41
-3.03297842385911
42
-1.39962100264895
0
ELLIPSE
5
197
100
AcDbEntity
8
1
62
256
6
ByLayer
370
18
48
1
60
0
100
AcDbEllipse
10
387.090829
20
44.136687
30
0
11
1.62500000024299
21
1.624007379576E-05
31
0
210
0
220
0
230
1
40
0.99996
41
-3.14158264708175
42
-1.33491565448466
0
ELLIPSE
5
198
100
AcDbEntity
8
1
62
256
6
ByLayer
370
18
48
1
60
0
100
AcDbEllipse
10
386.034129
20
38.17324
30
0
11
11.9999984617332
21
0.000720700032413418
31
0
210
0
220
0
230
1
40
0.99996
41
1.57073626604122
42
1.61492602857172
0
ELLIPSE
5
199
100
AcDbEntity
8
1
62
256
6
ByLayer
370
18
48
1
60
0
100
AcDbEllipse
10
385.504019
20
26.871107
30
0
11
-0.799996688310947
21
1.33203599118532E-05
31
0
210
0
220
0
230
1
40
0.845323
41
0.453800423642562
42
1.57081114492251
0
ELLIPSE
5
19A
100
AcDbEntity
8
1
62
256
6
ByLayer
370
18
48
1
60
0
100
AcDbEllipse
10
394.042379
20
24.252157
30
0
11
1.77970331764135
21
5.35001405444698
31
0
210
0
220
0
230
1
40
1
41
1.54017662159087
42
1.60939156413089
0
ELLIPSE
5
19B
100
AcDbEntity
8
1
62
256
6
ByLayer
370
18
48
1
60
0
100
AcDbEllipse
10
374.304129
20
48.295947
30
0
11
2.02498863617136
21
0.357107828529938
31
0
210
0
220
0
230
1
40
0.008469
41
0
42
6.28318530717959
0
ELLIPSE
5
19C
100
AcDbEntity
8
1
62
256
6
ByLayer
370
18
48
1
60
0
100
AcDbEllipse
10
182.201116
20
14.40611
30
0
11
208.633024051046
21
36.7864547411349
31
0
210
0
220
0
230
1
40
0.001492
41
0.257325209033066
42
0.35978214223452
0
ELLIPSE
5
19D
100
AcDbEntity
8
1
62
256
6
ByLayer
370
18
48
1
60
0
100
AcDbEllipse
10
377.198159
20
48.873457
30
0
11
1.00000247844298
21
0.176341095821523
31
0
210
0
220
0
230
1
40
0.008464
41
-2.15697111095549
42
0.722822154853206
0
ELLIPSE
5
19E
100
AcDbEntity
8
1
62
256
6
ByLayer
370
18
48
1
60
0
100
AcDbEllipse
10
383.420419
20
42.999567
30
0
11
0.279246185840631
21
1.77571800582982
31
0
210
0
220
0
230
1
40
0.456057
41
0
42
6.28318530717959
0
ELLIPSE
5
19F
100
AcDbEntity
8
1
62
256
6
ByLayer
370
18
48
1
60
0
100
AcDbEllipse
10
386.034129
20
38.191667
30
0
11
8.53376439427807
21
8.58883834000269
31
0
210
0
220
0
230
1
40
0.982269
41
0.895410516219825
42
0.965659547234791
0
ELLIPSE
5
1A0
100
AcDbEntity
8
1
62
256
6
ByLayer
370
18
48
1
60
0
100
AcDbEllipse
10
383.557889
20
39.047577
30
0
11
0.322295673287832
21
1.86589077452069
31
0
210
0
220
0
230
1
40
0.427355
41
0
42
6.28318530717959
0
ELLIPSE
5
1A1
100
AcDbEntity
8
1
62
256
6
ByLayer
370
18
48
1
60
0
100
AcDbEllipse
10
384.464659
20
45.252157
30
0
11
0.0279119140981872
21
4.99999268419332
31
0
210
0
220
0
230
1
40
0.487699
41
0.379734069361998
42
1.57351522150243
0
ELLIPSE
5
1A2
100
AcDbEntity
8
1
62
256
6
ByLayer
370
18
48
1
60
0
100
AcDbEllipse
10
357.131719
20
45.252157
30
0
11
28.3565446578173
21
4.99964645043627
31
0
210
0
220
0
230
1
40
0.001494
41
-1.10776635609747
42
-0.368552554064959
0
ELLIPSE
5
1A3
100
AcDbEntity
8
1
62
256
6
ByLayer
370
18
48
1
60
0
100
AcDbEllipse
10
382.946769
20
32.390657
30
0
11
0.0111791418214308
21
1.99999633740752
31
0
210
0
220
0
230
1
40
0.487703
41
1.5735223770256
42
2.44618700299162
0
ELLIPSE
5
1A4
100
AcDbEntity
8
1
62
256
6
ByLayer
370
18
48
1
60
0
100
AcDbEllipse
10
395.241629
20
43.584097
30
0
11
1.28972555740876
21
0.0386712324386508
31
0
210
0
220
0
230
1
40
0.999955
41
2.06441904628436
42
3.11161659748066
0
ELLIPSE
5
1A5
100
AcDbEntity
8
1
62
256
6
ByLayer
370
18
48
1
60
0
100
AcDbEllipse
10
395.241629
20
43.584097
30
0
11
1.2903000000011
21
0
31
0
210
0
220
0
230
1
40
0.99996
41
3.14159265358979
42
-2.09439510239372
0
ELLIPSE
5
1A6
100
AcDbEntity
8
1
62
256
6
ByLayer
370
18
48
1
60
0
100
AcDbEllipse
10
395.241629
20
43.584097
30
0
11
-1.28972555740649
21
0.0386712323479431
31
0
210
0
220
0
230
1
40
0.999955
41
1.07717360723272
42
2.12437115843348
0
ELLIPSE
5
1A7
100
AcDbEntity
8
1
62
256
6
ByLayer
370
18
48
1
60
0
100
AcDbEllipse
10
395.241629
20
43.584097
30
0
11
1.28972555740876
21
0.0386712324386508
31
0
210
0
220
0
230
1
40
0.999955
41
-1.07717360730544
42
-0.0299760561091365
0
ELLIPSE
5
1A8
100
AcDbEntity
8
1
62
256
6
ByLayer
370
18
48
1
60
0
100
AcDbEllipse
10
395.241629
20
43.584097
30
0
11
1.29030000001096
21
0
31
0
210
0
220
0
230
1
40
0.99996
41
0
42
1.00452437279854
0
ELLIPSE
5
1A9
100
AcDbEntity
8
1
62
256
6
ByLayer
370
18
48
1
60
0
100
AcDbEllipse
10
395.241629
20
43.584097
30
0
11
1.28844825810773
21
0.069055406168058
31
0
210
0
220
0
230
1
40
0.999964
41
1.03633827084328
42
2.04084649703549
0
ELLIPSE
5
1AA
100
AcDbEntity
8
1
62
256
6
ByLayer
370
18
48
1
60
0
100
AcDbEllipse
10
395.241629
20
43.583447
30
0
11
-2.62383134729354
21
0.0786731855611957
31
0
210
0
220
0
230
1
40
0.999955
41
-2.06441903855215
42
0.0300415463254047
0
ELLIPSE
5
1AB
100
AcDbEntity
8
1
62
256
6
ByLayer
370
18
48
1
60
0
100
AcDbEllipse
10
395.241629
20
43.583447
30
0
11
2.62499999999079
21
0
31
0
210
0
220
0
230
1
40
0.99996
41
0
42
1.04719770463384
0
ELLIPSE
5
1AC
100
AcDbEntity
8
1
62
256
6
ByLayer
370
18
48
1
60
0
100
AcDbEllipse
10
394.499979
20
42.299577
30
0
11
-0.341300938099347
21
0.197037439010017
31
0
210
0
220
0
230
1
40
0.489717
41
-2.85268489816694
42
-1.57082147226647
0
ELLIPSE
5
1AD
100
AcDbEntity
8
1
62
256
6
ByLayer
370
18
48
1
60
0
100
AcDbEllipse
10
394.499979
20
42.299577
30
0
11
-0.341300487572541
21
0.197041908426489
31
0
210
0
220
0
230
1
40
0.489712
41
-1.57080993777463
42
-0.288946511909512
0
ELLIPSE
5
1AE
100
AcDbEntity
8
1
62
256
6
ByLayer
370
18
48
1
60
0
100
AcDbEllipse
10
395.983279
20
42.299577
30
0
11
0.341303468527592
21
0.197039792922248
31
0
210
0
220
0
230
1
40
0.489711
41
0.288950791404067
42
1.57081421725458
0
ELLIPSE
5
1AF
100
AcDbEntity
8
1
62
256
6
ByLayer
370
18
48
1
60
0
100
AcDbEllipse
10
395.983279
20
42.299577
30
0
11
0.34130048758
21
0.197041908427415
31
0
210
0
220
0
230
1
40
0.489712
41
1.57080993779064
42
2.85267336363446
0
ELLIPSE
5
1B0
100
AcDbEntity
8
1
62
256
6
ByLayer
370
18
48
1
60
0
100
AcDbEllipse
10
396.724929
20
43.584097
30
0
11
7.63216306301265E-07
21
0.394085625893927
31
0
210
0
220
0
230
1
40
0.489739
41
0.288933872054357
42
1.57079729786188
0
ELLIPSE
5
1B1
100
AcDbEntity
8
1
62
256
6
ByLayer
370
18
48
1
60
0
100
AcDbEllipse
10
393.758329
20
43.584097
30
0
11
4.61652183228807E-16
21
0.394084993872652
31
0
210
0
220
0
230
1
40
0.48974
41
-1.5707963267949
42
-0.28893290091828
0
ELLIPSE
5
1B2
100
AcDbEntity
8
1
62
256
6
ByLayer
370
18
48
1
60
0
100
AcDbEllipse
10
395.241629
20
42.100757
30
0
11
0.394098931869048
21
8.56752433030775E-07
31
0
210
0
220
0
230
1
40
0.489708
41
2.9456904386949
42
0.195888868170612
0
ELLIPSE
5
1B3
100
AcDbEntity
8
1
62
256
6
ByLayer
370
18
48
1
60
0
100
AcDbEllipse
10
396.526289
20
42.842427
30
0
11
0.197051680194505
21
0.341284242260024
31
0
210
0
220
0
230
1
40
0.489736
41
2.94571905650521
42
-0.691514434824835
0
ELLIPSE
5
1B4
100
AcDbEntity
8
1
62
256
6
ByLayer
370
18
48
1
60
0
100
AcDbEllipse
10
393.956959
20
42.842427
30
0
11
-0.197053019263581
21
0.341284830853193
31
0
210
0
220
0
230
1
40
0.489728
41
0.658887476567117
42
-2.94571815415269
0
ELLIPSE
5
1B5
100
AcDbEntity
8
1
62
256
6
ByLayer
370
18
48
1
60
0
100
AcDbEllipse
10
395.241629
20
43.570357
30
0
11
1.67639999999293
21
0
31
0
210
0
220
0
230
1
40
0.99996
41
-1.5707963267949
42
-0.523598775594471
0
ELLIPSE
5
1B6
100
AcDbEntity
8
1
62
256
6
ByLayer
370
18
48
1
60
0
100
AcDbEllipse
10
395.241629
20
43.570357
30
0
11
1.6756536654717
21
0.0502429280413809
31
0
210
0
220
0
230
1
40
0.999955
41
-2.64796993224649
42
-1.60077238104927
0
ELLIPSE
5
1B7
100
AcDbEntity
8
1
62
256
6
ByLayer
370
18
48
1
60
0
100
AcDbEllipse
10
395.241629
20
43.570357
30
0
11
-1.67565366561038
21
0.0502429242990147
31
0
210
0
220
0
230
1
40
0.999955
41
-0.493622723573238
42
0.553574827615355
0
ELLIPSE
5
1B8
100
AcDbEntity
8
1
62
256
6
ByLayer
370
18
48
1
60
0
100
AcDbEllipse
10
395.241629
20
43.570357
30
0
11
-1.67565366575309
21
0.0502429196738502
31
0
210
0
220
0
230
1
40
0.999955
41
2.64796992725699
42
-2.58801782873528
0
ELLIPSE
5
1B9
100
AcDbEntity
8
1
62
256
6
ByLayer
370
18
48
1
60
0
100
AcDbEllipse
10
396.526289
20
44.325777
30
0
11
-0.197055629792395
21
0.341283501947074
31
0
210
0
220
0
230
1
40
0.489734
41
2.94567097721167
42
-2.4827119388021
0
ELLIPSE
5
1BA
100
AcDbEntity
8
1
62
256
6
ByLayer
370
18
48
1
60
0
100
AcDbEllipse
10
393.956959
20
44.325777
30
0
11
0.197054986186928
21
0.341283068767915
31
0
210
0
220
0
230
1
40
0.489735
41
2.45008307940043
42
-2.94567193875969
0
ELLIPSE
5
1BB
100
AcDbEntity
8
1
62
256
6
ByLayer
370
18
48
1
60
0
100
AcDbEllipse
10
395.241629
20
43.570357
30
0
11
1.79999999999995
21
0
31
0
210
0
220
0
230
1
40
0.99996
41
0
42
6.28318530717959
0
ELLIPSE
5
1BC
100
AcDbEntity
8
1
62
256
6
ByLayer
370
18
48
1
60
0
100
AcDbEllipse
10
395.241629
20
43.572757
30
0
11
2.62500000000001
21
0
31
0
210
0
220
0
230
1
40
0.99996
41
0
42
6.28318530717959
0
ELLIPSE
5
1BD
100
AcDbEntity
8
1
62
256
6
ByLayer
370
18
48
1
60
0
100
AcDbEllipse
10
395.241629
20
43.570357
30
0
11
1.67565366711715
21
0.0502428729502694
31
0
210
0
220
0
230
1
40
0.999955
41
0.493622754218583
42
1.54082030541939
0
ELLIPSE
5
1BE
100
AcDbEntity
8
1
62
256
6
ByLayer
370
18
48
1
60
0
100
AcDbEllipse
10
395.241629
20
43.570357
30
0
11
1.67639999999433
21
0
31
0
210
0
220
0
230
1
40
0.99996
41
1.5707963267949
42
2.61799387799492
0
ELLIPSE
5
1BF
100
AcDbEntity
8
1
62
256
6
ByLayer
370
18
48
1
60
0
100
AcDbEllipse
10
26.347159
20
-3E-06
30
0
11
14.7537025715395
21
31.0933622777445
31
0
210
0
220
0
230
1
40
0.342001
41
2.05035471424216
42
2.98378811334937
0
ELLIPSE
5
1C0
100
AcDbEntity
8
1
62
256
6
ByLayer
370
18
48
1
60
0
100
AcDbEllipse
10
-2.347151
20
-3E-06
30
0
11
-14.7537875640006
21
31.0933667587388
31
0
210
0
220
0
230
1
40
0.341997
41
-2.98378513885505
42
-2.05035173974809
0
ELLIPSE
5
1C1
100
AcDbEntity
8
1
62
256
6
ByLayer
370
18
48
1
60
0
100
AcDbEllipse
10
26.347159
20
-3E-06
30
0
11
-14.7537875639866
21
31.0933667587206
31
0
210
0
220
0
230
1
40
0.341997
41
0.157807514734805
42
1.09124091384214
0
ELLIPSE
5
1C2
100
AcDbEntity
8
1
62
256
6
ByLayer
370
18
48
1
60
0
100
AcDbEllipse
10
-2.347151
20
-3E-06
30
0
11
14.753702571541
21
31.093362277745
31
0
210
0
220
0
230
1
40
0.342001
41
-1.09123793934754
42
-0.15780454024036
0
ELLIPSE
5
1C3
100
AcDbEntity
8
1
62
256
6
ByLayer
370
18
48
1
60
0
100
AcDbEllipse
10
395.241629
20
-43.242663
30
0
11
-2.50000000500368
21
8.75088436116672E-05
31
0
210
0
220
0
230
1
40
0.99905
41
-3.5029715458243E-05
42
0.229792305512976
0
ELLIPSE
5
1C4
100
AcDbEntity
8
1
62
256
6
ByLayer
370
18
48
1
60
0
100
AcDbEllipse
10
395.241629
20
-43.024563
30
0
11
1.74999999999999
21
0
31
0
210
0
220
0
230
1
40
0.99905
41
0
42
6.28318530717959
0
ELLIPSE
5
1C5
100
AcDbEntity
8
1
62
256
6
ByLayer
370
18
48
1
60
0
100
AcDbEllipse
10
395.241629
20
-43.020203
30
0
11
1.85
21
0
31
0
210
0
220
0
230
1
40
0.99905
41
0
42
6.28318530717959
0
ELLIPSE
5
1C6
100
AcDbEntity
8
1
62
256
6
ByLayer
370
18
48
1
60
0
100
AcDbEllipse
10
395.241629
20
-43.033293
30
0
11
2.49998187885808
21
0.00497822158674882
31
0
210
0
220
0
230
1
40
0.999057
41
2.54675805030191
42
-2.5955382120194
0
ELLIPSE
5
1C7
100
AcDbEntity
8
1
62
256
6
ByLayer
370
18
48
1
60
0
100
AcDbEllipse
10
395.241629
20
-43.020203
30
0
11
-2.1999930682223
21
0.00522673121670196
31
0
210
0
220
0
230
1
40
0.999047
41
-1.48915980488157
42
1.47689644522595
0
ELLIPSE
5
1C8
100
AcDbEntity
8
1
62
256
6
ByLayer
370
18
48
1
60
0
100
AcDbEllipse
10
401.341939
20
-3E-06
30
0
11
-28.4047583490684
21
26.9593498555259
31
0
210
0
220
0
230
1
40
0.576959
41
0.455550906924629
42
0.572591077009137
0
ELLIPSE
5
1C9
100
AcDbEntity
8
1
62
256
6
ByLayer
370
18
48
1
60
0
100
AcDbEllipse
10
441.027779
20
-3E-06
30
0
11
-80.0240702147148
21
0.000104777457850723
31
0
210
0
220
0
230
1
40
0.394256
41
-0.452005826312812
42
-1.51856662213171E-06
0
ELLIPSE
5
1CA
100
AcDbEntity
8
1
62
256
6
ByLayer
370
18
48
1
60
0
100
AcDbEllipse
10
441.027779
20
-3E-06
30
0
11
-101.456861333216
21
0.00033710713500946
31
0
210
0
220
0
230
1
40
0.394255
41
0.66202152407003
42
0.862987878170992
0
ELLIPSE
5
1CB
100
AcDbEntity
8
1
62
256
6
ByLayer
370
18
48
1
60
0
100
AcDbEllipse
10
373.601959
20
-39.751855
30
0
11
9.15745104314209E-05
21
1.52500069718882
31
0
210
0
220
0
230
1
40
0.992542
41
2.9554177735144
42
2.99105492646527
0
ELLIPSE
5
1CC
100
AcDbEntity
8
1
62
256
6
ByLayer
370
18
48
1
60
0
100
AcDbEllipse
10
373.144629
20
-39.751853
30
0
11
1.53645248899251
21
4.58555162165779E-08
31
0
210
0
220
0
230
1
40
0.99255
41
0
42
0.245338395913743
0
ELLIPSE
5
1CD
100
AcDbEntity
8
1
62
256
6
ByLayer
370
18
48
1
60
0
100
AcDbEllipse
10
373.144629
20
-39.751853
30
0
11
1.53645416585534
21
4.89469260460178E-05
31
0
210
0
220
0
230
1
40
0.992547
41
2.89632043263728
42
-3.15485150785596E-05
0
ELLIPSE
5
1CE
100
AcDbEntity
8
1
62
256
6
ByLayer
370
18
48
1
60
0
100
AcDbEllipse
10
398.534129
20
-49.357573
30
0
11
0.499999999997562
21
0
31
0
210
0
220
0
230
1
40
0.99905
41
-1.5707963267949
42
0
0
ELLIPSE
5
1CF
100
AcDbEntity
8
1
62
256
6
ByLayer
370
18
48
1
60
0
100
AcDbEllipse
10
385.734129
20
-38.070833
30
0
11
8.71685744332674
21
9.01890226701613
31
0
210
0
220
0
230
1
40
0.914433
41
-2.50304636144807
42
-2.43279732939433
0
ELLIPSE
5
1D0
100
AcDbEntity
8
1
62
256
6
ByLayer
370
18
48
1
60
0
100
AcDbEllipse
10
385.734129
20
-38.162953
30
0
11
11.9998517335858
21
0.0503623743190725
31
0
210
0
220
0
230
1
40
0.999049
41
-1.61918376973753
42
-1.57499401359597
0
ELLIPSE
5
1D1
100
AcDbEntity
8
1
62
256
6
ByLayer
370
18
48
1
60
0
100
AcDbEllipse
10
374.004129
20
-48.333633
30
0
11
-2.02493437052716
21
0.358052765054198
31
0
210
0
220
0
230
1
40
0.042337
41
0
42
6.28318530717959
0
ELLIPSE
5
1D2
100
AcDbEntity
8
1
62
256
6
ByLayer
370
18
48
1
60
0
100
AcDbEllipse
10
358.930799
20
-45.751853
30
0
11
-28.356369448889
21
4.9955045030709
31
0
210
0
220
0
230
1
40
0.007463
41
1.95421632885173
42
2.50559749844677
0
ELLIPSE
5
1D3
100
AcDbEntity
8
1
62
256
6
ByLayer
370
18
48
1
60
0
100
AcDbEllipse
10
376.898159
20
-48.508223
30
0
11
-0.99997087473057
21
0.176816621161512
31
0
210
0
220
0
230
1
40
0.042334
41
0.9935969901466
42
-2.40979505124301
0
ELLIPSE
5
1D4
100
AcDbEntity
8
1
62
256
6
ByLayer
370
18
48
1
60
0
100
AcDbEllipse
10
398.534129
20
-49.150073
30
0
11
-0.388191065257149
21
0.475932590839511
31
0
210
0
220
0
230
1
40
0.662139
41
3.11407519228566
42
-2.45969938201629
0
ELLIPSE
5
1D5
100
AcDbEntity
8
1
62
256
6
ByLayer
370
18
48
1
60
0
100
AcDbEllipse
10
394.891409
20
-43.070153
30
0
11
2.24999174031606
21
0.00280563478598471
31
0
210
0
220
0
230
1
40
0.99905
41
0.0222964748974679
42
1.49120446645948
0
ELLIPSE
5
1D6
100
AcDbEntity
8
1
62
256
6
ByLayer
370
18
48
1
60
0
100
AcDbEllipse
10
394.891409
20
-43.261773
30
0
11
2.24998989755633
21
0.0017331411771206
31
0
210
0
220
0
230
1
40
0.999056
41
2.71661222154846
42
3.07406649355049
0
ELLIPSE
5
1D7
100
AcDbEntity
8
1
62
256
6
ByLayer
370
18
48
1
60
0
100
AcDbEllipse
10
394.891409
20
-42.964383
30
0
11
2.25
21
0
31
0
210
0
220
0
230
1
40
0.99905
41
0
42
6.28318530717959
0
ELLIPSE
5
1D8
100
AcDbEntity
8
1
62
256
6
ByLayer
370
18
48
1
60
0
100
AcDbEllipse
10
394.891409
20
-42.964383
30
0
11
2.75000000000063
21
0
31
0
210
0
220
0
230
1
40
0.99905
41
1.5707963267949
42
3.14159265358979
0
ELLIPSE
5
1D9
100
AcDbEntity
8
1
62
256
6
ByLayer
370
18
48
1
60
0
100
AcDbEllipse
10
379.046559
20
-14.083433
30
0
11
-9.00229251410308E-05
21
37.4917894415836
31
0
210
0
220
0
230
1
40
0.141432
41
2.27835496019266
42
2.71900738333455
0
ELLIPSE
5
1DA
100
AcDbEntity
8
1
62
256
6
ByLayer
370
18
48
1
60
0
100
AcDbEllipse
10
179.330064
20
-14.083432
30
0
11
-212.626191213532
21
37.4577062632354
31
0
210
0
220
0
230
1
40
0.007464
41
-2.8598384656162
42
-2.76133005136683
0
ELLIPSE
5
1DB
100
AcDbEntity
8
1
62
256
6
ByLayer
370
18
48
1
60
0
100
AcDbEllipse
10
400.001229
20
-14.083433
30
0
11
-0.173667007753483
21
37.4917557389566
31
0
210
0
220
0
230
1
40
0.105001
41
2.64058155979074
42
2.8178072940593
0
ELLIPSE
5
1DC
100
AcDbEntity
8
1
62
256
6
ByLayer
370
18
48
1
60
0
100
AcDbEllipse
10
414.889863
20
-14.083387
30
0
11
-1.31428338527702
21
37.4717837314852
31
0
210
0
220
0
230
1
40
0.932381
41
2.58862517433034
42
2.60838075154818
0
ELLIPSE
5
1DD
100
AcDbEntity
8
1
62
256
6
ByLayer
370
18
48
1
60
0
100
AcDbEllipse
10
414.889839
20
-14.083433
30
0
11
-1.31726227075453
21
37.4717575064368
31
0
210
0
220
0
230
1
40
0.93237
41
2.2455920041376
42
2.39591374882624
0
ELLIPSE
5
1DE
100
AcDbEntity
8
1
62
256
6
ByLayer
370
18
48
1
60
0
100
AcDbEllipse
10
394.891409
20
-42.828673
30
0
11
-1.95195086336396
21
2.02988953179515
31
0
210
0
220
0
230
1
40
0.954284
41
-0.789219019075957
42
0.688436546636578
0
ELLIPSE
5
1DF
100
AcDbEntity
8
1
62
256
6
ByLayer
370
18
48
1
60
0
100
AcDbEllipse
10
395.241629
20
43.579227
30
0
11
2.92104776445378
21
0
31
0
210
0
220
0
230
1
40
0.99996
41
0
42
6.28318530717959
0
ELLIPSE
5
1E0
100
AcDbEntity
8
1
62
256
6
ByLayer
370
18
48
1
60
0
100
AcDbEllipse
10
395.241629
20
43.577037
30
0
11
3.00996076014187
21
0
31
0
210
0
220
0
230
1
40
0.99996
41
0
42
6.28318530717959
0
ELLIPSE
5
1E1
100
AcDbEntity
8
1
62
256
6
ByLayer
370
18
48
1
60
0
100
AcDbEllipse
10
395.241629
20
43.569377
30
0
11
3.07132534818232
21
0
31
0
210
0
220
0
230
1
40
0.99996
41
0
42
6.28318530717959
0
ELLIPSE
5
1E2
100
AcDbEntity
8
1
62
256
6
ByLayer
370
18
48
1
60
0
100
AcDbEllipse
10
387.304129
20
43.569377
30
0
11
0.793396621659658
21
0.0237892735089026
31
0
210
0
220
0
230
1
40
0.999955
41
2.06441903762964
42
-2.12437116715662
0
ELLIPSE
5
1E3
100
AcDbEntity
8
1
62
256
6
ByLayer
370
18
48
1
60
0
100
AcDbEllipse
10
399.210379
20
36.695567
30
0
11
-0.793396621743022
21
0.0237892707256972
31
0
210
0
220
0
230
1
40
0.999955
41
1.07717361245213
42
-3.11161659233404
0
ELLIPSE
5
1E4
100
AcDbEntity
8
1
62
256
6
ByLayer
370
18
48
1
60
0
100
AcDbEllipse
10
399.210379
20
50.443197
30
0
11
0.793750000000103
21
0
31
0
210
0
220
0
230
1
40
0.99996
41
0
42
2.09439510239332
0
ELLIPSE
5
1E5
100
AcDbEntity
8
1
62
256
6
ByLayer
370
18
48
1
60
0
100
AcDbEllipse
10
373.319509
20
-39.751853
30
0
11
0.000248373821734389
21
1.49999896312182
31
0
210
0
220
0
230
1
40
0.992548
41
3.12129556086289
42
-3.0516397829987
0
ELLIPSE
5
1E6
100
AcDbEntity
8
1
62
256
6
ByLayer
370
18
48
1
60
0
100
AcDbEllipse
10
373.380449
20
-39.751849
30
0
11
-4.62209930482838E-06
21
1.50000427504107
31
0
210
0
220
0
230
1
40
0.992549
41
3.14158959516324
42
-3.11140276974659
0
ELLIPSE
5
1E7
100
AcDbEntity
8
1
62
256
6
ByLayer
370
18
48
1
60
0
100
AcDbEllipse
10
373.304919
20
-39.751853
30
0
11
0.000374102302088029
21
1.07999896119883
31
0
210
0
220
0
230
1
40
0.99255
41
1.2211055374809
42
3.08642604195064
0
ELLIPSE
5
1E8
100
AcDbEntity
8
1
62
256
6
ByLayer
370
18
48
1
60
0
100
AcDbEllipse
10
373.186089
20
-39.751853
30
0
11
0.000374102279863732
21
1.07999896119856
31
0
210
0
220
0
230
1
40
0.99255
41
1.22110553746008
42
-2.61153943455341
0
ELLIPSE
5
1E9
100
AcDbEntity
8
1
62
256
6
ByLayer
370
18
48
1
60
0
100
AcDbEllipse
10
373.186089
20
-39.751853
30
0
11
-4.67765237155338E-05
21
1.08000423259339
31
0
210
0
220
0
230
1
40
0.992538
41
-2.61193153619375
42
-1.22079487148473
0
ELLIPSE
5
1EA
100
AcDbEntity
8
1
62
256
6
ByLayer
370
18
48
1
60
0
100
AcDbEllipse
10
373.186089
20
-39.751853
30
0
11
-0.000780933399396737
21
1.44302820996175
31
0
210
0
220
0
230
1
40
0.992548
41
1.31073511181587
42
3.14105214398464
0
ELLIPSE
5
1EB
100
AcDbEntity
8
1
62
256
6
ByLayer
370
18
48
1
60
0
100
AcDbEllipse
10
373.186089
20
-39.751853
30
0
11
1.69044434770458E-15
21
1.44303173386498
31
0
210
0
220
0
230
1
40
0.99255
41
3.14159265358979
42
-1.31136506027782
0
ELLIPSE
5
1EC
100
AcDbEntity
8
1
62
256
6
ByLayer
370
18
48
1
60
0
100
AcDbEllipse
10
373.186699
20
-39.751853
30
0
11
0.000561449894880263
21
1.44846662972766
31
0
210
0
220
0
230
1
40
0.992544
41
1.31274367489993
42
-1.31195871411386
0
ELLIPSE
5
1ED
100
AcDbEntity
8
1
62
256
6
ByLayer
370
18
48
1
60
0
100
AcDbEllipse
10
373.258489
20
-39.751853
30
0
11
8.31783432961691E-05
21
1.49999826561923
31
0
210
0
220
0
230
1
40
0.992547
41
2.34854905135505
42
-3.14153531665938
0
ELLIPSE
5
1EE
100
AcDbEntity
8
1
62
256
6
ByLayer
370
18
48
1
60
0
100
AcDbEllipse
10
373.258489
20
-39.751853
30
0
11
1.75718001594366E-15
21
1.50000000210785
31
0
210
0
220
0
230
1
40
0.99255
41
3.14159265358979
42
-2.94440448169397
0
ELLIPSE
5
1EF
100
AcDbEntity
8
1
62
256
6
ByLayer
370
18
48
1
60
0
100
AcDbEllipse
10
387.430229
20
-12.000003
30
0
11
-3.16083630879629E-05
21
10.0000045209986
31
0
210
0
220
0
230
1
40
0.104531
41
-2.58642064695654
42
-0.555086517115314
0
ELLIPSE
5
1F0
100
AcDbEntity
8
1
62
256
6
ByLayer
370
18
48
1
60
0
100
AcDbEllipse
10
396.201909
20
-12.000003
30
0
11
9.3716267385302E-15
21
8
31
0
210
0
220
0
230
1
40
0.10453
41
3.14159265358979
42
3.66579039836064E-07
0
ELLIPSE
5
1F1
100
AcDbEntity
8
1
62
256
6
ByLayer
370
18
48
1
60
0
100
AcDbEllipse
10
397.496279
20
11.999997
30
0
11
6.01518119907582E-06
21
4.67655579513266
31
0
210
0
220
0
230
1
40
0.104522
41
0.523596611939555
42
1.57079416313453
0
ELLIPSE
5
1F2
100
AcDbEntity
8
1
62
256
6
ByLayer
370
18
48
1
60
0
100
AcDbEllipse
10
397.496279
20
11.999997
30
0
11
-6.01518234687909E-06
21
4.67655579505582
31
0
210
0
220
0
230
1
40
0.104522
41
-0.523596611944266
42
0.523600939259794
0
ELLIPSE
5
1F3
100
AcDbEntity
8
1
62
256
6
ByLayer
370
18
48
1
60
0
100
AcDbEllipse
10
397.496279
20
11.999997
30
0
11
5.47834511044822E-15
21
4.67653718040197
31
0
210
0
220
0
230
1
40
0.10453
41
-1.5707963267949
42
-0.52359877559243
0
ELLIPSE
5
1F4
100
AcDbEntity
8
1
62
256
6
ByLayer
370
18
48
1
60
0
100
AcDbEllipse
10
397.496279
20
11.999997
30
0
11
6.01518120011421E-06
21
4.67655579513265
31
0
210
0
220
0
230
1
40
0.104522
41
-2.61799604165024
42
-1.57079849045526
0
ELLIPSE
5
1F5
100
AcDbEntity
8
1
62
256
6
ByLayer
370
18
48
1
60
0
100
AcDbEllipse
10
397.496279
20
11.999997
30
0
11
-6.01518234687905E-06
21
4.67655579505579
31
0
210
0
220
0
230
1
40
0.104522
41
2.61799604164552
42
-2.61799171433
0
ELLIPSE
5
1F6
100
AcDbEntity
8
1
62
256
6
ByLayer
370
18
48
1
60
0
100
AcDbEllipse
10
397.496279
20
11.999997
30
0
11
5.47834511044821E-15
21
4.67653718040196
31
0
210
0
220
0
230
1
40
0.10453
41
1.5707963267949
42
2.61799387799737
0
ELLIPSE
5
1F7
100
AcDbEntity
8
1
62
256
6
ByLayer
370
18
48
1
60
0
100
AcDbEllipse
10
396.501759
20
11.999997
30
0
11
9.3716267385302E-15
21
8
31
0
210
0
220
0
230
1
40
0.10453
41
0
42
3.1414949607678
0
ELLIPSE
5
1F8
100
AcDbEntity
8
1
62
256
6
ByLayer
370
18
48
1
60
0
100
AcDbEllipse
10
397.496279
20
11.999997
30
0
11
8.20017339616493E-15
21
6.99999999995817
31
0
210
0
220
0
230
1
40
0.10453
41
0
42
1.01434176806263
0
ELLIPSE
5
1F9
100
AcDbEntity
8
1
62
256
6
ByLayer
370
18
48
1
60
0
100
AcDbEllipse
10
397.496279
20
11.999997
30
0
11
-5.58756456979649E-06
21
6.99998554262267
31
0
210
0
220
0
230
1
40
0.10453
41
1.01433918979844
42
2.12508858355143
0
ELLIPSE
5
1FA
100
AcDbEntity
8
1
62
256
6
ByLayer
370
18
48
1
60
0
100
AcDbEllipse
10
397.496279
20
11.999997
30
0
11
-5.351898612288E-06
21
6.99997503970548
31
0
210
0
220
0
230
1
40
0.104532
41
2.12508876215999
42
-2.35157715870664E-06
0
POINT
5
70
100
AcDbEntity
8
80
62
256
6
ByLayer
370
13
48
1
60
0
100
AcDbPoint
10
0
20
0
30
0
39
0
210
0
220
0
230
1
50
360
0
POINT
5
72
100
AcDbEntity
8
81
62
256
6
ByLayer
370
18
48
1
60
0
100
AcDbPoint
10
400.004125
20
51.236913
30
0
39
0
210
0
220
0
230
1
50
360
0
POINT
5
74
100
AcDbEntity
8
1
62
256
6
ByLayer
370
18
48
1
60
1
100
AcDbPoint
10
400.004125
20
-51.236606
30
0
39
0
210
0
220
0
230
1
50
360
0
POINT
5
76
100
AcDbEntity
8
1
62
256
6
ByLayer
370
18
48
1
60
1
100
AcDbPoint
10
400.004125
20
-51.236606
30
0
39
0
210
0
220
0
230
1
50
360
0
POINT
5
77
100
AcDbEntity
8
1
62
256
6
ByLayer
370
18
48
1
60
0
100
AcDbPoint
10
400.004125
20
51.236913
30
0
39
0
210
0
220
0
230
1
50
360
0
POINT
5
78
100
AcDbEntity
8
1
62
256
6
ByLayer
370
18
48
1
60
1
100
AcDbPoint
10
400.004125
20
-51.236606
30
0
39
0
210
0
220
0
230
1
50
360
0
SPLINE
5
1FB
100
AcDbEntity
8
SK1
62
256
6
ByLayer
370
18
48
1
60
0
100
AcDbSpline
70
4
71
3
72
17
73
13
40
0
40
0
40
0
40
0
40
0.127259577323954
40
0.158885311267074
40
0.190826615845865
40
0.208383228790853
40
0.226003581982229
40
0.247383542230108
40
0.283324147741432
40
0.390031197100575
40
0.835242772351465
40
1
40
1
40
1
40
1
41
1
10
-0.194976888875296
20
6.03119978687535
30
0
41
1
10
-0.183426297029618
20
6.00095952450332
30
0
41
1
10
-0.163028065428033
20
5.97002530753709
30
0
41
1
10
-0.131477423235175
20
5.93993000207451
30
0
41
1
10
-0.114907299833727
20
5.93158487253852
30
0
41
1
10
-0.0994495206109475
20
5.93143973441832
30
0
41
1
10
-0.0866839324856234
20
5.93670835147546
30
0
41
1
10
-0.0724378201357999
20
5.94975835064558
30
0
41
1
10
-0.0500619718452645
20
5.98712413391576
30
0
41
1
10
-0.0096824509621846
20
6.13823959949836
30
0
41
1
10
-0.0029440580839342
20
6.32270439338664
30
0
41
1
10
0.0004212519689224
20
6.47681806715222
30
0
41
1
10
-3.07E-14
20
6.5183304588368
30
0
0
SPLINE
5
1FC
100
AcDbEntity
8
SK1
62
256
6
ByLayer
370
18
48
1
60
0
100
AcDbSpline
70
4
71
3
72
18
73
14
40
0
40
0
40
0
40
0
40
0.506853871489912
40
0.601090883348522
40
0.686521503830307
40
0.725582346400879
40
0.757850363272088
40
0.77668287578326
40
0.795658863308795
40
0.81244355044062
40
0.839766859864822
40
0.894022064644109
40
1
40
1
40
1
40
1
41
1
10
1E-16
20
-6.51832721803825
30
0
41
1
10
0.0063357698685414
20
-6.38969420379519
30
0
41
1
10
-0.003016600522728
20
-6.2365310087669
30
0
41
1
10
-0.0310799954739241
20
-6.06015059619368
30
0
41
1
10
-0.0455150307809328
20
-6.00425071358087
30
0
41
1
10
-0.061963286214358
20
-5.96624527810359
30
0
41
1
10
-0.0753632723398936
20
-5.94644942955684
30
0
41
1
10
-0.0892349256678116
20
-5.93518015784819
30
0
41
1
10
-0.101814014570546
20
-5.93105144926544
30
0
41
1
10
-0.116150429772289
20
-5.93229999018446
30
0
41
1
10
-0.136026553269811
20
-5.94244228505283
30
0
41
1
10
-0.165154688721222
20
-5.97507814108143
30
0
41
1
10
-0.185063726404034
20
-6.00664483685571
30
0
41
1
10
-0.194976888875293
20
-6.03119623886738
30
0
0
SPLINE
5
1FD
100
AcDbEntity
8
SK1
62
256
6
ByLayer
370
18
48
1
60
0
100
AcDbSpline
70
4
71
3
72
18
73
14
40
0
40
0
40
0
40
0
40
0.0888515267100024
40
0.164255403123273
40
0.195127782005972
40
0.226307786215176
40
0.253967513836013
40
0.286169290748849
40
0.34150879801041
40
0.425597558058146
40
0.510095611634554
40
0.754751907906751
40
1
40
1
40
1
40
1
41
1
10
-0.194976888875294
20
-6.03119623886735
30
0
41
1
10
-0.222599188104788
20
-6.0961085630961
30
0
41
1
10
-0.28871849589711
20
-6.20561485037662
30
0
41
1
10
-0.389136012465638
20
-6.32761815381548
30
0
41
1
10
-0.486056542719423
20
-6.38820460188175
30
0
41
1
10
-0.561590008480555
20
-6.40834159902315
30
0
41
1
10
-0.641226277989467
20
-6.3990387395187
30
0
41
1
10
-0.730015720044858
20
-6.35573978593995
30
0
41
1
10
-0.832077694034004
20
-6.25730770552576
30
0
41
1
10
-0.931096712470048
20
-6.10777743535178
30
0
41
1
10
-1.06875563668598
20
-5.81181473619426
30
0
41
1
10
-1.20433664088567
20
-5.378117096758
30
0
41
1
10
-1.28608430117326
20
-4.99769040809059
30
0
41
1
10
-1.31543506509497
20
-4.80312334332308
30
0
0
SPLINE
5
1FE
100
AcDbEntity
8
SK1
62
256
6
ByLayer
370
18
48
1
60
0
100
AcDbSpline
70
4
71
3
72
18
73
14
40
0
40
0
40
0
40
0
40
0.290471344033216
40
0.438632858047904
40
0.586306359527649
40
0.661378242883623
40
0.712105278866641
40
0.742728572986072
40
0.768112063174185
40
0.793537746570139
40
0.827212977192749
40
0.887043868031078
40
1
40
1
40
1
40
1
41
1
10
-1.31543506509497
20
4.80312611568495
30
0
41
1
10
-1.27840723314255
20
5.0332446868787
30
0
41
1
10
-1.20091426639424
20
5.37298898033909
30
0
41
1
10
-1.06696422177491
20
5.81538633945748
30
0
41
1
10
-0.946984360596875
20
6.0836290601912
30
0
41
1
10
-0.824654258992868
20
6.26525431524995
30
0
41
1
10
-0.730778295728145
20
6.35399927502759
30
0
41
1
10
-0.649763573460959
20
6.39557179665151
30
0
41
1
10
-0.579549346108421
20
6.40769723716792
30
0
41
1
10
-0.506794336038372
20
6.39641062068543
30
0
41
1
10
-0.417415827969567
20
6.35013033654681
30
0
41
1
10
-0.301642787239853
20
6.22863631270721
30
0
41
1
10
-0.228530000781273
20
6.11564886384976
30
0
41
1
10
-0.194976888875803
20
6.03119978686892
30
0
0
SPLINE
5
1FF
100
AcDbEntity
8
SK1
62
256
6
ByLayer
370
18
48
1
60
0
100
AcDbSpline
70
4
71
1
72
4
73
2
40
0
40
0
40
1
40
1
41
1
10
-0.194976888875295
20
21.8639496970129
30
0
41
1
10
-0.201669873511842
20
21.8637816825662
30
0
0
SPLINE
5
200
100
AcDbEntity
8
SK1
62
256
6
ByLayer
370
18
48
1
60
0
100
AcDbSpline
70
4
71
2
72
6
73
3
40
0
40
0
40
0
40
1
40
1
40
1
41
1
10
-0.201669873511842
20
21.8637816825662
30
0
41
1
10
-0.998354925716123
20
21.8437824437509
30
0
41
1
10
-1.7950399779393
20
21.8237832115739
30
0
0
SPLINE
5
201
100
AcDbEntity
8
SK1
62
256
6
ByLayer
370
18
48
1
60
0
100
AcDbSpline
70
4
71
3
72
12
73
8
40
0
40
0
40
0
40
0
40
0.179896741934778
40
0.359826223394639
40
0.543574945020387
40
0.727353759991715
40
1
40
1
40
1
40
1
41
1
10
-1.7950399779393
20
0.497941450131236
30
0
41
1
10
-1.78794224511863
20
0.765926007214105
30
0
41
1
10
-1.76471781628356
20
1.29902896195425
30
0
41
1
10
-1.70026992141902
20
2.09725507632498
30
0
41
1
10
-1.61184072285951
20
2.88876232043739
30
0
41
1
10
-1.48541656702587
20
3.79795417887154
30
0
41
1
10
-1.38236569412622
20
4.43063353332406
30
0
41
1
10
-1.31543506509497
20
4.80312611568495
30
0
0
SPLINE
5
202
100
AcDbEntity
8
SK1
62
256
6
ByLayer
370
18
48
1
60
0
100
AcDbSpline
70
4
71
2
72
6
73
3
40
0
40
0
40
0
40
1
40
1
40
1
41
1
10
-1.7950399779393
20
-0.497935257502391
30
0
41
1
10
-1.80760349038176
20
-0.0001358129938467
30
0
41
1
10
-1.7950399779393
20
0.497941450131435
30
0
0
SPLINE
5
203
100
AcDbEntity
8
SK1
62
256
6
ByLayer
370
18
48
1
60
0
100
AcDbSpline
70
4
71
3
72
11
73
7
40
0
40
0
40
0
40
0
40
0.358918887831491
40
0.54079809294616
40
0.722646194225652
40
1
40
1
40
1
40
1
41
1
10
-1.31543506509497
20
-4.80312334332308
30
0
41
1
10
-1.40457235685962
20
-4.31254396635073
30
0
41
1
10
-1.52355356310076
20
-3.55942860405523
30
0
41
1
10
-1.65530846581814
20
-2.52453547239988
30
0
41
1
10
-1.74735556879615
20
-1.59054232137524
30
0
41
1
10
-1.78340222482356
20
-0.911864749780207
30
0
41
1
10
-1.79503997793929
20
-0.497935257502249
30
0
0
SPLINE
5
204
100
AcDbEntity
8
SK1
62
256
6
ByLayer
370
18
48
1
60
0
100
AcDbSpline
70
4
71
2
72
6
73
3
40
0
40
0
40
0
40
1
40
1
40
1
41
1
10
-1.7950399779393
20
-21.8237832285766
30
0
41
1
10
-0.998137277254342
20
-21.8437879241029
30
0
41
1
10
-0.20123457658829
20
-21.8637926262713
30
0
0
SPLINE
5
205
100
AcDbEntity
8
SK1
62
256
6
ByLayer
370
18
48
1
60
0
100
AcDbSpline
70
4
71
1
72
4
73
2
40
0
40
0
40
1
40
1
41
1
10
-0.20123457658829
20
-21.8637926262713
30
0
41
1
10
-0.194976888875295
20
-21.8639497134275
30
0
0
SPLINE
5
206
100
AcDbEntity
8
SK1
62
256
6
ByLayer
370
18
48
1
60
0
100
AcDbSpline
70
4
71
2
72
6
73
3
40
0
40
0
40
0
40
1
40
1
40
1
41
1
10
-36.5
20
-21.1524613224033
30
0
41
1
10
-19.2499999976426
20
-21.5855495141177
30
0
41
1
10
-2
20
-22.0186362439356
30
0
0
SPLINE
5
207
100
AcDbEntity
8
SK1
62
256
6
ByLayer
370
18
48
1
60
0
100
AcDbSpline
70
4
71
2
72
6
73
3
40
0
40
0
40
0
40
1
40
1
40
1
41
1
10
-2
20
22.018635875508
30
0
41
1
10
-19.2499999976431
20
21.5855491455244
30
0
41
1
10
-36.5
20
21.1524609537578
30
0
0
SPLINE
5
208
100
AcDbEntity
8
SK1
62
256
6
ByLayer
370
18
48
1
60
0
100
AcDbSpline
70
4
71
3
72
13
73
9
40
0
40
0
40
0
40
0
40
0.239406675533053
40
0.368294170919212
40
0.499927912611387
40
0.631573622065748
40
0.760494133568921
40
1
40
1
40
1
40
1
41
1
10
-2
20
-22.0251209952818
30
0
41
1
10
-1.99909122095
20
-21.9990737575566
30
0
41
1
10
-1.99103207881226
20
-21.9617163884142
30
0
41
1
10
-1.96563491014865
20
-21.9155180963752
30
0
41
1
10
-1.93886244237071
20
-21.8842503451973
30
0
41
1
10
-1.90627568046549
20
-21.8590943224455
30
0
41
1
10
-1.85883864366618
20
-21.8360608861174
30
0
41
1
10
-1.82110926269925
20
-21.8298912593851
30
0
41
1
10
-1.7950399779393
20
-21.8302933674113
30
0
0
SPLINE
5
209
100
AcDbEntity
8
SK1
62
256
6
ByLayer
370
18
48
1
60
0
100
AcDbSpline
70
4
71
3
72
13
73
9
40
0
40
0
40
0
40
0
40
0.255492291064396
40
0.393017928186245
40
0.53345066361664
40
0.673870632610641
40
0.811361050267715
40
1
40
1
40
1
40
1
41
1
10
-1.7950399779393
20
21.8302932076065
30
0
41
1
10
-1.82110926271048
20
21.8298910995853
30
0
41
1
10
-1.85883852485428
20
21.8360604318783
30
0
41
1
10
-1.90627589658554
20
21.8590946982961
30
0
41
1
10
-1.93886160364817
20
21.8842481072779
30
0
41
1
10
-1.96563801376328
20
21.9155256277306
30
0
41
1
10
-1.98784027487073
20
21.9559016062705
30
0
41
1
10
-1.9960846423147
20
21.9865731824641
30
0
41
1
10
-1.99851762354564
20
22.0053374231918
30
0
0
SPLINE
5
20A
100
AcDbEntity
8
SK1
62
256
6
ByLayer
370
18
48
1
60
0
100
AcDbSpline
70
4
71
1
72
4
73
2
40
0
40
0
40
1
40
1
41
1
10
-1.99851762354564
20
22.0053374231918
30
0
41
1
10
-2
20
22.0251208364275
30
0
0
SPLINE
5
20B
100
AcDbEntity
8
SK1
62
256
6
ByLayer
370
18
48
1
60
0
100
AcDbSpline
70
4
71
2
72
6
73
3
40
0
40
0
40
0
40
1
40
1
40
1
41
1
10
-38
20
-20.2898800072422
30
0
41
1
10
-37.2499998580851
20
-20.7226367943926
30
0
41
1
10
-36.5
20
-21.15539096789
30
0
0
SPLINE
5
20C
100
AcDbEntity
8
SK1
62
256
6
ByLayer
370
18
48
1
60
0
100
AcDbSpline
70
4
71
1
72
4
73
2
40
0
40
0
40
1
40
1
41
1
10
-36.5
20
21.155390865424
30
0
41
1
10
-36.5166992895936
20
21.1457552803174
30
0
0
SPLINE
5
20D
100
AcDbEntity
8
SK1
62
256
6
ByLayer
370
18
48
1
60
0
100
AcDbSpline
70
4
71
2
72
6
73
3
40
0
40
0
40
0
40
1
40
1
40
1
41
1
10
-36.5166992895936
20
21.1457552803174
30
0
41
1
10
-37.2583495060209
20
20.7178188686869
30
0
41
1
10
-38
20
20.2898799013383
30
0
0
SPLINE
5
20E
100
AcDbEntity
8
SK1
62
256
6
ByLayer
370
18
48
1
60
0
100
AcDbSpline
70
4
71
3
72
21
73
17
40
0
40
0
40
0
40
0
40
0.0495899333459825
40
0.0592044169432034
40
0.0673022526242118
40
0.0708985575744994
40
0.0743376330508805
40
0.0778074479920007
40
0.0815338686009499
40
0.090591181320804
40
0.10298280100727
40
0.141338446973533
40
0.28186160443508
40
0.582201420529027
40
0.972242870359351
40
1
40
1
40
1
40
1
41
1
10
-0.194976888875295
20
-21.8704747460203
30
0
41
1
10
-0.186182501791891
20
-21.8699445683726
30
0
41
1
10
-0.17154828549018
20
-21.8717472782217
30
0
41
1
10
-0.150856523525053
20
-21.8763513619927
30
0
41
1
10
-0.142866340725825
20
-21.8785601272881
30
0
41
1
10
-0.136447406167045
20
-21.8806137244586
30
0
41
1
10
-0.13176952514449
20
-21.8822427935005
30
0
41
1
10
-0.127085340084953
20
-21.884010627338
30
0
41
1
10
-0.120485876857754
20
-21.8866999918401
30
0
41
1
10
-0.112329672228645
20
-21.8904493493453
30
0
41
1
10
-0.0987806208760321
20
-21.8975497470643
30
0
41
1
10
-0.0740470635956882
20
-21.9136658855556
30
0
41
1
10
-0.0464934083086017
20
-21.9390343257356
30
0
41
1
10
-0.019489179590848
20
-21.9709792410289
30
0
41
1
10
-0.0092504111498274
20
-21.9862595349466
30
0
41
1
10
-0.0053511045146436
20
-21.9914903698336
30
0
41
1
10
-0.0051065736701376
20
-21.9918202858042
30
0
0
SPLINE
5
20F
100
AcDbEntity
8
SK1
62
256
6
ByLayer
370
18
48
1
60
0
100
AcDbSpline
70
4
71
3
72
23
73
19
40
0
40
0
40
0
40
0
40
0.28304504385969
40
0.434500066552981
40
0.558820099471597
40
0.652162919080324
40
0.716534253018835
40
0.755619911899764
40
0.767146843352136
40
0.771317865203863
40
0.774713802757011
40
0.77770117492993
40
0.780734414953937
40
0.784199084421296
40
0.788321409297047
40
0.81251772518396
40
0.893813313089253
40
1
40
1
40
1
40
1
41
1
10
-0.0047763033084373
20
22.0061144692762
30
0
41
1
10
-0.0063843819434313
20
22.0044744289982
30
0
41
1
10
-0.0110957746458498
20
21.9975316599118
30
0
41
1
10
-0.0205018154659726
20
21.9806942619777
30
0
41
1
10
-0.0298719064620192
20
21.9649134670329
30
0
41
1
10
-0.0407981122804951
20
21.9483903196927
30
0
41
1
10
-0.0535392826676196
20
21.9324226516351
30
0
41
1
10
-0.0655912286180381
20
21.919622954286
30
0
41
1
10
-0.0771512756453325
20
21.9097983888212
30
0
41
1
10
-0.0832445252602935
20
21.9051748758815
30
0
41
1
10
-0.0875273782104164
20
21.9021301324224
30
0
41
1
10
-0.0920548614190081
20
21.8991277142948
30
0
41
1
10
-0.096576470524687
20
21.8963394751228
30
0
41
1
10
-0.100963665143156
20
21.8938204965258
30
0
41
1
10
-0.111968639566
20
21.8879502253298
30
0
41
1
10
-0.135403612371245
20
21.8784994677196
30
0
41
1
10
-0.16264258249926
20
21.8728904560893
30
0
41
1
10
-0.185257693776647
20
21.8698414257539
30
0
41
1
10
-0.194976888875295
20
21.8704745864116
30
0
0
SPLINE
5
210
100
AcDbEntity
8
SK1
62
256
6
ByLayer
370
18
48
1
60
0
100
AcDbSpline
70
4
71
1
72
4
73
2
40
0
40
0
40
1
40
1
41
1
10
-0.0026992623147939
20
22.0073135532977
30
0
41
1
10
-0.0032452732488538
20
22.0071939835325
30
0
0
SPLINE
5
211
100
AcDbEntity
8
1
62
256
6
ByLayer
370
18
48
1
60
0
100
AcDbSpline
70
4
71
3
72
17
73
13
40
0
40
0
40
0
40
0
40
0.089993285763953
40
0.198578702639491
40
0.306869402228067
40
0.414352698025742
40
0.520679435318399
40
0.626210307102401
40
0.731914242711819
40
0.838605540687274
40
0.946381802430147
40
1
40
1
40
1
40
1
41
1
10
349.210359759703
20
-29.2062918255204
30
0
41
1
10
349.211584770724
20
-29.1225573338438
30
0
41
1
10
349.276434420831
20
-28.9429071571494
30
0
41
1
10
349.601658098388
20
-28.6664811608656
30
0
41
1
10
350.162403810142
20
-28.4287709533651
30
0
41
1
10
350.873826619108
20
-28.2799945011052
30
0
41
1
10
351.650906198443
20
-28.2440637394728
30
0
41
1
10
352.406151828614
20
-28.3241745168756
30
0
41
1
10
353.060106650385
20
-28.5065183115918
30
0
41
1
10
353.543697043667
20
-28.7635559573217
30
0
41
1
10
353.757905088035
20
-29.0113744822697
30
0
41
1
10
353.789432867841
20
-29.1573545836521
30
0
41
1
10
353.789641051813
20
-29.2062918255204
30
0
0
SPLINE
5
212
100
AcDbEntity
8
1
62
256
6
ByLayer
370
18
48
1
60
0
100
AcDbSpline
70
4
71
3
72
9
73
5
40
0
40
0
40
0
40
0
40
0.653474123081123
40
1
40
1
40
1
40
1
41
1
10
353.789641051813
20
-29.2062918255204
30
0
41
1
10
353.789410579245
20
-29.2565348214261
30
0
41
1
10
353.77243745684
20
-29.330714617002
30
0
41
1
10
353.728795431684
20
-29.4020609349796
30
0
41
1
10
353.710570157965
20
-29.426337903619
30
0
0
SPLINE
5
213
100
AcDbEntity
8
1
62
256
6
ByLayer
370
18
48
1
60
0
100
AcDbSpline
70
4
71
3
72
9
73
5
40
0
40
0
40
0
40
0
40
0.838258872458416
40
1
40
1
40
1
40
1
41
1
10
349.359076233874
20
-29.5034167222112
30
0
41
1
10
349.276852788161
20
-29.4264136864228
30
0
41
1
10
349.218308029241
20
-29.326620360765
30
0
41
1
10
349.210366373059
20
-29.2231933225987
30
0
41
1
10
349.210359759703
20
-29.2062918255204
30
0
0
SPLINE
5
214
100
AcDbEntity
8
1
62
256
6
ByLayer
370
18
48
1
60
0
100
AcDbSpline
70
4
71
3
72
18
73
14
40
0
40
0
40
0
40
0
40
0.034485576638519
40
0.143096710002214
40
0.251611412775257
40
0.359595071861198
40
0.466540505674694
40
0.572400943199156
40
0.67790337435933
40
0.784046166660553
40
0.891320093818989
40
0.999495669272839
40
1
40
1
40
1
40
1
41
1
10
353.789641051813
20
11.8001072859346
30
0
41
1
10
353.789592752014
20
11.7228178726676
30
0
41
1
10
353.771584401568
20
11.4054467778287
30
0
41
1
10
353.604697382432
20
10.8493205572598
30
0
41
1
10
353.147999714257
20
10.2364718988263
30
0
41
1
10
352.503773068386
20
9.80035362776658
30
0
41
1
10
351.749178339083
20
9.59509890332748
30
0
41
1
10
350.972177066238
20
9.6412638564866
30
0
41
1
10
350.257157854566
20
9.9286408380396
30
0
41
1
10
349.678473889631
20
10.4234525637821
30
0
41
1
10
349.299374408951
20
11.0704906630789
30
0
41
1
10
349.210560592179
20
11.5572150041933
30
0
41
1
10
349.210359759449
20
11.7989852394008
30
0
41
1
10
349.210359759703
20
11.8001072859346
30
0
0
SPLINE
5
215
100
AcDbEntity
8
1
62
256
6
ByLayer
370
18
48
1
60
0
100
AcDbSpline
70
4
71
3
72
17
73
13
40
0
40
0
40
0
40
0
40
0.108047780972668
40
0.216604667351894
40
0.324791066499747
40
0.395033517791668
40
0.500604077895037
40
0.606179619022317
40
0.711764088957372
40
0.818228329798472
40
0.92581564475814
40
1
40
1
40
1
40
1
41
1
10
349.210359759703
20
11.8001072859346
30
0
41
1
10
349.212681124586
20
12.050185409894
30
0
41
1
10
349.297535974238
20
12.5193895366888
30
0
41
1
10
349.68183787617
20
13.1595257541538
30
0
41
1
10
350.206373201928
20
13.5812450009589
30
0
41
1
10
350.8253391337
20
13.8483124497925
30
0
41
1
10
351.50476742144
20
13.9513357357307
30
0
41
1
10
352.267973044063
20
13.8330626497047
30
0
41
1
10
352.946845452243
20
13.4931623467786
30
0
41
1
10
353.467531944196
20
12.9659938176426
30
0
41
1
10
353.739985526665
20
12.3669451507942
30
0
41
1
10
353.789015058961
20
11.9688197036339
30
0
41
1
10
353.789641051813
20
11.8001072859346
30
0
0
SPLINE
5
216
100
AcDbEntity
8
1
62
256
6
ByLayer
370
18
48
1
60
0
100
AcDbSpline
70
2053
71
3
72
29
73
25
40
0
40
0
40
0
40
0
40
0.252205668163648
40
0.252205668163648
40
0.252205668163648
40
0.43497971637153
40
0.43497971637153
40
0.528993882852176
40
0.528993882852176
40
0.528993882852176
40
0.592089552985662
40
0.592089552985662
40
0.592089552985662
40
0.650942105028009
40
0.650942105028009
40
0.709535675921057
40
0.709535675921057
40
0.778524880359647
40
0.778524880359647
40
0.847947090434563
40
0.847947090434563
40
0.916743894459627
40
0.916743894459627
40
1
40
1
40
1
40
1
41
1
10
365.188557266526
20
0.73599403678449
30
0
41
1
10
364.868696902719
20
0.73599403678449
30
0
41
1
10
364.548836538911
20
0.73599403678449
30
0
41
1
10
364.228976175104
20
0.73599403678449
30
0
41
1
10
364.228976175104
20
0.486825451468604
30
0
41
1
10
364.228976175104
20
0.237656866152605
30
0
41
1
10
364.228976175104
20
-0.139677490460286
30
0
41
1
10
364.233260019262
20
-0.229470276338986
30
0
41
1
10
364.242541681604
20
-0.281657536507907
30
0
41
1
10
364.257535136158
20
-0.372985241803406
30
0
41
1
10
364.283238201107
20
-0.44896375293149
30
0
41
1
10
364.318936902424
20
-0.510360529600689
30
0
41
1
10
364.353921629716
20
-0.571757306270001
30
0
41
1
10
364.40604173364
20
-0.622409647022096
30
0
41
1
10
364.541398323021
20
-0.702049841621886
30
0
41
1
10
364.620233941547
20
-0.721411949401187
30
0
41
1
10
364.813006928663
20
-0.721411949401187
30
0
41
1
10
364.90368163001
20
-0.693015940191685
30
0
41
1
10
365.0569515606
20
-0.577535716131905
30
0
41
1
10
365.110734097653
20
-0.498848633975285
30
0
41
1
10
365.17328080396
20
-0.295623892062707
30
0
41
1
10
365.188557266526
20
-0.148887006960706
30
0
41
1
10
365.188557266526
20
0.273471652543009
30
0
41
1
10
365.188557266526
20
0.504732844663806
30
0
41
1
10
365.188557266526
20
0.73599403678449
30
0
0
SPLINE
5
217
100
AcDbEntity
8
1
62
256
6
ByLayer
370
18
48
1
60
0
100
AcDbSpline
70
2053
71
3
72
25
73
21
40
0
40
0
40
0
40
0
40
0.149599987827387
40
0.149599987827387
40
0.149599987827387
40
0.256674090790135
40
0.256674090790135
40
0.343624337522297
40
0.343624337522297
40
0.457457618514391
40
0.457457618514391
40
0.572716765856864
40
0.572716765856864
40
0.68124545204065
40
0.68124545204065
40
0.790566167519843
40
0.790566167519843
40
0.899027585080467
40
0.899027585080467
40
1
40
1
40
1
40
1
41
1
10
366.361616591829
20
0.73599403678449
30
0
41
1
10
366.080310825445
20
0.73599403678449
30
0
41
1
10
365.799005059061
20
0.73599403678449
30
0
41
1
10
365.517699292676
20
0.73599403678449
30
0
41
1
10
365.517699292676
20
0.519570399025497
30
0
41
1
10
365.517699292676
20
0.303146761266504
30
0
41
1
10
365.517699292676
20
-0.089025149708192
30
0
41
1
10
365.529122877098
20
-0.2148885418801
30
0
41
1
10
365.578583653497
20
-0.39210858831251
30
0
41
1
10
365.62479539663
20
-0.468917705348986
30
0
41
1
10
365.754115607587
20
-0.57085685392309
30
0
41
1
10
365.835417734405
20
-0.596316016937692
30
0
41
1
10
366.025334825415
20
-0.596316016937692
30
0
41
1
10
366.107441838446
20
-0.572524765978301
30
0
41
1
10
366.247891376274
20
-0.4770125107664
30
0
41
1
10
366.296644955431
20
-0.4090558480965
30
0
41
1
10
366.347849050516
20
-0.231704965027689
30
0
41
1
10
366.361616591829
20
-0.0790481734993875
30
0
41
1
10
366.361616591829
20
0.335891708823397
30
0
41
1
10
366.361616591829
20
0.535942872804014
30
0
41
1
10
366.361616591829
20
0.73599403678449
30
0
0
SPLINE
5
218
100
AcDbEntity
8
1
62
256
6
ByLayer
370
18
48
1
60
0
100
AcDbSpline
70
2053
71
3
72
37
73
33
40
0
40
0
40
0
40
0
40
0.0981240794758153
40
0.0981240794758153
40
0.0981240794758153
40
0.355378959872168
40
0.355378959872168
40
0.355378959872168
40
0.451923577304107
40
0.451923577304107
40
0.510758538438499
40
0.510758538438499
40
0.569867690775411
40
0.569867690775411
40
0.628976843112323
40
0.628976843112323
40
0.683817001113791
40
0.683817001113791
40
0.738492491342542
40
0.738492491342542
40
0.738492491342542
40
0.788549823638082
40
0.788549823638082
40
0.838607155933623
40
0.838607155933623
40
0.878784751591886
40
0.878784751591886
40
0.919168762247343
40
0.919168762247343
40
0.959723168226789
40
0.959723168226789
40
1
40
1
40
1
40
1
41
1
10
363.899834148954
20
-0.011511719163309
30
0
41
1
10
363.899834148954
20
0.369915755894311
30
0
41
1
10
363.899834148954
20
0.75134323095179
30
0
41
1
10
363.899834148954
20
1.13277070600941
30
0
41
1
10
364.830142305295
20
1.13277070600941
30
0
41
1
10
365.760450461637
20
1.13277070600941
30
0
41
1
10
366.690758617979
20
1.13277070600941
30
0
41
1
10
366.690758617979
20
0.757482908618812
30
0
41
1
10
366.690758617979
20
0.3821951112281
30
0
41
1
10
366.690758617979
20
-0.221795679255394
30
0
41
1
10
366.662199656925
20
-0.405986009263103
30
0
41
1
10
366.549128898917
20
-0.682915297103307
30
0
41
1
10
366.462286929545
20
-0.791250782862505
30
0
41
1
10
366.228103448901
20
-0.947812563368984
30
0
41
1
10
366.105299916367
20
-0.98695300849559
30
0
41
1
10
365.857550929222
20
-0.98695300849559
30
0
41
1
10
365.745457007084
20
-0.952417321619208
30
0
41
1
10
365.534437983571
20
-0.812949358781708
30
0
41
1
10
365.449157786146
20
-0.708365134358985
30
0
41
1
10
365.384900123774
20
-0.567920007728191
30
0
41
1
10
365.334921941929
20
-0.749040498902389
30
0
41
1
10
365.250673006819
20
-0.888718165824884
30
0
41
1
10
365.012205682016
20
-1.08365293174958
30
0
41
1
10
364.871552798824
20
-1.13277035308499
30
0
41
1
10
364.578109473992
20
-1.13277035308499
30
0
41
1
10
364.456733889511
20
-1.10283942445881
30
0
41
1
10
364.231970155458
20
-0.984347028079696
30
0
41
1
10
364.14544121402
20
-0.910974497367505
30
0
41
1
10
364.023809564927
20
-0.735624528940605
30
0
41
1
10
363.977657317826
20
-0.627014405272291
30
0
41
1
10
363.915042622167
20
-0.363911759221196
30
0
41
1
10
363.899834148954
20
-0.201841726837898
30
0
41
1
10
363.899834148954
20
-0.011511719163309
30
0
0
SPLINE
5
219
100
AcDbEntity
8
1
62
256
6
ByLayer
370
18
48
1
60
0
100
AcDbSpline
70
4
71
3
72
17
73
13
40
0
40
0
40
0
40
0
40
0.089993285763953
40
0.198578702639491
40
0.306869402228067
40
0.414352698025742
40
0.520679435318399
40
0.626210307102401
40
0.731914242711819
40
0.838605540687274
40
0.946381802430147
40
1
40
1
40
1
40
1
41
1
10
349.210359248948
20
-29.2062912423916
30
0
41
1
10
349.211584259969
20
-29.122556750715
30
0
41
1
10
349.276433910076
20
-28.9429065740206
30
0
41
1
10
349.601657587633
20
-28.6664805777368
30
0
41
1
10
350.162403299388
20
-28.4287703702364
30
0
41
1
10
350.873826108353
20
-28.2799939179764
30
0
41
1
10
351.650905687688
20
-28.244063156344
30
0
41
1
10
352.406151317859
20
-28.3241739337468
30
0
41
1
10
353.06010613963
20
-28.506517728463
30
0
41
1
10
353.543696532912
20
-28.7635553741929
30
0
41
1
10
353.75790457728
20
-29.0113738991409
30
0
41
1
10
353.789432357086
20
-29.1573540005233
30
0
41
1
10
353.789640541058
20
-29.2062912423916
30
0
0
SPLINE
5
21A
100
AcDbEntity
8
1
62
256
6
ByLayer
370
18
48
1
60
0
100
AcDbSpline
70
4
71
3
72
9
73
5
40
0
40
0
40
0
40
0
40
0.572159628500107
40
1
40
1
40
1
40
1
41
1
10
353.789640541058
20
-29.2062912423916
30
0
41
1
10
353.78941006849
20
-29.2565342382973
30
0
41
1
10
353.770024750605
20
-29.3412563585758
30
0
41
1
10
353.715851588601
20
-29.4222823921451
30
0
41
1
10
353.686587323237
20
-29.4559744508465
30
0
0
SPLINE
5
21B
100
AcDbEntity
8
1
62
256
6
ByLayer
370
18
48
1
60
0
100
AcDbSpline
70
4
71
3
72
9
73
5
40
0
40
0
40
0
40
0
40
0.814696072001806
40
1
40
1
40
1
40
1
41
1
10
349.323954346442
20
-29.4679290527702
30
0
41
1
10
349.262781660988
20
-29.4009753925093
30
0
41
1
10
349.217297676645
20
-29.3134682449707
30
0
41
1
10
349.210365862304
20
-29.2231927394699
30
0
41
1
10
349.210359248948
20
-29.2062912423916
30
0
0
SPLINE
5
21C
100
AcDbEntity
8
1
62
256
6
ByLayer
370
18
48
1
60
0
100
AcDbSpline
70
4
71
3
72
8
73
4
40
0
40
0
40
0
40
0
40
1
40
1
40
1
40
1
41
1
10
386.46919978944
20
45.5300562311625
30
0
41
1
10
386.457320574428
20
45.5451001554989
30
0
41
1
10
386.445445240625
20
45.5601340631036
30
0
41
1
10
386.433573419107
20
45.5751589171766
30
0
0
SPLINE
5
21D
100
AcDbEntity
8
1
62
256
6
ByLayer
370
18
48
1
60
0
100
AcDbSpline
70
4
71
3
72
21
73
17
40
0
40
0
40
0
40
0
40
0.250000000000017
40
0.250000000000017
40
0.375000000000024
40
0.375000000000024
40
0.437500000000022
40
0.437500000000022
40
0.50000000000002
40
0.50000000000002
40
0.750000000000015
40
0.750000000000015
40
0.812500000000012
40
0.812500000000012
40
0.875000000000008
40
1
40
1
40
1
40
1
41
1
10
388.48630357153
20
25.2112961092866
30
0
41
1
10
388.496485530146
20
25.2702781642183
30
0
41
1
10
388.507415306884
20
25.3279962401036
30
0
41
1
10
388.524799838586
20
25.4127932521007
30
0
41
1
10
388.530759456164
20
25.4407597922309
30
0
41
1
10
388.539926176296
20
25.4822537237922
30
0
41
1
10
388.543017144794
20
25.4959960364328
30
0
41
1
10
388.549194872761
20
25.5230011048703
30
0
41
1
10
388.552290758328
20
25.5363055263022
30
0
41
1
10
388.56778880931
20
25.6018575198591
30
0
41
1
10
388.580253484858
20
25.651229333271
30
0
41
1
10
388.595596601233
20
25.7090822200181
30
0
41
1
10
388.598659395705
20
25.7204811434023
30
0
41
1
10
388.604700653755
20
25.7426982796212
30
0
41
1
10
388.61364643281
20
25.7751938984298
30
0
41
1
10
388.622204042894
20
25.8052243335254
30
0
41
1
10
388.627693145734
20
25.8241316637818
30
0
0
SPLINE
5
21E
100
AcDbEntity
8
1
62
256
6
ByLayer
370
18
48
1
60
0
100
AcDbSpline
70
4
71
3
72
15
73
11
40
0
40
0
40
0
40
0
40
0.25
40
0.25
40
0.5
40
0.75
40
0.75
40
0.875
40
0.875
40
1
40
1
40
1
40
1
41
1
10
385.504020077566
20
44.4288654606873
30
0
41
1
10
385.491243697803
20
44.3709801072371
30
0
41
1
10
385.481743709932
20
44.3129331674727
30
0
41
1
10
385.469055420843
20
44.1965332721273
30
0
41
1
10
385.462680895843
20
44.0798272251023
30
0
41
1
10
385.468906504135
20
43.9625138229694
30
0
41
1
10
385.478461179074
20
43.8742919162875
30
0
41
1
10
385.482460673538
20
43.8448904497725
30
0
41
1
10
385.492043392879
20
43.7864628525607
30
0
41
1
10
385.497631796434
20
43.7573844565007
30
0
41
1
10
385.504020077566
20
43.7284413663509
30
0
0
SPLINE
5
21F
100
AcDbEntity
8
1
62
256
6
ByLayer
370
18
48
1
60
0
100
AcDbSpline
70
4
71
3
72
17
73
13
40
0
40
0
40
0
40
0
40
0.249999999999999
40
0.249999999999999
40
0.499999999999998
40
0.499999999999998
40
0.562499999999998
40
0.562499999999998
40
0.624999999999998
40
0.749999999999999
40
0.749999999999999
40
1
40
1
40
1
40
1
41
1
10
383.950346464035
20
50.0603694291892
30
0
41
1
10
384.10506129556
20
50.0867451075727
30
0
41
1
10
384.2637682105
20
50.1107732529676
30
0
41
1
10
384.591375981426
20
50.1535144181642
30
0
41
1
10
384.760263204796
20
50.1722342392559
30
0
41
1
10
384.979698116122
20
50.1916925012632
30
0
41
1
10
385.02403189511
20
50.1953879591215
30
0
41
1
10
385.113485162302
20
50.2023518969975
30
0
41
1
10
385.248158291312
20
50.2121043994153
30
0
41
1
10
385.384361946385
20
50.2197391307002
30
0
41
1
10
385.658946175766
20
50.2320677462302
30
0
41
1
10
385.844906734226
20
50.2363725069678
30
0
41
1
10
386.034124596038
20
50.2363725069678
30
0
0
SPLINE
5
220
100
AcDbEntity
8
1
62
256
6
ByLayer
370
18
48
1
60
0
100
AcDbSpline
70
4
71
3
72
26
73
22
40
0
40
0
40
0
40
0
40
0.125000000000001
40
0.250000000000002
40
0.250000000000002
40
0.312500000000001
40
0.312500000000001
40
0.375
40
0.375
40
0.499999999999998
40
0.499999999999998
40
0.562499999999997
40
0.562499999999997
40
0.624999999999997
40
0.624999999999997
40
0.749999999999997
40
0.874999999999998
40
0.874999999999998
40
0.937499999999999
40
0.937499999999999
40
1
40
1
40
1
40
1
41
1
10
385.504020077566
20
50.1610673220264
30
0
41
1
10
385.466426812192
20
50.159405065899
30
0
41
1
10
385.392156215793
20
50.1557209656599
30
0
41
1
10
385.319639870776
20
50.1513665233276
30
0
41
1
10
385.265919744825
20
50.147867009215
30
0
41
1
10
385.24807314328
20
50.146657910856
30
0
41
1
10
385.2128484037
20
50.1441817672924
30
0
41
1
10
385.195560120521
20
50.1429213588822
30
0
41
1
10
385.144641849448
20
50.1390841651024
30
0
41
1
10
385.111953994844
20
50.1364512876055
30
0
41
1
10
385.064791217767
20
50.1324348068845
30
0
41
1
10
385.049382914358
20
50.131084807123
30
0
41
1
10
385.019202449122
20
50.1283704740439
30
0
41
1
10
385.004373980077
20
50.1270007225066
30
0
41
1
10
384.961373241622
20
50.1229306482986
30
0
41
1
10
384.90797696686
20
50.1176108207077
30
0
41
1
10
384.862207916227
20
50.1126395230684
30
0
41
1
10
384.83081886262
20
50.1090987893538
30
0
41
1
10
384.820828763342
20
50.1079476694658
30
0
41
1
10
384.802041652015
20
50.1057399166341
30
0
41
1
10
384.793224060979
20
50.1046810601189
30
0
41
1
10
384.784984840526
20
50.1036713301149
30
0
0
SPLINE
5
221
100
AcDbEntity
8
1
62
256
6
ByLayer
370
18
48
1
60
0
100
AcDbSpline
70
4
71
3
72
40
73
36
40
0
40
0
40
0
40
0
40
0.0625000000000014
40
0.0625000000000014
40
0.0937500000000017
40
0.0937500000000017
40
0.125000000000002
40
0.125000000000002
40
0.187500000000002
40
0.187500000000002
40
0.250000000000002
40
0.250000000000002
40
0.312500000000001
40
0.312500000000001
40
0.375000000000001
40
0.375000000000001
40
0.500000000000001
40
0.500000000000001
40
0.562500000000001
40
0.562500000000001
40
0.625000000000001
40
0.625000000000001
40
0.6875
40
0.6875
40
0.75
40
0.75
40
0.8125
40
0.8125
40
0.875
40
0.875
40
0.90625
40
0.90625
40
0.9375
40
0.9375
40
1
40
1
40
1
40
1
41
1
10
394.200317116022
20
42.5233293941083
30
0
41
1
10
394.214330174614
20
42.5310919945146
30
0
41
1
10
394.229484137225
20
42.5363002781912
30
0
41
1
10
394.253381792294
20
42.5415832669541
30
0
41
1
10
394.261573747806
20
42.5429091804387
30
0
41
1
10
394.278081684461
20
42.5447760400246
30
0
41
1
10
394.286421529037
20
42.5453242252677
30
0
41
1
10
394.311672884024
20
42.5459749693214
30
0
41
1
10
394.328776356274
20
42.5450852658913
30
0
41
1
10
394.363057209234
20
42.5412473439463
30
0
41
1
10
394.38027153611
20
42.5382928681814
30
0
41
1
10
394.414587248429
20
42.5306928324004
30
0
41
1
10
394.431701635695
20
42.5260421264359
30
0
41
1
10
394.465605026216
20
42.5153214918819
30
0
41
1
10
394.482461570039
20
42.5092303231768
30
0
41
1
10
394.532541446349
20
42.4890087100661
30
0
41
1
10
394.564937611011
20
42.4731151028541
30
0
41
1
10
394.612147487011
20
42.4458653026974
30
0
41
1
10
394.627520872403
20
42.4362795231806
30
0
41
1
10
394.657535039721
20
42.4160971482339
30
0
41
1
10
394.672212259754
20
42.4054715876088
30
0
41
1
10
394.70058571351
20
42.3833023552624
30
0
41
1
10
394.714276912148
20
42.3717687877522
30
0
41
1
10
394.740592185319
20
42.3477170566624
30
0
41
1
10
394.753223687004
20
42.3351857952409
30
0
41
1
10
394.776984911845
20
42.3092835555825
30
0
41
1
10
394.788183672648
20
42.2958438952812
30
0
41
1
10
394.808741905787
20
42.2680252707821
30
0
41
1
10
394.818082112158
20
42.2536885642772
30
0
41
1
10
394.830256075627
20
42.23140310503
30
0
41
1
10
394.833983880522
20
42.2238826530203
30
0
41
1
10
394.840680600164
20
42.2086222809505
30
0
41
1
10
394.843659313806
20
42.2008512398952
30
0
41
1
10
394.851144572257
20
42.177409633018
30
0
41
1
10
394.854273094972
20
42.1616270919798
30
0
41
1
10
394.854623473675
20
42.1455798264782
30
0
0
SPLINE
5
222
100
AcDbEntity
8
1
62
256
6
ByLayer
370
18
48
1
60
0
100
AcDbSpline
70
4
71
3
72
8
73
4
40
0
40
0
40
0
40
0
40
1
40
1
40
1
40
1
41
1
10
394.182777219241
20
42.5136130309576
30
0
41
1
10
394.188623095064
20
42.5168514173962
30
0
41
1
10
394.19446971762
20
42.5200901999731
30
0
41
1
10
394.200317116022
20
42.5233293941083
30
0
0
SPLINE
5
223
100
AcDbEntity
8
1
62
256
6
ByLayer
370
18
48
1
60
0
100
AcDbSpline
70
4
71
3
72
32
73
28
40
0
40
0
40
0
40
0
40
0.0624999999999972
40
0.0624999999999972
40
0.124999999999994
40
0.124999999999994
40
0.156249999999993
40
0.156249999999993
40
0.187499999999993
40
0.187499999999993
40
0.249999999999993
40
0.249999999999993
40
0.312499999999993
40
0.312499999999993
40
0.374999999999993
40
0.374999999999993
40
0.437499999999994
40
0.437499999999994
40
0.499999999999994
40
0.499999999999994
40
0.624999999999996
40
0.624999999999996
40
0.749999999999997
40
0.749999999999997
40
0.874999999999999
40
0.874999999999999
40
1
40
1
40
1
40
1
41
1
10
394.855062251087
20
42.1254838661813
30
0
41
1
10
394.851424372014
20
42.1164579968262
30
0
41
1
10
394.849029503808
20
42.1071794681074
30
0
41
1
10
394.847045147476
20
42.088052706222
30
0
41
1
10
394.847520075655
20
42.0780971225981
30
0
41
1
10
394.850447821817
20
42.06366187134
30
0
41
1
10
394.851783199611
20
42.0588978608762
30
0
41
1
10
394.855151970816
20
42.0494647028527
30
0
41
1
10
394.857202450203
20
42.0447669067353
30
0
41
1
10
394.864216026477
20
42.031120401688
30
0
41
1
10
394.870031750125
20
42.0225600546436
30
0
41
1
10
394.883512928842
20
42.0063293852734
30
0
41
1
10
394.891028071026
20
41.9988438901646
30
0
41
1
10
394.907097144741
20
41.9849583438292
30
0
41
1
10
394.915677009358
20
41.9785356217156
30
0
41
1
10
394.933716544393
20
41.9665420727754
30
0
41
1
10
394.943137179191
20
41.9610035372331
30
0
41
1
10
394.962415107551
20
41.9507993626622
30
0
41
1
10
394.972307590147
20
41.9461119237704
30
0
41
1
10
395.002624559031
20
41.9331078043944
30
0
41
1
10
395.023475940633
20
41.925923539951
30
0
41
1
10
395.066000538252
20
41.9138791094665
30
0
41
1
10
395.087610099235
20
41.9090468049819
30
0
41
1
10
395.131240297526
20
41.9014180628876
30
0
41
1
10
395.15326181818
20
41.8986268502355
30
0
41
1
10
395.19739844783
20
41.8949286861228
30
0
41
1
10
395.219496974878
20
41.8940203648222
30
0
41
1
10
395.241624596038
20
41.8940203648222
30
0
0
SPLINE
5
224
100
AcDbEntity
8
1
62
256
6
ByLayer
370
18
48
1
60
0
100
AcDbSpline
70
4
71
3
72
8
73
4
40
0
40
0
40
0
40
0
40
1
40
1
40
1
40
1
41
1
10
394.854623473675
20
42.1455798264782
30
0
41
1
10
394.854769751978
20
42.1388803132478
30
0
41
1
10
394.854916010872
20
42.1321816706978
30
0
41
1
10
394.855062251087
20
42.1254838661813
30
0
0
SPLINE
5
225
100
AcDbEntity
8
1
62
256
6
ByLayer
370
18
48
1
60
0
100
AcDbSpline
70
4
71
3
72
40
73
36
40
0
40
0
40
0
40
0
40
0.0625000000000005
40
0.0625000000000005
40
0.09375
40
0.09375
40
0.125
40
0.125
40
0.1875
40
0.1875
40
0.25
40
0.25
40
0.3125
40
0.3125
40
0.375
40
0.375
40
0.500000000000001
40
0.500000000000001
40
0.562500000000001
40
0.562500000000001
40
0.625000000000001
40
0.625000000000001
40
0.687500000000001
40
0.687500000000001
40
0.750000000000001
40
0.750000000000001
40
0.812500000000001
40
0.812500000000001
40
0.875000000000001
40
0.875000000000001
40
0.906250000000001
40
0.906250000000001
40
0.937500000000001
40
0.937500000000001
40
1
40
1
40
1
40
1
41
1
10
395.628625718402
20
42.1455798264782
30
0
41
1
10
395.628976268559
20
42.1616349444967
30
0
41
1
10
395.632104995052
20
42.1773983417278
30
0
41
1
10
395.639567137919
20
42.2007862288655
30
0
41
1
10
395.642543588429
20
42.2085599790499
30
0
41
1
10
395.649235950768
20
42.2238210274764
30
0
41
1
10
395.652957620239
20
42.2313326659437
30
0
41
1
10
395.665096230943
20
42.2535696947833
30
0
41
1
10
395.674465381763
20
42.2679633854423
30
0
41
1
10
395.695014938997
20
42.2957806102058
30
0
41
1
10
395.706219325011
20
42.3092330612286
30
0
41
1
10
395.730027761269
20
42.3351897404892
30
0
41
1
10
395.742642786911
20
42.3477026655066
30
0
41
1
10
395.768930691689
20
42.371732168267
30
0
41
1
10
395.782655842366
20
42.3832966768144
30
0
41
1
10
395.825260765319
20
42.4165846199508
30
0
41
1
10
395.855240937634
20
42.4367026364188
30
0
41
1
10
395.902445828747
20
42.4639611518819
30
0
41
1
10
395.918430027544
20
42.472478992681
30
0
41
1
10
395.950898923021
20
42.4883698572476
30
0
41
1
10
395.967426875886
20
42.4957599255895
30
0
41
1
10
396.000778893712
20
42.5092265539209
30
0
41
1
10
396.017591731068
20
42.5153038292104
30
0
41
1
10
396.051528018283
20
42.5260370281745
30
0
41
1
10
396.068666474602
20
42.5306928055652
30
0
41
1
10
396.102911584105
20
42.5382792634596
30
0
41
1
10
396.120112069734
20
42.5412352914097
30
0
41
1
10
396.154398485185
20
42.5450800338481
30
0
41
1
10
396.171438334278
20
42.5459732795346
30
0
41
1
10
396.196749158095
20
42.5453288482618
30
0
41
1
10
396.205099675196
20
42.5447815531816
30
0
41
1
10
396.221609214404
20
42.5429188107453
30
0
41
1
10
396.229799970026
20
42.5415962202293
30
0
41
1
10
396.253755511886
20
42.5363062766897
30
0
41
1
10
396.268925871214
20
42.5310881978467
30
0
41
1
10
396.282932076055
20
42.5233293941083
30
0
0
SPLINE
5
226
100
AcDbEntity
8
1
62
256
6
ByLayer
370
18
48
1
60
0
100
AcDbSpline
70
4
71
3
72
8
73
4
40
0
40
0
40
0
40
0
40
1
40
1
40
1
40
1
41
1
10
395.62818694099
20
42.1254838661813
30
0
41
1
10
395.628333181204
20
42.1321816706978
30
0
41
1
10
395.628479440099
20
42.1388803132478
30
0
41
1
10
395.628625718402
20
42.1455798264782
30
0
0
SPLINE
5
227
100
AcDbEntity
8
1
62
256
6
ByLayer
370
18
48
1
60
0
100
AcDbSpline
70
4
71
3
72
31
73
27
40
0
40
0
40
0
40
0
40
0.249999999999999
40
0.249999999999999
40
0.374999999999998
40
0.374999999999998
40
0.499999999999996
40
0.499999999999996
40
0.562499999999995
40
0.562499999999995
40
0.624999999999994
40
0.624999999999994
40
0.687499999999993
40
0.687499999999993
40
0.749999999999992
40
0.749999999999992
40
0.781249999999993
40
0.781249999999993
40
0.812499999999994
40
0.843749999999994
40
0.843749999999994
40
0.874999999999995
40
0.874999999999995
40
0.937499999999998
40
0.937499999999998
40
1
40
1
40
1
40
1
41
1
10
395.241624596038
20
41.8940203648222
30
0
41
1
10
395.285849231694
20
41.8940203648222
30
0
41
1
10
395.330263220422
20
41.897614548904
30
0
41
1
10
395.395633985528
20
41.909046553355
30
0
41
1
10
395.417248148197
20
41.913880306266
30
0
41
1
10
395.459707980759
20
41.9259037151089
30
0
41
1
10
395.480580133999
20
41.9330938716567
30
0
41
1
10
395.510832725031
20
41.9460626616722
30
0
41
1
10
395.52075819676
20
41.9507618017896
30
0
41
1
10
395.540051876538
20
41.9609691162768
30
0
41
1
10
395.54947989407
20
41.9665112115344
30
0
41
1
10
395.567467911379
20
41.9784621218445
30
0
41
1
10
395.576010303041
20
41.9848514311231
30
0
41
1
10
395.591988871833
20
41.9986279895658
30
0
41
1
10
395.599428771933
20
42.0060120317591
30
0
41
1
10
395.609498152945
20
42.0180577260934
30
0
41
1
10
395.612690427341
20
42.0222660454183
30
0
41
1
10
395.618522368516
20
42.0308933111002
30
0
41
1
10
395.62380518714
20
42.0397214374819
30
0
41
1
10
395.627898903034
20
42.0489791650418
30
0
41
1
10
395.631336344037
20
42.0584714300597
30
0
41
1
10
395.632720627635
20
42.0633405447858
30
0
41
1
10
395.6357107498
20
42.0778597901082
30
0
41
1
10
395.636221428734
20
42.0875682026774
30
0
41
1
10
395.634266867607
20
42.107031524415
30
0
41
1
10
395.631838393597
20
42.1164243198025
30
0
41
1
10
395.62818694099
20
42.1254838661813
30
0
0
SPLINE
5
228
100
AcDbEntity
8
1
62
256
6
ByLayer
370
18
48
1
60
0
100
AcDbSpline
70
4
71
3
72
8
73
4
40
0
40
0
40
0
40
0
40
1
40
1
40
1
40
1
41
1
10
396.282932076055
20
42.5233293941083
30
0
41
1
10
396.288779474457
20
42.5200901999731
30
0
41
1
10
396.294626097014
20
42.5168514173962
30
0
41
1
10
396.300471972836
20
42.5136130309577
30
0
0
SPLINE
5
229
100
AcDbEntity
8
1
62
256
6
ByLayer
370
18
48
1
60
0
100
AcDbSpline
70
4
71
3
72
32
73
28
40
0
40
0
40
0
40
0
40
0.0625000000000007
40
0.0625000000000007
40
0.125000000000001
40
0.125000000000001
40
0.156250000000002
40
0.156250000000002
40
0.187500000000002
40
0.187500000000002
40
0.250000000000002
40
0.250000000000002
40
0.312500000000002
40
0.312500000000002
40
0.375000000000002
40
0.375000000000002
40
0.437500000000002
40
0.437500000000002
40
0.500000000000002
40
0.500000000000002
40
0.625000000000001
40
0.625000000000001
40
0.750000000000001
40
0.750000000000001
40
0.875
40
0.875
40
1
40
1
40
1
40
1
41
1
10
396.300471972836
20
42.5136130309577
30
0
41
1
10
396.306428018416
20
42.5059255046972
30
0
41
1
10
396.313224722782
20
42.4991882805016
30
0
41
1
10
396.328714969343
20
42.4878588510659
30
0
41
1
10
396.337533312188
20
42.4832685356687
30
0
41
1
10
396.351441513616
20
42.4785531531669
30
0
41
1
10
396.356216542019
20
42.4773168530364
30
0
41
1
10
396.366034535947
20
42.4754967875176
30
0
41
1
10
396.371110752757
20
42.4749134346971
30
0
41
1
10
396.386386092417
20
42.4741349512706
30
0
41
1
10
396.396677576966
20
42.474873751118
30
0
41
1
10
396.417419615814
20
42.4784011132679
30
0
41
1
10
396.427635571853
20
42.4811522826949
30
0
41
1
10
396.447651673996
20
42.4880997290687
30
0
41
1
10
396.457484351788
20
42.4923070884944
30
0
41
1
10
396.476855386627
20
42.501911719718
30
0
41
1
10
396.486346361491
20
42.507291391357
30
0
41
1
10
396.50479386111
20
42.51886717344
30
0
41
1
10
396.513786797957
20
42.5250828213749
30
0
41
1
10
396.540172534922
20
42.5448147779475
30
0
41
1
10
396.556801839795
20
42.559269173965
30
0
41
1
10
396.588465259284
20
42.590055584199
30
0
41
1
10
396.603443506692
20
42.6063464564014
30
0
41
1
10
396.631847514449
20
42.6403050989789
30
0
41
1
10
396.645269212198
20
42.6579762588391
30
0
41
1
10
396.670531893513
20
42.6943442799383
30
0
41
1
10
396.682365772363
20
42.7130260963557
30
0
41
1
10
396.693429582943
20
42.7321884487346
30
0
0
SPLINE
5
22A
100
AcDbEntity
8
1
62
256
6
ByLayer
370
18
48
1
60
0
100
AcDbSpline
70
4
71
3
72
31
73
27
40
0
40
0
40
0
40
0
40
0.25
40
0.25
40
0.375
40
0.375
40
0.5
40
0.5
40
0.5625
40
0.5625
40
0.624999999999999
40
0.624999999999999
40
0.687499999999999
40
0.687499999999999
40
0.749999999999998
40
0.749999999999998
40
0.781249999999999
40
0.781249999999999
40
0.812499999999999
40
0.843749999999999
40
0.843749999999999
40
0.874999999999999
40
0.874999999999999
40
0.9375
40
0.9375
40
1
40
1
40
1
40
1
41
1
10
393.789819609134
20
42.7321884487345
30
0
41
1
10
393.811931926962
20
42.6938902491176
30
0
41
1
10
393.837243763689
20
42.6572297419371
30
0
41
1
10
393.879802914281
20
42.6063507532085
30
0
41
1
10
393.89478471298
20
42.5900566224881
30
0
41
1
10
393.926397597455
20
42.559315756604
30
0
41
1
10
393.943042375621
20
42.5448463274682
30
0
41
1
10
393.969365426187
20
42.5251523993209
30
0
41
1
10
393.978384961719
20
42.518914050878
30
0
41
1
10
393.99684305099
20
42.5073262012668
30
0
41
1
10
394.006340790221
20
42.5019419218215
30
0
41
1
10
394.025649272113
20
42.4923605081946
30
0
41
1
10
394.03543438193
20
42.4881688324675
30
0
41
1
10
394.055311210099
20
42.4812450560577
30
0
41
1
10
394.065402030597
20
42.4785081173856
30
0
41
1
10
394.080828035184
20
42.4758346044648
30
0
41
1
10
394.086054262716
20
42.4751826845055
30
0
41
1
10
394.096411499355
20
42.4744634799167
30
0
41
1
10
394.106666879428
20
42.474320797612
30
0
41
1
10
394.116696824249
20
42.4754247034203
30
0
41
1
10
394.126600164186
20
42.4772149582523
30
0
41
1
10
394.131490281996
20
42.4784616835702
30
0
41
1
10
394.14550212826
20
42.4831652116105
30
0
41
1
10
394.154125358828
20
42.4876003598674
30
0
41
1
10
394.16992060442
20
42.4990730629733
30
0
41
1
10
394.176798950662
20
42.5058968212547
30
0
41
1
10
394.182777219241
20
42.5136130309576
30
0
0
SPLINE
5
22B
100
AcDbEntity
8
1
62
256
6
ByLayer
370
18
48
1
60
0
100
AcDbSpline
70
4
71
3
72
42
73
38
40
0
40
0
40
0
40
0
40
0.0625000000000006
40
0.0625000000000006
40
0.0937500000000008
40
0.0937500000000008
40
0.125000000000001
40
0.125000000000001
40
0.187500000000003
40
0.187500000000003
40
0.218750000000003
40
0.218750000000003
40
0.250000000000003
40
0.250000000000003
40
0.375000000000003
40
0.375000000000003
40
0.437500000000003
40
0.437500000000003
40
0.500000000000003
40
0.500000000000003
40
0.562500000000002
40
0.562500000000002
40
0.625000000000002
40
0.625000000000002
40
0.687500000000002
40
0.687500000000002
40
0.750000000000002
40
0.750000000000002
40
0.812500000000001
40
0.812500000000001
40
0.875000000000001
40
0.875000000000001
40
0.906250000000001
40
0.906250000000001
40
0.937500000000001
40
0.937500000000001
40
1
40
1
40
1
40
1
41
1
10
393.813315993658
20
43.1936094774438
30
0
41
1
10
393.827058018896
20
43.2020279379613
30
0
41
1
10
393.839144146017
20
43.2127295154293
30
0
41
1
10
393.855655845141
20
43.231070316056
30
0
41
1
10
393.860897112872
20
43.2376056793811
30
0
41
1
10
393.870712876451
20
43.2511077844342
30
0
41
1
10
393.875313266778
20
43.2580995640441
30
0
41
1
10
393.888341310824
20
43.2796917417625
30
0
41
1
10
393.896004448455
20
43.2949024477378
30
0
41
1
10
393.906295000702
20
43.3187231204679
30
0
41
1
10
393.90952930599
20
43.3268560519013
30
0
41
1
10
393.915555069642
20
43.3432520040499
30
0
41
1
10
393.918354675697
20
43.3515306935892
30
0
41
1
10
393.931392483614
20
43.3932953139686
30
0
41
1
10
393.938825798893
20
43.4278693362206
30
0
41
1
10
393.946325834393
20
43.4812523542025
30
0
41
1
10
393.948199366562
20
43.4993277364345
30
0
41
1
10
393.950687411244
20
43.535467595898
30
0
41
1
10
393.951312708635
20
43.553596157394
30
0
41
1
10
393.951336149261
20
43.5899703319878
30
0
41
1
10
393.950734041617
20
43.6080905473954
30
0
41
1
10
393.948294525797
20
43.6441826525951
30
0
41
1
10
393.946450371921
20
43.6622024331132
30
0
41
1
10
393.941482327375
20
43.697839936951
30
0
41
1
10
393.938364858345
20
43.7154463205567
30
0
41
1
10
393.930750226438
20
43.7502117455556
30
0
41
1
10
393.926245185684
20
43.767384901508
30
0
41
1
10
393.915762850862
20
43.8008353231373
30
0
41
1
10
393.909761066637
20
43.8172059535379
30
0
41
1
10
393.896029181876
20
43.8488108376288
30
0
41
1
10
393.888326916201
20
43.8640052621141
30
0
41
1
10
393.875182657043
20
43.8855857128834
30
0
41
1
10
393.870557113518
20
43.8925371621086
30
0
41
1
10
393.86073777496
20
43.9058880622944
30
0
41
1
10
393.855522027842
20
43.912311410942
30
0
41
1
10
393.839038312555
20
43.9303837525756
30
0
41
1
10
393.826985754872
20
43.9408889643427
30
0
41
1
10
393.813315993658
20
43.9491086127039
30
0
0
SPLINE
5
22C
100
AcDbEntity
8
1
62
256
6
ByLayer
370
18
48
1
60
0
100
AcDbSpline
70
4
71
3
72
8
73
4
40
0
40
0
40
0
40
0
40
1
40
1
40
1
40
1
41
1
10
393.813315993658
20
43.9491086127039
30
0
41
1
10
393.80761487356
20
43.952536704954
30
0
41
1
10
393.801914509897
20
43.9559643241334
30
0
41
1
10
393.796214874289
20
43.9593914880146
30
0
0
SPLINE
5
22D
100
AcDbEntity
8
1
62
256
6
ByLayer
370
18
48
1
60
0
100
AcDbSpline
70
4
71
3
72
32
73
28
40
0
40
0
40
0
40
0
40
0.0625000000000015
40
0.0625000000000015
40
0.125000000000003
40
0.125000000000003
40
0.156250000000004
40
0.156250000000004
40
0.187500000000005
40
0.187500000000005
40
0.250000000000004
40
0.250000000000004
40
0.312500000000004
40
0.312500000000004
40
0.375000000000004
40
0.375000000000004
40
0.437500000000003
40
0.437500000000003
40
0.500000000000003
40
0.500000000000003
40
0.625000000000002
40
0.625000000000002
40
0.750000000000001
40
0.750000000000001
40
0.875000000000001
40
0.875000000000001
40
1
40
1
40
1
40
1
41
1
10
393.796214874289
20
43.1831331584619
30
0
41
1
10
393.786620949636
20
43.181746383665
30
0
41
1
10
393.777429377065
20
43.1791570349343
30
0
41
1
10
393.759954774171
20
43.171264480616
30
0
41
1
10
393.751611359505
20
43.1658515968048
30
0
41
1
10
393.74063090424
20
43.1560654022859
30
0
41
1
10
393.737191253631
20
43.1525162480389
30
0
41
1
10
393.730742030907
20
43.1448615218091
30
0
41
1
10
393.727716293485
20
43.1407267697408
30
0
41
1
10
393.719454530099
20
43.127800878419
30
0
41
1
10
393.714978769198
20
43.1184669329796
30
0
41
1
10
393.707717909067
20
43.0986450977448
30
0
41
1
10
393.705017095212
20
43.0883801547165
30
0
41
1
10
393.701070066784
20
43.067496208759
30
0
41
1
10
393.699817253609
20
43.056843372599
30
0
41
1
10
393.698485753805
20
43.0352038023256
30
0
41
1
10
393.698415413738
20
43.0242670771574
30
0
41
1
10
393.699245842479
20
43.0024537792577
30
0
41
1
10
393.700145388228
20
42.9915357971456
30
0
41
1
10
393.704076620148
20
42.958759222719
30
0
41
1
10
393.708298696877
20
42.9370993415667
30
0
41
1
10
393.719159875006
20
42.8942337927021
30
0
41
1
10
393.725791188581
20
42.8730972325289
30
0
41
1
10
393.741017379115
20
42.8314890323856
30
0
41
1
10
393.749617202021
20
42.8110192519576
30
0
41
1
10
393.768491150356
20
42.7709432988907
30
0
41
1
10
393.778755798554
20
42.7513508011133
30
0
41
1
10
393.789819609134
20
42.7321884487345
30
0
0
SPLINE
5
22E
100
AcDbEntity
8
1
62
256
6
ByLayer
370
18
48
1
60
0
100
AcDbSpline
70
4
71
3
72
8
73
4
40
0
40
0
40
0
40
0
40
1
40
1
40
1
40
1
41
1
10
393.813315993658
20
43.1936094774438
30
0
41
1
10
393.80761487356
20
43.1901169315034
30
0
41
1
10
393.801914509897
20
43.1866248307365
30
0
41
1
10
393.796214874289
20
43.1831331584619
30
0
0
SPLINE
5
22F
100
AcDbEntity
8
1
62
256
6
ByLayer
370
18
48
1
60
0
100
AcDbSpline
70
4
71
3
72
40
73
36
40
0
40
0
40
0
40
0
40
0.0625000000000022
40
0.0625000000000022
40
0.0937500000000022
40
0.0937500000000022
40
0.125000000000002
40
0.125000000000002
40
0.187500000000002
40
0.187500000000002
40
0.250000000000002
40
0.250000000000002
40
0.312500000000001
40
0.312500000000001
40
0.375000000000001
40
0.375000000000001
40
0.5
40
0.5
40
0.5625
40
0.5625
40
0.625
40
0.625
40
0.6875
40
0.6875
40
0.75
40
0.75
40
0.8125
40
0.8125
40
0.874999999999999
40
0.874999999999999
40
0.906249999999999
40
0.906249999999999
40
0.9375
40
0.9375
40
1
40
1
40
1
40
1
41
1
10
396.669933198418
20
43.1936094774438
30
0
41
1
10
396.656270689983
20
43.2019792254134
30
0
41
1
10
396.644245453866
20
43.2126064159971
30
0
41
1
10
396.627809941663
20
43.2308137232012
30
0
41
1
10
396.622594436662
20
43.2372948038952
30
0
41
1
10
396.612778862346
20
43.2507527337057
30
0
41
1
10
396.608160687241
20
43.2577467941121
30
0
41
1
10
396.595047942957
20
43.2794214280825
30
0
41
1
10
396.587313621527
20
43.2947589519906
30
0
41
1
10
396.573582325802
20
43.3265125519808
30
0
41
1
10
396.567572384939
20
43.3429639031163
30
0
41
1
10
396.557065108879
20
43.3765997183888
30
0
41
1
10
396.552565747254
20
43.393798045798
30
0
41
1
10
396.544950261511
20
43.4286076642257
30
0
41
1
10
396.541818868366
20
43.4462882486458
30
0
41
1
10
396.534343915008
20
43.4998577168971
30
0
41
1
10
396.531927922661
20
43.5358893141258
30
0
41
1
10
396.531922937775
20
43.5903976705247
30
0
41
1
10
396.53253375118
20
43.6084962812657
30
0
41
1
10
396.534988479339
20
43.6445495415876
30
0
41
1
10
396.53683921217
20
43.6625501450318
30
0
41
1
10
396.541817776241
20
43.6981461024904
30
0
41
1
10
396.544939414959
20
43.7157321146737
30
0
41
1
10
396.552560429003
20
43.750457519122
30
0
41
1
10
396.557067383637
20
43.7676098045055
30
0
41
1
10
396.567551268298
20
43.8010195759114
30
0
41
1
10
396.573552993124
20
43.8173708962426
30
0
41
1
10
396.587281175436
20
43.8489358240845
30
0
41
1
10
396.594980818158
20
43.864111878164
30
0
41
1
10
396.608117678507
20
43.8856643824699
30
0
41
1
10
396.612740390713
20
43.8926068996226
30
0
41
1
10
396.622553210279
20
43.9059407994465
30
0
41
1
10
396.627765252258
20
43.9123560230902
30
0
41
1
10
396.644235535667
20
43.9304050519414
30
0
41
1
10
396.656277372281
20
43.9408973435251
30
0
41
1
10
396.669933198418
20
43.9491086127039
30
0
0
SPLINE
5
230
100
AcDbEntity
8
1
62
256
6
ByLayer
370
18
48
1
60
0
100
AcDbSpline
70
4
71
3
72
8
73
4
40
0
40
0
40
0
40
0
40
1
40
1
40
1
40
1
41
1
10
396.687034317789
20
43.1831331584619
30
0
41
1
10
396.68133468218
20
43.1866248307365
30
0
41
1
10
396.675634318517
20
43.1901169315034
30
0
41
1
10
396.669933198418
20
43.1936094774438
30
0
0
SPLINE
5
231
100
AcDbEntity
8
1
62
256
6
ByLayer
370
18
48
1
60
0
100
AcDbSpline
70
4
71
3
72
31
73
27
40
0
40
0
40
0
40
0
40
0.25
40
0.25
40
0.375
40
0.375
40
0.499999999999999
40
0.499999999999999
40
0.562499999999999
40
0.562499999999999
40
0.624999999999998
40
0.624999999999998
40
0.687499999999998
40
0.687499999999998
40
0.749999999999997
40
0.749999999999997
40
0.781249999999997
40
0.781249999999997
40
0.812499999999997
40
0.843749999999997
40
0.843749999999997
40
0.874999999999997
40
0.874999999999997
40
0.937499999999999
40
0.937499999999999
40
1
40
1
40
1
40
1
41
1
10
396.693429582943
20
42.7321884487346
30
0
41
1
10
396.71554190077
20
42.7704866483515
30
0
41
1
10
396.734644052772
20
42.8107504970598
30
0
41
1
10
396.757455667286
20
42.8730926835447
30
0
41
1
10
396.764088031256
20
42.8942339552505
30
0
41
1
10
396.774934979342
20
42.9370328763686
30
0
41
1
10
396.779162354417
20
42.9587137005639
30
0
41
1
10
396.783091894882
20
42.9914168019498
30
0
41
1
10
396.783997831079
20
43.0023692202348
30
0
41
1
10
396.784833421586
20
43.0241977318236
30
0
41
1
10
396.784763699887
20
43.0351426359688
30
0
41
1
10
396.783443235304
20
43.0567161959168
30
0
41
1
10
396.78220051715
20
43.0673198131866
30
0
41
1
10
396.778302257773
20
43.0880706759513
30
0
41
1
10
396.775651337374
20
43.0982195315842
30
0
41
1
10
396.7702947138
20
43.1129860340907
30
0
41
1
10
396.768260760663
20
43.1178630850415
30
0
41
1
10
396.763735465199
20
43.1272447142517
30
0
41
1
10
396.758762939105
20
43.1362519812881
30
0
41
1
10
396.752826674823
20
43.1444459535463
30
0
41
1
10
396.746360775889
20
43.1521898041389
30
0
41
1
10
396.742854941677
20
43.1558340876869
30
0
41
1
10
396.731833217578
20
43.1657164620347
30
0
41
1
10
396.723720665944
20
43.1710360984716
30
0
41
1
10
396.705970859226
20
43.1791235313059
30
0
41
1
10
396.696664038973
20
43.181741209377
30
0
41
1
10
396.687034317789
20
43.1831331584619
30
0
0
SPLINE
5
232
100
AcDbEntity
8
1
62
256
6
ByLayer
370
18
48
1
60
0
100
AcDbSpline
70
4
71
3
72
8
73
4
40
0
40
0
40
0
40
0
40
1
40
1
40
1
40
1
41
1
10
396.669933198418
20
43.9491086127039
30
0
41
1
10
396.675634318517
20
43.9525367049541
30
0
41
1
10
396.68133468218
20
43.9559643241334
30
0
41
1
10
396.687034317789
20
43.9593914880146
30
0
0
SPLINE
5
233
100
AcDbEntity
8
1
62
256
6
ByLayer
370
18
48
1
60
0
100
AcDbSpline
70
4
71
3
72
32
73
28
40
0
40
0
40
0
40
0
40
0.0624999999999993
40
0.0624999999999993
40
0.124999999999999
40
0.124999999999999
40
0.156249999999998
40
0.156249999999998
40
0.187499999999997
40
0.187499999999997
40
0.249999999999997
40
0.249999999999997
40
0.312499999999997
40
0.312499999999997
40
0.374999999999998
40
0.374999999999998
40
0.437499999999998
40
0.437499999999998
40
0.499999999999998
40
0.499999999999998
40
0.624999999999999
40
0.624999999999999
40
0.749999999999999
40
0.749999999999999
40
0.875
40
0.875
40
1
40
1
40
1
40
1
41
1
10
396.687034317789
20
43.9593914880146
30
0
41
1
10
396.696628242441
20
43.960681399407
30
0
41
1
10
396.705819815012
20
43.9631746597229
30
0
41
1
10
396.723294417906
20
43.9708767703038
30
0
41
1
10
396.731637832572
20
43.9761944229459
30
0
41
1
10
396.742618287837
20
43.9858479659397
30
0
41
1
10
396.746057938446
20
43.9893542323592
30
0
41
1
10
396.752507161169
20
43.9969256911387
30
0
41
1
10
396.755532898592
20
44.0010198256644
30
0
41
1
10
396.763794661978
20
44.0138299775841
30
0
41
1
10
396.768270422879
20
44.0230943259282
30
0
41
1
10
396.77553128301
20
44.0427885537337
30
0
41
1
10
396.778232096865
20
44.0529969397771
30
0
41
1
10
396.782179125293
20
44.0737789792381
30
0
41
1
10
396.783431938468
20
44.0843863061565
30
0
41
1
10
396.784763438272
20
44.1059430962107
30
0
41
1
10
396.784833778339
20
44.1168427854052
30
0
41
1
10
396.784003349598
20
44.1385894008133
30
0
41
1
10
396.783103803849
20
44.1494775923545
30
0
41
1
10
396.779172571929
20
44.1821731698251
30
0
41
1
10
396.7749504952
20
44.2037906095947
30
0
41
1
10
396.764089317071
20
44.2465867421672
30
0
41
1
10
396.757458003496
20
44.2676965353678
30
0
41
1
10
396.742231812962
20
44.3092631045683
30
0
41
1
10
396.733631990056
20
44.3297180691649
30
0
41
1
10
396.714758041721
20
44.3697744865215
30
0
41
1
10
396.704493393523
20
44.3893622641805
30
0
41
1
10
396.693429582943
20
44.4085246165593
30
0
0
SPLINE
5
234
100
AcDbEntity
8
1
62
256
6
ByLayer
370
18
48
1
60
0
100
AcDbSpline
70
4
71
3
72
32
73
28
40
0
40
0
40
0
40
0
40
0.0624999999999966
40
0.0624999999999966
40
0.124999999999993
40
0.124999999999993
40
0.156249999999992
40
0.156249999999992
40
0.187499999999991
40
0.187499999999991
40
0.249999999999992
40
0.249999999999992
40
0.312499999999992
40
0.312499999999992
40
0.374999999999993
40
0.374999999999993
40
0.437499999999994
40
0.437499999999994
40
0.499999999999994
40
0.499999999999994
40
0.624999999999996
40
0.624999999999996
40
0.749999999999997
40
0.749999999999997
40
0.874999999999999
40
0.874999999999999
40
1
40
1
40
1
40
1
41
1
10
393.796214874289
20
43.9593914880146
30
0
41
1
10
393.786620949636
20
43.960681399407
30
0
41
1
10
393.777429377065
20
43.9631746597229
30
0
41
1
10
393.759954774171
20
43.9708767703038
30
0
41
1
10
393.751611359505
20
43.9761944229459
30
0
41
1
10
393.74063090424
20
43.9858479659397
30
0
41
1
10
393.737191253631
20
43.9893542323592
30
0
41
1
10
393.730742030907
20
43.9969256911387
30
0
41
1
10
393.727716293485
20
44.0010198256644
30
0
41
1
10
393.719454530099
20
44.0138299775841
30
0
41
1
10
393.714978769198
20
44.0230943259282
30
0
41
1
10
393.707717909067
20
44.0427885537337
30
0
41
1
10
393.705017095212
20
44.0529969397771
30
0
41
1
10
393.701070066784
20
44.0737789792381
30
0
41
1
10
393.699817253609
20
44.0843863061565
30
0
41
1
10
393.698485753805
20
44.1059430962107
30
0
41
1
10
393.698415413738
20
44.1168427854052
30
0
41
1
10
393.699245842479
20
44.1385894008133
30
0
41
1
10
393.700145388228
20
44.1494775923545
30
0
41
1
10
393.704076620148
20
44.1821731698251
30
0
41
1
10
393.708298696877
20
44.2037906095946
30
0
41
1
10
393.719159875006
20
44.2465867421672
30
0
41
1
10
393.725791188581
20
44.2676965353678
30
0
41
1
10
393.741017379115
20
44.3092631045683
30
0
41
1
10
393.749617202021
20
44.3297180691649
30
0
41
1
10
393.768491150356
20
44.3697744865215
30
0
41
1
10
393.778755798554
20
44.3893622641805
30
0
41
1
10
393.789819609134
20
44.4085246165593
30
0
0
SPLINE
5
235
100
AcDbEntity
8
1
62
256
6
ByLayer
370
18
48
1
60
0
100
AcDbSpline
70
4
71
3
72
40
73
36
40
0
40
0
40
0
40
0
40
0.0625000000000002
40
0.0625000000000002
40
0.0937499999999995
40
0.0937499999999995
40
0.124999999999999
40
0.124999999999999
40
0.187499999999999
40
0.187499999999999
40
0.249999999999999
40
0.249999999999999
40
0.312499999999999
40
0.312499999999999
40
0.374999999999999
40
0.374999999999999
40
0.499999999999999
40
0.499999999999999
40
0.562499999999999
40
0.562499999999999
40
0.624999999999999
40
0.624999999999999
40
0.687499999999999
40
0.687499999999999
40
0.749999999999999
40
0.749999999999999
40
0.812499999999999
40
0.812499999999999
40
0.875
40
0.875
40
0.90625
40
0.90625
40
0.9375
40
0.9375
40
1
40
1
40
1
40
1
41
1
10
396.282932076055
20
44.6193886960394
30
0
41
1
10
396.268919017463
20
44.6117805563481
30
0
41
1
10
396.253765054852
20
44.6067164267299
30
0
41
1
10
396.229867399783
20
44.6016382556256
30
0
41
1
10
396.221675444271
20
44.6003788301292
30
0
41
1
10
396.205167507616
20
44.5986394524833
30
0
41
1
10
396.19682766304
20
44.5981524816044
30
0
41
1
10
396.171576308053
20
44.5976784359198
30
0
41
1
10
396.154472835803
20
44.5986763989878
30
0
41
1
10
396.120191982843
20
44.6027112274965
30
0
41
1
10
396.102977655967
20
44.605754551957
30
0
41
1
10
396.068661943648
20
44.6135127881997
30
0
41
1
10
396.051547556382
20
44.6182328870188
30
0
41
1
10
396.017644165861
20
44.6290724837994
30
0
41
1
10
396.000787622038
20
44.6352134668398
30
0
41
1
10
395.950707745728
20
44.6555549039586
30
0
41
1
10
395.918311581066
20
44.671488458268
30
0
41
1
10
395.871101705066
20
44.698738339983
30
0
41
1
10
395.855728319674
20
44.7083141003499
30
0
41
1
10
395.825714152356
20
44.728456516914
30
0
41
1
10
395.811036932323
20
44.7390520264934
30
0
41
1
10
395.782663478567
20
44.7611414524013
30
0
41
1
10
395.768972279929
20
44.7726253586787
30
0
41
1
10
395.742657006759
20
44.7965580385573
30
0
41
1
10
395.730025505074
20
44.8090197931214
30
0
41
1
10
395.706264280232
20
44.834764180486
30
0
41
1
10
395.695065519429
20
44.8481151049469
30
0
41
1
10
395.674507286289
20
44.8757368512549
30
0
41
1
10
395.665167079918
20
44.8899657615358
30
0
41
1
10
395.65299311645
20
44.9120741734463
30
0
41
1
10
395.649265311555
20
44.9195333459025
30
0
41
1
10
395.642568591913
20
44.9346662583528
30
0
41
1
10
395.639589878271
20
44.942370845617
30
0
41
1
10
395.63210461982
20
44.9656071835216
30
0
41
1
10
395.628976097105
20
44.9812453833366
30
0
41
1
10
395.628625718402
20
44.9971382636695
30
0
0
SPLINE
5
236
100
AcDbEntity
8
1
62
256
6
ByLayer
370
18
48
1
60
0
100
AcDbSpline
70
4
71
3
72
8
73
4
40
0
40
0
40
0
40
0
40
1
40
1
40
1
40
1
41
1
10
396.300471972836
20
44.6289116155189
30
0
41
1
10
396.294626097014
20
44.6257377374737
30
0
41
1
10
396.288779474457
20
44.6225634364844
30
0
41
1
10
396.282932076055
20
44.6193886960394
30
0
0
SPLINE
5
237
100
AcDbEntity
8
1
62
256
6
ByLayer
370
18
48
1
60
0
100
AcDbSpline
70
4
71
3
72
31
73
27
40
0
40
0
40
0
40
0
40
0.249999999999999
40
0.249999999999999
40
0.374999999999998
40
0.374999999999998
40
0.499999999999998
40
0.499999999999998
40
0.562499999999997
40
0.562499999999997
40
0.624999999999996
40
0.624999999999996
40
0.687499999999995
40
0.687499999999995
40
0.749999999999994
40
0.749999999999994
40
0.781249999999994
40
0.781249999999994
40
0.812499999999995
40
0.843749999999995
40
0.843749999999995
40
0.874999999999995
40
0.874999999999995
40
0.937499999999998
40
0.937499999999998
40
1
40
1
40
1
40
1
41
1
10
396.693429582943
20
44.4085246165593
30
0
41
1
10
396.671317265115
20
44.4468228161763
30
0
41
1
10
396.646005428388
20
44.4835016382486
30
0
41
1
10
396.603446277796
20
44.5344430135879
30
0
41
1
10
396.588464479097
20
44.5507639204571
30
0
41
1
10
396.556851594621
20
44.5815740791234
30
0
41
1
10
396.540206816456
20
44.5960859852824
30
0
41
1
10
396.51388376589
20
44.6158606798761
30
0
41
1
10
396.504864230358
20
44.6221288877683
30
0
41
1
10
396.486406141087
20
44.6337834323602
30
0
41
1
10
396.476908401856
20
44.6392047706903
30
0
41
1
10
396.457599919964
20
44.6488686563393
30
0
41
1
10
396.447814810147
20
44.6531055965944
30
0
41
1
10
396.427937981978
20
44.6601304288287
30
0
41
1
10
396.41784716148
20
44.6629231170359
30
0
41
1
10
396.402421156893
20
44.6656912204596
30
0
41
1
10
396.397194929361
20
44.6663767637518
30
0
41
1
10
396.386837692721
20
44.6671662862198
30
0
41
1
10
396.376582348004
20
44.6673820727094
30
0
41
1
10
396.366552367828
20
44.6663582804294
30
0
41
1
10
396.356649027891
20
44.6646517064106
30
0
41
1
10
396.35175891008
20
44.6634487693724
30
0
41
1
10
396.337747063817
20
44.6588785554636
30
0
41
1
10
396.329123833249
20
44.6545361514558
30
0
41
1
10
396.313328587657
20
44.643257076755
30
0
41
1
10
396.306450241415
20
44.6365306004037
30
0
41
1
10
396.300471972836
20
44.6289116155189
30
0
0
SPLINE
5
238
100
AcDbEntity
8
1
62
256
6
ByLayer
370
18
48
1
60
0
100
AcDbSpline
70
4
71
3
72
8
73
4
40
0
40
0
40
0
40
0
40
1
40
1
40
1
40
1
41
1
10
395.628625718402
20
44.9971382636695
30
0
41
1
10
395.628479440099
20
45.0037733232097
30
0
41
1
10
395.628333181204
20
45.0104074841722
30
0
41
1
10
395.62818694099
20
45.0170407802952
30
0
0
SPLINE
5
239
100
AcDbEntity
8
1
62
256
6
ByLayer
370
18
48
1
60
0
100
AcDbSpline
70
4
71
3
72
32
73
28
40
0
40
0
40
0
40
0
40
0.0624999999999987
40
0.0624999999999987
40
0.124999999999998
40
0.124999999999998
40
0.156249999999997
40
0.156249999999997
40
0.187499999999996
40
0.187499999999996
40
0.249999999999997
40
0.249999999999997
40
0.312499999999997
40
0.312499999999997
40
0.374999999999998
40
0.374999999999998
40
0.437499999999998
40
0.437499999999998
40
0.499999999999999
40
0.499999999999999
40
0.624999999999999
40
0.624999999999999
40
0.749999999999999
40
0.749999999999999
40
0.875
40
0.875
40
1
40
1
40
1
40
1
41
1
10
395.62818694099
20
45.0170407802952
30
0
41
1
10
395.631824820063
20
45.0259697862458
30
0
41
1
10
395.634219688269
20
45.0351522265498
30
0
41
1
10
395.636204044601
20
45.0540885446978
30
0
41
1
10
395.635729116422
20
45.0639488971526
30
0
41
1
10
395.632801370259
20
45.0782514968856
30
0
41
1
10
395.631465992466
20
45.0829726195219
30
0
41
1
10
395.628097221261
20
45.0923225100951
30
0
41
1
10
395.626046741873
20
45.0969796886699
30
0
41
1
10
395.619033165599
20
45.1105104543151
30
0
41
1
10
395.613217441952
20
45.1190012042642
30
0
41
1
10
395.599736263234
20
45.1351042662051
30
0
41
1
10
395.592221121051
20
45.142533204329
30
0
41
1
10
395.576152047335
20
45.156316844168
30
0
41
1
10
395.567572182719
20
45.1626940570399
30
0
41
1
10
395.549532647684
20
45.1746048257609
30
0
41
1
10
395.540112012886
20
45.1801063253295
30
0
41
1
10
395.520834084526
20
45.1902438174088
30
0
41
1
10
395.51094160193
20
45.1949014657295
30
0
41
1
10
395.480624633046
20
45.2078245881498
30
0
41
1
10
395.459773251444
20
45.2149664112104
30
0
41
1
10
395.417248653825
20
45.2269414254028
30
0
41
1
10
395.395639092842
20
45.2317469629149
30
0
41
1
10
395.352008894551
20
45.2393340740664
30
0
41
1
10
395.329987373897
20
45.242110470887
30
0
41
1
10
395.285850744246
20
45.2457890992893
30
0
41
1
10
395.263752217199
20
45.2466927004717
30
0
41
1
10
395.241624596038
20
45.2466927004717
30
0
0
SPLINE
5
23A
100
AcDbEntity
8
1
62
256
6
ByLayer
370
18
48
1
60
0
100
AcDbSpline
70
4
71
3
72
8
73
4
40
0
40
0
40
0
40
0
40
1
40
1
40
1
40
1
41
1
10
394.855062251087
20
45.0170407802952
30
0
41
1
10
394.854916010872
20
45.0104074841722
30
0
41
1
10
394.854769751978
20
45.0037733232097
30
0
41
1
10
394.854623473675
20
44.9971382636695
30
0
0
SPLINE
5
23B
100
AcDbEntity
8
1
62
256
6
ByLayer
370
18
48
1
60
0
100
AcDbSpline
70
4
71
3
72
31
73
27
40
0
40
0
40
0
40
0
40
0.249999999999995
40
0.249999999999995
40
0.374999999999993
40
0.374999999999993
40
0.499999999999991
40
0.499999999999991
40
0.562499999999991
40
0.562499999999991
40
0.624999999999991
40
0.624999999999991
40
0.68749999999999
40
0.68749999999999
40
0.74999999999999
40
0.74999999999999
40
0.781249999999991
40
0.781249999999991
40
0.812499999999991
40
0.843749999999992
40
0.843749999999992
40
0.874999999999993
40
0.874999999999993
40
0.937499999999996
40
0.937499999999996
40
1
40
1
40
1
40
1
41
1
10
395.241624596038
20
45.2466927004717
30
0
41
1
10
395.197399960383
20
45.2466927004717
30
0
41
1
10
395.152985971655
20
45.2431168312817
30
0
41
1
10
395.087615206549
20
45.2317472134414
30
0
41
1
10
395.06600104388
20
45.2269402366792
30
0
41
1
10
395.023541211318
20
45.2149861206186
30
0
41
1
10
395.002669058078
20
45.2078384410939
30
0
41
1
10
394.972416467046
20
45.1949504175247
30
0
41
1
10
394.962490995317
20
45.1902811368566
30
0
41
1
10
394.943197315539
20
45.1801405173502
30
0
41
1
10
394.933769298007
20
45.1746354809774
30
0
41
1
10
394.915781280698
20
45.1627670426894
30
0
41
1
10
394.907238889036
20
45.1564229979388
30
0
41
1
10
394.891260320244
20
45.1427474953206
30
0
41
1
10
394.883820420144
20
45.1354192026624
30
0
41
1
10
394.873751039131
20
45.123468098831
30
0
41
1
10
394.870558764736
20
45.1192934028388
30
0
41
1
10
394.864726823561
20
45.1107364550363
30
0
41
1
10
394.859444004937
20
45.1019816203244
30
0
41
1
10
394.855350289043
20
45.092803818808
30
0
41
1
10
394.85191284804
20
45.0833952346031
30
0
41
1
10
394.850528564442
20
45.0785699081569
30
0
41
1
10
394.847538442277
20
45.064183976966
30
0
41
1
10
394.847027763343
20
45.0545683086459
30
0
41
1
10
394.848982324469
20
45.0352986153132
30
0
41
1
10
394.85141079848
20
45.026003101856
30
0
41
1
10
394.855062251087
20
45.0170407802952
30
0
0
SPLINE
5
23C
100
AcDbEntity
8
1
62
256
6
ByLayer
370
18
48
1
60
0
100
AcDbSpline
70
4
71
3
72
31
73
27
40
0
40
0
40
0
40
0
40
0.25
40
0.25
40
0.375
40
0.375
40
0.5
40
0.5
40
0.5625
40
0.5625
40
0.625
40
0.625
40
0.6875
40
0.6875
40
0.749999999999999
40
0.749999999999999
40
0.781249999999999
40
0.781249999999999
40
0.812499999999999
40
0.843749999999999
40
0.843749999999999
40
0.874999999999999
40
0.874999999999999
40
0.937499999999999
40
0.937499999999999
40
1
40
1
40
1
40
1
41
1
10
393.789819609134
20
44.4085246165593
30
0
41
1
10
393.811931926962
20
44.4468228161763
30
0
41
1
10
393.837243763689
20
44.4835016382486
30
0
41
1
10
393.879802914281
20
44.5344430135879
30
0
41
1
10
393.89478471298
20
44.5507639204571
30
0
41
1
10
393.926397597455
20
44.5815740791235
30
0
41
1
10
393.943042375621
20
44.5960859852825
30
0
41
1
10
393.969365426187
20
44.6158606798761
30
0
41
1
10
393.978384961719
20
44.6221288877683
30
0
41
1
10
393.99684305099
20
44.6337834323602
30
0
41
1
10
394.006340790221
20
44.6392047706903
30
0
41
1
10
394.025649272113
20
44.6488686563393
30
0
41
1
10
394.03543438193
20
44.6531055965945
30
0
41
1
10
394.055311210099
20
44.6601304288287
30
0
41
1
10
394.065402030597
20
44.6629231170359
30
0
41
1
10
394.080828035184
20
44.6656912204596
30
0
41
1
10
394.086054262717
20
44.6663767637518
30
0
41
1
10
394.096411499355
20
44.6671662862198
30
0
41
1
10
394.106666844073
20
44.6673820727094
30
0
41
1
10
394.116696824249
20
44.6663582804294
30
0
41
1
10
394.126600164186
20
44.6646517064105
30
0
41
1
10
394.131490281996
20
44.6634487693724
30
0
41
1
10
394.14550212826
20
44.6588785554636
30
0
41
1
10
394.154125358828
20
44.6545361514558
30
0
41
1
10
394.16992060442
20
44.643257076755
30
0
41
1
10
394.176798950662
20
44.6365306004037
30
0
41
1
10
394.182777219241
20
44.6289116155189
30
0
0
SPLINE
5
23D
100
AcDbEntity
8
1
62
256
6
ByLayer
370
18
48
1
60
0
100
AcDbSpline
70
4
71
3
72
8
73
4
40
0
40
0
40
0
40
0
40
1
40
1
40
1
40
1
41
1
10
394.182777219241
20
44.6289116155189
30
0
41
1
10
394.188623095064
20
44.6257377374737
30
0
41
1
10
394.19446971762
20
44.6225634364843
30
0
41
1
10
394.200317116022
20
44.6193886960394
30
0
0
SPLINE
5
23E
100
AcDbEntity
8
1
62
256
6
ByLayer
370
18
48
1
60
0
100
AcDbSpline
70
4
71
3
72
40
73
36
40
0
40
0
40
0
40
0
40
0.0625000000000024
40
0.0625000000000024
40
0.0937500000000027
40
0.0937500000000027
40
0.125000000000003
40
0.125000000000003
40
0.187500000000003
40
0.187500000000003
40
0.250000000000003
40
0.250000000000003
40
0.312500000000003
40
0.312500000000003
40
0.375000000000003
40
0.375000000000003
40
0.500000000000003
40
0.500000000000003
40
0.625000000000003
40
0.625000000000003
40
0.687500000000003
40
0.687500000000003
40
0.750000000000002
40
0.750000000000002
40
0.812500000000002
40
0.812500000000002
40
0.843750000000002
40
0.843750000000002
40
0.875000000000001
40
0.875000000000001
40
0.937500000000001
40
0.937500000000001
40
0.96875
40
0.96875
40
1
40
1
40
1
40
1
41
1
10
394.200317116022
20
44.6193886960394
30
0
41
1
10
394.214346415551
20
44.6117717386215
30
0
41
1
10
394.229519197074
20
44.606704541589
30
0
41
1
10
394.253447358383
20
44.6016265521462
30
0
41
1
10
394.26164968017
20
44.6003681025724
30
0
41
1
10
394.278177950546
20
44.5986320647157
30
0
41
1
10
394.286528121918
20
44.5981474186935
30
0
41
1
10
394.311810904847
20
44.5976820327664
30
0
41
1
10
394.328934576492
20
44.5986879393932
30
0
41
1
10
394.363256575611
20
44.6027418489231
30
0
41
1
10
394.380490413974
20
44.6057961734452
30
0
41
1
10
394.41484562579
20
44.6135791765311
30
0
41
1
10
394.43197809692
20
44.6183126093256
30
0
41
1
10
394.465917943619
20
44.6291813495599
30
0
41
1
10
394.482786433256
20
44.6353356221321
30
0
41
1
10
394.532940976392
20
44.6557370909288
30
0
41
1
10
394.565607703761
20
44.6718346336637
30
0
41
1
10
394.628585771046
20
44.708268137305
30
0
41
1
10
394.658391858954
20
44.7282860068719
30
0
41
1
10
394.700528922513
20
44.7611005040943
30
0
41
1
10
394.714140754284
20
44.772509492245
30
0
41
1
10
394.740406664873
20
44.7963814485006
30
0
41
1
10
394.753097643609
20
44.8088925124331
30
0
41
1
10
394.776841786917
20
44.8345999321596
30
0
41
1
10
394.787962554728
20
44.8478468601795
30
0
41
1
10
394.803323852139
20
44.8684433509164
30
0
41
1
10
394.808222928488
20
44.8754307008502
30
0
41
1
10
394.817520903358
20
44.8896872331047
30
0
41
1
10
394.821934921286
20
44.8969849663429
30
0
41
1
10
394.834148217502
20
44.9190993145146
30
0
41
1
10
394.840971242491
20
44.9341500408135
30
0
41
1
10
394.848522398968
20
44.9574080817057
30
0
41
1
10
394.850593671293
20
44.965318638569
30
0
41
1
10
394.853553579228
20
44.9811992449693
30
0
41
1
10
394.854447506409
20
44.989156537948
30
0
41
1
10
394.854623473675
20
44.9971382636695
30
0
0
SPLINE
5
23F
100
AcDbEntity
8
1
62
256
6
ByLayer
370
18
48
1
60
0
100
AcDbSpline
70
4
71
3
72
30
73
26
40
0
40
0
40
0
40
0
40
0.0624999999999997
40
0.0624999999999997
40
0.0937499999999995
40
0.0937499999999995
40
0.124999999999999
40
0.124999999999999
40
0.250000000000008
40
0.250000000000008
40
0.312500000000011
40
0.312500000000011
40
0.375000000000013
40
0.375000000000013
40
0.437500000000015
40
0.437500000000015
40
0.500000000000018
40
0.500000000000018
40
0.625000000000013
40
0.625000000000013
40
0.750000000000009
40
0.750000000000009
40
0.875000000000004
40
0.875000000000004
40
1
40
1
40
1
40
1
41
1
10
10.5386750295977
20
-30.0805925838545
30
0
41
1
10
10.5229354486416
20
-30.0805925838546
30
0
41
1
10
10.5074816048193
20
-30.0801203270285
30
0
41
1
10
10.4846916826926
20
-30.0787650349602
30
0
41
1
10
10.4771603649197
20
-30.0782051328854
30
0
41
1
10
10.4622239712549
20
-30.0768759713598
30
0
41
1
10
10.4547835132276
20
-30.0761020484096
30
0
41
1
10
10.4184735880026
20
-30.0717957720978
30
0
41
1
10
10.3920417903353
20
-30.0669871029038
30
0
41
1
10
10.355139208232
20
-30.0583170835732
30
0
41
1
10
10.3434985454161
20
-30.0552242322178
30
0
41
1
10
10.3213800985156
20
-30.0487369292755
30
0
41
1
10
10.310883141182
20
-30.0453370516118
30
0
41
1
10
10.2908249528434
20
-30.0382727583442
30
0
41
1
10
10.2812646667686
20
-30.0346080937401
30
0
41
1
10
10.2629501291288
20
-30.0270466417883
30
0
41
1
10
10.2541740157025
20
-30.0231381119979
30
0
41
1
10
10.2291777706428
20
-30.0112311185506
30
0
41
1
10
10.2141981877501
20
-30.0030282878409
30
0
41
1
10
10.1867622617131
20
-29.9862008659448
30
0
41
1
10
10.1743149245026
20
-29.9775750736362
30
0
41
1
10
10.1514755173535
20
-29.9599595072901
30
0
41
1
10
10.1410870994304
20
-29.9509692491744
30
0
41
1
10
10.1220681080197
20
-29.9326600104697
30
0
41
1
10
10.1134589585904
20
-29.9233579152515
30
0
41
1
10
10.1056623277054
20
-29.9139546700067
30
0
0
SPLINE
5
240
100
AcDbEntity
8
1
62
256
6
ByLayer
370
18
48
1
60
0
100
AcDbSpline
70
4
71
3
72
32
73
28
40
0
40
0
40
0
40
0
40
0.250000000000002
40
0.250000000000002
40
0.375000000000002
40
0.375000000000002
40
0.437500000000001
40
0.437500000000001
40
0.5
40
0.5
40
0.624999999999999
40
0.624999999999999
40
0.6875
40
0.6875
40
0.750000000000001
40
0.750000000000001
40
0.812500000000001
40
0.812500000000001
40
0.84375
40
0.84375
40
0.874999999999999
40
0.874999999999999
40
0.9375
40
0.9375
40
0.96875
40
0.96875
40
1
40
1
40
1
40
1
41
1
10
10.1056623277054
20
-9.8694124425046
30
0
41
1
10
10.1212497295516
20
-9.81243183852649
30
0
41
1
10
10.1399017425164
20
-9.75655005436809
30
0
41
1
10
10.1740901641479
20
-9.6749936960463
30
0
41
1
10
10.1865317390086
20
-9.6481898938504
30
0
41
1
10
10.2071583132958
20
-9.60870760582509
30
0
41
1
10
10.2143630563288
20
-9.5956681134364
30
0
41
1
10
10.2295302493225
20
-9.5698694291417
30
0
41
1
10
10.2375037818214
20
-9.5570966888821
30
0
41
1
10
10.2625094478565
20
-9.51963276889958
30
0
41
1
10
10.2806615999356
20
-9.49566883222229
30
0
41
1
10
10.3109601006418
20
-9.46182997906101
30
0
41
1
10
10.3215874814322
20
-9.45090508783159
30
0
41
1
10
10.3437219191897
20
-9.430265947046
30
0
41
1
10
10.3552648881464
20
-9.42050701464669
30
0
41
1
10
10.3794827876334
20
-9.4023248771509
30
0
41
1
10
10.3921559208348
20
-9.39389954558209
30
0
41
1
10
10.4122176949447
20
-9.38250438395269
30
0
41
1
10
10.4191126786361
20
-9.37890051957228
30
0
41
1
10
10.4330938132325
20
-9.3722619054785
30
0
41
1
10
10.4401862581919
20
-9.3692204702175
30
0
41
1
10
10.4617881248613
20
-9.36098160373311
30
0
41
1
10
10.4766202175437
20
-9.35666454534041
30
0
41
1
10
10.4996177026453
20
-9.35223434335049
30
0
41
1
10
10.5074079878888
20
-9.35110416094059
30
0
41
1
10
10.5229917348957
20
-9.3496010565631
30
0
41
1
10
10.5308165465962
20
-9.3492211380634
30
0
41
1
10
10.5386750295976
20
-9.3492211380634
30
0
0
SPLINE
5
241
100
AcDbEntity
8
1
62
256
6
ByLayer
370
18
48
1
60
0
100
AcDbSpline
70
4
71
3
72
30
73
26
40
0
40
0
40
0
40
0
40
0.0625000000000017
40
0.0625000000000017
40
0.0937500000000025
40
0.0937500000000025
40
0.125000000000003
40
0.125000000000003
40
0.25
40
0.25
40
0.312500000000001
40
0.312500000000001
40
0.375000000000003
40
0.375000000000003
40
0.437500000000004
40
0.437500000000004
40
0.500000000000005
40
0.500000000000005
40
0.625000000000004
40
0.625000000000004
40
0.750000000000002
40
0.750000000000002
40
0.875000000000001
40
0.875000000000001
40
1
40
1
40
1
40
1
41
1
10
13.461324760408
20
-9.34922113806348
30
0
41
1
10
13.4770643413641
20
-9.34922113806348
30
0
41
1
10
13.4925181851864
20
-9.35074095748121
30
0
41
1
10
13.5153081073131
20
-9.35509927093869
30
0
41
1
10
13.522839425086
20
-9.35689943676499
30
0
41
1
10
13.5377758187508
20
-9.3611710211955
30
0
41
1
10
13.5452162767781
20
-9.36365740744111
30
0
41
1
10
13.5815262020031
20
-9.377484702788
30
0
41
1
10
13.6079579996704
20
-9.39290407102141
30
0
41
1
10
13.6448605817737
20
-9.4205973130841
30
0
41
1
10
13.6565012445896
20
-9.43046125844259
30
0
41
1
10
13.6786196914901
20
-9.45111168837158
30
0
41
1
10
13.6891166488237
20
-9.46191552800619
30
0
41
1
10
13.7091748371623
20
-9.48431830412639
30
0
41
1
10
13.7187351232372
20
-9.49591804924799
30
0
41
1
10
13.7370496608769
20
-9.51980109606819
30
0
41
1
10
13.7458257743032
20
-9.53212125017311
30
0
41
1
10
13.7708220193629
20
-9.56957047627358
30
0
41
1
10
13.7858016022556
20
-9.59526124481511
30
0
41
1
10
13.8132375282926
20
-9.64772006288879
30
0
41
1
10
13.825684865503
20
-9.67449205551009
30
0
41
1
10
13.8485242726522
20
-9.7289069342948
30
0
41
1
10
13.8589126905753
20
-9.7565514203929
30
0
41
1
10
13.877931681986
20
-9.81257964391
30
0
41
1
10
13.8865408314153
20
-9.84091142987859
30
0
41
1
10
13.8943374623003
20
-9.8694124425046
30
0
0
SPLINE
5
242
100
AcDbEntity
8
1
62
256
6
ByLayer
370
18
48
1
60
0
100
AcDbSpline
70
4
71
3
72
32
73
28
40
0
40
0
40
0
40
0
40
0.250000000000022
40
0.250000000000022
40
0.375000000000032
40
0.375000000000032
40
0.437500000000038
40
0.437500000000038
40
0.500000000000044
40
0.500000000000044
40
0.625000000000044
40
0.625000000000044
40
0.68750000000004
40
0.68750000000004
40
0.750000000000036
40
0.750000000000036
40
0.812500000000032
40
0.812500000000032
40
0.843750000000029
40
0.843750000000029
40
0.875000000000025
40
0.875000000000025
40
0.937500000000016
40
0.937500000000016
40
0.968750000000008
40
0.968750000000008
40
1
40
1
40
1
40
1
41
1
10
13.8943374623003
20
-29.9139546700067
30
0
41
1
10
13.8787500604541
20
-29.932754093046
30
0
41
1
10
13.8600980474893
20
-29.9510097168512
30
0
41
1
10
13.8259096258578
20
-29.9774131555106
30
0
41
1
10
13.8134680509971
20
-29.9860497882235
30
0
41
1
10
13.7928414767099
20
-29.9987152257678
30
0
41
1
10
13.7856367336769
20
-30.0028885750043
30
0
41
1
10
13.7704695406832
20
-30.0111274113906
30
0
41
1
10
13.7624960081843
20
-30.0151971612404
30
0
41
1
10
13.7374903421492
20
-30.0271088326448
30
0
41
1
10
13.7193381900701
20
-30.0346935892524
30
0
41
1
10
13.6890396893639
20
-30.0453640248371
30
0
41
1
10
13.6784123085734
20
-30.0488019076172
30
0
41
1
10
13.6562778708159
20
-30.0552855124586
30
0
41
1
10
13.6447349018593
20
-30.0583453370652
30
0
41
1
10
13.6205170023722
20
-30.064037714921
30
0
41
1
10
13.6078438691708
20
-30.0666709287115
30
0
41
1
10
13.587782095061
20
-30.07022802366
30
0
41
1
10
13.5808871113696
20
-30.0713522012185
30
0
41
1
10
13.5669059767732
20
-30.073421902778
30
0
41
1
10
13.5598135318138
20
-30.0743695217952
30
0
41
1
10
13.5382116651444
20
-30.0769353922647
30
0
41
1
10
13.523379572462
20
-30.078278279099
30
0
41
1
10
13.5003820873604
20
-30.0796559365663
30
0
41
1
10
13.4925918021169
20
-30.0800072751728
30
0
41
1
10
13.47700805511
20
-30.0804745106637
30
0
41
1
10
13.4691832434095
20
-30.0805925838546
30
0
41
1
10
13.4613247604081
20
-30.0805925838546
30
0
0
SPLINE
5
243
100
AcDbEntity
8
1
62
256
6
ByLayer
370
18
48
1
60
0
100
AcDbSpline
70
4
71
3
72
30
73
26
40
0
40
0
40
0
40
0
40
0.0624999999999964
40
0.0624999999999964
40
0.0937499999999946
40
0.0937499999999946
40
0.124999999999993
40
0.124999999999993
40
0.249999999999998
40
0.249999999999998
40
0.312499999999999
40
0.312499999999999
40
0.375
40
0.375
40
0.437500000000001
40
0.437500000000001
40
0.500000000000001
40
0.500000000000001
40
0.625000000000001
40
0.625000000000001
40
0.750000000000001
40
0.750000000000001
40
0.875
40
0.875
40
1
40
1
40
1
40
1
41
1
10
10.5386750295977
20
9.3492214909879
30
0
41
1
10
10.5229354486416
20
9.3492214909879
30
0
41
1
10
10.5074816048193
20
9.3507413104056
30
0
41
1
10
10.4846916826926
20
9.35509962386311
30
0
41
1
10
10.4771603649197
20
9.35689978968941
30
0
41
1
10
10.4622239712548
20
9.36117137411989
30
0
41
1
10
10.4547835132276
20
9.3636577603655
30
0
41
1
10
10.4184735880026
20
9.37748505571241
30
0
41
1
10
10.3920417903353
20
9.39290442394579
30
0
41
1
10
10.355139208232
20
9.42059766600849
30
0
41
1
10
10.343498545416
20
9.43046161136701
30
0
41
1
10
10.3213800985156
20
9.451112041296
30
0
41
1
10
10.310883141182
20
9.4619158809306
30
0
41
1
10
10.2908249528434
20
9.48431865705081
30
0
41
1
10
10.2812646667686
20
9.49591840217241
30
0
41
1
10
10.2629501291288
20
9.5198014489925
30
0
41
1
10
10.2541740157025
20
9.53212160309749
30
0
41
1
10
10.2291777706428
20
9.569570829198
30
0
41
1
10
10.2141981877501
20
9.59526159773941
30
0
41
1
10
10.1867622617131
20
9.64772041581321
30
0
41
1
10
10.1743149245026
20
9.67449240843439
30
0
41
1
10
10.1514755173535
20
9.72890728721922
30
0
41
1
10
10.1410870994304
20
9.75655177331731
30
0
41
1
10
10.1220681080197
20
9.81257999683442
30
0
41
1
10
10.1134589585904
20
9.840911782803
30
0
41
1
10
10.1056623277054
20
9.86941279542901
30
0
0
SPLINE
5
244
100
AcDbEntity
8
1
62
256
6
ByLayer
370
18
48
1
60
0
100
AcDbSpline
70
4
71
3
72
32
73
28
40
0
40
0
40
0
40
0
40
0.250000000000008
40
0.250000000000008
40
0.375000000000014
40
0.375000000000014
40
0.437500000000015
40
0.437500000000015
40
0.500000000000016
40
0.500000000000016
40
0.625000000000013
40
0.625000000000013
40
0.687500000000007
40
0.687500000000007
40
0.750000000000001
40
0.750000000000001
40
0.812499999999995
40
0.812499999999995
40
0.843749999999994
40
0.843749999999994
40
0.874999999999993
40
0.874999999999993
40
0.937499999999993
40
0.937499999999993
40
0.968749999999997
40
0.968749999999997
40
1
40
1
40
1
40
1
41
1
10
10.1056623277054
20
29.9139550229311
30
0
41
1
10
10.1212497295516
20
29.9327544459704
30
0
41
1
10
10.1399017425164
20
29.9510100697755
30
0
41
1
10
10.1740901641479
20
29.9774135084349
30
0
41
1
10
10.1865317390086
20
29.9860501411478
30
0
41
1
10
10.2071583132958
20
29.9987155786921
30
0
41
1
10
10.2143630563288
20
30.0028889279286
30
0
41
1
10
10.2295302493225
20
30.0111277643149
30
0
41
1
10
10.2375037818214
20
30.0151975141648
30
0
41
1
10
10.2625094478565
20
30.0271091855691
30
0
41
1
10
10.2806615999356
20
30.0346939421768
30
0
41
1
10
10.3109601006418
20
30.0453643777615
30
0
41
1
10
10.3215874814322
20
30.0488022605415
30
0
41
1
10
10.3437219191897
20
30.0552858653829
30
0
41
1
10
10.3552648881464
20
30.0583456899895
30
0
41
1
10
10.3794827876334
20
30.0640380678453
30
0
41
1
10
10.3921559208348
20
30.0666712816358
30
0
41
1
10
10.4122176949447
20
30.0702283765844
30
0
41
1
10
10.4191126786361
20
30.0713525541428
30
0
41
1
10
10.4330938132325
20
30.0734222557024
30
0
41
1
10
10.4401862581919
20
30.0743698747195
30
0
41
1
10
10.4617881248613
20
30.076935745189
30
0
41
1
10
10.4766202175437
20
30.0782786320234
30
0
41
1
10
10.4996177026453
20
30.0796562894906
30
0
41
1
10
10.5074079878888
20
30.0800076280971
30
0
41
1
10
10.5229917348957
20
30.080474863588
30
0
41
1
10
10.5308165465962
20
30.0805929367789
30
0
41
1
10
10.5386750295976
20
30.0805929367789
30
0
0
SPLINE
5
245
100
AcDbEntity
8
1
62
256
6
ByLayer
370
18
48
1
60
0
100
AcDbSpline
70
4
71
3
72
30
73
26
40
0
40
0
40
0
40
0
40
0.0624999999999968
40
0.0624999999999968
40
0.0937499999999952
40
0.0937499999999952
40
0.124999999999994
40
0.124999999999994
40
0.249999999999995
40
0.249999999999995
40
0.312499999999995
40
0.312499999999995
40
0.374999999999995
40
0.374999999999995
40
0.437499999999996
40
0.437499999999996
40
0.499999999999996
40
0.499999999999996
40
0.624999999999997
40
0.624999999999997
40
0.749999999999998
40
0.749999999999998
40
0.874999999999999
40
0.874999999999999
40
1
40
1
40
1
40
1
41
1
10
13.461324760408
20
30.0805929367789
30
0
41
1
10
13.4770643413641
20
30.0805929367789
30
0
41
1
10
13.4925181851864
20
30.0801206799528
30
0
41
1
10
13.5153081073131
20
30.0787653878846
30
0
41
1
10
13.522839425086
20
30.0782054858097
30
0
41
1
10
13.5377758187509
20
30.0768763242841
30
0
41
1
10
13.5452162767781
20
30.076102401334
30
0
41
1
10
13.5815262020031
20
30.0717961250221
30
0
41
1
10
13.6079579996704
20
30.0669874558282
30
0
41
1
10
13.6448605817737
20
30.0583174364976
30
0
41
1
10
13.6565012445896
20
30.0552245851422
30
0
41
1
10
13.6786196914901
20
30.0487372821998
30
0
41
1
10
13.6891166488237
20
30.0453374045362
30
0
41
1
10
13.7091748371623
20
30.0382731112685
30
0
41
1
10
13.7187351232372
20
30.0346084466644
30
0
41
1
10
13.737049660877
20
30.0270469947126
30
0
41
1
10
13.7458257743032
20
30.0231384649222
30
0
41
1
10
13.7708220193629
20
30.011231471475
30
0
41
1
10
13.7858016022556
20
30.0030286407652
30
0
41
1
10
13.8132375282926
20
29.9862012188691
30
0
41
1
10
13.8256848655031
20
29.9775754265606
30
0
41
1
10
13.8485242726522
20
29.9599598602145
30
0
41
1
10
13.8589126905753
20
29.9509696020988
30
0
41
1
10
13.877931681986
20
29.9326603633941
30
0
41
1
10
13.8865408314153
20
29.9233582681759
30
0
41
1
10
13.8943374623003
20
29.9139550229311
30
0
0
SPLINE
5
246
100
AcDbEntity
8
1
62
256
6
ByLayer
370
18
48
1
60
0
100
AcDbSpline
70
4
71
3
72
32
73
28
40
0
40
0
40
0
40
0
40
0.249999999999994
40
0.249999999999994
40
0.374999999999989
40
0.374999999999989
40
0.437499999999992
40
0.437499999999992
40
0.499999999999994
40
0.499999999999994
40
0.624999999999995
40
0.624999999999995
40
0.687499999999999
40
0.687499999999999
40
0.750000000000004
40
0.750000000000004
40
0.812500000000008
40
0.812500000000008
40
0.843750000000007
40
0.843750000000007
40
0.875000000000006
40
0.875000000000006
40
0.9375
40
0.9375
40
0.96875
40
0.96875
40
1
40
1
40
1
40
1
41
1
10
13.8943374623003
20
9.86941279542901
30
0
41
1
10
13.8787500604541
20
9.8124321914508
30
0
41
1
10
13.8600980474893
20
9.75655040729239
30
0
41
1
10
13.8259096258578
20
9.6749940489706
30
0
41
1
10
13.8134680509971
20
9.6481902467747
30
0
41
1
10
13.7928414767099
20
9.60870795874939
30
0
41
1
10
13.7856367336769
20
9.59566846636079
30
0
41
1
10
13.7704695406832
20
9.56986978206601
30
0
41
1
10
13.7624960081843
20
9.5570970418064
30
0
41
1
10
13.7374903421492
20
9.519633121824
30
0
41
1
10
13.7193381900701
20
9.4956691851466
30
0
41
1
10
13.6890396893639
20
9.4618303319854
30
0
41
1
10
13.6784123085734
20
9.450905440756
30
0
41
1
10
13.6562778708159
20
9.4302662999703
30
0
41
1
10
13.6447349018593
20
9.42050736757099
30
0
41
1
10
13.6205170023723
20
9.40232523007521
30
0
41
1
10
13.6078438691708
20
9.3938998985065
30
0
41
1
10
13.587782095061
20
9.382504736877
30
0
41
1
10
13.5808871113696
20
9.37890087249662
30
0
41
1
10
13.5669059767732
20
9.37226225840291
30
0
41
1
10
13.5598135318138
20
9.3692208231418
30
0
41
1
10
13.5382116651444
20
9.3609819566575
30
0
41
1
10
13.523379572462
20
9.35666489826471
30
0
41
1
10
13.5003820873604
20
9.35223469627479
30
0
41
1
10
13.4925918021169
20
9.3511045138649
30
0
41
1
10
13.47700805511
20
9.34960140948749
30
0
41
1
10
13.4691832434095
20
9.34922149098782
30
0
41
1
10
13.4613247604081
20
9.34922149098782
30
0
0
SPLINE
5
247
100
AcDbEntity
8
1
62
256
6
ByLayer
370
18
48
1
60
0
100
AcDbSpline
70
4
71
3
72
57
73
53
40
0
40
0
40
0
40
0
40
0.0156379547963351
40
0.0156379547963351
40
0.0234569321945028
40
0.0234569321945028
40
0.0312759095926705
40
0.0312759095926705
40
0.0469138643890063
40
0.0469138643890063
40
0.0547328417871742
40
0.0547328417871742
40
0.0625518191853421
40
0.0625518191853421
40
0.0781897739816782
40
0.0781897739816782
40
0.0938277287780142
40
0.0938277287780142
40
0.101646706176182
40
0.101646706176182
40
0.109465683574351
40
0.109465683574351
40
0.125103638370687
40
0.125103638370687
40
0.15637954796336
40
0.15637954796336
40
0.187655457556032
40
0.187655457556032
40
0.218931367148705
40
0.218931367148705
40
0.250207276741377
40
0.250207276741377
40
0.265845231537714
40
0.265845231537714
40
0.28148318633405
40
0.312759095926723
40
0.312759095926723
40
0.375310915112068
40
0.375310915112068
40
0.437862734297414
40
0.437862734297414
40
0.50041455348276
40
0.50041455348276
40
0.625518191853451
40
0.625518191853451
40
0.750621830224142
40
0.750621830224142
40
0.813173649409488
40
0.813173649409488
40
0.875725468594834
40
0.875725468594834
40
1
40
1
40
1
40
1
41
1
10
363.799999895003
20
39.5000001764621
30
0
41
1
10
363.76346815363
20
39.5000001764621
30
0
41
1
10
363.727758688248
20
39.5007133541561
30
0
41
1
10
363.675286373001
20
39.5027241954759
30
0
41
1
10
363.657978096456
20
39.5035516488948
30
0
41
1
10
363.623708174722
20
39.5055027640539
30
0
41
1
10
363.607035350596
20
39.50660974921
30
0
41
1
10
363.558299168248
20
39.5102614187045
30
0
41
1
10
363.527466208315
20
39.5131366168899
30
0
41
1
10
363.483150627564
20
39.5179456623959
30
0
41
1
10
363.468674599162
20
39.519635818637
30
0
41
1
10
363.440437530128
20
39.523146323683
30
0
41
1
10
363.426750001387
20
39.5249568754736
30
0
41
1
10
363.386797119071
20
39.5305260950262
30
0
41
1
10
363.361632804539
20
39.5344210348857
30
0
41
1
10
363.313570215785
20
39.5424686967686
30
0
41
1
10
363.290676618171
20
39.5466221029229
30
0
41
1
10
363.257711509924
20
39.5529929756251
30
0
41
1
10
363.246953741275
20
39.555140269048
30
0
41
1
10
363.225857640048
20
39.5594752941526
30
0
41
1
10
363.215505717228
20
39.5616660938664
30
0
41
1
10
363.185182428095
20
39.5682557796679
30
0
41
1
10
363.165903644137
20
39.5726783251836
30
0
41
1
10
363.110355720868
20
39.5859918757426
30
0
41
1
10
363.076348664126
20
39.5949267340957
30
0
41
1
10
363.012667319202
20
39.6127709626383
30
0
41
1
10
362.983010821975
20
39.621681687723
30
0
41
1
10
362.927058799862
20
39.6393921788453
30
0
41
1
10
362.900770564821
20
39.6481925089694
30
0
41
1
10
362.850917471314
20
39.6656236189676
30
0
41
1
10
362.827356089033
20
39.6742546721795
30
0
41
1
10
362.793722864311
20
39.6870420072333
30
0
41
1
10
362.782790044969
20
39.6912811090347
30
0
41
1
10
362.761492941354
20
39.6996858956515
30
0
41
1
10
362.730413110505
20
39.7121779487295
30
0
41
1
10
362.701703003732
20
39.724317819143
30
0
41
1
10
362.646978599605
20
39.7481137054223
30
0
41
1
10
362.614067570683
20
39.763331866647
30
0
41
1
10
362.553734472976
20
39.7924228417129
30
0
41
1
10
362.526325259701
20
39.8062960040498
30
0
41
1
10
362.475974416184
20
39.8326606968695
30
0
41
1
10
362.453038715225
20
39.8451523941823
30
0
41
1
10
362.389887882263
20
39.8805142129783
30
0
41
1
10
362.355270608775
20
39.9012695783207
30
0
41
1
10
362.297569720063
20
39.9369820296055
30
0
41
1
10
362.274520185941
20
39.9519402566772
30
0
41
1
10
362.247281720355
20
39.969939082299
30
0
41
1
10
362.239434257735
20
39.9751991274318
30
0
41
1
10
362.226069638662
20
39.9842263157481
30
0
41
1
10
362.2205576284
20
39.987990141722
30
0
41
1
10
362.207460978315
20
39.996973602187
30
0
41
1
10
362.203166077642
20
39.9999734630329
30
0
41
1
10
362.203128203864
20
39.999999999615
30
0
0
SPLINE
5
248
100
AcDbEntity
8
1
62
256
6
ByLayer
370
18
48
1
60
0
100
AcDbSpline
70
4
71
3
72
26
73
22
40
0
40
0
40
0
40
0
40
0.125000000000005
40
0.125000000000005
40
0.187500000000007
40
0.187500000000007
40
0.250000000000008
40
0.250000000000008
40
0.375000000000009
40
0.375000000000009
40
0.500000000000009
40
0.500000000000009
40
0.62500000000001
40
0.62500000000001
40
0.687500000000008
40
0.687500000000008
40
0.750000000000007
40
0.750000000000007
40
0.875000000000003
40
0.875000000000003
40
1
40
1
40
1
40
1
41
1
10
368.999999895003
20
39.4251993444753
30
0
41
1
10
368.999999895003
20
39.4223901875741
30
0
41
1
10
369.001596326009
20
39.4196166287552
30
0
41
1
10
369.006289788073
20
39.415508374224
30
0
41
1
10
369.008240216513
20
39.4141477158671
30
0
41
1
10
369.012930454193
20
39.4114446601452
30
0
41
1
10
369.015686479855
20
39.4100968432393
30
0
41
1
10
369.024988048727
20
39.4061642111628
30
0
41
1
10
369.03258349838
20
39.4036662640619
30
0
41
1
10
369.050542138242
20
39.3989209405242
30
0
41
1
10
369.061026839462
20
39.3966580452891
30
0
41
1
10
369.083997326327
20
39.3925828923554
30
0
41
1
10
369.096539181119
20
39.3907475731826
30
0
41
1
10
369.116974474306
20
39.38830961748
30
0
41
1
10
369.124091079667
20
39.3875474511904
30
0
41
1
10
369.138573311528
20
39.3861639832721
30
0
41
1
10
369.145967968657
20
39.3855385168871
30
0
41
1
10
369.168604644332
20
39.3838583754874
30
0
41
1
10
369.184327972227
20
39.3829968292428
30
0
41
1
10
369.216901010922
20
39.3818298338318
30
0
41
1
10
369.23336256101
20
39.3815371504999
30
0
41
1
10
369.249999895003
20
39.3815371504999
30
0
0
SPLINE
5
249
100
AcDbEntity
8
1
62
256
6
ByLayer
370
18
48
1
60
0
100
AcDbSpline
70
2053
71
3
72
192
73
188
40
0
40
0
40
0
40
0
40
0.0039062499999994
40
0.0039062499999994
40
0.0058593749999991
40
0.0058593749999991
40
0.0078124999999988
40
0.0097656249999985
40
0.0097656249999985
40
0.0117187499999982
40
0.0117187499999982
40
0.0156249999999977
40
0.0156249999999977
40
0.0195312499999972
40
0.0195312499999972
40
0.0214843749999969
40
0.0214843749999969
40
0.0234374999999967
40
0.0234374999999967
40
0.0312499999999962
40
0.0312499999999962
40
0.0390624999999956
40
0.0390624999999956
40
0.0468749999999951
40
0.0468749999999951
40
0.0546874999999945
40
0.0546874999999945
40
0.0624999999999939
40
0.0624999999999939
40
0.0781249999999927
40
0.0781249999999927
40
0.0937499999999914
40
0.0937499999999914
40
0.10937499999999
40
0.10937499999999
40
0.124999999999989
40
0.124999999999989
40
0.156249999999986
40
0.156249999999986
40
0.187499999999983
40
0.187499999999983
40
0.21874999999998
40
0.21874999999998
40
0.226562499999979
40
0.226562499999979
40
0.234374999999979
40
0.249999999999978
40
0.249999999999978
40
0.281249999999976
40
0.281249999999976
40
0.312499999999975
40
0.312499999999975
40
0.343749999999973
40
0.343749999999973
40
0.359374999999972
40
0.359374999999972
40
0.374999999999971
40
0.374999999999971
40
0.382812499999971
40
0.382812499999971
40
0.390624999999971
40
0.390624999999971
40
0.406249999999971
40
0.406249999999971
40
0.42187499999997
40
0.42187499999997
40
0.42968749999997
40
0.42968749999997
40
0.43749999999997
40
0.43749999999997
40
0.44531249999997
40
0.44531249999997
40
0.45312499999997
40
0.45312499999997
40
0.45703124999997
40
0.45703124999997
40
0.46093749999997
40
0.46093749999997
40
0.46874999999997
40
0.46874999999997
40
0.476562499999971
40
0.476562499999971
40
0.478515624999971
40
0.478515624999971
40
0.480468749999971
40
0.484374999999972
40
0.488281249999972
40
0.488281249999972
40
0.490234374999972
40
0.490234374999972
40
0.492187499999972
40
0.492187499999972
40
0.499999999999972
40
0.499999999999972
40
0.503906249999972
40
0.503906249999972
40
0.507812499999973
40
0.507812499999973
40
0.511718749999973
40
0.511718749999973
40
0.513671874999973
40
0.513671874999973
40
0.515624999999973
40
0.515624999999973
40
0.523437499999973
40
0.523437499999973
40
0.527343749999974
40
0.527343749999974
40
0.531249999999974
40
0.531249999999974
40
0.539062499999975
40
0.539062499999975
40
0.546874999999975
40
0.546874999999975
40
0.554687499999976
40
0.554687499999976
40
0.558593749999976
40
0.558593749999976
40
0.562499999999976
40
0.562499999999976
40
0.578124999999977
40
0.578124999999977
40
0.593749999999979
40
0.593749999999979
40
0.60937499999998
40
0.60937499999998
40
0.61718749999998
40
0.61718749999998
40
0.624999999999981
40
0.624999999999981
40
0.640624999999982
40
0.640624999999982
40
0.656249999999983
40
0.656249999999983
40
0.687499999999985
40
0.687499999999985
40
0.718749999999988
40
0.718749999999988
40
0.726562499999988
40
0.726562499999988
40
0.734374999999989
40
0.734374999999989
40
0.74999999999999
40
0.74999999999999
40
0.781249999999991
40
0.812499999999993
40
0.812499999999993
40
0.843749999999995
40
0.843749999999995
40
0.874999999999996
40
0.874999999999996
40
0.890624999999997
40
0.890624999999997
40
0.906249999999998
40
0.906249999999998
40
0.921874999999998
40
0.921874999999998
40
0.937499999999999
40
0.937499999999999
40
0.953125
40
0.953125
40
0.9609375
40
0.9609375
40
0.96875
40
0.96875
40
0.97265625
40
0.97265625
40
0.9765625
40
0.9765625
40
0.98046875
40
0.98046875
40
0.984375
40
0.984375
40
0.98828125
40
0.98828125
40
0.9921875
40
0.9921875
40
0.994140625
40
0.994140625
40
0.99609375
40
0.998046875
40
0.998046875
40
0.9990234375
40
0.9990234375
40
0.99951171875
40
0.99951171875
40
1
40
1
40
1
40
1
41
1
10
362.836615618651
20
-39.299962343971
30
0
41
1
10
362.803392360841
20
-39.3001767440915
30
0
41
1
10
362.770883336513
20
-39.2994691828631
30
0
41
1
10
362.723065270668
20
-39.2971820559854
30
0
41
1
10
362.707219060726
20
-39.2962076658771
30
0
41
1
10
362.676647992884
20
-39.2939412921425
30
0
41
1
10
362.646982262518
20
-39.2913514225515
30
0
41
1
10
362.61884697304
20
-39.2882091527561
30
0
41
1
10
362.591368073509
20
-39.2848269312216
30
0
41
1
10
362.577908106052
20
-39.2830081482986
30
0
41
1
10
362.538859096427
20
-39.2773055363239
30
0
41
1
10
362.514515178271
20
-39.2731763073401
30
0
41
1
10
362.468189697684
20
-39.2644380018606
30
0
41
1
10
362.446218443086
20
-39.2598270722351
30
0
41
1
10
362.414601815565
20
-39.2526236422128
30
0
41
1
10
362.40428862259
20
-39.250174253155
30
0
41
1
10
362.384060656022
20
-39.2451878066353
30
0
41
1
10
362.374145911874
20
-39.2426503697184
30
0
41
1
10
362.325752089367
20
-39.2298424383075
30
0
41
1
10
362.290452679206
20
-39.2191510411068
30
0
41
1
10
362.224116803527
20
-39.1971035755703
30
0
41
1
10
362.193120763832
20
-39.1857437722925
30
0
41
1
10
362.134184284673
20
-39.1624611583355
30
0
41
1
10
362.106257273048
20
-39.1505371232604
30
0
41
1
10
362.052738275032
20
-39.1261844147543
30
0
41
1
10
362.027151854168
20
-39.1137552405164
30
0
41
1
10
361.977849659432
20
-39.0884281412353
30
0
41
1
10
361.954108845593
20
-39.0755134774877
30
0
41
1
10
361.88548374264
20
-39.0362574107774
30
0
41
1
10
361.84312198552
20
-39.0093929353081
30
0
41
1
10
361.763273711103
20
-38.9543344842712
30
0
41
1
10
361.725809706396
20
-38.9261396896196
30
0
41
1
10
361.65476494385
20
-38.8684457111999
30
0
41
1
10
361.621193094487
20
-38.8389462126642
30
0
41
1
10
361.557335579793
20
-38.7786535803725
30
0
41
1
10
361.527054034642
20
-38.7478603064223
30
0
41
1
10
361.440581541515
20
-38.6535434019135
30
0
41
1
10
361.388721678748
20
-38.5880846293595
30
0
41
1
10
361.295100064803
20
-38.451961045807
30
0
41
1
10
361.253360612072
20
-38.3812957012732
30
0
41
1
10
361.179698813174
20
-38.2346540346443
30
0
41
1
10
361.14778305678
20
-38.1586778166067
30
0
41
1
10
361.114296144788
20
-38.0602896974524
30
0
41
1
10
361.107919716591
20
-38.0404362670896
30
0
41
1
10
361.095846160727
20
-38.0004638889064
30
0
41
1
10
361.078746735492
20
-37.9400799438427
30
0
41
1
10
361.064717094853
20
-37.8784224814508
30
0
41
1
10
361.040909982012
20
-37.7534167931171
30
0
41
1
10
361.030685764624
20
-37.6678251300812
30
0
41
1
10
361.022871348003
20
-37.4921747305237
30
0
41
1
10
361.025269896191
20
-37.4021157806664
30
0
41
1
10
361.044873794881
20
-37.2175809464486
30
0
41
1
10
361.062051800055
20
-37.1231045982013
30
0
41
1
10
361.101584934463
20
-36.9781283136061
30
0
41
1
10
361.117069814412
20
-36.9292594329081
30
0
41
1
10
361.153333550199
20
-36.8304466999293
30
0
41
1
10
361.174108575693
20
-36.7805027862999
30
0
41
1
10
361.209938041109
20
-36.7047924658068
30
0
41
1
10
361.22266132992
20
-36.679423319341
30
0
41
1
10
361.249821114452
20
-36.628422812773
30
0
41
1
10
361.264239659305
20
-36.602828864967
30
0
41
1
10
361.310075299901
20
-36.5260612011843
30
0
41
1
10
361.344107485624
20
-36.4747962714578
30
0
41
1
10
361.420547323457
20
-36.3723484476097
30
0
41
1
10
361.462937815163
20
-36.3211628987884
30
0
41
1
10
361.534452900301
20
-36.2447285956402
30
0
41
1
10
361.559620288765
20
-36.2193090056406
30
0
41
1
10
361.613027391154
20
-36.1686557024173
30
0
41
1
10
361.641305322546
20
-36.1433948591182
30
0
41
1
10
361.700951493757
20
-36.0935770343284
30
0
41
1
10
361.732363499883
20
-36.0689726072831
30
0
41
1
10
361.798897826959
20
-36.0205378498603
30
0
41
1
10
361.8340163969
20
-35.9967064569128
30
0
41
1
10
361.890039422839
20
-35.961710603201
30
0
41
1
10
361.909273343833
20
-35.9501711121032
30
0
41
1
10
361.948988005157
20
-35.9273818406338
30
0
41
1
10
361.969510501724
20
-35.9161113218073
30
0
41
1
10
362.032688388444
20
-35.8830576389577
30
0
41
1
10
362.077022177762
20
-35.8619714849988
30
0
41
1
10
362.171087972992
20
-35.8222016528397
30
0
41
1
10
362.220807029122
20
-35.8035117470716
30
0
41
1
10
362.28728504474
20
-35.782135512655
30
0
41
1
10
362.300827074686
20
-35.7779524686108
30
0
41
1
10
362.328235773606
20
-35.7698464827119
30
0
41
1
10
362.369787575083
20
-35.7580905607034
30
0
41
1
10
362.441321290921
20
-35.7406024948298
30
0
41
1
10
362.501209074365
20
-35.7290885824786
30
0
41
1
10
362.547234273248
20
-35.7214925732908
30
0
41
1
10
362.56276118893
20
-35.7191340751081
30
0
41
1
10
362.594208111776
20
-35.7147863613188
30
0
41
1
10
362.610132861
20
-35.7127985271557
30
0
41
1
10
362.689691749298
20
-35.7039506139776
30
0
41
1
10
362.753973201612
20
-35.7002296895611
30
0
41
1
10
362.851384062186
20
-35.6999003242589
30
0
41
1
10
362.884019555629
20
-35.7006677901094
30
0
41
1
10
362.949632924569
20
-35.7040193963607
30
0
41
1
10
362.981929520729
20
-35.7065690843295
30
0
41
1
10
363.045474959794
20
-35.7132677592446
30
0
41
1
10
363.076742594507
20
-35.7174179957912
30
0
41
1
10
363.122936799987
20
-35.724759926935
30
0
41
1
10
363.138216856619
20
-35.7273935373685
30
0
41
1
10
363.16854786802
20
-35.7330214136394
30
0
41
1
10
363.183637068251
20
-35.7360240363024
30
0
41
1
10
363.258008563537
20
-35.7517999800446
30
0
41
1
10
363.313887911654
20
-35.7667699078366
30
0
41
1
10
363.393495911113
20
-35.7919053770732
30
0
41
1
10
363.419322914587
20
-35.8007353459831
30
0
41
1
10
363.469696500441
20
-35.8192006376671
30
0
41
1
10
363.494283283192
20
-35.8288531652779
30
0
41
1
10
363.566022271745
20
-35.8587894574839
30
0
41
1
10
363.61059554173
20
-35.8797894197958
30
0
41
1
10
363.694695804479
20
-35.9233352118999
30
0
41
1
10
363.734211306175
20
-35.9458850855598
30
0
41
1
10
363.809097176405
20
-35.9921899715529
30
0
41
1
10
363.84446223654
20
-36.0159468613082
30
0
41
1
10
363.894865459843
20
-36.0523061963161
30
0
41
1
10
363.911247356501
20
-36.0645660241242
30
0
41
1
10
363.943019992116
20
-36.0891721223067
30
0
41
1
10
363.958423339358
20
-36.1015260606633
30
0
41
1
10
364.033237421223
20
-36.1635106934574
30
0
41
1
10
364.086131184494
20
-36.213770004655
30
0
41
1
10
364.181639558525
20
-36.3149394454672
30
0
41
1
10
364.224214874456
20
-36.3658565040547
30
0
41
1
10
364.301119159453
20
-36.4679360924752
30
0
41
1
10
364.33543247481
20
-36.5191014114687
30
0
41
1
10
364.381714625832
20
-36.5958254404365
30
0
41
1
10
364.396227242276
20
-36.6213219058172
30
0
41
1
10
364.423546565216
20
-36.6720633506978
30
0
41
1
10
364.436361452028
20
-36.6973223155832
30
0
41
1
10
364.472489792771
20
-36.7727543122442
30
0
41
1
10
364.493495612982
20
-36.8225820993345
30
0
41
1
10
364.530242450402
20
-36.9212766071077
30
0
41
1
10
364.545979938302
20
-36.970143469681
30
0
41
1
10
364.586264417391
20
-37.1152563469225
30
0
41
1
10
364.603932652178
20
-37.2100127522085
30
0
41
1
10
364.624374204276
20
-37.3953750118726
30
0
41
1
10
364.627121865195
20
-37.4859819632449
30
0
41
1
10
364.622543959066
20
-37.5965676429322
30
0
41
1
10
364.621225347343
20
-37.6185512139668
30
0
41
1
10
364.617806449612
20
-37.6622495247951
30
0
41
1
10
364.615704714746
20
-37.683975409243
30
0
41
1
10
364.608272314984
20
-37.7486412249199
30
0
41
1
10
364.601817429452
20
-37.7910775861133
30
0
41
1
10
364.578236487857
20
-37.9163979915304
30
0
41
1
10
364.535593156295
20
-38.0781934759052
30
0
41
1
10
364.472503550225
20
-38.229672848969
30
0
41
1
10
364.399531561231
20
-38.3760940251267
30
0
41
1
10
364.358111780038
20
-38.4467754876936
30
0
41
1
10
364.265005779553
20
-38.583143056326
30
0
41
1
10
364.213343340769
20
-38.6488295815527
30
0
41
1
10
364.127003459375
20
-38.743629009605
30
0
41
1
10
364.096738603171
20
-38.7746067455695
30
0
41
1
10
364.032839300586
20
-38.835314811795
30
0
41
1
10
363.999179269672
20
-38.8650676052837
30
0
41
1
10
363.92807240537
20
-38.9231436284751
30
0
41
1
10
363.890623949453
20
-38.951479749498
30
0
41
1
10
363.81097884449
20
-39.0067161578412
30
0
41
1
10
363.768768170524
20
-39.0336353707914
30
0
41
1
10
363.678108718221
20
-39.0858566535913
30
0
41
1
10
363.629715615708
20
-39.1111635372901
30
0
41
1
10
363.550055623733
20
-39.1477704890589
30
0
41
1
10
363.52232903848
20
-39.1597353381195
30
0
41
1
10
363.46389849778
20
-39.1830917663847
30
0
41
1
10
363.433193969241
20
-39.1944904925273
30
0
41
1
10
363.383986268291
20
-39.211091258642
30
0
41
1
10
363.367056654776
20
-39.2165395647646
30
0
41
1
10
363.332080702402
20
-39.2271950264012
30
0
41
1
10
363.314017838019
20
-39.2324084873854
30
0
41
1
10
363.27646752307
20
-39.2425712877749
30
0
41
1
10
363.256982447444
20
-39.2475209580173
30
0
41
1
10
363.216186073317
20
-39.2571032396638
30
0
41
1
10
363.194879876351
20
-39.2617365668451
30
0
41
1
10
363.149806206933
20
-39.2706009680791
30
0
41
1
10
363.125920332052
20
-39.2748494495165
30
0
41
1
10
363.075753656351
20
-39.2826290209428
30
0
41
1
10
363.049412617328
20
-39.2861799818017
30
0
41
1
10
363.007222677851
20
-39.2908083041803
30
0
41
1
10
362.992696238642
20
-39.2922323526375
30
0
41
1
10
362.963172389586
20
-39.2947500402532
30
0
41
1
10
362.933048276339
20
-39.2969522248998
30
0
41
1
10
362.901560498199
20
-39.2984433585467
30
0
41
1
10
362.87735601798
20
-39.2992563380546
30
0
41
1
10
362.869247758982
20
-39.2994742813603
30
0
41
1
10
362.857045908853
20
-39.2997191356673
30
0
41
1
10
362.85297086314
20
-39.2997871159528
30
0
41
1
10
362.844805066086
20
-39.2998954950131
30
0
41
1
10
362.840768525877
20
-39.2999355439559
30
0
41
1
10
362.836615618651
20
-39.299962343971
30
0
0
SPLINE
5
24A
100
AcDbEntity
8
1
62
256
6
ByLayer
370
18
48
1
60
0
100
AcDbSpline
70
4
71
3
72
53
73
49
40
0
40
0
40
0
40
0
40
0.124732237322458
40
0.124732237322458
40
0.249770489133536
40
0.249770489133536
40
0.374808740944613
40
0.374808740944613
40
0.49984699275569
40
0.49984699275569
40
0.562366118661229
40
0.562366118661229
40
0.624885244566767
40
0.624885244566767
40
0.687404370472306
40
0.687404370472306
40
0.718663933425076
40
0.718663933425076
40
0.749923496377845
40
0.749923496377845
40
0.781183059330614
40
0.781183059330614
40
0.812442622283383
40
0.812442622283383
40
0.843702185236153
40
0.843702185236153
40
0.874961748188922
40
0.874961748188922
40
0.890591529665307
40
0.890591529665307
40
0.906221311141692
40
0.906221311141692
40
0.921851092618077
40
0.921851092618077
40
0.937480874094462
40
0.937480874094462
40
0.945295764832654
40
0.945295764832654
40
0.953110655570846
40
0.953110655570846
40
0.968740437047231
40
0.968740437047231
40
0.976555327785423
40
0.976555327785423
40
0.980462773154519
40
0.980462773154519
40
0.984370218523616
40
1
40
1
40
1
40
1
41
1
10
362.203128231572
20
-39.9999996295491
30
0
41
1
10
362.203168292447
20
-39.9999717251453
30
0
41
1
10
362.207500603436
20
-39.996945434118
30
0
41
1
10
362.225094769895
20
-39.9848782459862
30
0
41
1
10
362.238386074155
20
-39.9758139319181
30
0
41
1
10
362.274861828485
20
-39.9517171185971
30
0
41
1
10
362.298032230874
20
-39.9366839102605
30
0
41
1
10
362.356187351326
20
-39.9007136153587
30
0
41
1
10
362.391167921216
20
-39.8797584349132
30
0
41
1
10
362.454987513627
20
-39.8440813250244
30
0
41
1
10
362.47816956284
20
-39.8314802245242
30
0
41
1
10
362.529069827848
20
-39.8048923705125
30
0
41
1
10
362.556800700646
20
-39.7908966214587
30
0
41
1
10
362.617749172049
20
-39.7616093209536
30
0
41
1
10
362.650945435642
20
-39.7463215268176
30
0
41
1
10
362.705990206345
20
-39.7224927819272
30
0
41
1
10
362.725218693091
20
-39.714400608776
30
0
41
1
10
362.765722578392
20
-39.6979336514921
30
0
41
1
10
362.786995719915
20
-39.6895596723694
30
0
41
1
10
362.831862012933
20
-39.6725896380357
30
0
41
1
10
362.855463042129
20
-39.6639892936516
30
0
41
1
10
362.905492566674
20
-39.6465948375485
30
0
41
1
10
362.931918478616
20
-39.6377999614971
30
0
41
1
10
362.9883050472
20
-39.6200698011349
30
0
41
1
10
363.018140251345
20
-39.6111720928349
30
0
41
1
10
363.082022317125
20
-39.5934139177439
30
0
41
1
10
363.116054404056
20
-39.5845520502679
30
0
41
1
10
363.171397067362
20
-39.5714071467048
30
0
41
1
10
363.190566104295
20
-39.5670507204002
30
0
41
1
10
363.230652039893
20
-39.5584193732358
30
0
41
1
10
363.251593240043
20
-39.554139157412
30
0
41
1
10
363.295545929284
20
-39.5457255355535
30
0
41
1
10
363.318427999516
20
-39.5416161581486
30
0
41
1
10
363.366433339898
20
-39.5336643452736
30
0
41
1
10
363.391552184118
20
-39.5298212400671
30
0
41
1
10
363.431395296673
20
-39.5243358706601
30
0
41
1
10
363.445068448455
20
-39.5225512284407
30
0
41
1
10
363.472932968224
20
-39.5191322870373
30
0
41
1
10
363.487153340429
20
-39.517493594745
30
0
41
1
10
363.53077754808
20
-39.5128193758747
30
0
41
1
10
363.561133347947
20
-39.5100227352647
30
0
41
1
10
363.609127756146
20
-39.5064670831344
30
0
41
1
10
363.625538383691
20
-39.5053890540916
30
0
41
1
10
363.65087308369
20
-39.5039610653915
30
0
41
1
10
363.659445102042
20
-39.5035166337163
30
0
41
1
10
363.676616783302
20
-39.5027064015806
30
0
41
1
10
363.719749712939
20
-39.500869648628
30
0
41
1
10
363.763920682986
20
-39.4999998235379
30
0
41
1
10
363.799999895003
20
-39.4999998235378
30
0
0
SPLINE
5
24B
100
AcDbEntity
8
1
62
256
6
ByLayer
370
18
48
1
60
0
100
AcDbSpline
70
4
71
3
72
26
73
22
40
0
40
0
40
0
40
0
40
0.125000000000005
40
0.125000000000005
40
0.187500000000006
40
0.187500000000006
40
0.250000000000007
40
0.250000000000007
40
0.375000000000007
40
0.375000000000007
40
0.500000000000007
40
0.500000000000007
40
0.625000000000007
40
0.625000000000007
40
0.687500000000005
40
0.687500000000005
40
0.750000000000003
40
0.750000000000003
40
0.875000000000001
40
0.875000000000001
40
1
40
1
40
1
40
1
41
1
10
368.999999895003
20
-39.4251989915509
30
0
41
1
10
368.999999895003
20
-39.4223898346497
30
0
41
1
10
369.001596326009
20
-39.4196162758309
30
0
41
1
10
369.006289788073
20
-39.4155080212996
30
0
41
1
10
369.008240216513
20
-39.4141473629427
30
0
41
1
10
369.012930454193
20
-39.4114443072209
30
0
41
1
10
369.015686479855
20
-39.4100964903149
30
0
41
1
10
369.024988048727
20
-39.4061638582384
30
0
41
1
10
369.03258349838
20
-39.4036659111376
30
0
41
1
10
369.050542138242
20
-39.3989205875999
30
0
41
1
10
369.061026839462
20
-39.3966576923648
30
0
41
1
10
369.083997326327
20
-39.3925825394311
30
0
41
1
10
369.096539181119
20
-39.3907472202582
30
0
41
1
10
369.116974474306
20
-39.3883092645557
30
0
41
1
10
369.124091079667
20
-39.387547098266
30
0
41
1
10
369.138573311528
20
-39.3861636303477
30
0
41
1
10
369.145967968657
20
-39.3855381639627
30
0
41
1
10
369.168604644332
20
-39.383858022563
30
0
41
1
10
369.184327972227
20
-39.3829964763184
30
0
41
1
10
369.216901010922
20
-39.3818294809075
30
0
41
1
10
369.23336256101
20
-39.3815367975755
30
0
41
1
10
369.249999895003
20
-39.3815367975755
30
0
0
SPLINE
5
24C
100
AcDbEntity
8
1
62
256
6
ByLayer
370
18
48
1
60
0
100
AcDbSpline
70
4
71
3
72
58
73
54
40
0
40
0
40
0
40
0
40
0.0625000000000019
40
0.0625000000000019
40
0.125000000000004
40
0.125000000000004
40
0.140625000000004
40
0.148437500000004
40
0.148437500000004
40
0.156250000000005
40
0.156250000000005
40
0.187500000000005
40
0.187500000000005
40
0.250000000000007
40
0.250000000000007
40
0.281250000000008
40
0.281250000000008
40
0.296875000000008
40
0.304687500000008
40
0.304687500000008
40
0.312500000000008
40
0.312500000000008
40
0.375000000000008
40
0.375000000000008
40
0.437500000000007
40
0.437500000000007
40
0.468750000000007
40
0.468750000000007
40
0.484375000000007
40
0.484375000000007
40
0.500000000000006
40
0.500000000000006
40
0.562500000000005
40
0.562500000000005
40
0.625000000000004
40
0.625000000000004
40
0.640625000000004
40
0.640625000000004
40
0.656250000000004
40
0.656250000000004
40
0.687500000000004
40
0.687500000000004
40
0.750000000000003
40
0.750000000000003
40
0.812500000000003
40
0.812500000000003
40
0.875000000000002
40
0.875000000000002
40
0.937500000000001
40
0.937500000000001
40
0.968750000000001
40
0.968750000000001
40
1
40
1
40
1
40
1
41
1
10
368.99051310367
20
17.0000058014147
30
0
41
1
10
368.672891376522
20
17.0003824530605
30
0
41
1
10
368.359179416663
20
17.0195981912088
30
0
41
1
10
367.73921177163
20
17.0938076642817
30
0
41
1
10
367.432957907263
20
17.148810231398
30
0
41
1
10
367.054809986375
20
17.2396982185211
30
0
41
1
10
366.941717105339
20
17.2686298669441
30
0
41
1
10
366.829155549914
20
17.3000681040929
30
0
41
1
10
366.754233203409
20
17.3215855577643
30
0
41
1
10
366.716801547611
20
17.3326326737887
30
0
41
1
10
366.530300733925
20
17.3891597572208
30
0
41
1
10
366.383787708914
20
17.4383238710853
30
0
41
1
10
365.952000052468
20
17.5970442830602
30
0
41
1
10
365.67445124988
20
17.7177956638256
30
0
41
1
10
365.272897189086
20
17.9196647671555
30
0
41
1
10
365.141514219468
20
17.9904204525056
30
0
41
1
10
364.948110548724
20
18.1016146675755
30
0
41
1
10
364.85232693223
20
18.1584775878809
30
0
41
1
10
364.757919230929
20
18.2172187470927
30
0
41
1
10
364.69528666677
20
18.2567949814688
30
0
41
1
10
364.664098082059
20
18.2768074517801
30
0
41
1
10
364.385498184794
20
18.4583084665441
30
0
41
1
10
364.1524488894
20
18.629610159929
30
0
41
1
10
363.713019246659
20
18.9893050969641
30
0
41
1
10
363.506652526704
20
19.1777096920999
30
0
41
1
10
363.215953483653
20
19.4715474037936
30
0
41
1
10
363.12220183862
20
19.5713695258023
30
0
41
1
10
362.9861980484
20
19.7237493737596
30
0
41
1
10
362.941759332834
20
19.7748452397211
30
0
41
1
10
362.854771302802
20
19.8774335959633
30
0
41
1
10
362.812197149902
20
19.9289538819985
30
0
41
1
10
362.603792265529
20
20.1876056283633
30
0
41
1
10
362.451323674592
20
20.3978721699965
30
0
41
1
10
362.172107918058
20
20.8233228392892
30
0
41
1
10
362.045370694347
20
21.0385116586505
30
0
41
1
10
361.901745474689
20
21.3096681660995
30
0
41
1
10
361.87376163522
20
21.364008592
30
0
41
1
10
361.819249210122
20
21.4728871730189
30
0
41
1
10
361.792693381518
20
21.527484307681
30
0
41
1
10
361.715429577978
20
21.6909867510794
30
0
41
1
10
361.66709878668
20
21.7996349346151
30
0
41
1
10
361.531000132077
20
22.1243875592825
30
0
41
1
10
361.452104865048
20
22.3392966164034
30
0
41
1
10
361.315189112655
20
22.765331060632
30
0
41
1
10
361.257176129446
20
22.9764578135284
30
0
41
1
10
361.159835277464
20
23.3944279018656
30
0
41
1
10
361.120512199116
20
23.6012721322317
30
0
41
1
10
361.058769568603
20
24.0102388949289
30
0
41
1
10
361.036353250115
20
24.2123620494274
30
0
41
1
10
361.014288934333
20
24.5117063319615
30
0
41
1
10
361.00887832
20
24.6106475547668
30
0
41
1
10
361.001734768322
20
24.8066754397293
30
0
41
1
10
360.999999895003
20
24.903789361328
30
0
41
1
10
360.999999895003
20
25.0000001764621
30
0
0
SPLINE
5
24D
100
AcDbEntity
8
1
62
256
6
ByLayer
370
18
48
1
60
0
100
AcDbSpline
70
4
71
3
72
26
73
22
40
0
40
0
40
0
40
0
40
0.124999999999997
40
0.249999999999993
40
0.249999999999993
40
0.312499999999993
40
0.312499999999993
40
0.374999999999993
40
0.374999999999993
40
0.499999999999992
40
0.499999999999992
40
0.562499999999992
40
0.562499999999992
40
0.624999999999993
40
0.624999999999993
40
0.749999999999995
40
0.874999999999997
40
0.874999999999997
40
0.937499999999999
40
0.937499999999999
40
1
40
1
40
1
40
1
41
1
10
385.204020077566
20
-50.1398265680406
30
0
41
1
10
385.166426812192
20
-50.1381658307769
30
0
41
1
10
385.092156215793
20
-50.1347610146435
30
0
41
1
10
385.019639870776
20
-50.1312152356848
30
0
41
1
10
384.965919744825
20
-50.1285238817377
30
0
41
1
10
384.948073143279
20
-50.1276189056534
30
0
41
1
10
384.9128484037
20
-50.1258158789731
30
0
41
1
10
384.895560120521
20
-50.1249225112239
30
0
41
1
10
384.844641849448
20
-50.1222755289532
30
0
41
1
10
384.811953994844
20
-50.1205544910306
30
0
41
1
10
384.764791217768
20
-50.1180819483818
30
0
41
1
10
384.749382914358
20
-50.1172760638644
30
0
41
1
10
384.719202449122
20
-50.1157099797925
30
0
41
1
10
384.704373980077
20
-50.1149469447793
30
0
41
1
10
384.661373241622
20
-50.1127674761056
30
0
41
1
10
384.60797696686
20
-50.1101521834396
30
0
41
1
10
384.562207916227
20
-50.1082417530311
30
0
41
1
10
384.53081886262
20
-50.1071341007479
30
0
41
1
10
384.520828763342
20
-50.1068189140032
30
0
41
1
10
384.502041652015
20
-50.1063139558209
30
0
41
1
10
384.493224060978
20
-50.106123290157
30
0
41
1
10
384.484984840526
20
-50.1059986228001
30
0
0
SPLINE
5
24E
100
AcDbEntity
8
1
62
256
6
ByLayer
370
18
48
1
60
0
100
AcDbSpline
70
4
71
3
72
51
73
47
40
0
40
0
40
0
40
0
40
0.0624999999999975
40
0.0624999999999975
40
0.124999999999995
40
0.124999999999995
40
0.187499999999993
40
0.187499999999993
40
0.203124999999992
40
0.203124999999992
40
0.218749999999992
40
0.218749999999992
40
0.249999999999992
40
0.249999999999992
40
0.312499999999993
40
0.312499999999993
40
0.374999999999993
40
0.374999999999993
40
0.437499999999993
40
0.437499999999993
40
0.468749999999993
40
0.484374999999993
40
0.484374999999993
40
0.499999999999993
40
0.499999999999993
40
0.562499999999994
40
0.562499999999994
40
0.624999999999995
40
0.624999999999995
40
0.687499999999996
40
0.687499999999996
40
0.749999999999997
40
0.749999999999997
40
0.812499999999998
40
0.812499999999998
40
0.843749999999999
40
0.843749999999999
40
0.874999999999999
40
0.874999999999999
40
0.906249999999999
40
0.906249999999999
40
0.937499999999999
40
0.937499999999999
40
0.96875
40
0.96875
40
1
40
1
40
1
40
1
41
1
10
388.104124596038
20
-24.2518548849163
30
0
41
1
10
388.104124596038
20
-24.4582253696277
30
0
41
1
10
388.11540899332
20
-24.6592465708333
30
0
41
1
10
388.157591928957
20
-25.0511749024847
30
0
41
1
10
388.188502288297
20
-25.2420801064624
30
0
41
1
10
388.267866140336
20
-25.6141327056522
30
0
41
1
10
388.316326596171
20
-25.7952790841616
30
0
41
1
10
388.38693136059
20
-26.0157240364898
30
0
41
1
10
388.401554936159
20
-26.0595132206432
30
0
41
1
10
388.431788089604
20
-26.1464931857369
30
0
41
1
10
388.447412232136
20
-26.1897224820513
30
0
41
1
10
388.495636417577
20
-26.3182471984783
30
0
41
1
10
388.529474596796
20
-26.402094456886
30
0
41
1
10
388.635666970246
20
-26.6483884548352
30
0
41
1
10
388.712685139989
20
-26.8055986712052
30
0
41
1
10
388.877511924583
20
-27.1071122691091
30
0
41
1
10
388.965326074421
20
-27.2514123843583
30
0
41
1
10
389.150483228418
20
-27.5278389590184
30
0
41
1
10
389.247830118253
20
-27.6599634730561
30
0
41
1
10
389.400231849692
20
-27.849385759773
30
0
41
1
10
389.478030386623
20
-27.9419031555343
30
0
41
1
10
389.558097076974
20
-28.0311770698291
30
0
41
1
10
389.61196538187
20
-28.0899760815587
30
0
41
1
10
389.639143256546
20
-28.1190141606209
30
0
41
1
10
389.775745113911
20
-28.2619335131731
30
0
41
1
10
389.887679069438
20
-28.3694299131976
30
0
41
1
10
390.115792603487
20
-28.5716934273923
30
0
41
1
10
390.231977066913
20
-28.6664582024632
30
0
41
1
10
390.467550954466
20
-28.8439288885126
30
0
41
1
10
390.586947429227
20
-28.9266334810942
30
0
41
1
10
390.827743739293
20
-29.0804367447837
30
0
41
1
10
390.949156692075
20
-29.1515349942593
30
0
41
1
10
391.19233971052
20
-29.2823870434986
30
0
41
1
10
391.31413883434
20
-29.3421417618885
30
0
41
1
10
391.495099786465
20
-29.4233144071647
30
0
41
1
10
391.555120197409
20
-29.4489604672644
30
0
41
1
10
391.67401879059
20
-29.4974142105578
30
0
41
1
10
391.732964734912
20
-29.5202435292823
30
0
41
1
10
391.848320117612
20
-29.5628062747393
30
0
41
1
10
391.904793959667
20
-29.5825668202426
30
0
41
1
10
392.014199579378
20
-29.6190332471191
30
0
41
1
10
392.067138585737
20
-29.6357397689866
30
0
41
1
10
392.167833421885
20
-29.6660447913751
30
0
41
1
10
392.215598838911
20
-29.6796445328614
30
0
41
1
10
392.303534860588
20
-29.7036146918875
30
0
41
1
10
392.343713980051
20
-29.7139873771272
30
0
41
1
10
392.378358909239
20
-29.7226253281304
30
0
0
SPLINE
5
24F
100
AcDbEntity
8
1
62
256
6
ByLayer
370
18
48
1
60
0
100
AcDbSpline
70
4
71
3
72
11
73
7
40
0
40
0
40
0
40
0
40
0.193304111102332
40
0.55284317182119
40
0.911523626685434
40
1
40
1
40
1
40
1
41
1
10
395.067503845796
20
-40.8291913391317
30
0
41
1
10
394.928753370665
20
-40.8195376973976
30
0
41
1
10
394.538886588884
20
-40.8270123924066
30
0
41
1
10
393.90164185307
20
-41.0096715150222
30
0
41
1
10
393.423529075283
20
-41.3528745335835
30
0
41
1
10
393.209004634462
20
-41.5890830295946
30
0
41
1
10
393.168171179251
20
-41.6379107064533
30
0
0
SPLINE
5
250
100
AcDbEntity
8
1
62
256
6
ByLayer
370
18
48
1
60
0
100
AcDbSpline
70
4
71
3
72
18
73
14
40
0
40
0
40
0
40
0
40
0.144086644560489
40
0.144086644560489
40
0.287731062505122
40
0.287731062505122
40
0.456860780407674
40
0.456860780407674
40
0.627194363444237
40
0.627194363444237
40
0.795871414023979
40
0.795871414023979
40
1
40
1
40
1
40
1
41
1
10
376.917936232153
20
-17.4187714691729
30
0
41
1
10
376.993147283572
20
-17.5170063118437
30
0
41
1
10
377.105196400994
20
-17.598050057047
30
0
41
1
10
377.396383551742
20
-17.7255593777956
30
0
41
1
10
377.565672226013
20
-17.7564537408536
30
0
41
1
10
377.98010046853
20
-17.7564537408536
30
0
41
1
10
378.175035234455
20
-17.7110201261184
30
0
41
1
10
378.504677023979
20
-17.5261742628341
30
0
41
1
10
378.620161865307
20
-17.4003524361721
30
0
41
1
10
378.75457796675
20
-17.0753098635903
30
0
41
1
10
378.78746808173
20
-16.8404138329488
30
0
41
1
10
378.78746808173
20
-16.1646399777429
30
0
41
1
10
378.78746808173
20
-15.7946220703497
30
0
41
1
10
378.78746808173
20
-15.4246041629565
30
0
0
SPLINE
5
251
100
AcDbEntity
8
1
62
256
6
ByLayer
370
18
48
1
60
0
100
AcDbSpline
70
4
71
3
72
8
73
4
40
0
40
0
40
0
40
0
40
1
40
1
40
1
40
1
41
1
10
376.753699854562
20
-17.0528466802243
30
0
41
1
10
376.785933162314
20
-17.1989710086971
30
0
41
1
10
376.841190261316
20
-17.3205366265021
30
0
41
1
10
376.917936232153
20
-17.4187714691729
30
0
0
SPLINE
5
252
100
AcDbEntity
8
1
62
256
6
ByLayer
370
18
48
1
60
0
100
AcDbSpline
70
4
71
3
72
10
73
6
40
0
40
0
40
0
40
0
40
0.660338983050846
40
0.660338983050846
40
1
40
1
40
1
40
1
41
1
10
376.724536385644
20
-15.4246041629565
30
0
41
1
10
376.724536385644
20
-15.823273899462
30
0
41
1
10
376.724536385644
20
-16.2219436359675
30
0
41
1
10
376.724536385644
20
-16.8256786065482
30
0
41
1
10
376.733745902145
20
-16.9693470639542
30
0
41
1
10
376.753699854562
20
-17.0528466802243
30
0
0
SPLINE
5
253
100
AcDbEntity
8
1
62
256
6
ByLayer
370
18
48
1
60
0
100
AcDbSpline
70
4
71
3
72
8
73
4
40
0
40
0
40
0
40
0
40
1
40
1
40
1
40
1
41
1
10
378.78746808173
20
-15.4246041629565
30
0
41
1
10
378.099824183035
20
-15.4246041629565
30
0
41
1
10
377.41218028434
20
-15.4246041629565
30
0
41
1
10
376.724536385644
20
-15.4246041629565
30
0
0
SPLINE
5
254
100
AcDbEntity
8
1
62
256
6
ByLayer
370
18
48
1
60
0
100
AcDbSpline
70
4
71
3
72
22
73
18
40
0
40
0
40
0
40
0
40
0.125919801008143
40
0.125919801008143
40
0.228173823812628
40
0.228173823812628
40
0.362000949327649
40
0.362000949327649
40
0.497453699158084
40
0.497453699158084
40
0.624996799363383
40
0.624996799363383
40
0.753577031326435
40
0.753577031326435
40
0.881194351724582
40
0.881194351724582
40
1
40
1
40
1
40
1
41
1
10
379.495065932843
20
-15.4246041629565
30
0
41
1
10
379.495065932843
20
-15.7708819833709
30
0
41
1
10
379.495065932843
20
-16.1171598037853
30
0
41
1
10
379.495065932843
20
-16.7446348613448
30
0
41
1
10
379.519624643511
20
-16.9460162888199
30
0
41
1
10
379.625937978246
20
-17.2295185147793
30
0
41
1
10
379.725303845353
20
-17.3524629503702
30
0
41
1
10
380.003267387386
20
-17.5155348950294
30
0
41
1
10
380.178105073288
20
-17.556300248912
30
0
41
1
10
380.586393638139
20
-17.556300248912
30
0
41
1
10
380.762909371063
20
-17.5182342473771
30
0
41
1
10
381.064976751807
20
-17.3653511648778
30
0
41
1
10
381.169663016496
20
-17.2566839787662
30
0
41
1
10
381.279763405171
20
-16.9728696435167
30
0
41
1
10
381.309340683419
20
-16.7286716994108
30
0
41
1
10
381.309340683419
20
-16.0647678876942
30
0
41
1
10
381.309340683419
20
-15.7446860253254
30
0
41
1
10
381.309340683419
20
-15.4246041629565
30
0
0
SPLINE
5
255
100
AcDbEntity
8
1
62
256
6
ByLayer
370
18
48
1
60
0
100
AcDbSpline
70
4
71
3
72
8
73
4
40
0
40
0
40
0
40
0
40
1
40
1
40
1
40
1
41
1
10
381.309340683419
20
-15.4246041629565
30
0
41
1
10
380.704582433227
20
-15.4246041629565
30
0
41
1
10
380.099824183035
20
-15.4246041629565
30
0
41
1
10
379.495065932843
20
-15.4246041629565
30
0
0
SPLINE
5
256
100
AcDbEntity
8
1
62
256
6
ByLayer
370
18
48
1
60
0
100
AcDbSpline
70
4
71
3
72
9
73
5
40
0
40
0
40
0
40
0
40
0.5
40
1
40
1
40
1
40
1
41
1
10
392.141406430574
20
-42.7143393467347
30
0
41
1
10
392.141406430574
20
-42.6694742294606
30
0
41
1
10
392.143376622488
20
-42.5796404559742
30
0
41
1
10
392.149333479272
20
-42.4896113572625
30
0
41
1
10
392.153326211517
20
-42.4445515032529
30
0
0
SPLINE
5
257
100
AcDbEntity
8
1
62
256
6
ByLayer
370
18
48
1
60
0
100
AcDbSpline
70
4
71
3
72
18
73
14
40
0
40
0
40
0
40
0
40
0.250000000000001
40
0.250000000000001
40
0.500000000000001
40
0.500000000000001
40
0.562500000000001
40
0.562500000000001
40
0.625
40
0.625
40
0.75
40
0.75
40
1
40
1
40
1
40
1
41
1
10
383.650346464035
20
-49.6236907327081
30
0
41
1
10
383.807178016149
20
-49.6555059365989
30
0
41
1
10
383.967651856652
20
-49.684435528424
30
0
41
1
10
384.297574342152
20
-49.7357401459761
30
0
41
1
10
384.467016276063
20
-49.7581204918002
30
0
41
1
10
384.685839767791
20
-49.7812824731361
30
0
41
1
10
384.729957241292
20
-49.7856730406584
30
0
41
1
10
384.818940684266
20
-49.7939473320986
30
0
41
1
10
384.863883722172
20
-49.7978365197786
30
0
41
1
10
384.998958588699
20
-49.8086338580497
30
0
41
1
10
385.089529511869
20
-49.8146939531093
30
0
41
1
10
385.362883975898
20
-49.8293431874999
30
0
41
1
10
385.54731081514
20
-49.834405109524
30
0
41
1
10
385.734124596038
20
-49.8344051095241
30
0
0
SPLINE
5
258
100
AcDbEntity
8
1
62
256
6
ByLayer
370
18
48
1
60
0
100
AcDbSpline
70
4
71
3
72
32
73
28
40
0
40
0
40
0
40
0
40
0.0624999999999933
40
0.0624999999999933
40
0.093749999999996
40
0.093749999999996
40
0.124999999999999
40
0.124999999999999
40
0.156250000000001
40
0.156250000000001
40
0.187500000000004
40
0.187500000000004
40
0.250000000000004
40
0.250000000000004
40
0.312500000000003
40
0.312500000000003
40
0.375000000000003
40
0.375000000000003
40
0.500000000000003
40
0.500000000000003
40
0.625000000000002
40
0.625000000000002
40
0.750000000000001
40
0.750000000000001
40
0.875000000000001
40
0.875000000000001
40
1
40
1
40
1
40
1
41
1
10
398.534124596038
20
-49.8344051095241
30
0
41
1
10
398.55101225269
20
-49.8344051095241
30
0
41
1
10
398.567242128998
20
-49.8334192098459
30
0
41
1
10
398.590786030998
20
-49.8307370007717
30
0
41
1
10
398.598378563554
20
-49.8296532332822
30
0
41
1
10
398.612891962659
20
-49.8272179225591
30
0
41
1
10
398.619861184371
20
-49.8258605202745
30
0
41
1
10
398.633332146852
20
-49.8229174078504
30
0
41
1
10
398.639858833207
20
-49.8213244643069
30
0
41
1
10
398.652392168724
20
-49.817980924825
30
0
41
1
10
398.65838141928
20
-49.8162366600957
30
0
41
1
10
398.675685645884
20
-49.8108289566651
30
0
41
1
10
398.686345709541
20
-49.8069927921558
30
0
41
1
10
398.706449473903
20
-49.7989929537619
30
0
41
1
10
398.715914663297
20
-49.794814186677
30
0
41
1
10
398.733785184286
20
-49.7862670444498
30
0
41
1
10
398.742163463193
20
-49.781913494765
30
0
41
1
10
398.766041775113
20
-49.7686649055165
30
0
41
1
10
398.780305655677
20
-49.7595844956714
30
0
41
1
10
398.806680012326
20
-49.7410713913441
30
0
41
1
10
398.818772467138
20
-49.7316364103935
30
0
41
1
10
398.841350714195
20
-49.7124809127857
30
0
41
1
10
398.85183050973
20
-49.702759638562
30
0
41
1
10
398.871510233809
20
-49.683070711983
30
0
41
1
10
398.880702707445
20
-49.6731049321435
30
0
41
1
10
398.897910797199
20
-49.6530903435376
30
0
41
1
10
398.905944634917
20
-49.6430223751871
30
0
41
1
10
398.913497520277
20
-49.6328968133153
30
0
0
SPLINE
5
259
100
AcDbEntity
8
1
62
256
6
ByLayer
370
18
48
1
60
0
100
AcDbSpline
70
4
71
3
72
18
73
14
40
0
40
0
40
0
40
0
40
0.252026352812657
40
0.252026352812657
40
0.40561296454716
40
0.40561296454716
40
0.559855857535999
40
0.559855857535999
40
0.714098750524839
40
0.714098750524839
40
0.857201879020039
40
0.857201879020039
40
1
40
1
40
1
40
1
41
1
10
382.016938534532
20
-14.7897614921967
30
0
41
1
10
382.016938534532
20
-15.3902219680217
30
0
41
1
10
382.016938534532
20
-15.9906824438467
30
0
41
1
10
382.016938534532
20
-16.9570677086203
30
0
41
1
10
381.955541757862
20
-17.2517722366326
30
0
41
1
10
381.712506347406
20
-17.694773491136
30
0
41
1
10
381.525764321178
20
-17.8681958743916
30
0
41
1
10
381.02231075249
20
-18.1186947232021
30
0
41
1
10
380.758304612812
20
-18.1813194354047
30
0
41
1
10
380.225687575207
20
-18.1813194354047
30
0
41
1
10
379.98470522678
20
-18.1260623364024
30
0
41
1
10
379.530853261503
20
-17.9028162345633
30
0
41
1
10
379.347713668837
20
-17.7355788367861
30
0
41
1
10
379.209570921331
20
-17.5108666341768
30
0
0
SPLINE
5
25A
100
AcDbEntity
8
1
62
256
6
ByLayer
370
18
48
1
60
0
100
AcDbSpline
70
4
71
3
72
18
73
14
40
0
40
0
40
0
40
0
40
0.191325435437369
40
0.191325435437369
40
0.382650870874738
40
0.382650870874738
40
0.536214707212626
40
0.536214707212626
40
0.690626528447004
40
0.690626528447004
40
0.845885455798057
40
0.845885455798057
40
1
40
1
40
1
40
1
41
1
10
379.209570921331
20
-17.5108666341768
30
0
41
1
10
379.10212656216
20
-17.8006594200555
30
0
41
1
10
378.921006070986
20
-18.0241436871315
30
0
41
1
10
378.408342985798
20
-18.3360393126111
30
0
41
1
10
378.105963860702
20
-18.4146271867477
30
0
41
1
10
377.475111980426
20
-18.4146271867477
30
0
41
1
10
377.214175679582
20
-18.3667377009458
30
0
41
1
10
376.730880269738
20
-18.1771135146633
30
0
41
1
10
376.544950813887
20
-18.0597538175996
30
0
41
1
10
376.283298762348
20
-17.779016557596
30
0
41
1
10
376.184244750955
20
-17.6054176702473
30
0
41
1
10
376.049669640262
20
-17.1845645968072
30
0
41
1
10
376.016938534532
20
-16.9251413847523
30
0
41
1
10
376.016938534532
20
-16.620613372473
30
0
0
SPLINE
5
25B
100
AcDbEntity
8
1
62
256
6
ByLayer
370
18
48
1
60
0
100
AcDbSpline
70
4
71
3
72
8
73
4
40
0
40
0
40
0
40
0
40
1
40
1
40
1
40
1
41
1
10
376.016938534532
20
-16.620613372473
30
0
41
1
10
376.016938534532
20
-16.0103294123809
30
0
41
1
10
376.016938534532
20
-15.4000454522888
30
0
41
1
10
376.016938534532
20
-14.7897614921967
30
0
0
SPLINE
5
25C
100
AcDbEntity
8
1
62
256
6
ByLayer
370
18
48
1
60
0
100
AcDbSpline
70
4
71
3
72
8
73
4
40
0
40
0
40
0
40
0
40
1
40
1
40
1
40
1
41
1
10
376.016938534532
20
-14.7897614921967
30
0
41
1
10
378.016938534532
20
-14.7897614921967
30
0
41
1
10
380.016938534532
20
-14.7897614921967
30
0
41
1
10
382.016938534532
20
-14.7897614921967
30
0
0
SPLINE
5
25D
100
AcDbEntity
8
1
62
256
6
ByLayer
370
18
48
1
60
0
100
AcDbSpline
70
4
71
3
72
18
73
14
40
0
40
0
40
0
40
0
40
0.034485576638519
40
0.143096710002214
40
0.251611412775257
40
0.359595071861198
40
0.466540505674694
40
0.572400943199156
40
0.67790337435933
40
0.784046166660553
40
0.891320093818989
40
0.999495669272839
40
1
40
1
40
1
40
1
41
1
10
353.789640541058
20
11.8001078690634
30
0
41
1
10
353.789592241259
20
11.7228184557965
30
0
41
1
10
353.771583890813
20
11.4054473609575
30
0
41
1
10
353.604696871678
20
10.8493211403886
30
0
41
1
10
353.147999203502
20
10.2364724819551
30
0
41
1
10
352.503772557631
20
9.80035421089539
30
0
41
1
10
351.749177828329
20
9.59509948645629
30
0
41
1
10
350.972176555483
20
9.64126443961541
30
0
41
1
10
350.257157343811
20
9.92864142116841
30
0
41
1
10
349.678473378877
20
10.4234531469109
30
0
41
1
10
349.299373898196
20
11.0704912462077
30
0
41
1
10
349.210560081424
20
11.5572155873221
30
0
41
1
10
349.210359248695
20
11.7989858225296
30
0
41
1
10
349.210359248948
20
11.8001078690634
30
0
0
SPLINE
5
25E
100
AcDbEntity
8
1
62
256
6
ByLayer
370
18
48
1
60
0
100
AcDbSpline
70
4
71
3
72
10
73
6
40
0
40
0
40
0
40
0
40
0.449818367772338
40
0.901756214176632
40
1
40
1
40
1
40
1
41
1
10
349.210359248948
20
11.8001078690634
30
0
41
1
10
349.212680613831
20
12.0501859930228
30
0
41
1
10
349.297535463483
20
12.5193901198177
30
0
41
1
10
349.581750548724
20
12.9928105444838
30
0
41
1
10
349.790054837541
20
13.212872138729
30
0
41
1
10
349.828785128096
20
13.2508001346647
30
0
0
SPLINE
5
25F
100
AcDbEntity
8
1
62
256
6
ByLayer
370
18
48
1
60
0
100
AcDbSpline
70
4
71
3
72
10
73
6
40
0
40
0
40
0
40
0
40
0.313097101018903
40
0.719662318015886
40
1
40
1
40
1
40
1
41
1
10
353.047596254427
20
13.3629524666469
30
0
41
1
10
353.193985385919
20
13.2400254761108
30
0
41
1
10
353.489849544396
20
12.916923162681
30
0
41
1
10
353.73998501591
20
12.366945733923
30
0
41
1
10
353.789014548206
20
11.9688202867627
30
0
41
1
10
353.789640541058
20
11.8001078690634
30
0
0
SPLINE
5
260
100
AcDbEntity
8
1
62
256
6
ByLayer
370
18
48
1
60
0
100
AcDbSpline
70
4
71
3
72
45
73
41
40
0
40
0
40
0
40
0
40
0.0052725401320344
40
0.0197808218202621
40
0.0334254837293905
40
0.0469302434920229
40
0.0610839208407743
40
0.0770421007102187
40
0.0967910565353961
40
0.124271410538289
40
0.160831400155245
40
0.194071646215254
40
0.229159932080913
40
0.262764052122207
40
0.295660694732377
40
0.328180532335241
40
0.360478514378367
40
0.392638390512915
40
0.42471027422857
40
0.456726871869298
40
0.488711478983501
40
0.520682401928609
40
0.552654993761138
40
0.584640720429546
40
0.616656854450672
40
0.648724354391513
40
0.680871244055948
40
0.713138219752758
40
0.745589012127783
40
0.778331522758153
40
0.811566071460219
40
0.845713230529174
40
0.88183594806415
40
0.911687507807239
40
0.93153487094353
40
0.947306244435139
40
0.961969897482315
40
0.976199138028837
40
0.99034520007567
40
1
40
1
40
1
40
1
41
1
10
396.501698452799
20
4.0082885879803
30
0
41
1
10
396.536224304939
20
4.00485376101679
30
0
41
1
10
396.664037467448
20
3.9996385438819
30
0
41
1
10
396.876779178043
20
4.05775539121441
30
0
41
1
10
397.104126872662
20
4.1721944207217
30
0
41
1
10
397.281034316891
20
4.3181907844791
30
0
41
1
10
397.416090951467
20
4.47679304463531
30
0
41
1
10
397.523336660689
20
4.64855367937241
30
0
41
1
10
397.618498703616
20
4.8524736054828
30
0
41
1
10
397.711150672924
20
5.12163873419379
30
0
41
1
10
397.797661442941
20
5.4675649000234
30
0
41
1
10
397.879440880283
20
5.90178345064939
30
0
41
1
10
397.950782507985
20
6.38707065710182
30
0
41
1
10
398.014553573759
20
6.93358852634151
30
0
41
1
10
398.069689643772
20
7.52199564398342
30
0
41
1
10
398.116963523209
20
8.15158230411811
30
0
41
1
10
398.156484338995
20
8.81840319777089
30
0
41
1
10
398.188140672175
20
9.51683888238429
30
0
41
1
10
398.211763406999
20
10.2403204950001
30
0
41
1
10
398.227195351304
20
10.9816801822701
30
0
41
1
10
398.234323948218
20
11.7333703690992
30
0
41
1
10
398.233097689436
20
12.4876239774125
30
0
41
1
10
398.223534101555
20
13.2365674202231
30
0
41
1
10
398.205722197452
20
13.972387086445
30
0
41
1
10
398.179817917066
20
14.6874675515633
30
0
41
1
10
398.146031275394
20
15.3745533498578
30
0
41
1
10
398.104606034029
20
16.0268696251634
30
0
41
1
10
398.055780349387
20
16.6383167949797
30
0
41
1
10
397.999709796472
20
17.203746646435
30
0
41
1
10
397.936297169753
20
17.7194430668841
30
0
41
1
10
397.864782505085
20
18.1840782931534
30
0
41
1
10
397.782452830896
20
18.6014392464151
30
0
41
1
10
397.690480141159
20
18.9484731786929
30
0
41
1
10
397.589382044013
20
19.2204726012768
30
0
41
1
10
397.475027947294
20
19.4369094542233
30
0
41
1
10
397.343109991785
20
19.6166558659331
30
0
41
1
10
397.172763787848
20
19.7789569421117
30
0
41
1
10
396.953054828962
20
19.9129587588507
30
0
41
1
10
396.718674135493
20
19.9866484187515
30
0
41
1
10
396.565734912619
20
19.9996062465187
30
0
41
1
10
396.501753961588
20
20.0000001764622
30
0
0
SPLINE
5
261
100
AcDbEntity
8
1
62
256
6
ByLayer
370
18
48
1
60
0
100
AcDbSpline
70
4
71
3
72
45
73
41
40
0
40
0
40
0
40
0
40
0.0052690705855373
40
0.0197774028777348
40
0.033422112378582
40
0.0469269192449636
40
0.0610806459608479
40
0.0770388814914155
40
0.0967879061997054
40
0.12426835605234
40
0.160828473188225
40
0.194068835188112
40
0.229157243439492
40
0.262761480689834
40
0.295658238041412
40
0.328178189071414
40
0.36047628376786
40
0.392636272074024
40
0.424708267654381
40
0.456724976966979
40
0.48870969564147
40
0.520680730099136
40
0.552653433450044
40
0.584639271682645
40
0.616655517374023
40
0.648723129164277
40
0.680870130955031
40
0.713137219197012
40
0.74558812475835
40
0.778330749592527
40
0.811565414214598
40
0.845712692386686
40
0.881835535915419
40
0.911687199778851
40
0.931534632141487
40
0.94730606064265
40
0.961969764835722
40
0.976199055012936
40
0.990345166400338
40
1
40
1
40
1
40
1
41
1
10
396.201925461316
20
-19.9917136618493
30
0
41
1
10
396.236428303785
20
-19.9951451006026
30
0
41
1
10
396.364219196322
20
-20.000359342163
30
0
41
1
10
396.576938244181
20
-19.9422432527662
30
0
41
1
10
396.804286087674
20
-19.827805928447
30
0
41
1
10
396.981193492887
20
-19.6818091178039
30
0
41
1
10
397.116250138639
20
-19.5232069856508
30
0
41
1
10
397.223495844283
20
-19.3514463099442
30
0
41
1
10
397.318657888532
20
-19.1475263989688
30
0
41
1
10
397.411309857289
20
-18.8783612639489
30
0
41
1
10
397.497820627512
20
-18.5324351004762
30
0
41
1
10
397.579600064799
20
-18.0982165492138
30
0
41
1
10
397.650941692516
20
-17.6129293429338
30
0
41
1
10
397.714712758286
20
-17.0664114736491
30
0
41
1
10
397.7698488283
20
-16.4780043560188
30
0
41
1
10
397.817122707737
20
-15.8484176958811
30
0
41
1
10
397.856643523522
20
-15.181596802229
30
0
41
1
10
397.888299856703
20
-14.4831611176154
30
0
41
1
10
397.911922591527
20
-13.7596795049997
30
0
41
1
10
397.927354535832
20
-13.0183198177297
30
0
41
1
10
397.934483132746
20
-12.2666296309006
30
0
41
1
10
397.933256873964
20
-11.5123760225873
30
0
41
1
10
397.923693286082
20
-10.7634325797767
30
0
41
1
10
397.905881381979
20
-10.0276129135548
30
0
41
1
10
397.879977101594
20
-9.31253244843649
30
0
41
1
10
397.846190459921
20
-8.62544665014201
30
0
41
1
10
397.804765218557
20
-7.97313037483639
30
0
41
1
10
397.755939533915
20
-7.36168320502009
30
0
41
1
10
397.699868981
20
-6.79625335356479
30
0
41
1
10
397.63645635428
20
-6.28055693311569
30
0
41
1
10
397.564941689613
20
-5.81592170684649
30
0
41
1
10
397.482612015424
20
-5.39856075358469
30
0
41
1
10
397.390639325686
20
-5.05152682130699
30
0
41
1
10
397.289541228541
20
-4.77952739872319
30
0
41
1
10
397.175187131821
20
-4.56309054577659
30
0
41
1
10
397.043269176313
20
-4.3833441340669
30
0
41
1
10
396.872922972375
20
-4.22104305788829
30
0
41
1
10
396.65321401349
20
-4.08704124114931
30
0
41
1
10
396.418833320018
20
-4.0133515812484
30
0
41
1
10
396.265894097149
20
-4.0003937534814
30
0
41
1
10
396.201913146115
20
-3.99999982353779
30
0
0
SPLINE
5
262
100
AcDbEntity
8
1
62
256
6
ByLayer
370
18
48
1
60
0
100
AcDbSpline
70
4
71
3
72
22
73
18
40
0
40
0
40
0
40
0
40
0.25
40
0.25
40
0.374999999999999
40
0.374999999999999
40
0.499999999999999
40
0.499999999999999
40
0.531249999999999
40
0.531249999999999
40
0.562499999999999
40
0.562499999999999
40
0.624999999999999
40
0.624999999999999
40
0.75
40
0.75
40
1
40
1
40
1
40
1
41
1
10
397.98510710184
20
12.0000001764621
30
0
41
1
10
397.855542090427
20
12.3306439215418
30
0
41
1
10
397.745103115653
20
12.663698561778
30
0
41
1
10
397.620777156742
20
13.1684906100229
30
0
41
1
10
397.586240443447
20
13.3376250567935
30
0
41
1
10
397.532795166489
20
13.6778639261828
30
0
41
1
10
397.513900107677
20
13.8489700511292
30
0
41
1
10
397.500755367214
20
14.0641729973741
30
0
41
1
10
397.49864785109
20
14.1072793147105
30
0
41
1
10
397.49548328798
20
14.1936243642167
30
0
41
1
10
397.494429634312
20
14.2367932531588
30
0
41
1
10
397.492840614964
20
14.3659801237992
30
0
41
1
10
397.493873830341
20
14.4518054745117
30
0
41
1
10
397.502979474382
20
14.7084226878775
30
0
41
1
10
397.517071942477
20
14.8783537038662
30
0
41
1
10
397.580506442158
20
15.3851213538747
30
0
41
1
10
397.650923130098
20
15.7189443784592
30
0
41
1
10
397.740691479398
20
16.0500001764622
30
0
0
SPLINE
5
263
100
AcDbEntity
8
1
62
256
6
ByLayer
370
18
48
1
60
0
100
AcDbSpline
70
4
71
3
72
22
73
18
40
0
40
0
40
0
40
0
40
0.25
40
0.25
40
0.375000000000001
40
0.375000000000001
40
0.500000000000001
40
0.500000000000001
40
0.531250000000001
40
0.531250000000001
40
0.562500000000001
40
0.562500000000001
40
0.625000000000001
40
0.625000000000001
40
0.75
40
0.75
40
1
40
1
40
1
40
1
41
1
10
397.740691479398
20
7.95000017646211
30
0
41
1
10
397.651034861446
20
8.28064392154181
30
0
41
1
10
397.580795272944
20
8.61369856177799
30
0
41
1
10
397.517397246219
20
9.11849061002292
30
0
41
1
10
397.50327490383
20
9.2876250567935
30
0
41
1
10
397.490896142941
20
9.62786392618281
30
0
41
1
10
397.492653434762
20
9.79897005112932
30
0
41
1
10
397.505483490377
20
10.0141729973741
30
0
41
1
10
397.508578866789
20
10.0572793147105
30
0
41
1
10
397.515836071095
20
10.1436243642167
30
0
41
1
10
397.519992862297
20
10.1867932531588
30
0
41
1
10
397.533996578455
20
10.3159801237992
30
0
41
1
10
397.545388834086
20
10.4018054745117
30
0
41
1
10
397.585467937848
20
10.6584226878774
30
0
41
1
10
397.620070922015
20
10.8283537038662
30
0
41
1
10
397.744671807183
20
11.3351213538747
30
0
41
1
10
397.855380624673
20
11.6689443784592
30
0
41
1
10
397.985107101841
20
12.0000001764622
30
0
0
SPLINE
5
264
100
AcDbEntity
8
1
62
256
6
ByLayer
370
18
48
1
60
0
100
AcDbSpline
70
4
71
3
72
14
73
10
40
0
40
0
40
0
40
0
40
0.353388183334271
40
0.353388183334271
40
0.530082275001407
40
0.530082275001407
40
0.706776366668542
40
0.706776366668542
40
1
40
1
40
1
40
1
41
1
10
397.740691479399
20
7.9500001764622
30
0
41
1
10
397.666202308575
20
7.9500001764622
30
0
41
1
10
397.596005859442
20
7.9500001764622
30
0
41
1
10
397.498849729772
20
7.9500001764622
30
0
41
1
10
397.467944686957
20
7.9500001764622
30
0
41
1
10
397.409436142253
20
7.9500001764622
30
0
41
1
10
397.38181942815
20
7.9500001764622
30
0
41
1
10
397.313052721136
20
7.9500001764622
30
0
41
1
10
397.275003086821
20
7.9500001764622
30
0
41
1
10
397.242272479399
20
7.9500001764622
30
0
0
SPLINE
5
265
100
AcDbEntity
8
1
62
256
6
ByLayer
370
18
48
1
60
0
100
AcDbSpline
70
4
71
3
72
27
73
23
40
0
40
0
40
0
40
0
40
0.126232937807096
40
0.126232937807096
40
0.189349406710645
40
0.189349406710645
40
0.252465875614193
40
0.252465875614193
40
0.378698813421289
40
0.378698813421289
40
0.504931751228385
40
0.504931751228385
40
0.631164689035481
40
0.631164689035481
40
0.662722923487255
40
0.662722923487255
40
0.694281157939029
40
0.757397626842578
40
0.757397626842578
40
0.883630564649674
40
0.883630564649674
40
1
40
1
40
1
40
1
41
1
10
397.740691479399
20
16.0500001764622
30
0
41
1
10
397.666202308575
20
16.0500001764622
30
0
41
1
10
397.596005859442
20
16.0500001764622
30
0
41
1
10
397.498849729772
20
16.0500001764622
30
0
41
1
10
397.467944686957
20
16.0500001764622
30
0
41
1
10
397.409436142253
20
16.0500001764622
30
0
41
1
10
397.38181942815
20
16.0500001764622
30
0
41
1
10
397.304248375688
20
16.0500001764622
30
0
41
1
10
397.259593407785
20
16.0500001764622
30
0
41
1
10
397.186008455027
20
16.0500001764622
30
0
41
1
10
397.157090137269
20
16.0500001764622
30
0
41
1
10
397.11581479976
20
16.0500001764622
30
0
41
1
10
397.103461010937
20
16.0500001764622
30
0
41
1
10
397.098239343386
20
16.0500001764622
30
0
41
1
10
397.097705327741
20
16.0500001764622
30
0
41
1
10
397.097633946836
20
16.0500001764622
30
0
41
1
10
397.099017258871
20
16.0500001764622
30
0
41
1
10
397.104710294717
20
16.0500001764622
30
0
41
1
10
397.121388366512
20
16.0500001764622
30
0
41
1
10
397.139559049588
20
16.0500001764622
30
0
41
1
10
397.185672639839
20
16.0500001764622
30
0
41
1
10
397.212734785731
20
16.0500001764622
30
0
41
1
10
397.243858947426
20
16.0500001764622
30
0
0
LINE
5
79
100
AcDbEntity
8
4
62
256
6
ByLayer
370
13
48
0.05
60
0
100
AcDbLine
10
0
20
0
30
0
11
400
21
0
31
0
39
0
210
0
220
0
230
1
0
LINE
5
7B
100
AcDbEntity
8
80
62
256
6
ByLayer
370
13
48
1
60
0
100
AcDbLine
10
0
20
0
30
0
11
-4.28511
21
0
31
0
39
0
210
0
220
0
230
1
0
LINE
5
7C
100
AcDbEntity
8
SK4
62
256
6
ByLayer
370
13
48
0.05
60
0
100
AcDbLine
10
-43.5
20
0
30
0
11
405.5
21
0
31
0
39
0
210
0
220
0
230
1
0
LINE
5
7E
100
AcDbEntity
8
81
62
256
6
ByLayer
370
13
48
1
60
0
100
AcDbLine
10
400.004125
20
51.236913
30
0
11
402.004125
21
51.236913
31
0
39
0
210
0
220
0
230
1
0
LINE
5
7F
100
AcDbEntity
8
SK1
62
256
6
ByLayer
370
18
48
1
60
0
100
AcDbLine
10
-1.315435
20
-4.803123
30
0
11
-1.315435
21
4.803126
31
0
39
0
210
0
220
0
230
1
0
LINE
5
81
100
AcDbEntity
8
SK1
62
256
6
ByLayer
370
18
48
1
60
0
100
AcDbLine
10
-1.79504
20
-0.497935
30
0
11
-1.79504
21
-21.830293
31
0
39
0
210
0
220
0
230
1
0
LINE
5
82
100
AcDbEntity
8
SK1
62
256
6
ByLayer
370
18
48
1
60
0
100
AcDbLine
10
-0.194977
20
-6.031196
30
0
11
-0.194977
21
-21.870455
31
0
39
0
210
0
220
0
230
1
0
LINE
5
83
100
AcDbEntity
8
SK1
62
256
6
ByLayer
370
18
48
1
60
0
100
AcDbLine
10
-2
20
22.018634
30
0
11
-2
21
-22.018634
31
0
39
0
210
0
220
0
230
1
0
LINE
5
84
100
AcDbEntity
8
SK1
62
256
6
ByLayer
370
18
48
1
60
0
100
AcDbLine
10
-36.5
20
21.152489
30
0
11
-36.5
21
-21.15249
31
0
39
0
210
0
220
0
230
1
0
LINE
5
85
100
AcDbEntity
8
SK1
62
256
6
ByLayer
370
18
48
1
60
0
100
AcDbLine
10
-1.79504
20
21.830293
30
0
11
-1.79504
21
0.497941
31
0
39
0
210
0
220
0
230
1
0
LINE
5
86
100
AcDbEntity
8
SK1
62
256
6
ByLayer
370
18
48
1
60
0
100
AcDbLine
10
-38
20
20.289941
30
0
11
-38
21
-20.289941
31
0
39
0
210
0
220
0
230
1
0
LINE
5
87
100
AcDbEntity
8
SK1
62
256
6
ByLayer
370
18
48
1
60
0
100
AcDbLine
10
-0.194977
20
21.870297
30
0
11
-0.194977
21
6.0312
31
0
39
0
210
0
220
0
230
1
0
LINE
5
88
100
AcDbEntity
8
1
62
256
6
ByLayer
370
18
48
1
60
0
100
AcDbLine
10
0.3
20
31.5
30
0
11
0
21
31.2
31
0
39
0
210
0
220
0
230
1
0
LINE
5
89
100
AcDbEntity
8
1
62
256
6
ByLayer
370
18
48
1
60
0
100
AcDbLine
10
0
20
-31.2
30
0
11
0.3
21
-31.5
31
0
39
0
210
0
220
0
230
1
0
LINE
5
8A
100
AcDbEntity
8
1
62
256
6
ByLayer
370
18
48
1
60
0
100
AcDbLine
10
0
20
31.2
30
0
11
0
21
0
31
0
39
0
210
0
220
0
230
1
0
LINE
5
8B
100
AcDbEntity
8
1
62
256
6
ByLayer
370
18
48
1
60
0
100
AcDbLine
10
0
20
0
30
0
11
0
21
-31.2
31
0
39
0
210
0
220
0
230
1
0
LINE
5
8C
100
AcDbEntity
8
1
62
256
6
ByLayer
370
18
48
1
60
0
100
AcDbLine
10
0.3
20
31.5
30
0
11
0.3
21
0
31
0
39
0
210
0
220
0
230
1
0
LINE
5
8D
100
AcDbEntity
8
1
62
256
6
ByLayer
370
18
48
1
60
0
100
AcDbLine
10
0.3
20
0
30
0
11
0.3
21
-31.5
31
0
39
0
210
0
220
0
230
1
0
LINE
5
8E
100
AcDbEntity
8
1
62
256
6
ByLayer
370
18
48
1
60
1
100
AcDbLine
10
0
20
0
30
0
11
0
21
420
31
0
39
0
210
0
220
0
230
1
0
LINE
5
8F
100
AcDbEntity
8
1
62
256
6
ByLayer
370
18
48
1
60
1
100
AcDbLine
10
594
20
420
30
0
11
0
21
420
31
0
39
0
210
0
220
0
230
1
0
LINE
5
90
100
AcDbEntity
8
1
62
256
6
ByLayer
370
18
48
1
60
1
100
AcDbLine
10
594
20
420
30
0
11
594
21
0
31
0
39
0
210
0
220
0
230
1
0
LINE
5
91
100
AcDbEntity
8
1
62
256
6
ByLayer
370
18
48
1
60
1
100
AcDbLine
10
0
20
0
30
0
11
594
21
0
31
0
39
0
210
0
220
0
230
1
0
LINE
5
92
100
AcDbEntity
8
1
62
256
6
ByLayer
370
18
48
1
60
0
100
AcDbLine
10
359.2
20
31.5
30
0
11
359.2
21
0
31
0
39
0
210
0
220
0
230
1
0
LINE
5
93
100
AcDbEntity
8
1
62
256
6
ByLayer
370
18
48
1
60
0
100
AcDbLine
10
359.2
20
0
30
0
11
359.2
21
-31.5
31
0
39
0
210
0
220
0
230
1
0
LINE
5
94
100
AcDbEntity
8
1
62
256
6
ByLayer
370
18
48
1
60
0
100
AcDbLine
10
359.2
20
31.5
30
0
11
0.3
21
31.5
31
0
39
0
210
0
220
0
230
1
0
LINE
5
95
100
AcDbEntity
8
1
62
256
6
ByLayer
370
18
48
1
60
0
100
AcDbLine
10
0.3
20
-31.5
30
0
11
359.2
21
-31.5
31
0
39
0
210
0
220
0
230
1
0
LINE
5
96
100
AcDbEntity
8
1
62
256
6
ByLayer
370
18
48
1
60
1
100
AcDbLine
10
0
20
0
30
0
11
0
21
841
31
0
39
0
210
0
220
0
230
1
0
LINE
5
97
100
AcDbEntity
8
1
62
256
6
ByLayer
370
18
48
1
60
1
100
AcDbLine
10
1189
20
841
30
0
11
0
21
841
31
0
39
0
210
0
220
0
230
1
0
LINE
5
98
100
AcDbEntity
8
1
62
256
6
ByLayer
370
18
48
1
60
1
100
AcDbLine
10
1189
20
841
30
0
11
1189
21
0
31
0
39
0
210
0
220
0
230
1
0
LINE
5
99
100
AcDbEntity
8
1
62
256
6
ByLayer
370
18
48
1
60
1
100
AcDbLine
10
0
20
0
30
0
11
1189
21
0
31
0
39
0
210
0
220
0
230
1
0
LINE
5
9A
100
AcDbEntity
8
1
62
256
6
ByLayer
370
18
48
1
60
0
100
AcDbLine
10
353.776184
20
-29.299147
30
0
11
353.776447
21
-29.298242
31
0
39
0
210
0
220
0
230
1
0
LINE
5
9B
100
AcDbEntity
8
1
62
256
6
ByLayer
370
18
48
1
60
0
100
AcDbLine
10
349.223553
20
-29.298242
30
0
11
349.223816
21
-29.299147
31
0
39
0
210
0
220
0
230
1
0
LINE
5
9C
100
AcDbEntity
8
1
62
256
6
ByLayer
370
18
48
1
60
0
100
AcDbLine
10
349.786332
20
13.208021
30
0
11
349.778922
21
13.200267
31
0
39
0
210
0
220
0
230
1
0
LINE
5
9D
100
AcDbEntity
8
1
62
256
6
ByLayer
370
18
48
1
60
0
100
AcDbLine
10
353.221079
20
13.200267
30
0
11
353.213669
21
13.208021
31
0
39
0
210
0
220
0
230
1
0
LINE
5
9E
100
AcDbEntity
8
1
62
256
6
ByLayer
370
18
48
1
60
0
100
AcDbLine
10
359.2
20
31.5
30
0
11
0.3
21
31.5
31
0
39
0
210
0
220
0
230
1
0
LINE
5
9F
100
AcDbEntity
8
1
62
256
6
ByLayer
370
18
48
1
60
0
100
AcDbLine
10
0.3
20
-31.5
30
0
11
359.2
21
-31.5
31
0
39
0
210
0
220
0
230
1
0
LINE
5
A0
100
AcDbEntity
8
1
62
256
6
ByLayer
370
18
48
1
60
0
100
AcDbLine
10
359.2
20
31.5
30
0
11
359.2
21
0
31
0
39
0
210
0
220
0
230
1
0
LINE
5
A1
100
AcDbEntity
8
1
62
256
6
ByLayer
370
18
48
1
60
0
100
AcDbLine
10
359.2
20
0
30
0
11
359.2
21
-31.5
31
0
39
0
210
0
220
0
230
1
0
LINE
5
A2
100
AcDbEntity
8
1
62
256
6
ByLayer
370
18
48
1
60
1
100
AcDbLine
10
0
20
0
30
0
11
0
21
420
31
0
39
0
210
0
220
0
230
1
0
LINE
5
A3
100
AcDbEntity
8
1
62
256
6
ByLayer
370
18
48
1
60
1
100
AcDbLine
10
594
20
420
30
0
11
0
21
420
31
0
39
0
210
0
220
0
230
1
0
LINE
5
A4
100
AcDbEntity
8
1
62
256
6
ByLayer
370
18
48
1
60
1
100
AcDbLine
10
594
20
420
30
0
11
594
21
0
31
0
39
0
210
0
220
0
230
1
0
LINE
5
A5
100
AcDbEntity
8
1
62
256
6
ByLayer
370
18
48
1
60
1
100
AcDbLine
10
0
20
0
30
0
11
594
21
0
31
0
39
0
210
0
220
0
230
1
0
LINE
5
A6
100
AcDbEntity
8
1
62
256
6
ByLayer
370
18
48
1
60
0
100
AcDbLine
10
399.491625
20
-49.37176
30
0
11
399.491625
21
-49.250716
31
0
39
0
210
0
220
0
230
1
0
LINE
5
A7
100
AcDbEntity
8
1
62
256
6
ByLayer
370
18
48
1
60
0
100
AcDbLine
10
398.291625
20
-50.063921
30
0
11
398.291625
21
-49.942877
31
0
39
0
210
0
220
0
230
1
0
LINE
5
A8
100
AcDbEntity
8
1
62
256
6
ByLayer
370
18
48
1
60
0
100
AcDbLine
10
398.291625
20
-50.063921
30
0
11
397.932932
21
-49.857027
31
0
39
0
210
0
220
0
230
1
0
LINE
5
A9
100
AcDbEntity
8
1
62
256
6
ByLayer
370
18
48
1
60
0
100
AcDbLine
10
399.091625
20
-37.293493
30
0
11
399.491625
21
-37.310941
31
0
39
0
210
0
220
0
230
1
0
LINE
5
AA
100
AcDbEntity
8
1
62
256
6
ByLayer
370
18
48
1
60
0
100
AcDbLine
10
399.491625
20
-37.310941
30
0
11
399.491625
21
-49.250716
31
0
39
0
210
0
220
0
230
1
0
LINE
5
AB
100
AcDbEntity
8
1
62
256
6
ByLayer
370
18
48
1
60
0
100
AcDbLine
10
399.491625
20
-49.250716
30
0
11
399.091625
21
-49.233269
31
0
39
0
210
0
220
0
230
1
0
LINE
5
AC
100
AcDbEntity
8
1
62
256
6
ByLayer
370
18
48
1
60
0
100
AcDbLine
10
399.091625
20
-49.233269
30
0
11
399.091625
21
-37.293493
31
0
39
0
210
0
220
0
230
1
0
LINE
5
AD
100
AcDbEntity
8
1
62
256
6
ByLayer
370
18
48
1
60
0
100
AcDbLine
10
398.291625
20
-49.942877
30
0
11
398.338818
21
-49.857096
31
0
39
0
210
0
220
0
230
1
0
LINE
5
AE
100
AcDbEntity
8
1
62
256
6
ByLayer
370
18
48
1
60
0
100
AcDbLine
10
398.291625
20
-49.942877
30
0
11
398.142843
21
-49.85706
31
0
39
0
210
0
220
0
230
1
0
LINE
5
AF
100
AcDbEntity
8
1
62
256
6
ByLayer
370
18
48
1
60
0
100
AcDbLine
10
364.273889
20
-37.111771
30
0
11
363.939282
21
-37.201429
31
0
39
0
210
0
220
0
230
1
0
LINE
5
B0
100
AcDbEntity
8
1
62
256
6
ByLayer
370
18
48
1
60
0
100
AcDbLine
10
363.939282
20
-37.798571
30
0
11
364.273889
21
-37.888228
31
0
39
0
210
0
220
0
230
1
0
LINE
5
B1
100
AcDbEntity
8
1
62
256
6
ByLayer
370
18
48
1
60
0
100
AcDbLine
10
363.694333
20
-37.267063
30
0
11
363.939282
21
-37.201429
31
0
39
0
210
0
220
0
230
1
0
LINE
5
B2
100
AcDbEntity
8
1
62
256
6
ByLayer
370
18
48
1
60
0
100
AcDbLine
10
363.694333
20
-37.732937
30
0
11
363.939282
21
-37.798571
31
0
39
0
210
0
220
0
230
1
0
LINE
5
B3
100
AcDbEntity
8
1
62
256
6
ByLayer
370
18
48
1
60
0
100
AcDbLine
10
353.776184
20
-29.299146
30
0
11
353.776447
21
-29.298241
31
0
39
0
210
0
220
0
230
1
0
LINE
5
B4
100
AcDbEntity
8
1
62
256
6
ByLayer
370
18
48
1
60
0
100
AcDbLine
10
349.223553
20
-29.298241
30
0
11
349.223816
21
-29.299146
31
0
39
0
210
0
220
0
230
1
0
LINE
5
B5
100
AcDbEntity
8
1
62
256
6
ByLayer
370
18
48
1
60
0
100
AcDbLine
10
361.910074
20
36.797377
30
0
11
362.111199
21
36.951832
31
0
39
0
210
0
220
0
230
1
0
LINE
5
B6
100
AcDbEntity
8
1
62
256
6
ByLayer
370
18
48
1
60
0
100
AcDbLine
10
361.681339
20
37.348974
30
0
11
361.932746
21
37.382174
31
0
39
0
210
0
220
0
230
1
0
LINE
5
B7
100
AcDbEntity
8
1
62
256
6
ByLayer
370
18
48
1
60
0
100
AcDbLine
10
361.681339
20
37.348974
30
0
11
361.33791
21
37.303622
31
0
39
0
210
0
220
0
230
1
0
LINE
5
B8
100
AcDbEntity
8
1
62
256
6
ByLayer
370
18
48
1
60
0
100
AcDbLine
10
361.635331
20
36.586387
30
0
11
361.910074
21
36.797377
31
0
39
0
210
0
220
0
230
1
0
LINE
5
B9
100
AcDbEntity
8
1
62
256
6
ByLayer
370
18
48
1
60
0
100
AcDbLine
10
399.05715
20
-36.270289
30
0
11
399.034121
21
-36.246802
31
0
39
0
210
0
220
0
230
1
0
LINE
5
BA
100
AcDbEntity
8
1
62
256
6
ByLayer
370
18
48
1
60
0
100
AcDbLine
10
400.004125
20
-36.708543
30
0
11
400.004125
21
-50.443611
31
0
39
0
210
0
220
0
230
1
0
LINE
5
BB
100
AcDbEntity
8
1
62
256
6
ByLayer
370
18
48
1
60
0
100
AcDbLine
10
400.004125
20
-36.708543
30
0
11
399.516823
21
-36.535429
31
0
39
0
210
0
220
0
230
1
0
LINE
5
BC
100
AcDbEntity
8
1
62
256
6
ByLayer
370
18
48
1
60
0
100
AcDbLine
10
398.8135
20
-51.130365
30
0
11
396.606006
21
-49.857081
31
0
39
0
210
0
220
0
230
1
0
LINE
5
BD
100
AcDbEntity
8
1
62
256
6
ByLayer
370
18
48
1
60
0
100
AcDbLine
10
398.8135
20
-51.130365
30
0
11
399.05715
21
-50.535637
31
0
39
0
210
0
220
0
230
1
0
LINE
5
BE
100
AcDbEntity
8
1
62
256
6
ByLayer
370
18
48
1
60
0
100
AcDbLine
10
399.516823
20
-50.270497
30
0
11
400.004125
21
-50.443611
31
0
39
0
210
0
220
0
230
1
0
LINE
5
BF
100
AcDbEntity
8
1
62
256
6
ByLayer
370
18
48
1
60
0
100
AcDbLine
10
399.05715
20
-36.270289
30
0
11
399.034082
21
-36.283595
31
0
39
0
210
0
220
0
230
1
0
LINE
5
C0
100
AcDbEntity
8
1
62
256
6
ByLayer
370
18
48
1
60
0
100
AcDbLine
10
397.880664
20
-49.857038
30
0
11
399.05715
21
-50.535637
31
0
39
0
210
0
220
0
230
1
0
LINE
5
C1
100
AcDbEntity
8
1
62
256
6
ByLayer
370
18
48
1
60
0
100
AcDbLine
10
399.516823
20
-50.270497
30
0
11
399.516823
21
-36.535429
31
0
39
0
210
0
220
0
230
1
0
LINE
5
C2
100
AcDbEntity
8
1
62
256
6
ByLayer
370
18
48
1
60
0
100
AcDbLine
10
377.785587
20
48.984416
30
0
11
377.785587
21
48.969732
31
0
39
0
210
0
220
0
230
1
0
LINE
5
C3
100
AcDbEntity
8
1
62
256
6
ByLayer
370
18
48
1
60
0
100
AcDbLine
10
377.947112
20
49.011305
30
0
11
377.947112
21
48.999369
31
0
39
0
210
0
220
0
230
1
0
LINE
5
C4
100
AcDbEntity
8
1
62
256
6
ByLayer
370
18
48
1
60
0
100
AcDbLine
10
389.199745
20
45.580287
30
0
11
388.578753
21
45.938803
31
0
39
0
210
0
220
0
230
1
0
LINE
5
C5
100
AcDbEntity
8
1
62
256
6
ByLayer
370
18
48
1
60
0
100
AcDbLine
10
388.578753
20
45.938803
30
0
11
388.603309
21
45.980904
31
0
39
0
210
0
220
0
230
1
0
LINE
5
C6
100
AcDbEntity
8
1
62
256
6
ByLayer
370
18
48
1
60
0
100
AcDbLine
10
396.191625
20
50.231685
30
0
11
396.191625
21
49.616902
31
0
39
0
210
0
220
0
230
1
0
LINE
5
C7
100
AcDbEntity
8
1
62
256
6
ByLayer
370
18
48
1
60
0
100
AcDbLine
10
369.804125
20
22.811342
30
0
11
369.804125
21
25.211296
31
0
39
0
210
0
220
0
230
1
0
LINE
5
C8
100
AcDbEntity
8
1
62
256
6
ByLayer
370
18
48
1
60
0
100
AcDbLine
10
388.404125
20
22.811342
30
0
11
388.404125
21
24.252162
31
0
39
0
210
0
220
0
230
1
0
LINE
5
C9
100
AcDbEntity
8
1
62
256
6
ByLayer
370
18
48
1
60
0
100
AcDbLine
10
388.404125
20
-3.999982
30
0
11
388.404125
21
-2.475217
31
0
39
0
210
0
220
0
230
1
0
LINE
5
CA
100
AcDbEntity
8
1
62
256
6
ByLayer
370
18
48
1
60
0
100
AcDbLine
10
369.804125
20
22.282192
30
0
11
369.804125
21
22.811342
31
0
39
0
210
0
220
0
230
1
0
LINE
5
CB
100
AcDbEntity
8
1
62
256
6
ByLayer
370
18
48
1
60
0
100
AcDbLine
10
388.404125
20
22.282192
30
0
11
388.404125
21
22.811342
31
0
39
0
210
0
220
0
230
1
0
LINE
5
CC
100
AcDbEntity
8
1
62
256
6
ByLayer
370
18
48
1
60
0
100
AcDbLine
10
388.404125
20
22.811342
30
0
11
369.804125
21
22.811342
31
0
39
0
210
0
220
0
230
1
0
LINE
5
CD
100
AcDbEntity
8
1
62
256
6
ByLayer
370
18
48
1
60
0
100
AcDbLine
10
369.804125
20
16.999739
30
0
11
369.804125
21
22.282192
31
0
39
0
210
0
220
0
230
1
0
LINE
5
CE
100
AcDbEntity
8
1
62
256
6
ByLayer
370
18
48
1
60
0
100
AcDbLine
10
388.404125
20
-2.475217
30
0
11
388.404125
21
22.282192
31
0
39
0
210
0
220
0
230
1
0
LINE
5
CF
100
AcDbEntity
8
1
62
256
6
ByLayer
370
18
48
1
60
0
100
AcDbLine
10
388.404125
20
22.282192
30
0
11
369.804125
21
22.282192
31
0
39
0
210
0
220
0
230
1
0
LINE
5
D0
100
AcDbEntity
8
1
62
256
6
ByLayer
370
18
48
1
60
0
100
AcDbLine
10
388.104075
20
-2.475217
30
0
11
388.404125
21
-2.475217
31
0
39
0
210
0
220
0
230
1
0
LINE
5
D1
100
AcDbEntity
8
1
62
256
6
ByLayer
370
18
48
1
60
0
100
AcDbLine
10
369.804125
20
25.211296
30
0
11
369.804125
21
25.824132
31
0
39
0
210
0
220
0
230
1
0
LINE
5
D2
100
AcDbEntity
8
1
62
256
6
ByLayer
370
18
48
1
60
0
100
AcDbLine
10
388.486304
20
25.211296
30
0
11
369.804125
21
25.211296
31
0
39
0
210
0
220
0
230
1
0
LINE
5
D3
100
AcDbEntity
8
1
62
256
6
ByLayer
370
18
48
1
60
0
100
AcDbLine
10
399.034125
20
31.307603
30
0
11
392.678359
21
29.722933
31
0
39
0
210
0
220
0
230
1
0
LINE
5
D4
100
AcDbEntity
8
1
62
256
6
ByLayer
370
18
48
1
60
0
100
AcDbLine
10
399.034125
20
31.307603
30
0
11
399.034125
21
35.921592
31
0
39
0
210
0
220
0
230
1
0
LINE
5
D5
100
AcDbEntity
8
1
62
256
6
ByLayer
370
18
48
1
60
0
100
AcDbLine
10
396.091625
20
50.230813
30
0
11
396.091625
21
50.172781
31
0
39
0
210
0
220
0
230
1
0
LINE
5
D6
100
AcDbEntity
8
1
62
256
6
ByLayer
370
18
48
1
60
0
100
AcDbLine
10
396.191625
20
50.231685
30
0
11
396.091625
21
50.230813
31
0
39
0
210
0
220
0
230
1
0
LINE
5
D7
100
AcDbEntity
8
1
62
256
6
ByLayer
370
18
48
1
60
0
100
AcDbLine
10
396.191625
20
50.231685
30
0
11
397.256547
21
50.231685
31
0
39
0
210
0
220
0
230
1
0
LINE
5
D8
100
AcDbEntity
8
1
62
256
6
ByLayer
370
18
48
1
60
0
100
AcDbLine
10
386.034125
20
50.236373
30
0
11
397.264593
21
50.236373
31
0
39
0
210
0
220
0
230
1
0
LINE
5
D9
100
AcDbEntity
8
1
62
256
6
ByLayer
370
18
48
1
60
0
100
AcDbLine
10
396.091625
20
49.559166
30
0
11
396.091625
21
50.172781
31
0
39
0
210
0
220
0
230
1
0
LINE
5
DA
100
AcDbEntity
8
1
62
256
6
ByLayer
370
18
48
1
60
0
100
AcDbLine
10
396.091625
20
50.172781
30
0
11
386.034125
21
50.172781
31
0
39
0
210
0
220
0
230
1
0
LINE
5
DB
100
AcDbEntity
8
1
62
256
6
ByLayer
370
18
48
1
60
0
100
AcDbLine
10
388.628753
20
45.966498
30
0
11
389.248727
21
45.60857
31
0
39
0
210
0
220
0
230
1
0
LINE
5
DC
100
AcDbEntity
8
1
62
256
6
ByLayer
370
18
48
1
60
0
100
AcDbLine
10
385.50402
20
50.161067
30
0
11
385.50402
21
44.428865
31
0
39
0
210
0
220
0
230
1
0
LINE
5
DD
100
AcDbEntity
8
1
62
256
6
ByLayer
370
18
48
1
60
0
100
AcDbLine
10
385.50402
20
43.728441
30
0
11
385.50402
21
26.194845
31
0
39
0
210
0
220
0
230
1
0
LINE
5
DE
100
AcDbEntity
8
1
62
256
6
ByLayer
370
18
48
1
60
0
100
AcDbLine
10
386.034125
20
50.172781
30
0
11
386.034125
21
50.236373
31
0
39
0
210
0
220
0
230
1
0
LINE
5
DF
100
AcDbEntity
8
1
62
256
6
ByLayer
370
18
48
1
60
0
100
AcDbLine
10
369.804125
20
25.824132
30
0
11
369.804125
21
30.858566
31
0
39
0
210
0
220
0
230
1
0
LINE
5
E0
100
AcDbEntity
8
1
62
256
6
ByLayer
370
18
48
1
60
0
100
AcDbLine
10
369.804125
20
25.824132
30
0
11
388.627693
21
25.824132
31
0
39
0
210
0
220
0
230
1
0
LINE
5
E1
100
AcDbEntity
8
1
62
256
6
ByLayer
370
18
48
1
60
0
100
AcDbLine
10
385.50402
20
26.194845
30
0
11
388.749375
21
26.194845
31
0
39
0
210
0
220
0
230
1
0
LINE
5
E2
100
AcDbEntity
8
1
62
256
6
ByLayer
370
18
48
1
60
0
100
AcDbLine
10
369.804125
20
47.56353
30
0
11
369.804125
21
47.44753
31
0
39
0
210
0
220
0
230
1
0
LINE
5
E3
100
AcDbEntity
8
1
62
256
6
ByLayer
370
18
48
1
60
0
100
AcDbLine
10
383.950346
20
49.971627
30
0
11
383.950346
21
50.060369
31
0
39
0
210
0
220
0
230
1
0
LINE
5
E4
100
AcDbEntity
8
1
62
256
6
ByLayer
370
18
48
1
60
0
100
AcDbLine
10
377.456466
20
48.946689
30
0
11
377.785587
21
48.984416
31
0
39
0
210
0
220
0
230
1
0
LINE
5
E5
100
AcDbEntity
8
1
62
256
6
ByLayer
370
18
48
1
60
0
100
AcDbLine
10
377.785587
20
48.984416
30
0
11
377.947112
21
49.011305
31
0
39
0
210
0
220
0
230
1
0
LINE
5
E6
100
AcDbEntity
8
1
62
256
6
ByLayer
370
18
48
1
60
0
100
AcDbLine
10
376.64622
20
48.768854
30
0
11
376.44394
21
48.734353
31
0
39
0
210
0
220
0
230
1
0
LINE
5
E7
100
AcDbEntity
8
1
62
256
6
ByLayer
370
18
48
1
60
0
100
AcDbLine
10
376.44394
20
48.734353
30
0
11
369.804125
21
47.56353
31
0
39
0
210
0
220
0
230
1
0
LINE
5
E8
100
AcDbEntity
8
1
62
256
6
ByLayer
370
18
48
1
60
0
100
AcDbLine
10
383.950346
20
49.971627
30
0
11
383.586689
21
49.901
31
0
39
0
210
0
220
0
230
1
0
LINE
5
E9
100
AcDbEntity
8
1
62
256
6
ByLayer
370
18
48
1
60
0
100
AcDbLine
10
382.313257
20
30.858566
30
0
11
384.784985
21
26.574651
31
0
39
0
210
0
220
0
230
1
0
LINE
5
EA
100
AcDbEntity
8
1
62
256
6
ByLayer
370
18
48
1
60
0
100
AcDbLine
10
384.784985
20
26.574651
30
0
11
384.784985
21
50.103671
31
0
39
0
210
0
220
0
230
1
0
LINE
5
EB
100
AcDbEntity
8
1
62
256
6
ByLayer
370
18
48
1
60
0
100
AcDbLine
10
369.804125
20
32.390655
30
0
11
369.804125
21
45.252162
31
0
39
0
210
0
220
0
230
1
0
LINE
5
EC
100
AcDbEntity
8
1
62
256
6
ByLayer
370
18
48
1
60
0
100
AcDbLine
10
382.026084
20
45.252162
30
0
11
381.971343
21
32.390655
31
0
39
0
210
0
220
0
230
1
0
LINE
5
ED
100
AcDbEntity
8
1
62
256
6
ByLayer
370
18
48
1
60
0
100
AcDbLine
10
369.804125
20
47.44753
30
0
11
369.804125
21
45.252162
31
0
39
0
210
0
220
0
230
1
0
LINE
5
EE
100
AcDbEntity
8
1
62
256
6
ByLayer
370
18
48
1
60
0
100
AcDbLine
10
382.026084
20
45.252162
30
0
11
369.804125
21
45.252162
31
0
39
0
210
0
220
0
230
1
0
LINE
5
EF
100
AcDbEntity
8
1
62
256
6
ByLayer
370
18
48
1
60
0
100
AcDbLine
10
369.804125
20
32.390655
30
0
11
381.971343
21
32.390655
31
0
39
0
210
0
220
0
230
1
0
LINE
5
F0
100
AcDbEntity
8
1
62
256
6
ByLayer
370
18
48
1
60
0
100
AcDbLine
10
369.804125
20
30.858566
30
0
11
369.804125
21
32.390655
31
0
39
0
210
0
220
0
230
1
0
LINE
5
F1
100
AcDbEntity
8
1
62
256
6
ByLayer
370
18
48
1
60
0
100
AcDbLine
10
382.313257
20
30.858566
30
0
11
369.804125
21
30.858566
31
0
39
0
210
0
220
0
230
1
0
LINE
5
F2
100
AcDbEntity
8
1
62
256
6
ByLayer
370
18
48
1
60
0
100
AcDbLine
10
392.616625
20
43.583446
30
0
11
392.616625
21
43.57276
31
0
39
0
210
0
220
0
230
1
0
LINE
5
F3
100
AcDbEntity
8
1
62
256
6
ByLayer
370
18
48
1
60
0
100
AcDbLine
10
397.866625
20
43.57276
30
0
11
397.866625
21
43.583446
31
0
39
0
210
0
220
0
230
1
0
LINE
5
F4
100
AcDbEntity
8
1
62
256
6
ByLayer
370
18
48
1
60
0
100
AcDbLine
10
395.628626
20
42.158322
30
0
11
395.628187
21
42.138322
31
0
39
0
210
0
220
0
230
1
0
LINE
5
F5
100
AcDbEntity
8
1
62
256
6
ByLayer
370
18
48
1
60
0
100
AcDbLine
10
394.855062
20
42.138322
30
0
11
394.854623
21
42.158322
31
0
39
0
210
0
220
0
230
1
0
LINE
5
F6
100
AcDbEntity
8
1
62
256
6
ByLayer
370
18
48
1
60
0
100
AcDbLine
10
396.300472
20
42.526452
30
0
11
396.282932
21
42.536071
31
0
39
0
210
0
220
0
230
1
0
LINE
5
F7
100
AcDbEntity
8
1
62
256
6
ByLayer
370
18
48
1
60
0
100
AcDbLine
10
394.200317
20
42.536071
30
0
11
394.182777
21
42.526452
31
0
39
0
210
0
220
0
230
1
0
LINE
5
F8
100
AcDbEntity
8
1
62
256
6
ByLayer
370
18
48
1
60
0
100
AcDbLine
10
394.854623
20
42.158322
30
0
11
394.854623
21
42.14558
31
0
39
0
210
0
220
0
230
1
0
LINE
5
F9
100
AcDbEntity
8
1
62
256
6
ByLayer
370
18
48
1
60
0
100
AcDbLine
10
394.200317
20
42.536071
30
0
11
394.200317
21
42.523329
31
0
39
0
210
0
220
0
230
1
0
LINE
5
FA
100
AcDbEntity
8
1
62
256
6
ByLayer
370
18
48
1
60
0
100
AcDbLine
10
396.282932
20
42.536071
30
0
11
396.282932
21
42.523329
31
0
39
0
210
0
220
0
230
1
0
LINE
5
FB
100
AcDbEntity
8
1
62
256
6
ByLayer
370
18
48
1
60
0
100
AcDbLine
10
395.628626
20
42.158322
30
0
11
395.628626
21
42.14558
31
0
39
0
210
0
220
0
230
1
0
LINE
5
FC
100
AcDbEntity
8
1
62
256
6
ByLayer
370
18
48
1
60
0
100
AcDbLine
10
393.813316
20
43.96185
30
0
11
393.796215
21
43.97223
31
0
39
0
210
0
220
0
230
1
0
LINE
5
FD
100
AcDbEntity
8
1
62
256
6
ByLayer
370
18
48
1
60
0
100
AcDbLine
10
396.687034
20
43.97223
30
0
11
396.669933
21
43.96185
31
0
39
0
210
0
220
0
230
1
0
LINE
5
FE
100
AcDbEntity
8
1
62
256
6
ByLayer
370
18
48
1
60
0
100
AcDbLine
10
396.669933
20
43.96185
30
0
11
396.669933
21
43.949109
31
0
39
0
210
0
220
0
230
1
0
LINE
5
FF
100
AcDbEntity
8
1
62
256
6
ByLayer
370
18
48
1
60
0
100
AcDbLine
10
396.531925
20
43.584101
30
0
11
396.531925
21
43.572302
31
0
39
0
210
0
220
0
230
1
0
LINE
5
100
100
AcDbEntity
8
1
62
256
6
ByLayer
370
18
48
1
60
0
100
AcDbLine
10
393.813316
20
43.96185
30
0
11
393.813316
21
43.949109
31
0
39
0
210
0
220
0
230
1
0
LINE
5
101
100
AcDbEntity
8
1
62
256
6
ByLayer
370
18
48
1
60
0
100
AcDbLine
10
393.951325
20
43.572302
30
0
11
393.951325
21
43.584101
31
0
39
0
210
0
220
0
230
1
0
LINE
5
102
100
AcDbEntity
8
1
62
256
6
ByLayer
370
18
48
1
60
0
100
AcDbLine
10
395.628187
20
42.138322
30
0
11
395.628187
21
42.125484
31
0
39
0
210
0
220
0
230
1
0
LINE
5
103
100
AcDbEntity
8
1
62
256
6
ByLayer
370
18
48
1
60
0
100
AcDbLine
10
394.855062
20
42.138322
30
0
11
394.855062
21
42.125484
31
0
39
0
210
0
220
0
230
1
0
LINE
5
104
100
AcDbEntity
8
1
62
256
6
ByLayer
370
18
48
1
60
0
100
AcDbLine
10
396.300472
20
42.526452
30
0
11
396.300472
21
42.513613
31
0
39
0
210
0
220
0
230
1
0
LINE
5
105
100
AcDbEntity
8
1
62
256
6
ByLayer
370
18
48
1
60
0
100
AcDbLine
10
394.182777
20
42.526452
30
0
11
394.182777
21
42.513613
31
0
39
0
210
0
220
0
230
1
0
LINE
5
106
100
AcDbEntity
8
1
62
256
6
ByLayer
370
18
48
1
60
0
100
AcDbLine
10
396.687034
20
43.97223
30
0
11
396.687034
21
43.959391
31
0
39
0
210
0
220
0
230
1
0
LINE
5
107
100
AcDbEntity
8
1
62
256
6
ByLayer
370
18
48
1
60
0
100
AcDbLine
10
393.796215
20
43.97223
30
0
11
393.796215
21
43.959391
31
0
39
0
210
0
220
0
230
1
0
LINE
5
108
100
AcDbEntity
8
1
62
256
6
ByLayer
370
18
48
1
60
0
100
AcDbLine
10
394.855062
20
45.029879
30
0
11
394.855062
21
45.017041
31
0
39
0
210
0
220
0
230
1
0
LINE
5
109
100
AcDbEntity
8
1
62
256
6
ByLayer
370
18
48
1
60
0
100
AcDbLine
10
395.628187
20
45.029879
30
0
11
395.628187
21
45.017041
31
0
39
0
210
0
220
0
230
1
0
LINE
5
10A
100
AcDbEntity
8
1
62
256
6
ByLayer
370
18
48
1
60
0
100
AcDbLine
10
13.461325
20
-30.080593
30
0
11
13.461325
21
-9.349221
31
0
39
0
210
0
220
0
230
1
0
LINE
5
10B
100
AcDbEntity
8
1
62
256
6
ByLayer
370
18
48
1
60
0
100
AcDbLine
10
13.894337
20
-29.913955
30
0
11
13.894337
21
-9.869412
31
0
39
0
210
0
220
0
230
1
0
LINE
5
10C
100
AcDbEntity
8
1
62
256
6
ByLayer
370
18
48
1
60
0
100
AcDbLine
10
10.105662
20
9.869413
30
0
11
10.105662
21
29.913955
31
0
39
0
210
0
220
0
230
1
0
LINE
5
10D
100
AcDbEntity
8
1
62
256
6
ByLayer
370
18
48
1
60
0
100
AcDbLine
10
10.538675
20
9.349221
30
0
11
10.538675
21
30.080593
31
0
39
0
210
0
220
0
230
1
0
LINE
5
10E
100
AcDbEntity
8
1
62
256
6
ByLayer
370
18
48
1
60
0
100
AcDbLine
10
13.461325
20
9.349221
30
0
11
13.461325
21
30.080593
31
0
39
0
210
0
220
0
230
1
0
LINE
5
10F
100
AcDbEntity
8
1
62
256
6
ByLayer
370
18
48
1
60
0
100
AcDbLine
10
13.894337
20
9.869413
30
0
11
13.894337
21
29.913955
31
0
39
0
210
0
220
0
230
1
0
LINE
5
110
100
AcDbEntity
8
1
62
256
6
ByLayer
370
18
48
1
60
0
100
AcDbLine
10
10.105662
20
-29.913955
30
0
11
10.105662
21
-9.869412
31
0
39
0
210
0
220
0
230
1
0
LINE
5
111
100
AcDbEntity
8
1
62
256
6
ByLayer
370
18
48
1
60
0
100
AcDbLine
10
10.538675
20
-30.080593
30
0
11
10.538675
21
-9.349221
31
0
39
0
210
0
220
0
230
1
0
LINE
5
112
100
AcDbEntity
8
1
62
256
6
ByLayer
370
18
48
1
60
0
100
AcDbLine
10
359.2
20
31.5
30
0
11
359.2
21
0
31
0
39
0
210
0
220
0
230
1
0
LINE
5
113
100
AcDbEntity
8
1
62
256
6
ByLayer
370
18
48
1
60
0
100
AcDbLine
10
359.2
20
0
30
0
11
359.2
21
-31.5
31
0
39
0
210
0
220
0
230
1
0
LINE
5
114
100
AcDbEntity
8
1
62
256
6
ByLayer
370
18
48
1
60
0
100
AcDbLine
10
10.538675
20
-9.349221
30
0
11
13.461325
21
-9.349221
31
0
39
0
210
0
220
0
230
1
0
LINE
5
115
100
AcDbEntity
8
1
62
256
6
ByLayer
370
18
48
1
60
0
100
AcDbLine
10
13.461325
20
-30.080593
30
0
11
10.538675
21
-30.080593
31
0
39
0
210
0
220
0
230
1
0
LINE
5
116
100
AcDbEntity
8
1
62
256
6
ByLayer
370
18
48
1
60
0
100
AcDbLine
10
10.538675
20
30.080593
30
0
11
13.461325
21
30.080593
31
0
39
0
210
0
220
0
230
1
0
LINE
5
117
100
AcDbEntity
8
1
62
256
6
ByLayer
370
18
48
1
60
0
100
AcDbLine
10
13.461325
20
9.349221
30
0
11
10.538675
21
9.349221
31
0
39
0
210
0
220
0
230
1
0
LINE
5
118
100
AcDbEntity
8
1
62
256
6
ByLayer
370
18
48
1
60
0
100
AcDbLine
10
359.2
20
31.5
30
0
11
0.3
21
31.5
31
0
39
0
210
0
220
0
230
1
0
LINE
5
119
100
AcDbEntity
8
1
62
256
6
ByLayer
370
18
48
1
60
0
100
AcDbLine
10
0.3
20
-31.5
30
0
11
359.2
21
-31.5
31
0
39
0
210
0
220
0
230
1
0
LINE
5
11A
100
AcDbEntity
8
1
62
256
6
ByLayer
370
18
48
1
60
0
100
AcDbLine
10
392.741625
20
-43.033289
30
0
11
392.741625
21
-43.242662
31
0
39
0
210
0
220
0
230
1
0
LINE
5
11B
100
AcDbEntity
8
1
62
256
6
ByLayer
370
18
48
1
60
0
100
AcDbLine
10
369.25
20
39.381537
30
0
11
369.25
21
16.999829
31
0
39
0
210
0
220
0
230
1
0
LINE
5
11C
100
AcDbEntity
8
1
62
256
6
ByLayer
370
18
48
1
60
0
100
AcDbLine
10
369
20
17
30
0
11
369
21
39.434883
31
0
39
0
210
0
220
0
230
1
0
LINE
5
11D
100
AcDbEntity
8
1
62
256
6
ByLayer
370
18
48
1
60
0
100
AcDbLine
10
359.5
20
38.326394
30
0
11
359.5
21
39.417763
31
0
39
0
210
0
220
0
230
1
0
LINE
5
11E
100
AcDbEntity
8
1
62
256
6
ByLayer
370
18
48
1
60
0
100
AcDbLine
10
361
20
38.326394
30
0
11
361
21
39.417763
31
0
39
0
210
0
220
0
230
1
0
LINE
5
11F
100
AcDbEntity
8
1
62
256
6
ByLayer
370
18
48
1
60
0
100
AcDbLine
10
359.5
20
40
30
0
11
359.5
21
39.417763
31
0
39
0
210
0
220
0
230
1
0
LINE
5
120
100
AcDbEntity
8
1
62
256
6
ByLayer
370
18
48
1
60
0
100
AcDbLine
10
361
20
39.434883
30
0
11
361
21
39.417763
31
0
39
0
210
0
220
0
230
1
0
LINE
5
121
100
AcDbEntity
8
1
62
256
6
ByLayer
370
18
48
1
60
0
100
AcDbLine
10
359.5
20
39.417763
30
0
11
361
21
39.417763
31
0
39
0
210
0
220
0
230
1
0
LINE
5
122
100
AcDbEntity
8
1
62
256
6
ByLayer
370
18
48
1
60
0
100
AcDbLine
10
369
20
39.434883
30
0
11
361
21
39.434883
31
0
39
0
210
0
220
0
230
1
0
LINE
5
123
100
AcDbEntity
8
1
62
256
6
ByLayer
370
18
48
1
60
0
100
AcDbLine
10
369
20
39.434883
30
0
11
369
21
39.5
31
0
39
0
210
0
220
0
230
1
0
LINE
5
124
100
AcDbEntity
8
1
62
256
6
ByLayer
370
18
48
1
60
0
100
AcDbLine
10
369
20
39.5
30
0
11
363.8
21
39.5
31
0
39
0
210
0
220
0
230
1
0
LINE
5
125
100
AcDbEntity
8
1
62
256
6
ByLayer
370
18
48
1
60
0
100
AcDbLine
10
369.25
20
39.381537
30
0
11
369.8042
21
39.381537
31
0
39
0
210
0
220
0
230
1
0
LINE
5
126
100
AcDbEntity
8
1
62
256
6
ByLayer
370
18
48
1
60
0
100
AcDbLine
10
362.230601
20
40
30
0
11
359.5
21
40
31
0
39
0
210
0
220
0
230
1
0
LINE
5
127
100
AcDbEntity
8
1
62
256
6
ByLayer
370
18
48
1
60
0
100
AcDbLine
10
359.5
20
38.326394
30
0
11
359.5
21
28.756189
31
0
39
0
210
0
220
0
230
1
0
LINE
5
128
100
AcDbEntity
8
1
62
256
6
ByLayer
370
18
48
1
60
0
100
AcDbLine
10
361
20
38.326394
30
0
11
361
21
28.756189
31
0
39
0
210
0
220
0
230
1
0
LINE
5
129
100
AcDbEntity
8
1
62
256
6
ByLayer
370
18
48
1
60
0
100
AcDbLine
10
359.5
20
38.326394
30
0
11
361
21
38.326394
31
0
39
0
210
0
220
0
230
1
0
LINE
5
12A
100
AcDbEntity
8
1
62
256
6
ByLayer
370
18
48
1
60
0
100
AcDbLine
10
376.092895
20
17
30
0
11
377.617533
21
17
31
0
39
0
210
0
220
0
230
1
0
LINE
5
12B
100
AcDbEntity
8
1
62
256
6
ByLayer
370
18
48
1
60
0
100
AcDbLine
10
377.617533
20
9.748055
30
0
11
377.617533
21
17
31
0
39
0
210
0
220
0
230
1
0
LINE
5
12C
100
AcDbEntity
8
1
62
256
6
ByLayer
370
18
48
1
60
0
100
AcDbLine
10
375.063532
20
6.156916
30
0
11
376.092895
21
17
31
0
39
0
210
0
220
0
230
1
0
LINE
5
12D
100
AcDbEntity
8
1
62
256
6
ByLayer
370
18
48
1
60
0
100
AcDbLine
10
369
20
17
30
0
11
376.092895
21
17
31
0
39
0
210
0
220
0
230
1
0
LINE
5
12E
100
AcDbEntity
8
1
62
256
6
ByLayer
370
18
48
1
60
0
100
AcDbLine
10
368.990513
20
17
30
0
11
369
21
17
31
0
39
0
210
0
220
0
230
1
0
LINE
5
12F
100
AcDbEntity
8
1
62
256
6
ByLayer
370
18
48
1
60
0
100
AcDbLine
10
359.5
20
-40
30
0
11
359.5
21
-24.588564
31
0
39
0
210
0
220
0
230
1
0
LINE
5
130
100
AcDbEntity
8
1
62
256
6
ByLayer
370
18
48
1
60
0
100
AcDbLine
10
363.8
20
-39.5
30
0
11
369
21
-39.5
31
0
39
0
210
0
220
0
230
1
0
LINE
5
131
100
AcDbEntity
8
1
62
256
6
ByLayer
370
18
48
1
60
0
100
AcDbLine
10
369
20
-39.5
30
0
11
369
21
-39.425199
31
0
39
0
210
0
220
0
230
1
0
LINE
5
132
100
AcDbEntity
8
1
62
256
6
ByLayer
370
18
48
1
60
0
100
AcDbLine
10
369.25
20
-39.381537
30
0
11
375.133084
21
-39.381537
31
0
39
0
210
0
220
0
230
1
0
LINE
5
133
100
AcDbEntity
8
1
62
256
6
ByLayer
370
18
48
1
60
0
100
AcDbLine
10
359.5
20
-40
30
0
11
362.230601
21
-40
31
0
39
0
210
0
220
0
230
1
0
LINE
5
134
100
AcDbEntity
8
1
62
256
6
ByLayer
370
18
48
1
60
0
100
AcDbLine
10
361
20
25
30
0
11
361
21
28.756189
31
0
39
0
210
0
220
0
230
1
0
LINE
5
135
100
AcDbEntity
8
1
62
256
6
ByLayer
370
18
48
1
60
0
100
AcDbLine
10
361
20
28.756189
30
0
11
359.5
21
28.756189
31
0
39
0
210
0
220
0
230
1
0
LINE
5
136
100
AcDbEntity
8
1
62
256
6
ByLayer
370
18
48
1
60
0
100
AcDbLine
10
359.5
20
0
30
0
11
359.5
21
28.756189
31
0
39
0
210
0
220
0
230
1
0
LINE
5
137
100
AcDbEntity
8
1
62
256
6
ByLayer
370
18
48
1
60
0
100
AcDbLine
10
375.063532
20
6.156916
30
0
11
375.063532
21
-30.391593
31
0
39
0
210
0
220
0
230
1
0
LINE
5
138
100
AcDbEntity
8
1
62
256
6
ByLayer
370
18
48
1
60
0
100
AcDbLine
10
369.040039
20
13.780076
30
0
11
375.063532
21
6.156916
31
0
39
0
210
0
220
0
230
1
0
LINE
5
139
100
AcDbEntity
8
1
62
256
6
ByLayer
370
18
48
1
60
0
100
AcDbLine
10
361.003478
20
-24.588564
30
0
11
359.5
21
-24.588564
31
0
39
0
210
0
220
0
230
1
0
LINE
5
13A
100
AcDbEntity
8
1
62
256
6
ByLayer
370
18
48
1
60
0
100
AcDbLine
10
361.003478
20
0
30
0
11
361.003478
21
-24.588564
31
0
39
0
210
0
220
0
230
1
0
LINE
5
13B
100
AcDbEntity
8
1
62
256
6
ByLayer
370
18
48
1
60
0
100
AcDbLine
10
361.003478
20
0
30
0
11
359.5
21
0
31
0
39
0
210
0
220
0
230
1
0
LINE
5
13C
100
AcDbEntity
8
1
62
256
6
ByLayer
370
18
48
1
60
0
100
AcDbLine
10
359.5
20
-24.588564
30
0
11
359.5
21
0
31
0
39
0
210
0
220
0
230
1
0
LINE
5
13D
100
AcDbEntity
8
1
62
256
6
ByLayer
370
18
48
1
60
0
100
AcDbLine
10
387.885934
20
6.153745
30
0
11
388.104125
21
6.134502
31
0
39
0
210
0
220
0
230
1
0
LINE
5
13E
100
AcDbEntity
8
1
62
256
6
ByLayer
370
18
48
1
60
0
100
AcDbLine
10
388.104125
20
6.134502
30
0
11
388.104125
21
-4.000271
31
0
39
0
210
0
220
0
230
1
0
LINE
5
13F
100
AcDbEntity
8
1
62
256
6
ByLayer
370
18
48
1
60
0
100
AcDbLine
10
369.504125
20
-47.233777
30
0
11
369.504125
21
-39.380956
31
0
39
0
210
0
220
0
230
1
0
LINE
5
140
100
AcDbEntity
8
1
62
256
6
ByLayer
370
18
48
1
60
0
100
AcDbLine
10
376.14394
20
-48.405671
30
0
11
376.14394
21
-45.458908
31
0
39
0
210
0
220
0
230
1
0
LINE
5
141
100
AcDbEntity
8
1
62
256
6
ByLayer
370
18
48
1
60
0
100
AcDbLine
10
376.34622
20
-48.447218
30
0
11
376.34622
21
-46.348969
31
0
39
0
210
0
220
0
230
1
0
LINE
5
142
100
AcDbEntity
8
1
62
256
6
ByLayer
370
18
48
1
60
0
100
AcDbLine
10
396.091625
20
-50.15153
30
0
11
385.734125
21
-50.15153
31
0
39
0
210
0
220
0
230
1
0
LINE
5
143
100
AcDbEntity
8
1
62
256
6
ByLayer
370
18
48
1
60
0
100
AcDbLine
10
396.091625
20
-49.861461
30
0
11
396.091625
21
-50.15153
31
0
39
0
210
0
220
0
230
1
0
LINE
5
144
100
AcDbEntity
8
1
62
256
6
ByLayer
370
18
48
1
60
0
100
AcDbLine
10
396.191625
20
-49.857099
30
0
11
396.091625
21
-49.861461
31
0
39
0
210
0
220
0
230
1
0
LINE
5
145
100
AcDbEntity
8
1
62
256
6
ByLayer
370
18
48
1
60
0
100
AcDbLine
10
396.191625
20
-49.857099
30
0
11
398.534125
21
-49.857099
31
0
39
0
210
0
220
0
230
1
0
LINE
5
146
100
AcDbEntity
8
1
62
256
6
ByLayer
370
18
48
1
60
0
100
AcDbLine
10
398.534125
20
-49.857099
30
0
11
398.534125
21
-49.834405
31
0
39
0
210
0
220
0
230
1
0
LINE
5
147
100
AcDbEntity
8
1
62
256
6
ByLayer
370
18
48
1
60
0
100
AcDbLine
10
385.734125
20
-50.15153
30
0
11
385.734125
21
-49.834405
31
0
39
0
210
0
220
0
230
1
0
LINE
5
148
100
AcDbEntity
8
1
62
256
6
ByLayer
370
18
48
1
60
0
100
AcDbLine
10
376.871926
20
-48.27725
30
0
11
377.485587
21
-48.575001
31
0
39
0
210
0
220
0
230
1
0
LINE
5
149
100
AcDbEntity
8
1
62
256
6
ByLayer
370
18
48
1
60
0
100
AcDbLine
10
369.504125
20
-47.233777
30
0
11
369.504125
21
-47.816811
31
0
39
0
210
0
220
0
230
1
0
LINE
5
14A
100
AcDbEntity
8
1
62
256
6
ByLayer
370
18
48
1
60
0
100
AcDbLine
10
383.650346
20
-50.063639
30
0
11
381.720787
21
-49.896296
31
0
39
0
210
0
220
0
230
1
0
LINE
5
14B
100
AcDbEntity
8
1
62
256
6
ByLayer
370
18
48
1
60
0
100
AcDbLine
10
383.650346
20
-50.063639
30
0
11
383.650346
21
-49.623691
31
0
39
0
210
0
220
0
230
1
0
LINE
5
14C
100
AcDbEntity
8
1
62
256
6
ByLayer
370
18
48
1
60
0
100
AcDbLine
10
377.485587
20
-48.575001
30
0
11
377.647112
21
-48.61148
31
0
39
0
210
0
220
0
230
1
0
LINE
5
14D
100
AcDbEntity
8
1
62
256
6
ByLayer
370
18
48
1
60
0
100
AcDbLine
10
376.34622
20
-48.447218
30
0
11
376.14394
21
-48.405671
31
0
39
0
210
0
220
0
230
1
0
LINE
5
14E
100
AcDbEntity
8
1
62
256
6
ByLayer
370
18
48
1
60
0
100
AcDbLine
10
376.14394
20
-48.405671
30
0
11
369.504125
21
-47.233777
31
0
39
0
210
0
220
0
230
1
0
LINE
5
14F
100
AcDbEntity
8
1
62
256
6
ByLayer
370
18
48
1
60
0
100
AcDbLine
10
392.378359
20
-29.722625
30
0
11
392.495592
21
-29.751855
31
0
39
0
210
0
220
0
230
1
0
LINE
5
150
100
AcDbEntity
8
1
62
256
6
ByLayer
370
18
48
1
60
0
100
AcDbLine
10
388.104125
20
-20.000025
30
0
11
388.104125
21
-24.251855
31
0
39
0
210
0
220
0
230
1
0
LINE
5
151
100
AcDbEntity
8
1
62
256
6
ByLayer
370
18
48
1
60
0
100
AcDbLine
10
399.034125
20
-31.382094
30
0
11
398.190353
21
-31.171718
31
0
39
0
210
0
220
0
230
1
0
LINE
5
152
100
AcDbEntity
8
1
62
256
6
ByLayer
370
18
48
1
60
0
100
AcDbLine
10
399.034125
20
-36.018989
30
0
11
399.034125
21
-49.357575
31
0
39
0
210
0
220
0
230
1
0
LINE
5
153
100
AcDbEntity
8
1
62
256
6
ByLayer
370
18
48
1
60
0
100
AcDbLine
10
399.034125
20
-31.382094
30
0
11
399.034125
21
-36.018989
31
0
39
0
210
0
220
0
230
1
0
LINE
5
154
100
AcDbEntity
8
1
62
256
6
ByLayer
370
18
48
1
60
0
100
AcDbLine
10
397.889633
20
-40.216995
30
0
11
394.891406
21
-40.216995
31
0
39
0
210
0
220
0
230
1
0
LINE
5
155
100
AcDbEntity
8
1
62
256
6
ByLayer
370
18
48
1
60
0
100
AcDbLine
10
394.891406
20
-40.076648
30
0
11
394.891406
21
-40.216995
31
0
39
0
210
0
220
0
230
1
0
LINE
5
156
100
AcDbEntity
8
1
62
256
6
ByLayer
370
18
48
1
60
0
100
AcDbLine
10
397.658495
20
-46.614326
30
0
11
392.141406
21
-46.614326
31
0
39
0
210
0
220
0
230
1
0
LINE
5
157
100
AcDbEntity
8
1
62
256
6
ByLayer
370
18
48
1
60
0
100
AcDbLine
10
392.141406
20
-46.614326
30
0
11
392.141406
21
-42.714339
31
0
39
0
210
0
220
0
230
1
0
LINE
5
158
100
AcDbEntity
8
1
62
256
6
ByLayer
370
18
48
1
60
0
100
AcDbLine
10
385.734125
20
-49.834405
30
0
11
398.534125
21
-49.834405
31
0
39
0
210
0
220
0
230
1
0
LINE
5
159
100
AcDbEntity
8
1
62
256
6
ByLayer
370
18
48
1
60
0
100
AcDbLine
10
387.508166
20
9.748145
30
0
11
387.981135
21
5.248145
31
0
39
0
210
0
220
0
230
1
0
LINE
5
15A
100
AcDbEntity
8
1
62
256
6
ByLayer
370
18
48
1
60
0
100
AcDbLine
10
375.063532
20
5.248145
30
0
11
375.687959
21
9.748145
31
0
39
0
210
0
220
0
230
1
0
LINE
5
15B
100
AcDbEntity
8
1
62
256
6
ByLayer
370
18
48
1
60
0
100
AcDbLine
10
375.688016
20
9.748145
30
0
11
387.508166
21
9.748145
31
0
39
0
210
0
220
0
230
1
0
LINE
5
15C
100
AcDbEntity
8
1
62
256
6
ByLayer
370
18
48
1
60
0
100
AcDbLine
10
388.392332
20
-29.751855
30
0
11
392.495592
21
-29.751855
31
0
39
0
210
0
220
0
230
1
0
LINE
5
15D
100
AcDbEntity
8
1
62
256
6
ByLayer
370
18
48
1
60
0
100
AcDbLine
10
397.658495
20
-46.614326
30
0
11
397.889633
21
-40.216995
31
0
39
0
210
0
220
0
230
1
0
LINE
5
15E
100
AcDbEntity
8
1
62
256
6
ByLayer
370
18
48
1
60
0
100
AcDbLine
10
398.26281
20
-46.97616
30
0
11
398.190353
21
-31.171718
31
0
39
0
210
0
220
0
230
1
0
LINE
5
15F
100
AcDbEntity
8
1
62
256
6
ByLayer
370
18
48
1
60
0
100
AcDbLine
10
392.495592
20
-29.751855
30
0
11
398.190353
21
-31.171718
31
0
39
0
210
0
220
0
230
1
0
LINE
5
160
100
AcDbEntity
8
1
62
256
6
ByLayer
370
18
48
1
60
0
100
AcDbLine
10
397.889633
20
-40.216995
30
0
11
394.891406
21
-40.076648
31
0
39
0
210
0
220
0
230
1
0
LINE
5
161
100
AcDbEntity
8
1
62
256
6
ByLayer
370
18
48
1
60
0
100
AcDbLine
10
387.981135
20
-29.751855
30
0
11
388.392332
21
-29.751855
31
0
39
0
210
0
220
0
230
1
0
LINE
5
162
100
AcDbEntity
8
1
62
256
6
ByLayer
370
18
48
1
60
0
100
AcDbLine
10
387.981135
20
5.248145
30
0
11
387.981135
21
-29.751855
31
0
39
0
210
0
220
0
230
1
0
LINE
5
163
100
AcDbEntity
8
1
62
256
6
ByLayer
370
18
48
1
60
0
100
AcDbLine
10
375.063532
20
-30.391593
30
0
11
375.016939
21
-30.391593
31
0
39
0
210
0
220
0
230
1
0
LINE
5
164
100
AcDbEntity
8
1
62
256
6
ByLayer
370
18
48
1
60
0
100
AcDbLine
10
375.016939
20
-38.452534
30
0
11
388.432221
21
-38.452534
31
0
39
0
210
0
220
0
230
1
0
LINE
5
165
100
AcDbEntity
8
1
62
256
6
ByLayer
370
18
48
1
60
0
100
AcDbLine
10
388.432221
20
-38.452534
30
0
11
388.392332
21
-29.751855
31
0
39
0
210
0
220
0
230
1
0
LINE
5
166
100
AcDbEntity
8
1
62
256
6
ByLayer
370
18
48
1
60
0
100
AcDbLine
10
375.063731
20
5.248145
30
0
11
387.981135
21
5.248145
31
0
39
0
210
0
220
0
230
1
0
LINE
5
167
100
AcDbEntity
8
1
62
256
6
ByLayer
370
18
48
1
60
0
100
AcDbLine
10
375.016939
20
-38.452534
30
0
11
375.016939
21
-30.391124
31
0
39
0
210
0
220
0
230
1
0
LINE
5
168
100
AcDbEntity
8
1
62
256
6
ByLayer
370
18
48
1
60
0
100
AcDbLine
10
398.8135
20
51.130575
30
0
11
386.90725
21
44.25676
31
0
39
0
210
0
220
0
230
1
0
LINE
5
169
100
AcDbEntity
8
1
62
256
6
ByLayer
370
18
48
1
60
0
100
AcDbLine
10
386.90725
20
42.881997
30
0
11
398.8135
21
36.008182
31
0
39
0
210
0
220
0
230
1
0
LINE
5
16A
100
AcDbEntity
8
1
62
256
6
ByLayer
370
18
48
1
60
0
100
AcDbLine
10
400.004125
20
36.695564
30
0
11
400.004125
21
50.443193
31
0
39
0
210
0
220
0
230
1
0
LINE
5
16B
100
AcDbEntity
8
1
62
256
6
ByLayer
370
18
48
1
60
0
100
AcDbLine
10
373.31951
20
-41.251855
30
0
11
373.380445
21
-41.251855
31
0
39
0
210
0
220
0
230
1
0
LINE
5
16C
100
AcDbEntity
8
1
62
256
6
ByLayer
370
18
48
1
60
0
100
AcDbLine
10
372.162305
20
-40.768148
30
0
11
372.197644
21
-40.804305
31
0
39
0
210
0
220
0
230
1
0
LINE
5
16D
100
AcDbEntity
8
1
62
256
6
ByLayer
370
18
48
1
60
0
100
AcDbLine
10
349.786331
20
13.208022
30
0
11
349.778921
21
13.200268
31
0
39
0
210
0
220
0
230
1
0
LINE
5
16E
100
AcDbEntity
8
1
62
256
6
ByLayer
370
18
48
1
60
0
100
AcDbLine
10
353.221079
20
13.200268
30
0
11
353.213669
21
13.208022
31
0
39
0
210
0
220
0
230
1
0
LINE
5
16F
100
AcDbEntity
8
1
62
256
6
ByLayer
370
18
48
1
60
0
100
AcDbLine
10
377.456464
20
48.946688
30
0
11
377.441559
21
48.907878
31
0
39
0
210
0
220
0
230
1
0
LINE
5
170
100
AcDbEntity
8
1
62
256
6
ByLayer
370
18
48
1
60
1
100
AcDbLine
10
0
20
0
30
0
11
0
21
420
31
0
39
0
210
0
220
0
230
1
0
LINE
5
171
100
AcDbEntity
8
1
62
256
6
ByLayer
370
18
48
1
60
1
100
AcDbLine
10
594
20
420
30
0
11
0
21
420
31
0
39
0
210
0
220
0
230
1
0
LINE
5
172
100
AcDbEntity
8
1
62
256
6
ByLayer
370
18
48
1
60
1
100
AcDbLine
10
594
20
420
30
0
11
594
21
0
31
0
39
0
210
0
220
0
230
1
0
LINE
5
173
100
AcDbEntity
8
1
62
256
6
ByLayer
370
18
48
1
60
1
100
AcDbLine
10
0
20
0
30
0
11
594
21
0
31
0
39
0
210
0
220
0
230
1
0
LINE
5
174
100
AcDbEntity
8
1
62
256
6
ByLayer
370
18
48
1
60
0
100
AcDbLine
10
388.404257
20
4
30
0
11
396.501754
21
4
31
0
39
0
210
0
220
0
230
1
0
LINE
5
175
100
AcDbEntity
8
1
62
256
6
ByLayer
370
18
48
1
60
0
100
AcDbLine
10
396.501754
20
20
30
0
11
388.404257
21
20
31
0
39
0
210
0
220
0
230
1
0
LINE
5
176
100
AcDbEntity
8
1
62
256
6
ByLayer
370
18
48
1
60
0
100
AcDbLine
10
388.057405
20
-20
30
0
11
396.201913
21
-20
31
0
39
0
210
0
220
0
230
1
0
LINE
5
177
100
AcDbEntity
8
1
62
256
6
ByLayer
370
18
48
1
60
0
100
AcDbLine
10
396.201913
20
-4
30
0
11
388.057405
21
-4
31
0
39
0
210
0
220
0
230
1
0
LINE
5
178
100
AcDbEntity
8
1
62
256
6
ByLayer
370
18
48
1
60
0
100
AcDbLine
10
397.985107
20
12
30
0
11
397.007368
21
12
31
0
39
0
210
0
220
0
230
1
0
MTEXT
5
266
100
AcDbEntity
8
SK6
62
256
6
ByLayer
370
18
48
1
60
0
100
AcDbMText
10
174.833849
20
-45.229735
30
0
210
0
220
0
230
1
1
\W0.7377;BR20D-116TC16F-C6M
40
3
41
0
44
1.084337
50
0
71
7
72
5
7
iso_b_vert
0
DIMENSION
5
26B
100
AcDbEntity
8
2
62
256
6
ByLayer
370
18
48
1
60
0
100
AcDbDimension
2
_U0
10
0
20
66.242852
30
0
11
200.002062
21
66.242852
31
0
70
32
71
1
72
1
41
1
210
0
220
0
230
1
3
Standard
100
AcDbAlignedDimension
13
400.004125
23
51.236913
33
0
14
0
24
31.2
34
0
50
0
100
AcDbRotatedDimension
1001
ACAD
1000
DSTYLE
1002
{
1070
   371
1070
    13
1070
   372
1070
    13
1070
   170
1070
     0
1070
   144
1040
1.0
1070
   277
1070
     2
1070
   278
1070
    46
1070
   146
1040
1.166667
1070
   345
1005
16
1070
   347
1005
16
1070
   346
1005
16
1070
   344
1005
0
1070
   343
1005
0
1070
   172
1070
     1
1070
    76
1070
     0
1070
    75
1070
     0
1070
   282
1070
     0
1070
   281
1070
     0
1070
    71
1070
     0
1070
   272
1070
     4
1070
    74
1070
     0
1070
   279
1070
     0
1070
   173
1070
     1
1070
   340
1005
267
1070
   271
1070
     1
1070
    77
1070
     1
1070
    73
1070
     1
1070
   171
1070
     4
1070
   274
1070
     4
1070
   177
1070
     7
1070
   176
1070
     7
1070
   178
1070
     7
1070
    41
1040
3.175
1070
   147
1040
1.5
1070
    42
1040
2.0
1070
    44
1040
2.0
1070
   140
1040
3.0
1002
}
1001
ACAD_DSTYLE_DIM_LINETYPE
1070
   380
1005
16
1001
ACAD_DSTYLE_DIM_EXT1_LINETYPE
1070
   381
1005
16
1001
ACAD_DSTYLE_DIM_EXT2_LINETYPE
1070
   382
1005
16
0
DIMENSION
5
285
100
AcDbEntity
8
2
62
256
6
ByLayer
370
18
48
1
60
0
100
AcDbDimension
2
_U1
10
431.405742
20
-51.236606
30
0
11
431.405742
21
0.000153
31
0
70
32
71
1
72
1
41
1
210
0
220
0
230
1
3
Standard
100
AcDbAlignedDimension
13
400.004125
23
51.236913
33
0
14
400.004125
24
-51.236606
34
0
50
90
100
AcDbRotatedDimension
1001
ACAD
1000
DSTYLE
1002
{
1070
   371
1070
    13
1070
   372
1070
    13
1070
     3
1000

1070
   170
1070
     0
1070
   144
1040
1.0
1070
   277
1070
     2
1070
   278
1070
    46
1070
   146
1040
1.166667
1070
   345
1005
16
1070
   347
1005
16
1070
   346
1005
16
1070
   344
1005
0
1070
   343
1005
0
1070
   172
1070
     1
1070
    76
1070
     0
1070
    75
1070
     0
1070
   282
1070
     0
1070
   281
1070
     0
1070
    71
1070
     0
1070
   272
1070
     4
1070
    74
1070
     0
1070
   279
1070
     0
1070
   173
1070
     1
1070
   340
1005
267
1070
   271
1070
     1
1070
    77
1070
     1
1070
    73
1070
     0
1070
   171
1070
     4
1070
   274
1070
     4
1070
   177
1070
     7
1070
   176
1070
     7
1070
   178
1070
     7
1070
    41
1040
3.175
1070
   147
1040
1.5
1070
    42
1040
2.0
1070
    44
1040
2.0
1070
   140
1040
3.0
1002
}
1001
ACAD_DSTYLE_DIM_LINETYPE
1070
   380
1005
16
1001
ACAD_DSTYLE_DIM_EXT1_LINETYPE
1070
   381
1005
16
1001
ACAD_DSTYLE_DIM_EXT2_LINETYPE
1070
   382
1005
16
0
DIMENSION
5
29D
100
AcDbEntity
8
SK2
62
256
6
ByLayer
370
18
48
1
60
0
100
AcDbDimension
2
_U2
10
-52.613275
20
-31.5
30
0
11
-52.613275
21
0
31
0
70
32
71
1
72
1
41
1
210
0
220
0
230
1
3
Standard
100
AcDbAlignedDimension
13
0.3
23
31.5
33
0
14
0.3
24
-31.5
34
0
50
-90
100
AcDbRotatedDimension
1001
ACAD
1000
DSTYLE
1002
{
1070
   371
1070
    13
1070
   372
1070
    13
1070
     3
1000
\C7;]<>
1070
   170
1070
     0
1070
   144
1040
1.0
1070
   277
1070
     2
1070
   278
1070
    46
1070
   146
1040
1.166667
1070
   345
1005
16
1070
   347
1005
16
1070
   346
1005
16
1070
   344
1005
0
1070
   343
1005
0
1070
   172
1070
     1
1070
    76
1070
     0
1070
    75
1070
     0
1070
   282
1070
     0
1070
   281
1070
     0
1070
    71
1070
     0
1070
   272
1070
     4
1070
    74
1070
     0
1070
   279
1070
     0
1070
   173
1070
     1
1070
   340
1005
267
1070
   271
1070
     0
1070
    77
1070
     1
1070
    73
1070
     0
1070
   171
1070
     4
1070
   274
1070
     4
1070
   177
1070
     7
1070
   176
1070
     7
1070
   178
1070
     7
1070
    41
1040
3.175
1070
   147
1040
1.5
1070
    42
1040
2.0
1070
    44
1040
2.0
1070
   140
1040
3.0
1002
}
1001
ACAD_DSTYLE_DIM_LINETYPE
1070
   380
1005
16
1001
ACAD_DSTYLE_DIM_EXT1_LINETYPE
1070
   381
1005
16
1001
ACAD_DSTYLE_DIM_EXT2_LINETYPE
1070
   382
1005
16
0
DIMENSION
5
2B7
100
AcDbEntity
8
2
62
256
6
ByLayer
370
18
48
1
60
0
100
AcDbDimension
2
_U3
10
401.004125
20
51.236913
30
0
11
415.869854
21
35.371184
31
0
70
34
71
1
72
1
41
1
210
0
220
0
230
1
3
Standard
100
AcDb2LineAngularDimension
13
400.004125
23
36.695564
33
0
14
400.004125
24
50.443193
34
0
15
400.004125
25
51.236913
35
0
16
411.222889
26
31.805443
36
0
40
0
0
ENDSEC
0
SECTION
2
OBJECTS
0
DICTIONARY
5
342
330
0
100
AcDbDictionary
280
0
281
1
3
ACAD_GROUP
350
343
3
ACAD_MLINESTYLE
350
344
0
DICTIONARY
5
343
330
0
100
AcDbDictionary
280
0
281
1
0
DICTIONARY
5
344
330
0
100
AcDbDictionary
280
0
281
1
3
Standard
350
18
0
MLINESTYLE
5
18
330
344
100
AcDbMlineStyle
2
Standard
70
0
3

62
256
51
90
52
90
71
2
49
-0.5
62
256
6
ByLayer
49
0.5
62
256
6
ByLayer
0
RASTERVARIABLES
5
330
330

100
AcDbRasterVariables
90
0
70
1
71
1
72
1
0
ENDSEC
0
EOF
