0
SECTION
2
HEADER
9
$ACADVER
1
AC1015
9
$DWGCODEPAGE
3
ANSI_1252
9
$HANDSEED
5
1e9
9
$ANGBASE
50
0
9
$ANGDIR
70
0
9
$ATTMODE
70
1
9
$AUNITS
70
0
9
$AUPREC
70
0
9
$CECOLOR
62
256
9
$CELTSCALE
40
1
9
$CELTYPE
6
ByLayer
9
$CELWEIGHT
370
18
9
$CLAYER
8
0
9
$CMLJUST
70
0
9
$CMLSCALE
40
1
9
$CMLSTYLE
2
Standard
9
$DIMSTYLE
2
Standard
9
$TEXTSIZE
40
0.2
9
$TEXTSTYLE
7
Standard
9
$LUNITS
70
2
9
$LUPREC
70
4
9
$EXTNAMES
290
1
9
$INSUNITS
70
4
9
$LTSCALE
40
1
9
$LWDISPLAY
290
1
9
$PDMODE
70
0
9
$PDSIZE
40
0
9
$PLINEGEN
70
0
0
ENDSEC
0
SECTION
2
CLASSES
0
CLASS
1
RASTERVARIABLES
2
AcDbRasterVariables
3
ISM
90
0
280
0
281
0
0
ENDSEC
0
SECTION
2
TABLES
0
TABLE
2
VPORT
5
1df
100
AcDbSymbolTable
0
VPORT
5
1
100
AcDbSymbolTableRecord
100
AcDbViewportTableRecord
2
*Active
70
0
10
0
20
0
11
1
21
1
12
-1
22
1
13
0
23
0
14
0.5
24
0.5
15
10
25
10
16
0
26
0
36
1
17
0
27
0
37
0
0
ENDTAB
0
TABLE
2
LTYPE
5
1e0
100
AcDbSymbolTable
0
LTYPE
5
14
100
AcDbSymbolTableRecord
100
AcDbLinetypeTableRecord
70
0
2
ByBlock
3

72
65
73
0
40
0
0
LTYPE
5
15
100
AcDbSymbolTableRecord
100
AcDbLinetypeTableRecord
70
0
2
ByLayer
3

72
65
73
0
40
0
0
LTYPE
5
16
100
AcDbSymbolTableRecord
100
AcDbLinetypeTableRecord
70
0
2
Continuous
3
Solid line
72
65
73
0
40
0
0
LTYPE
5
6E
100
AcDbSymbolTableRecord
100
AcDbLinetypeTableRecord
70
0
2
CENTER
3
____ _ ____ _ ____ _ ____
72
65
73
4
40
47.5
49
22
74
0
49
-8.5
74
0
49
8.5
74
0
49
-8.5
74
0
0
LTYPE
5
6F
100
AcDbSymbolTableRecord
100
AcDbLinetypeTableRecord
70
0
2
DASHED
3
__ __ __ __ __ __ __ __ __
72
65
73
2
40
25.72
49
12.86
74
0
49
-12.86
74
0
0
ENDTAB
0
TABLE
2
LAYER
5
1e1
100
AcDbSymbolTable
0
LAYER
5
10
100
AcDbSymbolTableRecord
100
AcDbLayerTableRecord
2
0
70
0
62
7
6
Continuous
290
1
370
-3
390
0
0
LAYER
5
71
100
AcDbSymbolTableRecord
100
AcDbLayerTableRecord
2
80
70
0
62
-6
6
Continuous
290
1
370
-3
390
0
0
LAYER
5
73
100
AcDbSymbolTableRecord
100
AcDbLayerTableRecord
2
81
70
0
62
-3
6
Continuous
290
1
370
-3
390
0
0
LAYER
5
75
100
AcDbSymbolTableRecord
100
AcDbLayerTableRecord
2
1
70
0
62
4
6
Continuous
290
1
370
-3
390
0
0
LAYER
5
98
100
AcDbSymbolTableRecord
100
AcDbLayerTableRecord
2
4
70
0
62
-2
6
CENTER
290
1
370
-3
390
0
0
LAYER
5
A8
100
AcDbSymbolTableRecord
100
AcDbLayerTableRecord
2
2
70
0
62
7
6
Continuous
290
1
370
-3
390
0
0
LAYER
5
F0
100
AcDbSymbolTableRecord
100
AcDbLayerTableRecord
2
Defpoints
70
0
62
7
6
Continuous
290
0
370
-3
390
0
0
LAYER
5
1cb
100
AcDbSymbolTableRecord
100
AcDbLayerTableRecord
2
SK1
70
0
62
4
6
Continuous
290
1
370
-3
390
0
0
LAYER
5
1cc
100
AcDbSymbolTableRecord
100
AcDbLayerTableRecord
2
SK4
70
0
62
2
6
CENTER
290
1
370
-3
390
0
0
LAYER
5
1cd
100
AcDbSymbolTableRecord
100
AcDbLayerTableRecord
2
SK2
70
0
62
7
6
Continuous
290
1
370
-3
390
0
0
LAYER
5
1ce
100
AcDbSymbolTableRecord
100
AcDbLayerTableRecord
2
SK6
70
0
62
5
6
Continuous
290
1
370
-3
390
0
0
ENDTAB
0
TABLE
2
STYLE
5
1e2
100
AcDbSymbolTable
0
STYLE
5
11
100
AcDbSymbolTableRecord
100
AcDbTextStyleTableRecord
2
Standard
3
txt
70
0
71
0
40
0
41
1
42
0
50
0
0
STYLE
5
CC
100
AcDbSymbolTableRecord
100
AcDbTextStyleTableRecord
2
iso_b_vert
3
simplex.shx
70
0
71
0
40
0
41
1
42
0
50
0
0
STYLE
5
CD
100
AcDbSymbolTableRecord
100
AcDbTextStyleTableRecord
2
DWGDirectTextStyle
3
simplex
70
0
71
0
40
0
41
1
42
0
50
0
0
ENDTAB
0
TABLE
2
DIMSTYLE
5
1e3
100
AcDbSymbolTable
100
AcDbDimStyleTable
0
DIMSTYLE
105
27
100
AcDbSymbolTableRecord
100
AcDbDimStyleTableRecord
2
Standard
70
0
3
<>
41
0.18
42
0.0625
44
0.18
140
0.18
147
0.09
73
0
74
0
77
1
271
2
275
0
278
52
280
0
340
11
0
ENDTAB
0
TABLE
2
VIEW
5
1e4
100
AcDbSymbolTable
0
ENDTAB
0
TABLE
2
UCS
5
1e5
100
AcDbSymbolTable
0
ENDTAB
0
TABLE
2
APPID
5
1e6
100
AcDbSymbolTable
0
APPID
5
12
100
AcDbSymbolTableRecord
100
AcDbRegAppTableRecord
2
ACAD
70
0
0
APPID
5
EC
100
AcDbSymbolTableRecord
100
AcDbRegAppTableRecord
2
ACAD_DSTYLE_DIMBREAK
70
0
0
APPID
5
18A
100
AcDbSymbolTableRecord
100
AcDbRegAppTableRecord
2
ACAD_DSTYLE_DIM_LINETYPE
70
0
0
APPID
5
18B
100
AcDbSymbolTableRecord
100
AcDbRegAppTableRecord
2
ACAD_DSTYLE_DIM_EXT1_LINETYPE
70
0
0
APPID
5
18C
100
AcDbSymbolTableRecord
100
AcDbRegAppTableRecord
2
ACAD_DSTYLE_DIM_EXT2_LINETYPE
70
0
0
APPID
5
1C7
100
AcDbSymbolTableRecord
100
AcDbRegAppTableRecord
2
ACAD_MLEADERVER
70
0
0
ENDTAB
0
TABLE
2
BLOCK_RECORD
5
1e7
100
AcDbSymbolTable
0
BLOCK_RECORD
5
1F
100
AcDbSymbolTableRecord
100
AcDbBlockTableRecord
2
*Model_Space
340
0
70
0
0
BLOCK_RECORD
5
1B
100
AcDbSymbolTableRecord
100
AcDbBlockTableRecord
2
*Paper_Space
340
0
70
0
0
BLOCK_RECORD
5
23
100
AcDbSymbolTableRecord
100
AcDbBlockTableRecord
2
*Paper_Space0
340
0
70
0
0
BLOCK_RECORD
5
F1
100
AcDbSymbolTableRecord
100
AcDbBlockTableRecord
2
*D1
340
0
70
0
0
BLOCK_RECORD
5
FD
100
AcDbSymbolTableRecord
100
AcDbBlockTableRecord
2
_U0
340
0
70
0
0
BLOCK_RECORD
5
109
100
AcDbSymbolTableRecord
100
AcDbBlockTableRecord
2
*D3
340
0
70
0
0
BLOCK_RECORD
5
117
100
AcDbSymbolTableRecord
100
AcDbBlockTableRecord
2
_U1
340
0
70
0
0
BLOCK_RECORD
5
123
100
AcDbSymbolTableRecord
100
AcDbBlockTableRecord
2
*D5
340
0
70
0
0
BLOCK_RECORD
5
131
100
AcDbSymbolTableRecord
100
AcDbBlockTableRecord
2
_U2
340
0
70
0
0
BLOCK_RECORD
5
13D
100
AcDbSymbolTableRecord
100
AcDbBlockTableRecord
2
*D7
340
0
70
0
0
BLOCK_RECORD
5
149
100
AcDbSymbolTableRecord
100
AcDbBlockTableRecord
2
_U3
340
0
70
0
0
BLOCK_RECORD
5
155
100
AcDbSymbolTableRecord
100
AcDbBlockTableRecord
2
*D9
340
0
70
0
0
BLOCK_RECORD
5
163
100
AcDbSymbolTableRecord
100
AcDbBlockTableRecord
2
_U4
340
0
70
0
0
ENDTAB
0
ENDSEC
0
SECTION
2
BLOCKS
0
BLOCK
5
20
100
AcDbEntity
8
0
100
AcDbBlockBegin
2
*Model_Space
70
0
10
0
20
0
30
0
3
*Model_Space
0
ENDBLK
5
21
100
AcDbEntity
8
0
100
AcDbBlockEnd
0
BLOCK
5
1C
100
AcDbEntity
8
0
100
AcDbBlockBegin
2
*Paper_Space
70
0
10
0
20
0
30
0
3
*Paper_Space
0
ENDBLK
5
1D
100
AcDbEntity
8
0
100
AcDbBlockEnd
0
BLOCK
5
24
100
AcDbEntity
8
0
100
AcDbBlockBegin
2
*Paper_Space0
70
0
10
0
20
0
30
0
3
*Paper_Space0
0
ENDBLK
5
25
100
AcDbEntity
8
0
100
AcDbBlockEnd
0
BLOCK
5
F2
100
AcDbEntity
8
0
100
AcDbBlockBegin
2
*D1
70
1
10
0
20
0
30
0
3
*D1
0
LINE
5
F4
100
AcDbEntity
8
0
62
256
6
ByLayer
370
-2
48
1
60
0
100
AcDbLine
10
-33.0198
20
-0.0875
30
0
11
-33.0198
21
-37.85
31
0
39
0
210
0
220
0
230
1
0
LINE
5
F5
100
AcDbEntity
8
0
62
256
6
ByLayer
370
-2
48
1
60
0
100
AcDbLine
10
4.9802
20
-1.4225
30
0
11
4.9802
21
-37.85
31
0
39
0
210
0
220
0
230
1
0
LINE
5
F6
100
AcDbEntity
8
0
62
256
6
ByLayer
370
-2
48
1
60
0
100
AcDbLine
10
-29.5198
20
-35.85
30
0
11
1.4802
21
-35.85
31
0
39
0
210
0
220
0
230
1
0
SOLID
5
F7
100
AcDbEntity
8
0
62
256
6
ByLayer
370
-1
48
1
60
0
100
AcDbTrace
10
-29.5198
20
-35.266667
30
0
11
-29.5198
21
-36.433333
31
0
12
-33.0198
22
-35.85
32
0
13
-33.0198
23
-35.85
33
0
39
0
210
0
220
0
230
1
0
SOLID
5
F8
100
AcDbEntity
8
0
62
256
6
ByLayer
370
-1
48
1
60
0
100
AcDbTrace
10
1.4802
20
-36.433333
30
0
11
1.4802
21
-35.266667
31
0
12
4.9802
22
-35.85
32
0
13
4.9802
23
-35.85
33
0
39
0
210
0
220
0
230
1
0
MTEXT
5
F9
100
AcDbEntity
8
0
62
256
6
ByLayer
370
18
48
1
60
0
100
AcDbMText
10
-14.0198
20
-29.85
30
0
210
0
220
0
230
1
1
\A1;38
40
3
41
0
44
1
50
0
71
5
72
5
7
iso_b_vert
0
POINT
5
FA
100
AcDbEntity
8
Defpoints
62
0
6
ByLayer
370
-1
48
1
60
0
100
AcDbPoint
10
-33.0198
20
1.5
30
0
39
0
210
0
220
0
230
1
50
360
0
POINT
5
FB
100
AcDbEntity
8
Defpoints
62
0
6
ByLayer
370
-1
48
1
60
0
100
AcDbPoint
10
4.9802
20
0.165
30
0
39
0
210
0
220
0
230
1
50
360
0
POINT
5
FC
100
AcDbEntity
8
Defpoints
62
0
6
ByLayer
370
-1
48
1
60
0
100
AcDbPoint
10
4.9802
20
-35.85
30
0
39
0
210
0
220
0
230
1
50
360
0
ENDBLK
5
F3
100
AcDbEntity
8
0
100
AcDbBlockEnd
0
BLOCK
5
104
100
AcDbEntity
8
0
100
AcDbBlockBegin
2
_U0
70
0
10
0
20
0
30
0
3
_U0
0
MTEXT
5
FE
100
AcDbEntity
8
SK2
62
256
6
ByLayer
370
18
48
1
60
0
100
AcDbMText
10
-18.50217
20
-34.964886
30
0
210
0
220
0
230
1
1
\W0.7468;38.00
40
3
41
0
44
1.084337
50
0
71
7
72
5
7
iso_b_vert
0
LINE
5
FF
100
AcDbEntity
8
SK2
62
256
6
ByLayer
370
13
48
1
60
0
100
AcDbLine
10
-33.0198
20
-0.0875
30
0
11
-33.0198
21
-37.85
31
0
39
0
210
0
220
0
230
1
0
LINE
5
100
100
AcDbEntity
8
SK2
62
256
6
ByLayer
370
13
48
1
60
0
100
AcDbLine
10
4.9802
20
-1.4225
30
0
11
4.9802
21
-37.85
31
0
39
0
210
0
220
0
230
1
0
LINE
5
101
100
AcDbEntity
8
SK2
62
256
6
ByLayer
370
13
48
1
60
0
100
AcDbLine
10
-33.0198
20
-35.85
30
0
11
4.9802
21
-35.85
31
0
39
0
210
0
220
0
230
1
0
SOLID
5
102
100
AcDbEntity
8
SK2
62
256
6
ByLayer
370
18
48
1
60
0
100
AcDbTrace
10
-33.0198
20
-35.85
30
0
11
-29.519802
21
-35.389216
31
0
12
-29.519798
22
-36.310784
32
0
13
-29.519798
23
-36.310784
33
0
39
0
210
0
220
0
230
1
0
SOLID
5
103
100
AcDbEntity
8
SK2
62
256
6
ByLayer
370
18
48
1
60
0
100
AcDbTrace
10
4.9802
20
-35.85
30
0
11
1.480202
21
-36.310784
31
0
12
1.480198
22
-35.389216
32
0
13
1.480198
23
-35.389216
33
0
39
0
210
0
220
0
230
1
0
ENDBLK
5
105
100
AcDbEntity
8
0
100
AcDbBlockEnd
0
BLOCK
5
10A
100
AcDbEntity
8
0
100
AcDbBlockBegin
2
*D3
70
1
10
0
20
0
30
0
3
*D3
0
LINE
5
10C
100
AcDbEntity
8
0
62
256
6
ByLayer
370
-2
48
1
60
0
100
AcDbLine
10
4.9802
20
-1.4225
30
0
11
4.9802
21
-23.665
31
0
39
0
210
0
220
0
230
1
0
LINE
5
10D
100
AcDbEntity
8
0
62
256
6
ByLayer
370
-2
48
1
60
0
100
AcDbLine
10
3.6752
20
-1.5875
30
0
11
3.6752
21
-23.665
31
0
39
0
210
0
220
0
230
1
0
LINE
5
10E
100
AcDbEntity
8
0
62
256
6
ByLayer
370
-2
48
1
60
0
100
AcDbLine
10
4.9802
20
-21.665
30
0
11
28.837343
21
-21.665
31
0
39
0
210
0
220
0
230
1
0
LINE
5
10F
100
AcDbEntity
8
0
62
256
6
ByLayer
370
-2
48
1
60
0
100
AcDbLine
10
8.4802
20
-21.665
30
0
11
11.9802
21
-21.665
31
0
39
0
210
0
220
0
230
1
0
LINE
5
110
100
AcDbEntity
8
0
62
256
6
ByLayer
370
-2
48
1
60
0
100
AcDbLine
10
0.1752
20
-21.665
30
0
11
-3.3248
21
-21.665
31
0
39
0
210
0
220
0
230
1
0
SOLID
5
111
100
AcDbEntity
8
0
62
256
6
ByLayer
370
-1
48
1
60
0
100
AcDbTrace
10
8.4802
20
-21.081667
30
0
11
8.4802
21
-22.248333
31
0
12
4.9802
22
-21.665
32
0
13
4.9802
23
-21.665
33
0
39
0
210
0
220
0
230
1
0
SOLID
5
112
100
AcDbEntity
8
0
62
256
6
ByLayer
370
-1
48
1
60
0
100
AcDbTrace
10
0.1752
20
-22.248333
30
0
11
0.1752
21
-21.081667
31
0
12
3.6752
22
-21.665
32
0
13
3.6752
23
-21.665
33
0
39
0
210
0
220
0
230
1
0
MTEXT
5
113
100
AcDbEntity
8
0
62
256
6
ByLayer
370
18
48
1
60
0
100
AcDbMText
10
20.408771
20
-15.665
30
0
210
0
220
0
230
1
1
\A1;1.31
40
3
41
0
44
1
50
0
71
5
72
5
7
iso_b_vert
0
POINT
5
114
100
AcDbEntity
8
Defpoints
62
0
6
ByLayer
370
-1
48
1
60
0
100
AcDbPoint
10
4.9802
20
0.165
30
0
39
0
210
0
220
0
230
1
50
360
0
POINT
5
115
100
AcDbEntity
8
Defpoints
62
0
6
ByLayer
370
-1
48
1
60
0
100
AcDbPoint
10
3.6752
20
0
30
0
39
0
210
0
220
0
230
1
50
360
0
POINT
5
116
100
AcDbEntity
8
Defpoints
62
0
6
ByLayer
370
-1
48
1
60
0
100
AcDbPoint
10
3.6752
20
-21.665
30
0
39
0
210
0
220
0
230
1
50
360
0
ENDBLK
5
10B
100
AcDbEntity
8
0
100
AcDbBlockEnd
0
BLOCK
5
11E
100
AcDbEntity
8
0
100
AcDbBlockBegin
2
_U1
70
0
10
0
20
0
30
0
3
_U1
0
MTEXT
5
118
100
AcDbEntity
8
SK2
62
256
6
ByLayer
370
18
48
1
60
0
100
AcDbMText
10
9.1392
20
-20.779886
30
0
210
0
220
0
230
1
1
\W0.5934;(1.31)
40
3
41
0
44
1.084337
50
0
71
7
72
5
7
iso_b_vert
0
LINE
5
119
100
AcDbEntity
8
SK2
62
256
6
ByLayer
370
13
48
1
60
0
100
AcDbLine
10
4.9802
20
-1.4225
30
0
11
4.9802
21
-23.665
31
0
39
0
210
0
220
0
230
1
0
LINE
5
11A
100
AcDbEntity
8
SK2
62
256
6
ByLayer
370
13
48
1
60
0
100
AcDbLine
10
3.6752
20
-1.5875
30
0
11
3.6752
21
-23.665
31
0
39
0
210
0
220
0
230
1
0
LINE
5
11B
100
AcDbEntity
8
SK2
62
256
6
ByLayer
370
13
48
1
60
0
100
AcDbLine
10
-3.8248
20
-21.665
30
0
11
16.952198
21
-21.665
31
0
39
0
210
0
220
0
230
1
0
SOLID
5
11C
100
AcDbEntity
8
SK2
62
256
6
ByLayer
370
18
48
1
60
0
100
AcDbTrace
10
4.9802
20
-21.665
30
0
11
8.480198
21
-21.204216
31
0
12
8.480202
22
-22.125784
32
0
13
8.480202
23
-22.125784
33
0
39
0
210
0
220
0
230
1
0
SOLID
5
11D
100
AcDbEntity
8
SK2
62
256
6
ByLayer
370
18
48
1
60
0
100
AcDbTrace
10
3.6752
20
-21.665
30
0
11
0.175202
21
-22.125784
31
0
12
0.175198
22
-21.204216
32
0
13
0.175198
23
-21.204216
33
0
39
0
210
0
220
0
230
1
0
ENDBLK
5
11F
100
AcDbEntity
8
0
100
AcDbBlockEnd
0
BLOCK
5
124
100
AcDbEntity
8
0
100
AcDbBlockBegin
2
*D5
70
1
10
0
20
0
30
0
3
*D5
0
LINE
5
126
100
AcDbEntity
8
0
62
256
6
ByLayer
370
-2
48
1
60
0
100
AcDbLine
10
4.9802
20
-1.4225
30
0
11
4.9802
21
-31.665
31
0
39
0
210
0
220
0
230
1
0
LINE
5
127
100
AcDbEntity
8
0
62
256
6
ByLayer
370
-2
48
1
60
0
100
AcDbLine
10
3.1802
20
-1.5875
30
0
11
3.1802
21
-31.665
31
0
39
0
210
0
220
0
230
1
0
LINE
5
128
100
AcDbEntity
8
0
62
256
6
ByLayer
370
-2
48
1
60
0
100
AcDbLine
10
4.9802
20
-29.665
30
0
11
26.837343
21
-29.665
31
0
39
0
210
0
220
0
230
1
0
LINE
5
129
100
AcDbEntity
8
0
62
256
6
ByLayer
370
-2
48
1
60
0
100
AcDbLine
10
8.4802
20
-29.665
30
0
11
11.9802
21
-29.665
31
0
39
0
210
0
220
0
230
1
0
LINE
5
12A
100
AcDbEntity
8
0
62
256
6
ByLayer
370
-2
48
1
60
0
100
AcDbLine
10
-0.3198
20
-29.665
30
0
11
-3.8198
21
-29.665
31
0
39
0
210
0
220
0
230
1
0
SOLID
5
12B
100
AcDbEntity
8
0
62
256
6
ByLayer
370
-1
48
1
60
0
100
AcDbTrace
10
8.4802
20
-29.081667
30
0
11
8.4802
21
-30.248333
31
0
12
4.9802
22
-29.665
32
0
13
4.9802
23
-29.665
33
0
39
0
210
0
220
0
230
1
0
SOLID
5
12C
100
AcDbEntity
8
0
62
256
6
ByLayer
370
-1
48
1
60
0
100
AcDbTrace
10
-0.3198
20
-30.248333
30
0
11
-0.3198
21
-29.081667
31
0
12
3.1802
22
-29.665
32
0
13
3.1802
23
-29.665
33
0
39
0
210
0
220
0
230
1
0
MTEXT
5
12D
100
AcDbEntity
8
0
62
256
6
ByLayer
370
18
48
1
60
0
100
AcDbMText
10
19.408771
20
-23.665
30
0
210
0
220
0
230
1
1
\A1;1.8
40
3
41
0
44
1
50
0
71
5
72
5
7
iso_b_vert
0
POINT
5
12E
100
AcDbEntity
8
Defpoints
62
0
6
ByLayer
370
-1
48
1
60
0
100
AcDbPoint
10
4.9802
20
0.165
30
0
39
0
210
0
220
0
230
1
50
360
0
POINT
5
12F
100
AcDbEntity
8
Defpoints
62
0
6
ByLayer
370
-1
48
1
60
0
100
AcDbPoint
10
3.1802
20
0
30
0
39
0
210
0
220
0
230
1
50
360
0
POINT
5
130
100
AcDbEntity
8
Defpoints
62
0
6
ByLayer
370
-1
48
1
60
0
100
AcDbPoint
10
3.1802
20
-29.665
30
0
39
0
210
0
220
0
230
1
50
360
0
ENDBLK
5
125
100
AcDbEntity
8
0
100
AcDbBlockEnd
0
BLOCK
5
138
100
AcDbEntity
8
0
100
AcDbBlockBegin
2
_U2
70
0
10
0
20
0
30
0
3
_U2
0
MTEXT
5
132
100
AcDbEntity
8
SK2
62
256
6
ByLayer
370
18
48
1
60
0
100
AcDbMText
10
8.1392
20
-28.779886
30
0
210
0
220
0
230
1
1
\W0.6563;1.80
40
3
41
0
44
1.084337
50
0
71
7
72
5
7
iso_b_vert
0
LINE
5
133
100
AcDbEntity
8
SK2
62
256
6
ByLayer
370
13
48
1
60
0
100
AcDbLine
10
4.9802
20
-1.4225
30
0
11
4.9802
21
-31.665
31
0
39
0
210
0
220
0
230
1
0
LINE
5
134
100
AcDbEntity
8
SK2
62
256
6
ByLayer
370
13
48
1
60
0
100
AcDbLine
10
3.1802
20
-1.5875
30
0
11
3.1802
21
-31.665
31
0
39
0
210
0
220
0
230
1
0
LINE
5
135
100
AcDbEntity
8
SK2
62
256
6
ByLayer
370
13
48
1
60
0
100
AcDbLine
10
-4.3198
20
-29.665
30
0
11
14.271227
21
-29.665
31
0
39
0
210
0
220
0
230
1
0
SOLID
5
136
100
AcDbEntity
8
SK2
62
256
6
ByLayer
370
18
48
1
60
0
100
AcDbTrace
10
4.9802
20
-29.665
30
0
11
8.480198
21
-29.204216
31
0
12
8.480202
22
-30.125784
32
0
13
8.480202
23
-30.125784
33
0
39
0
210
0
220
0
230
1
0
SOLID
5
137
100
AcDbEntity
8
SK2
62
256
6
ByLayer
370
18
48
1
60
0
100
AcDbTrace
10
3.1802
20
-29.665
30
0
11
-0.319798
21
-30.125784
31
0
12
-0.319802
22
-29.204216
32
0
13
-0.319802
23
-29.204216
33
0
39
0
210
0
220
0
230
1
0
ENDBLK
5
139
100
AcDbEntity
8
0
100
AcDbBlockEnd
0
BLOCK
5
13E
100
AcDbEntity
8
0
100
AcDbBlockBegin
2
*D7
70
1
10
0
20
0
30
0
3
*D7
0
LINE
5
140
100
AcDbEntity
8
0
62
256
6
ByLayer
370
-2
48
1
60
0
100
AcDbLine
10
-33.0198
20
1.5875
30
0
11
-33.0198
21
13.35
31
0
39
0
210
0
220
0
230
1
0
LINE
5
141
100
AcDbEntity
8
0
62
256
6
ByLayer
370
-2
48
1
60
0
100
AcDbLine
10
0
20
1.5875
30
0
11
0
21
13.35
31
0
39
0
210
0
220
0
230
1
0
LINE
5
142
100
AcDbEntity
8
0
62
256
6
ByLayer
370
-2
48
1
60
0
100
AcDbLine
10
-29.5198
20
11.35
30
0
11
-3.5
21
11.35
31
0
39
0
210
0
220
0
230
1
0
SOLID
5
143
100
AcDbEntity
8
0
62
256
6
ByLayer
370
-1
48
1
60
0
100
AcDbTrace
10
-29.5198
20
11.933333
30
0
11
-29.5198
21
10.766667
31
0
12
-33.0198
22
11.35
32
0
13
-33.0198
23
11.35
33
0
39
0
210
0
220
0
230
1
0
SOLID
5
144
100
AcDbEntity
8
0
62
256
6
ByLayer
370
-1
48
1
60
0
100
AcDbTrace
10
-3.5
20
10.766667
30
0
11
-3.5
21
11.933333
31
0
12
0
22
11.35
32
0
13
0
23
11.35
33
0
39
0
210
0
220
0
230
1
0
MTEXT
5
145
100
AcDbEntity
8
0
62
256
6
ByLayer
370
18
48
1
60
0
100
AcDbMText
10
-16.5099
20
17.35
30
0
210
0
220
0
230
1
1
\A1;33.02
40
3
41
0
44
1
50
0
71
5
72
5
7
iso_b_vert
0
POINT
5
146
100
AcDbEntity
8
Defpoints
62
0
6
ByLayer
370
-1
48
1
60
0
100
AcDbPoint
10
-33.0198
20
0
30
0
39
0
210
0
220
0
230
1
50
360
0
POINT
5
147
100
AcDbEntity
8
Defpoints
62
0
6
ByLayer
370
-1
48
1
60
0
100
AcDbPoint
10
0
20
0
30
0
39
0
210
0
220
0
230
1
50
360
0
POINT
5
148
100
AcDbEntity
8
Defpoints
62
0
6
ByLayer
370
-1
48
1
60
0
100
AcDbPoint
10
0
20
11.35
30
0
39
0
210
0
220
0
230
1
50
360
0
ENDBLK
5
13F
100
AcDbEntity
8
0
100
AcDbBlockEnd
0
BLOCK
5
150
100
AcDbEntity
8
0
100
AcDbBlockBegin
2
_U3
70
0
10
0
20
0
30
0
3
_U3
0
MTEXT
5
14A
100
AcDbEntity
8
SK2
62
256
6
ByLayer
370
18
48
1
60
0
100
AcDbMText
10
-20.99227
20
12.235114
30
0
210
0
220
0
230
1
1
\W0.7468;33.02
40
3
41
0
44
1.084337
50
0
71
7
72
5
7
iso_b_vert
0
LINE
5
14B
100
AcDbEntity
8
SK2
62
256
6
ByLayer
370
13
48
1
60
0
100
AcDbLine
10
-33.0198
20
1.5875
30
0
11
-33.0198
21
13.35
31
0
39
0
210
0
220
0
230
1
0
LINE
5
14C
100
AcDbEntity
8
SK2
62
256
6
ByLayer
370
13
48
1
60
0
100
AcDbLine
10
0
20
1.5875
30
0
11
0
21
13.35
31
0
39
0
210
0
220
0
230
1
0
LINE
5
14D
100
AcDbEntity
8
SK2
62
256
6
ByLayer
370
13
48
1
60
0
100
AcDbLine
10
-33.0198
20
11.35
30
0
11
0
21
11.35
31
0
39
0
210
0
220
0
230
1
0
SOLID
5
14E
100
AcDbEntity
8
SK2
62
256
6
ByLayer
370
18
48
1
60
0
100
AcDbTrace
10
-33.0198
20
11.35
30
0
11
-29.519802
21
11.810784
31
0
12
-29.519798
22
10.889216
32
0
13
-29.519798
23
10.889216
33
0
39
0
210
0
220
0
230
1
0
SOLID
5
14F
100
AcDbEntity
8
SK2
62
256
6
ByLayer
370
18
48
1
60
0
100
AcDbTrace
10
0
20
11.35
30
0
11
-3.499998
21
10.889216
31
0
12
-3.500002
22
11.810784
32
0
13
-3.500002
23
11.810784
33
0
39
0
210
0
220
0
230
1
0
ENDBLK
5
151
100
AcDbEntity
8
0
100
AcDbBlockEnd
0
BLOCK
5
156
100
AcDbEntity
8
0
100
AcDbBlockBegin
2
*D9
70
1
10
0
20
0
30
0
3
*D9
0
LINE
5
158
100
AcDbEntity
8
0
62
256
6
ByLayer
370
-2
48
1
60
0
100
AcDbLine
10
4.9802
20
1.7525
30
0
11
4.9802
21
7
31
0
39
0
210
0
220
0
230
1
0
LINE
5
159
100
AcDbEntity
8
0
62
256
6
ByLayer
370
-2
48
1
60
0
100
AcDbLine
10
0
20
1.5875
30
0
11
0
21
7
31
0
39
0
210
0
220
0
230
1
0
LINE
5
15A
100
AcDbEntity
8
0
62
256
6
ByLayer
370
-2
48
1
60
0
100
AcDbLine
10
0
20
5
30
0
11
-25.142857
21
5
31
0
39
0
210
0
220
0
230
1
0
LINE
5
15B
100
AcDbEntity
8
0
62
256
6
ByLayer
370
-2
48
1
60
0
100
AcDbLine
10
8.4802
20
5
30
0
11
11.9802
21
5
31
0
39
0
210
0
220
0
230
1
0
LINE
5
15C
100
AcDbEntity
8
0
62
256
6
ByLayer
370
-2
48
1
60
0
100
AcDbLine
10
-3.5
20
5
30
0
11
-7
21
5
31
0
39
0
210
0
220
0
230
1
0
SOLID
5
15D
100
AcDbEntity
8
0
62
256
6
ByLayer
370
-1
48
1
60
0
100
AcDbTrace
10
8.4802
20
5.583333
30
0
11
8.4802
21
4.416667
31
0
12
4.9802
22
5
32
0
13
4.9802
23
5
33
0
39
0
210
0
220
0
230
1
0
SOLID
5
15E
100
AcDbEntity
8
0
62
256
6
ByLayer
370
-1
48
1
60
0
100
AcDbTrace
10
-3.5
20
4.416667
30
0
11
-3.5
21
5.583333
31
0
12
0
22
5
32
0
13
0
23
5
33
0
39
0
210
0
220
0
230
1
0
MTEXT
5
15F
100
AcDbEntity
8
0
62
256
6
ByLayer
370
18
48
1
60
0
100
AcDbMText
10
-16.071429
20
11
30
0
210
0
220
0
230
1
1
\A1;4.98
40
3
41
0
44
1
50
0
71
5
72
5
7
iso_b_vert
0
POINT
5
160
100
AcDbEntity
8
Defpoints
62
0
6
ByLayer
370
-1
48
1
60
0
100
AcDbPoint
10
4.9802
20
0.165
30
0
39
0
210
0
220
0
230
1
50
360
0
POINT
5
161
100
AcDbEntity
8
Defpoints
62
0
6
ByLayer
370
-1
48
1
60
0
100
AcDbPoint
10
0
20
0
30
0
39
0
210
0
220
0
230
1
50
360
0
POINT
5
162
100
AcDbEntity
8
Defpoints
62
0
6
ByLayer
370
-1
48
1
60
0
100
AcDbPoint
10
0
20
5
30
0
39
0
210
0
220
0
230
1
50
360
0
ENDBLK
5
157
100
AcDbEntity
8
0
100
AcDbBlockEnd
0
BLOCK
5
16A
100
AcDbEntity
8
0
100
AcDbBlockBegin
2
_U4
70
0
10
0
20
0
30
0
3
_U4
0
MTEXT
5
164
100
AcDbEntity
8
2
62
256
6
ByLayer
370
18
48
1
60
0
100
AcDbMText
10
-9.841
20
5.885114
30
0
210
0
220
0
230
1
1
\W0.7640;4.98
40
3
41
0
44
1.084337
50
0
71
7
72
5
7
iso_b_vert
0
LINE
5
165
100
AcDbEntity
8
2
62
256
6
ByLayer
370
13
48
1
60
0
100
AcDbLine
10
4.9802
20
1.7525
30
0
11
4.9802
21
7
31
0
39
0
210
0
220
0
230
1
0
LINE
5
166
100
AcDbEntity
8
2
62
256
6
ByLayer
370
13
48
1
60
0
100
AcDbLine
10
0
20
1.5875
30
0
11
0
21
7
31
0
39
0
210
0
220
0
230
1
0
LINE
5
167
100
AcDbEntity
8
2
62
256
6
ByLayer
370
13
48
1
60
0
100
AcDbLine
10
-10
20
5
30
0
11
12.4802
21
5
31
0
39
0
210
0
220
0
230
1
0
SOLID
5
168
100
AcDbEntity
8
2
62
256
6
ByLayer
370
18
48
1
60
0
100
AcDbTrace
10
4.9802
20
5
30
0
11
8.480198
21
5.460784
31
0
12
8.480202
22
4.539216
32
0
13
8.480202
23
4.539216
33
0
39
0
210
0
220
0
230
1
0
SOLID
5
169
100
AcDbEntity
8
2
62
256
6
ByLayer
370
18
48
1
60
0
100
AcDbTrace
10
0
20
5
30
0
11
-3.499998
21
4.539216
31
0
12
-3.500002
22
5.460784
32
0
13
-3.500002
23
5.460784
33
0
39
0
210
0
220
0
230
1
0
ENDBLK
5
16B
100
AcDbEntity
8
0
100
AcDbBlockEnd
0
ENDSEC
0
SECTION
2
ENTITIES
0
ARC
5
B9
100
AcDbEntity
8
1
62
256
6
ByLayer
370
18
48
1
60
0
100
AcDbCircle
39
0
10
2.580244
20
-1.165
30
0
40
1
210
0
220
0
230
1
100
AcDbArc
50
90
51
120
0
ARC
5
BA
100
AcDbEntity
8
1
62
256
6
ByLayer
370
18
48
1
60
0
100
AcDbCircle
39
0
10
2.580244
20
1.165
30
0
40
1
210
0
220
0
230
1
100
AcDbArc
50
240
51
270
0
ARC
5
BB
100
AcDbEntity
8
SK2
62
256
6
ByLayer
370
13
48
1
60
0
100
AcDbCircle
39
0
10
4.9802
20
0
30
0
40
16.35
210
0
220
0
230
1
100
AcDbArc
50
10.57289
51
65
0
ARC
5
BC
100
AcDbEntity
8
SK2
62
256
6
ByLayer
370
13
48
1
60
0
100
AcDbCircle
39
0
10
4.9802
20
0
30
0
40
16.35
210
0
220
0
230
1
100
AcDbArc
50
295
51
349.42711
0
ELLIPSE
5
BD
100
AcDbEntity
8
1
62
256
6
ByLayer
370
18
48
1
60
0
100
AcDbEllipse
10
3.364142
20
0.09353
30
0
11
-0.247377182032392
21
0.148930240005957
31
0
210
0
220
0
230
1
40
0.245453
41
0.9188189527218
42
1.71750637281965
0
POINT
5
70
100
AcDbEntity
8
80
62
256
6
ByLayer
370
18
48
1
60
0
100
AcDbPoint
10
0
20
0
30
0
39
0
210
0
220
0
230
1
50
360
0
POINT
5
72
100
AcDbEntity
8
81
62
256
6
ByLayer
370
18
48
1
60
0
100
AcDbPoint
10
4.9802
20
0
30
0
39
0
210
0
220
0
230
1
50
360
0
POINT
5
74
100
AcDbEntity
8
1
62
256
6
ByLayer
370
18
48
1
60
1
100
AcDbPoint
10
-33.0198
20
1.5
30
0
39
0
210
0
220
0
230
1
50
360
0
POINT
5
76
100
AcDbEntity
8
1
62
256
6
ByLayer
370
18
48
1
60
1
100
AcDbPoint
10
4.9802
20
0.165
30
0
39
0
210
0
220
0
230
1
50
360
0
POINT
5
77
100
AcDbEntity
8
1
62
256
6
ByLayer
370
18
48
1
60
1
100
AcDbPoint
10
4.9802
20
0.165
30
0
39
0
210
0
220
0
230
1
50
360
0
POINT
5
78
100
AcDbEntity
8
1
62
256
6
ByLayer
370
18
48
1
60
1
100
AcDbPoint
10
3.6752
20
0
30
0
39
0
210
0
220
0
230
1
50
360
0
POINT
5
79
100
AcDbEntity
8
1
62
256
6
ByLayer
370
18
48
1
60
1
100
AcDbPoint
10
4.9802
20
0.165
30
0
39
0
210
0
220
0
230
1
50
360
0
POINT
5
7A
100
AcDbEntity
8
1
62
256
6
ByLayer
370
18
48
1
60
1
100
AcDbPoint
10
3.1802
20
0
30
0
39
0
210
0
220
0
230
1
50
360
0
POINT
5
7B
100
AcDbEntity
8
1
62
256
6
ByLayer
370
18
48
1
60
1
100
AcDbPoint
10
-33.0198
20
0
30
0
39
0
210
0
220
0
230
1
50
360
0
POINT
5
7C
100
AcDbEntity
8
1
62
256
6
ByLayer
370
18
48
1
60
1
100
AcDbPoint
10
0
20
0
30
0
39
0
210
0
220
0
230
1
50
360
0
POINT
5
7D
100
AcDbEntity
8
1
62
256
6
ByLayer
370
18
48
1
60
1
100
AcDbPoint
10
4.9802
20
0.165
30
0
39
0
210
0
220
0
230
1
50
360
0
POINT
5
7E
100
AcDbEntity
8
1
62
256
6
ByLayer
370
18
48
1
60
1
100
AcDbPoint
10
0
20
0
30
0
39
0
210
0
220
0
230
1
50
360
0
SPLINE
5
BE
100
AcDbEntity
8
1
62
256
6
ByLayer
370
18
48
1
60
0
100
AcDbSpline
70
4
71
3
72
16
73
12
40
0
40
0
40
0
40
0
40
0.250000000000014
40
0.250000000000014
40
0.500000000000027
40
0.500000000000027
40
0.750000000000041
40
0.750000000000041
40
0.875000000000021
40
0.875000000000021
40
1
40
1
40
1
40
1
41
1
10
4.90325923640441
20
0.0842918609564833
30
0
41
1
10
4.90843174208604
20
0.0769626035993838
30
0
41
1
10
4.91359269117939
20
0.0712153200536534
30
0
41
1
10
4.92392471283492
20
0.0609448638305707
30
0
41
1
10
4.92912211259906
20
0.0563323069831938
30
0
41
1
10
4.93928194270924
20
0.0485115828364826
30
0
41
1
10
4.94426547319594
20
0.045336054793637
30
0
41
1
10
4.95127058333699
20
0.0415735375244992
30
0
41
1
10
4.95352477349664
20
0.0404910080690115
30
0
41
1
10
4.95765565778399
20
0.0386760967242594
30
0
41
1
10
4.95954340457993
20
0.0379432189295414
30
0
41
1
10
4.96096480587502
20
0.0373890221694353
30
0
0
SPLINE
5
BF
100
AcDbEntity
8
1
62
256
6
ByLayer
370
18
48
1
60
0
100
AcDbSpline
70
4
71
3
72
28
73
24
40
0
40
0
40
0
40
0
40
0.0908553279066424
40
0.0908553279066424
40
0.181710655813285
40
0.181710655813285
40
0.272565983719927
40
0.272565983719927
40
0.363421311626569
40
0.363421311626569
40
0.454276639533212
40
0.454276639533212
40
0.545131967439854
40
0.545131967439854
40
0.726842623253109
40
0.726842623253109
40
0.817697951159752
40
0.817697951159752
40
0.908553279066394
40
0.908553279066394
40
0.999408606973037
40
0.999408606973037
40
1
40
1
40
1
40
1
41
1
10
3.36414199999999
20
-0.0591826567533644
30
0
41
1
10
3.38024377210857
20
-0.0678779734645332
30
0
41
1
10
3.39631534362215
20
-0.076251243638751
30
0
41
1
10
3.42850401591031
20
-0.0921981094483328
30
0
41
1
10
3.44462122308747
20
-0.0997977919054165
30
0
41
1
10
3.47673475162927
20
-0.113947530752171
30
0
41
1
10
3.49277814588484
20
-0.120491812180319
30
0
41
1
10
3.52493375975561
20
-0.132406470267398
30
0
41
1
10
3.54105714845102
20
-0.137780290815073
30
0
41
1
10
3.57316718909343
20
-0.147150651213934
30
0
41
1
10
3.58921192094854
20
-0.151142931792179
30
0
41
1
10
3.621373704234
20
-0.157679069101135
30
0
41
1
10
3.63750136806195
20
-0.160219872666886
30
0
41
1
10
3.68545677187709
20
-0.165501280409274
30
0
41
1
10
3.71716245618828
20
-0.165939682980479
30
0
41
1
10
3.76485690335503
20
-0.162023824655051
30
0
41
1
10
3.78079426877648
20
-0.159956236302321
30
0
41
1
10
3.81286224885693
20
-0.154319973070528
30
0
41
1
10
3.82900164732857
20
-0.150731088012634
30
0
41
1
10
3.86111497075311
20
-0.142177690887394
30
0
41
1
10
3.87715864431564
20
-0.137220558460655
30
0
41
1
10
3.89334138232746
20
-0.131593437813962
30
0
41
1
10
3.89344603960066
20
-0.131557019264306
30
0
41
1
10
3.8935506990729
20
-0.131520573232535
30
0
0
SPLINE
5
C0
100
AcDbEntity
8
1
62
256
6
ByLayer
370
18
48
1
60
0
100
AcDbSpline
70
4
71
3
72
28
73
24
40
0
40
0
40
0
40
0
40
0.0262106204152232
40
0.0262106204152232
40
0.188508850346019
40
0.188508850346019
40
0.350807080276816
40
0.350807080276816
40
0.513105310207612
40
0.513105310207612
40
0.675403540138409
40
0.675403540138409
40
0.837701770069205
40
0.837701770069205
40
0.918850885034603
40
0.918850885034603
40
0.939138163775952
40
0.939138163775952
40
0.959425442517302
40
0.959425442517302
40
0.979712721258651
40
0.979712721258651
40
1
40
1
40
1
40
1
41
1
10
4.60603507223018
20
0.164999745938786
30
0
41
1
10
4.60863135610927
20
0.165000535531448
30
0
41
1
10
4.61122632639123
20
0.164980837225443
30
0
41
1
10
4.62987647764331
20
0.164691376218173
30
0
41
1
10
4.64591490212033
20
0.163658499368381
30
0
41
1
10
4.67807620407271
20
0.160059351373349
30
0
41
1
10
4.69419828570355
20
0.157481059443626
30
0
41
1
10
4.72631119789733
20
0.150864140192539
30
0
41
1
10
4.74235426988795
20
0.146834125610923
30
0
41
1
10
4.77451697744308
20
0.13741664863997
30
0
41
1
10
4.79064275368589
20
0.132014710234643
30
0
41
1
10
4.82271199373614
20
0.120042481125211
30
0
41
1
10
4.83871187968052
20
0.113476595885487
30
0
41
1
10
4.8627622111388
20
0.102898203721423
30
0
41
1
10
4.87073934250552
20
0.0991808438581927
30
0
41
1
10
4.88084988922262
20
0.0945694439087674
30
0
41
1
10
4.88286625157829
20
0.0936309559521078
30
0
41
1
10
4.88684643563201
20
0.0916587236001192
30
0
41
1
10
4.88880490235553
20
0.0906164388701427
30
0
41
1
10
4.89275373820848
20
0.0885600974550584
30
0
41
1
10
4.89474304608584
20
0.0875443804958422
30
0
41
1
10
4.8988684038865
20
0.0857224943185884
30
0
41
1
10
4.90101841881514
20
0.0849383355000271
30
0
41
1
10
4.90325923640441
20
0.0842918609564833
30
0
0
SPLINE
5
C1
100
AcDbEntity
8
1
62
256
6
ByLayer
370
18
48
1
60
0
100
AcDbSpline
70
4
71
3
72
38
73
34
40
0
40
0
40
0
40
0
40
0.0059567761668641
40
0.0059567761668641
40
0.0119135523337281
40
0.0119135523337281
40
0.0178703285005922
40
0.0178703285005922
40
0.0238271046674563
40
0.0238271046674563
40
0.0476542093349437
40
0.0476542093349437
40
0.0953084186699031
40
0.0953084186699031
40
0.190616837339822
40
0.190616837339822
40
0.285925256009741
40
0.285925256009741
40
0.381233674679659
40
0.381233674679659
40
0.476542093349578
40
0.476542093349578
40
0.571850512019497
40
0.571850512019497
40
0.667158930689415
40
0.667158930689415
40
0.762467349359334
40
0.762467349359334
40
0.857775768029253
40
0.857775768029253
40
0.953084186699172
40
0.953084186699172
40
1
40
1
40
1
40
1
41
1
10
4.90325923640447
20
-0.15885253168156
30
0
41
1
10
4.90102182191558
20
-0.158649487480034
30
0
41
1
10
4.89887540388409
20
-0.158397826215378
30
0
41
1
10
4.89475692347381
20
-0.157786332080605
30
0
41
1
10
4.89277087603236
20
-0.157432860140148
30
0
41
1
10
4.88882761075214
20
-0.156683466982145
30
0
41
1
10
4.88687152486355
20
-0.15628700064596
30
0
41
1
10
4.88289477512851
20
-0.155506504715902
30
0
41
1
10
4.88087929321873
20
-0.155120283801153
30
0
41
1
10
4.87076937507473
20
-0.153156300506424
30
0
41
1
10
4.86278236423064
20
-0.151342677088024
30
0
41
1
10
4.83867292994867
20
-0.145448935371036
30
0
41
1
10
4.82263076678694
20
-0.140803745917737
30
0
41
1
10
4.77460622129516
20
-0.124958625046986
30
0
41
1
10
4.74243924377825
20
-0.111831060969621
30
0
41
1
10
4.67840564530084
20
-0.0818467934630291
30
0
41
1
10
4.64624332845406
20
-0.0650227223769662
30
0
41
1
10
4.58221305897459
20
-0.0295393214200033
30
0
41
1
10
4.5500461241792
20
-0.0109194481329382
30
0
41
1
10
4.48601293674099
20
0.0260711657531658
30
0
41
1
10
4.4538454282837
20
0.0444036017161409
30
0
41
1
10
4.38982020461779
20
0.078768124712866
30
0
41
1
10
4.35765283969207
20
0.0947555627075189
30
0
41
1
10
4.29362171453201
20
0.122616966487328
30
0
41
1
10
4.26145321427501
20
0.134464558395592
30
0
41
1
10
4.19742575018083
20
0.152709998659503
30
0
41
1
10
4.16526071322548
20
0.159089523109515
30
0
41
1
10
4.10123020449592
20
0.16566532876243
30
0
41
1
10
4.06905938734226
20
0.165858093329149
30
0
41
1
10
4.00503086527826
20
0.160031026422445
30
0
41
1
10
3.972863562095
20
0.15401605448443
30
0
41
1
10
3.92509219250721
20
0.140898509677328
30
0
41
1
10
3.90929604237678
20
0.135903288746419
30
0
41
1
10
3.89349894634412
20
0.130314931230259
30
0
0
SPLINE
5
C2
100
AcDbEntity
8
1
62
256
6
ByLayer
370
18
48
1
60
0
100
AcDbSpline
70
4
71
3
72
14
73
10
40
0
40
0
40
0
40
0
40
0.0239518307306923
40
0.0239518307306923
40
0.349301220487128
40
0.349301220487128
40
0.674650610243564
40
0.674650610243564
40
1
40
1
40
1
40
1
41
1
10
4.9500406769308
20
-0.064676617009809
30
0
41
1
10
4.9497014208844
20
-0.0654010675726227
30
0
41
1
10
4.94935993329963
20
-0.0661260936738586
30
0
41
1
10
4.94435230306195
20
-0.0767092197999659
30
0
41
1
10
4.93935601057976
20
-0.0866796749130287
30
0
41
1
10
4.9292330981792
20
-0.106867429133615
30
0
41
1
10
4.92406962452148
20
-0.11711886087005
30
0
41
1
10
4.91367988393714
20
-0.137968278291027
30
0
41
1
10
4.9084559802308
20
-0.148541074228916
30
0
41
1
10
4.90325923640441
20
-0.15885253168156
30
0
0
SPLINE
5
C3
100
AcDbEntity
8
1
62
256
6
ByLayer
370
18
48
1
60
0
100
AcDbSpline
70
4
71
3
72
20
73
16
40
0
40
0
40
0
40
0
40
0.0552118862654857
40
0.0552118862654857
40
0.110423772530971
40
0.110423772530971
40
0.165635658796457
40
0.165635658796457
40
0.220847545061943
40
0.220847545061943
40
0.441695090124174
40
0.441695090124174
40
0.883390180248636
40
0.883390180248636
40
1
40
1
40
1
40
1
41
1
10
4.90325923640441
20
0.15885253168156
30
0
41
1
10
4.90102182191569
20
0.158649487479977
30
0
41
1
10
4.89887540388409
20
0.158397826215378
30
0
41
1
10
4.89475692347381
20
0.157786332080605
30
0
41
1
10
4.8927708760323
20
0.157432860140148
30
0
41
1
10
4.88882761075209
20
0.156683466982145
30
0
41
1
10
4.88687152486349
20
0.15628700064596
30
0
41
1
10
4.88289477512851
20
0.155506504715902
30
0
41
1
10
4.88087929321873
20
0.155120283801125
30
0
41
1
10
4.87076937507467
20
0.153156300506424
30
0
41
1
10
4.86278236423064
20
0.151342677088024
30
0
41
1
10
4.83867292994867
20
0.145448935371036
30
0
41
1
10
4.82263076678689
20
0.140803745917737
30
0
41
1
10
4.80239634101665
20
0.134127640630396
30
0
41
1
10
4.79816747267691
20
0.132688562772813
30
0
41
1
10
4.79393667179065
20
0.131206414496631
30
0
0
SPLINE
5
C4
100
AcDbEntity
8
1
62
256
6
ByLayer
370
18
48
1
60
0
100
AcDbSpline
70
4
71
3
72
24
73
20
40
0
40
0
40
0
40
0
40
0.0629189702222232
40
0.0629189702222232
40
0.196787688761909
40
0.196787688761909
40
0.330656407301594
40
0.330656407301594
40
0.46452512584128
40
0.46452512584128
40
0.598393844380965
40
0.598393844380965
40
0.732262562920651
40
0.732262562920651
40
0.799196922190482
40
0.799196922190482
40
0.866131281460314
40
0.866131281460314
40
1
40
1
40
1
40
1
41
1
10
4.08225706264884
20
-0.164995256927568
30
0
41
1
10
4.06717343732325
20
-0.164997114693676
30
0
41
1
10
4.05209198982348
20
-0.164313935235413
30
0
41
1
10
4.00503086527826
20
-0.160031026422445
30
0
41
1
10
3.972863562095
20
-0.15401605448443
30
0
41
1
10
3.90883771178781
20
-0.136435190308589
30
0
41
1
10
3.87666917896624
20
-0.124887541910937
30
0
41
1
10
3.81263726460546
20
-0.0975348926555171
30
0
41
1
10
3.78047186633668
20
-0.0817475301036552
30
0
41
1
10
3.71644302358445
20
-0.0476820562569742
30
0
41
1
10
3.68427681638727
20
-0.029430598354736
30
0
41
1
10
3.62024541870417
20
0.0075172909093908
30
0
41
1
10
3.58807538567342
20
0.026178386121785
30
0
41
1
10
3.54005512718018
20
0.0529500949692761
30
0
41
1
10
3.52400998787945
20
0.0616622454480478
30
0
41
1
10
3.49189362456147
20
0.0784338349392044
30
0
41
1
10
3.47591811504159
20
0.0864485590165032
30
0
41
1
10
3.42809424138946
20
0.109176481113792
30
0
41
1
10
3.3962658652392
20
0.122464001157766
30
0
41
1
10
3.36414199999999
20
0.133400969639439
30
0
0
SPLINE
5
C5
100
AcDbEntity
8
1
62
256
6
ByLayer
370
18
48
1
60
0
100
AcDbSpline
70
4
71
3
72
33
73
29
40
0
40
0
40
0
40
0
40
0.0811128843730969
40
0.111530216013008
40
0.14194754765292
40
0.182503989839468
40
0.223060432026016
40
0.263616874212565
40
0.304173316399113
40
0.344729758585662
40
0.365007979678936
40
0.405564421865484
40
0.446120864052033
40
0.486677306238581
40
0.52723374842513
40
0.567790190611678
40
0.598207522251589
40
0.628624853891501
40
0.669181296078049
40
0.709737738264598
40
0.750294180451146
40
0.790850622637694
40
0.821267954277606
40
0.851685285917517
40
0.892241728104066
40
0.932798170290614
40
0.973354612477162
40
1
40
1
40
1
40
1
41
1
10
3.36414199999999
20
0.0116912665389748
30
0
41
1
10
3.37255897487247
20
0.0105238460603232
30
0
41
1
10
3.38413231340204
20
0.0089003033466781
30
0
41
1
10
3.39886201484407
20
0.0068113095397848
30
0
41
1
10
3.40938322950387
20
0.0053104915189408
30
0
41
1
10
3.42095656501644
20
0.0036544969793511
30
0
41
1
10
3.43358202155477
20
0.0018357751039844
30
0
41
0.999999999999999
10
3.44620747808858
20
1.49647975718E-05
30
0
41
1
10
3.45883293499807
20
-0.0018106072784576
30
0
41
1
10
3.46935414971901
20
-0.003328762183628
30
0
41
1
10
3.47987536514975
20
-0.0048423526960448
30
0
41
1
10
3.49039658140902
20
-0.0063466334484872
30
0
41
1
10
3.5030220426261
20
-0.0081386684002211
30
0
41
1
10
3.51564750592846
20
-0.0099155965765192
30
0
41
1
10
3.52827297169861
20
-0.0116734000352778
30
0
41
1
10
3.5398463179221
20
-0.0132650606366269
30
0
41
1
10
3.55036754415161
20
-0.0146941899944579
30
0
41
1
10
3.56088877239171
20
-0.016107468936184
30
0
41
1
10
3.57246212718846
20
-0.0176348618863358
30
0
41
1
10
3.58508760719607
20
-0.0192647195089251
30
0
41
1
10
3.59771308671136
20
-0.0208557787217387
30
0
41
1
10
3.60928644307421
20
-0.0222768823264516
30
0
41
1
10
3.619807676085
20
-0.023535947557292
30
0
41
1
10
3.63032890910981
20
-0.0247687068667233
30
0
41
1
10
3.6419022654338
20
-0.0260858748673911
30
0
41
1
10
3.65452774506065
20
-0.0274748762981574
30
0
41
1
10
3.66570969128239
20
-0.0286569836831347
30
0
41
1
10
3.67268314429535
20
-0.029367153282152
30
0
41
1
10
3.67544810409933
20
-0.0296445505289853
30
0
0
SPLINE
5
C6
100
AcDbEntity
8
1
62
256
6
ByLayer
370
18
48
1
60
0
100
AcDbSpline
70
4
71
3
72
16
73
12
40
0
40
0
40
0
40
0
40
0.12500000000002
40
0.12500000000002
40
0.25000000000004
40
0.25000000000004
40
0.500000000000027
40
0.500000000000027
40
0.750000000000013
40
0.750000000000013
40
1
40
1
40
1
40
1
41
1
10
4.96096480587502
20
0.0373890221694353
30
0
41
1
10
4.95956074740579
20
0.042342487417983
30
0
41
1
10
4.95769481891105
20
0.0472337196584363
30
0
41
1
10
4.95359366786593
20
0.057025087860012
30
0
41
1
10
4.95134868331948
20
0.0619230692303745
30
0
41
1
10
4.944352303062
20
0.0767092197999659
30
0
41
1
10
4.9393560105797
20
0.0866796749130287
30
0
41
1
10
4.9292330981792
20
0.106867429133615
30
0
41
1
10
4.92406962452154
20
0.11711886087005
30
0
41
1
10
4.91367988393719
20
0.137968278291027
30
0
41
1
10
4.9084559802308
20
0.148541074228916
30
0
41
1
10
4.90325923640447
20
0.15885253168156
30
0
0
SPLINE
5
C7
100
AcDbEntity
8
1
62
256
6
ByLayer
370
18
48
1
60
0
100
AcDbSpline
70
4
71
3
72
48
73
44
40
0
40
0
40
0
40
0
40
0.0380858911624347
40
0.0380858911624347
40
0.0823464272496611
40
0.0823464272496611
40
0.126606963336888
40
0.126606963336888
40
0.170867499424114
40
0.170867499424114
40
0.21512803551134
40
0.21512803551134
40
0.303649107685808
40
0.303649107685808
40
0.347909643773034
40
0.347909643773034
40
0.39217017986026
40
0.39217017986026
40
0.436430715947487
40
0.436430715947487
40
0.480691252034713
40
0.480691252034713
40
0.569212324209166
40
0.569212324209166
40
0.613472860296385
40
0.613472860296385
40
0.657733396383604
40
0.657733396383604
40
0.701993932470823
40
0.701993932470823
40
0.746254468558042
40
0.746254468558042
40
0.790515004645262
40
0.790515004645262
40
0.834775540732481
40
0.834775540732481
40
0.8790360768197
40
0.8790360768197
40
0.923296612906919
40
0.923296612906919
40
0.967557148994138
40
0.967557148994138
40
1
40
1
40
1
40
1
41
1
10
3.70794003768376
20
0.165002800571216
30
0
41
1
10
3.72161502910743
20
0.165011088190596
30
0
41
1
10
3.73527850484598
20
0.164452300608446
30
0
41
1
10
3.76485690335503
20
0.162023824655051
30
0
41
1
10
3.78079426877648
20
0.159956236302321
30
0
41
1
10
3.81286224885699
20
0.154319973070528
30
0
41
1
10
3.82900164732851
20
0.150731088012577
30
0
41
1
10
3.86111497075311
20
0.142177690887422
30
0
41
1
10
3.87715864431564
20
0.137220558460626
30
0
41
1
10
3.90931481029909
20
0.126039099217365
30
0
41
1
10
3.92544607037334
20
0.119798734962444
30
0
41
1
10
3.97341156642162
20
0.0995904491665556
30
0
41
1
10
4.00512014610749
20
0.0841889097409023
30
0
41
1
10
4.0528099055642
20
0.0590129636244114
30
0
41
1
10
4.0687475650424
20
0.0503058649691752
30
0
41
1
10
4.10080439614464
20
0.0324185017829564
30
0
41
1
10
4.11694708216677
20
0.0232066324304583
30
0
41
1
10
4.14906232696288
20
0.0047009870603461
30
0
41
1
10
4.16510093174279
20
-0.0045938206516212
30
0
41
1
10
4.19725864178938
20
-0.0230609897020031
30
0
41
1
10
4.21338968814629
20
-0.032276679251396
30
0
41
1
10
4.26136858787439
20
-0.0591483207239492
30
0
41
1
10
4.29308141913955
20
-0.0760304561967757
30
0
41
1
10
4.34076684550971
20
-0.0989965188881285
30
0
41
1
10
4.35670029046096
20
-0.106229276761667
30
0
41
1
10
4.38874386196247
20
-0.119697707355016
30
0
41
1
10
4.40488704077504
20
-0.125948294551648
30
0
41
1
10
4.43700193552203
20
-0.137162459965509
30
0
41
1
10
4.45304251281513
20
-0.142125223924865
30
0
41
1
10
4.48519370974722
20
-0.150674868975187
30
0
41
1
10
4.50132059159174
20
-0.154268618883975
30
0
41
1
10
4.533438871892
20
-0.159944553859646
30
0
41
1
10
4.5494826392613
20
-0.162026994405522
30
0
41
1
10
4.58163574888479
20
-0.16465113538672
30
0
41
1
10
4.59776247842692
20
-0.1651898038414
30
0
41
1
10
4.62987647764331
20
-0.164691376218173
30
0
41
1
10
4.64591490212038
20
-0.163658499368381
30
0
41
1
10
4.67807620407282
20
-0.160059351373349
30
0
41
1
10
4.69419828570355
20
-0.157481059443626
30
0
41
1
10
4.72631119789733
20
-0.150864140192539
30
0
41
1
10
4.74235426988795
20
-0.146834125610923
30
0
41
1
10
4.77022321167735
20
-0.138673894789065
30
0
41
1
10
4.78203466721172
20
-0.134849956560856
30
0
41
1
10
4.79381659553329
20
-0.130696509097419
30
0
0
SPLINE
5
C8
100
AcDbEntity
8
1
62
256
6
ByLayer
370
18
48
1
60
0
100
AcDbSpline
70
4
71
3
72
54
73
50
40
0
40
0
40
0
40
0
40
0.0016126054713647
40
0.019726259473583
40
0.0438777981432073
40
0.0680293368128315
40
0.0921808754824559
40
0.11633241415208
40
0.140483952821704
40
0.152559722156517
40
0.176711260826141
40
0.200862799495765
40
0.225014338165389
40
0.249165876835014
40
0.273317415504638
40
0.28539318483945
40
0.309544723509075
40
0.333696262178699
40
0.357847800848323
40
0.381999339517948
40
0.406150878187572
40
0.42426453218979
40
0.442378186192008
40
0.466529724861632
40
0.490681263531257
40
0.514832802200881
40
0.538984340870506
40
0.56313587954013
40
0.575211648874942
40
0.599363187544566
40
0.62351472621419
40
0.647666264883815
40
0.671817803553439
40
0.695969342223064
40
0.708045111557876
40
0.7321966502275
40
0.756348188897124
40
0.780499727566748
40
0.804651266236373
40
0.828802804905997
40
0.846916458908215
40
0.865030112910434
40
0.889181651580058
40
0.913333190249682
40
0.937484728919306
40
0.961636267588931
40
0.979749921591149
40
0.997863575593367
40
1
40
1
40
1
40
1
41
1
10
4.06085645598094
20
0.0345133430122928
30
0
41
1
10
4.06113745832917
20
0.0344911356520186
30
0
41
1
10
4.06457483053092
20
0.0342188646385182
30
0
41
1
10
4.07222069561723
20
0.0335963720733616
30
0
41
1
10
4.0837940536421
20
0.0326039362542474
30
0
41
1
10
4.09641952849882
20
0.0314565387566006
30
0
41
1
10
4.10904497574731
20
0.0302477292860885
30
0
41
1
10
4.12167040216977
20
0.0289788470956296
30
0
41
1
10
4.13219157340714
20
0.0278726703334371
30
0
41
1
10
4.1427127332891
20
0.0267320734357952
30
0
41
1
10
4.15323388067051
20
0.0255600769068849
30
0
41
1
10
4.16585924490707
20
0.0241053302041507
30
0
41
1
10
4.17848459144111
20
0.0226036279345578
30
0
41
1
10
4.19110992226731
20
0.0210609224172913
30
0
41
1
10
4.20163102452585
20
0.0197368811658407
30
0
41
1
10
4.21215211934495
20
0.0183914357091055
30
0
41
1
10
4.22267320858674
20
0.0170199300988827
30
0
41
1
10
4.23529850786136
20
0.0153399273294497
30
0
41
1
10
4.24792380097736
20
0.013630464933243
30
0
41
1
10
4.26054908950433
20
0.0118987962515007
30
0
41
0.999999999999999
10
4.27212226790312
20
0.0102908323197823
30
0
41
1
10
4.28264333814056
20
0.0088143821747622
30
0
41
1
10
4.29316440823462
20
0.0073272744733401
30
0
41
1
10
4.30473758610668
20
0.0056789570040792
30
0
41
1
10
4.31736287360062
20
0.0038683975831475
30
0
41
1
10
4.32998816522129
20
0.0020465955114446
30
0
41
1
10
4.34261346255292
20
0.0002230993348178
30
0
41
1
10
4.35313454974175
20
-0.0012951142730344
30
0
41
1
10
4.36365564248015
20
-0.0028105660357483
30
0
41
1
10
4.37417674126314
20
-0.0043233196582833
30
0
41
1
10
4.38680207105827
20
-0.0061276273349335
30
0
41
1
10
4.39942741369319
20
-0.0079242069661234
30
0
41
1
10
4.41205277075201
20
-0.0097047973956137
30
0
41
1
10
4.42257391497458
20
-0.0111762114675571
30
0
41
1
10
4.43309507019253
20
-0.0126330901508709
30
0
41
1
10
4.44361623690051
20
-0.0140720797760991
30
0
41
1
10
4.45624165692024
20
-0.0157719935488956
30
0
41
1
10
4.46886709849005
20
-0.0174372112097387
30
0
41
1
10
4.48149256320832
20
-0.0190704137564524
30
0
41
1
10
4.49306592848421
20
-0.0205333358955784
30
0
41
1
10
4.50358718903021
20
-0.0218350026455596
30
0
41
1
10
4.51410846580532
20
-0.0231110119513289
30
0
41
1
10
4.52568189672374
20
-0.0244805150671255
30
0
41
1
10
4.53830747770943
20
-0.0259238481872615
30
0
41
1
10
4.5509330541237
20
-0.0273154022872575
30
0
41
1
10
4.56250650042972
20
-0.0285415439030601
30
0
41
1
10
4.57302781485154
20
-0.0296155922352454
30
0
41
1
10
4.57971288616065
20
-0.0302750643870127
30
0
41
1
10
4.58324156310425
20
-0.0306162152790819
30
0
41
1
10
4.5836138456896
20
-0.0306521301046701
30
0
0
SPLINE
5
C9
100
AcDbEntity
8
1
62
256
6
ByLayer
370
18
48
1
60
0
100
AcDbSpline
70
4
71
3
72
13
73
9
40
0
40
0
40
0
40
0
40
0.25
40
0.5
40
0.5
40
0.75
40
0.75
40
1
40
1
40
1
40
1
41
1
10
3.18498624288466
20
0.135629502380823
30
0
41
1
10
3.19976003895798
20
0.137700845944806
30
0
41
1
10
3.22945482467654
20
0.140509548024454
30
0
41
1
10
3.25943443564736
20
0.141197233595335
30
0
41
1
10
3.28955817124009
20
0.140871970301106
30
0
41
1
10
3.30477292484548
20
0.140193310870018
30
0
41
1
10
3.33473843581137
20
0.137707401693603
30
0
41
1
10
3.34953378023741
20
0.135905586376907
30
0
41
1
10
3.36414200000004
20
0.133400969639439
30
0
0
SPLINE
5
CA
100
AcDbEntity
8
1
62
256
6
ByLayer
370
18
48
1
60
0
100
AcDbSpline
70
4
71
3
72
28
73
24
40
0
40
0
40
0
40
0
40
0.125
40
0.125
40
0.25
40
0.25
40
0.375
40
0.375
40
0.5
40
0.5
40
0.625
40
0.625
40
0.6875
40
0.6875
40
0.75
40
0.75
40
0.8125
40
0.8125
40
0.875
40
0.875
40
0.9375
40
0.9375
40
1
40
1
40
1
40
1
41
1
10
3.36414199999999
20
-0.0591826567533644
30
0
41
1
10
3.35156901670373
20
-0.0557634547217845
30
0
41
1
10
3.33924924205823
20
-0.0516549500973156
30
0
41
1
10
3.31511564555783
20
-0.0419561403359694
30
0
41
1
10
3.30335191899789
20
-0.0363830044551889
30
0
41
1
10
3.28059604270354
20
-0.0237288876263335
30
0
41
1
10
3.26960236588408
20
-0.0166372068482588
30
0
41
1
10
3.24891618697021
20
-0.0011389476470072
30
0
41
1
10
3.23915499534493
20
0.0072978661226841
30
0
41
1
10
3.22095663097755
20
0.0257285814741408
30
0
41
1
10
3.21246976324116
20
0.0358272677048035
30
0
41
1
10
3.20166379461764
20
0.0514890963389689
30
0
41
1
10
3.1983547079042
20
0.056820981719909
30
0
41
1
10
3.19239750116074
20
0.0677158475278929
30
0
41
1
10
3.18980983864768
20
0.0731755811711423
30
0
41
1
10
3.18551553779636
20
0.0839474172417738
30
0
41
1
10
3.18379554226263
20
0.0892823533216358
30
0
41
1
10
3.18129013899207
20
0.0998198500830938
30
0
41
1
10
3.18052115048673
20
0.105020829341328
30
0
41
1
10
3.18004448904006
20
0.114742435221899
30
0
41
1
10
3.18031611397888
20
0.119333467157389
30
0
41
1
10
3.18189239332227
20
0.127973686635244
30
0
41
1
10
3.18320283013642
20
0.131996167687959
30
0
41
1
10
3.18498624288222
20
0.135629502384006
30
0
0
LINE
5
7F
100
AcDbEntity
8
1
62
256
6
ByLayer
370
18
48
1
60
0
100
AcDbLine
10
0
20
1.5
30
0
11
0
21
0
31
0
39
0
210
0
220
0
230
1
0
LINE
5
80
100
AcDbEntity
8
1
62
256
6
ByLayer
370
18
48
1
60
0
100
AcDbLine
10
0
20
0
30
0
11
0
21
-1.5
31
0
39
0
210
0
220
0
230
1
0
LINE
5
81
100
AcDbEntity
8
1
62
256
6
ByLayer
370
18
48
1
60
0
100
AcDbLine
10
4.903259
20
0.084292
30
0
11
4.903259
21
-0.158853
31
0
39
0
210
0
220
0
230
1
0
LINE
5
82
100
AcDbEntity
8
1
62
256
6
ByLayer
370
18
48
1
60
0
100
AcDbLine
10
3.364142
20
0.133401
30
0
11
3.364142
21
0.011691
31
0
39
0
210
0
220
0
230
1
0
LINE
5
83
100
AcDbEntity
8
1
62
256
6
ByLayer
370
18
48
1
60
0
100
AcDbLine
10
3.364142
20
0.011691
30
0
11
3.364142
21
-0.059183
31
0
39
0
210
0
220
0
230
1
0
LINE
5
84
100
AcDbEntity
8
1
62
256
6
ByLayer
370
13
48
1
60
0
100
AcDbLine
10
2.580244
20
0.165
30
0
11
2.580244
21
-0.165
31
0
39
0
210
0
220
0
230
1
0
LINE
5
85
100
AcDbEntity
8
1
62
256
6
ByLayer
370
13
48
1
60
0
100
AcDbLine
10
2.080244
20
0.298975
30
0
11
2.080244
21
-0.298975
31
0
39
0
210
0
220
0
230
1
0
LINE
5
86
100
AcDbEntity
8
SK1
62
256
6
ByLayer
370
18
48
1
60
0
100
AcDbLine
10
-33.0198
20
1.326795
30
0
11
-33.0198
21
-1.326795
31
0
39
0
210
0
220
0
230
1
0
LINE
5
88
100
AcDbEntity
8
SK1
62
256
6
ByLayer
370
18
48
1
60
0
100
AcDbLine
10
0
20
1.5
30
0
11
0
21
0
31
0
39
0
210
0
220
0
230
1
0
LINE
5
89
100
AcDbEntity
8
SK1
62
256
6
ByLayer
370
18
48
1
60
0
100
AcDbLine
10
0
20
0
30
0
11
0
21
-1.5
31
0
39
0
210
0
220
0
230
1
0
LINE
5
8A
100
AcDbEntity
8
SK1
62
256
6
ByLayer
370
18
48
1
60
0
100
AcDbLine
10
-32.7198
20
1.5
30
0
11
-32.7198
21
-1.5
31
0
39
0
210
0
220
0
230
1
0
LINE
5
8B
100
AcDbEntity
8
1
62
256
6
ByLayer
370
18
48
1
60
0
100
AcDbLine
10
4.9802
20
0
30
0
11
4.94996
21
0.064851
31
0
39
0
210
0
220
0
230
1
0
LINE
5
8C
100
AcDbEntity
8
1
62
256
6
ByLayer
370
18
48
1
60
0
100
AcDbLine
10
4.94996
20
-0.064851
30
0
11
4.9802
21
0
31
0
39
0
210
0
220
0
230
1
0
LINE
5
8D
100
AcDbEntity
8
1
62
256
6
ByLayer
370
18
48
1
60
0
100
AcDbLine
10
2.580244
20
-0.165
30
0
11
3.708041
21
-0.165
31
0
39
0
210
0
220
0
230
1
0
LINE
5
8E
100
AcDbEntity
8
1
62
256
6
ByLayer
370
18
48
1
60
0
100
AcDbLine
10
4.082228
20
-0.165
30
0
11
4.606083
21
-0.165
31
0
39
0
210
0
220
0
230
1
0
LINE
5
8F
100
AcDbEntity
8
1
62
256
6
ByLayer
370
18
48
1
60
0
100
AcDbLine
10
4.606083
20
0.165
30
0
11
4.082228
21
0.165
31
0
39
0
210
0
220
0
230
1
0
LINE
5
90
100
AcDbEntity
8
1
62
256
6
ByLayer
370
18
48
1
60
0
100
AcDbLine
10
3.708041
20
0.165
30
0
11
2.580244
21
0.165
31
0
39
0
210
0
220
0
230
1
0
LINE
5
91
100
AcDbEntity
8
1
62
256
6
ByLayer
370
18
48
1
60
0
100
AcDbLine
10
2.080244
20
0.298975
30
0
11
0
21
1.5
31
0
39
0
210
0
220
0
230
1
0
LINE
5
92
100
AcDbEntity
8
1
62
256
6
ByLayer
370
18
48
1
60
0
100
AcDbLine
10
0
20
-1.5
30
0
11
2.080244
21
-0.298975
31
0
39
0
210
0
220
0
230
1
0
LINE
5
93
100
AcDbEntity
8
SK1
62
256
6
ByLayer
370
18
48
1
60
0
100
AcDbLine
10
-33.0198
20
-1.326795
30
0
11
-32.7198
21
-1.5
31
0
39
0
210
0
220
0
230
1
0
LINE
5
94
100
AcDbEntity
8
SK1
62
256
6
ByLayer
370
18
48
1
60
0
100
AcDbLine
10
-32.7198
20
1.5
30
0
11
-33.0198
21
1.326795
31
0
39
0
210
0
220
0
230
1
0
LINE
5
95
100
AcDbEntity
8
SK1
62
256
6
ByLayer
370
18
48
1
60
0
100
AcDbLine
10
-32.7198
20
-1.5
30
0
11
0
21
-1.5
31
0
39
0
210
0
220
0
230
1
0
LINE
5
96
100
AcDbEntity
8
SK1
62
256
6
ByLayer
370
18
48
1
60
0
100
AcDbLine
10
0
20
1.5
30
0
11
-32.7198
21
1.5
31
0
39
0
210
0
220
0
230
1
0
LINE
5
97
100
AcDbEntity
8
4
62
256
6
ByLayer
370
18
48
0.05
60
0
100
AcDbLine
10
0
20
0
30
0
11
4.9802
21
0
31
0
39
0
210
0
220
0
230
1
0
LINE
5
99
100
AcDbEntity
8
81
62
256
6
ByLayer
370
18
48
1
60
0
100
AcDbLine
10
4.9802
20
0
30
0
11
7.9802
21
0
31
0
39
0
210
0
220
0
230
1
0
LINE
5
9A
100
AcDbEntity
8
80
62
256
6
ByLayer
370
18
48
1
60
0
100
AcDbLine
10
0
20
0
30
0
11
-3
21
0
31
0
39
0
210
0
220
0
230
1
0
LINE
5
9B
100
AcDbEntity
8
SK4
62
256
6
ByLayer
370
18
48
0.05
60
0
100
AcDbLine
10
-36.0198
20
0
30
0
11
7.9802
21
0
31
0
39
0
210
0
220
0
230
1
0
LINE
5
9D
100
AcDbEntity
8
SK2
62
256
6
ByLayer
370
13
48
1
60
0
100
AcDbLine
10
-37.5198
20
-9
30
0
11
-37.5198
21
21.782741
31
0
39
0
210
0
220
0
230
1
0
LINE
5
9F
100
AcDbEntity
8
SK2
62
256
6
ByLayer
370
13
48
1
60
0
100
AcDbLine
10
-34.6073
20
-1.5
30
0
11
-39.5198
21
-1.5
31
0
39
0
210
0
220
0
230
1
0
LINE
5
A0
100
AcDbEntity
8
SK2
62
256
6
ByLayer
370
13
48
1
60
0
100
AcDbLine
10
-34.6073
20
1.5
30
0
11
-39.5198
21
1.5
31
0
39
0
210
0
220
0
230
1
0
LINE
5
A1
100
AcDbEntity
8
1
62
256
6
ByLayer
370
18
48
1
60
1
100
AcDbLine
10
-37.5198
20
-1.5
30
0
11
-37.059016
21
-4.999998
31
0
39
0
210
0
220
0
230
1
0
LINE
5
A2
100
AcDbEntity
8
1
62
256
6
ByLayer
370
18
48
1
60
1
100
AcDbLine
10
-37.059016
20
-4.999998
30
0
11
-37.980584
21
-5.000002
31
0
39
0
210
0
220
0
230
1
0
LINE
5
A3
100
AcDbEntity
8
1
62
256
6
ByLayer
370
18
48
1
60
1
100
AcDbLine
10
-37.980584
20
-5.000002
30
0
11
-37.5198
21
-1.5
31
0
39
0
210
0
220
0
230
1
0
LINE
5
A4
100
AcDbEntity
8
1
62
256
6
ByLayer
370
18
48
1
60
1
100
AcDbLine
10
-37.5198
20
1.5
30
0
11
-37.980584
21
4.999998
31
0
39
0
210
0
220
0
230
1
0
LINE
5
A5
100
AcDbEntity
8
1
62
256
6
ByLayer
370
18
48
1
60
1
100
AcDbLine
10
-37.980584
20
4.999998
30
0
11
-37.059016
21
5.000002
31
0
39
0
210
0
220
0
230
1
0
LINE
5
A6
100
AcDbEntity
8
1
62
256
6
ByLayer
370
18
48
1
60
1
100
AcDbLine
10
-37.059016
20
5.000002
30
0
11
-37.5198
21
1.5
31
0
39
0
210
0
220
0
230
1
0
LINE
5
A7
100
AcDbEntity
8
2
62
256
6
ByLayer
370
13
48
1
60
0
100
AcDbLine
10
10.4802
20
-7.665
30
0
11
10.4802
21
30.617741
31
0
39
0
210
0
220
0
230
1
0
LINE
5
A9
100
AcDbEntity
8
2
62
256
6
ByLayer
370
13
48
1
60
0
100
AcDbLine
10
6.5677
20
-0.165
30
0
11
12.4802
21
-0.165
31
0
39
0
210
0
220
0
230
1
0
LINE
5
AA
100
AcDbEntity
8
2
62
256
6
ByLayer
370
13
48
1
60
0
100
AcDbLine
10
6.5677
20
0.165
30
0
11
12.4802
21
0.165
31
0
39
0
210
0
220
0
230
1
0
LINE
5
AB
100
AcDbEntity
8
1
62
256
6
ByLayer
370
18
48
1
60
1
100
AcDbLine
10
10.4802
20
-0.165
30
0
11
10.940984
21
-3.664998
31
0
39
0
210
0
220
0
230
1
0
LINE
5
AC
100
AcDbEntity
8
1
62
256
6
ByLayer
370
18
48
1
60
1
100
AcDbLine
10
10.940984
20
-3.664998
30
0
11
10.019416
21
-3.665002
31
0
39
0
210
0
220
0
230
1
0
LINE
5
AD
100
AcDbEntity
8
1
62
256
6
ByLayer
370
18
48
1
60
1
100
AcDbLine
10
10.019416
20
-3.665002
30
0
11
10.4802
21
-0.165
31
0
39
0
210
0
220
0
230
1
0
LINE
5
AE
100
AcDbEntity
8
1
62
256
6
ByLayer
370
18
48
1
60
1
100
AcDbLine
10
10.4802
20
0.165
30
0
11
10.019416
21
3.664998
31
0
39
0
210
0
220
0
230
1
0
LINE
5
AF
100
AcDbEntity
8
1
62
256
6
ByLayer
370
18
48
1
60
1
100
AcDbLine
10
10.019416
20
3.664998
30
0
11
10.940984
21
3.665002
31
0
39
0
210
0
220
0
230
1
0
LINE
5
B0
100
AcDbEntity
8
1
62
256
6
ByLayer
370
18
48
1
60
1
100
AcDbLine
10
10.940984
20
3.665002
30
0
11
10.4802
21
0.165
31
0
39
0
210
0
220
0
230
1
0
LINE
5
B1
100
AcDbEntity
8
SK2
62
256
6
ByLayer
370
13
48
1
60
0
100
AcDbLine
10
5.651106
20
-1.438764
30
0
11
12.735245
21
-16.630748
31
0
39
0
210
0
220
0
230
1
0
LINE
5
B2
100
AcDbEntity
8
SK2
62
256
6
ByLayer
370
13
48
1
60
0
100
AcDbLine
10
5.651106
20
1.438764
30
0
11
12.735245
21
16.630748
31
0
39
0
210
0
220
0
230
1
0
LINE
5
B3
100
AcDbEntity
8
1
62
256
6
ByLayer
370
18
48
1
60
1
100
AcDbLine
10
11.890009
20
-14.818132
30
0
11
14.762042
21
-12.765394
31
0
39
0
210
0
220
0
230
1
0
LINE
5
B4
100
AcDbEntity
8
1
62
256
6
ByLayer
370
18
48
1
60
1
100
AcDbLine
10
14.762042
20
-12.765394
30
0
11
15.195471
21
-13.578675
31
0
39
0
210
0
220
0
230
1
0
LINE
5
B5
100
AcDbEntity
8
1
62
256
6
ByLayer
370
18
48
1
60
1
100
AcDbLine
10
15.195471
20
-13.578675
30
0
11
11.890009
21
-14.818132
31
0
39
0
210
0
220
0
230
1
0
LINE
5
B6
100
AcDbEntity
8
1
62
256
6
ByLayer
370
18
48
1
60
1
100
AcDbLine
10
11.890009
20
14.818132
30
0
11
15.195468
21
13.578677
31
0
39
0
210
0
220
0
230
1
0
LINE
5
B7
100
AcDbEntity
8
1
62
256
6
ByLayer
370
18
48
1
60
1
100
AcDbLine
10
15.195468
20
13.578677
30
0
11
14.762045
21
12.765392
31
0
39
0
210
0
220
0
230
1
0
LINE
5
B8
100
AcDbEntity
8
1
62
256
6
ByLayer
370
18
48
1
60
1
100
AcDbLine
10
14.762045
20
12.765392
30
0
11
11.890009
21
14.818132
31
0
39
0
210
0
220
0
230
1
0
LINE
5
CF
100
AcDbEntity
8
1
62
256
6
ByLayer
370
18
48
1
60
1
100
AcDbLine
10
-37.5198
20
-1.5
30
0
11
-37.059016
21
-4.999998
31
0
39
0
210
0
220
0
230
1
0
LINE
5
D0
100
AcDbEntity
8
1
62
256
6
ByLayer
370
18
48
1
60
1
100
AcDbLine
10
-37.059016
20
-4.999998
30
0
11
-37.980584
21
-5.000002
31
0
39
0
210
0
220
0
230
1
0
LINE
5
D1
100
AcDbEntity
8
1
62
256
6
ByLayer
370
18
48
1
60
1
100
AcDbLine
10
-37.980584
20
-5.000002
30
0
11
-37.5198
21
-1.5
31
0
39
0
210
0
220
0
230
1
0
LINE
5
D3
100
AcDbEntity
8
1
62
256
6
ByLayer
370
18
48
1
60
1
100
AcDbLine
10
-37.5198
20
1.5
30
0
11
-37.980584
21
4.999998
31
0
39
0
210
0
220
0
230
1
0
LINE
5
D4
100
AcDbEntity
8
1
62
256
6
ByLayer
370
18
48
1
60
1
100
AcDbLine
10
-37.980584
20
4.999998
30
0
11
-37.059016
21
5.000002
31
0
39
0
210
0
220
0
230
1
0
LINE
5
D5
100
AcDbEntity
8
1
62
256
6
ByLayer
370
18
48
1
60
1
100
AcDbLine
10
-37.059016
20
5.000002
30
0
11
-37.5198
21
1.5
31
0
39
0
210
0
220
0
230
1
0
LINE
5
D9
100
AcDbEntity
8
1
62
256
6
ByLayer
370
18
48
1
60
1
100
AcDbLine
10
10.4802
20
-0.165
30
0
11
10.940984
21
-3.664998
31
0
39
0
210
0
220
0
230
1
0
LINE
5
DA
100
AcDbEntity
8
1
62
256
6
ByLayer
370
18
48
1
60
1
100
AcDbLine
10
10.940984
20
-3.664998
30
0
11
10.019416
21
-3.665002
31
0
39
0
210
0
220
0
230
1
0
LINE
5
DB
100
AcDbEntity
8
1
62
256
6
ByLayer
370
18
48
1
60
1
100
AcDbLine
10
10.019416
20
-3.665002
30
0
11
10.4802
21
-0.165
31
0
39
0
210
0
220
0
230
1
0
LINE
5
DD
100
AcDbEntity
8
1
62
256
6
ByLayer
370
18
48
1
60
1
100
AcDbLine
10
10.4802
20
0.165
30
0
11
10.019416
21
3.664998
31
0
39
0
210
0
220
0
230
1
0
LINE
5
DE
100
AcDbEntity
8
1
62
256
6
ByLayer
370
18
48
1
60
1
100
AcDbLine
10
10.019416
20
3.664998
30
0
11
10.940984
21
3.665002
31
0
39
0
210
0
220
0
230
1
0
LINE
5
DF
100
AcDbEntity
8
1
62
256
6
ByLayer
370
18
48
1
60
1
100
AcDbLine
10
10.940984
20
3.665002
30
0
11
10.4802
21
0.165
31
0
39
0
210
0
220
0
230
1
0
LINE
5
E2
100
AcDbEntity
8
1
62
256
6
ByLayer
370
18
48
1
60
1
100
AcDbLine
10
11.890009
20
-14.818132
30
0
11
14.762042
21
-12.765394
31
0
39
0
210
0
220
0
230
1
0
LINE
5
E3
100
AcDbEntity
8
1
62
256
6
ByLayer
370
18
48
1
60
1
100
AcDbLine
10
14.762042
20
-12.765394
30
0
11
15.195471
21
-13.578675
31
0
39
0
210
0
220
0
230
1
0
LINE
5
E4
100
AcDbEntity
8
1
62
256
6
ByLayer
370
18
48
1
60
1
100
AcDbLine
10
15.195471
20
-13.578675
30
0
11
11.890009
21
-14.818132
31
0
39
0
210
0
220
0
230
1
0
LINE
5
E6
100
AcDbEntity
8
1
62
256
6
ByLayer
370
18
48
1
60
1
100
AcDbLine
10
11.890009
20
14.818132
30
0
11
15.195468
21
13.578677
31
0
39
0
210
0
220
0
230
1
0
LINE
5
E7
100
AcDbEntity
8
1
62
256
6
ByLayer
370
18
48
1
60
1
100
AcDbLine
10
15.195468
20
13.578677
30
0
11
14.762045
21
12.765392
31
0
39
0
210
0
220
0
230
1
0
LINE
5
E8
100
AcDbEntity
8
1
62
256
6
ByLayer
370
18
48
1
60
1
100
AcDbLine
10
14.762045
20
12.765392
30
0
11
11.890009
21
14.818132
31
0
39
0
210
0
220
0
230
1
0
MTEXT
5
CB
100
AcDbEntity
8
SK2
62
256
6
ByLayer
370
18
48
1
60
0
100
AcDbMText
10
-38.860914
20
6.658437
30
0
210
0
220
0
230
1
1
%%c
40
3
41
0
44
1.084337
50
90
71
7
72
5
7
iso_b_vert
0
MTEXT
5
CE
100
AcDbEntity
8
SK2
62
256
6
ByLayer
370
18
48
1
60
0
100
AcDbMText
10
-38.860914
20
12.635
30
0
210
0
220
0
230
1
1
\W0.7468;3.000
40
3
41
0
44
1.084337
50
90
71
7
72
5
7
iso_b_vert
0
MTEXT
5
D7
100
AcDbEntity
8
2
62
256
6
ByLayer
370
18
48
1
60
0
100
AcDbMText
10
9.139086
20
15.493438
30
0
210
0
220
0
230
1
1
%%c
40
3
41
0
44
1.084337
50
90
71
7
72
5
7
iso_b_vert
0
MTEXT
5
D8
100
AcDbEntity
8
2
62
256
6
ByLayer
370
18
48
1
60
0
100
AcDbMText
10
9.139086
20
21.47
30
0
210
0
220
0
230
1
1
\W0.7468;0.330
40
3
41
0
44
1.084337
50
90
71
7
72
5
7
iso_b_vert
0
MTEXT
5
E1
100
AcDbEntity
8
SK2
62
256
6
ByLayer
370
18
48
1
60
0
100
AcDbMText
10
18.047486
20
-2.114886
30
0
210
0
220
0
230
1
1
\W0.6747;130%%d
40
3
41
0
44
1.084337
50
0
71
7
72
5
7
iso_b_vert
0
MTEXT
5
EA
100
AcDbEntity
8
SK6
62
256
6
ByLayer
370
18
48
1
60
0
100
AcDbMText
10
-41.648767
20
-42.114886
30
0
210
0
220
0
230
1
1
\W0.7647;462.1-0033-001A0-XM X0BU
40
3
41
0
44
1.084337
50
0
71
7
72
5
7
iso_b_vert
0
HATCH
5
D2
100
AcDbEntity
8
SK2
62
256
6
ByLayer
370
13
48
1
60
0
100
AcDbHatch
10
0
20
0
30
0
210
0
220
0
230
1
2
ANSI31
70
0
71
0
91
1
92
5
93
3
72
1
10
-37.5198
20
-1.5
11
-37.0590162584472
21
-4.99999830744682
72
1
10
-37.0590162584472
20
-4.99999830744682
11
-37.9805837415528
21
-5.00000169255318
72
1
10
-37.9805837415528
20
-5.00000169255318
11
-37.5198
21
-1.5
97
0
75
0
76
1
52
0
41
0.0062
77
0
78
1
53
45
43
0
44
0
45
-0.0139193969876572
46
0.0139193969876572
79
0
47
0
98
1
10
0
20
0
0
HATCH
5
D6
100
AcDbEntity
8
SK2
62
256
6
ByLayer
370
13
48
1
60
0
100
AcDbHatch
10
0
20
0
30
0
210
0
220
0
230
1
2
ANSI31
70
0
71
0
91
1
92
5
93
3
72
1
10
-37.5198
20
1.5
11
-37.9805837415528
21
4.99999830744682
72
1
10
-37.9805837415528
20
4.99999830744682
11
-37.0590162584472
21
5.00000169255318
72
1
10
-37.0590162584472
20
5.00000169255318
11
-37.5198
21
1.5
97
0
75
0
76
1
52
0
41
0.0062
77
0
78
1
53
45
43
0
44
0
45
-0.0139193969876572
46
0.0139193969876572
79
0
47
0
98
1
10
0
20
0
0
HATCH
5
DC
100
AcDbEntity
8
2
62
256
6
ByLayer
370
13
48
1
60
0
100
AcDbHatch
10
0
20
0
30
0
210
0
220
0
230
1
2
ANSI31
70
0
71
0
91
1
92
5
93
3
72
1
10
10.4802
20
-0.164999999999992
11
10.9409837415528
21
-3.66499830744681
72
1
10
10.9409837415528
20
-3.66499830744681
11
10.0194162584472
21
-3.66500169255318
72
1
10
10.0194162584472
20
-3.66500169255318
11
10.4802
21
-0.164999999999992
97
0
75
0
76
1
52
0
41
0.0062
77
0
78
1
53
45
43
0
44
0
45
-0.0139193969876572
46
0.0139193969876572
79
0
47
0
98
1
10
0
20
0
0
HATCH
5
E0
100
AcDbEntity
8
2
62
256
6
ByLayer
370
13
48
1
60
0
100
AcDbHatch
10
0
20
0
30
0
210
0
220
0
230
1
2
ANSI31
70
0
71
0
91
1
92
5
93
3
72
1
10
10.4802
20
0.164999999999992
11
10.0194162584472
21
3.66499830744681
72
1
10
10.0194162584472
20
3.66499830744681
11
10.9409837415528
21
3.66500169255318
72
1
10
10.9409837415528
20
3.66500169255318
11
10.4802
21
0.164999999999992
97
0
75
0
76
1
52
0
41
0.0062
77
0
78
1
53
45
43
0
44
0
45
-0.0139193969876572
46
0.0139193969876572
79
0
47
0
98
1
10
0
20
0
0
HATCH
5
E5
100
AcDbEntity
8
SK2
62
256
6
ByLayer
370
13
48
1
60
0
100
AcDbHatch
10
0
20
0
30
0
210
0
220
0
230
1
2
ANSI31
70
0
71
0
91
1
92
5
93
3
72
1
10
11.8900085794603
20
-14.8181323180493
11
14.7620418553692
21
-12.7653939833652
72
1
10
14.7620418553692
20
-12.7653939833652
11
15.1954706127347
21
-13.5786750775863
72
1
10
15.1954706127347
20
-13.5786750775863
11
11.8900085794603
21
-14.8181323180493
97
0
75
0
76
1
52
0
41
0.0062
77
0
78
1
53
45
43
0
44
0
45
-0.0139193969876572
46
0.0139193969876572
79
0
47
0
98
1
10
0
20
0
0
HATCH
5
E9
100
AcDbEntity
8
SK2
62
256
6
ByLayer
370
13
48
1
60
0
100
AcDbHatch
10
0
20
0
30
0
210
0
220
0
230
1
2
ANSI31
70
0
71
0
91
1
92
5
93
3
72
1
10
11.8900085794603
20
14.8181323180493
11
15.1954676253805
21
13.5786766696481
72
1
10
15.1954676253805
20
13.5786766696481
11
14.7620448427233
21
12.7653923913034
72
1
10
14.7620448427233
20
12.7653923913034
11
11.8900085794603
21
14.8181323180493
97
0
75
0
76
1
52
0
41
0.0062
77
0
78
1
53
45
43
0
44
0
45
-0.0139193969876572
46
0.0139193969876572
79
0
47
0
98
1
10
0
20
0
0
DIMENSION
5
ED
100
AcDbEntity
8
SK2
62
256
6
ByLayer
370
18
48
1
60
0
100
AcDbDimension
2
_U0
10
4.9802
20
-35.85
30
0
11
-14.0198
21
-35.85
31
0
70
32
71
1
72
1
41
1
210
0
220
0
230
1
3
Standard
100
AcDbAlignedDimension
13
-33.0198
23
1.5
33
0
14
4.9802
24
0.165
34
0
50
0
100
AcDbRotatedDimension
1001
ACAD
1000
DSTYLE
1002
{
1070
   371
1070
    13
1070
   372
1070
    13
1070
     3
1000

1070
   170
1070
     0
1070
   144
1040
1.0
1070
   277
1070
     2
1070
   284
1070
     8
1070
   278
1070
    46
1070
   146
1040
1.166667
1070
   345
1005
16
1070
   347
1005
16
1070
   346
1005
16
1070
   344
1005
0
1070
   343
1005
0
1070
   172
1070
     1
1070
    76
1070
     0
1070
    75
1070
     0
1070
   282
1070
     0
1070
   281
1070
     0
1070
    71
1070
     0
1070
    74
1070
     0
1070
   279
1070
     0
1070
   173
1070
     1
1070
   340
1005
CC
1070
   271
1070
     2
1070
   272
1070
     2
1070
    77
1070
     1
1070
    73
1070
     1
1070
   171
1070
     3
1070
   274
1070
     4
1070
   177
1070
     2
1070
   176
1070
     2
1070
   178
1070
     2
1070
    78
1070
     8
1070
    48
1040
-0.1
1070
    41
1040
3.5
1070
   147
1040
1.5
1070
    42
1040
1.5875
1070
    44
1040
2.0
1070
   140
1040
3.0
1002
}
1001
ACAD_DSTYLE_DIM_LINETYPE
1070
   380
1005
16
1001
ACAD_DSTYLE_DIM_EXT1_LINETYPE
1070
   381
1005
16
1001
ACAD_DSTYLE_DIM_EXT2_LINETYPE
1070
   382
1005
16
0
DIMENSION
5
106
100
AcDbEntity
8
SK2
62
256
6
ByLayer
370
18
48
1
60
0
100
AcDbDimension
2
_U1
10
3.6752
20
-21.665
30
0
11
20.408771
21
-21.665
31
0
70
32
71
1
72
1
41
1
210
0
220
0
230
1
3
Standard
100
AcDbAlignedDimension
13
4.9802
23
0.165
33
0
14
3.6752
24
0
34
0
50
0
100
AcDbRotatedDimension
1001
ACAD
1000
DSTYLE
1002
{
1070
   371
1070
    13
1070
   372
1070
    13
1070
     3
1000

1070
   170
1070
     0
1070
   144
1040
1.0
1070
   277
1070
     2
1070
   284
1070
     8
1070
   278
1070
    46
1070
   146
1040
1.166667
1070
   345
1005
16
1070
   347
1005
16
1070
   346
1005
16
1070
   344
1005
0
1070
   343
1005
0
1070
   172
1070
     1
1070
    76
1070
     0
1070
    75
1070
     0
1070
   282
1070
     0
1070
   281
1070
     0
1070
    71
1070
     0
1070
    74
1070
     0
1070
   279
1070
     0
1070
   173
1070
     1
1070
   340
1005
CC
1070
   271
1070
     2
1070
   272
1070
     2
1070
    77
1070
     1
1070
    73
1070
     1
1070
   171
1070
     3
1070
   274
1070
     4
1070
   177
1070
     2
1070
   176
1070
     2
1070
   178
1070
     2
1070
    78
1070
     8
1070
    48
1040
-0.1
1070
    41
1040
3.5
1070
   147
1040
1.5
1070
    42
1040
1.5875
1070
    44
1040
2.0
1070
   140
1040
3.0
1002
}
1001
ACAD_DSTYLE_DIM_LINETYPE
1070
   380
1005
16
1001
ACAD_DSTYLE_DIM_EXT1_LINETYPE
1070
   381
1005
16
1001
ACAD_DSTYLE_DIM_EXT2_LINETYPE
1070
   382
1005
16
0
DIMENSION
5
120
100
AcDbEntity
8
SK2
62
256
6
ByLayer
370
18
48
1
60
0
100
AcDbDimension
2
_U2
10
3.1802
20
-29.665
30
0
11
19.408771
21
-29.665
31
0
70
32
71
1
72
1
41
1
210
0
220
0
230
1
3
Standard
100
AcDbAlignedDimension
13
4.9802
23
0.165
33
0
14
3.1802
24
0
34
0
50
0
100
AcDbRotatedDimension
1001
ACAD
1000
DSTYLE
1002
{
1070
   371
1070
    13
1070
   372
1070
    13
1070
     3
1000

1070
   170
1070
     0
1070
   144
1040
1.0
1070
   277
1070
     2
1070
   284
1070
     8
1070
   278
1070
    46
1070
   146
1040
1.166667
1070
   345
1005
16
1070
   347
1005
16
1070
   346
1005
16
1070
   344
1005
0
1070
   343
1005
0
1070
   172
1070
     1
1070
    76
1070
     0
1070
    75
1070
     0
1070
   282
1070
     0
1070
   281
1070
     0
1070
    71
1070
     0
1070
    74
1070
     0
1070
   279
1070
     0
1070
   173
1070
     1
1070
   340
1005
CC
1070
   271
1070
     2
1070
   272
1070
     2
1070
    77
1070
     1
1070
    73
1070
     1
1070
   171
1070
     3
1070
   274
1070
     4
1070
   177
1070
     2
1070
   176
1070
     2
1070
   178
1070
     2
1070
    78
1070
     8
1070
    48
1040
-0.1
1070
    41
1040
3.5
1070
   147
1040
1.5
1070
    42
1040
1.5875
1070
    44
1040
2.0
1070
   140
1040
3.0
1002
}
1001
ACAD_DSTYLE_DIM_LINETYPE
1070
   380
1005
16
1001
ACAD_DSTYLE_DIM_EXT1_LINETYPE
1070
   381
1005
16
1001
ACAD_DSTYLE_DIM_EXT2_LINETYPE
1070
   382
1005
16
0
DIMENSION
5
13A
100
AcDbEntity
8
SK2
62
256
6
ByLayer
370
18
48
1
60
0
100
AcDbDimension
2
_U3
10
0
20
11.35
30
0
11
-16.5099
21
11.35
31
0
70
32
71
1
72
1
41
1
210
0
220
0
230
1
3
Standard
100
AcDbAlignedDimension
13
-33.0198
23
0
33
0
14
0
24
0
34
0
50
0
100
AcDbRotatedDimension
1001
ACAD
1000
DSTYLE
1002
{
1070
   371
1070
    13
1070
   372
1070
    13
1070
     3
1000

1070
   170
1070
     0
1070
   144
1040
1.0
1070
   277
1070
     2
1070
   284
1070
     8
1070
   278
1070
    46
1070
   146
1040
1.166667
1070
   345
1005
16
1070
   347
1005
16
1070
   346
1005
16
1070
   344
1005
0
1070
   343
1005
0
1070
   172
1070
     1
1070
    76
1070
     0
1070
    75
1070
     0
1070
   282
1070
     0
1070
   281
1070
     0
1070
    71
1070
     0
1070
    74
1070
     0
1070
   279
1070
     0
1070
   173
1070
     1
1070
   340
1005
CC
1070
   271
1070
     2
1070
   272
1070
     2
1070
    77
1070
     1
1070
    73
1070
     1
1070
   171
1070
     3
1070
   274
1070
     4
1070
   177
1070
     2
1070
   176
1070
     2
1070
   178
1070
     2
1070
    78
1070
     8
1070
    48
1040
-0.1
1070
    41
1040
3.5
1070
   147
1040
1.5
1070
    42
1040
1.5875
1070
    44
1040
2.0
1070
   140
1040
3.0
1002
}
1001
ACAD_DSTYLE_DIM_LINETYPE
1070
   380
1005
16
1001
ACAD_DSTYLE_DIM_EXT1_LINETYPE
1070
   381
1005
16
1001
ACAD_DSTYLE_DIM_EXT2_LINETYPE
1070
   382
1005
16
0
DIMENSION
5
152
100
AcDbEntity
8
2
62
256
6
ByLayer
370
18
48
1
60
0
100
AcDbDimension
2
_U4
10
0
20
5
30
0
11
-16.071429
21
5
31
0
70
32
71
1
72
1
41
1
210
0
220
0
230
1
3
Standard
100
AcDbAlignedDimension
13
4.9802
23
0.165
33
0
14
0
24
0
34
0
50
0
100
AcDbRotatedDimension
1001
ACAD
1000
DSTYLE
1002
{
1070
   371
1070
    13
1070
   372
1070
    13
1070
     3
1000

1070
   170
1070
     0
1070
   144
1040
1.0
1070
   277
1070
     2
1070
   284
1070
     8
1070
   278
1070
    46
1070
   146
1040
1.166667
1070
   345
1005
16
1070
   347
1005
16
1070
   346
1005
16
1070
   344
1005
0
1070
   343
1005
0
1070
   172
1070
     1
1070
    76
1070
     0
1070
    75
1070
     0
1070
   282
1070
     0
1070
   281
1070
     0
1070
    71
1070
     0
1070
    74
1070
     0
1070
   279
1070
     0
1070
   173
1070
     1
1070
   340
1005
CC
1070
   271
1070
     2
1070
   272
1070
     2
1070
    77
1070
     1
1070
    73
1070
     1
1070
   171
1070
     3
1070
   274
1070
     4
1070
   177
1070
     2
1070
   176
1070
     2
1070
   178
1070
     2
1070
    78
1070
     8
1070
    48
1040
-0.1
1070
    41
1040
3.5
1070
   147
1040
1.5
1070
    42
1040
1.5875
1070
    44
1040
2.0
1070
   140
1040
3.0
1002
}
1001
ACAD_DSTYLE_DIM_LINETYPE
1070
   380
1005
16
1001
ACAD_DSTYLE_DIM_EXT1_LINETYPE
1070
   381
1005
16
1001
ACAD_DSTYLE_DIM_EXT2_LINETYPE
1070
   382
1005
16
0
ENDSEC
0
SECTION
2
OBJECTS
0
DICTIONARY
5
1dc
330
0
100
AcDbDictionary
280
0
281
1
3
ACAD_GROUP
350
1dd
3
ACAD_MLINESTYLE
350
1de
0
DICTIONARY
5
1dd
330
0
100
AcDbDictionary
280
0
281
1
0
DICTIONARY
5
1de
330
0
100
AcDbDictionary
280
0
281
1
3
Standard
350
18
0
MLINESTYLE
5
18
330
1de
100
AcDbMlineStyle
2
Standard
70
0
3

62
256
51
90
52
90
71
2
49
-0.5
62
256
6
ByLayer
49
0.5
62
256
6
ByLayer
0
RASTERVARIABLES
5
1ca
330

100
AcDbRasterVariables
90
0
70
1
71
1
72
1
0
ENDSEC
0
EOF
