0
SECTION
2
HEADER
9
$ACADVER
1
AC1015
9
$DWGCODEPAGE
3
ANSI_1252
9
$HANDSEED
5
1ef
9
$ANGBASE
50
0
9
$ANGDIR
70
0
9
$ATTMODE
70
1
9
$AUNITS
70
0
9
$AUPREC
70
0
9
$CECOLOR
62
256
9
$CELTSCALE
40
1
9
$CELTYPE
6
ByLayer
9
$CELWEIGHT
370
18
9
$CLAYER
8
0
9
$CMLJUST
70
0
9
$CMLSCALE
40
1
9
$CMLSTYLE
2
Standard
9
$DIMSTYLE
2
Standard
9
$TEXTSIZE
40
0.2
9
$TEXTSTYLE
7
Standard
9
$LUNITS
70
2
9
$LUPREC
70
4
9
$EXTNAMES
290
1
9
$INSUNITS
70
4
9
$LTSCALE
40
1
9
$LWDISPLAY
290
1
9
$PDMODE
70
0
9
$PDSIZE
40
0
9
$PLINEGEN
70
0
0
ENDSEC
0
SECTION
2
CLASSES
0
CLASS
1
RASTERVARIABLES
2
AcDbRasterVariables
3
ISM
90
0
280
0
281
0
0
ENDSEC
0
SECTION
2
TABLES
0
TABLE
2
VPORT
5
1e5
100
AcDbSymbolTable
0
VPORT
5
1
100
AcDbSymbolTableRecord
100
AcDbViewportTableRecord
2
*Active
70
0
10
0
20
0
11
1
21
1
12
-1
22
1
13
0
23
0
14
0.5
24
0.5
15
10
25
10
16
0
26
0
36
1
17
0
27
0
37
0
0
ENDTAB
0
TABLE
2
LTYPE
5
1e6
100
AcDbSymbolTable
0
LTYPE
5
14
100
AcDbSymbolTableRecord
100
AcDbLinetypeTableRecord
70
0
2
ByBlock
3

72
65
73
0
40
0
0
LTYPE
5
15
100
AcDbSymbolTableRecord
100
AcDbLinetypeTableRecord
70
0
2
ByLayer
3

72
65
73
0
40
0
0
LTYPE
5
16
100
AcDbSymbolTableRecord
100
AcDbLinetypeTableRecord
70
0
2
Continuous
3
Solid line
72
65
73
0
40
0
0
LTYPE
5
6E
100
AcDbSymbolTableRecord
100
AcDbLinetypeTableRecord
70
0
2
CENTER
3
____ _ ____ _ ____ _ ____
72
65
73
4
40
47.5
49
22
74
0
49
-8.5
74
0
49
8.5
74
0
49
-8.5
74
0
0
LTYPE
5
6F
100
AcDbSymbolTableRecord
100
AcDbLinetypeTableRecord
70
0
2
DASHED
3
__ __ __ __ __ __ __ __ __
72
65
73
2
40
25.72
49
12.86
74
0
49
-12.86
74
0
0
ENDTAB
0
TABLE
2
LAYER
5
1e7
100
AcDbSymbolTable
0
LAYER
5
10
100
AcDbSymbolTableRecord
100
AcDbLayerTableRecord
2
0
70
0
62
7
6
Continuous
290
1
370
-3
390
0
0
LAYER
5
71
100
AcDbSymbolTableRecord
100
AcDbLayerTableRecord
2
80
70
0
62
-6
6
Continuous
290
1
370
-3
390
0
0
LAYER
5
73
100
AcDbSymbolTableRecord
100
AcDbLayerTableRecord
2
81
70
0
62
-3
6
Continuous
290
1
370
-3
390
0
0
LAYER
5
75
100
AcDbSymbolTableRecord
100
AcDbLayerTableRecord
2
1
70
0
62
4
6
Continuous
290
1
370
-3
390
0
0
LAYER
5
9C
100
AcDbSymbolTableRecord
100
AcDbLayerTableRecord
2
4
70
0
62
-2
6
CENTER
290
1
370
-3
390
0
0
LAYER
5
AC
100
AcDbSymbolTableRecord
100
AcDbLayerTableRecord
2
2
70
0
62
7
6
Continuous
290
1
370
-3
390
0
0
LAYER
5
F6
100
AcDbSymbolTableRecord
100
AcDbLayerTableRecord
2
Defpoints
70
0
62
7
6
Continuous
290
0
370
-3
390
0
0
LAYER
5
1d1
100
AcDbSymbolTableRecord
100
AcDbLayerTableRecord
2
SK1
70
0
62
4
6
Continuous
290
1
370
-3
390
0
0
LAYER
5
1d2
100
AcDbSymbolTableRecord
100
AcDbLayerTableRecord
2
SK4
70
0
62
2
6
CENTER
290
1
370
-3
390
0
0
LAYER
5
1d3
100
AcDbSymbolTableRecord
100
AcDbLayerTableRecord
2
SK2
70
0
62
7
6
Continuous
290
1
370
-3
390
0
0
LAYER
5
1d4
100
AcDbSymbolTableRecord
100
AcDbLayerTableRecord
2
SK6
70
0
62
5
6
Continuous
290
1
370
-3
390
0
0
ENDTAB
0
TABLE
2
STYLE
5
1e8
100
AcDbSymbolTable
0
STYLE
5
11
100
AcDbSymbolTableRecord
100
AcDbTextStyleTableRecord
2
Standard
3
txt
70
0
71
0
40
0
41
1
42
0
50
0
0
STYLE
5
D2
100
AcDbSymbolTableRecord
100
AcDbTextStyleTableRecord
2
iso_b_vert
3
simplex.shx
70
0
71
0
40
0
41
1
42
0
50
0
0
STYLE
5
D3
100
AcDbSymbolTableRecord
100
AcDbTextStyleTableRecord
2
DWGDirectTextStyle
3
simplex
70
0
71
0
40
0
41
1
42
0
50
0
0
ENDTAB
0
TABLE
2
DIMSTYLE
5
1e9
100
AcDbSymbolTable
100
AcDbDimStyleTable
0
DIMSTYLE
105
27
100
AcDbSymbolTableRecord
100
AcDbDimStyleTableRecord
2
Standard
70
0
3
<>
41
0.18
42
0.0625
44
0.18
140
0.18
147
0.09
73
0
74
0
77
1
271
2
275
0
278
52
280
0
340
11
0
ENDTAB
0
TABLE
2
VIEW
5
1ea
100
AcDbSymbolTable
0
ENDTAB
0
TABLE
2
UCS
5
1eb
100
AcDbSymbolTable
0
ENDTAB
0
TABLE
2
APPID
5
1ec
100
AcDbSymbolTable
0
APPID
5
12
100
AcDbSymbolTableRecord
100
AcDbRegAppTableRecord
2
ACAD
70
0
0
APPID
5
F2
100
AcDbSymbolTableRecord
100
AcDbRegAppTableRecord
2
ACAD_DSTYLE_DIMBREAK
70
0
0
APPID
5
190
100
AcDbSymbolTableRecord
100
AcDbRegAppTableRecord
2
ACAD_DSTYLE_DIM_LINETYPE
70
0
0
APPID
5
191
100
AcDbSymbolTableRecord
100
AcDbRegAppTableRecord
2
ACAD_DSTYLE_DIM_EXT1_LINETYPE
70
0
0
APPID
5
192
100
AcDbSymbolTableRecord
100
AcDbRegAppTableRecord
2
ACAD_DSTYLE_DIM_EXT2_LINETYPE
70
0
0
APPID
5
1CD
100
AcDbSymbolTableRecord
100
AcDbRegAppTableRecord
2
ACAD_MLEADERVER
70
0
0
ENDTAB
0
TABLE
2
BLOCK_RECORD
5
1ed
100
AcDbSymbolTable
0
BLOCK_RECORD
5
1F
100
AcDbSymbolTableRecord
100
AcDbBlockTableRecord
2
*Model_Space
340
0
70
0
0
BLOCK_RECORD
5
1B
100
AcDbSymbolTableRecord
100
AcDbBlockTableRecord
2
*Paper_Space
340
0
70
0
0
BLOCK_RECORD
5
23
100
AcDbSymbolTableRecord
100
AcDbBlockTableRecord
2
*Paper_Space0
340
0
70
0
0
BLOCK_RECORD
5
F7
100
AcDbSymbolTableRecord
100
AcDbBlockTableRecord
2
*D1
340
0
70
0
0
BLOCK_RECORD
5
103
100
AcDbSymbolTableRecord
100
AcDbBlockTableRecord
2
_U0
340
0
70
0
0
BLOCK_RECORD
5
10F
100
AcDbSymbolTableRecord
100
AcDbBlockTableRecord
2
*D3
340
0
70
0
0
BLOCK_RECORD
5
11D
100
AcDbSymbolTableRecord
100
AcDbBlockTableRecord
2
_U1
340
0
70
0
0
BLOCK_RECORD
5
129
100
AcDbSymbolTableRecord
100
AcDbBlockTableRecord
2
*D5
340
0
70
0
0
BLOCK_RECORD
5
137
100
AcDbSymbolTableRecord
100
AcDbBlockTableRecord
2
_U2
340
0
70
0
0
BLOCK_RECORD
5
143
100
AcDbSymbolTableRecord
100
AcDbBlockTableRecord
2
*D7
340
0
70
0
0
BLOCK_RECORD
5
14F
100
AcDbSymbolTableRecord
100
AcDbBlockTableRecord
2
_U3
340
0
70
0
0
BLOCK_RECORD
5
15B
100
AcDbSymbolTableRecord
100
AcDbBlockTableRecord
2
*D9
340
0
70
0
0
BLOCK_RECORD
5
169
100
AcDbSymbolTableRecord
100
AcDbBlockTableRecord
2
_U4
340
0
70
0
0
ENDTAB
0
ENDSEC
0
SECTION
2
BLOCKS
0
BLOCK
5
20
100
AcDbEntity
8
0
100
AcDbBlockBegin
2
*Model_Space
70
0
10
0
20
0
30
0
3
*Model_Space
0
ENDBLK
5
21
100
AcDbEntity
8
0
100
AcDbBlockEnd
0
BLOCK
5
1C
100
AcDbEntity
8
0
100
AcDbBlockBegin
2
*Paper_Space
70
0
10
0
20
0
30
0
3
*Paper_Space
0
ENDBLK
5
1D
100
AcDbEntity
8
0
100
AcDbBlockEnd
0
BLOCK
5
24
100
AcDbEntity
8
0
100
AcDbBlockBegin
2
*Paper_Space0
70
0
10
0
20
0
30
0
3
*Paper_Space0
0
ENDBLK
5
25
100
AcDbEntity
8
0
100
AcDbBlockEnd
0
BLOCK
5
F8
100
AcDbEntity
8
0
100
AcDbBlockBegin
2
*D1
70
1
10
0
20
0
30
0
3
*D1
0
LINE
5
FA
100
AcDbEntity
8
0
62
256
6
ByLayer
370
-2
48
1
60
0
100
AcDbLine
10
-31.567
20
-0.0875
30
0
11
-31.567
21
-37.85
31
0
39
0
210
0
220
0
230
1
0
LINE
5
FB
100
AcDbEntity
8
0
62
256
6
ByLayer
370
-2
48
1
60
0
100
AcDbLine
10
6.433
20
-1.3375
30
0
11
6.433
21
-37.85
31
0
39
0
210
0
220
0
230
1
0
LINE
5
FC
100
AcDbEntity
8
0
62
256
6
ByLayer
370
-2
48
1
60
0
100
AcDbLine
10
-28.067
20
-35.85
30
0
11
2.933
21
-35.85
31
0
39
0
210
0
220
0
230
1
0
SOLID
5
FD
100
AcDbEntity
8
0
62
256
6
ByLayer
370
-1
48
1
60
0
100
AcDbTrace
10
-28.067
20
-35.266667
30
0
11
-28.067
21
-36.433333
31
0
12
-31.567
22
-35.85
32
0
13
-31.567
23
-35.85
33
0
39
0
210
0
220
0
230
1
0
SOLID
5
FE
100
AcDbEntity
8
0
62
256
6
ByLayer
370
-1
48
1
60
0
100
AcDbTrace
10
2.933
20
-36.433333
30
0
11
2.933
21
-35.266667
31
0
12
6.433
22
-35.85
32
0
13
6.433
23
-35.85
33
0
39
0
210
0
220
0
230
1
0
MTEXT
5
FF
100
AcDbEntity
8
0
62
256
6
ByLayer
370
18
48
1
60
0
100
AcDbMText
10
-12.567
20
-29.85
30
0
210
0
220
0
230
1
1
\A1;38
40
3
41
0
44
1
50
0
71
5
72
5
7
iso_b_vert
0
POINT
5
100
100
AcDbEntity
8
Defpoints
62
0
6
ByLayer
370
-1
48
1
60
0
100
AcDbPoint
10
-31.567
20
1.5
30
0
39
0
210
0
220
0
230
1
50
360
0
POINT
5
101
100
AcDbEntity
8
Defpoints
62
0
6
ByLayer
370
-1
48
1
60
0
100
AcDbPoint
10
6.433
20
0.25
30
0
39
0
210
0
220
0
230
1
50
360
0
POINT
5
102
100
AcDbEntity
8
Defpoints
62
0
6
ByLayer
370
-1
48
1
60
0
100
AcDbPoint
10
6.433
20
-35.85
30
0
39
0
210
0
220
0
230
1
50
360
0
ENDBLK
5
F9
100
AcDbEntity
8
0
100
AcDbBlockEnd
0
BLOCK
5
10A
100
AcDbEntity
8
0
100
AcDbBlockBegin
2
_U0
70
0
10
0
20
0
30
0
3
_U0
0
MTEXT
5
104
100
AcDbEntity
8
SK2
62
256
6
ByLayer
370
18
48
1
60
0
100
AcDbMText
10
-17.04937
20
-34.964886
30
0
210
0
220
0
230
1
1
\W0.7468;38.00
40
3
41
0
44
1.084337
50
0
71
7
72
5
7
iso_b_vert
0
LINE
5
105
100
AcDbEntity
8
SK2
62
256
6
ByLayer
370
13
48
1
60
0
100
AcDbLine
10
-31.567
20
-0.0875
30
0
11
-31.567
21
-37.85
31
0
39
0
210
0
220
0
230
1
0
LINE
5
106
100
AcDbEntity
8
SK2
62
256
6
ByLayer
370
13
48
1
60
0
100
AcDbLine
10
6.433
20
-1.3375
30
0
11
6.433
21
-37.85
31
0
39
0
210
0
220
0
230
1
0
LINE
5
107
100
AcDbEntity
8
SK2
62
256
6
ByLayer
370
13
48
1
60
0
100
AcDbLine
10
-31.567
20
-35.85
30
0
11
6.433
21
-35.85
31
0
39
0
210
0
220
0
230
1
0
SOLID
5
108
100
AcDbEntity
8
SK2
62
256
6
ByLayer
370
18
48
1
60
0
100
AcDbTrace
10
-31.567
20
-35.85
30
0
11
-28.067002
21
-35.389216
31
0
12
-28.066998
22
-36.310784
32
0
13
-28.066998
23
-36.310784
33
0
39
0
210
0
220
0
230
1
0
SOLID
5
109
100
AcDbEntity
8
SK2
62
256
6
ByLayer
370
18
48
1
60
0
100
AcDbTrace
10
6.433
20
-35.85
30
0
11
2.933002
21
-36.310784
31
0
12
2.932998
22
-35.389216
32
0
13
2.932998
23
-35.389216
33
0
39
0
210
0
220
0
230
1
0
ENDBLK
5
10B
100
AcDbEntity
8
0
100
AcDbBlockEnd
0
BLOCK
5
110
100
AcDbEntity
8
0
100
AcDbBlockBegin
2
*D3
70
1
10
0
20
0
30
0
3
*D3
0
LINE
5
112
100
AcDbEntity
8
0
62
256
6
ByLayer
370
-2
48
1
60
0
100
AcDbLine
10
6.433
20
-1.3375
30
0
11
6.433
21
-23.75
31
0
39
0
210
0
220
0
230
1
0
LINE
5
113
100
AcDbEntity
8
0
62
256
6
ByLayer
370
-2
48
1
60
0
100
AcDbLine
10
3.983
20
-1.5875
30
0
11
3.983
21
-23.75
31
0
39
0
210
0
220
0
230
1
0
LINE
5
114
100
AcDbEntity
8
0
62
256
6
ByLayer
370
-2
48
1
60
0
100
AcDbLine
10
6.433
20
-21.75
30
0
11
31.575857
21
-21.75
31
0
39
0
210
0
220
0
230
1
0
LINE
5
115
100
AcDbEntity
8
0
62
256
6
ByLayer
370
-2
48
1
60
0
100
AcDbLine
10
9.933
20
-21.75
30
0
11
13.433
21
-21.75
31
0
39
0
210
0
220
0
230
1
0
LINE
5
116
100
AcDbEntity
8
0
62
256
6
ByLayer
370
-2
48
1
60
0
100
AcDbLine
10
0.483
20
-21.75
30
0
11
-3.017
21
-21.75
31
0
39
0
210
0
220
0
230
1
0
SOLID
5
117
100
AcDbEntity
8
0
62
256
6
ByLayer
370
-1
48
1
60
0
100
AcDbTrace
10
9.933
20
-21.166667
30
0
11
9.933
21
-22.333333
31
0
12
6.433
22
-21.75
32
0
13
6.433
23
-21.75
33
0
39
0
210
0
220
0
230
1
0
SOLID
5
118
100
AcDbEntity
8
0
62
256
6
ByLayer
370
-1
48
1
60
0
100
AcDbTrace
10
0.483
20
-22.333333
30
0
11
0.483
21
-21.166667
31
0
12
3.983
22
-21.75
32
0
13
3.983
23
-21.75
33
0
39
0
210
0
220
0
230
1
0
MTEXT
5
119
100
AcDbEntity
8
0
62
256
6
ByLayer
370
18
48
1
60
0
100
AcDbMText
10
22.504429
20
-15.75
30
0
210
0
220
0
230
1
1
\A1;2.45
40
3
41
0
44
1
50
0
71
5
72
5
7
iso_b_vert
0
POINT
5
11A
100
AcDbEntity
8
Defpoints
62
0
6
ByLayer
370
-1
48
1
60
0
100
AcDbPoint
10
6.433
20
0.25
30
0
39
0
210
0
220
0
230
1
50
360
0
POINT
5
11B
100
AcDbEntity
8
Defpoints
62
0
6
ByLayer
370
-1
48
1
60
0
100
AcDbPoint
10
3.983
20
0
30
0
39
0
210
0
220
0
230
1
50
360
0
POINT
5
11C
100
AcDbEntity
8
Defpoints
62
0
6
ByLayer
370
-1
48
1
60
0
100
AcDbPoint
10
3.983
20
-21.75
30
0
39
0
210
0
220
0
230
1
50
360
0
ENDBLK
5
111
100
AcDbEntity
8
0
100
AcDbBlockEnd
0
BLOCK
5
124
100
AcDbEntity
8
0
100
AcDbBlockBegin
2
_U1
70
0
10
0
20
0
30
0
3
_U1
0
MTEXT
5
11E
100
AcDbEntity
8
SK2
62
256
6
ByLayer
370
18
48
1
60
0
100
AcDbMText
10
10.592
20
-20.864886
30
0
210
0
220
0
230
1
1
\W0.7261;(2.45)
40
3
41
0
44
1.084337
50
0
71
7
72
5
7
iso_b_vert
0
LINE
5
11F
100
AcDbEntity
8
SK2
62
256
6
ByLayer
370
13
48
1
60
0
100
AcDbLine
10
6.433
20
-1.3375
30
0
11
6.433
21
-23.75
31
0
39
0
210
0
220
0
230
1
0
LINE
5
120
100
AcDbEntity
8
SK2
62
256
6
ByLayer
370
13
48
1
60
0
100
AcDbLine
10
3.983
20
-1.5875
30
0
11
3.983
21
-23.75
31
0
39
0
210
0
220
0
230
1
0
LINE
5
121
100
AcDbEntity
8
SK2
62
256
6
ByLayer
370
13
48
1
60
0
100
AcDbLine
10
-3.517
20
-21.75
30
0
11
20.220655
21
-21.75
31
0
39
0
210
0
220
0
230
1
0
SOLID
5
122
100
AcDbEntity
8
SK2
62
256
6
ByLayer
370
18
48
1
60
0
100
AcDbTrace
10
6.433
20
-21.75
30
0
11
9.932998
21
-21.289216
31
0
12
9.933002
22
-22.210784
32
0
13
9.933002
23
-22.210784
33
0
39
0
210
0
220
0
230
1
0
SOLID
5
123
100
AcDbEntity
8
SK2
62
256
6
ByLayer
370
18
48
1
60
0
100
AcDbTrace
10
3.983
20
-21.75
30
0
11
0.483002
21
-22.210784
31
0
12
0.482998
22
-21.289216
32
0
13
0.482998
23
-21.289216
33
0
39
0
210
0
220
0
230
1
0
ENDBLK
5
125
100
AcDbEntity
8
0
100
AcDbBlockEnd
0
BLOCK
5
12A
100
AcDbEntity
8
0
100
AcDbBlockBegin
2
*D5
70
1
10
0
20
0
30
0
3
*D5
0
LINE
5
12C
100
AcDbEntity
8
0
62
256
6
ByLayer
370
-2
48
1
60
0
100
AcDbLine
10
6.433
20
-1.3375
30
0
11
6.433
21
-31.75
31
0
39
0
210
0
220
0
230
1
0
LINE
5
12D
100
AcDbEntity
8
0
62
256
6
ByLayer
370
-2
48
1
60
0
100
AcDbLine
10
3.233
20
-1.5875
30
0
11
3.233
21
-31.75
31
0
39
0
210
0
220
0
230
1
0
LINE
5
12E
100
AcDbEntity
8
0
62
256
6
ByLayer
370
-2
48
1
60
0
100
AcDbLine
10
6.433
20
-29.75
30
0
11
28.718714
21
-29.75
31
0
39
0
210
0
220
0
230
1
0
LINE
5
12F
100
AcDbEntity
8
0
62
256
6
ByLayer
370
-2
48
1
60
0
100
AcDbLine
10
9.933
20
-29.75
30
0
11
13.433
21
-29.75
31
0
39
0
210
0
220
0
230
1
0
LINE
5
130
100
AcDbEntity
8
0
62
256
6
ByLayer
370
-2
48
1
60
0
100
AcDbLine
10
-0.267
20
-29.75
30
0
11
-3.767
21
-29.75
31
0
39
0
210
0
220
0
230
1
0
SOLID
5
131
100
AcDbEntity
8
0
62
256
6
ByLayer
370
-1
48
1
60
0
100
AcDbTrace
10
9.933
20
-29.166667
30
0
11
9.933
21
-30.333333
31
0
12
6.433
22
-29.75
32
0
13
6.433
23
-29.75
33
0
39
0
210
0
220
0
230
1
0
SOLID
5
132
100
AcDbEntity
8
0
62
256
6
ByLayer
370
-1
48
1
60
0
100
AcDbTrace
10
-0.267
20
-30.333333
30
0
11
-0.267
21
-29.166667
31
0
12
3.233
22
-29.75
32
0
13
3.233
23
-29.75
33
0
39
0
210
0
220
0
230
1
0
MTEXT
5
133
100
AcDbEntity
8
0
62
256
6
ByLayer
370
18
48
1
60
0
100
AcDbMText
10
21.075857
20
-23.75
30
0
210
0
220
0
230
1
1
\A1;3.2
40
3
41
0
44
1
50
0
71
5
72
5
7
iso_b_vert
0
POINT
5
134
100
AcDbEntity
8
Defpoints
62
0
6
ByLayer
370
-1
48
1
60
0
100
AcDbPoint
10
6.433
20
0.25
30
0
39
0
210
0
220
0
230
1
50
360
0
POINT
5
135
100
AcDbEntity
8
Defpoints
62
0
6
ByLayer
370
-1
48
1
60
0
100
AcDbPoint
10
3.233
20
0
30
0
39
0
210
0
220
0
230
1
50
360
0
POINT
5
136
100
AcDbEntity
8
Defpoints
62
0
6
ByLayer
370
-1
48
1
60
0
100
AcDbPoint
10
3.233
20
-29.75
30
0
39
0
210
0
220
0
230
1
50
360
0
ENDBLK
5
12B
100
AcDbEntity
8
0
100
AcDbBlockEnd
0
BLOCK
5
13E
100
AcDbEntity
8
0
100
AcDbBlockBegin
2
_U2
70
0
10
0
20
0
30
0
3
_U2
0
MTEXT
5
138
100
AcDbEntity
8
SK2
62
256
6
ByLayer
370
18
48
1
60
0
100
AcDbMText
10
9.592
20
-28.864886
30
0
210
0
220
0
230
1
1
\W0.7346;3.20
40
3
41
0
44
1.084337
50
0
71
7
72
5
7
iso_b_vert
0
LINE
5
139
100
AcDbEntity
8
SK2
62
256
6
ByLayer
370
13
48
1
60
0
100
AcDbLine
10
6.433
20
-1.3375
30
0
11
6.433
21
-31.75
31
0
39
0
210
0
220
0
230
1
0
LINE
5
13A
100
AcDbEntity
8
SK2
62
256
6
ByLayer
370
13
48
1
60
0
100
AcDbLine
10
3.233
20
-1.5875
30
0
11
3.233
21
-31.75
31
0
39
0
210
0
220
0
230
1
0
LINE
5
13B
100
AcDbEntity
8
SK2
62
256
6
ByLayer
370
13
48
1
60
0
100
AcDbLine
10
-4.267
20
-29.75
30
0
11
16.473913
21
-29.75
31
0
39
0
210
0
220
0
230
1
0
SOLID
5
13C
100
AcDbEntity
8
SK2
62
256
6
ByLayer
370
18
48
1
60
0
100
AcDbTrace
10
6.433
20
-29.75
30
0
11
9.932998
21
-29.289216
31
0
12
9.933002
22
-30.210784
32
0
13
9.933002
23
-30.210784
33
0
39
0
210
0
220
0
230
1
0
SOLID
5
13D
100
AcDbEntity
8
SK2
62
256
6
ByLayer
370
18
48
1
60
0
100
AcDbTrace
10
3.233
20
-29.75
30
0
11
-0.266998
21
-30.210784
31
0
12
-0.267002
22
-29.289216
32
0
13
-0.267002
23
-29.289216
33
0
39
0
210
0
220
0
230
1
0
ENDBLK
5
13F
100
AcDbEntity
8
0
100
AcDbBlockEnd
0
BLOCK
5
144
100
AcDbEntity
8
0
100
AcDbBlockBegin
2
*D7
70
1
10
0
20
0
30
0
3
*D7
0
LINE
5
146
100
AcDbEntity
8
0
62
256
6
ByLayer
370
-2
48
1
60
0
100
AcDbLine
10
-31.567
20
1.5875
30
0
11
-31.567
21
13.35
31
0
39
0
210
0
220
0
230
1
0
LINE
5
147
100
AcDbEntity
8
0
62
256
6
ByLayer
370
-2
48
1
60
0
100
AcDbLine
10
0
20
1.5875
30
0
11
0
21
13.35
31
0
39
0
210
0
220
0
230
1
0
LINE
5
148
100
AcDbEntity
8
0
62
256
6
ByLayer
370
-2
48
1
60
0
100
AcDbLine
10
-28.067
20
11.35
30
0
11
-3.5
21
11.35
31
0
39
0
210
0
220
0
230
1
0
SOLID
5
149
100
AcDbEntity
8
0
62
256
6
ByLayer
370
-1
48
1
60
0
100
AcDbTrace
10
-28.067
20
11.933333
30
0
11
-28.067
21
10.766667
31
0
12
-31.567
22
11.35
32
0
13
-31.567
23
11.35
33
0
39
0
210
0
220
0
230
1
0
SOLID
5
14A
100
AcDbEntity
8
0
62
256
6
ByLayer
370
-1
48
1
60
0
100
AcDbTrace
10
-3.5
20
10.766667
30
0
11
-3.5
21
11.933333
31
0
12
0
22
11.35
32
0
13
0
23
11.35
33
0
39
0
210
0
220
0
230
1
0
MTEXT
5
14B
100
AcDbEntity
8
0
62
256
6
ByLayer
370
18
48
1
60
0
100
AcDbMText
10
-15.7835
20
17.35
30
0
210
0
220
0
230
1
1
\A1;31.57
40
3
41
0
44
1
50
0
71
5
72
5
7
iso_b_vert
0
POINT
5
14C
100
AcDbEntity
8
Defpoints
62
0
6
ByLayer
370
-1
48
1
60
0
100
AcDbPoint
10
-31.567
20
0
30
0
39
0
210
0
220
0
230
1
50
360
0
POINT
5
14D
100
AcDbEntity
8
Defpoints
62
0
6
ByLayer
370
-1
48
1
60
0
100
AcDbPoint
10
0
20
0
30
0
39
0
210
0
220
0
230
1
50
360
0
POINT
5
14E
100
AcDbEntity
8
Defpoints
62
0
6
ByLayer
370
-1
48
1
60
0
100
AcDbPoint
10
0
20
11.35
30
0
39
0
210
0
220
0
230
1
50
360
0
ENDBLK
5
145
100
AcDbEntity
8
0
100
AcDbBlockEnd
0
BLOCK
5
156
100
AcDbEntity
8
0
100
AcDbBlockBegin
2
_U3
70
0
10
0
20
0
30
0
3
_U3
0
MTEXT
5
150
100
AcDbEntity
8
SK2
62
256
6
ByLayer
370
18
48
1
60
0
100
AcDbMText
10
-19.890928
20
12.235114
30
0
210
0
220
0
230
1
1
\W0.6864;31.57
40
3
41
0
44
1.084337
50
0
71
7
72
5
7
iso_b_vert
0
LINE
5
151
100
AcDbEntity
8
SK2
62
256
6
ByLayer
370
13
48
1
60
0
100
AcDbLine
10
-31.567
20
1.5875
30
0
11
-31.567
21
13.35
31
0
39
0
210
0
220
0
230
1
0
LINE
5
152
100
AcDbEntity
8
SK2
62
256
6
ByLayer
370
13
48
1
60
0
100
AcDbLine
10
0
20
1.5875
30
0
11
0
21
13.35
31
0
39
0
210
0
220
0
230
1
0
LINE
5
153
100
AcDbEntity
8
SK2
62
256
6
ByLayer
370
13
48
1
60
0
100
AcDbLine
10
-31.567
20
11.35
30
0
11
0
21
11.35
31
0
39
0
210
0
220
0
230
1
0
SOLID
5
154
100
AcDbEntity
8
SK2
62
256
6
ByLayer
370
18
48
1
60
0
100
AcDbTrace
10
-31.567
20
11.35
30
0
11
-28.067002
21
11.810784
31
0
12
-28.066998
22
10.889216
32
0
13
-28.066998
23
10.889216
33
0
39
0
210
0
220
0
230
1
0
SOLID
5
155
100
AcDbEntity
8
SK2
62
256
6
ByLayer
370
18
48
1
60
0
100
AcDbTrace
10
0
20
11.35
30
0
11
-3.499998
21
10.889216
31
0
12
-3.500002
22
11.810784
32
0
13
-3.500002
23
11.810784
33
0
39
0
210
0
220
0
230
1
0
ENDBLK
5
157
100
AcDbEntity
8
0
100
AcDbBlockEnd
0
BLOCK
5
15C
100
AcDbEntity
8
0
100
AcDbBlockBegin
2
*D9
70
1
10
0
20
0
30
0
3
*D9
0
LINE
5
15E
100
AcDbEntity
8
0
62
256
6
ByLayer
370
-2
48
1
60
0
100
AcDbLine
10
6.433
20
1.8375
30
0
11
6.433
21
7
31
0
39
0
210
0
220
0
230
1
0
LINE
5
15F
100
AcDbEntity
8
0
62
256
6
ByLayer
370
-2
48
1
60
0
100
AcDbLine
10
0
20
1.5875
30
0
11
0
21
7
31
0
39
0
210
0
220
0
230
1
0
LINE
5
160
100
AcDbEntity
8
0
62
256
6
ByLayer
370
-2
48
1
60
0
100
AcDbLine
10
0
20
5
30
0
11
-25
21
5
31
0
39
0
210
0
220
0
230
1
0
LINE
5
161
100
AcDbEntity
8
0
62
256
6
ByLayer
370
-2
48
1
60
0
100
AcDbLine
10
9.933
20
5
30
0
11
13.433
21
5
31
0
39
0
210
0
220
0
230
1
0
LINE
5
162
100
AcDbEntity
8
0
62
256
6
ByLayer
370
-2
48
1
60
0
100
AcDbLine
10
-3.5
20
5
30
0
11
-7
21
5
31
0
39
0
210
0
220
0
230
1
0
SOLID
5
163
100
AcDbEntity
8
0
62
256
6
ByLayer
370
-1
48
1
60
0
100
AcDbTrace
10
9.933
20
5.583333
30
0
11
9.933
21
4.416667
31
0
12
6.433
22
5
32
0
13
6.433
23
5
33
0
39
0
210
0
220
0
230
1
0
SOLID
5
164
100
AcDbEntity
8
0
62
256
6
ByLayer
370
-1
48
1
60
0
100
AcDbTrace
10
-3.5
20
4.416667
30
0
11
-3.5
21
5.583333
31
0
12
0
22
5
32
0
13
0
23
5
33
0
39
0
210
0
220
0
230
1
0
MTEXT
5
165
100
AcDbEntity
8
0
62
256
6
ByLayer
370
18
48
1
60
0
100
AcDbMText
10
-16
20
11
30
0
210
0
220
0
230
1
1
\A1;6.43
40
3
41
0
44
1
50
0
71
5
72
5
7
iso_b_vert
0
POINT
5
166
100
AcDbEntity
8
Defpoints
62
0
6
ByLayer
370
-1
48
1
60
0
100
AcDbPoint
10
6.433
20
0.25
30
0
39
0
210
0
220
0
230
1
50
360
0
POINT
5
167
100
AcDbEntity
8
Defpoints
62
0
6
ByLayer
370
-1
48
1
60
0
100
AcDbPoint
10
0
20
0
30
0
39
0
210
0
220
0
230
1
50
360
0
POINT
5
168
100
AcDbEntity
8
Defpoints
62
0
6
ByLayer
370
-1
48
1
60
0
100
AcDbPoint
10
0
20
5
30
0
39
0
210
0
220
0
230
1
50
360
0
ENDBLK
5
15D
100
AcDbEntity
8
0
100
AcDbBlockEnd
0
BLOCK
5
170
100
AcDbEntity
8
0
100
AcDbBlockBegin
2
_U4
70
0
10
0
20
0
30
0
3
_U4
0
MTEXT
5
16A
100
AcDbEntity
8
2
62
256
6
ByLayer
370
18
48
1
60
0
100
AcDbMText
10
-9.841
20
5.885114
30
0
210
0
220
0
230
1
1
\W0.7640;6.43
40
3
41
0
44
1.084337
50
0
71
7
72
5
7
iso_b_vert
0
LINE
5
16B
100
AcDbEntity
8
2
62
256
6
ByLayer
370
13
48
1
60
0
100
AcDbLine
10
6.433
20
1.8375
30
0
11
6.433
21
7
31
0
39
0
210
0
220
0
230
1
0
LINE
5
16C
100
AcDbEntity
8
2
62
256
6
ByLayer
370
13
48
1
60
0
100
AcDbLine
10
0
20
1.5875
30
0
11
0
21
7
31
0
39
0
210
0
220
0
230
1
0
LINE
5
16D
100
AcDbEntity
8
2
62
256
6
ByLayer
370
13
48
1
60
0
100
AcDbLine
10
-10
20
5
30
0
11
13.933
21
5
31
0
39
0
210
0
220
0
230
1
0
SOLID
5
16E
100
AcDbEntity
8
2
62
256
6
ByLayer
370
18
48
1
60
0
100
AcDbTrace
10
6.433
20
5
30
0
11
9.932998
21
5.460784
31
0
12
9.933002
22
4.539216
32
0
13
9.933002
23
4.539216
33
0
39
0
210
0
220
0
230
1
0
SOLID
5
16F
100
AcDbEntity
8
2
62
256
6
ByLayer
370
18
48
1
60
0
100
AcDbTrace
10
0
20
5
30
0
11
-3.499998
21
4.539216
31
0
12
-3.500002
22
5.460784
32
0
13
-3.500002
23
5.460784
33
0
39
0
210
0
220
0
230
1
0
ENDBLK
5
171
100
AcDbEntity
8
0
100
AcDbBlockEnd
0
ENDSEC
0
SECTION
2
ENTITIES
0
ARC
5
BD
100
AcDbEntity
8
1
62
256
6
ByLayer
370
18
48
1
60
0
100
AcDbCircle
39
0
10
2.433044
20
-1.25
30
0
40
1
210
0
220
0
230
1
100
AcDbArc
50
90
51
120
0
ARC
5
BE
100
AcDbEntity
8
1
62
256
6
ByLayer
370
18
48
1
60
0
100
AcDbCircle
39
0
10
2.433044
20
1.25
30
0
40
1
210
0
220
0
230
1
100
AcDbArc
50
240
51
270
0
ARC
5
BF
100
AcDbEntity
8
SK2
62
256
6
ByLayer
370
13
48
1
60
0
100
AcDbCircle
39
0
10
6.433
20
0
30
0
40
16.35
210
0
220
0
230
1
100
AcDbArc
50
10.57289
51
65
0
ARC
5
C0
100
AcDbEntity
8
SK2
62
256
6
ByLayer
370
13
48
1
60
0
100
AcDbCircle
39
0
10
6.433
20
0
30
0
40
16.35
210
0
220
0
230
1
100
AcDbArc
50
295
51
349.42711
0
POINT
5
70
100
AcDbEntity
8
80
62
256
6
ByLayer
370
18
48
1
60
0
100
AcDbPoint
10
0
20
0
30
0
39
0
210
0
220
0
230
1
50
360
0
POINT
5
72
100
AcDbEntity
8
81
62
256
6
ByLayer
370
18
48
1
60
0
100
AcDbPoint
10
6.433
20
0
30
0
39
0
210
0
220
0
230
1
50
360
0
POINT
5
74
100
AcDbEntity
8
1
62
256
6
ByLayer
370
18
48
1
60
1
100
AcDbPoint
10
-31.567
20
1.5
30
0
39
0
210
0
220
0
230
1
50
360
0
POINT
5
76
100
AcDbEntity
8
1
62
256
6
ByLayer
370
18
48
1
60
1
100
AcDbPoint
10
6.433
20
0.25
30
0
39
0
210
0
220
0
230
1
50
360
0
POINT
5
77
100
AcDbEntity
8
1
62
256
6
ByLayer
370
18
48
1
60
1
100
AcDbPoint
10
6.433
20
0.25
30
0
39
0
210
0
220
0
230
1
50
360
0
POINT
5
78
100
AcDbEntity
8
1
62
256
6
ByLayer
370
18
48
1
60
1
100
AcDbPoint
10
3.983
20
0
30
0
39
0
210
0
220
0
230
1
50
360
0
POINT
5
79
100
AcDbEntity
8
1
62
256
6
ByLayer
370
18
48
1
60
1
100
AcDbPoint
10
6.433
20
0.25
30
0
39
0
210
0
220
0
230
1
50
360
0
POINT
5
7A
100
AcDbEntity
8
1
62
256
6
ByLayer
370
18
48
1
60
1
100
AcDbPoint
10
3.233
20
0
30
0
39
0
210
0
220
0
230
1
50
360
0
POINT
5
7B
100
AcDbEntity
8
1
62
256
6
ByLayer
370
18
48
1
60
1
100
AcDbPoint
10
-31.567
20
0
30
0
39
0
210
0
220
0
230
1
50
360
0
POINT
5
7C
100
AcDbEntity
8
1
62
256
6
ByLayer
370
18
48
1
60
1
100
AcDbPoint
10
0
20
0
30
0
39
0
210
0
220
0
230
1
50
360
0
POINT
5
7D
100
AcDbEntity
8
1
62
256
6
ByLayer
370
18
48
1
60
1
100
AcDbPoint
10
6.433
20
0.25
30
0
39
0
210
0
220
0
230
1
50
360
0
POINT
5
7E
100
AcDbEntity
8
1
62
256
6
ByLayer
370
18
48
1
60
1
100
AcDbPoint
10
0
20
0
30
0
39
0
210
0
220
0
230
1
50
360
0
SPLINE
5
C1
100
AcDbEntity
8
1
62
256
6
ByLayer
370
18
48
1
60
0
100
AcDbSpline
70
4
71
3
72
26
73
22
40
0
40
0
40
0
40
0
40
0.17447221846219
40
0.17447221846219
40
0.277663191154416
40
0.277663191154416
40
0.380854163846641
40
0.380854163846641
40
0.484045136538866
40
0.484045136538866
40
0.587236109231092
40
0.587236109231092
40
0.690427081923317
40
0.690427081923317
40
0.74202256826943
40
0.74202256826943
40
0.793618054615543
40
0.793618054615543
40
0.896809027307772
40
0.896809027307772
40
1
40
1
40
1
40
1
41
1
10
3.34558138938911
20
-0.218139635308233
30
0
41
1
10
3.3325660018061
20
-0.223128266648075
30
0
41
1
10
3.32019413040294
20
-0.2279363383185
30
0
41
1
10
3.3016457910143
20
-0.234910412473226
30
0
41
1
10
3.29497589645848
20
-0.237361486314654
30
0
41
1
10
3.2823384408533
20
-0.241767672623723
30
0
41
1
10
3.27643602075762
20
-0.243700463500773
30
0
41
1
10
3.26552090093585
20
-0.246883870084901
30
0
41
1
10
3.26050713318821
20
-0.248135667389335
30
0
41
1
10
3.25148106236486
20
-0.249766744507355
30
0
41
1
10
3.24756036162552
20
-0.250124831487852
30
0
41
1
10
3.24105384518495
20
-0.249797308736703
30
0
41
1
10
3.23844779130707
20
-0.249116373897635
30
0
41
1
10
3.23560074213597
20
-0.247198982681113
30
0
41
1
10
3.23482654597981
20
-0.246403187502239
30
0
41
1
10
3.23368065398847
20
-0.244522193669525
30
0
41
1
10
3.23330603806829
20
-0.243439959390145
30
0
41
1
10
3.23276437733344
20
-0.239773856443151
30
0
41
1
10
3.23317593027099
20
-0.236772033794523
30
0
41
1
10
3.2355642323065
20
-0.229648284106304
30
0
41
1
10
3.23754974263102
20
-0.225533959836099
30
0
41
1
10
3.24025188315494
20
-0.221016128181247
30
0
0
SPLINE
5
C2
100
AcDbEntity
8
1
62
256
6
ByLayer
370
18
48
1
60
0
100
AcDbSpline
70
4
71
3
72
13
73
9
40
0
40
0
40
0
40
0
40
0.25
40
0.5
40
0.5
40
0.75
40
0.75
40
1
40
1
40
1
40
1
41
1
10
3.24025188315858
20
-0.221016128173659
30
0
41
1
10
3.26263642266366
20
-0.218440537895162
30
0
41
1
10
3.30762852223717
20
-0.214427348255072
30
0
41
1
10
3.3530521752233
20
-0.213343329765507
30
0
41
1
10
3.39869419884866
20
-0.21383677000324
30
0
41
1
10
3.42174685582648
20
-0.214887074145139
30
0
41
1
10
3.46714914516878
20
-0.218373228031481
30
0
41
1
10
3.48956633369474
20
-0.220801250689476
30
0
41
1
10
3.51170000000175
20
-0.223681171988346
30
0
0
SPLINE
5
C3
100
AcDbEntity
8
1
62
256
6
ByLayer
370
18
48
1
60
0
100
AcDbSpline
70
4
71
3
72
24
73
20
40
0
40
0
40
0
40
0
40
0.169366423587491
40
0.169366423587491
40
0.338732847174982
40
0.338732847174982
40
0.423416058968754
40
0.423416058968754
40
0.508099270762525
40
0.508099270762525
40
0.67746569435002
40
0.67746569435002
40
0.762148906143788
40
0.762148906143788
40
0.846832117937557
40
0.846832117937557
40
0.931515329731325
40
0.931515329731325
40
1
40
1
40
1
40
1
41
1
10
3.51170000000002
20
0.165847264741132
30
0
41
1
10
3.49265002530879
20
0.170000115969486
30
0
41
1
10
3.47398370008835
20
0.174821004238367
30
0
41
1
10
3.43741764478494
20
0.185447389106599
30
0
41
1
10
3.41959381666362
20
0.191233418195395
30
0
41
1
10
3.39373486632914
20
0.200220417153702
30
0
41
1
10
3.38523044461579
20
0.203277981184499
30
0
41
1
10
3.36868067155092
20
0.20936634326074
30
0
41
1
10
3.36062245629648
20
0.212401143077187
30
0
41
1
10
3.33711543480342
20
0.221355297940022
30
0
41
1
10
3.32232575052262
20
0.22713486081301
30
0
41
1
10
3.30164579101427
20
0.234910412473226
30
0
41
1
10
3.29497589645848
20
0.237361486314654
30
0
41
1
10
3.2823384408533
20
0.241767672623723
30
0
41
1
10
3.27643602075762
20
0.243700463500773
30
0
41
1
10
3.26552090093583
20
0.246883870084901
30
0
41
1
10
3.26050713318819
20
0.248135667389335
30
0
41
1
10
3.25234433372611
20
0.2496107450485
30
0
41
1
10
3.24908196934948
20
0.249971100932584
30
0
41
1
10
3.24624673052
20
0.24999821300176
30
0
0
SPLINE
5
C4
100
AcDbEntity
8
1
62
256
6
ByLayer
370
18
48
1
60
0
100
AcDbSpline
70
4
71
3
72
12
73
8
40
0
40
0
40
0
40
0
40
0.168115831733821
40
0.168115831733821
40
0.584057915866911
40
0.584057915866911
40
1
40
1
40
1
40
1
41
1
10
3.34825516270684
20
0.213673710470715
30
0
41
1
10
3.35744339115615
20
0.213519459324061
30
0
41
1
10
3.36664937072055
20
0.213490330333116
30
0
41
1
10
3.39869419884866
20
0.21383677000324
30
0
41
1
10
3.42174685582648
20
0.214887074145139
30
0
41
1
10
3.46714914516878
20
0.218373228031481
30
0
41
1
10
3.48956633369471
20
0.220801250689448
30
0
41
1
10
3.51170000000172
20
0.223681171988346
30
0
0
SPLINE
5
C5
100
AcDbEntity
8
1
62
256
6
ByLayer
370
18
48
1
60
0
100
AcDbSpline
70
4
71
3
72
52
73
48
40
0
40
0
40
0
40
0
40
0.0358385637320047
40
0.0358385637320047
40
0.0624647639579771
40
0.0624647639579771
40
0.0890909641839494
40
0.0890909641839494
40
0.142343364635885
40
0.142343364635885
40
0.248848165539756
40
0.248848165539756
40
0.275474365765728
40
0.275474365765728
40
0.3021005659917
40
0.3021005659917
40
0.355352966443654
40
0.355352966443654
40
0.408605366895609
40
0.408605366895609
40
0.461857767347563
40
0.461857767347563
40
0.515110167799517
40
0.515110167799517
40
0.568362568251471
40
0.568362568251471
40
0.594988768477444
40
0.594988768477444
40
0.621614968703416
40
0.621614968703416
40
0.674867369155361
40
0.674867369155361
40
0.728119769607306
40
0.728119769607306
40
0.78137217005925
40
0.78137217005925
40
0.834624570511195
40
0.834624570511195
40
0.861250770737172
40
0.861250770737172
40
0.887876970963149
40
0.887876970963149
40
0.941129371415113
40
0.941129371415113
40
0.994381771867077
40
0.994381771867077
40
1
40
1
40
1
40
1
41
1
10
4.50564445132016
20
0.24999904486404
30
0
41
1
10
4.52534794385235
20
0.250001218808876
30
0
41
1
10
4.54503850153225
20
0.249229007086797
30
0
41
1
10
4.57928578456188
20
0.246537368386924
30
0
41
1
10
4.59388804166576
20
0.244966514141538
30
0
41
1
10
4.62314254788203
20
0.240993953344855
30
0
41
1
10
4.63782313129144
20
0.238585186171292
30
0
41
1
10
4.681695143958
20
0.230177644565515
30
0
41
1
10
4.71072471985377
20
0.223010013873335
30
0
41
1
10
4.79751010857592
20
0.197177218574836
30
0
41
1
10
4.85518521570594
20
0.174416669775098
30
0
41
1
10
4.92821271784112
20
0.140232080140436
30
0
41
1
10
4.94288603076751
20
0.133121122532174
30
0
41
1
10
4.97214472751403
20
0.118532882709786
30
0
41
1
10
4.98675924700359
20
0.111039993924464
30
0
41
1
10
5.03060192555034
20
0.0880362741187923
30
0
41
1
10
5.05988579657441
20
0.0719640319562984
30
0
41
1
10
5.1184205916195
20
0.0389418434294839
30
0
41
1
10
5.14761531569184
20
0.0221530835719079
30
0
41
1
10
5.20610784721015
20
-0.0115459551668664
30
0
41
1
10
5.23545988833917
20
-0.0284992879003028
30
0
41
1
10
5.2938860516669
20
-0.061757158881818
30
0
41
1
10
5.32308101371495
20
-0.0780012980043523
30
0
41
1
10
5.38168400319961
20
-0.109306649198771
30
0
41
1
10
5.41096161327152
20
-0.124306224865819
30
0
41
1
10
5.45476290222678
20
-0.14541221996339
30
0
41
1
10
5.46936855345979
20
-0.152205821211169
30
0
41
1
10
5.4986373116709
20
-0.16524512108424
30
0
41
1
10
5.51331422419065
20
-0.171504601835721
30
0
41
1
10
5.55724057410299
20
-0.18933514259831
30
0
41
1
10
5.58643057452639
20
-0.199979720936682
30
0
41
1
10
5.6448782982954
20
-0.218487558518149
30
0
41
1
10
5.67424625186959
20
-0.22630206108883
30
0
41
1
10
5.7324378617775
20
-0.238640976880674
30
0
41
1
10
5.76137471762513
20
-0.24321054806822
30
0
41
1
10
5.81915182815305
20
-0.249067958224316
30
0
41
1
10
5.8480490007928
20
-0.250337146312091
30
0
41
1
10
5.8915869466274
20
-0.249717337709456
30
0
41
1
10
5.90613102388664
20
-0.249089643675717
30
0
41
1
10
5.93531182118204
20
-0.246978596623592
30
0
41
1
10
5.94997575431046
20
-0.245489960701121
30
0
41
1
10
5.99383341610246
20
-0.239762631287164
30
0
41
1
10
6.02301068190667
20
-0.234290194611418
30
0
41
1
10
6.08149784613283
20
-0.220229876037479
30
0
41
1
10
6.11084318399941
20
-0.211618856478935
30
0
41
1
10
6.14316890934236
20
-0.200556522748542
30
0
41
1
10
6.14625441445219
20
-0.199485058731255
30
0
41
1
10
6.14934040894144
20
-0.198398216677447
30
0
0
SPLINE
5
C6
100
AcDbEntity
8
1
62
256
6
ByLayer
370
18
48
1
60
0
100
AcDbSpline
70
4
71
3
72
40
73
36
40
0
40
0
40
0
40
0
40
0.0694299764497147
40
0.0694299764497147
40
0.138859952899429
40
0.138859952899429
40
0.208289929349144
40
0.208289929349144
40
0.277719905798859
40
0.277719905798859
40
0.347149882248574
40
0.347149882248574
40
0.416579858698288
40
0.416579858698288
40
0.451294846923146
40
0.451294846923146
40
0.486009835148003
40
0.486009835148003
40
0.555439811597718
40
0.555439811597718
40
0.624869788047432
40
0.624869788047432
40
0.694299764497147
40
0.694299764497147
40
0.763729740946862
40
0.763729740946862
40
0.833159717396576
40
0.833159717396576
40
0.867874705621434
40
0.867874705621434
40
0.902589693846291
40
0.902589693846291
40
0.972019670296018
40
0.972019670296018
40
1
40
1
40
1
40
1
41
1
10
3.51169999999999
20
0.165847264741132
30
0
41
1
10
3.54099286323054
20
0.153151590690413
30
0
41
1
10
3.57021802179321
20
0.13939755602496
30
0
41
1
10
3.62876353349677
20
0.110123829417517
30
0
41
1
10
3.65808233517706
20
0.0946093827413677
30
0
41
1
10
3.71647443713758
20
0.0625105429686812
30
0
41
1
10
3.74569302497102
20
0.0459736271309339
30
0
41
1
10
3.80432756848387
20
0.012393655471385
30
0
41
1
10
3.83352164417343
20
-0.0045370674259573
30
0
41
1
10
3.89191829961709
20
-0.0382359019375258
30
0
41
1
10
3.92125659794229
20
-0.0549508760988431
30
0
41
1
10
3.97975983329496
20
-0.0872946606138782
30
0
41
1
10
4.00894453612068
20
-0.102949568372622
30
0
41
1
10
4.05280905359723
20
-0.125344001418341
30
0
41
1
10
4.06747209937276
20
-0.132617634934547
30
0
41
1
10
4.09674132299463
20
-0.14662712390188
30
0
41
1
10
4.11135755207516
20
-0.153378083203108
30
0
41
1
10
4.15519643514534
20
-0.172811942132142
30
0
41
1
10
4.18444863078679
20
-0.184696020048335
30
0
41
1
10
4.24299092277528
20
-0.205863319613599
30
0
41
1
10
4.2721829010101
20
-0.215031641543987
30
0
41
1
10
4.33065746228118
20
-0.230352207917036
30
0
41
1
10
4.36000375700959
20
-0.236515471278409
30
0
41
1
10
4.41843864608805
20
-0.245503373518972
30
0
41
1
10
4.44763097868798
20
-0.248324889460775
30
0
41
1
10
4.50620299414373
20
-0.250569361855099
30
0
41
1
10
4.53549109340975
20
-0.249979378237811
30
0
41
1
10
4.57928578456188
20
-0.246537368386924
30
0
41
1
10
4.59388804166576
20
-0.244966514141538
30
0
41
1
10
4.62314254788197
20
-0.240993953344855
30
0
41
1
10
4.63782313129144
20
-0.238585186171321
30
0
41
1
10
4.681695143958
20
-0.230177644565515
30
0
41
1
10
4.71072471985383
20
-0.223010013873363
30
0
41
1
10
4.75131137381021
20
-0.210928870504148
30
0
41
1
10
4.76296218258557
20
-0.207233775026396
30
0
41
1
10
4.77461320725871
20
-0.203321580782955
30
0
0
SPLINE
5
C7
100
AcDbEntity
8
1
62
256
6
ByLayer
370
18
48
1
60
0
100
AcDbSpline
70
4
71
3
72
29
73
25
40
0
40
0
40
0
40
0
40
0.0207598662863855
40
0.0207598662863855
40
0.118683879657747
40
0.118683879657747
40
0.216607893029109
40
0.216607893029109
40
0.412455919771832
40
0.412455919771832
40
0.608303946514555
40
0.608303946514555
40
0.804151973257278
40
0.804151973257278
40
0.853113979942976
40
0.853113979942976
40
0.902075986628674
40
0.902075986628674
40
0.926556989971506
40
0.926556989971506
40
0.951037993314337
40
0.975518996657169
40
0.975518996657169
40
1
40
1
40
1
40
1
41
1
10
5.86784844089203
20
0.249998657095119
30
0
41
1
10
5.87092238188524
20
0.249992636756957
30
0
41
1
10
5.87399762014837
20
0.249967740333119
30
0
41
1
10
5.8915869466274
20
0.249717337709456
30
0
41
1
10
5.9061310238867
20
0.249089643675717
30
0
41
1
10
5.93531182118198
20
0.246978596623563
30
0
41
1
10
5.9499757543104
20
0.245489960701121
30
0
41
1
10
5.99383341610246
20
0.239762631287192
30
0
41
1
10
6.02301068190667
20
0.234290194611418
30
0
41
1
10
6.08149784613283
20
0.220229876037479
30
0
41
1
10
6.11084318399935
20
0.211618856478935
30
0
41
1
10
6.16932472266274
20
0.191605622718583
30
0
41
1
10
6.1986148241391
20
0.1801842481172
30
0
41
1
10
6.23522554737588
20
0.164532007461844
30
0
41
1
10
6.24253325108214
20
0.161316166847115
30
0
41
1
10
6.25713678538295
20
0.15473417464213
30
0
41
1
10
6.2644805650317
20
0.151435051543956
30
0
41
1
10
6.27550500227107
20
0.146403647784638
30
0
41
1
10
6.27917174145875
20
0.144699081306101
30
0
41
1
10
6.28644257655139
20
0.141164262034749
30
0
41
1
10
6.29362837504107
20
0.137469189726517
30
0
41
1
10
6.30092335249998
20
0.133863246345442
30
0
41
1
10
6.3084552139286
20
0.130588107202811
30
0
41
1
10
6.31235930286925
20
0.129146826806362
30
0
41
1
10
6.31642308546122
20
0.12794474303314
30
0
0
SPLINE
5
C8
100
AcDbEntity
8
1
62
256
6
ByLayer
370
18
48
1
60
0
100
AcDbSpline
70
4
71
3
72
18
73
14
40
0
40
0
40
0
40
0
40
0.249999999999979
40
0.249999999999979
40
0.374999999999989
40
0.374999999999989
40
0.499999999999999
40
0.499999999999999
40
0.750000000000017
40
0.750000000000017
40
0.875000000000009
40
0.875000000000009
40
1
40
1
40
1
40
1
41
1
10
6.31642308546122
20
0.12794474303314
30
0
41
1
10
6.32426066155392
20
0.116766707307505
30
0
41
1
10
6.33207438007912
20
0.107858721769645
30
0
41
1
10
6.34380421269987
20
0.096255705089618
30
0
41
1
10
6.34771368338784
20
0.0926703537404308
30
0
41
1
10
6.35552399550113
20
0.0858565954575283
30
0
41
1
10
6.3594289899948
20
0.0826189862384297
30
0
41
1
10
6.37099082287915
20
0.0737000818687079
30
0
41
1
10
6.37855302452488
20
0.0688511539888736
30
0
41
1
10
6.38916961117388
20
0.0631387485323387
30
0
41
1
10
6.39258525859105
20
0.061490383906829
30
0
41
1
10
6.39884372562369
20
0.0587130093594794
30
0
41
1
10
6.40170309345706
20
0.0575839136289744
30
0
41
1
10
6.4038557884619
20
0.0567217227975334
30
0
0
SPLINE
5
C9
100
AcDbEntity
8
1
62
256
6
ByLayer
370
18
48
1
60
0
100
AcDbSpline
70
4
71
3
72
56
73
52
40
0
40
0
40
0
40
0
40
0.0071180464613355
40
0.0071180464613355
40
0.014236092922671
40
0.0213541393840065
40
0.0213541393840065
40
0.028472185845342
40
0.028472185845342
40
0.042708278768013
40
0.042708278768013
40
0.056944371690684
40
0.056944371690684
40
0.113888743381368
40
0.113888743381368
40
0.170833115072052
40
0.170833115072052
40
0.227777486762736
40
0.227777486762736
40
0.256249672608073
40
0.256249672608073
40
0.28472185845341
40
0.313194044298747
40
0.313194044298747
40
0.341666230144084
40
0.341666230144084
40
0.398610601834758
40
0.398610601834758
40
0.455554973525432
40
0.455554973525432
40
0.512499345216106
40
0.512499345216106
40
0.569443716906781
40
0.569443716906781
40
0.597915902752123
40
0.597915902752123
40
0.626388088597465
40
0.626388088597465
40
0.683332460288159
40
0.683332460288159
40
0.740276831978853
40
0.740276831978853
40
0.797221203669548
40
0.797221203669548
40
0.854165575360242
40
0.854165575360242
40
0.911109947050936
40
0.911109947050936
40
0.968054318741631
40
0.968054318741631
40
1
40
1
40
1
40
1
41
1
10
6.31642308546128
20
-0.240613181819867
30
0
41
1
10
6.31236011606762
20
-0.240233442667346
30
0
41
1
10
6.30845664870338
20
-0.239765206502142
30
0
41
1
10
6.30092590977762
20
-0.238643789900351
30
0
41
1
10
6.29363204637684
20
-0.237355214349833
30
0
41
1
10
6.28644781379808
20
-0.235894964386375
30
0
41
1
10
6.27917843133514
20
-0.23443295979385
30
0
41
1
10
6.27551233394166
20
-0.233695651792658
30
0
41
1
10
6.2644895716536
20
-0.231428771520171
30
0
41
1
10
6.25714667607065
20
-0.229819240880886
30
0
41
1
10
6.24254533149855
20
-0.226341524154918
30
0
41
1
10
6.23523870984565
20
-0.224507225736261
30
0
41
1
10
6.19863236297817
20
-0.214901545581597
30
0
41
1
10
6.16935089442848
20
-0.205650971470078
30
0
41
1
10
6.11087719490308
20
-0.184485185055109
30
0
41
1
10
6.08153746519508
20
-0.172558372156999
30
0
41
1
10
6.02306678413152
20
-0.146592036047849
30
0
41
1
10
5.9938931627409
20
-0.132533397037008
30
0
41
1
10
5.95003424472151
20
-0.110083578928396
30
0
41
1
10
5.93538060417671
20
-0.102392493671573
30
0
41
1
10
5.90613964278566
20
-0.0867469125749949
30
0
41
1
10
5.87692669671844
20
-0.0708128386896192
30
0
41
1
10
5.84771193435779
20
-0.0544001830113814
30
0
41
1
10
5.81846540534491
20
-0.0377992134850729
30
0
41
1
10
5.80380937747975
20
-0.0293863000005388
30
0
41
1
10
5.75993153119589
20
-0.004067125139926
30
0
41
1
10
5.73074092220287
20
0.0128394074421578
30
0
41
1
10
5.67225611851421
20
0.0463152511380827
30
0
41
1
10
5.64291210539545
20
0.06291520841188
30
0
41
1
10
5.58449469519576
20
0.0949833268952034
30
0
41
1
10
5.55530180219989
20
0.110409888334573
30
0
41
1
10
5.49669762841506
20
0.139653812714812
30
0
41
1
10
5.46744038811534
20
0.153399790737495
30
0
41
1
10
5.42364429391489
20
0.172343854761266
30
0
41
1
10
5.4090363668472
20
0.178367077367625
30
0
41
1
10
5.37976568013716
20
0.189786888670056
30
0
41
1
10
5.36509103016107
20
0.195191624025824
30
0
41
1
10
5.3211785470566
20
0.210339221660462
30
0
41
1
10
5.29199464894202
20
0.219049937522726
30
0
41
1
10
5.23354925682395
20
0.23343993979509
30
0
41
1
10
5.20420759323821
20
0.239072113263973
30
0
41
1
10
5.14574318624636
20
0.246975488823097
30
0
41
1
10
5.1165461741308
20
0.2492719888279
30
0
41
1
10
5.05796516494274
20
0.250434027961376
30
0
41
1
10
5.02874381046621
20
0.249291435144755
30
0
41
1
10
4.97028568855978
20
0.243651624278726
30
0
41
1
10
4.94095797843073
20
0.239131938963482
30
0
41
1
10
4.88250118483097
20
0.226865913865737
30
0
41
1
10
4.85331517242685
20
0.219170391460778
30
0
41
1
10
4.80763598601936
20
0.204888592846828
30
0
41
1
10
4.79120066551968
20
0.199294145565801
30
0
41
1
10
4.77477913860679
20
0.193281817573421
30
0
0
SPLINE
5
CA
100
AcDbEntity
8
1
62
256
6
ByLayer
370
18
48
1
60
0
100
AcDbSpline
70
4
71
3
72
10
73
6
40
0
40
0
40
0
40
0
40
0.135882437806086
40
0.135882437806086
40
1
40
1
40
1
40
1
41
1
10
3.71334991992569
20
-0.24999922294873
30
0
41
1
10
3.70421843999804
20
-0.250015021655202
30
0
41
1
10
3.6950997058091
20
-0.249863664679282
30
0
41
1
10
3.62805740862316
20
-0.247524973164559
30
0
41
1
10
3.570278562662
20
-0.238834497227629
30
0
41
1
10
3.51169999999999
20
-0.223681171988091
30
0
0
SPLINE
5
CB
100
AcDbEntity
8
1
62
256
6
ByLayer
370
18
48
1
60
0
100
AcDbSpline
70
4
71
3
72
42
73
38
40
0
40
0
40
0
40
0
40
0.0016191043166273
40
0.0334425970707606
40
0.0652660898248935
40
0.0891337093904934
40
0.113001328956093
40
0.144824821710226
40
0.176648314464359
40
0.208471807218492
40
0.240295299972625
40
0.272118792726758
40
0.288030539103824
40
0.319854031857958
40
0.351677524612091
40
0.383501017366224
40
0.415324510120357
40
0.44714800287449
40
0.463059749251556
40
0.494883242005689
40
0.526706734759822
40
0.558530227513955
40
0.590353720268088
40
0.622177213022221
40
0.646044832587821
40
0.669912452153421
40
0.701735944907554
40
0.733559437661687
40
0.76538293041582
40
0.797206423169952
40
0.821074042735552
40
0.844941662301152
40
0.876765155055285
40
0.908588647809418
40
0.940412140563551
40
0.972235633317684
40
1
40
1
40
1
40
1
41
1
10
5.1081152283806
20
0.0462900123372947
30
0
41
1
10
5.10850228138054
20
0.0462524349553064
30
0
41
1
10
5.11649686059917
20
0.0454751760103988
30
0
41
1
10
5.13209897101961
20
0.0439142702486208
30
0
41
0.999999999999999
10
5.15301968857788
20
0.0417125292808294
30
0
41
1
10
5.1720385344492
20
0.0396274039086677
30
0
41
1
10
5.19105739088195
20
0.0374740987449798
30
0
41
1
10
5.21197814715421
20
0.0350209498430161
30
0
41
1
10
5.23480080913299
20
0.0322451556429542
30
0
41
1
10
5.25762349095663
20
0.0293751888800671
30
0
41
1
10
5.28044619369797
20
0.026417260176089
30
0
41
1
10
5.29946513097426
20
0.0238988988942594
30
0
41
1
10
5.31848408266432
20
0.0213415573365978
30
0
41
1
10
5.33750304910626
20
0.0187487145508669
30
0
41
1
10
5.36032583350032
20
0.0155869476444081
30
0
41
1
10
5.38314864366163
20
0.0123813811108846
30
0
41
1
10
5.40597148055451
20
0.0091400714303518
30
0
41
1
10
5.4249905348851
20
0.0064129660739809
30
0
41
1
10
5.44400960568373
20
0.0036706459960669
30
0
41
1
10
5.46302870144586
20
0.0009212181369378
30
0
41
1
10
5.48585162197759
20
-0.0023715954020815
30
0
41
1
10
5.50867454141701
20
-0.0056535445509382
30
0
41
1
10
5.53149746113155
20
-0.0089202428813451
30
0
41
1
10
5.55241847078784
20
-0.0118920002649929
30
0
41
1
10
5.57143757050349
20
-0.0145710800916277
30
0
41
1
10
5.59045667021035
20
-0.0172268483700861
30
0
41
1
10
5.61137767988998
20
-0.0201161019996334
30
0
41
1
10
5.63420059954013
20
-0.0232148336663158
30
0
41
1
10
5.65702351919026
20
-0.0262408189135783
30
0
41
1
10
5.67794452886957
20
-0.028945325297201
30
0
41
1
10
5.69696362857803
20
-0.0313433855800724
30
0
41
0.999999999999999
10
5.71598272828649
20
-0.0336879519570346
30
0
41
1
10
5.73690373796586
20
-0.0361906212712313
30
0
41
1
10
5.75972665761597
20
-0.0388271789150565
30
0
41
1
10
5.78254957726613
20
-0.0413584027115519
30
0
41
1
10
5.80440213298936
20
-0.0436775318915181
30
0
41
1
10
5.81864704882963
20
-0.0451140002424495
30
0
41
1
10
5.8252843247858
20
-0.0457668251719667
30
0
0
SPLINE
5
CC
100
AcDbEntity
8
1
62
256
6
ByLayer
370
18
48
1
60
0
100
AcDbSpline
70
4
71
3
72
16
73
12
40
0
40
0
40
0
40
0
40
0.0260333050133951
40
0.0260333050133951
40
0.350688870008914
40
0.350688870008914
40
0.513016652506673
40
0.513016652506673
40
0.675344435004432
40
0.675344435004432
40
1
40
1
40
1
40
1
41
1
10
6.38743983109282
20
-0.0977037593308694
30
0
41
1
10
6.38688045699666
20
-0.09889801748389
30
0
41
1
10
6.38631701169345
20
-0.100093369248242
30
0
41
1
10
6.37868117499517
20
-0.116212795166092
30
0
41
1
10
6.37111565299727
20
-0.131297456567182
30
0
41
1
10
6.35961663186947
20
-0.154215597311463
30
0
41
1
10
6.35574464838862
20
-0.161912341524328
30
0
41
1
10
6.3479387870442
20
-0.177491926998471
30
0
41
1
10
6.3440089377018
20
-0.185366224086039
30
0
41
1
10
6.33219795711642
20
-0.209085526672766
30
0
41
1
10
6.32429415063984
20
-0.22502126217077
30
0
41
1
10
6.31642308546145
20
-0.24061318182035
30
0
0
SPLINE
5
CD
100
AcDbEntity
8
1
62
256
6
ByLayer
370
18
48
1
60
0
100
AcDbSpline
70
4
71
3
72
19
73
15
40
0
40
0
40
0
40
0
40
0.0659631159576822
40
0.0659631159576822
40
0.131926231915364
40
0.197889347873047
40
0.197889347873047
40
0.263852463830729
40
0.263852463830729
40
0.395778695746093
40
0.395778695746093
40
0.527704927661458
40
0.527704927661458
40
1
40
1
40
1
40
1
41
1
10
6.31642308546122
20
0.240613181819896
30
0
41
1
10
6.31236011606757
20
0.240233442667375
30
0
41
1
10
6.30845664870242
20
0.239765206502028
30
0
41
1
10
6.30092590977671
20
0.238643789900209
30
0
41
1
10
6.29363204637593
20
0.237355214349662
30
0
41
1
10
6.28644781379717
20
0.235894964386205
30
0
41
1
10
6.27917843133429
20
0.234432959793679
30
0
41
1
10
6.27551233394081
20
0.233695651792487
30
0
41
1
10
6.26448957165275
20
0.231428771520001
30
0
41
1
10
6.25714667606979
20
0.229819240880687
30
0
41
1
10
6.24254533149775
20
0.226341524154719
30
0
41
1
10
6.23523870984479
20
0.224507225736033
30
0
41
1
10
6.20170734261467
20
0.215708434916309
30
0
41
1
10
6.17550013560242
20
0.207576355407582
30
0
41
1
10
6.14932521994672
20
0.198357401686224
30
0
0
SPLINE
5
CE
100
AcDbEntity
8
1
62
256
6
ByLayer
370
18
48
1
60
0
100
AcDbSpline
70
4
71
3
72
45
73
41
40
0
40
0
40
0
40
0
40
0.0466578893715224
40
0.0466578893715224
40
0.102736837055545
40
0.102736837055545
40
0.158815784739568
40
0.158815784739568
40
0.214894732423591
40
0.214894732423591
40
0.270973680107614
40
0.270973680107614
40
0.327052627791637
40
0.327052627791637
40
0.383131575475659
40
0.383131575475659
40
0.439210523159682
40
0.439210523159682
40
0.467249997001694
40
0.467249997001694
40
0.495289470843705
40
0.523328944685716
40
0.523328944685716
40
0.551368418527728
40
0.551368418527728
40
0.663526313895794
40
0.663526313895794
40
0.719605261579826
40
0.719605261579826
40
0.747644735421848
40
0.747644735421848
40
0.775684209263869
40
0.775684209263869
40
0.80372368310589
40
0.80372368310589
40
0.831763156947912
40
0.831763156947912
40
0.887842104631945
40
0.887842104631945
40
1
40
1
40
1
40
1
41
1
10
5.07249906670387
20
-0.250000120049947
30
0
41
1
10
5.04814678587536
20
-0.250002786712343
30
0
41
1
10
5.02383343502151
20
-0.248817701335213
30
0
41
1
10
4.97028568855961
20
-0.243651624278698
30
0
41
1
10
4.94095797843062
20
-0.239131938963453
30
0
41
1
10
4.8825011848308
20
-0.22686591386568
30
0
41
1
10
4.85331517242668
20
-0.21917039146075
30
0
41
1
10
4.79478955604969
20
-0.20087209999383
30
0
41
1
10
4.76546655990853
20
-0.190255630449144
30
0
41
1
10
4.70707101740186
20
-0.166585489657251
30
0
41
1
10
4.67784079791534
20
-0.153566315956482
30
0
41
1
10
4.61921687896825
20
-0.125524238989414
30
0
41
1
10
4.590027184858
20
-0.110593822939109
30
0
41
1
10
4.5316250655199
20
-0.0793240842479861
30
0
41
1
10
4.50228495981844
20
-0.0630193361664055
30
0
41
1
10
4.44378842559735
20
-0.0298831404602993
30
0
41
1
10
4.41460391092716
20
-0.0130304242245245
30
0
41
1
10
4.370737749879
20
0.0123578165853075
30
0
41
1
10
4.35607383242041
20
0.0208229450708757
30
0
41
1
10
4.32681023503207
20
0.0375899178936834
30
0
41
1
10
4.29758268071402
20
0.0542236672254717
30
0
41
1
10
4.26836514928712
20
0.070486663034842
30
0
41
1
10
4.23912407836551
20
0.0865151798921318
30
0
41
1
10
4.22446615238059
20
0.0944322593011861
30
0
41
1
10
4.15138209307923
20
0.133054066264833
30
0
41
1
10
4.09370356393629
20
0.160489013593519
30
0
41
1
10
4.0069632774736
20
0.194645517809164
30
0
41
1
10
3.97795873560807
20
0.20479345547065
30
0
41
1
10
3.93413727154348
20
0.21793260032365
30
0
41
1
10
3.91945859074852
20
0.221968406916233
30
0
41
1
10
3.89020428295987
20
0.229246330215801
30
0
41
1
10
3.87560389969113
20
0.232498203499318
30
0
41
1
10
3.84641823375492
20
0.238200234972254
30
0
41
1
10
3.83182143359835
20
0.240643692321129
30
0
41
1
10
3.80258342088734
20
0.244700680437518
30
0
41
1
10
3.78791723102023
20
0.24631691771404
30
0
41
1
10
3.74401187214826
20
0.249884142945916
30
0
41
1
10
3.71495604823568
20
0.25055632978021
30
0
41
1
10
3.62805740862319
20
0.247524973164587
30
0
41
1
10
3.57027856266197
20
0.238834497227629
30
0
41
1
10
3.51169999999999
20
0.223681171988091
30
0
0
SPLINE
5
CF
100
AcDbEntity
8
1
62
256
6
ByLayer
370
18
48
1
60
0
100
AcDbSpline
70
4
71
3
72
42
73
38
40
0
40
0
40
0
40
0
40
0.0020838946403716
40
0.0345497162193165
40
0.0670155377982613
40
0.0994813593772062
40
0.123830725561415
40
0.148180091745623
40
0.180645913324568
40
0.213111734903513
40
0.245577556482458
40
0.278043378061403
40
0.302392744245612
40
0.32674211042982
40
0.359207932008765
40
0.39167375358771
40
0.424139575166655
40
0.4566053967456
40
0.489071218324544
40
0.505304129114017
40
0.537769950692962
40
0.570235772271906
40
0.602701593850851
40
0.635167415429796
40
0.667633237008741
40
0.683866147798214
40
0.716331969377158
40
0.748797790956103
40
0.781263612535048
40
0.813729434113993
40
0.846195255692938
40
0.870544621877146
40
0.894893988061355
40
0.9273598096403
40
0.959825631219244
40
0.99229145279819
40
1
40
1
40
1
40
1
41
1
10
3.76128262851066
20
0.0449602154682509
30
0
41
1
10
3.76177093355835
20
0.0449113131834906
30
0
41
1
10
3.76986673671467
20
0.0440991324728656
30
0
41
1
10
3.7855700376769
20
0.0424785341924974
30
0
41
1
10
3.8083925309881
20
0.040004654192586
30
0
41
1
10
3.82931314956124
20
0.0376328570459918
30
0
41
1
10
3.84833189366847
20
0.0353980615904561
30
0
41
1
10
3.86735063785125
20
0.0330961902974138
30
0
41
1
10
3.8882712567019
20
0.0304930245306707
30
0
41
1
10
3.91109375055777
20
0.0275736883886566
30
0
41
1
10
3.9339162452313
20
0.0245809532477494
30
0
41
1
10
3.95483686633043
20
0.0217766106177635
30
0
41
1
10
3.97385561374975
20
0.0191833106278238
30
0
41
1
10
3.99287436211557
20
0.0165565063970803
30
0
41
1
10
4.01379498668487
20
0.0136270176330413
30
0
41
1
10
4.0366174881726
20
0.0103844447567667
30
0
41
1
10
4.0594399918711
20
0.0071124149033039
30
0
41
1
10
4.08226249803386
20
0.0038297471895703
30
0
41
1
10
4.10128125543403
20
0.0010885780935723
30
0
41
1
10
4.120300014691
20
-0.0016534174159233
30
0
41
1
10
4.13931877588376
20
-0.0043929021132385
30
0
41
1
10
4.16214129266603
20
-0.0076696338434772
30
0
41
1
10
4.18496381305224
20
-0.0109283850800921
30
0
41
1
10
4.20778633729591
20
-0.0141625261674676
30
0
41
1
10
4.22680511092455
20
-0.0168294922639518
30
0
41
1
10
4.24582388728069
20
-0.0194591509190047
30
0
41
1
10
4.26484266644349
20
-0.0220533535586753
30
0
41
1
10
4.28766520618288
20
-0.0251019085299902
30
0
41
1
10
4.31048775091958
20
-0.0280796339334017
30
0
41
1
10
4.33331030090688
20
-0.0309802884146677
30
0
41
1
10
4.35423097677386
20
-0.0335619232737088
30
0
41
1
10
4.37324977721457
20
-0.035843832890464
30
0
41
1
10
4.39226858137266
20
-0.0380684138156368
30
0
41
1
10
4.41318927086766
20
-0.0404269236962591
30
0
41
1
10
4.43601184762065
20
-0.0428845712620784
30
0
41
1
10
4.45303320239606
20
-0.0446248588763183
30
0
41
1
10
4.46244703115013
20
-0.0455557027003692
30
0
41
1
10
4.46425333074166
20
-0.0457331285222722
30
0
0
SPLINE
5
D0
100
AcDbEntity
8
1
62
256
6
ByLayer
370
18
48
1
60
0
100
AcDbSpline
70
4
71
3
72
18
73
14
40
0
40
0
40
0
40
0
40
0.125000000000008
40
0.125000000000008
40
0.250000000000016
40
0.250000000000016
40
0.499999999999998
40
0.499999999999998
40
0.624999999999989
40
0.624999999999989
40
0.74999999999998
40
0.74999999999998
40
1
40
1
40
1
40
1
41
1
10
6.4038557884619
20
0.0567217227975334
30
0
41
1
10
6.40172860167644
20
0.0642099023435776
30
0
41
1
10
6.3989015194058
20
0.0716057488167792
30
0
41
1
10
6.39268699735931
20
0.086416564228557
30
0
41
1
10
6.38928466325569
20
0.0938285889238557
30
0
41
1
10
6.37868117499522
20
0.116212795166092
30
0
41
1
10
6.37111565299727
20
0.131297456567154
30
0
41
1
10
6.35961663186947
20
0.154215597311435
30
0
41
1
10
6.35574464838868
20
0.161912341524328
30
0
41
1
10
6.34793878704426
20
0.177491926998442
30
0
41
1
10
6.34400893770169
20
0.18536622408638
30
0
41
1
10
6.33219795711625
20
0.209085526673078
30
0
41
1
10
6.32429415063984
20
0.225021262170713
30
0
41
1
10
6.31642308546151
20
0.240613181820294
30
0
0
LINE
5
7F
100
AcDbEntity
8
1
62
256
6
ByLayer
370
18
48
1
60
0
100
AcDbLine
10
0
20
1.5
30
0
11
0
21
0
31
0
39
0
210
0
220
0
230
1
0
LINE
5
80
100
AcDbEntity
8
1
62
256
6
ByLayer
370
18
48
1
60
0
100
AcDbLine
10
0
20
0
30
0
11
0
21
-1.5
31
0
39
0
210
0
220
0
230
1
0
LINE
5
81
100
AcDbEntity
8
1
62
256
6
ByLayer
370
18
48
1
60
0
100
AcDbLine
10
6.316423
20
0.127945
30
0
11
6.316423
21
-0.240613
31
0
39
0
210
0
220
0
230
1
0
LINE
5
82
100
AcDbEntity
8
1
62
256
6
ByLayer
370
18
48
1
60
0
100
AcDbLine
10
3.5117
20
0.223681
30
0
11
3.5117
21
0.160412
31
0
39
0
210
0
220
0
230
1
0
LINE
5
83
100
AcDbEntity
8
1
62
256
6
ByLayer
370
13
48
1
60
0
100
AcDbLine
10
2.433044
20
0.25
30
0
11
2.433044
21
-0.25
31
0
39
0
210
0
220
0
230
1
0
LINE
5
84
100
AcDbEntity
8
1
62
256
6
ByLayer
370
18
48
1
60
0
100
AcDbLine
10
3.1E-05
20
1.5
30
0
11
3.1E-05
21
-1.5
31
0
39
0
210
0
220
0
230
1
0
LINE
5
85
100
AcDbEntity
8
1
62
256
6
ByLayer
370
13
48
1
60
0
100
AcDbLine
10
1.933044
20
0.383975
30
0
11
1.933044
21
-0.383975
31
0
39
0
210
0
220
0
230
1
0
LINE
5
86
100
AcDbEntity
8
SK1
62
256
6
ByLayer
370
18
48
1
60
0
100
AcDbLine
10
-31.567
20
1.326795
30
0
11
-31.567
21
-1.326795
31
0
39
0
210
0
220
0
230
1
0
LINE
5
88
100
AcDbEntity
8
SK1
62
256
6
ByLayer
370
18
48
1
60
0
100
AcDbLine
10
0
20
1.5
30
0
11
0
21
0
31
0
39
0
210
0
220
0
230
1
0
LINE
5
89
100
AcDbEntity
8
SK1
62
256
6
ByLayer
370
18
48
1
60
0
100
AcDbLine
10
0
20
0
30
0
11
0
21
-1.5
31
0
39
0
210
0
220
0
230
1
0
LINE
5
8A
100
AcDbEntity
8
SK1
62
256
6
ByLayer
370
18
48
1
60
0
100
AcDbLine
10
-31.267
20
1.5
30
0
11
-31.267
21
-1.5
31
0
39
0
210
0
220
0
230
1
0
LINE
5
8B
100
AcDbEntity
8
1
62
256
6
ByLayer
370
18
48
1
60
0
100
AcDbLine
10
0
20
-1.5
30
0
11
3.1E-05
21
-1.5
31
0
39
0
210
0
220
0
230
1
0
LINE
5
8C
100
AcDbEntity
8
1
62
256
6
ByLayer
370
18
48
1
60
0
100
AcDbLine
10
3.1E-05
20
1.5
30
0
11
0
21
1.5
31
0
39
0
210
0
220
0
230
1
0
LINE
5
8D
100
AcDbEntity
8
1
62
256
6
ByLayer
370
18
48
1
60
0
100
AcDbLine
10
6.433
20
0
30
0
11
6.387311
21
0.09798
31
0
39
0
210
0
220
0
230
1
0
LINE
5
8E
100
AcDbEntity
8
1
62
256
6
ByLayer
370
18
48
1
60
0
100
AcDbLine
10
6.387311
20
-0.09798
30
0
11
6.433
21
0
31
0
39
0
210
0
220
0
230
1
0
LINE
5
8F
100
AcDbEntity
8
1
62
256
6
ByLayer
370
18
48
1
60
0
100
AcDbLine
10
2.433044
20
-0.25
30
0
11
3.248375
21
-0.25
31
0
39
0
210
0
220
0
230
1
0
LINE
5
90
100
AcDbEntity
8
1
62
256
6
ByLayer
370
18
48
1
60
0
100
AcDbLine
10
3.712933
20
-0.25
30
0
11
4.505652
21
-0.25
31
0
39
0
210
0
220
0
230
1
0
LINE
5
91
100
AcDbEntity
8
1
62
256
6
ByLayer
370
18
48
1
60
0
100
AcDbLine
10
5.072487
20
-0.25
30
0
11
5.867368
21
-0.25
31
0
39
0
210
0
220
0
230
1
0
LINE
5
92
100
AcDbEntity
8
1
62
256
6
ByLayer
370
18
48
1
60
0
100
AcDbLine
10
5.867368
20
0.25
30
0
11
5.072487
21
0.25
31
0
39
0
210
0
220
0
230
1
0
LINE
5
93
100
AcDbEntity
8
1
62
256
6
ByLayer
370
18
48
1
60
0
100
AcDbLine
10
4.505652
20
0.25
30
0
11
3.712933
21
0.25
31
0
39
0
210
0
220
0
230
1
0
LINE
5
94
100
AcDbEntity
8
1
62
256
6
ByLayer
370
18
48
1
60
0
100
AcDbLine
10
3.248375
20
0.25
30
0
11
2.433044
21
0.25
31
0
39
0
210
0
220
0
230
1
0
LINE
5
95
100
AcDbEntity
8
1
62
256
6
ByLayer
370
18
48
1
60
0
100
AcDbLine
10
1.933044
20
0.383975
30
0
11
3.1E-05
21
1.5
31
0
39
0
210
0
220
0
230
1
0
LINE
5
96
100
AcDbEntity
8
1
62
256
6
ByLayer
370
18
48
1
60
0
100
AcDbLine
10
3.1E-05
20
-1.5
30
0
11
1.933044
21
-0.383975
31
0
39
0
210
0
220
0
230
1
0
LINE
5
97
100
AcDbEntity
8
SK1
62
256
6
ByLayer
370
18
48
1
60
0
100
AcDbLine
10
-31.567
20
-1.326795
30
0
11
-31.267
21
-1.5
31
0
39
0
210
0
220
0
230
1
0
LINE
5
98
100
AcDbEntity
8
SK1
62
256
6
ByLayer
370
18
48
1
60
0
100
AcDbLine
10
-31.267
20
1.5
30
0
11
-31.567
21
1.326795
31
0
39
0
210
0
220
0
230
1
0
LINE
5
99
100
AcDbEntity
8
SK1
62
256
6
ByLayer
370
18
48
1
60
0
100
AcDbLine
10
-31.267
20
-1.5
30
0
11
0
21
-1.5
31
0
39
0
210
0
220
0
230
1
0
LINE
5
9A
100
AcDbEntity
8
SK1
62
256
6
ByLayer
370
18
48
1
60
0
100
AcDbLine
10
0
20
1.5
30
0
11
-31.267
21
1.5
31
0
39
0
210
0
220
0
230
1
0
LINE
5
9B
100
AcDbEntity
8
4
62
256
6
ByLayer
370
18
48
0.05
60
0
100
AcDbLine
10
0
20
0
30
0
11
6.433
21
0
31
0
39
0
210
0
220
0
230
1
0
LINE
5
9D
100
AcDbEntity
8
81
62
256
6
ByLayer
370
18
48
1
60
0
100
AcDbLine
10
6.433
20
0
30
0
11
9.433
21
0
31
0
39
0
210
0
220
0
230
1
0
LINE
5
9E
100
AcDbEntity
8
80
62
256
6
ByLayer
370
18
48
1
60
0
100
AcDbLine
10
0
20
0
30
0
11
-3
21
0
31
0
39
0
210
0
220
0
230
1
0
LINE
5
9F
100
AcDbEntity
8
SK4
62
256
6
ByLayer
370
18
48
0.05
60
0
100
AcDbLine
10
-34.567
20
0
30
0
11
9.433
21
0
31
0
39
0
210
0
220
0
230
1
0
LINE
5
A1
100
AcDbEntity
8
SK2
62
256
6
ByLayer
370
13
48
1
60
0
100
AcDbLine
10
-36.067
20
-9
30
0
11
-36.067
21
21.782741
31
0
39
0
210
0
220
0
230
1
0
LINE
5
A3
100
AcDbEntity
8
SK2
62
256
6
ByLayer
370
13
48
1
60
0
100
AcDbLine
10
-33.1545
20
-1.5
30
0
11
-38.067
21
-1.5
31
0
39
0
210
0
220
0
230
1
0
LINE
5
A4
100
AcDbEntity
8
SK2
62
256
6
ByLayer
370
13
48
1
60
0
100
AcDbLine
10
-33.1545
20
1.5
30
0
11
-38.067
21
1.5
31
0
39
0
210
0
220
0
230
1
0
LINE
5
A5
100
AcDbEntity
8
1
62
256
6
ByLayer
370
18
48
1
60
1
100
AcDbLine
10
-36.067
20
-1.5
30
0
11
-35.606216
21
-4.999998
31
0
39
0
210
0
220
0
230
1
0
LINE
5
A6
100
AcDbEntity
8
1
62
256
6
ByLayer
370
18
48
1
60
1
100
AcDbLine
10
-35.606216
20
-4.999998
30
0
11
-36.527784
21
-5.000002
31
0
39
0
210
0
220
0
230
1
0
LINE
5
A7
100
AcDbEntity
8
1
62
256
6
ByLayer
370
18
48
1
60
1
100
AcDbLine
10
-36.527784
20
-5.000002
30
0
11
-36.067
21
-1.5
31
0
39
0
210
0
220
0
230
1
0
LINE
5
A8
100
AcDbEntity
8
1
62
256
6
ByLayer
370
18
48
1
60
1
100
AcDbLine
10
-36.067
20
1.5
30
0
11
-36.527784
21
4.999998
31
0
39
0
210
0
220
0
230
1
0
LINE
5
A9
100
AcDbEntity
8
1
62
256
6
ByLayer
370
18
48
1
60
1
100
AcDbLine
10
-36.527784
20
4.999998
30
0
11
-35.606216
21
5.000002
31
0
39
0
210
0
220
0
230
1
0
LINE
5
AA
100
AcDbEntity
8
1
62
256
6
ByLayer
370
18
48
1
60
1
100
AcDbLine
10
-35.606216
20
5.000002
30
0
11
-36.067
21
1.5
31
0
39
0
210
0
220
0
230
1
0
LINE
5
AB
100
AcDbEntity
8
2
62
256
6
ByLayer
370
13
48
1
60
0
100
AcDbLine
10
11.933
20
-7.75
30
0
11
11.933
21
30.532741
31
0
39
0
210
0
220
0
230
1
0
LINE
5
AD
100
AcDbEntity
8
2
62
256
6
ByLayer
370
13
48
1
60
0
100
AcDbLine
10
8.0205
20
-0.25
30
0
11
13.933
21
-0.25
31
0
39
0
210
0
220
0
230
1
0
LINE
5
AE
100
AcDbEntity
8
2
62
256
6
ByLayer
370
13
48
1
60
0
100
AcDbLine
10
8.0205
20
0.25
30
0
11
13.933
21
0.25
31
0
39
0
210
0
220
0
230
1
0
LINE
5
AF
100
AcDbEntity
8
1
62
256
6
ByLayer
370
18
48
1
60
1
100
AcDbLine
10
11.933
20
-0.25
30
0
11
12.393784
21
-3.749998
31
0
39
0
210
0
220
0
230
1
0
LINE
5
B0
100
AcDbEntity
8
1
62
256
6
ByLayer
370
18
48
1
60
1
100
AcDbLine
10
12.393784
20
-3.749998
30
0
11
11.472216
21
-3.750002
31
0
39
0
210
0
220
0
230
1
0
LINE
5
B1
100
AcDbEntity
8
1
62
256
6
ByLayer
370
18
48
1
60
1
100
AcDbLine
10
11.472216
20
-3.750002
30
0
11
11.933
21
-0.25
31
0
39
0
210
0
220
0
230
1
0
LINE
5
B2
100
AcDbEntity
8
1
62
256
6
ByLayer
370
18
48
1
60
1
100
AcDbLine
10
11.933
20
0.25
30
0
11
11.472216
21
3.749998
31
0
39
0
210
0
220
0
230
1
0
LINE
5
B3
100
AcDbEntity
8
1
62
256
6
ByLayer
370
18
48
1
60
1
100
AcDbLine
10
11.472216
20
3.749998
30
0
11
12.393784
21
3.750002
31
0
39
0
210
0
220
0
230
1
0
LINE
5
B4
100
AcDbEntity
8
1
62
256
6
ByLayer
370
18
48
1
60
1
100
AcDbLine
10
12.393784
20
3.750002
30
0
11
11.933
21
0.25
31
0
39
0
210
0
220
0
230
1
0
LINE
5
B5
100
AcDbEntity
8
SK2
62
256
6
ByLayer
370
13
48
1
60
0
100
AcDbLine
10
7.103906
20
-1.438764
30
0
11
14.188045
21
-16.630748
31
0
39
0
210
0
220
0
230
1
0
LINE
5
B6
100
AcDbEntity
8
SK2
62
256
6
ByLayer
370
13
48
1
60
0
100
AcDbLine
10
7.103906
20
1.438764
30
0
11
14.188045
21
16.630748
31
0
39
0
210
0
220
0
230
1
0
LINE
5
B7
100
AcDbEntity
8
1
62
256
6
ByLayer
370
18
48
1
60
1
100
AcDbLine
10
13.342809
20
-14.818132
30
0
11
16.214842
21
-12.765394
31
0
39
0
210
0
220
0
230
1
0
LINE
5
B8
100
AcDbEntity
8
1
62
256
6
ByLayer
370
18
48
1
60
1
100
AcDbLine
10
16.214842
20
-12.765394
30
0
11
16.648271
21
-13.578675
31
0
39
0
210
0
220
0
230
1
0
LINE
5
B9
100
AcDbEntity
8
1
62
256
6
ByLayer
370
18
48
1
60
1
100
AcDbLine
10
16.648271
20
-13.578675
30
0
11
13.342809
21
-14.818132
31
0
39
0
210
0
220
0
230
1
0
LINE
5
BA
100
AcDbEntity
8
1
62
256
6
ByLayer
370
18
48
1
60
1
100
AcDbLine
10
13.342809
20
14.818132
30
0
11
16.648268
21
13.578677
31
0
39
0
210
0
220
0
230
1
0
LINE
5
BB
100
AcDbEntity
8
1
62
256
6
ByLayer
370
18
48
1
60
1
100
AcDbLine
10
16.648268
20
13.578677
30
0
11
16.214845
21
12.765392
31
0
39
0
210
0
220
0
230
1
0
LINE
5
BC
100
AcDbEntity
8
1
62
256
6
ByLayer
370
18
48
1
60
1
100
AcDbLine
10
16.214845
20
12.765392
30
0
11
13.342809
21
14.818132
31
0
39
0
210
0
220
0
230
1
0
LINE
5
D5
100
AcDbEntity
8
1
62
256
6
ByLayer
370
18
48
1
60
1
100
AcDbLine
10
-36.067
20
-1.5
30
0
11
-35.606216
21
-4.999998
31
0
39
0
210
0
220
0
230
1
0
LINE
5
D6
100
AcDbEntity
8
1
62
256
6
ByLayer
370
18
48
1
60
1
100
AcDbLine
10
-35.606216
20
-4.999998
30
0
11
-36.527784
21
-5.000002
31
0
39
0
210
0
220
0
230
1
0
LINE
5
D7
100
AcDbEntity
8
1
62
256
6
ByLayer
370
18
48
1
60
1
100
AcDbLine
10
-36.527784
20
-5.000002
30
0
11
-36.067
21
-1.5
31
0
39
0
210
0
220
0
230
1
0
LINE
5
D9
100
AcDbEntity
8
1
62
256
6
ByLayer
370
18
48
1
60
1
100
AcDbLine
10
-36.067
20
1.5
30
0
11
-36.527784
21
4.999998
31
0
39
0
210
0
220
0
230
1
0
LINE
5
DA
100
AcDbEntity
8
1
62
256
6
ByLayer
370
18
48
1
60
1
100
AcDbLine
10
-36.527784
20
4.999998
30
0
11
-35.606216
21
5.000002
31
0
39
0
210
0
220
0
230
1
0
LINE
5
DB
100
AcDbEntity
8
1
62
256
6
ByLayer
370
18
48
1
60
1
100
AcDbLine
10
-35.606216
20
5.000002
30
0
11
-36.067
21
1.5
31
0
39
0
210
0
220
0
230
1
0
LINE
5
DF
100
AcDbEntity
8
1
62
256
6
ByLayer
370
18
48
1
60
1
100
AcDbLine
10
11.933
20
-0.25
30
0
11
12.393784
21
-3.749998
31
0
39
0
210
0
220
0
230
1
0
LINE
5
E0
100
AcDbEntity
8
1
62
256
6
ByLayer
370
18
48
1
60
1
100
AcDbLine
10
12.393784
20
-3.749998
30
0
11
11.472216
21
-3.750002
31
0
39
0
210
0
220
0
230
1
0
LINE
5
E1
100
AcDbEntity
8
1
62
256
6
ByLayer
370
18
48
1
60
1
100
AcDbLine
10
11.472216
20
-3.750002
30
0
11
11.933
21
-0.25
31
0
39
0
210
0
220
0
230
1
0
LINE
5
E3
100
AcDbEntity
8
1
62
256
6
ByLayer
370
18
48
1
60
1
100
AcDbLine
10
11.933
20
0.25
30
0
11
11.472216
21
3.749998
31
0
39
0
210
0
220
0
230
1
0
LINE
5
E4
100
AcDbEntity
8
1
62
256
6
ByLayer
370
18
48
1
60
1
100
AcDbLine
10
11.472216
20
3.749998
30
0
11
12.393784
21
3.750002
31
0
39
0
210
0
220
0
230
1
0
LINE
5
E5
100
AcDbEntity
8
1
62
256
6
ByLayer
370
18
48
1
60
1
100
AcDbLine
10
12.393784
20
3.750002
30
0
11
11.933
21
0.25
31
0
39
0
210
0
220
0
230
1
0
LINE
5
E8
100
AcDbEntity
8
1
62
256
6
ByLayer
370
18
48
1
60
1
100
AcDbLine
10
13.342809
20
-14.818132
30
0
11
16.214842
21
-12.765394
31
0
39
0
210
0
220
0
230
1
0
LINE
5
E9
100
AcDbEntity
8
1
62
256
6
ByLayer
370
18
48
1
60
1
100
AcDbLine
10
16.214842
20
-12.765394
30
0
11
16.648271
21
-13.578675
31
0
39
0
210
0
220
0
230
1
0
LINE
5
EA
100
AcDbEntity
8
1
62
256
6
ByLayer
370
18
48
1
60
1
100
AcDbLine
10
16.648271
20
-13.578675
30
0
11
13.342809
21
-14.818132
31
0
39
0
210
0
220
0
230
1
0
LINE
5
EC
100
AcDbEntity
8
1
62
256
6
ByLayer
370
18
48
1
60
1
100
AcDbLine
10
13.342809
20
14.818132
30
0
11
16.648268
21
13.578677
31
0
39
0
210
0
220
0
230
1
0
LINE
5
ED
100
AcDbEntity
8
1
62
256
6
ByLayer
370
18
48
1
60
1
100
AcDbLine
10
16.648268
20
13.578677
30
0
11
16.214845
21
12.765392
31
0
39
0
210
0
220
0
230
1
0
LINE
5
EE
100
AcDbEntity
8
1
62
256
6
ByLayer
370
18
48
1
60
1
100
AcDbLine
10
16.214845
20
12.765392
30
0
11
13.342809
21
14.818132
31
0
39
0
210
0
220
0
230
1
0
MTEXT
5
D1
100
AcDbEntity
8
SK2
62
256
6
ByLayer
370
18
48
1
60
0
100
AcDbMText
10
-37.408114
20
6.658437
30
0
210
0
220
0
230
1
1
%%c
40
3
41
0
44
1.084337
50
90
71
7
72
5
7
iso_b_vert
0
MTEXT
5
D4
100
AcDbEntity
8
SK2
62
256
6
ByLayer
370
18
48
1
60
0
100
AcDbMText
10
-37.408114
20
12.635
30
0
210
0
220
0
230
1
1
\W0.7468;3.000
40
3
41
0
44
1.084337
50
90
71
7
72
5
7
iso_b_vert
0
MTEXT
5
DD
100
AcDbEntity
8
2
62
256
6
ByLayer
370
18
48
1
60
0
100
AcDbMText
10
10.591886
20
15.408437
30
0
210
0
220
0
230
1
1
%%c
40
3
41
0
44
1.084337
50
90
71
7
72
5
7
iso_b_vert
0
MTEXT
5
DE
100
AcDbEntity
8
2
62
256
6
ByLayer
370
18
48
1
60
0
100
AcDbMText
10
10.591886
20
21.385
30
0
210
0
220
0
230
1
1
\W0.7468;0.500
40
3
41
0
44
1.084337
50
90
71
7
72
5
7
iso_b_vert
0
MTEXT
5
E7
100
AcDbEntity
8
SK2
62
256
6
ByLayer
370
18
48
1
60
0
100
AcDbMText
10
19.500286
20
-2.114886
30
0
210
0
220
0
230
1
1
\W0.6747;130%%d
40
3
41
0
44
1.084337
50
0
71
7
72
5
7
iso_b_vert
0
MTEXT
5
F0
100
AcDbEntity
8
SK6
62
256
6
ByLayer
370
18
48
1
60
0
100
AcDbMText
10
-40.57091
20
-42.114886
30
0
210
0
220
0
230
1
1
\W0.7754;462.1-0050-002A0-XM X0BU
40
3
41
0
44
1.084337
50
0
71
7
72
5
7
iso_b_vert
0
HATCH
5
D8
100
AcDbEntity
8
SK2
62
256
6
ByLayer
370
13
48
1
60
0
100
AcDbHatch
10
0
20
0
30
0
210
0
220
0
230
1
2
ANSI31
70
0
71
0
91
1
92
5
93
3
72
1
10
-36.067
20
-1.5
11
-35.6062162584472
21
-4.99999830744682
72
1
10
-35.6062162584472
20
-4.99999830744682
11
-36.5277837415528
21
-5.00000169255318
72
1
10
-36.5277837415528
20
-5.00000169255318
11
-36.067
21
-1.5
97
0
75
0
76
1
52
0
41
0.0062
77
0
78
1
53
45
43
0
44
0
45
-0.0139193969876572
46
0.0139193969876572
79
0
47
0
98
1
10
0
20
0
0
HATCH
5
DC
100
AcDbEntity
8
SK2
62
256
6
ByLayer
370
13
48
1
60
0
100
AcDbHatch
10
0
20
0
30
0
210
0
220
0
230
1
2
ANSI31
70
0
71
0
91
1
92
5
93
3
72
1
10
-36.067
20
1.5
11
-36.5277837415528
21
4.99999830744682
72
1
10
-36.5277837415528
20
4.99999830744682
11
-35.6062162584472
21
5.00000169255318
72
1
10
-35.6062162584472
20
5.00000169255318
11
-36.067
21
1.5
97
0
75
0
76
1
52
0
41
0.0062
77
0
78
1
53
45
43
0
44
0
45
-0.0139193969876572
46
0.0139193969876572
79
0
47
0
98
1
10
0
20
0
0
HATCH
5
E2
100
AcDbEntity
8
2
62
256
6
ByLayer
370
13
48
1
60
0
100
AcDbHatch
10
0
20
0
30
0
210
0
220
0
230
1
2
ANSI31
70
0
71
0
91
1
92
5
93
3
72
1
10
11.933
20
-0.25
11
12.3937837415528
21
-3.74999830744682
72
1
10
12.3937837415528
20
-3.74999830744682
11
11.4722162584472
21
-3.75000169255318
72
1
10
11.4722162584472
20
-3.75000169255318
11
11.933
21
-0.25
97
0
75
0
76
1
52
0
41
0.0062
77
0
78
1
53
45
43
0
44
0
45
-0.0139193969876572
46
0.0139193969876572
79
0
47
0
98
1
10
0
20
0
0
HATCH
5
E6
100
AcDbEntity
8
2
62
256
6
ByLayer
370
13
48
1
60
0
100
AcDbHatch
10
0
20
0
30
0
210
0
220
0
230
1
2
ANSI31
70
0
71
0
91
1
92
5
93
3
72
1
10
11.933
20
0.25
11
11.4722162584472
21
3.74999830744682
72
1
10
11.4722162584472
20
3.74999830744682
11
12.3937837415528
21
3.75000169255318
72
1
10
12.3937837415528
20
3.75000169255318
11
11.933
21
0.25
97
0
75
0
76
1
52
0
41
0.0062
77
0
78
1
53
45
43
0
44
0
45
-0.0139193969876572
46
0.0139193969876572
79
0
47
0
98
1
10
0
20
0
0
HATCH
5
EB
100
AcDbEntity
8
SK2
62
256
6
ByLayer
370
13
48
1
60
0
100
AcDbHatch
10
0
20
0
30
0
210
0
220
0
230
1
2
ANSI31
70
0
71
0
91
1
92
5
93
3
72
1
10
13.3428085794603
20
-14.8181323180493
11
16.2148418553692
21
-12.7653939833652
72
1
10
16.2148418553692
20
-12.7653939833652
11
16.6482706127347
21
-13.5786750775863
72
1
10
16.6482706127347
20
-13.5786750775863
11
13.3428085794603
21
-14.8181323180493
97
0
75
0
76
1
52
0
41
0.0062
77
0
78
1
53
45
43
0
44
0
45
-0.0139193969876572
46
0.0139193969876572
79
0
47
0
98
1
10
0
20
0
0
HATCH
5
EF
100
AcDbEntity
8
SK2
62
256
6
ByLayer
370
13
48
1
60
0
100
AcDbHatch
10
0
20
0
30
0
210
0
220
0
230
1
2
ANSI31
70
0
71
0
91
1
92
5
93
3
72
1
10
13.3428085794603
20
14.8181323180493
11
16.6482676253805
21
13.5786766696481
72
1
10
16.6482676253805
20
13.5786766696481
11
16.2148448427233
21
12.7653923913034
72
1
10
16.2148448427233
20
12.7653923913034
11
13.3428085794603
21
14.8181323180493
97
0
75
0
76
1
52
0
41
0.0062
77
0
78
1
53
45
43
0
44
0
45
-0.0139193969876572
46
0.0139193969876572
79
0
47
0
98
1
10
0
20
0
0
DIMENSION
5
F3
100
AcDbEntity
8
SK2
62
256
6
ByLayer
370
18
48
1
60
0
100
AcDbDimension
2
_U0
10
6.433
20
-35.85
30
0
11
-12.567
21
-35.85
31
0
70
32
71
1
72
1
41
1
210
0
220
0
230
1
3
Standard
100
AcDbAlignedDimension
13
-31.567
23
1.5
33
0
14
6.433
24
0.25
34
0
50
0
100
AcDbRotatedDimension
1001
ACAD
1000
DSTYLE
1002
{
1070
   371
1070
    13
1070
   372
1070
    13
1070
     3
1000

1070
   170
1070
     0
1070
   144
1040
1.0
1070
   277
1070
     2
1070
   284
1070
     8
1070
   278
1070
    46
1070
   146
1040
1.166667
1070
   345
1005
16
1070
   347
1005
16
1070
   346
1005
16
1070
   344
1005
0
1070
   343
1005
0
1070
   172
1070
     1
1070
    76
1070
     0
1070
    75
1070
     0
1070
   282
1070
     0
1070
   281
1070
     0
1070
    71
1070
     0
1070
    74
1070
     0
1070
   279
1070
     0
1070
   173
1070
     1
1070
   340
1005
D2
1070
   271
1070
     2
1070
   272
1070
     2
1070
    77
1070
     1
1070
    73
1070
     1
1070
   171
1070
     3
1070
   274
1070
     4
1070
   177
1070
     2
1070
   176
1070
     2
1070
   178
1070
     2
1070
    78
1070
     8
1070
    48
1040
-0.1
1070
    41
1040
3.5
1070
   147
1040
1.5
1070
    42
1040
1.5875
1070
    44
1040
2.0
1070
   140
1040
3.0
1002
}
1001
ACAD_DSTYLE_DIM_LINETYPE
1070
   380
1005
16
1001
ACAD_DSTYLE_DIM_EXT1_LINETYPE
1070
   381
1005
16
1001
ACAD_DSTYLE_DIM_EXT2_LINETYPE
1070
   382
1005
16
0
DIMENSION
5
10C
100
AcDbEntity
8
SK2
62
256
6
ByLayer
370
18
48
1
60
0
100
AcDbDimension
2
_U1
10
3.983
20
-21.75
30
0
11
22.504429
21
-21.75
31
0
70
32
71
1
72
1
41
1
210
0
220
0
230
1
3
Standard
100
AcDbAlignedDimension
13
6.433
23
0.25
33
0
14
3.983
24
0
34
0
50
0
100
AcDbRotatedDimension
1001
ACAD
1000
DSTYLE
1002
{
1070
   371
1070
    13
1070
   372
1070
    13
1070
     3
1000

1070
   170
1070
     0
1070
   144
1040
1.0
1070
   277
1070
     2
1070
   284
1070
     8
1070
   278
1070
    46
1070
   146
1040
1.166667
1070
   345
1005
16
1070
   347
1005
16
1070
   346
1005
16
1070
   344
1005
0
1070
   343
1005
0
1070
   172
1070
     1
1070
    76
1070
     0
1070
    75
1070
     0
1070
   282
1070
     0
1070
   281
1070
     0
1070
    71
1070
     0
1070
    74
1070
     0
1070
   279
1070
     0
1070
   173
1070
     1
1070
   340
1005
D2
1070
   271
1070
     2
1070
   272
1070
     2
1070
    77
1070
     1
1070
    73
1070
     1
1070
   171
1070
     3
1070
   274
1070
     4
1070
   177
1070
     2
1070
   176
1070
     2
1070
   178
1070
     2
1070
    78
1070
     8
1070
    48
1040
-0.1
1070
    41
1040
3.5
1070
   147
1040
1.5
1070
    42
1040
1.5875
1070
    44
1040
2.0
1070
   140
1040
3.0
1002
}
1001
ACAD_DSTYLE_DIM_LINETYPE
1070
   380
1005
16
1001
ACAD_DSTYLE_DIM_EXT1_LINETYPE
1070
   381
1005
16
1001
ACAD_DSTYLE_DIM_EXT2_LINETYPE
1070
   382
1005
16
0
DIMENSION
5
126
100
AcDbEntity
8
SK2
62
256
6
ByLayer
370
18
48
1
60
0
100
AcDbDimension
2
_U2
10
3.233
20
-29.75
30
0
11
21.075857
21
-29.75
31
0
70
32
71
1
72
1
41
1
210
0
220
0
230
1
3
Standard
100
AcDbAlignedDimension
13
6.433
23
0.25
33
0
14
3.233
24
0
34
0
50
0
100
AcDbRotatedDimension
1001
ACAD
1000
DSTYLE
1002
{
1070
   371
1070
    13
1070
   372
1070
    13
1070
     3
1000

1070
   170
1070
     0
1070
   144
1040
1.0
1070
   277
1070
     2
1070
   284
1070
     8
1070
   278
1070
    46
1070
   146
1040
1.166667
1070
   345
1005
16
1070
   347
1005
16
1070
   346
1005
16
1070
   344
1005
0
1070
   343
1005
0
1070
   172
1070
     1
1070
    76
1070
     0
1070
    75
1070
     0
1070
   282
1070
     0
1070
   281
1070
     0
1070
    71
1070
     0
1070
    74
1070
     0
1070
   279
1070
     0
1070
   173
1070
     1
1070
   340
1005
D2
1070
   271
1070
     2
1070
   272
1070
     2
1070
    77
1070
     1
1070
    73
1070
     1
1070
   171
1070
     3
1070
   274
1070
     4
1070
   177
1070
     2
1070
   176
1070
     2
1070
   178
1070
     2
1070
    78
1070
     8
1070
    48
1040
-0.1
1070
    41
1040
3.5
1070
   147
1040
1.5
1070
    42
1040
1.5875
1070
    44
1040
2.0
1070
   140
1040
3.0
1002
}
1001
ACAD_DSTYLE_DIM_LINETYPE
1070
   380
1005
16
1001
ACAD_DSTYLE_DIM_EXT1_LINETYPE
1070
   381
1005
16
1001
ACAD_DSTYLE_DIM_EXT2_LINETYPE
1070
   382
1005
16
0
DIMENSION
5
140
100
AcDbEntity
8
SK2
62
256
6
ByLayer
370
18
48
1
60
0
100
AcDbDimension
2
_U3
10
0
20
11.35
30
0
11
-15.7835
21
11.35
31
0
70
32
71
1
72
1
41
1
210
0
220
0
230
1
3
Standard
100
AcDbAlignedDimension
13
-31.567
23
0
33
0
14
0
24
0
34
0
50
0
100
AcDbRotatedDimension
1001
ACAD
1000
DSTYLE
1002
{
1070
   371
1070
    13
1070
   372
1070
    13
1070
     3
1000

1070
   170
1070
     0
1070
   144
1040
1.0
1070
   277
1070
     2
1070
   284
1070
     8
1070
   278
1070
    46
1070
   146
1040
1.166667
1070
   345
1005
16
1070
   347
1005
16
1070
   346
1005
16
1070
   344
1005
0
1070
   343
1005
0
1070
   172
1070
     1
1070
    76
1070
     0
1070
    75
1070
     0
1070
   282
1070
     0
1070
   281
1070
     0
1070
    71
1070
     0
1070
    74
1070
     0
1070
   279
1070
     0
1070
   173
1070
     1
1070
   340
1005
D2
1070
   271
1070
     2
1070
   272
1070
     2
1070
    77
1070
     1
1070
    73
1070
     1
1070
   171
1070
     3
1070
   274
1070
     4
1070
   177
1070
     2
1070
   176
1070
     2
1070
   178
1070
     2
1070
    78
1070
     8
1070
    48
1040
-0.1
1070
    41
1040
3.5
1070
   147
1040
1.5
1070
    42
1040
1.5875
1070
    44
1040
2.0
1070
   140
1040
3.0
1002
}
1001
ACAD_DSTYLE_DIM_LINETYPE
1070
   380
1005
16
1001
ACAD_DSTYLE_DIM_EXT1_LINETYPE
1070
   381
1005
16
1001
ACAD_DSTYLE_DIM_EXT2_LINETYPE
1070
   382
1005
16
0
DIMENSION
5
158
100
AcDbEntity
8
2
62
256
6
ByLayer
370
18
48
1
60
0
100
AcDbDimension
2
_U4
10
0
20
5
30
0
11
-16
21
5
31
0
70
32
71
1
72
1
41
1
210
0
220
0
230
1
3
Standard
100
AcDbAlignedDimension
13
6.433
23
0.25
33
0
14
0
24
0
34
0
50
0
100
AcDbRotatedDimension
1001
ACAD
1000
DSTYLE
1002
{
1070
   371
1070
    13
1070
   372
1070
    13
1070
     3
1000

1070
   170
1070
     0
1070
   144
1040
1.0
1070
   277
1070
     2
1070
   284
1070
     8
1070
   278
1070
    46
1070
   146
1040
1.166667
1070
   345
1005
16
1070
   347
1005
16
1070
   346
1005
16
1070
   344
1005
0
1070
   343
1005
0
1070
   172
1070
     1
1070
    76
1070
     0
1070
    75
1070
     0
1070
   282
1070
     0
1070
   281
1070
     0
1070
    71
1070
     0
1070
    74
1070
     0
1070
   279
1070
     0
1070
   173
1070
     1
1070
   340
1005
D2
1070
   271
1070
     2
1070
   272
1070
     2
1070
    77
1070
     1
1070
    73
1070
     1
1070
   171
1070
     3
1070
   274
1070
     4
1070
   177
1070
     2
1070
   176
1070
     2
1070
   178
1070
     2
1070
    78
1070
     8
1070
    48
1040
-0.1
1070
    41
1040
3.5
1070
   147
1040
1.5
1070
    42
1040
1.5875
1070
    44
1040
2.0
1070
   140
1040
3.0
1002
}
1001
ACAD_DSTYLE_DIM_LINETYPE
1070
   380
1005
16
1001
ACAD_DSTYLE_DIM_EXT1_LINETYPE
1070
   381
1005
16
1001
ACAD_DSTYLE_DIM_EXT2_LINETYPE
1070
   382
1005
16
0
ENDSEC
0
SECTION
2
OBJECTS
0
DICTIONARY
5
1e2
330
0
100
AcDbDictionary
280
0
281
1
3
ACAD_GROUP
350
1e3
3
ACAD_MLINESTYLE
350
1e4
0
DICTIONARY
5
1e3
330
0
100
AcDbDictionary
280
0
281
1
0
DICTIONARY
5
1e4
330
0
100
AcDbDictionary
280
0
281
1
3
Standard
350
18
0
MLINESTYLE
5
18
330
1e4
100
AcDbMlineStyle
2
Standard
70
0
3

62
256
51
90
52
90
71
2
49
-0.5
62
256
6
ByLayer
49
0.5
62
256
6
ByLayer
0
RASTERVARIABLES
5
1d0
330

100
AcDbRasterVariables
90
0
70
1
71
1
72
1
0
ENDSEC
0
EOF
