0
SECTION
2
HEADER
9
$ACADVER
1
AC1015
9
$DWGCODEPAGE
3
ANSI_1252
9
$HANDSEED
5
1ee
9
$ANGBASE
50
0
9
$ANGDIR
70
0
9
$ATTMODE
70
1
9
$AUNITS
70
0
9
$AUPREC
70
0
9
$CECOLOR
62
256
9
$CELTSCALE
40
1
9
$CELTYPE
6
ByLayer
9
$CELWEIGHT
370
18
9
$CLAYER
8
0
9
$CMLJUST
70
0
9
$CMLSCALE
40
1
9
$CMLSTYLE
2
Standard
9
$DIMSTYLE
2
Standard
9
$TEXTSIZE
40
0.2
9
$TEXTSTYLE
7
Standard
9
$LUNITS
70
2
9
$LUPREC
70
4
9
$EXTNAMES
290
1
9
$INSUNITS
70
4
9
$LTSCALE
40
1
9
$LWDISPLAY
290
1
9
$PDMODE
70
0
9
$PDSIZE
40
0
9
$PLINEGEN
70
0
0
ENDSEC
0
SECTION
2
CLASSES
0
CLASS
1
RASTERVARIABLES
2
AcDbRasterVariables
3
ISM
90
0
280
0
281
0
0
ENDSEC
0
SECTION
2
TABLES
0
TABLE
2
VPORT
5
1e4
100
AcDbSymbolTable
0
VPORT
5
1
100
AcDbSymbolTableRecord
100
AcDbViewportTableRecord
2
*Active
70
0
10
0
20
0
11
1
21
1
12
-1
22
1
13
0
23
0
14
0.5
24
0.5
15
10
25
10
16
0
26
0
36
1
17
0
27
0
37
0
0
ENDTAB
0
TABLE
2
LTYPE
5
1e5
100
AcDbSymbolTable
0
LTYPE
5
14
100
AcDbSymbolTableRecord
100
AcDbLinetypeTableRecord
70
0
2
ByBlock
3

72
65
73
0
40
0
0
LTYPE
5
15
100
AcDbSymbolTableRecord
100
AcDbLinetypeTableRecord
70
0
2
ByLayer
3

72
65
73
0
40
0
0
LTYPE
5
16
100
AcDbSymbolTableRecord
100
AcDbLinetypeTableRecord
70
0
2
Continuous
3
Solid line
72
65
73
0
40
0
0
LTYPE
5
6E
100
AcDbSymbolTableRecord
100
AcDbLinetypeTableRecord
70
0
2
CENTER
3
____ _ ____ _ ____ _ ____
72
65
73
4
40
47.5
49
22
74
0
49
-8.5
74
0
49
8.5
74
0
49
-8.5
74
0
0
LTYPE
5
6F
100
AcDbSymbolTableRecord
100
AcDbLinetypeTableRecord
70
0
2
DASHED
3
__ __ __ __ __ __ __ __ __
72
65
73
2
40
25.72
49
12.86
74
0
49
-12.86
74
0
0
ENDTAB
0
TABLE
2
LAYER
5
1e6
100
AcDbSymbolTable
0
LAYER
5
10
100
AcDbSymbolTableRecord
100
AcDbLayerTableRecord
2
0
70
0
62
7
6
Continuous
290
1
370
-3
390
0
0
LAYER
5
71
100
AcDbSymbolTableRecord
100
AcDbLayerTableRecord
2
80
70
0
62
-6
6
Continuous
290
1
370
-3
390
0
0
LAYER
5
73
100
AcDbSymbolTableRecord
100
AcDbLayerTableRecord
2
81
70
0
62
-3
6
Continuous
290
1
370
-3
390
0
0
LAYER
5
75
100
AcDbSymbolTableRecord
100
AcDbLayerTableRecord
2
1
70
0
62
4
6
Continuous
290
1
370
-3
390
0
0
LAYER
5
9C
100
AcDbSymbolTableRecord
100
AcDbLayerTableRecord
2
4
70
0
62
-2
6
CENTER
290
1
370
-3
390
0
0
LAYER
5
AC
100
AcDbSymbolTableRecord
100
AcDbLayerTableRecord
2
2
70
0
62
7
6
Continuous
290
1
370
-3
390
0
0
LAYER
5
F6
100
AcDbSymbolTableRecord
100
AcDbLayerTableRecord
2
Defpoints
70
0
62
7
6
Continuous
290
0
370
-3
390
0
0
LAYER
5
1d0
100
AcDbSymbolTableRecord
100
AcDbLayerTableRecord
2
SK1
70
0
62
4
6
Continuous
290
1
370
-3
390
0
0
LAYER
5
1d1
100
AcDbSymbolTableRecord
100
AcDbLayerTableRecord
2
SK4
70
0
62
2
6
CENTER
290
1
370
-3
390
0
0
LAYER
5
1d2
100
AcDbSymbolTableRecord
100
AcDbLayerTableRecord
2
SK2
70
0
62
7
6
Continuous
290
1
370
-3
390
0
0
LAYER
5
1d3
100
AcDbSymbolTableRecord
100
AcDbLayerTableRecord
2
SK6
70
0
62
5
6
Continuous
290
1
370
-3
390
0
0
ENDTAB
0
TABLE
2
STYLE
5
1e7
100
AcDbSymbolTable
0
STYLE
5
11
100
AcDbSymbolTableRecord
100
AcDbTextStyleTableRecord
2
Standard
3
txt
70
0
71
0
40
0
41
1
42
0
50
0
0
STYLE
5
D2
100
AcDbSymbolTableRecord
100
AcDbTextStyleTableRecord
2
iso_b_vert
3
simplex.shx
70
0
71
0
40
0
41
1
42
0
50
0
0
STYLE
5
D3
100
AcDbSymbolTableRecord
100
AcDbTextStyleTableRecord
2
DWGDirectTextStyle
3
simplex
70
0
71
0
40
0
41
1
42
0
50
0
0
ENDTAB
0
TABLE
2
DIMSTYLE
5
1e8
100
AcDbSymbolTable
100
AcDbDimStyleTable
0
DIMSTYLE
105
27
100
AcDbSymbolTableRecord
100
AcDbDimStyleTableRecord
2
Standard
70
0
3
<>
41
0.18
42
0.0625
44
0.18
140
0.18
147
0.09
73
0
74
0
77
1
271
2
275
0
278
52
280
0
340
11
0
ENDTAB
0
TABLE
2
VIEW
5
1e9
100
AcDbSymbolTable
0
ENDTAB
0
TABLE
2
UCS
5
1ea
100
AcDbSymbolTable
0
ENDTAB
0
TABLE
2
APPID
5
1eb
100
AcDbSymbolTable
0
APPID
5
12
100
AcDbSymbolTableRecord
100
AcDbRegAppTableRecord
2
ACAD
70
0
0
APPID
5
F2
100
AcDbSymbolTableRecord
100
AcDbRegAppTableRecord
2
ACAD_DSTYLE_DIMBREAK
70
0
0
APPID
5
18F
100
AcDbSymbolTableRecord
100
AcDbRegAppTableRecord
2
ACAD_DSTYLE_DIM_LINETYPE
70
0
0
APPID
5
190
100
AcDbSymbolTableRecord
100
AcDbRegAppTableRecord
2
ACAD_DSTYLE_DIM_EXT1_LINETYPE
70
0
0
APPID
5
191
100
AcDbSymbolTableRecord
100
AcDbRegAppTableRecord
2
ACAD_DSTYLE_DIM_EXT2_LINETYPE
70
0
0
APPID
5
1CC
100
AcDbSymbolTableRecord
100
AcDbRegAppTableRecord
2
ACAD_MLEADERVER
70
0
0
ENDTAB
0
TABLE
2
BLOCK_RECORD
5
1ec
100
AcDbSymbolTable
0
BLOCK_RECORD
5
1F
100
AcDbSymbolTableRecord
100
AcDbBlockTableRecord
2
*Model_Space
340
0
70
0
0
BLOCK_RECORD
5
1B
100
AcDbSymbolTableRecord
100
AcDbBlockTableRecord
2
*Paper_Space
340
0
70
0
0
BLOCK_RECORD
5
23
100
AcDbSymbolTableRecord
100
AcDbBlockTableRecord
2
*Paper_Space0
340
0
70
0
0
BLOCK_RECORD
5
F7
100
AcDbSymbolTableRecord
100
AcDbBlockTableRecord
2
*D1
340
0
70
0
0
BLOCK_RECORD
5
103
100
AcDbSymbolTableRecord
100
AcDbBlockTableRecord
2
_U0
340
0
70
0
0
BLOCK_RECORD
5
10F
100
AcDbSymbolTableRecord
100
AcDbBlockTableRecord
2
*D3
340
0
70
0
0
BLOCK_RECORD
5
11D
100
AcDbSymbolTableRecord
100
AcDbBlockTableRecord
2
_U1
340
0
70
0
0
BLOCK_RECORD
5
129
100
AcDbSymbolTableRecord
100
AcDbBlockTableRecord
2
*D5
340
0
70
0
0
BLOCK_RECORD
5
137
100
AcDbSymbolTableRecord
100
AcDbBlockTableRecord
2
_U2
340
0
70
0
0
BLOCK_RECORD
5
143
100
AcDbSymbolTableRecord
100
AcDbBlockTableRecord
2
*D7
340
0
70
0
0
BLOCK_RECORD
5
14F
100
AcDbSymbolTableRecord
100
AcDbBlockTableRecord
2
_U3
340
0
70
0
0
BLOCK_RECORD
5
15B
100
AcDbSymbolTableRecord
100
AcDbBlockTableRecord
2
*D9
340
0
70
0
0
BLOCK_RECORD
5
168
100
AcDbSymbolTableRecord
100
AcDbBlockTableRecord
2
_U4
340
0
70
0
0
ENDTAB
0
ENDSEC
0
SECTION
2
BLOCKS
0
BLOCK
5
20
100
AcDbEntity
8
0
100
AcDbBlockBegin
2
*Model_Space
70
0
10
0
20
0
30
0
3
*Model_Space
0
ENDBLK
5
21
100
AcDbEntity
8
0
100
AcDbBlockEnd
0
BLOCK
5
1C
100
AcDbEntity
8
0
100
AcDbBlockBegin
2
*Paper_Space
70
0
10
0
20
0
30
0
3
*Paper_Space
0
ENDBLK
5
1D
100
AcDbEntity
8
0
100
AcDbBlockEnd
0
BLOCK
5
24
100
AcDbEntity
8
0
100
AcDbBlockBegin
2
*Paper_Space0
70
0
10
0
20
0
30
0
3
*Paper_Space0
0
ENDBLK
5
25
100
AcDbEntity
8
0
100
AcDbBlockEnd
0
BLOCK
5
F8
100
AcDbEntity
8
0
100
AcDbBlockBegin
2
*D1
70
1
10
0
20
0
30
0
3
*D1
0
LINE
5
FA
100
AcDbEntity
8
0
62
256
6
ByLayer
370
-2
48
1
60
0
100
AcDbLine
10
-27.1126
20
-0.0875
30
0
11
-27.1126
21
-37.85
31
0
39
0
210
0
220
0
230
1
0
LINE
5
FB
100
AcDbEntity
8
0
62
256
6
ByLayer
370
-2
48
1
60
0
100
AcDbLine
10
10.8874
20
-1.0225
30
0
11
10.8874
21
-37.85
31
0
39
0
210
0
220
0
230
1
0
LINE
5
FC
100
AcDbEntity
8
0
62
256
6
ByLayer
370
-2
48
1
60
0
100
AcDbLine
10
-23.6126
20
-35.85
30
0
11
7.3874
21
-35.85
31
0
39
0
210
0
220
0
230
1
0
SOLID
5
FD
100
AcDbEntity
8
0
62
256
6
ByLayer
370
-1
48
1
60
0
100
AcDbTrace
10
-23.6126
20
-35.266667
30
0
11
-23.6126
21
-36.433333
31
0
12
-27.1126
22
-35.85
32
0
13
-27.1126
23
-35.85
33
0
39
0
210
0
220
0
230
1
0
SOLID
5
FE
100
AcDbEntity
8
0
62
256
6
ByLayer
370
-1
48
1
60
0
100
AcDbTrace
10
7.3874
20
-36.433333
30
0
11
7.3874
21
-35.266667
31
0
12
10.8874
22
-35.85
32
0
13
10.8874
23
-35.85
33
0
39
0
210
0
220
0
230
1
0
MTEXT
5
FF
100
AcDbEntity
8
0
62
256
6
ByLayer
370
18
48
1
60
0
100
AcDbMText
10
-8.1126
20
-29.85
30
0
210
0
220
0
230
1
1
\A1;38
40
3
41
0
44
1
50
0
71
5
72
5
7
iso_b_vert
0
POINT
5
100
100
AcDbEntity
8
Defpoints
62
0
6
ByLayer
370
-1
48
1
60
0
100
AcDbPoint
10
-27.1126
20
1.5
30
0
39
0
210
0
220
0
230
1
50
360
0
POINT
5
101
100
AcDbEntity
8
Defpoints
62
0
6
ByLayer
370
-1
48
1
60
0
100
AcDbPoint
10
10.8874
20
0.565
30
0
39
0
210
0
220
0
230
1
50
360
0
POINT
5
102
100
AcDbEntity
8
Defpoints
62
0
6
ByLayer
370
-1
48
1
60
0
100
AcDbPoint
10
10.8874
20
-35.85
30
0
39
0
210
0
220
0
230
1
50
360
0
ENDBLK
5
F9
100
AcDbEntity
8
0
100
AcDbBlockEnd
0
BLOCK
5
10A
100
AcDbEntity
8
0
100
AcDbBlockBegin
2
_U0
70
0
10
0
20
0
30
0
3
_U0
0
MTEXT
5
104
100
AcDbEntity
8
SK2
62
256
6
ByLayer
370
18
48
1
60
0
100
AcDbMText
10
-12.59497
20
-34.964886
30
0
210
0
220
0
230
1
1
\W0.7468;38.00
40
3
41
0
44
1.084337
50
0
71
7
72
5
7
iso_b_vert
0
LINE
5
105
100
AcDbEntity
8
SK2
62
256
6
ByLayer
370
13
48
1
60
0
100
AcDbLine
10
-27.1126
20
-0.0875
30
0
11
-27.1126
21
-37.85
31
0
39
0
210
0
220
0
230
1
0
LINE
5
106
100
AcDbEntity
8
SK2
62
256
6
ByLayer
370
13
48
1
60
0
100
AcDbLine
10
10.8874
20
-1.0225
30
0
11
10.8874
21
-37.85
31
0
39
0
210
0
220
0
230
1
0
LINE
5
107
100
AcDbEntity
8
SK2
62
256
6
ByLayer
370
13
48
1
60
0
100
AcDbLine
10
-27.1126
20
-35.85
30
0
11
10.8874
21
-35.85
31
0
39
0
210
0
220
0
230
1
0
SOLID
5
108
100
AcDbEntity
8
SK2
62
256
6
ByLayer
370
18
48
1
60
0
100
AcDbTrace
10
-27.1126
20
-35.85
30
0
11
-23.612602
21
-35.389216
31
0
12
-23.612598
22
-36.310784
32
0
13
-23.612598
23
-36.310784
33
0
39
0
210
0
220
0
230
1
0
SOLID
5
109
100
AcDbEntity
8
SK2
62
256
6
ByLayer
370
18
48
1
60
0
100
AcDbTrace
10
10.8874
20
-35.85
30
0
11
7.387402
21
-36.310784
31
0
12
7.387398
22
-35.389216
32
0
13
7.387398
23
-35.389216
33
0
39
0
210
0
220
0
230
1
0
ENDBLK
5
10B
100
AcDbEntity
8
0
100
AcDbBlockEnd
0
BLOCK
5
110
100
AcDbEntity
8
0
100
AcDbBlockBegin
2
*D3
70
1
10
0
20
0
30
0
3
*D3
0
LINE
5
112
100
AcDbEntity
8
0
62
256
6
ByLayer
370
-2
48
1
60
0
100
AcDbLine
10
10.8874
20
-1.0225
30
0
11
10.8874
21
-24.065
31
0
39
0
210
0
220
0
230
1
0
LINE
5
113
100
AcDbEntity
8
0
62
256
6
ByLayer
370
-2
48
1
60
0
100
AcDbLine
10
5.2824
20
-1.5875
30
0
11
5.2824
21
-24.065
31
0
39
0
210
0
220
0
230
1
0
LINE
5
114
100
AcDbEntity
8
0
62
256
6
ByLayer
370
-2
48
1
60
0
100
AcDbLine
10
10.8874
20
-22.065
30
0
11
35.173114
21
-22.065
31
0
39
0
210
0
220
0
230
1
0
LINE
5
115
100
AcDbEntity
8
0
62
256
6
ByLayer
370
-2
48
1
60
0
100
AcDbLine
10
14.3874
20
-22.065
30
0
11
17.8874
21
-22.065
31
0
39
0
210
0
220
0
230
1
0
LINE
5
116
100
AcDbEntity
8
0
62
256
6
ByLayer
370
-2
48
1
60
0
100
AcDbLine
10
1.7824
20
-22.065
30
0
11
-1.7176
21
-22.065
31
0
39
0
210
0
220
0
230
1
0
SOLID
5
117
100
AcDbEntity
8
0
62
256
6
ByLayer
370
-1
48
1
60
0
100
AcDbTrace
10
14.3874
20
-21.481667
30
0
11
14.3874
21
-22.648333
31
0
12
10.8874
22
-22.065
32
0
13
10.8874
23
-22.065
33
0
39
0
210
0
220
0
230
1
0
SOLID
5
118
100
AcDbEntity
8
0
62
256
6
ByLayer
370
-1
48
1
60
0
100
AcDbTrace
10
1.7824
20
-22.648333
30
0
11
1.7824
21
-21.481667
31
0
12
5.2824
22
-22.065
32
0
13
5.2824
23
-22.065
33
0
39
0
210
0
220
0
230
1
0
MTEXT
5
119
100
AcDbEntity
8
0
62
256
6
ByLayer
370
18
48
1
60
0
100
AcDbMText
10
26.530257
20
-16.065
30
0
210
0
220
0
230
1
1
\A1;5.61
40
3
41
0
44
1
50
0
71
5
72
5
7
iso_b_vert
0
POINT
5
11A
100
AcDbEntity
8
Defpoints
62
0
6
ByLayer
370
-1
48
1
60
0
100
AcDbPoint
10
10.8874
20
0.565
30
0
39
0
210
0
220
0
230
1
50
360
0
POINT
5
11B
100
AcDbEntity
8
Defpoints
62
0
6
ByLayer
370
-1
48
1
60
0
100
AcDbPoint
10
5.2824
20
0
30
0
39
0
210
0
220
0
230
1
50
360
0
POINT
5
11C
100
AcDbEntity
8
Defpoints
62
0
6
ByLayer
370
-1
48
1
60
0
100
AcDbPoint
10
5.2824
20
-22.065
30
0
39
0
210
0
220
0
230
1
50
360
0
ENDBLK
5
111
100
AcDbEntity
8
0
100
AcDbBlockEnd
0
BLOCK
5
124
100
AcDbEntity
8
0
100
AcDbBlockBegin
2
_U1
70
0
10
0
20
0
30
0
3
_U1
0
MTEXT
5
11E
100
AcDbEntity
8
SK2
62
256
6
ByLayer
370
18
48
1
60
0
100
AcDbMText
10
15.0464
20
-21.179886
30
0
210
0
220
0
230
1
1
\W0.7051;(5.60)
40
3
41
0
44
1.084337
50
0
71
7
72
5
7
iso_b_vert
0
LINE
5
11F
100
AcDbEntity
8
SK2
62
256
6
ByLayer
370
13
48
1
60
0
100
AcDbLine
10
10.8874
20
-1.0225
30
0
11
10.8874
21
-24.065
31
0
39
0
210
0
220
0
230
1
0
LINE
5
120
100
AcDbEntity
8
SK2
62
256
6
ByLayer
370
13
48
1
60
0
100
AcDbLine
10
5.2824
20
-1.5875
30
0
11
5.2824
21
-24.065
31
0
39
0
210
0
220
0
230
1
0
LINE
5
121
100
AcDbEntity
8
SK2
62
256
6
ByLayer
370
13
48
1
60
0
100
AcDbLine
10
-2.2176
20
-22.065
30
0
11
24.359169
21
-22.065
31
0
39
0
210
0
220
0
230
1
0
SOLID
5
122
100
AcDbEntity
8
SK2
62
256
6
ByLayer
370
18
48
1
60
0
100
AcDbTrace
10
10.8874
20
-22.065
30
0
11
14.387398
21
-21.604216
31
0
12
14.387402
22
-22.525784
32
0
13
14.387402
23
-22.525784
33
0
39
0
210
0
220
0
230
1
0
SOLID
5
123
100
AcDbEntity
8
SK2
62
256
6
ByLayer
370
18
48
1
60
0
100
AcDbTrace
10
5.2824
20
-22.065
30
0
11
1.782402
21
-22.525784
31
0
12
1.782398
22
-21.604216
32
0
13
1.782398
23
-21.604216
33
0
39
0
210
0
220
0
230
1
0
ENDBLK
5
125
100
AcDbEntity
8
0
100
AcDbBlockEnd
0
BLOCK
5
12A
100
AcDbEntity
8
0
100
AcDbBlockBegin
2
*D5
70
1
10
0
20
0
30
0
3
*D5
0
LINE
5
12C
100
AcDbEntity
8
0
62
256
6
ByLayer
370
-2
48
1
60
0
100
AcDbLine
10
10.8874
20
-1.0225
30
0
11
10.8874
21
-32.065
31
0
39
0
210
0
220
0
230
1
0
LINE
5
12D
100
AcDbEntity
8
0
62
256
6
ByLayer
370
-2
48
1
60
0
100
AcDbLine
10
3.5874
20
-1.5875
30
0
11
3.5874
21
-32.065
31
0
39
0
210
0
220
0
230
1
0
LINE
5
12E
100
AcDbEntity
8
0
62
256
6
ByLayer
370
-2
48
1
60
0
100
AcDbLine
10
10.8874
20
-30.065
30
0
11
33.173114
21
-30.065
31
0
39
0
210
0
220
0
230
1
0
LINE
5
12F
100
AcDbEntity
8
0
62
256
6
ByLayer
370
-2
48
1
60
0
100
AcDbLine
10
14.3874
20
-30.065
30
0
11
17.8874
21
-30.065
31
0
39
0
210
0
220
0
230
1
0
LINE
5
130
100
AcDbEntity
8
0
62
256
6
ByLayer
370
-2
48
1
60
0
100
AcDbLine
10
0.0874
20
-30.065
30
0
11
-3.4126
21
-30.065
31
0
39
0
210
0
220
0
230
1
0
SOLID
5
131
100
AcDbEntity
8
0
62
256
6
ByLayer
370
-1
48
1
60
0
100
AcDbTrace
10
14.3874
20
-29.481667
30
0
11
14.3874
21
-30.648333
31
0
12
10.8874
22
-30.065
32
0
13
10.8874
23
-30.065
33
0
39
0
210
0
220
0
230
1
0
SOLID
5
132
100
AcDbEntity
8
0
62
256
6
ByLayer
370
-1
48
1
60
0
100
AcDbTrace
10
0.0874
20
-30.648333
30
0
11
0.0874
21
-29.481667
31
0
12
3.5874
22
-30.065
32
0
13
3.5874
23
-30.065
33
0
39
0
210
0
220
0
230
1
0
MTEXT
5
133
100
AcDbEntity
8
0
62
256
6
ByLayer
370
18
48
1
60
0
100
AcDbMText
10
25.530257
20
-24.065
30
0
210
0
220
0
230
1
1
\A1;7.3
40
3
41
0
44
1
50
0
71
5
72
5
7
iso_b_vert
0
POINT
5
134
100
AcDbEntity
8
Defpoints
62
0
6
ByLayer
370
-1
48
1
60
0
100
AcDbPoint
10
10.8874
20
0.565
30
0
39
0
210
0
220
0
230
1
50
360
0
POINT
5
135
100
AcDbEntity
8
Defpoints
62
0
6
ByLayer
370
-1
48
1
60
0
100
AcDbPoint
10
3.5874
20
0
30
0
39
0
210
0
220
0
230
1
50
360
0
POINT
5
136
100
AcDbEntity
8
Defpoints
62
0
6
ByLayer
370
-1
48
1
60
0
100
AcDbPoint
10
3.5874
20
-30.065
30
0
39
0
210
0
220
0
230
1
50
360
0
ENDBLK
5
12B
100
AcDbEntity
8
0
100
AcDbBlockEnd
0
BLOCK
5
13E
100
AcDbEntity
8
0
100
AcDbBlockBegin
2
_U2
70
0
10
0
20
0
30
0
3
_U2
0
MTEXT
5
138
100
AcDbEntity
8
SK2
62
256
6
ByLayer
370
18
48
1
60
0
100
AcDbMText
10
14.0464
20
-29.179886
30
0
210
0
220
0
230
1
1
\W0.7346;7.30
40
3
41
0
44
1.084337
50
0
71
7
72
5
7
iso_b_vert
0
LINE
5
139
100
AcDbEntity
8
SK2
62
256
6
ByLayer
370
13
48
1
60
0
100
AcDbLine
10
10.8874
20
-1.0225
30
0
11
10.8874
21
-32.065
31
0
39
0
210
0
220
0
230
1
0
LINE
5
13A
100
AcDbEntity
8
SK2
62
256
6
ByLayer
370
13
48
1
60
0
100
AcDbLine
10
3.5874
20
-1.5875
30
0
11
3.5874
21
-32.065
31
0
39
0
210
0
220
0
230
1
0
LINE
5
13B
100
AcDbEntity
8
SK2
62
256
6
ByLayer
370
13
48
1
60
0
100
AcDbLine
10
3.5874
20
-30.065
30
0
11
20.928313
21
-30.065
31
0
39
0
210
0
220
0
230
1
0
SOLID
5
13C
100
AcDbEntity
8
SK2
62
256
6
ByLayer
370
18
48
1
60
0
100
AcDbTrace
10
10.8874
20
-30.065
30
0
11
7.387402
21
-30.525784
31
0
12
7.387398
22
-29.604216
32
0
13
7.387398
23
-29.604216
33
0
39
0
210
0
220
0
230
1
0
SOLID
5
13D
100
AcDbEntity
8
SK2
62
256
6
ByLayer
370
18
48
1
60
0
100
AcDbTrace
10
3.5874
20
-30.065
30
0
11
7.087398
21
-29.604216
31
0
12
7.087402
22
-30.525784
32
0
13
7.087402
23
-30.525784
33
0
39
0
210
0
220
0
230
1
0
ENDBLK
5
13F
100
AcDbEntity
8
0
100
AcDbBlockEnd
0
BLOCK
5
144
100
AcDbEntity
8
0
100
AcDbBlockBegin
2
*D7
70
1
10
0
20
0
30
0
3
*D7
0
LINE
5
146
100
AcDbEntity
8
0
62
256
6
ByLayer
370
-2
48
1
60
0
100
AcDbLine
10
-27.1126
20
1.5875
30
0
11
-27.1126
21
13.35
31
0
39
0
210
0
220
0
230
1
0
LINE
5
147
100
AcDbEntity
8
0
62
256
6
ByLayer
370
-2
48
1
60
0
100
AcDbLine
10
0
20
1.5875
30
0
11
0
21
13.35
31
0
39
0
210
0
220
0
230
1
0
LINE
5
148
100
AcDbEntity
8
0
62
256
6
ByLayer
370
-2
48
1
60
0
100
AcDbLine
10
-23.6126
20
11.35
30
0
11
-3.5
21
11.35
31
0
39
0
210
0
220
0
230
1
0
SOLID
5
149
100
AcDbEntity
8
0
62
256
6
ByLayer
370
-1
48
1
60
0
100
AcDbTrace
10
-23.6126
20
11.933333
30
0
11
-23.6126
21
10.766667
31
0
12
-27.1126
22
11.35
32
0
13
-27.1126
23
11.35
33
0
39
0
210
0
220
0
230
1
0
SOLID
5
14A
100
AcDbEntity
8
0
62
256
6
ByLayer
370
-1
48
1
60
0
100
AcDbTrace
10
-3.5
20
10.766667
30
0
11
-3.5
21
11.933333
31
0
12
0
22
11.35
32
0
13
0
23
11.35
33
0
39
0
210
0
220
0
230
1
0
MTEXT
5
14B
100
AcDbEntity
8
0
62
256
6
ByLayer
370
18
48
1
60
0
100
AcDbMText
10
-13.5563
20
17.35
30
0
210
0
220
0
230
1
1
\A1;27.11
40
3
41
0
44
1
50
0
71
5
72
5
7
iso_b_vert
0
POINT
5
14C
100
AcDbEntity
8
Defpoints
62
0
6
ByLayer
370
-1
48
1
60
0
100
AcDbPoint
10
-27.1126
20
0
30
0
39
0
210
0
220
0
230
1
50
360
0
POINT
5
14D
100
AcDbEntity
8
Defpoints
62
0
6
ByLayer
370
-1
48
1
60
0
100
AcDbPoint
10
0
20
0
30
0
39
0
210
0
220
0
230
1
50
360
0
POINT
5
14E
100
AcDbEntity
8
Defpoints
62
0
6
ByLayer
370
-1
48
1
60
0
100
AcDbPoint
10
0
20
11.35
30
0
39
0
210
0
220
0
230
1
50
360
0
ENDBLK
5
145
100
AcDbEntity
8
0
100
AcDbBlockEnd
0
BLOCK
5
156
100
AcDbEntity
8
0
100
AcDbBlockBegin
2
_U3
70
0
10
0
20
0
30
0
3
_U3
0
MTEXT
5
150
100
AcDbEntity
8
SK2
62
256
6
ByLayer
370
18
48
1
60
0
100
AcDbMText
10
-17.288785
20
12.235114
30
0
210
0
220
0
230
1
1
\W0.6725;27.11
40
3
41
0
44
1.084337
50
0
71
7
72
5
7
iso_b_vert
0
LINE
5
151
100
AcDbEntity
8
SK2
62
256
6
ByLayer
370
13
48
1
60
0
100
AcDbLine
10
-27.1126
20
1.5875
30
0
11
-27.1126
21
13.35
31
0
39
0
210
0
220
0
230
1
0
LINE
5
152
100
AcDbEntity
8
SK2
62
256
6
ByLayer
370
13
48
1
60
0
100
AcDbLine
10
0
20
1.5875
30
0
11
0
21
13.35
31
0
39
0
210
0
220
0
230
1
0
LINE
5
153
100
AcDbEntity
8
SK2
62
256
6
ByLayer
370
13
48
1
60
0
100
AcDbLine
10
-27.1126
20
11.35
30
0
11
0
21
11.35
31
0
39
0
210
0
220
0
230
1
0
SOLID
5
154
100
AcDbEntity
8
SK2
62
256
6
ByLayer
370
18
48
1
60
0
100
AcDbTrace
10
-27.1126
20
11.35
30
0
11
-23.612602
21
11.810784
31
0
12
-23.612598
22
10.889216
32
0
13
-23.612598
23
10.889216
33
0
39
0
210
0
220
0
230
1
0
SOLID
5
155
100
AcDbEntity
8
SK2
62
256
6
ByLayer
370
18
48
1
60
0
100
AcDbTrace
10
0
20
11.35
30
0
11
-3.499998
21
10.889216
31
0
12
-3.500002
22
11.810784
32
0
13
-3.500002
23
11.810784
33
0
39
0
210
0
220
0
230
1
0
ENDBLK
5
157
100
AcDbEntity
8
0
100
AcDbBlockEnd
0
BLOCK
5
15C
100
AcDbEntity
8
0
100
AcDbBlockBegin
2
*D9
70
1
10
0
20
0
30
0
3
*D9
0
LINE
5
15E
100
AcDbEntity
8
0
62
256
6
ByLayer
370
-2
48
1
60
0
100
AcDbLine
10
10.8874
20
2.1525
30
0
11
10.8874
21
13.35
31
0
39
0
210
0
220
0
230
1
0
LINE
5
15F
100
AcDbEntity
8
0
62
256
6
ByLayer
370
-2
48
1
60
0
100
AcDbLine
10
0
20
1.5875
30
0
11
0
21
13.35
31
0
39
0
210
0
220
0
230
1
0
LINE
5
160
100
AcDbEntity
8
0
62
256
6
ByLayer
370
-2
48
1
60
0
100
AcDbLine
10
14.3874
20
11.35
30
0
11
17.8874
21
11.35
31
0
39
0
210
0
220
0
230
1
0
LINE
5
161
100
AcDbEntity
8
0
62
256
6
ByLayer
370
-2
48
1
60
0
100
AcDbLine
10
-3.5
20
11.35
30
0
11
-7
21
11.35
31
0
39
0
210
0
220
0
230
1
0
SOLID
5
162
100
AcDbEntity
8
0
62
256
6
ByLayer
370
-1
48
1
60
0
100
AcDbTrace
10
14.3874
20
11.933333
30
0
11
14.3874
21
10.766667
31
0
12
10.8874
22
11.35
32
0
13
10.8874
23
11.35
33
0
39
0
210
0
220
0
230
1
0
SOLID
5
163
100
AcDbEntity
8
0
62
256
6
ByLayer
370
-1
48
1
60
0
100
AcDbTrace
10
-3.5
20
10.766667
30
0
11
-3.5
21
11.933333
31
0
12
0
22
11.35
32
0
13
0
23
11.35
33
0
39
0
210
0
220
0
230
1
0
MTEXT
5
164
100
AcDbEntity
8
0
62
256
6
ByLayer
370
18
48
1
60
0
100
AcDbMText
10
5.4437
20
17.35
30
0
210
0
220
0
230
1
1
\A1;10.89
40
3
41
0
44
1
50
0
71
5
72
5
7
iso_b_vert
0
POINT
5
165
100
AcDbEntity
8
Defpoints
62
0
6
ByLayer
370
-1
48
1
60
0
100
AcDbPoint
10
10.8874
20
0.565
30
0
39
0
210
0
220
0
230
1
50
360
0
POINT
5
166
100
AcDbEntity
8
Defpoints
62
0
6
ByLayer
370
-1
48
1
60
0
100
AcDbPoint
10
0
20
0
30
0
39
0
210
0
220
0
230
1
50
360
0
POINT
5
167
100
AcDbEntity
8
Defpoints
62
0
6
ByLayer
370
-1
48
1
60
0
100
AcDbPoint
10
0
20
11.35
30
0
39
0
210
0
220
0
230
1
50
360
0
ENDBLK
5
15D
100
AcDbEntity
8
0
100
AcDbBlockEnd
0
BLOCK
5
16F
100
AcDbEntity
8
0
100
AcDbBlockBegin
2
_U4
70
0
10
0
20
0
30
0
3
_U4
0
MTEXT
5
169
100
AcDbEntity
8
2
62
256
6
ByLayer
370
18
48
1
60
0
100
AcDbMText
10
1.336272
20
12.235114
30
0
210
0
220
0
230
1
1
\W0.6944;10.89
40
3
41
0
44
1.084337
50
0
71
7
72
5
7
iso_b_vert
0
LINE
5
16A
100
AcDbEntity
8
2
62
256
6
ByLayer
370
13
48
1
60
0
100
AcDbLine
10
10.8874
20
2.1525
30
0
11
10.8874
21
13.35
31
0
39
0
210
0
220
0
230
1
0
LINE
5
16B
100
AcDbEntity
8
2
62
256
6
ByLayer
370
13
48
1
60
0
100
AcDbLine
10
0
20
1.5875
30
0
11
0
21
13.35
31
0
39
0
210
0
220
0
230
1
0
LINE
5
16C
100
AcDbEntity
8
2
62
256
6
ByLayer
370
13
48
1
60
0
100
AcDbLine
10
10.8874
20
11.35
30
0
11
0
21
11.35
31
0
39
0
210
0
220
0
230
1
0
SOLID
5
16D
100
AcDbEntity
8
2
62
256
6
ByLayer
370
18
48
1
60
0
100
AcDbTrace
10
10.8874
20
11.35
30
0
11
7.387402
21
10.889216
31
0
12
7.387398
22
11.810784
32
0
13
7.387398
23
11.810784
33
0
39
0
210
0
220
0
230
1
0
SOLID
5
16E
100
AcDbEntity
8
2
62
256
6
ByLayer
370
18
48
1
60
0
100
AcDbTrace
10
0
20
11.35
30
0
11
3.499998
21
11.810784
31
0
12
3.500002
22
10.889216
32
0
13
3.500002
23
10.889216
33
0
39
0
210
0
220
0
230
1
0
ENDBLK
5
170
100
AcDbEntity
8
0
100
AcDbBlockEnd
0
ENDSEC
0
SECTION
2
ENTITIES
0
ARC
5
BD
100
AcDbEntity
8
1
62
256
6
ByLayer
370
18
48
1
60
0
100
AcDbCircle
39
0
10
1.887444
20
-1.565
30
0
40
1
210
0
220
0
230
1
100
AcDbArc
50
90
51
120
0
ARC
5
BE
100
AcDbEntity
8
1
62
256
6
ByLayer
370
18
48
1
60
0
100
AcDbCircle
39
0
10
1.887444
20
1.565
30
0
40
1
210
0
220
0
230
1
100
AcDbArc
50
240
51
270
0
ARC
5
BF
100
AcDbEntity
8
SK2
62
256
6
ByLayer
370
13
48
1
60
0
100
AcDbCircle
39
0
10
10.8874
20
0
30
0
40
16.35
210
0
220
0
230
1
100
AcDbArc
50
10.57289
51
65
0
ARC
5
C0
100
AcDbEntity
8
SK2
62
256
6
ByLayer
370
13
48
1
60
0
100
AcDbCircle
39
0
10
10.8874
20
0
30
0
40
16.35
210
0
220
0
230
1
100
AcDbArc
50
295
51
349.42711
0
POINT
5
70
100
AcDbEntity
8
80
62
256
6
ByLayer
370
18
48
1
60
0
100
AcDbPoint
10
0
20
0
30
0
39
0
210
0
220
0
230
1
50
360
0
POINT
5
72
100
AcDbEntity
8
81
62
256
6
ByLayer
370
18
48
1
60
0
100
AcDbPoint
10
10.8874
20
0
30
0
39
0
210
0
220
0
230
1
50
360
0
POINT
5
74
100
AcDbEntity
8
1
62
256
6
ByLayer
370
18
48
1
60
1
100
AcDbPoint
10
-27.1126
20
1.5
30
0
39
0
210
0
220
0
230
1
50
360
0
POINT
5
76
100
AcDbEntity
8
1
62
256
6
ByLayer
370
18
48
1
60
1
100
AcDbPoint
10
10.8874
20
0.565
30
0
39
0
210
0
220
0
230
1
50
360
0
POINT
5
77
100
AcDbEntity
8
1
62
256
6
ByLayer
370
18
48
1
60
1
100
AcDbPoint
10
10.8874
20
0.565
30
0
39
0
210
0
220
0
230
1
50
360
0
POINT
5
78
100
AcDbEntity
8
1
62
256
6
ByLayer
370
18
48
1
60
1
100
AcDbPoint
10
5.2824
20
0
30
0
39
0
210
0
220
0
230
1
50
360
0
POINT
5
79
100
AcDbEntity
8
1
62
256
6
ByLayer
370
18
48
1
60
1
100
AcDbPoint
10
10.8874
20
0.565
30
0
39
0
210
0
220
0
230
1
50
360
0
POINT
5
7A
100
AcDbEntity
8
1
62
256
6
ByLayer
370
18
48
1
60
1
100
AcDbPoint
10
3.5874
20
0
30
0
39
0
210
0
220
0
230
1
50
360
0
POINT
5
7B
100
AcDbEntity
8
1
62
256
6
ByLayer
370
18
48
1
60
1
100
AcDbPoint
10
-27.1126
20
0
30
0
39
0
210
0
220
0
230
1
50
360
0
POINT
5
7C
100
AcDbEntity
8
1
62
256
6
ByLayer
370
18
48
1
60
1
100
AcDbPoint
10
0
20
0
30
0
39
0
210
0
220
0
230
1
50
360
0
POINT
5
7D
100
AcDbEntity
8
1
62
256
6
ByLayer
370
18
48
1
60
1
100
AcDbPoint
10
10.8874
20
0.565
30
0
39
0
210
0
220
0
230
1
50
360
0
POINT
5
7E
100
AcDbEntity
8
1
62
256
6
ByLayer
370
18
48
1
60
1
100
AcDbPoint
10
0
20
0
30
0
39
0
210
0
220
0
230
1
50
360
0
SPLINE
5
C1
100
AcDbEntity
8
1
62
256
6
ByLayer
370
18
48
1
60
0
100
AcDbSpline
70
4
71
3
72
16
73
12
40
0
40
0
40
0
40
0
40
0.249999999999996
40
0.249999999999996
40
0.499999999999992
40
0.499999999999992
40
0.624999999999998
40
0.624999999999998
40
0.750000000000004
40
0.750000000000004
40
1
40
1
40
1
40
1
41
1
10
3.60378925593844
20
-0.479925272369144
30
0
41
1
10
3.6543783152199
20
-0.473352878405706
30
0
41
1
10
3.70521941410209
20
-0.468287794250784
30
0
41
1
10
3.80738918813037
20
-0.461865951937995
30
0
41
1
10
3.85871791600468
20
-0.460507545524194
30
0
41
1
10
3.9360811460497
20
-0.461437517015781
30
0
41
1
10
3.96193074745327
20
-0.46223883044928
30
0
41
1
10
4.01375652377703
20
-0.464814830260622
30
0
41
1
10
4.03962018764628
20
-0.466585824951778
30
0
41
1
10
4.11657706808145
20
-0.473193879505175
30
0
41
1
10
4.16723991415194
20
-0.47934924392726
30
0
41
1
10
4.21726200000575
20
-0.486748802213071
30
0
0
SPLINE
5
C2
100
AcDbEntity
8
1
62
256
6
ByLayer
370
18
48
1
60
0
100
AcDbSpline
70
4
71
3
72
38
73
34
40
0
40
0
40
0
40
0
40
0.0201486403641695
40
0.0201486403641695
40
0.101802920333816
40
0.101802920333816
40
0.183457200303462
40
0.183457200303462
40
0.346765760242754
40
0.346765760242754
40
0.387592900227579
40
0.387592900227579
40
0.428420040212404
40
0.428420040212404
40
0.510074320182054
40
0.510074320182054
40
0.591728600151704
40
0.591728600151704
40
0.632555740136532
40
0.632555740136532
40
0.67338288012136
40
0.67338288012136
40
0.755037160091021
40
0.755037160091021
40
0.795864300075851
40
0.795864300075851
40
0.836691440060681
40
0.836691440060681
40
0.918345720030341
40
0.918345720030341
40
0.959172860015171
40
0.959172860015171
40
1
40
1
40
1
40
1
41
1
10
3.98461876139547
20
-0.464254883040581
30
0
41
1
10
3.97977398393337
20
-0.465762303997991
30
0
41
1
10
3.97494810472807
20
-0.467275274776398
30
0
41
1
10
3.95066079790368
20
-0.47494213301141
30
0
41
1
10
3.93144080483142
20
-0.481181998559862
30
0
41
1
10
3.89403831770477
20
-0.493510072398493
30
0
41
1
10
3.87582675122968
20
-0.49960675882474
30
0
41
1
10
3.82270088265534
20
-0.517406164905054
30
0
41
1
10
3.78927619618074
20
-0.528644404625197
30
0
41
1
10
3.75032893910668
20
-0.540691179997793
30
0
41
1
10
3.74268270041654
20
-0.542998395364123
30
0
41
1
10
3.72769299445633
20
-0.547367062772508
30
0
41
1
10
3.72032536357878
20
-0.549434863279146
30
0
41
1
10
3.69890487632799
20
-0.555144616615706
30
0
41
1
10
3.68556540691179
20
-0.558289202532109
30
0
41
1
10
3.66089723611458
20
-0.562924961122121
30
0
41
1
10
3.64956612100494
20
-0.564418947419483
30
0
41
1
10
3.6342669309594
20
-0.565084738891642
30
0
41
1
10
3.62948321891267
20
-0.565039057484114
30
0
41
1
10
3.62067410887815
20
-0.564378616211712
30
0
41
1
10
3.61663023548442
20
-0.563764919979718
30
0
41
1
10
3.60560169011774
20
-0.561023899514964
30
0
41
1
10
3.59971200835369
20
-0.558002077135484
30
0
41
1
10
3.59327767722712
20
-0.55140288660786
30
0
41
1
10
3.59152799391424
20
-0.548837127795338
30
0
41
1
10
3.58893827801387
20
-0.543066011072909
30
0
41
1
10
3.58809164603426
20
-0.539867737961032
30
0
41
1
10
3.58686749277359
20
-0.529347589979011
30
0
41
1
10
3.58779760241251
20
-0.521103574586533
30
0
41
1
10
3.59184577436278
20
-0.506884086562764
30
0
41
1
10
3.5936492279416
20
-0.501815921823862
30
0
41
1
10
3.59809343274949
20
-0.491225454811541
30
0
41
1
10
3.60073583714566
20
-0.485689576136878
30
0
41
1
10
3.6037892559377
20
-0.479925272368718
30
0
0
SPLINE
5
C3
100
AcDbEntity
8
1
62
256
6
ByLayer
370
18
48
1
60
0
100
AcDbSpline
70
4
71
3
72
28
73
24
40
0
40
0
40
0
40
0
40
0.178643112997943
40
0.178643112997943
40
0.267964669496921
40
0.267964669496921
40
0.357286225995899
40
0.357286225995899
40
0.446607782494877
40
0.446607782494877
40
0.535929338993855
40
0.535929338993855
40
0.714572451991823
40
0.714572451991823
40
0.759233230241317
40
0.759233230241317
40
0.803894008490811
40
0.803894008490811
40
0.8932155649898
40
0.8932155649898
40
0.982537121488788
40
0.982537121488788
40
1
40
1
40
1
40
1
41
1
10
4.21726200000001
20
0.403306131127124
30
0
41
1
10
4.17420905719774
20
0.4120902549177
30
0
41
1
10
4.13202316219963
20
0.422250049884155
30
0
41
1
10
4.07004369846027
20
0.438916701787065
30
0
41
1
10
4.04961047224506
20
0.444707268552662
30
0
41
1
10
4.009413771011
20
0.456566695971844
30
0
41
1
10
3.98962161640765
20
0.462643236540544
30
0
41
1
10
3.95066079790368
20
0.47494213301141
30
0
41
1
10
3.93144080483142
20
0.481181998559862
30
0
41
1
10
3.89403831770477
20
0.493510072398493
30
0
41
1
10
3.87582675122968
20
0.49960675882474
30
0
41
1
10
3.82270088265531
20
0.517406164905054
30
0
41
1
10
3.78927619618077
20
0.528644404625197
30
0
41
1
10
3.75032893910668
20
0.540691179997793
30
0
41
1
10
3.74268270041657
20
0.542998395364123
30
0
41
1
10
3.72769299445633
20
0.547367062772508
30
0
41
1
10
3.72032536357878
20
0.549434863279146
30
0
41
1
10
3.69890487632799
20
0.555144616615706
30
0
41
1
10
3.68556540691179
20
0.558289202532109
30
0
41
1
10
3.66089723611458
20
0.562924961122121
30
0
41
1
10
3.64956612100494
20
0.564418947419483
30
0
41
1
10
3.63737260782139
20
0.564949585778066
30
0
41
1
10
3.63542687065654
20
0.564995447971029
30
0
41
1
10
3.63353322404382
20
0.564999383034348
30
0
0
SPLINE
5
C4
100
AcDbEntity
8
1
62
256
6
ByLayer
370
18
48
1
60
0
100
AcDbSpline
70
4
71
3
72
12
73
8
40
0
40
0
40
0
40
0
40
0.0079768393559636
40
0.0079768393559636
40
0.338651226237295
40
0.338651226237295
40
1
40
1
40
1
40
1
41
1
10
3.98596846071277
20
0.46343446900795
30
0
41
1
10
3.98659348219934
20
0.463464972869417
30
0
41
1
10
3.98721854049344
20
0.463495760006765
30
0
41
1
10
4.01375652377703
20
0.464814830260622
30
0
41
1
10
4.03962018764625
20
0.466585824951778
30
0
41
1
10
4.11657706808145
20
0.473193879505175
30
0
41
1
10
4.16723991415191
20
0.47934924392726
30
0
41
1
10
4.21726200000572
20
0.486748802213071
30
0
0
SPLINE
5
C5
100
AcDbEntity
8
1
62
256
6
ByLayer
370
18
48
1
60
0
100
AcDbSpline
70
4
71
3
72
64
73
60
40
0
40
0
40
0
40
0
40
0.0233546719893791
40
0.0233546719893791
40
0.0502609856362192
40
0.0502609856362192
40
0.0771672992830593
40
0.0771672992830593
40
0.13097992657674
40
0.13097992657674
40
0.18479255387042
40
0.18479255387042
40
0.21169886751726
40
0.21169886751726
40
0.2386051811641
40
0.2386051811641
40
0.292417808457776
40
0.292417808457776
40
0.346230435751452
40
0.346230435751452
40
0.37313674939829
40
0.37313674939829
40
0.400043063045128
40
0.400043063045128
40
0.426949376691965
40
0.426949376691965
40
0.453855690338804
40
0.453855690338804
40
0.480762003985642
40
0.480762003985642
40
0.507668317632479
40
0.507668317632479
40
0.561480944926155
40
0.561480944926155
40
0.588387258572993
40
0.588387258572993
40
0.615293572219831
40
0.615293572219831
40
0.669106199513511
40
0.669106199513511
40
0.722918826807192
40
0.722918826807192
40
0.749825140454032
40
0.749825140454032
40
0.776731454100872
40
0.776731454100872
40
0.830544081394556
40
0.830544081394556
40
0.857450395041398
40
0.857450395041398
40
0.88435670868824
40
0.88435670868824
40
0.911263022335082
40
0.911263022335082
40
0.938169335981924
40
0.938169335981924
40
0.991981963275613
40
0.991981963275613
40
1
40
1
40
1
40
1
41
1
10
6.5321536078572
20
0.565001026939768
30
0
41
1
10
6.56111848180211
20
0.565005520874621
30
0
41
1
10
6.59006763131501
20
0.564268280767351
30
0
41
1
10
6.65238692892871
20
0.561082223263696
30
0
41
1
10
6.68578147106405
20
0.558391509419209
30
0
41
1
10
6.75274110408077
20
0.551060425100587
30
0
41
1
10
6.78610721175835
20
0.546438844635446
30
0
41
1
10
6.88587746788335
20
0.529828923929699
30
0
41
1
10
6.95199117466245
20
0.515093192177631
30
0
41
1
10
7.0839595464723
20
0.478732484695001
30
0
41
1
10
7.14993694042931
20
0.457209675998428
30
0
41
1
10
7.24931121783521
20
0.420311334631919
30
0
41
1
10
7.28250446834349
20
0.407242394088797
30
0
41
1
10
7.34909901494936
20
0.37962034987666
30
0
41
1
10
7.38256941381454
20
0.3650296651536
30
0
41
1
10
7.48276614823845
20
0.319414581073687
30
0
41
1
10
7.54940333410445
20
0.286741082423959
30
0
41
1
10
7.68296508304388
20
0.217829691651502
30
0
41
1
10
7.7500145526422
20
0.181513861893677
30
0
41
1
10
7.85014232662687
20
0.125626805003975
30
0
41
1
10
7.88350561605665
20
0.106780635986269
30
0
41
1
10
7.95030593371581
20
0.0688262750875026
30
0
41
1
10
7.98371678496037
20
0.0496734552112343
30
0
41
1
10
8.0505820739443
20
0.0110472056215656
30
0
41
1
10
8.08401479670979
20
-0.0083604489015556
30
0
41
1
10
8.15070786651228
20
-0.0470229843240304
30
0
41
1
10
8.18401950459736
20
-0.0662819351977078
30
0
41
1
10
8.25068649230226
20
-0.104460767008106
30
0
41
1
10
8.28405481840696
20
-0.123358507421784
30
0
41
1
10
8.35093841512426
20
-0.16064099754658
30
0
41
1
10
8.38447835658567
20
-0.179044465641084
30
0
41
1
10
8.48484648721828
20
-0.23306524495888
30
0
41
1
10
8.55156437916531
20
-0.267630960792843
30
0
41
1
10
8.6517058147858
20
-0.31670919291895
30
0
41
1
10
8.68516310646265
20
-0.332598030009336
30
0
41
1
10
8.75198329203215
20
-0.36309952866381
30
0
41
1
10
8.785344204262
20
-0.377699068240929
30
0
41
1
10
8.88542126178115
20
-0.419383089448246
30
0
41
1
10
8.95213578133831
20
-0.444399280878542
30
0
41
1
10
9.0859636672493
20
-0.488103124463777
30
0
41
1
10
9.15266483574754
20
-0.506530261632946
30
0
41
1
10
9.25284059880795
20
-0.528761785122583
30
0
41
1
10
9.28624960224852
20
-0.535272166167118
30
0
41
1
10
9.35317413258929
20
-0.546431884843088
30
0
41
1
10
9.3866366830697
20
-0.551073130270936
30
0
41
1
10
9.48674942978397
20
-0.562065492102789
30
0
41
1
10
9.55340006520356
20
-0.565478993369226
30
0
41
1
10
9.65367773696596
20
-0.564679653907717
30
0
41
1
10
9.68718170305198
20
-0.563421074148096
30
0
41
1
10
9.75399986735863
20
-0.558942977660735
30
0
41
1
10
9.78735242741197
20
-0.555723476861544
30
0
41
1
10
9.85403299781336
20
-0.54734757952221
30
0
41
1
10
9.88738403034955
20
-0.542199834021176
30
0
41
1
10
9.95419729858185
20
-0.530034600297142
30
0
41
1
10
9.98770150101626
20
-0.523003793815235
30
0
41
1
10
10.0880744259145
20
-0.499244256829343
30
0
41
1
10
10.1547789541798
20
-0.479872313338888
30
0
41
1
10
10.2314942767503
20
-0.453812049855657
30
0
41
1
10
10.241449088632
20
-0.450359525829157
30
0
41
1
10
10.251408514069
20
-0.446836714164732
30
0
0
SPLINE
5
C6
100
AcDbEntity
8
1
62
256
6
ByLayer
370
18
48
1
60
0
100
AcDbSpline
70
4
71
3
72
46
73
42
40
0
40
0
40
0
40
0
40
0.0677690370857638
40
0.0677690370857638
40
0.101653555628646
40
0.101653555628646
40
0.135538074171528
40
0.135538074171528
40
0.271076148343055
40
0.271076148343055
40
0.304960666885937
40
0.304960666885937
40
0.338845185428819
40
0.338845185428819
40
0.406614222514583
40
0.406614222514583
40
0.474383259600347
40
0.474383259600347
40
0.508267778143231
40
0.508267778143231
40
0.542152296686116
40
0.542152296686116
40
0.60992133377189
40
0.60992133377189
40
0.643805852314775
40
0.643805852314775
40
0.677690370857659
40
0.677690370857659
40
0.711574889400544
40
0.711574889400544
40
0.745459407943428
40
0.745459407943428
40
0.813228445029202
40
0.813228445029202
40
0.847112963572092
40
0.847112963572092
40
0.880997482114982
40
0.880997482114982
40
0.948766519200767
40
0.948766519200767
40
1
40
1
40
1
40
1
41
1
10
4.21726200000001
20
0.403306131127124
30
0
41
1
10
4.28415238004573
20
0.376163610494587
30
0
41
1
10
4.35086374502401
20
0.346375480826936
30
0
41
1
10
4.45107600996533
20
0.298338997809509
30
0
41
1
10
4.48454160751299
20
0.281749720064113
30
0
41
1
10
4.55143819072035
20
0.247636968093701
30
0
41
1
10
4.58475460729011
20
0.230161245788992
30
0
41
1
10
4.75089791918145
20
0.141059393750112
30
0
41
1
10
4.88286992241257
20
0.065055567190683
30
0
41
1
10
5.04934177295186
20
-0.031226212395012
30
0
41
1
10
5.08280244795969
20
-0.0505309300788497
30
0
41
1
10
5.14969937880437
20
-0.0888270429125555
30
0
41
1
10
5.18309596104788
20
-0.107803890056857
30
0
41
1
10
5.28323377701969
20
-0.164049281552451
30
0
41
1
10
5.34991304538195
20
-0.200650744173117
30
0
41
1
10
5.48370902652684
20
-0.271037546421184
30
0
41
1
10
5.55039642442747
20
-0.304346912029899
30
0
41
1
10
5.6505107823487
20
-0.350829380580706
30
0
41
1
10
5.68389608407585
20
-0.365748994020436
30
0
41
1
10
5.75076361887051
20
-0.394334553786194
30
0
41
1
10
5.7842246324073
20
-0.407993615818128
30
0
41
1
10
5.88430681137243
20
-0.446698140322894
30
0
41
1
10
5.95093791377661
20
-0.469408138044969
30
0
41
1
10
6.05119942098531
20
-0.498420239775101
30
0
41
1
10
6.0847084168702
20
-0.507257959569415
30
0
41
1
10
6.15155163202556
20
-0.523095095111245
30
0
41
1
10
6.18490839169766
20
-0.530111684585705
30
0
41
1
10
6.251591317904
20
-0.542275656309414
30
0
41
1
10
6.28494064396745
20
-0.547410670830516
30
0
41
1
10
6.35174216576982
20
-0.555755866264434
30
0
41
1
10
6.38523121073462
20
-0.558970965980564
30
0
41
1
10
6.4856251998911
20
-0.565664393004113
30
0
41
1
10
6.55230238741279
20
-0.566199018810266
30
0
41
1
10
6.65238692892873
20
-0.561082223263696
30
0
41
1
10
6.68578147106405
20
-0.558391509419209
30
0
41
1
10
6.75274110408077
20
-0.551060425100616
30
0
41
1
10
6.78610721175835
20
-0.546438844635446
30
0
41
1
10
6.88587746788335
20
-0.529828923929699
30
0
41
1
10
6.95199117466248
20
-0.515093192177631
30
0
41
1
10
7.06785949153613
20
-0.48316846719564
30
0
41
1
10
7.11773974064866
20
-0.467513756000301
30
0
41
1
10
7.16773662300884
20
-0.450063798666037
30
0
0
SPLINE
5
C7
100
AcDbEntity
8
1
62
256
6
ByLayer
370
18
48
1
60
0
100
AcDbSpline
70
4
71
3
72
35
73
31
40
0
40
0
40
0
40
0
40
0.0129305295401122
40
0.0129305295401122
40
0.111637476586105
40
0.111637476586105
40
0.210344423632099
40
0.210344423632099
40
0.309051370678092
40
0.309051370678092
40
0.407758317724086
40
0.407758317724086
40
0.605172211816073
40
0.605172211816073
40
0.703879158862066
40
0.703879158862066
40
0.80258610590806
40
0.80258610590806
40
0.851939579431057
40
0.851939579431057
40
0.876616316192548
40
0.876616316192548
40
0.901293052954038
40
0.925969789715529
40
0.925969789715529
40
0.950646526477019
40
0.950646526477019
40
0.97532326323851
40
0.97532326323851
40
1
40
1
40
1
40
1
41
1
10
9.60711805989666
20
0.565000029686217
30
0
41
1
10
9.6114951805356
20
0.564998978132763
30
0
41
1
10
9.6158730819796
20
0.564981004667345
30
0
41
1
10
9.65367773696596
20
0.564679653907717
30
0
41
1
10
9.68718170305198
20
0.563421074148096
30
0
41
1
10
9.75399986735857
20
0.558942977660735
30
0
41
1
10
9.78735242741192
20
0.555723476861544
30
0
41
1
10
9.85403299781331
20
0.54734757952221
30
0
41
1
10
9.88738403034955
20
0.542199834021176
30
0
41
1
10
9.95419729858185
20
0.530034600297142
30
0
41
1
10
9.98770150101626
20
0.523003793815235
30
0
41
1
10
10.0880744259144
20
0.499244256829343
30
0
41
1
10
10.1547789541798
20
0.479872313338888
30
0
41
1
10
10.2549295783101
20
0.445851057018871
30
0
41
1
10
10.2883871269177
20
0.433687489448204
30
0
41
1
10
10.3553022207168
20
0.407926461674379
30
0
41
1
10
10.388686927051
20
0.394314179040805
30
0
41
1
10
10.4387899830064
20
0.372979513304813
30
0
41
1
10
10.4554527247479
20
0.365659148208323
30
0
41
1
10
10.4804457886066
20
0.354436388148059
30
0
41
1
10
10.4887841822435
20
0.35066542199209
30
0
41
1
10
10.5055148715332
20
0.343120514723125
30
0
41
1
10
10.5222973466333
20
0.335570958905976
30
0
41
1
10
10.5389949926462
20
0.327745734422365
30
0
41
1
10
10.5555611579297
20
0.319645872822434
30
0
41
1
10
10.5637695730521
20
0.315443648815318
30
0
41
1
10
10.5803320204919
20
0.307168552228262
30
0
41
1
10
10.5886826222286
20
0.30309042432603
30
0
41
1
10
10.6058763153692
20
0.295611899694734
30
0
41
1
10
10.6147422430086
20
0.29224768622376
30
0
41
1
10
10.6239361731425
20
0.289370100370718
30
0
0
SPLINE
5
C8
100
AcDbEntity
8
1
62
256
6
ByLayer
370
18
48
1
60
0
100
AcDbSpline
70
4
71
3
72
20
73
16
40
0
40
0
40
0
40
0
40
0.125
40
0.125
40
0.25
40
0.25
40
0.375
40
0.375
40
0.5
40
0.5
40
0.75
40
0.75
40
0.875
40
0.875
40
1
40
1
40
1
40
1
41
1
10
10.6239361731425
20
0.289370100370718
30
0
41
1
10
10.6327888223096
20
0.276585008124158
30
0
41
1
10
10.6416229281182
20
0.265056711455628
30
0
41
1
10
10.6592914223986
20
0.244138653429531
30
0
41
1
10
10.668125495864
20
0.234764545267808
30
0
41
1
10
10.6857938267087
20
0.217307836844668
30
0
41
1
10
10.6946274612765
20
0.20922200325316
30
0
41
1
10
10.7122768680949
20
0.193769860789104
30
0
41
1
10
10.7211064376958
20
0.186395344070405
30
0
41
1
10
10.7472497130312
20
0.16612496134212
30
0
41
1
10
10.7643409777176
20
0.155179437332777
30
0
41
1
10
10.7883375927754
20
0.142323357199672
30
0
41
1
10
10.796058293936
20
0.138623430854324
30
0
41
1
10
10.8102050405539
20
0.132416768278404
30
0
41
1
10
10.8166684970789
20
0.129909819046873
30
0
41
1
10
10.8215341122735
20
0.128016354269505
30
0
0
SPLINE
5
C9
100
AcDbEntity
8
1
62
256
6
ByLayer
370
18
48
1
60
0
100
AcDbSpline
70
4
71
3
72
71
73
67
40
0
40
0
40
0
40
0
40
0.0072476378750833
40
0.0072476378750833
40
0.0144952757501666
40
0.0144952757501666
40
0.0217429136252499
40
0.0217429136252499
40
0.0289905515003332
40
0.0362381893754164
40
0.0362381893754164
40
0.0434858272504997
40
0.0434858272504997
40
0.0579811030006618
40
0.0579811030006618
40
0.0869716545009859
40
0.0869716545009859
40
0.11596220600131
40
0.11596220600131
40
0.144952757501634
40
0.144952757501634
40
0.173943309001958
40
0.173943309001958
40
0.231924412002607
40
0.231924412002607
40
0.260914963502931
40
0.260914963502931
40
0.289905515003255
40
0.289905515003255
40
0.347886618003903
40
0.347886618003903
40
0.405867721004552
40
0.405867721004552
40
0.434858272504878
40
0.434858272504878
40
0.463848824005204
40
0.463848824005204
40
0.521829927005853
40
0.521829927005853
40
0.550820478506177
40
0.550820478506177
40
0.579811030006501
40
0.579811030006501
40
0.608801581506825
40
0.608801581506825
40
0.63779213300715
40
0.63779213300715
40
0.695773236007793
40
0.695773236007793
40
0.724763787508113
40
0.724763787508113
40
0.753754339008433
40
0.753754339008433
40
0.811735442009072
40
0.811735442009072
40
0.840725993509392
40
0.840725993509392
40
0.869716545009711
40
0.869716545009711
40
0.898707096510031
40
0.898707096510031
40
0.927697648010351
40
0.927697648010351
40
0.985678751010986
40
0.985678751010986
40
1
40
1
40
1
40
1
41
1
10
10.6239361731425
20
-0.543717860292816
30
0
41
1
10
10.6147338345919
20
-0.542806128318858
30
0
41
1
10
10.6058594306413
20
-0.54170656077244
30
0
41
1
10
10.5886470067629
20
-0.53913068648032
30
0
41
1
10
10.5802860980768
20
-0.537664179462894
30
0
41
1
10
10.5637000203768
20
-0.534528172744444
30
0
41
1
10
10.5554782202543
20
-0.532856967676224
30
0
41
1
10
10.5388811055768
20
-0.529482974918722
30
0
41
1
10
10.5221491587443
20
-0.5260716850932
30
0
41
1
10
10.5053282739166
20
-0.522495357964885
30
0
41
1
10
10.4885570323436
20
-0.518772900142977
30
0
41
1
10
10.4801969832572
20
-0.516837152836757
30
0
41
1
10
10.4551342414165
20
-0.510842364509557
30
0
41
1
10
10.4384180099881
20
-0.50661876728725
30
0
41
1
10
10.3881410943089
20
-0.493360781108152
30
0
41
1
10
10.3546697719593
20
-0.483615707435689
30
0
41
1
10
10.2878255033244
20
-0.462530710449698
30
0
41
1
10
10.2544524041434
20
-0.451158172360209
30
0
41
1
10
10.1876943527188
20
-0.426861805432594
30
0
41
1
10
10.1542914592395
20
-0.413958327744211
30
0
41
1
10
10.0873574806624
20
-0.386737042522725
30
0
41
1
10
10.0538088820352
20
-0.372402007239515
30
0
41
1
10
9.95343783078664
20
-0.327631469006974
30
0
41
1
10
9.88672068663806
20
-0.295355649661843
30
0
41
1
10
9.78649858618752
20
-0.24390760121176
30
0
41
1
10
9.75296845686745
20
-0.226254951725366
30
0
41
1
10
9.68613590000348
20
-0.190381003357629
30
0
41
1
10
9.65284164404261
20
-0.172158350717041
30
0
41
1
10
9.55321311038449
20
-0.116831177411967
30
0
41
1
10
9.4871238248877
20
-0.0790838526885125
30
0
41
1
10
9.35504466424084
20
-0.0028484630381058
30
0
41
1
10
9.28892968614866
20
0.0354191066795977
30
0
41
1
10
9.18924293969246
20
0.0923348814887106
30
0
41
1
10
9.15592934213527
20
0.111227824641304
30
0
41
1
10
9.08906358076086
20
0.148734661000276
30
0
41
1
10
9.0555243561131
20
0.167352115598249
30
0
41
1
10
8.95528049579303
20
0.222095831806485
30
0
41
1
10
8.88858465725696
20
0.257145118458283
30
0
41
1
10
8.78829937765983
20
0.306855702879687
30
0
41
1
10
8.75479101507682
20
0.322977406303039
30
0
41
1
10
8.68793793586624
20
0.353983750579261
30
0
41
1
10
8.65456692352984
20
0.368867996257478
30
0
41
1
10
8.58782261846363
20
0.397257629594492
30
0
41
1
10
8.55443847039203
20
0.410749500869201
30
0
41
1
10
8.48755200287056
20
0.436226931665686
30
0
41
1
10
8.45402640962325
20
0.448235665847165
30
0
41
1
10
8.35344238708575
20
0.481855491203248
30
0
41
1
10
8.2866628174406
20
0.501012434617564
30
0
41
1
10
8.1865432772554
20
0.524484512861306
30
0
41
1
10
8.1531615382101
20
0.53141603080843
30
0
41
1
10
8.08626802423146
20
0.543401072630417
30
0
41
1
10
8.05283508846074
20
0.548430683929439
30
0
41
1
10
7.95265272712948
20
0.560567296403804
30
0
41
1
10
7.88583794194275
20
0.564742258527161
30
0
41
1
10
7.78545460041087
20
0.565111653016203
30
0
41
1
10
7.75192638110707
20
0.564240503427413
30
0
41
1
10
7.68503537727685
20
0.560539312351523
30
0
41
1
10
7.65163137458734
20
0.557709753373388
30
0
41
1
10
7.58483136925352
20
0.550116747233261
30
0
41
1
10
7.5514342648404
20
0.54535375910632
30
0
41
1
10
7.48457309558867
20
0.533910094703828
30
0
41
1
10
7.45106769294679
20
0.527214967019034
30
0
41
1
10
7.3508080370957
20
0.504388374647988
30
0
41
1
10
7.28411796983087
20
0.485604354929478
30
0
41
1
10
7.20077609506376
20
0.458097736673096
30
0
41
1
10
7.18425091829832
20
0.452446289462273
30
0
41
1
10
7.16771773241592
20
0.446600602747367
30
0
0
SPLINE
5
CA
100
AcDbEntity
8
1
62
256
6
ByLayer
370
18
48
1
60
0
100
AcDbSpline
70
4
71
3
72
10
73
6
40
0
40
0
40
0
40
0
40
0.24012208166939
40
0.24012208166939
40
1
40
1
40
1
40
1
41
1
10
4.74141321618646
20
-0.564998147193393
30
0
41
1
10
4.69933593601428
20
-0.565076841167667
30
0
41
1
10
4.65741553101114
20
-0.563591938864988
30
0
41
1
10
4.48318795387615
20
-0.55098221771317
30
0
41
1
10
4.35116201157291
20
-0.526141478555815
30
0
41
1
10
4.21726200000001
20
-0.486748802212162
30
0
0
SPLINE
5
CB
100
AcDbEntity
8
1
62
256
6
ByLayer
370
18
48
1
60
0
100
AcDbSpline
70
4
71
3
72
42
73
38
40
0
40
0
40
0
40
0
40
0.0187073269061454
40
0.0505094915551272
40
0.0743611150418631
40
0.098212738528599
40
0.130014903177581
40
0.161817067826562
40
0.193619232475543
40
0.225421397124525
40
0.257223561773506
40
0.273124644097997
40
0.304926808746978
40
0.336728973395959
40
0.368531138044941
40
0.400333302693922
40
0.432135467342904
40
0.448036549667394
40
0.479838714316376
40
0.511640878965357
40
0.543443043614339
40
0.57524520826332
40
0.607047372912301
40
0.630898996399037
40
0.654750619885774
40
0.686552784534755
40
0.718354949183736
40
0.750157113832718
40
0.781959278481699
40
0.805810901968435
40
0.829662525455171
40
0.861464690104152
40
0.893266854753134
40
0.925069019402116
40
0.956871184051097
40
0.988673348700078
40
1
40
1
40
1
40
1
41
1
10
7.88644931785688
20
0.105300691605549
30
0
41
1
10
7.89666701358325
20
0.104320567111983
30
0
41
1
10
7.92425463480506
20
0.101629850693996
30
0
41
0.999999999999999
10
7.96486971334585
20
0.0974926327488675
30
0
41
1
10
8.00829456968111
20
0.0928505768820571
30
0
41
1
10
8.05171946003065
20
0.088030336033853
30
0
41
1
10
8.09948689419167
20
0.0825197336411634
30
0
41
1
10
8.15159690908237
20
0.076260159194959
30
0
41
1
10
8.20370702929281
20
0.0697911059894238
30
0
41
1
10
8.25581727277068
20
0.0631296854375591
30
0
41
1
10
8.29924259597027
20
0.0574530500923629
30
0
41
1
10
8.34266801007675
20
0.0516865271112579
30
0
41
1
10
8.38609357176211
20
0.0458360512719196
30
0
41
1
10
8.43820424271697
20
0.0386962159002735
30
0
41
1
10
8.49031489003883
20
0.0314432919752221
30
0
41
1
10
8.54242552251531
20
0.0240937370135157
30
0
41
1
10
8.58585103879335
20
0.0178941609987078
30
0
41
1
10
8.62927654951926
20
0.0116474499483274
30
0
41
1
10
8.67270205561678
20
0.0053736912251168
30
0
41
1
10
8.72481265903627
20
-0.0021775970773206
30
0
41
1
10
8.77692326200272
20
-0.0097162429626394
30
0
41
1
10
8.82903386797105
20
-0.0172137334958506
30
0
41
1
10
8.87680192935869
20
-0.0240364305299181
30
0
41
1
10
8.92022744693546
20
-0.0301867719183804
30
0
41
1
10
8.9636529723233
20
-0.036284287241898
30
0
41
1
10
9.01142106235113
20
-0.042917056373426
30
0
41
1
10
9.06353172455869
20
-0.0500342010351744
30
0
41
1
10
9.11564240875901
20
-0.0569905840793581
30
0
41
1
10
9.1634105592722
20
-0.0632130021044475
30
0
41
1
10
9.20683617170692
20
-0.0687353394950207
30
0
41
0.999999999999999
10
9.25026180388202
20
-0.0741362677569555
30
0
41
1
10
9.29803002641046
20
-0.0799133725798526
30
0
41
1
10
9.35014085270896
20
-0.085994985916642
30
0
41
1
10
9.40225171837084
20
-0.0918451519505083
30
0
41
1
10
9.45436263462153
20
-0.0974479378339481
30
0
41
1
10
9.49528986314215
20
-0.10161973171887
30
0
41
1
10
9.51884677761274
20
-0.103930256802357
30
0
41
1
10
9.525033382765
20
-0.104530722189111
30
0
0
SPLINE
5
CC
100
AcDbEntity
8
1
62
256
6
ByLayer
370
18
48
1
60
0
100
AcDbSpline
70
4
71
3
72
20
73
16
40
0
40
0
40
0
40
0
40
0.0236562928651943
40
0.0236562928651943
40
0.186380244054329
40
0.186380244054329
40
0.349104195243463
40
0.349104195243463
40
0.511828146432597
40
0.511828146432597
40
0.674552097621732
40
0.674552097621732
40
0.837276048810866
40
0.837276048810866
40
1
40
1
40
1
40
1
41
1
10
10.7840841595877
20
-0.221560581136146
30
0
41
1
10
10.7829368274443
20
-0.224010623391024
30
0
41
1
10
10.7817820499608
20
-0.226462629460201
30
0
41
1
10
10.7726341770936
20
-0.245799022483396
30
0
41
1
10
10.7643341260461
20
-0.262785210253014
30
0
41
1
10
10.7474667839737
20
-0.296913115404323
30
0
41
1
10
10.7388902120536
20
-0.314057343143105
30
0
41
1
10
10.7215696640582
20
-0.348576508877556
30
0
41
1
10
10.7128217659333
20
-0.365956902012755
30
0
41
1
10
10.6951784794276
20
-0.401161636306114
30
0
41
1
10
10.6862909960488
20
-0.418975291791469
30
0
41
1
10
10.668484372922
20
-0.454745112864288
30
0
41
1
10
10.6595607230794
20
-0.472707966235106
30
0
41
1
10
10.6417328942941
20
-0.508411740052367
30
0
41
1
10
10.6328274069838
20
-0.526157096774455
30
0
41
1
10
10.6239361731425
20
-0.543717860292816
30
0
0
SPLINE
5
CD
100
AcDbEntity
8
1
62
256
6
ByLayer
370
18
48
1
60
0
100
AcDbSpline
70
4
71
3
72
23
73
19
40
0
40
0
40
0
40
0
40
0.067604163460585
40
0.067604163460585
40
0.13520832692117
40
0.13520832692117
40
0.202812490381755
40
0.202812490381755
40
0.27041665384234
40
0.338020817302925
40
0.338020817302925
40
0.40562498076351
40
0.40562498076351
40
0.540833307684639
40
0.540833307684639
40
0.811249961526895
40
0.811249961526895
40
1
40
1
40
1
40
1
41
1
10
10.6239361731425
20
0.543717860292816
30
0
41
1
10
10.6147338345919
20
0.542806128318858
30
0
41
1
10
10.6058594306413
20
0.54170656077244
30
0
41
1
10
10.5886470067629
20
0.53913068648032
30
0
41
1
10
10.5802860980768
20
0.537664179462894
30
0
41
1
10
10.5637000203768
20
0.534528172744444
30
0
41
1
10
10.5554782202543
20
0.532856967676224
30
0
41
1
10
10.5388811055768
20
0.529482974918722
30
0
41
1
10
10.5221491587444
20
0.5260716850932
30
0
41
1
10
10.5053282739165
20
0.522495357964885
30
0
41
1
10
10.4885570323436
20
0.518772900142977
30
0
41
1
10
10.4801969832573
20
0.516837152836757
30
0
41
1
10
10.4551342414165
20
0.510842364509585
30
0
41
1
10
10.4384180099881
20
0.50661876728725
30
0
41
1
10
10.3881410943089
20
0.493360781108152
30
0
41
1
10
10.3546697719593
20
0.483615707435689
30
0
41
1
10
10.2979190850227
20
0.465714575634138
30
0
41
1
10
10.2746144223191
20
0.457951547081592
30
0
41
1
10
10.2513149590387
20
0.44980262080972
30
0
0
SPLINE
5
CE
100
AcDbEntity
8
1
62
256
6
ByLayer
370
18
48
1
60
0
100
AcDbSpline
70
4
71
3
72
54
73
50
40
0
40
0
40
0
40
0
40
0.0259920802291214
40
0.0259920802291214
40
0.0538208779368623
40
0.0538208779368623
40
0.0816496756446033
40
0.0816496756446033
40
0.109478473352344
40
0.109478473352344
40
0.16513606876783
40
0.16513606876783
40
0.192964866475571
40
0.192964866475571
40
0.220793664183312
40
0.220793664183312
40
0.276451259598794
40
0.276451259598794
40
0.332108855014275
40
0.332108855014275
40
0.359937652722016
40
0.359937652722016
40
0.387766450429757
40
0.387766450429757
40
0.443424045845239
40
0.443424045845239
40
0.47125284355298
40
0.47125284355298
40
0.499081641260721
40
0.499081641260721
40
0.526910438968461
40
0.526910438968461
40
0.554739236676202
40
0.554739236676202
40
0.666054427507153
40
0.666054427507153
40
0.721712022922628
40
0.721712022922628
40
0.749540820630363
40
0.749540820630363
40
0.777369618338099
40
0.777369618338099
40
0.805198416045834
40
0.805198416045834
40
0.83302721375357
40
0.83302721375357
40
0.888684809169045
40
0.888684809169045
40
1
40
1
40
1
40
1
41
1
10
7.81228951912979
20
-0.564999912541367
30
0
41
1
10
7.78102919523295
20
-0.5649923936721
30
0
41
1
10
7.74971895775406
20
-0.564118363002706
30
0
41
1
10
7.68503537727688
20
-0.560539312351523
30
0
41
1
10
7.65163137458734
20
-0.557709753373388
30
0
41
1
10
7.58483136925355
20
-0.550116747233261
30
0
41
1
10
7.5514342648404
20
-0.54535375910632
30
0
41
1
10
7.48457309558867
20
-0.533910094703828
30
0
41
1
10
7.45106769294682
20
-0.527214967019034
30
0
41
1
10
7.35080803709573
20
-0.504388374647988
30
0
41
1
10
7.2841179698309
20
-0.485604354929478
30
0
41
1
10
7.18386700235553
20
-0.452516965188295
30
0
41
1
10
7.15037920185517
20
-0.44065561728732
30
0
41
1
10
7.08341579101727
20
-0.415415298529581
30
0
41
1
10
7.05001252916904
20
-0.402050923368222
30
0
41
1
10
6.94988435318476
20
-0.359914385857906
30
0
41
1
10
6.8831382528453
20
-0.329235614069631
30
0
41
1
10
6.74910237009388
20
-0.263482480768744
30
0
41
1
10
6.68229888340912
20
-0.228609285058667
30
0
41
1
10
6.58215983077389
20
-0.174158058470397
30
0
41
1
10
6.548756655376
20
-0.155681883112351
30
0
41
1
10
6.48180969820817
20
-0.118234828583269
30
0
41
1
10
6.44827159765708
20
-0.0992530815510122
30
0
41
1
10
6.34792407092766
20
-0.0420393078417192
30
0
41
1
10
6.28120248977012
20
-0.0034155414581392
30
0
41
1
10
6.18095028658971
20
0.0544882318357907
30
0
41
1
10
6.14743104683296
20
0.0737580802891102
30
0
41
1
10
6.08051565491792
20
0.111843699465851
30
0
41
1
10
6.04710554352886
20
0.130685462586456
30
0
41
1
10
5.9803068294504
20
0.167844972637425
30
0
41
1
10
5.94691905507835
20
0.186164146508048
30
0
41
1
10
5.88009752758916
20
0.222163552887992
30
0
41
1
10
5.84661589331216
20
0.239883573440551
30
0
41
1
10
5.67949867825712
20
0.326138965890209
30
0
41
1
10
5.54766931278871
20
0.386370751540795
30
0
41
1
10
5.3493932075917
20
0.459578203939458
30
0
41
1
10
5.28309553377994
20
0.480975376466688
30
0
41
1
10
5.18290633651921
20
0.508052266026169
30
0
41
1
10
5.14934421740523
20
0.516248307032413
30
0
41
1
10
5.08245476149173
20
0.53076272052013
30
0
41
1
10
5.04906973749942
20
0.53710173071795
30
0
41
1
10
4.9823308221138
20
0.547889621027252
30
0
41
1
10
4.94895161232336
20
0.552326264335704
30
0
41
1
10
4.88208819916397
20
0.5592585148718
30
0
41
1
10
4.84854143571062
20
0.561757872411249
30
0
41
1
10
4.74818292591348
20
0.566282948074189
30
0
41
1
10
4.68177548681982
20
0.565354990702531
30
0
41
1
10
4.48318795387621
20
0.55098221771317
30
0
41
1
10
4.35116201157291
20
0.526141478555843
30
0
41
1
10
4.21726200000001
20
0.486748802212162
30
0
0
SPLINE
5
CF
100
AcDbEntity
8
1
62
256
6
ByLayer
370
18
48
1
60
0
100
AcDbSpline
70
4
71
3
72
42
73
38
40
0
40
0
40
0
40
0
40
0.0106291628813695
40
0.0429959610037049
40
0.0753627591260404
40
0.099637857717792
40
0.123912956309544
40
0.156279754431879
40
0.188646552554215
40
0.22101335067655
40
0.253380148798886
40
0.277655247390637
40
0.301930345982389
40
0.334297144104724
40
0.36666394222706
40
0.399030740349395
40
0.431397538471731
40
0.463764336594066
40
0.479947735655234
40
0.512314533777569
40
0.544681331899905
40
0.57704813002224
40
0.609414928144576
40
0.641781726266911
40
0.657965125328079
40
0.690331923450415
40
0.72269872157275
40
0.755065519695085
40
0.787432317817421
40
0.819799115939756
40
0.844074214531508
40
0.868349313123259
40
0.900716111245595
40
0.933082909367931
40
0.965449707490266
40
0.997816505612602
40
1
40
1
40
1
40
1
41
1
10
4.82547122659494
20
0.104006727722151
30
0
41
1
10
4.8311755045826
20
0.103450945189252
30
0
41
1
10
4.85424984489123
20
0.101181387513321
30
0
41
1
10
4.89469425274654
20
0.0970536697005854
30
0
41
1
10
4.94246194140624
20
0.0919224178261402
30
0
41
1
10
4.98588712338145
20
0.0870629432102135
30
0
41
1
10
5.02931231523826
20
0.0820372841758683
30
0
41
1
10
5.07708004011693
20
0.0763277432797054
30
0
41
1
10
5.12919030466037
20
0.0698936287692504
30
0
41
1
10
5.18130059025804
20
0.0632677436135509
30
0
41
1
10
5.2290683735163
20
0.0570321821806204
30
0
41
1
10
5.27249364788878
20
0.0512458697394606
30
0
41
1
10
5.31591887583892
20
0.0453650020419048
30
0
41
1
10
5.3636865867737
20
0.0387871001439635
30
0
41
1
10
5.41579677451404
20
0.031481239155994
30
0
41
1
10
5.46790693071983
20
0.0240823130058914
30
0
41
1
10
5.52001706556166
20
0.0166346212329245
30
0
41
1
10
5.56344216873864
20
0.0103930828821603
30
0
41
1
10
5.60686727144767
20
0.0041380883814952
30
0
41
1
10
5.65029237691035
20
-0.002126305780763
30
0
41
1
10
5.70240251816631
20
-0.0096417178131105
30
0
41
1
10
5.75451268441941
20
-0.0171383738478994
30
0
41
1
10
5.80662288596588
20
-0.0246005888727154
30
0
41
1
10
5.85004809191313
20
-0.030772870285773
30
0
41
1
10
5.89347333278795
20
-0.0368704424584792
30
0
41
1
10
5.93689861181457
20
-0.0428979908532199
30
0
41
1
10
5.9890090179623
20
-0.0500004286472233
30
0
41
1
10
6.04111950577817
20
-0.0569571081644255
30
0
41
1
10
6.09323008538524
20
-0.0637531424034421
30
0
41
1
10
6.14099821092421
20
-0.0698195638843515
30
0
41
1
10
6.18442385928953
20
-0.0751963832092315
30
0
41
1
10
6.22784959337659
20
-0.0804504311567484
30
0
41
1
10
6.27561796753452
20
-0.0860396445853553
30
0
41
1
10
6.32772890682517
20
-0.0918793178990711
30
0
41
1
10
6.37983984932814
20
-0.0974536655992608
30
0
41
1
10
6.41575229461603
20
-0.101103595922439
30
0
41
1
10
6.43429442611244
20
-0.10293320484675
30
0
41
1
10
6.43546624368966
20
-0.103048611819133
30
0
0
SPLINE
5
D0
100
AcDbEntity
8
1
62
256
6
ByLayer
370
18
48
1
60
0
100
AcDbSpline
70
4
71
3
72
22
73
18
40
0
40
0
40
0
40
0
40
0.125
40
0.125
40
0.25
40
0.25
40
0.375
40
0.375
40
0.5
40
0.5
40
0.625
40
0.625
40
0.75
40
0.75
40
0.875
40
0.875
40
1
40
1
40
1
40
1
41
1
10
10.8215341122736
20
0.128016354269505
30
0
41
1
10
10.8167268345001
20
0.144979522090921
30
0
41
1
10
10.8103384116191
20
0.161728794038908
30
0
41
1
10
10.7962957006462
20
0.1952597563305
30
0
41
1
10
10.7886077372259
20
0.212034775736669
30
0
41
1
10
10.7726341770937
20
0.245799022483396
30
0
41
1
10
10.7643341260461
20
0.262785210253014
30
0
41
1
10
10.7474667839737
20
0.296913115404323
30
0
41
1
10
10.7388902120536
20
0.314057343143105
30
0
41
1
10
10.7215696640581
20
0.348576508877556
30
0
41
1
10
10.7128217659332
20
0.365956902012755
30
0
41
1
10
10.6951784794276
20
0.401161636306114
30
0
41
1
10
10.6862909960488
20
0.418975291791469
30
0
41
1
10
10.668484372922
20
0.454745112864259
30
0
41
1
10
10.6595607230793
20
0.472707966235077
30
0
41
1
10
10.6417328942941
20
0.508411740052367
30
0
41
1
10
10.6328274069838
20
0.526157096774455
30
0
41
1
10
10.6239361731425
20
0.543717860292816
30
0
0
LINE
5
7F
100
AcDbEntity
8
1
62
256
6
ByLayer
370
18
48
1
60
0
100
AcDbLine
10
0
20
1.5
30
0
11
0
21
0
31
0
39
0
210
0
220
0
230
1
0
LINE
5
80
100
AcDbEntity
8
1
62
256
6
ByLayer
370
18
48
1
60
0
100
AcDbLine
10
0
20
0
30
0
11
0
21
-1.5
31
0
39
0
210
0
220
0
230
1
0
LINE
5
81
100
AcDbEntity
8
1
62
256
6
ByLayer
370
18
48
1
60
0
100
AcDbLine
10
10.623936
20
0.28937
30
0
11
10.623936
21
-0.543718
31
0
39
0
210
0
220
0
230
1
0
LINE
5
82
100
AcDbEntity
8
1
62
256
6
ByLayer
370
18
48
1
60
0
100
AcDbLine
10
4.217262
20
0.486749
30
0
11
4.217262
21
0.392759
31
0
39
0
210
0
220
0
230
1
0
LINE
5
83
100
AcDbEntity
8
1
62
256
6
ByLayer
370
13
48
1
60
0
100
AcDbLine
10
1.887444
20
0.565
30
0
11
1.887444
21
-0.565
31
0
39
0
210
0
220
0
230
1
0
LINE
5
84
100
AcDbEntity
8
1
62
256
6
ByLayer
370
18
48
1
60
0
100
AcDbLine
10
2.7E-05
20
1.5
30
0
11
2.7E-05
21
-1.5
31
0
39
0
210
0
220
0
230
1
0
LINE
5
85
100
AcDbEntity
8
1
62
256
6
ByLayer
370
13
48
1
60
0
100
AcDbLine
10
1.387444
20
0.698975
30
0
11
1.387444
21
-0.698975
31
0
39
0
210
0
220
0
230
1
0
LINE
5
86
100
AcDbEntity
8
SK1
62
256
6
ByLayer
370
18
48
1
60
0
100
AcDbLine
10
-27.1126
20
1.326795
30
0
11
-27.1126
21
-1.326795
31
0
39
0
210
0
220
0
230
1
0
LINE
5
88
100
AcDbEntity
8
SK1
62
256
6
ByLayer
370
18
48
1
60
0
100
AcDbLine
10
0
20
1.5
30
0
11
0
21
0
31
0
39
0
210
0
220
0
230
1
0
LINE
5
89
100
AcDbEntity
8
SK1
62
256
6
ByLayer
370
18
48
1
60
0
100
AcDbLine
10
0
20
0
30
0
11
0
21
-1.5
31
0
39
0
210
0
220
0
230
1
0
LINE
5
8A
100
AcDbEntity
8
SK1
62
256
6
ByLayer
370
18
48
1
60
0
100
AcDbLine
10
-26.8126
20
1.5
30
0
11
-26.8126
21
-1.5
31
0
39
0
210
0
220
0
230
1
0
LINE
5
8B
100
AcDbEntity
8
1
62
256
6
ByLayer
370
18
48
1
60
0
100
AcDbLine
10
0
20
-1.5
30
0
11
2.7E-05
21
-1.5
31
0
39
0
210
0
220
0
230
1
0
LINE
5
8C
100
AcDbEntity
8
1
62
256
6
ByLayer
370
18
48
1
60
0
100
AcDbLine
10
2.7E-05
20
1.5
30
0
11
0
21
1.5
31
0
39
0
210
0
220
0
230
1
0
LINE
5
8D
100
AcDbEntity
8
1
62
256
6
ByLayer
370
18
48
1
60
0
100
AcDbLine
10
10.8874
20
0
30
0
11
10.783804
21
0.222162
31
0
39
0
210
0
220
0
230
1
0
LINE
5
8E
100
AcDbEntity
8
1
62
256
6
ByLayer
370
18
48
1
60
0
100
AcDbLine
10
10.783804
20
-0.222162
30
0
11
10.8874
21
0
31
0
39
0
210
0
220
0
230
1
0
LINE
5
8F
100
AcDbEntity
8
1
62
256
6
ByLayer
370
18
48
1
60
0
100
AcDbLine
10
1.887444
20
-0.565
30
0
11
3.63451
21
-0.565
31
0
39
0
210
0
220
0
230
1
0
LINE
5
90
100
AcDbEntity
8
1
62
256
6
ByLayer
370
18
48
1
60
0
100
AcDbLine
10
4.740445
20
-0.565
30
0
11
6.532129
21
-0.565
31
0
39
0
210
0
220
0
230
1
0
LINE
5
91
100
AcDbEntity
8
1
62
256
6
ByLayer
370
18
48
1
60
0
100
AcDbLine
10
7.812468
20
-0.565
30
0
11
9.607058
21
-0.565
31
0
39
0
210
0
220
0
230
1
0
LINE
5
92
100
AcDbEntity
8
1
62
256
6
ByLayer
370
18
48
1
60
0
100
AcDbLine
10
9.607058
20
0.565
30
0
11
7.812468
21
0.565
31
0
39
0
210
0
220
0
230
1
0
LINE
5
93
100
AcDbEntity
8
1
62
256
6
ByLayer
370
18
48
1
60
0
100
AcDbLine
10
6.532129
20
0.565
30
0
11
4.740445
21
0.565
31
0
39
0
210
0
220
0
230
1
0
LINE
5
94
100
AcDbEntity
8
1
62
256
6
ByLayer
370
18
48
1
60
0
100
AcDbLine
10
3.63451
20
0.565
30
0
11
1.887444
21
0.565
31
0
39
0
210
0
220
0
230
1
0
LINE
5
95
100
AcDbEntity
8
1
62
256
6
ByLayer
370
18
48
1
60
0
100
AcDbLine
10
1.387444
20
0.698975
30
0
11
2.7E-05
21
1.5
31
0
39
0
210
0
220
0
230
1
0
LINE
5
96
100
AcDbEntity
8
1
62
256
6
ByLayer
370
18
48
1
60
0
100
AcDbLine
10
2.7E-05
20
-1.5
30
0
11
1.387444
21
-0.698975
31
0
39
0
210
0
220
0
230
1
0
LINE
5
97
100
AcDbEntity
8
SK1
62
256
6
ByLayer
370
18
48
1
60
0
100
AcDbLine
10
-27.1126
20
-1.326795
30
0
11
-26.8126
21
-1.5
31
0
39
0
210
0
220
0
230
1
0
LINE
5
98
100
AcDbEntity
8
SK1
62
256
6
ByLayer
370
18
48
1
60
0
100
AcDbLine
10
-26.8126
20
1.5
30
0
11
-27.1126
21
1.326795
31
0
39
0
210
0
220
0
230
1
0
LINE
5
99
100
AcDbEntity
8
SK1
62
256
6
ByLayer
370
18
48
1
60
0
100
AcDbLine
10
-26.8126
20
-1.5
30
0
11
0
21
-1.5
31
0
39
0
210
0
220
0
230
1
0
LINE
5
9A
100
AcDbEntity
8
SK1
62
256
6
ByLayer
370
18
48
1
60
0
100
AcDbLine
10
0
20
1.5
30
0
11
-26.8126
21
1.5
31
0
39
0
210
0
220
0
230
1
0
LINE
5
9B
100
AcDbEntity
8
4
62
256
6
ByLayer
370
18
48
0.05
60
0
100
AcDbLine
10
0
20
0
30
0
11
10.8874
21
0
31
0
39
0
210
0
220
0
230
1
0
LINE
5
9D
100
AcDbEntity
8
81
62
256
6
ByLayer
370
18
48
1
60
0
100
AcDbLine
10
10.8874
20
0
30
0
11
13.8874
21
0
31
0
39
0
210
0
220
0
230
1
0
LINE
5
9E
100
AcDbEntity
8
80
62
256
6
ByLayer
370
18
48
1
60
0
100
AcDbLine
10
0
20
0
30
0
11
-3
21
0
31
0
39
0
210
0
220
0
230
1
0
LINE
5
9F
100
AcDbEntity
8
SK4
62
256
6
ByLayer
370
18
48
0.05
60
0
100
AcDbLine
10
-30.1126
20
0
30
0
11
13.8874
21
0
31
0
39
0
210
0
220
0
230
1
0
LINE
5
A1
100
AcDbEntity
8
SK2
62
256
6
ByLayer
370
13
48
1
60
0
100
AcDbLine
10
-31.6126
20
-9
30
0
11
-31.6126
21
21.782741
31
0
39
0
210
0
220
0
230
1
0
LINE
5
A3
100
AcDbEntity
8
SK2
62
256
6
ByLayer
370
13
48
1
60
0
100
AcDbLine
10
-28.7001
20
-1.5
30
0
11
-33.6126
21
-1.5
31
0
39
0
210
0
220
0
230
1
0
LINE
5
A4
100
AcDbEntity
8
SK2
62
256
6
ByLayer
370
13
48
1
60
0
100
AcDbLine
10
-28.7001
20
1.5
30
0
11
-33.6126
21
1.5
31
0
39
0
210
0
220
0
230
1
0
LINE
5
A5
100
AcDbEntity
8
1
62
256
6
ByLayer
370
18
48
1
60
1
100
AcDbLine
10
-31.6126
20
-1.5
30
0
11
-31.151816
21
-4.999998
31
0
39
0
210
0
220
0
230
1
0
LINE
5
A6
100
AcDbEntity
8
1
62
256
6
ByLayer
370
18
48
1
60
1
100
AcDbLine
10
-31.151816
20
-4.999998
30
0
11
-32.073384
21
-5.000002
31
0
39
0
210
0
220
0
230
1
0
LINE
5
A7
100
AcDbEntity
8
1
62
256
6
ByLayer
370
18
48
1
60
1
100
AcDbLine
10
-32.073384
20
-5.000002
30
0
11
-31.6126
21
-1.5
31
0
39
0
210
0
220
0
230
1
0
LINE
5
A8
100
AcDbEntity
8
1
62
256
6
ByLayer
370
18
48
1
60
1
100
AcDbLine
10
-31.6126
20
1.5
30
0
11
-32.073384
21
4.999998
31
0
39
0
210
0
220
0
230
1
0
LINE
5
A9
100
AcDbEntity
8
1
62
256
6
ByLayer
370
18
48
1
60
1
100
AcDbLine
10
-32.073384
20
4.999998
30
0
11
-31.151816
21
5.000002
31
0
39
0
210
0
220
0
230
1
0
LINE
5
AA
100
AcDbEntity
8
1
62
256
6
ByLayer
370
18
48
1
60
1
100
AcDbLine
10
-31.151816
20
5.000002
30
0
11
-31.6126
21
1.5
31
0
39
0
210
0
220
0
230
1
0
LINE
5
AB
100
AcDbEntity
8
2
62
256
6
ByLayer
370
13
48
1
60
0
100
AcDbLine
10
16.3874
20
-8.065
30
0
11
16.3874
21
28.71797
31
0
39
0
210
0
220
0
230
1
0
LINE
5
AD
100
AcDbEntity
8
2
62
256
6
ByLayer
370
13
48
1
60
0
100
AcDbLine
10
12.4749
20
-0.565
30
0
11
18.3874
21
-0.565
31
0
39
0
210
0
220
0
230
1
0
LINE
5
AE
100
AcDbEntity
8
2
62
256
6
ByLayer
370
13
48
1
60
0
100
AcDbLine
10
12.4749
20
0.565
30
0
11
18.3874
21
0.565
31
0
39
0
210
0
220
0
230
1
0
LINE
5
AF
100
AcDbEntity
8
1
62
256
6
ByLayer
370
18
48
1
60
1
100
AcDbLine
10
16.3874
20
-0.565
30
0
11
16.848184
21
-4.064998
31
0
39
0
210
0
220
0
230
1
0
LINE
5
B0
100
AcDbEntity
8
1
62
256
6
ByLayer
370
18
48
1
60
1
100
AcDbLine
10
16.848184
20
-4.064998
30
0
11
15.926616
21
-4.065002
31
0
39
0
210
0
220
0
230
1
0
LINE
5
B1
100
AcDbEntity
8
1
62
256
6
ByLayer
370
18
48
1
60
1
100
AcDbLine
10
15.926616
20
-4.065002
30
0
11
16.3874
21
-0.565
31
0
39
0
210
0
220
0
230
1
0
LINE
5
B2
100
AcDbEntity
8
1
62
256
6
ByLayer
370
18
48
1
60
1
100
AcDbLine
10
16.3874
20
0.565
30
0
11
15.926616
21
4.064998
31
0
39
0
210
0
220
0
230
1
0
LINE
5
B3
100
AcDbEntity
8
1
62
256
6
ByLayer
370
18
48
1
60
1
100
AcDbLine
10
15.926616
20
4.064998
30
0
11
16.848184
21
4.065002
31
0
39
0
210
0
220
0
230
1
0
LINE
5
B4
100
AcDbEntity
8
1
62
256
6
ByLayer
370
18
48
1
60
1
100
AcDbLine
10
16.848184
20
4.065002
30
0
11
16.3874
21
0.565
31
0
39
0
210
0
220
0
230
1
0
LINE
5
B5
100
AcDbEntity
8
SK2
62
256
6
ByLayer
370
13
48
1
60
0
100
AcDbLine
10
11.558306
20
-1.438764
30
0
11
18.642445
21
-16.630748
31
0
39
0
210
0
220
0
230
1
0
LINE
5
B6
100
AcDbEntity
8
SK2
62
256
6
ByLayer
370
13
48
1
60
0
100
AcDbLine
10
11.558306
20
1.438764
30
0
11
18.642445
21
16.630748
31
0
39
0
210
0
220
0
230
1
0
LINE
5
B7
100
AcDbEntity
8
1
62
256
6
ByLayer
370
18
48
1
60
1
100
AcDbLine
10
17.797209
20
-14.818132
30
0
11
20.669242
21
-12.765394
31
0
39
0
210
0
220
0
230
1
0
LINE
5
B8
100
AcDbEntity
8
1
62
256
6
ByLayer
370
18
48
1
60
1
100
AcDbLine
10
20.669242
20
-12.765394
30
0
11
21.102671
21
-13.578675
31
0
39
0
210
0
220
0
230
1
0
LINE
5
B9
100
AcDbEntity
8
1
62
256
6
ByLayer
370
18
48
1
60
1
100
AcDbLine
10
21.102671
20
-13.578675
30
0
11
17.797209
21
-14.818132
31
0
39
0
210
0
220
0
230
1
0
LINE
5
BA
100
AcDbEntity
8
1
62
256
6
ByLayer
370
18
48
1
60
1
100
AcDbLine
10
17.797209
20
14.818132
30
0
11
21.102668
21
13.578677
31
0
39
0
210
0
220
0
230
1
0
LINE
5
BB
100
AcDbEntity
8
1
62
256
6
ByLayer
370
18
48
1
60
1
100
AcDbLine
10
21.102668
20
13.578677
30
0
11
20.669245
21
12.765392
31
0
39
0
210
0
220
0
230
1
0
LINE
5
BC
100
AcDbEntity
8
1
62
256
6
ByLayer
370
18
48
1
60
1
100
AcDbLine
10
20.669245
20
12.765392
30
0
11
17.797209
21
14.818132
31
0
39
0
210
0
220
0
230
1
0
LINE
5
D5
100
AcDbEntity
8
1
62
256
6
ByLayer
370
18
48
1
60
1
100
AcDbLine
10
-31.6126
20
-1.5
30
0
11
-31.151816
21
-4.999998
31
0
39
0
210
0
220
0
230
1
0
LINE
5
D6
100
AcDbEntity
8
1
62
256
6
ByLayer
370
18
48
1
60
1
100
AcDbLine
10
-31.151816
20
-4.999998
30
0
11
-32.073384
21
-5.000002
31
0
39
0
210
0
220
0
230
1
0
LINE
5
D7
100
AcDbEntity
8
1
62
256
6
ByLayer
370
18
48
1
60
1
100
AcDbLine
10
-32.073384
20
-5.000002
30
0
11
-31.6126
21
-1.5
31
0
39
0
210
0
220
0
230
1
0
LINE
5
D9
100
AcDbEntity
8
1
62
256
6
ByLayer
370
18
48
1
60
1
100
AcDbLine
10
-31.6126
20
1.5
30
0
11
-32.073384
21
4.999998
31
0
39
0
210
0
220
0
230
1
0
LINE
5
DA
100
AcDbEntity
8
1
62
256
6
ByLayer
370
18
48
1
60
1
100
AcDbLine
10
-32.073384
20
4.999998
30
0
11
-31.151816
21
5.000002
31
0
39
0
210
0
220
0
230
1
0
LINE
5
DB
100
AcDbEntity
8
1
62
256
6
ByLayer
370
18
48
1
60
1
100
AcDbLine
10
-31.151816
20
5.000002
30
0
11
-31.6126
21
1.5
31
0
39
0
210
0
220
0
230
1
0
LINE
5
DF
100
AcDbEntity
8
1
62
256
6
ByLayer
370
18
48
1
60
1
100
AcDbLine
10
16.3874
20
-0.565
30
0
11
16.848184
21
-4.064998
31
0
39
0
210
0
220
0
230
1
0
LINE
5
E0
100
AcDbEntity
8
1
62
256
6
ByLayer
370
18
48
1
60
1
100
AcDbLine
10
16.848184
20
-4.064998
30
0
11
15.926616
21
-4.065002
31
0
39
0
210
0
220
0
230
1
0
LINE
5
E1
100
AcDbEntity
8
1
62
256
6
ByLayer
370
18
48
1
60
1
100
AcDbLine
10
15.926616
20
-4.065002
30
0
11
16.3874
21
-0.565
31
0
39
0
210
0
220
0
230
1
0
LINE
5
E3
100
AcDbEntity
8
1
62
256
6
ByLayer
370
18
48
1
60
1
100
AcDbLine
10
16.3874
20
0.565
30
0
11
15.926616
21
4.064998
31
0
39
0
210
0
220
0
230
1
0
LINE
5
E4
100
AcDbEntity
8
1
62
256
6
ByLayer
370
18
48
1
60
1
100
AcDbLine
10
15.926616
20
4.064998
30
0
11
16.848184
21
4.065002
31
0
39
0
210
0
220
0
230
1
0
LINE
5
E5
100
AcDbEntity
8
1
62
256
6
ByLayer
370
18
48
1
60
1
100
AcDbLine
10
16.848184
20
4.065002
30
0
11
16.3874
21
0.565
31
0
39
0
210
0
220
0
230
1
0
LINE
5
E8
100
AcDbEntity
8
1
62
256
6
ByLayer
370
18
48
1
60
1
100
AcDbLine
10
17.797209
20
-14.818132
30
0
11
20.669242
21
-12.765394
31
0
39
0
210
0
220
0
230
1
0
LINE
5
E9
100
AcDbEntity
8
1
62
256
6
ByLayer
370
18
48
1
60
1
100
AcDbLine
10
20.669242
20
-12.765394
30
0
11
21.102671
21
-13.578675
31
0
39
0
210
0
220
0
230
1
0
LINE
5
EA
100
AcDbEntity
8
1
62
256
6
ByLayer
370
18
48
1
60
1
100
AcDbLine
10
21.102671
20
-13.578675
30
0
11
17.797209
21
-14.818132
31
0
39
0
210
0
220
0
230
1
0
LINE
5
EC
100
AcDbEntity
8
1
62
256
6
ByLayer
370
18
48
1
60
1
100
AcDbLine
10
17.797209
20
14.818132
30
0
11
21.102668
21
13.578677
31
0
39
0
210
0
220
0
230
1
0
LINE
5
ED
100
AcDbEntity
8
1
62
256
6
ByLayer
370
18
48
1
60
1
100
AcDbLine
10
21.102668
20
13.578677
30
0
11
20.669245
21
12.765392
31
0
39
0
210
0
220
0
230
1
0
LINE
5
EE
100
AcDbEntity
8
1
62
256
6
ByLayer
370
18
48
1
60
1
100
AcDbLine
10
20.669245
20
12.765392
30
0
11
17.797209
21
14.818132
31
0
39
0
210
0
220
0
230
1
0
MTEXT
5
D1
100
AcDbEntity
8
SK2
62
256
6
ByLayer
370
18
48
1
60
0
100
AcDbMText
10
-32.953714
20
6.658437
30
0
210
0
220
0
230
1
1
%%c
40
3
41
0
44
1.084337
50
90
71
7
72
5
7
iso_b_vert
0
MTEXT
5
D4
100
AcDbEntity
8
SK2
62
256
6
ByLayer
370
18
48
1
60
0
100
AcDbMText
10
-32.953714
20
12.635
30
0
210
0
220
0
230
1
1
\W0.7468;3.000
40
3
41
0
44
1.084337
50
90
71
7
72
5
7
iso_b_vert
0
MTEXT
5
DD
100
AcDbEntity
8
2
62
256
6
ByLayer
370
18
48
1
60
0
100
AcDbMText
10
15.046286
20
15.093438
30
0
210
0
220
0
230
1
1
%%c
40
3
41
0
44
1.084337
50
90
71
7
72
5
7
iso_b_vert
0
MTEXT
5
DE
100
AcDbEntity
8
2
62
256
6
ByLayer
370
18
48
1
60
0
100
AcDbMText
10
15.046286
20
21.07
30
0
210
0
220
0
230
1
1
\W0.6261;1.130
40
3
41
0
44
1.084337
50
90
71
7
72
5
7
iso_b_vert
0
MTEXT
5
E7
100
AcDbEntity
8
SK2
62
256
6
ByLayer
370
18
48
1
60
0
100
AcDbMText
10
23.954686
20
-2.114886
30
0
210
0
220
0
230
1
1
\W0.6747;130%%d
40
3
41
0
44
1.084337
50
0
71
7
72
5
7
iso_b_vert
0
MTEXT
5
F0
100
AcDbEntity
8
SK6
62
256
6
ByLayer
370
18
48
1
60
0
100
AcDbMText
10
-35.366625
20
-42.114886
30
0
210
0
220
0
230
1
1
\W0.7540;462.1-0113-005A0-XM X0BU
40
3
41
0
44
1.084337
50
0
71
7
72
5
7
iso_b_vert
0
HATCH
5
D8
100
AcDbEntity
8
SK2
62
256
6
ByLayer
370
13
48
1
60
0
100
AcDbHatch
10
0
20
0
30
0
210
0
220
0
230
1
2
ANSI31
70
0
71
0
91
1
92
5
93
3
72
1
10
-31.6126
20
-1.5
11
-31.1518162584472
21
-4.99999830744682
72
1
10
-31.1518162584472
20
-4.99999830744682
11
-32.0733837415528
21
-5.00000169255318
72
1
10
-32.0733837415528
20
-5.00000169255318
11
-31.6126
21
-1.5
97
0
75
0
76
1
52
0
41
0.0062
77
0
78
1
53
45
43
0
44
0
45
-0.0139193969876572
46
0.0139193969876572
79
0
47
0
98
1
10
0
20
0
0
HATCH
5
DC
100
AcDbEntity
8
SK2
62
256
6
ByLayer
370
13
48
1
60
0
100
AcDbHatch
10
0
20
0
30
0
210
0
220
0
230
1
2
ANSI31
70
0
71
0
91
1
92
5
93
3
72
1
10
-31.6126
20
1.5
11
-32.0733837415528
21
4.99999830744682
72
1
10
-32.0733837415528
20
4.99999830744682
11
-31.1518162584472
21
5.00000169255318
72
1
10
-31.1518162584472
20
5.00000169255318
11
-31.6126
21
1.5
97
0
75
0
76
1
52
0
41
0.0062
77
0
78
1
53
45
43
0
44
0
45
-0.0139193969876572
46
0.0139193969876572
79
0
47
0
98
1
10
0
20
0
0
HATCH
5
E2
100
AcDbEntity
8
2
62
256
6
ByLayer
370
13
48
1
60
0
100
AcDbHatch
10
0
20
0
30
0
210
0
220
0
230
1
2
ANSI31
70
0
71
0
91
1
92
5
93
3
72
1
10
16.3874
20
-0.564999999999998
11
16.8481837415528
21
-4.06499830744681
72
1
10
16.8481837415528
20
-4.06499830744681
11
15.9266162584472
21
-4.06500169255318
72
1
10
15.9266162584472
20
-4.06500169255318
11
16.3874
21
-0.564999999999998
97
0
75
0
76
1
52
0
41
0.0062
77
0
78
1
53
45
43
0
44
0
45
-0.0139193969876572
46
0.0139193969876572
79
0
47
0
98
1
10
0
20
0
0
HATCH
5
E6
100
AcDbEntity
8
2
62
256
6
ByLayer
370
13
48
1
60
0
100
AcDbHatch
10
0
20
0
30
0
210
0
220
0
230
1
2
ANSI31
70
0
71
0
91
1
92
5
93
3
72
1
10
16.3874
20
0.564999999999998
11
15.9266162584472
21
4.06499830744681
72
1
10
15.9266162584472
20
4.06499830744681
11
16.8481837415528
21
4.06500169255318
72
1
10
16.8481837415528
20
4.06500169255318
11
16.3874
21
0.564999999999998
97
0
75
0
76
1
52
0
41
0.0062
77
0
78
1
53
45
43
0
44
0
45
-0.0139193969876572
46
0.0139193969876572
79
0
47
0
98
1
10
0
20
0
0
HATCH
5
EB
100
AcDbEntity
8
SK2
62
256
6
ByLayer
370
13
48
1
60
0
100
AcDbHatch
10
0
20
0
30
0
210
0
220
0
230
1
2
ANSI31
70
0
71
0
91
1
92
5
93
3
72
1
10
17.7972085794605
20
-14.8181323180492
11
20.6692418553693
21
-12.765393983365
72
1
10
20.6692418553693
20
-12.765393983365
11
21.1026706127348
21
-13.5786750775861
72
1
10
21.1026706127348
20
-13.5786750775861
11
17.7972085794605
21
-14.8181323180492
97
0
75
0
76
1
52
0
41
0.0062
77
0
78
1
53
45
43
0
44
0
45
-0.0139193969876572
46
0.0139193969876572
79
0
47
0
98
1
10
0
20
0
0
HATCH
5
EF
100
AcDbEntity
8
SK2
62
256
6
ByLayer
370
13
48
1
60
0
100
AcDbHatch
10
0
20
0
30
0
210
0
220
0
230
1
2
ANSI31
70
0
71
0
91
1
92
5
93
3
72
1
10
17.7972085794605
20
14.8181323180492
11
21.1026676253807
21
13.5786766696479
72
1
10
21.1026676253807
20
13.5786766696479
11
20.6692448427234
21
12.7653923913032
72
1
10
20.6692448427234
20
12.7653923913032
11
17.7972085794605
21
14.8181323180492
97
0
75
0
76
1
52
0
41
0.0062
77
0
78
1
53
45
43
0
44
0
45
-0.0139193969876572
46
0.0139193969876572
79
0
47
0
98
1
10
0
20
0
0
DIMENSION
5
F3
100
AcDbEntity
8
SK2
62
256
6
ByLayer
370
18
48
1
60
0
100
AcDbDimension
2
_U0
10
10.8874
20
-35.85
30
0
11
-8.1126
21
-35.85
31
0
70
32
71
1
72
1
41
1
210
0
220
0
230
1
3
Standard
100
AcDbAlignedDimension
13
-27.1126
23
1.5
33
0
14
10.8874
24
0.565
34
0
50
0
100
AcDbRotatedDimension
1001
ACAD
1000
DSTYLE
1002
{
1070
   371
1070
    13
1070
   372
1070
    13
1070
     3
1000

1070
   170
1070
     0
1070
   144
1040
1.0
1070
   277
1070
     2
1070
   284
1070
     8
1070
   278
1070
    46
1070
   146
1040
1.166667
1070
   345
1005
16
1070
   347
1005
16
1070
   346
1005
16
1070
   344
1005
0
1070
   343
1005
0
1070
   172
1070
     1
1070
    76
1070
     0
1070
    75
1070
     0
1070
   282
1070
     0
1070
   281
1070
     0
1070
    71
1070
     0
1070
    74
1070
     0
1070
   279
1070
     0
1070
   173
1070
     1
1070
   340
1005
D2
1070
   271
1070
     2
1070
   272
1070
     2
1070
    77
1070
     1
1070
    73
1070
     1
1070
   171
1070
     3
1070
   274
1070
     4
1070
   177
1070
     2
1070
   176
1070
     2
1070
   178
1070
     2
1070
    78
1070
     8
1070
    48
1040
-0.1
1070
    41
1040
3.5
1070
   147
1040
1.5
1070
    42
1040
1.5875
1070
    44
1040
2.0
1070
   140
1040
3.0
1002
}
1001
ACAD_DSTYLE_DIM_LINETYPE
1070
   380
1005
16
1001
ACAD_DSTYLE_DIM_EXT1_LINETYPE
1070
   381
1005
16
1001
ACAD_DSTYLE_DIM_EXT2_LINETYPE
1070
   382
1005
16
0
DIMENSION
5
10C
100
AcDbEntity
8
SK2
62
256
6
ByLayer
370
18
48
1
60
0
100
AcDbDimension
2
_U1
10
5.2824
20
-22.065
30
0
11
26.530257
21
-22.065
31
0
70
32
71
1
72
1
41
1
210
0
220
0
230
1
3
Standard
100
AcDbAlignedDimension
13
10.8874
23
0.565
33
0
14
5.2824
24
0
34
0
50
0
100
AcDbRotatedDimension
1001
ACAD
1000
DSTYLE
1002
{
1070
   371
1070
    13
1070
   372
1070
    13
1070
     3
1000

1070
   170
1070
     0
1070
   144
1040
1.0
1070
   277
1070
     2
1070
   284
1070
     8
1070
   278
1070
    46
1070
   146
1040
1.166667
1070
   345
1005
16
1070
   347
1005
16
1070
   346
1005
16
1070
   344
1005
0
1070
   343
1005
0
1070
   172
1070
     1
1070
    76
1070
     0
1070
    75
1070
     0
1070
   282
1070
     0
1070
   281
1070
     0
1070
    71
1070
     0
1070
    74
1070
     0
1070
   279
1070
     0
1070
   173
1070
     1
1070
   340
1005
D2
1070
   271
1070
     2
1070
   272
1070
     2
1070
    77
1070
     1
1070
    73
1070
     1
1070
   171
1070
     3
1070
   274
1070
     4
1070
   177
1070
     2
1070
   176
1070
     2
1070
   178
1070
     2
1070
    78
1070
     8
1070
    48
1040
-0.1
1070
    41
1040
3.5
1070
   147
1040
1.5
1070
    42
1040
1.5875
1070
    44
1040
2.0
1070
   140
1040
3.0
1002
}
1001
ACAD_DSTYLE_DIM_LINETYPE
1070
   380
1005
16
1001
ACAD_DSTYLE_DIM_EXT1_LINETYPE
1070
   381
1005
16
1001
ACAD_DSTYLE_DIM_EXT2_LINETYPE
1070
   382
1005
16
0
DIMENSION
5
126
100
AcDbEntity
8
SK2
62
256
6
ByLayer
370
18
48
1
60
0
100
AcDbDimension
2
_U2
10
3.5874
20
-30.065
30
0
11
25.530257
21
-30.065
31
0
70
32
71
1
72
1
41
1
210
0
220
0
230
1
3
Standard
100
AcDbAlignedDimension
13
10.8874
23
0.565
33
0
14
3.5874
24
0
34
0
50
0
100
AcDbRotatedDimension
1001
ACAD
1000
DSTYLE
1002
{
1070
   371
1070
    13
1070
   372
1070
    13
1070
     3
1000

1070
   170
1070
     0
1070
   144
1040
1.0
1070
   277
1070
     2
1070
   284
1070
     8
1070
   278
1070
    46
1070
   146
1040
1.166667
1070
   345
1005
16
1070
   347
1005
16
1070
   346
1005
16
1070
   344
1005
0
1070
   343
1005
0
1070
   172
1070
     1
1070
    76
1070
     0
1070
    75
1070
     0
1070
   282
1070
     0
1070
   281
1070
     0
1070
    71
1070
     0
1070
    74
1070
     0
1070
   279
1070
     0
1070
   173
1070
     1
1070
   340
1005
D2
1070
   271
1070
     2
1070
   272
1070
     2
1070
    77
1070
     1
1070
    73
1070
     1
1070
   171
1070
     3
1070
   274
1070
     4
1070
   177
1070
     2
1070
   176
1070
     2
1070
   178
1070
     2
1070
    78
1070
     8
1070
    48
1040
-0.1
1070
    41
1040
3.5
1070
   147
1040
1.5
1070
    42
1040
1.5875
1070
    44
1040
2.0
1070
   140
1040
3.0
1002
}
1001
ACAD_DSTYLE_DIM_LINETYPE
1070
   380
1005
16
1001
ACAD_DSTYLE_DIM_EXT1_LINETYPE
1070
   381
1005
16
1001
ACAD_DSTYLE_DIM_EXT2_LINETYPE
1070
   382
1005
16
0
DIMENSION
5
140
100
AcDbEntity
8
SK2
62
256
6
ByLayer
370
18
48
1
60
0
100
AcDbDimension
2
_U3
10
0
20
11.35
30
0
11
-13.5563
21
11.35
31
0
70
32
71
1
72
1
41
1
210
0
220
0
230
1
3
Standard
100
AcDbAlignedDimension
13
-27.1126
23
0
33
0
14
0
24
0
34
0
50
0
100
AcDbRotatedDimension
1001
ACAD
1000
DSTYLE
1002
{
1070
   371
1070
    13
1070
   372
1070
    13
1070
     3
1000

1070
   170
1070
     0
1070
   144
1040
1.0
1070
   277
1070
     2
1070
   284
1070
     8
1070
   278
1070
    46
1070
   146
1040
1.166667
1070
   345
1005
16
1070
   347
1005
16
1070
   346
1005
16
1070
   344
1005
0
1070
   343
1005
0
1070
   172
1070
     1
1070
    76
1070
     0
1070
    75
1070
     0
1070
   282
1070
     0
1070
   281
1070
     0
1070
    71
1070
     0
1070
    74
1070
     0
1070
   279
1070
     0
1070
   173
1070
     1
1070
   340
1005
D2
1070
   271
1070
     2
1070
   272
1070
     2
1070
    77
1070
     1
1070
    73
1070
     1
1070
   171
1070
     3
1070
   274
1070
     4
1070
   177
1070
     2
1070
   176
1070
     2
1070
   178
1070
     2
1070
    78
1070
     8
1070
    48
1040
-0.1
1070
    41
1040
3.5
1070
   147
1040
1.5
1070
    42
1040
1.5875
1070
    44
1040
2.0
1070
   140
1040
3.0
1002
}
1001
ACAD_DSTYLE_DIM_LINETYPE
1070
   380
1005
16
1001
ACAD_DSTYLE_DIM_EXT1_LINETYPE
1070
   381
1005
16
1001
ACAD_DSTYLE_DIM_EXT2_LINETYPE
1070
   382
1005
16
0
DIMENSION
5
158
100
AcDbEntity
8
2
62
256
6
ByLayer
370
18
48
1
60
0
100
AcDbDimension
2
_U4
10
0
20
11.35
30
0
11
5.4437
21
11.35
31
0
70
32
71
1
72
1
41
1
210
0
220
0
230
1
3
Standard
100
AcDbAlignedDimension
13
10.8874
23
0.565
33
0
14
0
24
0
34
0
50
0
100
AcDbRotatedDimension
1001
ACAD
1000
DSTYLE
1002
{
1070
   371
1070
    13
1070
   372
1070
    13
1070
     3
1000

1070
   170
1070
     0
1070
   144
1040
1.0
1070
   277
1070
     2
1070
   284
1070
     8
1070
   278
1070
    46
1070
   146
1040
1.166667
1070
   345
1005
16
1070
   347
1005
16
1070
   346
1005
16
1070
   344
1005
0
1070
   343
1005
0
1070
   172
1070
     1
1070
    76
1070
     0
1070
    75
1070
     0
1070
   282
1070
     0
1070
   281
1070
     0
1070
    71
1070
     0
1070
    74
1070
     0
1070
   279
1070
     0
1070
   173
1070
     1
1070
   340
1005
D2
1070
   271
1070
     2
1070
   272
1070
     2
1070
    77
1070
     1
1070
    73
1070
     1
1070
   171
1070
     3
1070
   274
1070
     4
1070
   177
1070
     2
1070
   176
1070
     2
1070
   178
1070
     2
1070
    78
1070
     8
1070
    48
1040
-0.1
1070
    41
1040
3.5
1070
   147
1040
1.5
1070
    42
1040
1.5875
1070
    44
1040
2.0
1070
   140
1040
3.0
1002
}
1001
ACAD_DSTYLE_DIM_LINETYPE
1070
   380
1005
16
1001
ACAD_DSTYLE_DIM_EXT1_LINETYPE
1070
   381
1005
16
1001
ACAD_DSTYLE_DIM_EXT2_LINETYPE
1070
   382
1005
16
0
ENDSEC
0
SECTION
2
OBJECTS
0
DICTIONARY
5
1e1
330
0
100
AcDbDictionary
280
0
281
1
3
ACAD_GROUP
350
1e2
3
ACAD_MLINESTYLE
350
1e3
0
DICTIONARY
5
1e2
330
0
100
AcDbDictionary
280
0
281
1
0
DICTIONARY
5
1e3
330
0
100
AcDbDictionary
280
0
281
1
3
Standard
350
18
0
MLINESTYLE
5
18
330
1e3
100
AcDbMlineStyle
2
Standard
70
0
3

62
256
51
90
52
90
71
2
49
-0.5
62
256
6
ByLayer
49
0.5
62
256
6
ByLayer
0
RASTERVARIABLES
5
1cf
330

100
AcDbRasterVariables
90
0
70
1
71
1
72
1
0
ENDSEC
0
EOF
