0
SECTION
2
HEADER
9
$ACADVER
1
AC1015
9
$DWGCODEPAGE
3
ANSI_1252
9
$HANDSEED
5
1eb
9
$ANGBASE
50
0
9
$ANGDIR
70
0
9
$ATTMODE
70
1
9
$AUNITS
70
0
9
$AUPREC
70
0
9
$CECOLOR
62
256
9
$CELTSCALE
40
1
9
$CELTYPE
6
ByLayer
9
$CELWEIGHT
370
18
9
$CLAYER
8
0
9
$CMLJUST
70
0
9
$CMLSCALE
40
1
9
$CMLSTYLE
2
Standard
9
$DIMSTYLE
2
Standard
9
$TEXTSIZE
40
0.2
9
$TEXTSTYLE
7
Standard
9
$LUNITS
70
2
9
$LUPREC
70
4
9
$EXTNAMES
290
1
9
$INSUNITS
70
4
9
$LTSCALE
40
1
9
$LWDISPLAY
290
1
9
$PDMODE
70
0
9
$PDSIZE
40
0
9
$PLINEGEN
70
0
0
ENDSEC
0
SECTION
2
CLASSES
0
CLASS
1
RASTERVARIABLES
2
AcDbRasterVariables
3
ISM
90
0
280
0
281
0
0
ENDSEC
0
SECTION
2
TABLES
0
TABLE
2
VPORT
5
1e1
100
AcDbSymbolTable
0
VPORT
5
1
100
AcDbSymbolTableRecord
100
AcDbViewportTableRecord
2
*Active
70
0
10
0
20
0
11
1
21
1
12
-1
22
1
13
0
23
0
14
0.5
24
0.5
15
10
25
10
16
0
26
0
36
1
17
0
27
0
37
0
0
ENDTAB
0
TABLE
2
LTYPE
5
1e2
100
AcDbSymbolTable
0
LTYPE
5
14
100
AcDbSymbolTableRecord
100
AcDbLinetypeTableRecord
70
0
2
ByBlock
3

72
65
73
0
40
0
0
LTYPE
5
15
100
AcDbSymbolTableRecord
100
AcDbLinetypeTableRecord
70
0
2
ByLayer
3

72
65
73
0
40
0
0
LTYPE
5
16
100
AcDbSymbolTableRecord
100
AcDbLinetypeTableRecord
70
0
2
Continuous
3
Solid line
72
65
73
0
40
0
0
LTYPE
5
6E
100
AcDbSymbolTableRecord
100
AcDbLinetypeTableRecord
70
0
2
CENTER
3
____ _ ____ _ ____ _ ____
72
65
73
4
40
47.5
49
22
74
0
49
-8.5
74
0
49
8.5
74
0
49
-8.5
74
0
0
LTYPE
5
6F
100
AcDbSymbolTableRecord
100
AcDbLinetypeTableRecord
70
0
2
DASHED
3
__ __ __ __ __ __ __ __ __
72
65
73
2
40
25.72
49
12.86
74
0
49
-12.86
74
0
0
ENDTAB
0
TABLE
2
LAYER
5
1e3
100
AcDbSymbolTable
0
LAYER
5
10
100
AcDbSymbolTableRecord
100
AcDbLayerTableRecord
2
0
70
0
62
7
6
Continuous
290
1
370
-3
390
0
0
LAYER
5
71
100
AcDbSymbolTableRecord
100
AcDbLayerTableRecord
2
80
70
0
62
-6
6
Continuous
290
1
370
-3
390
0
0
LAYER
5
73
100
AcDbSymbolTableRecord
100
AcDbLayerTableRecord
2
81
70
0
62
-3
6
Continuous
290
1
370
-3
390
0
0
LAYER
5
75
100
AcDbSymbolTableRecord
100
AcDbLayerTableRecord
2
1
70
0
62
4
6
Continuous
290
1
370
-3
390
0
0
LAYER
5
99
100
AcDbSymbolTableRecord
100
AcDbLayerTableRecord
2
4
70
0
62
-2
6
CENTER
290
1
370
-3
390
0
0
LAYER
5
A9
100
AcDbSymbolTableRecord
100
AcDbLayerTableRecord
2
2
70
0
62
7
6
Continuous
290
1
370
-3
390
0
0
LAYER
5
F3
100
AcDbSymbolTableRecord
100
AcDbLayerTableRecord
2
Defpoints
70
0
62
7
6
Continuous
290
0
370
-3
390
0
0
LAYER
5
1cd
100
AcDbSymbolTableRecord
100
AcDbLayerTableRecord
2
SK1
70
0
62
4
6
Continuous
290
1
370
-3
390
0
0
LAYER
5
1ce
100
AcDbSymbolTableRecord
100
AcDbLayerTableRecord
2
SK4
70
0
62
2
6
CENTER
290
1
370
-3
390
0
0
LAYER
5
1cf
100
AcDbSymbolTableRecord
100
AcDbLayerTableRecord
2
SK2
70
0
62
7
6
Continuous
290
1
370
-3
390
0
0
LAYER
5
1d0
100
AcDbSymbolTableRecord
100
AcDbLayerTableRecord
2
SK6
70
0
62
5
6
Continuous
290
1
370
-3
390
0
0
ENDTAB
0
TABLE
2
STYLE
5
1e4
100
AcDbSymbolTable
0
STYLE
5
11
100
AcDbSymbolTableRecord
100
AcDbTextStyleTableRecord
2
Standard
3
txt
70
0
71
0
40
0
41
1
42
0
50
0
0
STYLE
5
CF
100
AcDbSymbolTableRecord
100
AcDbTextStyleTableRecord
2
iso_b_vert
3
simplex.shx
70
0
71
0
40
0
41
1
42
0
50
0
0
STYLE
5
D0
100
AcDbSymbolTableRecord
100
AcDbTextStyleTableRecord
2
DWGDirectTextStyle
3
simplex
70
0
71
0
40
0
41
1
42
0
50
0
0
ENDTAB
0
TABLE
2
DIMSTYLE
5
1e5
100
AcDbSymbolTable
100
AcDbDimStyleTable
0
DIMSTYLE
105
27
100
AcDbSymbolTableRecord
100
AcDbDimStyleTableRecord
2
Standard
70
0
3
<>
41
0.18
42
0.0625
44
0.18
140
0.18
147
0.09
73
0
74
0
77
1
271
2
275
0
278
52
280
0
340
11
0
ENDTAB
0
TABLE
2
VIEW
5
1e6
100
AcDbSymbolTable
0
ENDTAB
0
TABLE
2
UCS
5
1e7
100
AcDbSymbolTable
0
ENDTAB
0
TABLE
2
APPID
5
1e8
100
AcDbSymbolTable
0
APPID
5
12
100
AcDbSymbolTableRecord
100
AcDbRegAppTableRecord
2
ACAD
70
0
0
APPID
5
EF
100
AcDbSymbolTableRecord
100
AcDbRegAppTableRecord
2
ACAD_DSTYLE_DIMBREAK
70
0
0
APPID
5
18C
100
AcDbSymbolTableRecord
100
AcDbRegAppTableRecord
2
ACAD_DSTYLE_DIM_LINETYPE
70
0
0
APPID
5
18D
100
AcDbSymbolTableRecord
100
AcDbRegAppTableRecord
2
ACAD_DSTYLE_DIM_EXT1_LINETYPE
70
0
0
APPID
5
18E
100
AcDbSymbolTableRecord
100
AcDbRegAppTableRecord
2
ACAD_DSTYLE_DIM_EXT2_LINETYPE
70
0
0
APPID
5
1C9
100
AcDbSymbolTableRecord
100
AcDbRegAppTableRecord
2
ACAD_MLEADERVER
70
0
0
ENDTAB
0
TABLE
2
BLOCK_RECORD
5
1e9
100
AcDbSymbolTable
0
BLOCK_RECORD
5
1F
100
AcDbSymbolTableRecord
100
AcDbBlockTableRecord
2
*Model_Space
340
0
70
0
0
BLOCK_RECORD
5
1B
100
AcDbSymbolTableRecord
100
AcDbBlockTableRecord
2
*Paper_Space
340
0
70
0
0
BLOCK_RECORD
5
23
100
AcDbSymbolTableRecord
100
AcDbBlockTableRecord
2
*Paper_Space0
340
0
70
0
0
BLOCK_RECORD
5
F4
100
AcDbSymbolTableRecord
100
AcDbBlockTableRecord
2
*D1
340
0
70
0
0
BLOCK_RECORD
5
100
100
AcDbSymbolTableRecord
100
AcDbBlockTableRecord
2
_U0
340
0
70
0
0
BLOCK_RECORD
5
10C
100
AcDbSymbolTableRecord
100
AcDbBlockTableRecord
2
*D3
340
0
70
0
0
BLOCK_RECORD
5
11A
100
AcDbSymbolTableRecord
100
AcDbBlockTableRecord
2
_U1
340
0
70
0
0
BLOCK_RECORD
5
126
100
AcDbSymbolTableRecord
100
AcDbBlockTableRecord
2
*D5
340
0
70
0
0
BLOCK_RECORD
5
134
100
AcDbSymbolTableRecord
100
AcDbBlockTableRecord
2
_U2
340
0
70
0
0
BLOCK_RECORD
5
140
100
AcDbSymbolTableRecord
100
AcDbBlockTableRecord
2
*D7
340
0
70
0
0
BLOCK_RECORD
5
14C
100
AcDbSymbolTableRecord
100
AcDbBlockTableRecord
2
_U3
340
0
70
0
0
BLOCK_RECORD
5
158
100
AcDbSymbolTableRecord
100
AcDbBlockTableRecord
2
*D9
340
0
70
0
0
BLOCK_RECORD
5
165
100
AcDbSymbolTableRecord
100
AcDbBlockTableRecord
2
_U4
340
0
70
0
0
ENDTAB
0
ENDSEC
0
SECTION
2
BLOCKS
0
BLOCK
5
20
100
AcDbEntity
8
0
100
AcDbBlockBegin
2
*Model_Space
70
0
10
0
20
0
30
0
3
*Model_Space
0
ENDBLK
5
21
100
AcDbEntity
8
0
100
AcDbBlockEnd
0
BLOCK
5
1C
100
AcDbEntity
8
0
100
AcDbBlockBegin
2
*Paper_Space
70
0
10
0
20
0
30
0
3
*Paper_Space
0
ENDBLK
5
1D
100
AcDbEntity
8
0
100
AcDbBlockEnd
0
BLOCK
5
24
100
AcDbEntity
8
0
100
AcDbBlockBegin
2
*Paper_Space0
70
0
10
0
20
0
30
0
3
*Paper_Space0
0
ENDBLK
5
25
100
AcDbEntity
8
0
100
AcDbBlockEnd
0
BLOCK
5
F5
100
AcDbEntity
8
0
100
AcDbBlockBegin
2
*D1
70
1
10
0
20
0
30
0
3
*D1
0
LINE
5
F7
100
AcDbEntity
8
0
62
256
6
ByLayer
370
-2
48
1
60
0
100
AcDbLine
10
-25.0945
20
-0.0875
30
0
11
-25.0945
21
-37.85
31
0
39
0
210
0
220
0
230
1
0
LINE
5
F8
100
AcDbEntity
8
0
62
256
6
ByLayer
370
-2
48
1
60
0
100
AcDbLine
10
12.9055
20
-0.9175
30
0
11
12.9055
21
-37.85
31
0
39
0
210
0
220
0
230
1
0
LINE
5
F9
100
AcDbEntity
8
0
62
256
6
ByLayer
370
-2
48
1
60
0
100
AcDbLine
10
-21.5945
20
-35.85
30
0
11
9.4055
21
-35.85
31
0
39
0
210
0
220
0
230
1
0
SOLID
5
FA
100
AcDbEntity
8
0
62
256
6
ByLayer
370
-1
48
1
60
0
100
AcDbTrace
10
-21.5945
20
-35.266667
30
0
11
-21.5945
21
-36.433333
31
0
12
-25.0945
22
-35.85
32
0
13
-25.0945
23
-35.85
33
0
39
0
210
0
220
0
230
1
0
SOLID
5
FB
100
AcDbEntity
8
0
62
256
6
ByLayer
370
-1
48
1
60
0
100
AcDbTrace
10
9.4055
20
-36.433333
30
0
11
9.4055
21
-35.266667
31
0
12
12.9055
22
-35.85
32
0
13
12.9055
23
-35.85
33
0
39
0
210
0
220
0
230
1
0
MTEXT
5
FC
100
AcDbEntity
8
0
62
256
6
ByLayer
370
18
48
1
60
0
100
AcDbMText
10
-6.0945
20
-29.85
30
0
210
0
220
0
230
1
1
\A1;38
40
3
41
0
44
1
50
0
71
5
72
5
7
iso_b_vert
0
POINT
5
FD
100
AcDbEntity
8
Defpoints
62
0
6
ByLayer
370
-1
48
1
60
0
100
AcDbPoint
10
-25.0945
20
1.5
30
0
39
0
210
0
220
0
230
1
50
360
0
POINT
5
FE
100
AcDbEntity
8
Defpoints
62
0
6
ByLayer
370
-1
48
1
60
0
100
AcDbPoint
10
12.9055
20
0.67
30
0
39
0
210
0
220
0
230
1
50
360
0
POINT
5
FF
100
AcDbEntity
8
Defpoints
62
0
6
ByLayer
370
-1
48
1
60
0
100
AcDbPoint
10
12.9055
20
-35.85
30
0
39
0
210
0
220
0
230
1
50
360
0
ENDBLK
5
F6
100
AcDbEntity
8
0
100
AcDbBlockEnd
0
BLOCK
5
107
100
AcDbEntity
8
0
100
AcDbBlockBegin
2
_U0
70
0
10
0
20
0
30
0
3
_U0
0
MTEXT
5
101
100
AcDbEntity
8
SK2
62
256
6
ByLayer
370
18
48
1
60
0
100
AcDbMText
10
-10.57687
20
-34.964886
30
0
210
0
220
0
230
1
1
\W0.7468;38.00
40
3
41
0
44
1.084337
50
0
71
7
72
5
7
iso_b_vert
0
LINE
5
102
100
AcDbEntity
8
SK2
62
256
6
ByLayer
370
13
48
1
60
0
100
AcDbLine
10
-25.0945
20
-0.0875
30
0
11
-25.0945
21
-37.85
31
0
39
0
210
0
220
0
230
1
0
LINE
5
103
100
AcDbEntity
8
SK2
62
256
6
ByLayer
370
13
48
1
60
0
100
AcDbLine
10
12.9055
20
-0.9175
30
0
11
12.9055
21
-37.85
31
0
39
0
210
0
220
0
230
1
0
LINE
5
104
100
AcDbEntity
8
SK2
62
256
6
ByLayer
370
13
48
1
60
0
100
AcDbLine
10
-25.0945
20
-35.85
30
0
11
12.9055
21
-35.85
31
0
39
0
210
0
220
0
230
1
0
SOLID
5
105
100
AcDbEntity
8
SK2
62
256
6
ByLayer
370
18
48
1
60
0
100
AcDbTrace
10
-25.0945
20
-35.85
30
0
11
-21.594502
21
-35.389216
31
0
12
-21.594498
22
-36.310784
32
0
13
-21.594498
23
-36.310784
33
0
39
0
210
0
220
0
230
1
0
SOLID
5
106
100
AcDbEntity
8
SK2
62
256
6
ByLayer
370
18
48
1
60
0
100
AcDbTrace
10
12.9055
20
-35.85
30
0
11
9.405502
21
-36.310784
31
0
12
9.405498
22
-35.389216
32
0
13
9.405498
23
-35.389216
33
0
39
0
210
0
220
0
230
1
0
ENDBLK
5
108
100
AcDbEntity
8
0
100
AcDbBlockEnd
0
BLOCK
5
10D
100
AcDbEntity
8
0
100
AcDbBlockBegin
2
*D3
70
1
10
0
20
0
30
0
3
*D3
0
LINE
5
10F
100
AcDbEntity
8
0
62
256
6
ByLayer
370
-2
48
1
60
0
100
AcDbLine
10
12.9055
20
-0.9175
30
0
11
12.9055
21
-24.17
31
0
39
0
210
0
220
0
230
1
0
LINE
5
110
100
AcDbEntity
8
0
62
256
6
ByLayer
370
-2
48
1
60
0
100
AcDbLine
10
5.7155
20
-1.5875
30
0
11
5.7155
21
-24.17
31
0
39
0
210
0
220
0
230
1
0
LINE
5
111
100
AcDbEntity
8
0
62
256
6
ByLayer
370
-2
48
1
60
0
100
AcDbLine
10
12.9055
20
-22.17
30
0
11
37.9055
21
-22.17
31
0
39
0
210
0
220
0
230
1
0
LINE
5
112
100
AcDbEntity
8
0
62
256
6
ByLayer
370
-2
48
1
60
0
100
AcDbLine
10
16.4055
20
-22.17
30
0
11
19.9055
21
-22.17
31
0
39
0
210
0
220
0
230
1
0
LINE
5
113
100
AcDbEntity
8
0
62
256
6
ByLayer
370
-2
48
1
60
0
100
AcDbLine
10
2.2155
20
-22.17
30
0
11
-1.2845
21
-22.17
31
0
39
0
210
0
220
0
230
1
0
SOLID
5
114
100
AcDbEntity
8
0
62
256
6
ByLayer
370
-1
48
1
60
0
100
AcDbTrace
10
16.4055
20
-21.586667
30
0
11
16.4055
21
-22.753333
31
0
12
12.9055
22
-22.17
32
0
13
12.9055
23
-22.17
33
0
39
0
210
0
220
0
230
1
0
SOLID
5
115
100
AcDbEntity
8
0
62
256
6
ByLayer
370
-1
48
1
60
0
100
AcDbTrace
10
2.2155
20
-22.753333
30
0
11
2.2155
21
-21.586667
31
0
12
5.7155
22
-22.17
32
0
13
5.7155
23
-22.17
33
0
39
0
210
0
220
0
230
1
0
MTEXT
5
116
100
AcDbEntity
8
0
62
256
6
ByLayer
370
18
48
1
60
0
100
AcDbMText
10
28.9055
20
-16.17
30
0
210
0
220
0
230
1
1
\A1;7.19
40
3
41
0
44
1
50
0
71
5
72
5
7
iso_b_vert
0
POINT
5
117
100
AcDbEntity
8
Defpoints
62
0
6
ByLayer
370
-1
48
1
60
0
100
AcDbPoint
10
12.9055
20
0.67
30
0
39
0
210
0
220
0
230
1
50
360
0
POINT
5
118
100
AcDbEntity
8
Defpoints
62
0
6
ByLayer
370
-1
48
1
60
0
100
AcDbPoint
10
5.7155
20
0
30
0
39
0
210
0
220
0
230
1
50
360
0
POINT
5
119
100
AcDbEntity
8
Defpoints
62
0
6
ByLayer
370
-1
48
1
60
0
100
AcDbPoint
10
5.7155
20
-22.17
30
0
39
0
210
0
220
0
230
1
50
360
0
ENDBLK
5
10E
100
AcDbEntity
8
0
100
AcDbBlockEnd
0
BLOCK
5
121
100
AcDbEntity
8
0
100
AcDbBlockBegin
2
_U1
70
0
10
0
20
0
30
0
3
_U1
0
MTEXT
5
11B
100
AcDbEntity
8
SK2
62
256
6
ByLayer
370
18
48
1
60
0
100
AcDbMText
10
17.0645
20
-21.284886
30
0
210
0
220
0
230
1
1
\W0.6493;(7.19)
40
3
41
0
44
1.084337
50
0
71
7
72
5
7
iso_b_vert
0
LINE
5
11C
100
AcDbEntity
8
SK2
62
256
6
ByLayer
370
13
48
1
60
0
100
AcDbLine
10
12.9055
20
-0.9175
30
0
11
12.9055
21
-24.17
31
0
39
0
210
0
220
0
230
1
0
LINE
5
11D
100
AcDbEntity
8
SK2
62
256
6
ByLayer
370
13
48
1
60
0
100
AcDbLine
10
5.7155
20
-1.5875
30
0
11
5.7155
21
-24.17
31
0
39
0
210
0
220
0
230
1
0
LINE
5
11E
100
AcDbEntity
8
SK2
62
256
6
ByLayer
370
13
48
1
60
0
100
AcDbLine
10
5.7155
20
-22.17
30
0
11
25.627383
21
-22.17
31
0
39
0
210
0
220
0
230
1
0
SOLID
5
11F
100
AcDbEntity
8
SK2
62
256
6
ByLayer
370
18
48
1
60
0
100
AcDbTrace
10
12.9055
20
-22.17
30
0
11
9.405502
21
-22.630784
31
0
12
9.405498
22
-21.709216
32
0
13
9.405498
23
-21.709216
33
0
39
0
210
0
220
0
230
1
0
SOLID
5
120
100
AcDbEntity
8
SK2
62
256
6
ByLayer
370
18
48
1
60
0
100
AcDbTrace
10
5.7155
20
-22.17
30
0
11
9.215498
21
-21.709216
31
0
12
9.215502
22
-22.630784
32
0
13
9.215502
23
-22.630784
33
0
39
0
210
0
220
0
230
1
0
ENDBLK
5
122
100
AcDbEntity
8
0
100
AcDbBlockEnd
0
BLOCK
5
127
100
AcDbEntity
8
0
100
AcDbBlockBegin
2
*D5
70
1
10
0
20
0
30
0
3
*D5
0
LINE
5
129
100
AcDbEntity
8
0
62
256
6
ByLayer
370
-2
48
1
60
0
100
AcDbLine
10
12.9055
20
-0.9175
30
0
11
12.9055
21
-32.17
31
0
39
0
210
0
220
0
230
1
0
LINE
5
12A
100
AcDbEntity
8
0
62
256
6
ByLayer
370
-2
48
1
60
0
100
AcDbLine
10
3.7055
20
-1.5875
30
0
11
3.7055
21
-32.17
31
0
39
0
210
0
220
0
230
1
0
LINE
5
12B
100
AcDbEntity
8
0
62
256
6
ByLayer
370
-2
48
1
60
0
100
AcDbLine
10
12.9055
20
-30.17
30
0
11
35.191214
21
-30.17
31
0
39
0
210
0
220
0
230
1
0
LINE
5
12C
100
AcDbEntity
8
0
62
256
6
ByLayer
370
-2
48
1
60
0
100
AcDbLine
10
16.4055
20
-30.17
30
0
11
19.9055
21
-30.17
31
0
39
0
210
0
220
0
230
1
0
LINE
5
12D
100
AcDbEntity
8
0
62
256
6
ByLayer
370
-2
48
1
60
0
100
AcDbLine
10
0.2055
20
-30.17
30
0
11
-3.2945
21
-30.17
31
0
39
0
210
0
220
0
230
1
0
SOLID
5
12E
100
AcDbEntity
8
0
62
256
6
ByLayer
370
-1
48
1
60
0
100
AcDbTrace
10
16.4055
20
-29.586667
30
0
11
16.4055
21
-30.753333
31
0
12
12.9055
22
-30.17
32
0
13
12.9055
23
-30.17
33
0
39
0
210
0
220
0
230
1
0
SOLID
5
12F
100
AcDbEntity
8
0
62
256
6
ByLayer
370
-1
48
1
60
0
100
AcDbTrace
10
0.2055
20
-30.753333
30
0
11
0.2055
21
-29.586667
31
0
12
3.7055
22
-30.17
32
0
13
3.7055
23
-30.17
33
0
39
0
210
0
220
0
230
1
0
MTEXT
5
130
100
AcDbEntity
8
0
62
256
6
ByLayer
370
18
48
1
60
0
100
AcDbMText
10
27.548357
20
-24.17
30
0
210
0
220
0
230
1
1
\A1;9.2
40
3
41
0
44
1
50
0
71
5
72
5
7
iso_b_vert
0
POINT
5
131
100
AcDbEntity
8
Defpoints
62
0
6
ByLayer
370
-1
48
1
60
0
100
AcDbPoint
10
12.9055
20
0.67
30
0
39
0
210
0
220
0
230
1
50
360
0
POINT
5
132
100
AcDbEntity
8
Defpoints
62
0
6
ByLayer
370
-1
48
1
60
0
100
AcDbPoint
10
3.7055
20
0
30
0
39
0
210
0
220
0
230
1
50
360
0
POINT
5
133
100
AcDbEntity
8
Defpoints
62
0
6
ByLayer
370
-1
48
1
60
0
100
AcDbPoint
10
3.7055
20
-30.17
30
0
39
0
210
0
220
0
230
1
50
360
0
ENDBLK
5
128
100
AcDbEntity
8
0
100
AcDbBlockEnd
0
BLOCK
5
13B
100
AcDbEntity
8
0
100
AcDbBlockBegin
2
_U2
70
0
10
0
20
0
30
0
3
_U2
0
MTEXT
5
135
100
AcDbEntity
8
SK2
62
256
6
ByLayer
370
18
48
1
60
0
100
AcDbMText
10
16.0645
20
-29.284886
30
0
210
0
220
0
230
1
1
\W0.7346;9.20
40
3
41
0
44
1.084337
50
0
71
7
72
5
7
iso_b_vert
0
LINE
5
136
100
AcDbEntity
8
SK2
62
256
6
ByLayer
370
13
48
1
60
0
100
AcDbLine
10
12.9055
20
-0.9175
30
0
11
12.9055
21
-32.17
31
0
39
0
210
0
220
0
230
1
0
LINE
5
137
100
AcDbEntity
8
SK2
62
256
6
ByLayer
370
13
48
1
60
0
100
AcDbLine
10
3.7055
20
-1.5875
30
0
11
3.7055
21
-32.17
31
0
39
0
210
0
220
0
230
1
0
LINE
5
138
100
AcDbEntity
8
SK2
62
256
6
ByLayer
370
13
48
1
60
0
100
AcDbLine
10
3.7055
20
-30.17
30
0
11
22.946413
21
-30.17
31
0
39
0
210
0
220
0
230
1
0
SOLID
5
139
100
AcDbEntity
8
SK2
62
256
6
ByLayer
370
18
48
1
60
0
100
AcDbTrace
10
12.9055
20
-30.17
30
0
11
9.405502
21
-30.630784
31
0
12
9.405498
22
-29.709216
32
0
13
9.405498
23
-29.709216
33
0
39
0
210
0
220
0
230
1
0
SOLID
5
13A
100
AcDbEntity
8
SK2
62
256
6
ByLayer
370
18
48
1
60
0
100
AcDbTrace
10
3.7055
20
-30.17
30
0
11
7.205498
21
-29.709216
31
0
12
7.205502
22
-30.630784
32
0
13
7.205502
23
-30.630784
33
0
39
0
210
0
220
0
230
1
0
ENDBLK
5
13C
100
AcDbEntity
8
0
100
AcDbBlockEnd
0
BLOCK
5
141
100
AcDbEntity
8
0
100
AcDbBlockBegin
2
*D7
70
1
10
0
20
0
30
0
3
*D7
0
LINE
5
143
100
AcDbEntity
8
0
62
256
6
ByLayer
370
-2
48
1
60
0
100
AcDbLine
10
-25.0945
20
1.5875
30
0
11
-25.0945
21
13.35
31
0
39
0
210
0
220
0
230
1
0
LINE
5
144
100
AcDbEntity
8
0
62
256
6
ByLayer
370
-2
48
1
60
0
100
AcDbLine
10
0
20
1.5875
30
0
11
0
21
13.35
31
0
39
0
210
0
220
0
230
1
0
LINE
5
145
100
AcDbEntity
8
0
62
256
6
ByLayer
370
-2
48
1
60
0
100
AcDbLine
10
-21.5945
20
11.35
30
0
11
-3.5
21
11.35
31
0
39
0
210
0
220
0
230
1
0
SOLID
5
146
100
AcDbEntity
8
0
62
256
6
ByLayer
370
-1
48
1
60
0
100
AcDbTrace
10
-21.5945
20
11.933333
30
0
11
-21.5945
21
10.766667
31
0
12
-25.0945
22
11.35
32
0
13
-25.0945
23
11.35
33
0
39
0
210
0
220
0
230
1
0
SOLID
5
147
100
AcDbEntity
8
0
62
256
6
ByLayer
370
-1
48
1
60
0
100
AcDbTrace
10
-3.5
20
10.766667
30
0
11
-3.5
21
11.933333
31
0
12
0
22
11.35
32
0
13
0
23
11.35
33
0
39
0
210
0
220
0
230
1
0
MTEXT
5
148
100
AcDbEntity
8
0
62
256
6
ByLayer
370
18
48
1
60
0
100
AcDbMText
10
-12.54725
20
17.35
30
0
210
0
220
0
230
1
1
\A1;25.09
40
3
41
0
44
1
50
0
71
5
72
5
7
iso_b_vert
0
POINT
5
149
100
AcDbEntity
8
Defpoints
62
0
6
ByLayer
370
-1
48
1
60
0
100
AcDbPoint
10
-25.0945
20
0
30
0
39
0
210
0
220
0
230
1
50
360
0
POINT
5
14A
100
AcDbEntity
8
Defpoints
62
0
6
ByLayer
370
-1
48
1
60
0
100
AcDbPoint
10
0
20
0
30
0
39
0
210
0
220
0
230
1
50
360
0
POINT
5
14B
100
AcDbEntity
8
Defpoints
62
0
6
ByLayer
370
-1
48
1
60
0
100
AcDbPoint
10
0
20
11.35
30
0
39
0
210
0
220
0
230
1
50
360
0
ENDBLK
5
142
100
AcDbEntity
8
0
100
AcDbBlockEnd
0
BLOCK
5
153
100
AcDbEntity
8
0
100
AcDbBlockBegin
2
_U3
70
0
10
0
20
0
30
0
3
_U3
0
MTEXT
5
14D
100
AcDbEntity
8
SK2
62
256
6
ByLayer
370
18
48
1
60
0
100
AcDbMText
10
-17.02962
20
12.235114
30
0
210
0
220
0
230
1
1
\W0.7555;25.09
40
3
41
0
44
1.084337
50
0
71
7
72
5
7
iso_b_vert
0
LINE
5
14E
100
AcDbEntity
8
SK2
62
256
6
ByLayer
370
13
48
1
60
0
100
AcDbLine
10
-25.0945
20
1.5875
30
0
11
-25.0945
21
13.35
31
0
39
0
210
0
220
0
230
1
0
LINE
5
14F
100
AcDbEntity
8
SK2
62
256
6
ByLayer
370
13
48
1
60
0
100
AcDbLine
10
0
20
1.5875
30
0
11
0
21
13.35
31
0
39
0
210
0
220
0
230
1
0
LINE
5
150
100
AcDbEntity
8
SK2
62
256
6
ByLayer
370
13
48
1
60
0
100
AcDbLine
10
-25.0945
20
11.35
30
0
11
0
21
11.35
31
0
39
0
210
0
220
0
230
1
0
SOLID
5
151
100
AcDbEntity
8
SK2
62
256
6
ByLayer
370
18
48
1
60
0
100
AcDbTrace
10
-25.0945
20
11.35
30
0
11
-21.594502
21
11.810784
31
0
12
-21.594498
22
10.889216
32
0
13
-21.594498
23
10.889216
33
0
39
0
210
0
220
0
230
1
0
SOLID
5
152
100
AcDbEntity
8
SK2
62
256
6
ByLayer
370
18
48
1
60
0
100
AcDbTrace
10
0
20
11.35
30
0
11
-3.499998
21
10.889216
31
0
12
-3.500002
22
11.810784
32
0
13
-3.500002
23
11.810784
33
0
39
0
210
0
220
0
230
1
0
ENDBLK
5
154
100
AcDbEntity
8
0
100
AcDbBlockEnd
0
BLOCK
5
159
100
AcDbEntity
8
0
100
AcDbBlockBegin
2
*D9
70
1
10
0
20
0
30
0
3
*D9
0
LINE
5
15B
100
AcDbEntity
8
0
62
256
6
ByLayer
370
-2
48
1
60
0
100
AcDbLine
10
12.9055
20
2.2575
30
0
11
12.9055
21
13.35
31
0
39
0
210
0
220
0
230
1
0
LINE
5
15C
100
AcDbEntity
8
0
62
256
6
ByLayer
370
-2
48
1
60
0
100
AcDbLine
10
0
20
1.5875
30
0
11
0
21
13.35
31
0
39
0
210
0
220
0
230
1
0
LINE
5
15D
100
AcDbEntity
8
0
62
256
6
ByLayer
370
-2
48
1
60
0
100
AcDbLine
10
16.4055
20
11.35
30
0
11
19.9055
21
11.35
31
0
39
0
210
0
220
0
230
1
0
LINE
5
15E
100
AcDbEntity
8
0
62
256
6
ByLayer
370
-2
48
1
60
0
100
AcDbLine
10
-3.5
20
11.35
30
0
11
-7
21
11.35
31
0
39
0
210
0
220
0
230
1
0
SOLID
5
15F
100
AcDbEntity
8
0
62
256
6
ByLayer
370
-1
48
1
60
0
100
AcDbTrace
10
16.4055
20
11.933333
30
0
11
16.4055
21
10.766667
31
0
12
12.9055
22
11.35
32
0
13
12.9055
23
11.35
33
0
39
0
210
0
220
0
230
1
0
SOLID
5
160
100
AcDbEntity
8
0
62
256
6
ByLayer
370
-1
48
1
60
0
100
AcDbTrace
10
-3.5
20
10.766667
30
0
11
-3.5
21
11.933333
31
0
12
0
22
11.35
32
0
13
0
23
11.35
33
0
39
0
210
0
220
0
230
1
0
MTEXT
5
161
100
AcDbEntity
8
0
62
256
6
ByLayer
370
18
48
1
60
0
100
AcDbMText
10
6.45275
20
17.35
30
0
210
0
220
0
230
1
1
\A1;12.91
40
3
41
0
44
1
50
0
71
5
72
5
7
iso_b_vert
0
POINT
5
162
100
AcDbEntity
8
Defpoints
62
0
6
ByLayer
370
-1
48
1
60
0
100
AcDbPoint
10
12.9055
20
0.67
30
0
39
0
210
0
220
0
230
1
50
360
0
POINT
5
163
100
AcDbEntity
8
Defpoints
62
0
6
ByLayer
370
-1
48
1
60
0
100
AcDbPoint
10
0
20
0
30
0
39
0
210
0
220
0
230
1
50
360
0
POINT
5
164
100
AcDbEntity
8
Defpoints
62
0
6
ByLayer
370
-1
48
1
60
0
100
AcDbPoint
10
0
20
11.35
30
0
39
0
210
0
220
0
230
1
50
360
0
ENDBLK
5
15A
100
AcDbEntity
8
0
100
AcDbBlockEnd
0
BLOCK
5
16C
100
AcDbEntity
8
0
100
AcDbBlockBegin
2
_U4
70
0
10
0
20
0
30
0
3
_U4
0
MTEXT
5
166
100
AcDbEntity
8
2
62
256
6
ByLayer
370
18
48
1
60
0
100
AcDbMText
10
2.720265
20
12.235114
30
0
210
0
220
0
230
1
1
\W0.6725;12.91
40
3
41
0
44
1.084337
50
0
71
7
72
5
7
iso_b_vert
0
LINE
5
167
100
AcDbEntity
8
2
62
256
6
ByLayer
370
13
48
1
60
0
100
AcDbLine
10
12.9055
20
2.2575
30
0
11
12.9055
21
13.35
31
0
39
0
210
0
220
0
230
1
0
LINE
5
168
100
AcDbEntity
8
2
62
256
6
ByLayer
370
13
48
1
60
0
100
AcDbLine
10
0
20
1.5875
30
0
11
0
21
13.35
31
0
39
0
210
0
220
0
230
1
0
LINE
5
169
100
AcDbEntity
8
2
62
256
6
ByLayer
370
13
48
1
60
0
100
AcDbLine
10
12.9055
20
11.35
30
0
11
0
21
11.35
31
0
39
0
210
0
220
0
230
1
0
SOLID
5
16A
100
AcDbEntity
8
2
62
256
6
ByLayer
370
18
48
1
60
0
100
AcDbTrace
10
12.9055
20
11.35
30
0
11
9.405502
21
10.889216
31
0
12
9.405498
22
11.810784
32
0
13
9.405498
23
11.810784
33
0
39
0
210
0
220
0
230
1
0
SOLID
5
16B
100
AcDbEntity
8
2
62
256
6
ByLayer
370
18
48
1
60
0
100
AcDbTrace
10
0
20
11.35
30
0
11
3.499998
21
11.810784
31
0
12
3.500002
22
10.889216
32
0
13
3.500002
23
10.889216
33
0
39
0
210
0
220
0
230
1
0
ENDBLK
5
16D
100
AcDbEntity
8
0
100
AcDbBlockEnd
0
ENDSEC
0
SECTION
2
ENTITIES
0
ARC
5
BA
100
AcDbEntity
8
1
62
256
6
ByLayer
370
18
48
1
60
0
100
AcDbCircle
39
0
10
1.705544
20
-1.67
30
0
40
0.999999999999998
210
0
220
0
230
1
100
AcDbArc
50
90
51
120
0
ARC
5
BB
100
AcDbEntity
8
1
62
256
6
ByLayer
370
18
48
1
60
0
100
AcDbCircle
39
0
10
1.705544
20
1.67
30
0
40
0.999999999999998
210
0
220
0
230
1
100
AcDbArc
50
240
51
270
0
ARC
5
BC
100
AcDbEntity
8
SK2
62
256
6
ByLayer
370
13
48
1
60
0
100
AcDbCircle
39
0
10
12.9055
20
0
30
0
40
16.35
210
0
220
0
230
1
100
AcDbArc
50
10.57289
51
65
0
ARC
5
BD
100
AcDbEntity
8
SK2
62
256
6
ByLayer
370
13
48
1
60
0
100
AcDbCircle
39
0
10
12.9055
20
0
30
0
40
16.35
210
0
220
0
230
1
100
AcDbArc
50
295
51
349.42711
0
POINT
5
70
100
AcDbEntity
8
80
62
256
6
ByLayer
370
18
48
1
60
0
100
AcDbPoint
10
0
20
0
30
0
39
0
210
0
220
0
230
1
50
360
0
POINT
5
72
100
AcDbEntity
8
81
62
256
6
ByLayer
370
18
48
1
60
0
100
AcDbPoint
10
12.9055
20
0
30
0
39
0
210
0
220
0
230
1
50
360
0
POINT
5
74
100
AcDbEntity
8
1
62
256
6
ByLayer
370
18
48
1
60
1
100
AcDbPoint
10
-25.0945
20
1.5
30
0
39
0
210
0
220
0
230
1
50
360
0
POINT
5
76
100
AcDbEntity
8
1
62
256
6
ByLayer
370
18
48
1
60
1
100
AcDbPoint
10
12.9055
20
0.67
30
0
39
0
210
0
220
0
230
1
50
360
0
POINT
5
77
100
AcDbEntity
8
1
62
256
6
ByLayer
370
18
48
1
60
1
100
AcDbPoint
10
12.9055
20
0.67
30
0
39
0
210
0
220
0
230
1
50
360
0
POINT
5
78
100
AcDbEntity
8
1
62
256
6
ByLayer
370
18
48
1
60
1
100
AcDbPoint
10
5.7155
20
0
30
0
39
0
210
0
220
0
230
1
50
360
0
POINT
5
79
100
AcDbEntity
8
1
62
256
6
ByLayer
370
18
48
1
60
1
100
AcDbPoint
10
12.9055
20
0.67
30
0
39
0
210
0
220
0
230
1
50
360
0
POINT
5
7A
100
AcDbEntity
8
1
62
256
6
ByLayer
370
18
48
1
60
1
100
AcDbPoint
10
3.7055
20
0
30
0
39
0
210
0
220
0
230
1
50
360
0
POINT
5
7B
100
AcDbEntity
8
1
62
256
6
ByLayer
370
18
48
1
60
1
100
AcDbPoint
10
-25.0945
20
0
30
0
39
0
210
0
220
0
230
1
50
360
0
POINT
5
7C
100
AcDbEntity
8
1
62
256
6
ByLayer
370
18
48
1
60
1
100
AcDbPoint
10
0
20
0
30
0
39
0
210
0
220
0
230
1
50
360
0
POINT
5
7D
100
AcDbEntity
8
1
62
256
6
ByLayer
370
18
48
1
60
1
100
AcDbPoint
10
12.9055
20
0.67
30
0
39
0
210
0
220
0
230
1
50
360
0
POINT
5
7E
100
AcDbEntity
8
1
62
256
6
ByLayer
370
18
48
1
60
1
100
AcDbPoint
10
0
20
0
30
0
39
0
210
0
220
0
230
1
50
360
0
SPLINE
5
BE
100
AcDbEntity
8
1
62
256
6
ByLayer
370
18
48
1
60
0
100
AcDbSpline
70
4
71
3
72
16
73
12
40
0
40
0
40
0
40
0
40
0.249999999999997
40
0.249999999999997
40
0.499999999999993
40
0.499999999999993
40
0.624999999999991
40
0.624999999999991
40
0.74999999999999
40
0.74999999999999
40
1
40
1
40
1
40
1
41
1
10
3.72493504686503
20
-0.348490394237359
30
0
41
1
10
3.78492561273865
20
-0.335876298204852
30
0
41
1
10
3.84521505743078
20
-0.326538955140222
30
0
41
1
10
3.96637213459704
20
-0.31476338793658
30
0
41
1
10
4.02723982959844
20
-0.312324461197392
30
0
41
1
10
4.11898029708544
20
-0.314011229731619
30
0
41
1
10
4.14963380671449
20
-0.315463508247205
30
0
41
1
10
4.21109092200103
20
-0.320166623383045
30
0
41
1
10
4.2417611074743
20
-0.323410955974111
30
0
41
1
10
4.33301970905231
20
-0.335658071551592
30
0
41
1
10
4.39309777430429
20
-0.347196142029702
30
0
41
1
10
4.45241600000705
20
-0.361742252908556
30
0
0
SPLINE
5
BF
100
AcDbEntity
8
1
62
256
6
ByLayer
370
18
48
1
60
0
100
AcDbSpline
70
4
71
3
72
42
73
38
40
0
40
0
40
0
40
0
40
0.125000000000017
40
0.125000000000017
40
0.187500000000022
40
0.187500000000022
40
0.250000000000027
40
0.250000000000027
40
0.312500000000031
40
0.312500000000031
40
0.375000000000036
40
0.375000000000036
40
0.500000000000039
40
0.500000000000039
40
0.531250000000038
40
0.531250000000038
40
0.562500000000038
40
0.562500000000038
40
0.625000000000036
40
0.625000000000036
40
0.687500000000035
40
0.687500000000035
40
0.718750000000032
40
0.718750000000032
40
0.75000000000003
40
0.75000000000003
40
0.812500000000022
40
0.812500000000022
40
0.843750000000018
40
0.843750000000018
40
0.875000000000015
40
0.875000000000015
40
0.937500000000007
40
0.937500000000007
40
0.968750000000004
40
0.968750000000004
40
1
40
1
40
1
40
1
41
1
10
4.452416
20
-0.638475509538438
30
0
41
1
10
4.40136206782739
20
-0.642984218136547
30
0
41
1
10
4.35133631623668
20
-0.647891998904981
30
0
41
1
10
4.27783854507672
20
-0.654876518986811
30
0
41
1
10
4.25360799363568
20
-0.657137542673894
30
0
41
1
10
4.20594110898648
20
-0.661302924447568
30
0
41
1
10
4.18247076635947
20
-0.663210888016721
30
0
41
1
10
4.13626944176187
20
-0.666450381190828
30
0
41
1
10
4.11347759157002
20
-0.667783652738251
30
0
41
1
10
4.06912419975609
20
-0.669591342132009
30
0
41
1
10
4.04752818287406
20
-0.670070223205471
30
0
41
1
10
3.98452936527261
20
-0.669834575218744
30
0
41
1
10
3.94489301140015
20
-0.667494587668159
30
0
41
1
10
3.89870776849818
20
-0.66004542666704
30
0
41
1
10
3.88964054739662
20
-0.658325649043348
30
0
41
1
10
3.8718651438686
20
-0.654361732179382
30
0
41
1
10
3.86312830725274
20
-0.6521086311879
30
0
41
1
10
3.8377270214863
20
-0.644518958117033
30
0
41
1
10
3.82190853562992
20
-0.6383784337755
30
0
41
1
10
3.79265601450757
20
-0.623519138397853
30
0
41
1
10
3.77921911694392
20
-0.614804394358373
30
0
41
1
10
3.76107671458905
20
-0.59935401459984
30
0
41
1
10
3.75540399410883
20
-0.593831458946397
30
0
41
1
10
3.74495779282896
20
-0.582134523755798
30
0
41
1
10
3.74016240314086
20
-0.575942161758775
30
0
41
1
10
3.72708430509536
20
-0.556280460973539
30
0
41
1
10
3.72010008070259
20
-0.541733297972627
30
0
41
1
10
3.7124699889242
20
-0.517444558689647
30
0
41
1
10
3.71039514322573
20
-0.508875692218993
30
0
41
1
10
3.70732415268898
20
-0.491184078173774
30
0
41
1
10
3.70632018202292
20
-0.482071660641879
30
0
41
1
10
3.70486853125362
20
-0.453945444782136
30
0
41
1
10
3.70597149312636
20
-0.434145381872298
30
0
41
1
10
3.71077198021783
20
-0.40286506317031
30
0
41
1
10
3.71291058888647
20
-0.392138549256259
30
0
41
1
10
3.71818070786222
20
-0.370499027425922
30
0
41
1
10
3.7213141785621
20
-0.35955355960678
30
0
41
1
10
3.72493504686415
20
-0.348490394237132
30
0
0
SPLINE
5
C0
100
AcDbEntity
8
1
62
256
6
ByLayer
370
18
48
1
60
0
100
AcDbSpline
70
4
71
3
72
16
73
12
40
0
40
0
40
0
40
0
40
0.348356062632175
40
0.348356062632175
40
0.522534093948252
40
0.522534093948252
40
0.696712125264329
40
0.696712125264329
40
0.870890156580406
40
0.870890156580406
40
1
40
1
40
1
40
1
41
1
10
4.452416
20
0.638475509538438
30
0
41
1
10
4.40136206782739
20
0.642984218136547
30
0
41
1
10
4.35133631623668
20
0.647891998904981
30
0
41
1
10
4.27783854507672
20
0.654876518986811
30
0
41
1
10
4.25360799363571
20
0.657137542673894
30
0
41
1
10
4.20594110898648
20
0.661302924447568
30
0
41
1
10
4.18247076635944
20
0.663210888016721
30
0
41
1
10
4.13626944176187
20
0.666450381190828
30
0
41
1
10
4.11347759156999
20
0.667783652738251
30
0
41
1
10
4.07486237173165
20
0.669357474276694
30
0
41
1
10
4.0587429046646
20
0.66979395282516
30
0
41
1
10
4.04294890185827
20
0.669942981408781
30
0
0
SPLINE
5
C1
100
AcDbEntity
8
1
62
256
6
ByLayer
370
18
48
1
60
0
100
AcDbSpline
70
4
71
3
72
20
73
16
40
0
40
0
40
0
40
0
40
0.0725689699823741
40
0.0725689699823741
40
0.145137939964748
40
0.145137939964748
40
0.290275879929532
40
0.290275879929532
40
0.435413819894316
40
0.435413819894316
40
0.5805517598591
40
0.5805517598591
40
0.870827639788631
40
0.870827639788631
40
1
40
1
40
1
40
1
41
1
10
12.5930738690362
20
0.645374306156185
30
0
41
1
10
12.5816754653316
20
0.644094888455896
30
0
41
1
10
12.5709140119129
20
0.642460181812027
30
0
41
1
10
12.5496747815498
20
0.638876386735006
30
0
41
1
10
12.5391761569586
20
0.636941159697301
30
0
41
1
10
12.5074217674284
20
0.631035073741685
30
0
41
1
10
12.4861326520643
20
0.626855950560838
30
0
41
1
10
12.4437128052961
20
0.617788860417505
30
0
41
1
10
12.4225434047977
20
0.612918020224782
30
0
41
1
10
12.380140726365
20
0.60259927787348
30
0
41
1
10
12.3589188212262
20
0.597145738620952
30
0
41
1
10
12.295254441422
20
0.579851550468817
30
0
41
1
10
12.2527537303855
20
0.567122673726004
30
0
41
1
10
12.1914900588148
20
0.547186255444615
30
0
41
1
10
12.1726339357262
20
0.540831220310537
30
0
41
1
10
12.1537837234617
20
0.534265692270907
30
0
0
SPLINE
5
C2
100
AcDbEntity
8
1
62
256
6
ByLayer
370
18
48
1
60
0
100
AcDbSpline
70
4
71
3
72
62
73
58
40
0
40
0
40
0
40
0
40
0.0229887722110289
40
0.0229887722110289
40
0.0519055492977625
40
0.0519055492977625
40
0.080822326384496
40
0.080822326384496
40
0.109739103471229
40
0.109739103471229
40
0.167572657644696
40
0.167572657644696
40
0.196489434731428
40
0.196489434731428
40
0.22540621181816
40
0.22540621181816
40
0.254322988904892
40
0.254322988904892
40
0.283239765991623
40
0.283239765991623
40
0.341073320165087
40
0.341073320165087
40
0.36999009725182
40
0.36999009725182
40
0.398906874338554
40
0.398906874338554
40
0.427823651425288
40
0.427823651425288
40
0.456740428512021
40
0.456740428512021
40
0.514573982685492
40
0.514573982685492
40
0.543490759772229
40
0.543490759772229
40
0.572407536858966
40
0.572407536858966
40
0.601324313945703
40
0.601324313945703
40
0.63024109103244
40
0.63024109103244
40
0.688074645205914
40
0.688074645205914
40
0.716991422292651
40
0.716991422292651
40
0.745908199379388
40
0.745908199379388
40
0.803741753552861
40
0.803741753552861
40
0.861575307726333
40
0.861575307726333
40
0.890492084813068
40
0.890492084813068
40
0.919408861899804
40
0.919408861899804
40
0.977242416073274
40
0.977242416073274
40
1
40
1
40
1
40
1
41
1
10
9.25900031963209
20
-0.669999550175277
30
0
41
1
10
9.22524656641954
20
-0.669989157532939
30
0
41
1
10
9.19144269164138
20
-0.669131852669011
30
0
41
1
10
9.11524753671685
20
-0.665286522975236
30
0
41
1
10
9.07288968881426
20
-0.661809351869152
30
0
41
1
10
8.98822769759525
20
-0.652214127752899
30
0
41
1
10
8.94589234029766
20
-0.646107249304748
30
0
41
1
10
8.86110191637641
20
-0.63132781211317
30
0
41
1
10
8.81858533233378
20
-0.622637670768569
30
0
41
1
10
8.69124709958274
20
-0.59291260494436
30
0
41
1
10
8.60666351846336
20
-0.568260252065187
30
0
41
1
10
8.4795920610151
20
-0.524575462424764
30
0
41
1
10
8.43710813917582
20
-0.508901523070477
30
0
41
1
10
8.35221560917364
20
-0.475654116982696
30
0
41
1
10
8.30983500683757
20
-0.458089952279238
30
0
41
1
10
8.22511471248558
20
-0.421208263571344
30
0
41
1
10
8.18276791510161
20
-0.401899757589433
30
0
41
1
10
8.09799573226391
20
-0.361685827066197
30
0
41
1
10
8.05551318024933
20
-0.340746399503672
30
0
41
1
10
7.92823948861761
20
-0.275967912940786
30
0
41
1
10
7.84362806870172
20
-0.23051610546375
30
0
41
1
10
7.71644139037534
20
-0.159987951493292
30
0
41
1
10
7.67394313864253
20
-0.136060788659592
30
0
41
1
10
7.58900632774865
20
-0.0877581252630648
30
0
41
1
10
7.54663598671706
20
-0.0634047457222948
30
0
41
1
10
7.46196570546633
20
-0.0145122533711515
30
0
41
1
10
7.41963313358607
20
0.0099701232594498
30
0
41
1
10
7.33485273610444
20
0.0587972346988863
30
0
41
1
10
7.2923653879827
20
0.0831838223425621
30
0
41
1
10
7.16492287597666
20
0.155699150986322
30
0
41
1
10
7.08030797429262
20
0.20299506915083
30
0
41
1
10
6.95325081599984
20
0.271263679859288
30
0
41
1
10
6.91080554733736
20
0.293544184670281
30
0
41
1
10
6.82585043634865
20
0.336800110930369
30
0
41
1
10
6.78345245734138
20
0.357737406938554
30
0
41
1
10
6.69870698176817
20
0.398083603905093
30
0
41
1
10
6.65635612115122
20
0.417487761247486
30
0
41
1
10
6.57159586909859
20
0.454613081137126
30
0
41
1
10
6.52916112259996
20
0.472352714263479
30
0
41
1
10
6.40179655515732
20
0.522713384337294
30
0
41
1
10
6.31716792445249
20
0.552108605789641
30
0
41
1
10
6.19002149320454
20
0.58938238303719
30
0
41
1
10
6.14758431310855
20
0.600671363848306
30
0
41
1
10
6.06260508343343
20
0.62083306799812
30
0
41
1
10
6.02022739622754
20
0.629677949873184
30
0
41
1
10
5.89321176643216
20
0.652376872463748
30
0
41
1
10
5.80856293830865
20
0.662345197670135
30
0
41
1
10
5.63853368702959
20
0.671629662390501
30
0
41
1
10
5.55389951573403
20
0.670909790014122
30
0
41
1
10
5.42689885952126
20
0.661795127066455
30
0
41
1
10
5.38451441951139
20
0.657424112088307
30
0
41
1
10
5.29952005951017
20
0.646052040618059
30
0
41
1
10
5.25709306904506
20
0.639073204419645
30
0
41
1
10
5.12993769712693
20
0.614387043913439
30
0
41
1
10
5.04531930950199
20
0.592923553884219
30
0
41
1
10
4.92701025059208
20
0.556365924251168
30
0
41
1
10
4.89365155976279
20
0.545368424890512
30
0
41
1
10
4.86032594496172
20
0.533734262726114
30
0
0
SPLINE
5
C3
100
AcDbEntity
8
1
62
256
6
ByLayer
370
18
48
1
60
0
100
AcDbSpline
70
4
71
3
72
26
73
22
40
0
40
0
40
0
40
0
40
0.124999999999998
40
0.124999999999998
40
0.249999999999997
40
0.249999999999997
40
0.374999999999995
40
0.374999999999995
40
0.499999999999993
40
0.499999999999993
40
0.624999999999991
40
0.624999999999991
40
0.68749999999999
40
0.68749999999999
40
0.749999999999989
40
0.749999999999989
40
0.874999999999988
40
0.874999999999988
40
0.937499999999994
40
0.937499999999994
40
1
40
1
40
1
40
1
41
1
10
12.8273937444676
20
0.151852834190379
30
0
41
1
10
12.8216944311897
20
0.171954225142343
30
0
41
1
10
12.8141209681382
20
0.191802463167193
30
0
41
1
10
12.7974720746463
20
0.231540817172771
30
0
41
1
10
12.7883568007891
20
0.251422853739229
30
0
41
1
10
12.7694142162815
20
0.291452384040809
30
0
41
1
10
12.7595675060042
20
0.311602586893969
30
0
41
1
10
12.7395583141241
20
0.352092602725463
30
0
41
1
10
12.7293829159695
20
0.372443880401249
30
0
41
1
10
12.7088642976925
20
0.413299014142723
30
0
41
1
10
12.698514216181
20
0.43380915808757
30
0
41
1
10
12.6828481341533
20
0.464990237180814
30
0
41
1
10
12.6776015208606
20
0.475456929099096
30
0
41
1
10
12.6670785756606
20
0.496552880698033
30
0
41
1
10
12.6618006617473
20
0.507182922629369
30
0
41
1
10
12.6459397018278
20
0.53922499146077
30
0
41
1
10
12.6353291717093
20
0.560799609023064
30
0
41
1
10
12.6194437997541
20
0.592894236014473
30
0
41
1
10
12.6141538273883
20
0.603545124168363
30
0
41
1
10
12.6035977253183
20
0.624624410752546
30
0
41
1
10
12.5983318946144
20
0.635048888309512
30
0
41
1
10
12.5930738690362
20
0.645374306156185
30
0
0
SPLINE
5
C4
100
AcDbEntity
8
1
62
256
6
ByLayer
370
18
48
1
60
0
100
AcDbSpline
70
4
71
3
72
68
73
64
40
0
40
0
40
0
40
0
40
0.0077639749653226
40
0.0077639749653226
40
0.0155279499306452
40
0.0155279499306452
40
0.0310558998612941
40
0.0310558998612941
40
0.0465838497919431
40
0.0465838497919431
40
0.0621117997225921
40
0.0621117997225921
40
0.0931676995838863
40
0.0931676995838863
40
0.12422359944518
40
0.12422359944518
40
0.155279499306475
40
0.155279499306475
40
0.186335399167769
40
0.186335399167769
40
0.248447198890357
40
0.248447198890357
40
0.279503098751651
40
0.279503098751651
40
0.310558998612945
40
0.310558998612945
40
0.341614898474239
40
0.341614898474239
40
0.372670798335534
40
0.372670798335534
40
0.434782598058122
40
0.434782598058122
40
0.465838497919416
40
0.465838497919416
40
0.49689439778071
40
0.49689439778071
40
0.527950297642005
40
0.527950297642005
40
0.559006197503299
40
0.559006197503299
40
0.621117997225883
40
0.621117997225883
40
0.652173897087178
40
0.652173897087178
40
0.683229796948472
40
0.683229796948472
40
0.714285696809766
40
0.714285696809766
40
0.74534159667106
40
0.74534159667106
40
0.807453396393648
40
0.807453396393648
40
0.83850929625494
40
0.83850929625494
40
0.869565196116233
40
0.869565196116233
40
0.900621095977525
40
0.900621095977525
40
0.931676995838817
40
0.931676995838817
40
0.993788795561398
40
0.993788795561398
40
1
40
1
40
1
40
1
41
1
10
12.5930738690362
20
-0.645374306156185
30
0
41
1
10
12.5816754653316
20
-0.644094888455896
30
0
41
1
10
12.5709140119129
20
-0.642460181812027
30
0
41
1
10
12.5496747815498
20
-0.638876386735006
30
0
41
1
10
12.5391761569586
20
-0.636941159697273
30
0
41
1
10
12.5074217674284
20
-0.631035073741685
30
0
41
1
10
12.4861326520642
20
-0.626855950560838
30
0
41
1
10
12.4437128052961
20
-0.617788860417505
30
0
41
1
10
12.4225434047977
20
-0.612918020224782
30
0
41
1
10
12.3801407263649
20
-0.60259927787348
30
0
41
1
10
12.3589188212262
20
-0.597145738620952
30
0
41
1
10
12.295254441422
20
-0.579851550468845
30
0
41
1
10
12.2527537303855
20
-0.567122673726004
30
0
41
1
10
12.1679596391436
20
-0.539528988472597
30
0
41
1
10
12.1256156319122
20
-0.524644097190333
30
0
41
1
10
12.0409294722242
20
-0.492810939904899
30
0
41
1
10
11.9985581577202
20
-0.475895651482006
30
0
41
1
10
11.9136521892721
20
-0.44019698672048
30
0
41
1
10
11.8711036146747
20
-0.421400124957103
30
0
41
1
10
11.7438385326642
20
-0.362731682577078
30
0
41
1
10
11.6592450799866
20
-0.320489656625
30
0
41
1
10
11.5320820351483
20
-0.253342007631062
30
0
41
1
10
11.4895855116702
20
-0.230364746035576
30
0
41
1
10
11.4047957045265
20
-0.183768450574604
30
0
41
1
10
11.3624441716873
20
-0.160114732675709
30
0
41
1
10
11.2777155975906
20
-0.112290473373349
30
0
41
1
10
11.235339892343
20
-0.088117736442058
30
0
41
1
10
11.1504662742478
20
-0.0394198326731612
30
0
41
1
10
11.1079332046891
20
-0.0148632896857634
30
0
41
1
10
10.9807301375104
20
0.0586245829352663
30
0
41
1
10
10.8961080241612
20
0.107277026199398
30
0
41
1
10
10.7688332085729
20
0.178693387840497
30
0
41
1
10
10.7263093417438
20
0.202275293794713
30
0
41
1
10
10.641526135877
20
0.248469460151966
30
0
41
1
10
10.5991916292793
20
0.271065218674721
30
0
41
1
10
10.5145169521225
20
0.315070340780153
30
0
41
1
10
10.4721947631721
20
0.336507794101379
30
0
41
1
10
10.387460208928
20
0.378056322679072
30
0
41
1
10
10.3448877531371
20
0.398036442595156
30
0
41
1
10
10.2174495240938
20
0.455286888458318
30
0
41
1
10
10.1328483006058
20
0.490145296620597
30
0
41
1
10
10.0057521810605
20
0.53645160122025
30
0
41
1
10
9.96325352296802
20
0.550860833354761
30
0
41
1
10
9.87841509988573
20
0.577304361255216
30
0
41
1
10
9.83605239188242
20
0.589361288019063
30
0
41
1
10
9.75133846020421
20
0.611077913056931
30
0
41
1
10
9.70898799432297
20
0.620738114828612
30
0
41
1
10
9.62419602470811
20
0.637575722444609
30
0
41
1
10
9.58169778449999
20
0.644763363257368
30
0
41
1
10
9.45453356726577
20
0.662358969745725
30
0
41
1
10
9.36993257674359
20
0.668765763918088
30
0
41
1
10
9.24268406582308
20
0.670375056245604
30
0
41
1
10
9.20014475251944
20
0.669571018297404
30
0
41
1
10
9.11524753671685
20
0.665286522975236
30
0
41
1
10
9.07288968881426
20
0.661809351869152
30
0
41
1
10
8.98822769759525
20
0.652214127752899
30
0
41
1
10
8.94589234029763
20
0.64610724930472
30
0
41
1
10
8.86110191637641
20
0.63132781211317
30
0
41
1
10
8.81858533233375
20
0.622637670768569
30
0
41
1
10
8.69124709958274
20
0.59291260494436
30
0
41
1
10
8.60666351846336
20
0.568260252065187
30
0
41
1
10
8.51347774963165
20
0.536224728190319
30
0
41
1
10
8.50500121495122
20
0.533267903346257
30
0
41
1
10
8.49652092488171
20
0.530267885087682
30
0
0
SPLINE
5
C5
100
AcDbEntity
8
1
62
256
6
ByLayer
370
18
48
1
60
0
100
AcDbSpline
70
4
71
3
72
18
73
14
40
0
40
0
40
0
40
0
40
0.124630662226704
40
0.124630662226704
40
0.234051829448369
40
0.234051829448369
40
0.343472996670033
40
0.343472996670033
40
0.562315331113355
40
0.562315331113355
40
0.781157665556678
40
0.781157665556678
40
1
40
1
40
1
40
1
41
1
10
5.61393041589943
20
-0.670002034126526
30
0
41
1
10
5.56565752554752
20
-0.670017116587104
30
0
41
1
10
5.51745030912494
20
-0.668293880436494
30
0
41
1
10
5.42689885952126
20
-0.661795127066455
30
0
41
1
10
5.38451441951139
20
-0.657424112088307
30
0
41
1
10
5.29952005951017
20
-0.646052040618059
30
0
41
1
10
5.25709306904506
20
-0.639073204419645
30
0
41
1
10
5.12993769712693
20
-0.614387043913439
30
0
41
1
10
5.04531930950199
20
-0.592923553884219
30
0
41
1
10
4.87551817431583
20
-0.54045481591433
30
0
41
1
10
4.79093922524629
20
-0.50986611888942
30
0
41
1
10
4.62187560090547
20
-0.441213459485255
30
0
41
1
10
4.53734051164156
20
-0.403140521150249
30
0
41
1
10
4.452416
20
-0.361742252906794
30
0
0
SPLINE
5
C6
100
AcDbEntity
8
1
62
256
6
ByLayer
370
18
48
1
60
0
100
AcDbSpline
70
4
71
3
72
24
73
20
40
0
40
0
40
0
40
0
40
0.024113332004994
40
0.024113332004994
40
0.186761110004165
40
0.186761110004165
40
0.349408888003336
40
0.349408888003336
40
0.512056666002507
40
0.512056666002507
40
0.593380555002093
40
0.593380555002093
40
0.674704444001678
40
0.674704444001678
40
0.837352222000848
40
0.837352222000848
40
0.918676111000424
40
0.918676111000424
40
1
40
1
40
1
40
1
41
1
10
12.7830731131378
20
-0.262544118484527
30
0
41
1
10
12.7816860146203
20
-0.26550596171046
30
0
41
1
10
12.7802896741344
20
-0.268470331645005
30
0
41
1
10
12.7694142162815
20
-0.291452384040809
30
0
41
1
10
12.7595675060042
20
-0.311602586893969
30
0
41
1
10
12.7395583141241
20
-0.352092602725463
30
0
41
1
10
12.7293829159695
20
-0.372443880401249
30
0
41
1
10
12.7088642976925
20
-0.413299014142723
30
0
41
1
10
12.698514216181
20
-0.43380915808757
30
0
41
1
10
12.6828481341533
20
-0.464990237180814
30
0
41
1
10
12.6776015208606
20
-0.475456929099096
30
0
41
1
10
12.6670785756606
20
-0.496552880698033
30
0
41
1
10
12.6618006617472
20
-0.507182922629369
30
0
41
1
10
12.6459397018278
20
-0.53922499146077
30
0
41
1
10
12.6353291717093
20
-0.560799609023064
30
0
41
1
10
12.6194437997542
20
-0.592894236014473
30
0
41
1
10
12.6141538273883
20
-0.603545124168363
30
0
41
1
10
12.6035977253183
20
-0.624624410752546
30
0
41
1
10
12.5983318946145
20
-0.635048888309512
30
0
41
1
10
12.5930738690362
20
-0.645374306156214
30
0
0
SPLINE
5
C7
100
AcDbEntity
8
1
62
256
6
ByLayer
370
18
48
1
60
0
100
AcDbSpline
70
4
71
3
72
59
73
55
40
0
40
0
40
0
40
0
40
0.0628654036687011
40
0.0628654036687011
40
0.0785817545858763
40
0.0785817545858763
40
0.0942981055030516
40
0.0942981055030516
40
0.125730807337404
40
0.125730807337404
40
0.188596211006111
40
0.188596211006111
40
0.251461614674818
40
0.251461614674818
40
0.267177965591996
40
0.267177965591996
40
0.282894316509173
40
0.314327018343527
40
0.314327018343527
40
0.377192422012236
40
0.377192422012236
40
0.440057825680944
40
0.440057825680944
40
0.471490527515301
40
0.471490527515301
40
0.502923229349657
40
0.502923229349657
40
0.534355931184013
40
0.534355931184013
40
0.56578863301837
40
0.56578863301837
40
0.628654036687079
40
0.628654036687079
40
0.644370387604257
40
0.644370387604257
40
0.660086738521435
40
0.660086738521435
40
0.691519440355787
40
0.691519440355787
40
0.754384844024492
40
0.754384844024492
40
0.817250247693197
40
0.817250247693197
40
0.832966598610371
40
0.832966598610371
40
0.848682949527544
40
0.848682949527544
40
0.880115651361895
40
0.880115651361895
40
0.911548353196245
40
0.911548353196245
40
0.942981055030596
40
0.942981055030596
40
1
40
1
40
1
40
1
41
1
10
4.452416
20
0.638475509538438
30
0
41
1
10
4.5376125411839
20
0.623518827068807
30
0
41
1
10
4.62256639885155
20
0.603505810204211
30
0
41
1
10
4.72894237841408
20
0.572618041189571
30
0
41
1
10
4.75022687055187
20
0.566146145570372
30
0
41
1
10
4.7928295522766
20
0.552624742076063
30
0
41
1
10
4.81416460745771
20
0.545568501358588
30
0
41
1
10
4.87799081931038
20
0.523629958069904
30
0
41
1
10
4.92036524585174
20
0.507958408407376
30
0
41
1
10
5.04713532564048
20
0.458035100212413
30
0
41
1
10
5.13135235593739
20
0.421092319936719
30
0
41
1
10
5.30002990281014
20
0.341135657228591
30
0
41
1
10
5.38447005018693
20
0.298093005414103
30
0
41
1
10
5.49067252354442
20
0.241135091556941
30
0
41
1
10
5.51198503947995
20
0.229584500678811
30
0
41
1
10
5.55455295134979
20
0.206318995774808
30
0
41
1
10
5.61828351995823
20
0.171199909573318
30
0
41
1
10
5.68168991709481
20
0.13548870411168
30
0
41
1
10
5.80823045727035
20
0.0635594931242451
30
0
41
1
10
5.89222670532402
20
0.0149290424341189
30
0
41
1
10
6.060325357485
20
-0.0822138131092913
30
0
41
1
10
6.14456443492222
20
-0.130484724616565
30
0
41
1
10
6.2718714293234
20
-0.201267588016549
30
0
41
1
10
6.31455921933664
20
-0.224637960142559
30
0
41
1
10
6.39969628020376
20
-0.270282925883208
30
0
41
1
10
6.44218204275739
20
-0.292586910138795
30
0
41
1
10
6.52710035568683
20
-0.33597889204438
30
0
41
1
10
6.56956730148787
20
-0.357013785489897
30
0
41
1
10
6.65464476730037
20
-0.397574493936872
30
0
41
1
10
6.69731412218766
20
-0.417136740452747
30
0
41
1
10
6.82506572889756
20
-0.473083419134184
30
0
41
1
10
6.90993427704885
20
-0.506749277810655
30
0
41
1
10
7.01619826840403
20
-0.543609556585835
30
0
41
1
10
7.03746637252956
20
-0.550713321373678
30
0
41
1
10
7.08005588348718
20
-0.564360332721407
30
0
41
1
10
7.10138031457743
20
-0.570903520498604
30
0
41
1
10
7.16515850853827
20
-0.589593462267402
30
0
41
1
10
7.20751333822031
20
-0.600834303083786
30
0
41
1
10
7.33424950930458
20
-0.630850258830606
30
0
41
1
10
7.41831610692725
20
-0.645917814294251
30
0
41
1
10
7.58639744255672
20
-0.665790073783086
30
0
41
1
10
7.67056540744809
20
-0.670537811773386
30
0
41
1
10
7.7764525871589
20
-0.669805253594689
30
0
41
1
10
7.79766442859852
20
-0.66932476455608
30
0
41
1
10
7.84017202272807
20
-0.66768941132915
30
0
41
1
10
7.86149049828325
20
-0.666532767120543
30
0
41
1
10
7.92540823919512
20
-0.662053099011047
30
0
41
1
10
7.96791733658435
20
-0.657727186671195
30
0
41
1
10
8.05284303820957
20
-0.64643371228172
30
0
41
1
10
8.09529699672777
20
-0.639480926041472
30
0
41
1
10
8.18030561945758
20
-0.623035004200943
30
0
41
1
10
8.22288237048323
20
-0.613534194552045
30
0
41
1
10
8.34282680388796
20
-0.58332885210632
30
0
41
1
10
8.41984667675084
20
-0.559937439971236
30
0
41
1
10
8.49688320254529
20
-0.532919037246216
30
0
0
SPLINE
5
C8
100
AcDbEntity
8
1
62
256
6
ByLayer
370
18
48
1
60
0
100
AcDbSpline
70
4
71
3
72
30
73
26
40
0
40
0
40
0
40
0
40
0.0475183991763498
40
0.0475183991763498
40
0.153349688156745
40
0.153349688156745
40
0.259180977137141
40
0.259180977137141
40
0.365012266117536
40
0.365012266117536
40
0.576674844078339
40
0.576674844078339
40
0.682506133058748
40
0.682506133058748
40
0.788337422039156
40
0.788337422039156
40
0.841253066529368
40
0.841253066529368
40
0.894168711019579
40
0.894168711019579
40
0.94708435550979
40
0.94708435550979
40
0.973542177754895
40
0.973542177754895
40
1
40
1
40
1
40
1
41
1
10
11.3869063068334
20
0.669998952338744
30
0
41
1
10
11.4060377915323
20
0.670000353075324
30
0
41
1
10
11.4251640433318
20
0.669729409480254
30
0
41
1
10
11.4868017140862
20
0.667973697917716
30
0
41
1
10
11.5292576707755
20
0.665411030441845
30
0
41
1
10
11.6141477461008
20
0.657605297986294
30
0
41
1
10
11.6566090606867
20
0.652369659879184
30
0
41
1
10
11.7417086673629
20
0.639297298647989
30
0
41
1
10
11.7843908146642
20
0.631443673036131
30
0
41
1
10
11.9120951009766
20
0.604196760002708
30
0
41
1
10
11.9969757090932
20
0.581119507113755
30
0
41
1
10
12.1245118164889
20
0.539597350478658
30
0
41
1
10
12.1671582086226
20
0.524606931002012
30
0
41
1
10
12.2523147932411
20
0.492616150357492
30
0
41
1
10
12.2948011773843
20
0.475619498783487
30
0
41
1
10
12.3584844477732
20
0.448739851740896
30
0
41
1
10
12.3797202368781
20
0.439569960246644
30
0
41
1
10
12.4221667697071
20
0.42075605129412
30
0
41
1
10
12.4433658018192
20
0.411094333751578
30
0
41
1
10
12.4858587996198
20
0.391459991472345
30
0
41
1
10
12.5071920050215
20
0.381548334181758
30
0
41
1
10
12.5390267514893
20
0.366105187465053
30
0
41
1
10
12.5495546892416
20
0.360775566374286
30
0
41
1
10
12.5708529137491
20
0.350364664355737
30
0
41
1
10
12.5816446623591
20
0.345313399504732
30
0
41
1
10
12.5930738690362
20
0.341202528628401
30
0
0
SPLINE
5
C9
100
AcDbEntity
8
1
62
256
6
ByLayer
370
18
48
1
60
0
100
AcDbSpline
70
4
71
3
72
26
73
22
40
0
40
0
40
0
40
0
40
0.0625000000000105
40
0.0625000000000105
40
0.125000000000021
40
0.125000000000021
40
0.250000000000042
40
0.250000000000042
40
0.312500000000044
40
0.312500000000044
40
0.375000000000047
40
0.375000000000047
40
0.500000000000038
40
0.500000000000038
40
0.625000000000028
40
0.625000000000028
40
0.750000000000019
40
0.750000000000019
40
0.875000000000009
40
0.875000000000009
40
1
40
1
40
1
40
1
41
1
10
12.5930738690362
20
0.341202528628401
30
0
41
1
10
12.5983145467207
20
0.333421180811314
30
0
41
1
10
12.6035522794312
20
0.326120704464159
30
0
41
1
10
12.614032826175
20
0.31255964043055
30
0
41
1
10
12.6192757088831
20
0.306290381389289
30
0
41
1
10
12.6350148171901
20
0.288558253785794
30
0
41
1
10
12.6455214961302
20
0.278147330157253
30
0
41
1
10
12.6612839760338
20
0.263235343293985
30
0
41
1
10
12.6665384136127
20
0.25838798314075
30
0
41
1
10
12.6770452049575
20
0.248778732061652
30
0
41
1
10
12.6822964228494
20
0.244005015634571
30
0
41
1
10
12.6980083402707
20
0.229988110105751
30
0
41
1
10
12.7084306960861
20
0.221077966479044
30
0
41
1
10
12.7290267499103
20
0.204950593022261
30
0
41
1
10
12.7391989792194
20
0.197752145245829
30
0
41
1
10
12.7591765857453
20
0.184822778551279
30
0
41
1
10
12.7689892951107
20
0.179080928887544
30
0
41
1
10
12.7879445114236
20
0.168923326673394
30
0
41
1
10
12.7971039485807
20
0.164521642252481
30
0
41
1
10
12.8139084956258
20
0.157121956943115
30
0
41
1
10
12.8215999353895
20
0.154123202226998
30
0
41
1
10
12.8273937444676
20
0.151852834190379
30
0
0
SPLINE
5
CA
100
AcDbEntity
8
1
62
256
6
ByLayer
370
18
48
1
60
0
100
AcDbSpline
70
4
71
3
72
40
73
36
40
0
40
0
40
0
40
0
40
0.0196576515089333
40
0.045320227797306
40
0.0709828040856788
40
0.105199572470176
40
0.139416340854673
40
0.17363310923917
40
0.207849877623667
40
0.242066646008164
40
0.259175030200412
40
0.293391798584909
40
0.327608566969406
40
0.361825335353903
40
0.3960421037384
40
0.430258872122897
40
0.447367256315146
40
0.481584024699643
40
0.51580079308414
40
0.550017561468637
40
0.584234329853134
40
0.618451098237631
40
0.644113674526004
40
0.669776250814377
40
0.703993019198874
40
0.73820978758337
40
0.772426555967868
40
0.806643324352365
40
0.840860092736862
40
0.85796847692911
40
0.892185245313607
40
0.926402013698104
40
0.960618782082601
40
0.994835550467098
40
1
40
1
40
1
40
1
41
1
10
5.70225286707333
20
0.124731507116422
30
0
41
1
10
5.71489956958433
20
0.123514987344777
30
0
41
1
10
5.7440562246623
20
0.120659389536371
30
0
41
1
10
5.78972281813011
20
0.116007798264888
30
0
41
1
10
5.84475596209552
20
0.110166016270398
30
0
41
1
10
5.90529239828473
20
0.103448770315595
30
0
41
1
10
5.97133212202121
20
0.0957687358786928
30
0
41
1
10
6.03737182345245
20
0.087770256028449
30
0
41
1
10
6.10341150515927
20
0.0795091642802674
30
0
41
1
10
6.15844455895109
20
0.072415232561525
30
0
41
1
10
6.21347760362764
20
0.0651804686544324
30
0
41
1
10
6.26851063999191
20
0.0578116606745027
30
0
41
1
10
6.33455027290054
20
0.0487830695635694
30
0
41
1
10
6.40058989765137
20
0.0395911979481127
30
0
41
1
10
6.46662951681526
20
0.0302582612236506
30
0
41
1
10
6.52166253027187
20
0.0223823240912111
30
0
41
1
10
6.57669554345
20
0.0144839147121161
30
0
41
1
10
6.63172855715405
20
0.0065602165223311
30
0
41
1
10
6.69776817700765
20
-0.0029615096375437
30
0
41
1
10
6.76380780284907
20
-0.012474035855405
30
0
41
1
10
6.82984743722366
20
-0.0219467459053249
30
0
41
1
10
6.89038377900772
20
-0.0305701237659548
30
0
41
1
10
6.94541682663493
20
-0.038342732429868
30
0
41
1
10
7.00044988557164
20
-0.0460549376734036
30
0
41
1
10
7.06098625905983
20
-0.054414735491946
30
0
41
1
10
7.12702597502471
20
-0.0633394618974989
30
0
41
1
10
7.19306566553351
20
-0.0720508299441178
30
0
41
1
10
7.25910526471611
20
-0.0805275105671512
30
0
41
1
10
7.31413822080353
20
-0.087374259010602
30
0
41
1
10
7.3691711472359
20
-0.09404309933592
30
0
41
1
10
7.4242040513422
20
-0.100526974961923
30
0
41
1
10
7.49024351420215
20
-0.107996870523834
30
0
41
1
10
7.5562829698409
20
-0.115127896932194
30
0
41
1
10
7.6036317964253
20
-0.119956744146293
30
0
41
1
10
7.62896747353773
20
-0.122453330861049
30
0
41
1
10
7.632289992149
20
-0.122779219231632
30
0
0
SPLINE
5
CB
100
AcDbEntity
8
1
62
256
6
ByLayer
370
18
48
1
60
0
100
AcDbSpline
70
4
71
3
72
14
73
10
40
0
40
0
40
0
40
0
40
0.626762809662824
40
0.626762809662824
40
0.78345351207854
40
0.78345351207854
40
0.940144214494256
40
0.940144214494256
40
1
40
1
40
1
40
1
41
1
10
4.452416
20
-0.638475509538438
30
0
41
1
10
4.5376125411839
20
-0.623518827068807
30
0
41
1
10
4.62256639885157
20
-0.603505810204211
30
0
41
1
10
4.72894237841408
20
-0.572618041189571
30
0
41
1
10
4.7502268705519
20
-0.566146145570372
30
0
41
1
10
4.79282955227663
20
-0.552624742076063
30
0
41
1
10
4.81416460745768
20
-0.545568501358588
30
0
41
1
10
4.84356720718856
20
-0.535462148681972
30
0
41
1
10
4.85168796841361
20
-0.532630490043601
30
0
41
1
10
4.85980270373474
20
-0.529761209334879
30
0
0
SPLINE
5
CC
100
AcDbEntity
8
1
62
256
6
ByLayer
370
18
48
1
60
0
100
AcDbSpline
70
4
71
3
72
68
73
64
40
0
40
0
40
0
40
0
40
0.0030289113247712
40
0.0030289113247712
40
0.0174518500092767
40
0.0174518500092767
40
0.0318747886937822
40
0.0318747886937822
40
0.0607206660627896
40
0.0607206660627896
40
0.0895665434317971
40
0.0895665434317971
40
0.118412420800804
40
0.118412420800804
40
0.176104175538816
40
0.176104175538816
40
0.204950052907821
40
0.204950052907821
40
0.233795930276827
40
0.233795930276827
40
0.291487685014839
40
0.291487685014839
40
0.34917943975285
40
0.34917943975285
40
0.406871194490861
40
0.406871194490861
40
0.464562949228872
40
0.464562949228872
40
0.478985887913377
40
0.478985887913377
40
0.493408826597882
40
0.493408826597882
40
0.522254703966888
40
0.522254703966888
40
0.551100581335893
40
0.551100581335893
40
0.565523520020394
40
0.565523520020394
40
0.579946458704896
40
0.579946458704896
40
0.608792336073901
40
0.608792336073901
40
0.637638213442907
40
0.637638213442907
40
0.695329968180915
40
0.695329968180915
40
0.724175845549919
40
0.724175845549919
40
0.753021722918923
40
0.753021722918923
40
0.810713477656931
40
0.810713477656931
40
0.839559355025936
40
0.839559355025936
40
0.868405232394942
40
0.868405232394942
40
0.897251109763948
40
0.897251109763948
40
0.926096987132954
40
0.926096987132954
40
0.983788741870961
40
0.983788741870961
40
1
40
1
40
1
40
1
41
1
10
7.74193737175284
20
0.669999984998157
30
0
41
1
10
7.74638184485818
20
0.669998599873168
30
0
41
1
10
7.75082775135201
20
0.669982533630844
30
0
41
1
10
7.7764525871589
20
0.669805253594689
30
0
41
1
10
7.79766442859855
20
0.66932476455608
30
0
41
1
10
7.84017202272807
20
0.66768941132915
30
0
41
1
10
7.86149049828325
20
0.666532767120543
30
0
41
1
10
7.92540823919515
20
0.662053099011047
30
0
41
1
10
7.96791733658435
20
0.657727186671195
30
0
41
1
10
8.0528430382096
20
0.64643371228172
30
0
41
1
10
8.09529699672777
20
0.639480926041472
30
0
41
1
10
8.18030561945761
20
0.623035004200943
30
0
41
1
10
8.22288237048323
20
0.613534194552045
30
0
41
1
10
8.35075486629782
20
0.58133234561393
30
0
41
1
10
8.43563804108285
20
0.555099332576901
30
0
41
1
10
8.56305244333592
20
0.509191228915682
30
0
41
1
10
8.60558656301293
20
0.492821533416759
30
0
41
1
10
8.6908249710423
20
0.458141287311207
30
0
41
1
10
8.73335997133734
20
0.439890615656481
30
0
41
1
10
8.86086892651568
20
0.382635649215871
30
0
41
1
10
8.94578012179389
20
0.341149062236468
30
0
41
1
10
9.11620328888827
20
0.252787809418834
30
0
41
1
10
9.20072571906917
20
0.206748139311884
30
0
41
1
10
9.36923218927126
20
0.112440805967282
30
0
41
1
10
9.45321099178577
20
0.0641641737740031
30
0
41
1
10
9.62139568891158
20
-0.0332921972327256
30
0
41
1
10
9.70579988736839
20
-0.0821206256401013
30
0
41
1
10
9.81222585257561
20
-0.142346294079601
30
0
41
1
10
9.83355951837328
20
-0.154352858387654
30
0
41
1
10
9.87613649777668
20
-0.178154620734745
30
0
41
1
10
9.89740407452314
20
-0.189963666972602
30
0
41
1
10
9.96116359785421
20
-0.225083324913641
30
0
41
1
10
10.0036053301279
20
-0.248097932205042
30
0
41
1
10
10.0884963499316
20
-0.293101923331335
30
0
41
1
10
10.130987447097
20
-0.315024731719262
30
0
41
1
10
10.1948964698922
20
-0.346882326171084
30
0
41
1
10
10.2162390701657
20
-0.357343101184796
30
0
41
1
10
10.2587977137499
20
-0.377826493267747
30
0
41
1
10
10.2800358419062
20
-0.387857989605663
30
0
41
1
10
10.3436755654895
20
-0.417262283531926
30
0
41
1
10
10.3859495571762
20
-0.436027548693886
30
0
41
1
10
10.4701565074422
20
-0.471921210449494
30
0
41
1
10
10.5121918315266
20
-0.488911165962662
30
0
41
1
10
10.6382848555804
20
-0.536816253715443
30
0
41
1
10
10.7222242093738
20
-0.564776756084058
30
0
41
1
10
10.8488733437337
20
-0.599772787745422
30
0
41
1
10
10.8912015345935
20
-0.610294485487287
30
0
41
1
10
10.976181340961
20
-0.628934144358936
30
0
41
1
10
11.0188785626457
20
-0.637055482934585
30
0
41
1
10
11.1464700394991
20
-0.657449181892247
30
0
41
1
10
11.2313580381868
20
-0.665786233692529
30
0
41
1
10
11.3590555998512
20
-0.670254070654011
30
0
41
1
10
11.4017256474297
20
-0.670397037931934
30
0
41
1
10
11.4868017140862
20
-0.667973697917716
30
0
41
1
10
11.5292576707755
20
-0.665411030441845
30
0
41
1
10
11.6141477461008
20
-0.657605297986294
30
0
41
1
10
11.6566090606867
20
-0.652369659879184
30
0
41
1
10
11.7417086673629
20
-0.639297298647989
30
0
41
1
10
11.7843908146642
20
-0.631443673036131
30
0
41
1
10
11.9120951009766
20
-0.604196760002708
30
0
41
1
10
11.9969757090931
20
-0.581119507113755
30
0
41
1
10
12.1058913606587
20
-0.545659645301527
30
0
41
1
10
12.1298253756154
20
-0.537518100807972
30
0
41
1
10
12.1537658895465
20
-0.529039125439823
30
0
0
SPLINE
5
CD
100
AcDbEntity
8
1
62
256
6
ByLayer
370
18
48
1
60
0
100
AcDbSpline
70
4
71
3
72
40
73
36
40
0
40
0
40
0
40
0
40
0.0083085370164496
40
0.0425647947746384
40
0.0768210525328268
40
0.111077310291015
40
0.145333568049204
40
0.162461696928298
40
0.196717954686487
40
0.230974212444675
40
0.265230470202864
40
0.299486727961052
40
0.33374298571924
40
0.350871114598335
40
0.385127372356524
40
0.419383630114712
40
0.4536398878729
40
0.487896145631089
40
0.522152403389277
40
0.547844596707919
40
0.57353679002656
40
0.607793047784749
40
0.642049305542937
40
0.676305563301125
40
0.710561821059314
40
0.736254014377955
40
0.761946207696597
40
0.796202465454785
40
0.830458723212974
40
0.864714980971162
40
0.898971238729351
40
0.933227496487539
40
0.950355625366633
40
0.984611883124822
40
1
40
1
40
1
40
1
41
1
10
9.35637139086336
20
0.123977676989369
30
0
41
1
10
9.36171056041536
20
0.1234601604327
30
0
41
1
10
9.38906322859623
20
0.120788471869133
30
0
41
1
10
9.43842939512291
20
0.115779104657662
30
0
41
1
10
9.5044698925783
20
0.108692541216612
30
0
41
1
10
9.57051038214786
20
0.101225153265858
30
0
41
1
10
9.62554415806292
20
0.0947452000316389
30
0
41
1
10
9.68057775540373
20
0.0880842239953381
30
0
41
1
10
9.73561122863041
20
0.0812476352584213
30
0
41
1
10
9.80165118513775
20
0.0727860387480063
30
0
41
1
10
9.86769095212182
20
0.0640884880219517
30
0
41
1
10
9.93373054529971
20
0.0551769161862126
30
0
41
1
10
9.9887634090708
20
0.0475912528452227
30
0
41
1
10
10.0437961853731
20
0.0398967025109868
30
0
41
1
10
10.0988288794982
20
0.0321118802169735
30
0
41
1
10
10.1648679977824
20
0.0227107956280008
30
0
41
1
10
10.2309070182307
20
0.0132532154205194
30
0
41
1
10
10.2969459576713
20
0.0037601199647668
30
0
41
1
10
10.3574815933272
20
-0.004914608012399
30
0
41
1
10
10.4125139548508
20
-0.0128501689025029
30
0
41
1
10
10.4675462946675
20
-0.0207975917425642
30
0
41
1
10
10.528081850732
20
-0.0294571130923771
30
0
41
1
10
10.5941206338837
20
-0.0388000838290452
30
0
41
1
10
10.6601594285808
20
-0.0480237727796009
30
0
41
1
10
10.7206950163953
20
-0.0563441306083803
30
0
41
1
10
10.7757274019127
20
-0.0637545759792317
30
0
41
0.999999999999999
10
10.8307598235699
20
-0.0710289412127452
30
0
41
1
10
10.8912955438902
20
-0.0788433886110624
30
0
41
1
10
10.9573345987938
20
-0.0871144628908951
30
0
41
1
10
11.023373757766
20
-0.0951082204034889
30
0
41
1
10
11.0894130377839
20
-0.102812202364561
30
0
41
1
10
11.1444458854492
20
-0.108943042258687
30
0
41
1
10
11.1994788320336
20
-0.114846180367039
30
0
41
0.999999999999999
10
11.2423871243536
20
-0.119267525575708
30
0
41
0.999999999999999
10
11.2742888818367
20
-0.122419030462567
30
0
41
1
10
11.2841773789203
20
-0.123382587270868
30
0
0
LINE
5
7F
100
AcDbEntity
8
1
62
256
6
ByLayer
370
18
48
1
60
0
100
AcDbLine
10
0
20
1.5
30
0
11
0
21
0
31
0
39
0
210
0
220
0
230
1
0
LINE
5
80
100
AcDbEntity
8
1
62
256
6
ByLayer
370
18
48
1
60
0
100
AcDbLine
10
0
20
0
30
0
11
0
21
-1.5
31
0
39
0
210
0
220
0
230
1
0
LINE
5
81
100
AcDbEntity
8
1
62
256
6
ByLayer
370
18
48
1
60
0
100
AcDbLine
10
12.593074
20
0.341203
30
0
11
12.593074
21
-0.645374
31
0
39
0
210
0
220
0
230
1
0
LINE
5
82
100
AcDbEntity
8
1
62
256
6
ByLayer
370
18
48
1
60
0
100
AcDbLine
10
4.452416
20
-0.348896
30
0
11
4.452416
21
-0.638476
31
0
39
0
210
0
220
0
230
1
0
LINE
5
83
100
AcDbEntity
8
1
62
256
6
ByLayer
370
13
48
1
60
0
100
AcDbLine
10
1.705544
20
0.67
30
0
11
1.705544
21
-0.67
31
0
39
0
210
0
220
0
230
1
0
LINE
5
84
100
AcDbEntity
8
1
62
256
6
ByLayer
370
13
48
1
60
0
100
AcDbLine
10
1.205544
20
0.803975
30
0
11
1.205544
21
-0.803975
31
0
39
0
210
0
220
0
230
1
0
LINE
5
85
100
AcDbEntity
8
SK1
62
256
6
ByLayer
370
18
48
1
60
0
100
AcDbLine
10
-25.0945
20
1.326795
30
0
11
-25.0945
21
-1.326795
31
0
39
0
210
0
220
0
230
1
0
LINE
5
87
100
AcDbEntity
8
SK1
62
256
6
ByLayer
370
18
48
1
60
0
100
AcDbLine
10
0
20
1.5
30
0
11
0
21
0
31
0
39
0
210
0
220
0
230
1
0
LINE
5
88
100
AcDbEntity
8
SK1
62
256
6
ByLayer
370
18
48
1
60
0
100
AcDbLine
10
0
20
0
30
0
11
0
21
-1.5
31
0
39
0
210
0
220
0
230
1
0
LINE
5
89
100
AcDbEntity
8
SK1
62
256
6
ByLayer
370
18
48
1
60
0
100
AcDbLine
10
-24.7945
20
1.5
30
0
11
-24.7945
21
-1.5
31
0
39
0
210
0
220
0
230
1
0
LINE
5
8A
100
AcDbEntity
8
1
62
256
6
ByLayer
370
18
48
1
60
0
100
AcDbLine
10
12.9055
20
0
30
0
11
12.782735
21
0.263271
31
0
39
0
210
0
220
0
230
1
0
LINE
5
8B
100
AcDbEntity
8
1
62
256
6
ByLayer
370
18
48
1
60
0
100
AcDbLine
10
12.782735
20
-0.263271
30
0
11
12.9055
21
0
31
0
39
0
210
0
220
0
230
1
0
LINE
5
8C
100
AcDbEntity
8
1
62
256
6
ByLayer
370
18
48
1
60
0
100
AcDbLine
10
1.705544
20
-0.67
30
0
11
4.048866
21
-0.67
31
0
39
0
210
0
220
0
230
1
0
LINE
5
8D
100
AcDbEntity
8
1
62
256
6
ByLayer
370
18
48
1
60
0
100
AcDbLine
10
5.613807
20
-0.67
30
0
11
7.741739
21
-0.67
31
0
39
0
210
0
220
0
230
1
0
LINE
5
8E
100
AcDbEntity
8
1
62
256
6
ByLayer
370
18
48
1
60
0
100
AcDbLine
10
9.25914
20
-0.67
30
0
11
11.386954
21
-0.67
31
0
39
0
210
0
220
0
230
1
0
LINE
5
8F
100
AcDbEntity
8
1
62
256
6
ByLayer
370
18
48
1
60
0
100
AcDbLine
10
11.386954
20
0.67
30
0
11
9.25914
21
0.67
31
0
39
0
210
0
220
0
230
1
0
LINE
5
90
100
AcDbEntity
8
1
62
256
6
ByLayer
370
18
48
1
60
0
100
AcDbLine
10
7.741739
20
0.67
30
0
11
5.613807
21
0.67
31
0
39
0
210
0
220
0
230
1
0
LINE
5
91
100
AcDbEntity
8
1
62
256
6
ByLayer
370
18
48
1
60
0
100
AcDbLine
10
4.048866
20
0.67
30
0
11
1.705544
21
0.67
31
0
39
0
210
0
220
0
230
1
0
LINE
5
92
100
AcDbEntity
8
1
62
256
6
ByLayer
370
18
48
1
60
0
100
AcDbLine
10
1.205544
20
0.803975
30
0
11
0
21
1.5
31
0
39
0
210
0
220
0
230
1
0
LINE
5
93
100
AcDbEntity
8
1
62
256
6
ByLayer
370
18
48
1
60
0
100
AcDbLine
10
0
20
-1.5
30
0
11
1.205544
21
-0.803975
31
0
39
0
210
0
220
0
230
1
0
LINE
5
94
100
AcDbEntity
8
SK1
62
256
6
ByLayer
370
18
48
1
60
0
100
AcDbLine
10
-25.0945
20
-1.326795
30
0
11
-24.7945
21
-1.5
31
0
39
0
210
0
220
0
230
1
0
LINE
5
95
100
AcDbEntity
8
SK1
62
256
6
ByLayer
370
18
48
1
60
0
100
AcDbLine
10
-24.7945
20
1.5
30
0
11
-25.0945
21
1.326795
31
0
39
0
210
0
220
0
230
1
0
LINE
5
96
100
AcDbEntity
8
SK1
62
256
6
ByLayer
370
18
48
1
60
0
100
AcDbLine
10
-24.7945
20
-1.5
30
0
11
0
21
-1.5
31
0
39
0
210
0
220
0
230
1
0
LINE
5
97
100
AcDbEntity
8
SK1
62
256
6
ByLayer
370
18
48
1
60
0
100
AcDbLine
10
0
20
1.5
30
0
11
-24.7945
21
1.5
31
0
39
0
210
0
220
0
230
1
0
LINE
5
98
100
AcDbEntity
8
4
62
256
6
ByLayer
370
18
48
0.05
60
0
100
AcDbLine
10
0
20
0
30
0
11
12.9055
21
0
31
0
39
0
210
0
220
0
230
1
0
LINE
5
9A
100
AcDbEntity
8
81
62
256
6
ByLayer
370
18
48
1
60
0
100
AcDbLine
10
12.9055
20
0
30
0
11
15.9055
21
0
31
0
39
0
210
0
220
0
230
1
0
LINE
5
9B
100
AcDbEntity
8
80
62
256
6
ByLayer
370
18
48
1
60
0
100
AcDbLine
10
0
20
0
30
0
11
-3
21
0
31
0
39
0
210
0
220
0
230
1
0
LINE
5
9C
100
AcDbEntity
8
SK4
62
256
6
ByLayer
370
18
48
0.05
60
0
100
AcDbLine
10
-28.0945
20
0
30
0
11
15.9055
21
0
31
0
39
0
210
0
220
0
230
1
0
LINE
5
9E
100
AcDbEntity
8
SK2
62
256
6
ByLayer
370
13
48
1
60
0
100
AcDbLine
10
-29.5945
20
-9
30
0
11
-29.5945
21
21.782741
31
0
39
0
210
0
220
0
230
1
0
LINE
5
A0
100
AcDbEntity
8
SK2
62
256
6
ByLayer
370
13
48
1
60
0
100
AcDbLine
10
-26.682
20
-1.5
30
0
11
-31.5945
21
-1.5
31
0
39
0
210
0
220
0
230
1
0
LINE
5
A1
100
AcDbEntity
8
SK2
62
256
6
ByLayer
370
13
48
1
60
0
100
AcDbLine
10
-26.682
20
1.5
30
0
11
-31.5945
21
1.5
31
0
39
0
210
0
220
0
230
1
0
LINE
5
A2
100
AcDbEntity
8
1
62
256
6
ByLayer
370
18
48
1
60
1
100
AcDbLine
10
-29.5945
20
-1.5
30
0
11
-29.133716
21
-4.999998
31
0
39
0
210
0
220
0
230
1
0
LINE
5
A3
100
AcDbEntity
8
1
62
256
6
ByLayer
370
18
48
1
60
1
100
AcDbLine
10
-29.133716
20
-4.999998
30
0
11
-30.055284
21
-5.000002
31
0
39
0
210
0
220
0
230
1
0
LINE
5
A4
100
AcDbEntity
8
1
62
256
6
ByLayer
370
18
48
1
60
1
100
AcDbLine
10
-30.055284
20
-5.000002
30
0
11
-29.5945
21
-1.5
31
0
39
0
210
0
220
0
230
1
0
LINE
5
A5
100
AcDbEntity
8
1
62
256
6
ByLayer
370
18
48
1
60
1
100
AcDbLine
10
-29.5945
20
1.5
30
0
11
-30.055284
21
4.999998
31
0
39
0
210
0
220
0
230
1
0
LINE
5
A6
100
AcDbEntity
8
1
62
256
6
ByLayer
370
18
48
1
60
1
100
AcDbLine
10
-30.055284
20
4.999998
30
0
11
-29.133716
21
5.000002
31
0
39
0
210
0
220
0
230
1
0
LINE
5
A7
100
AcDbEntity
8
1
62
256
6
ByLayer
370
18
48
1
60
1
100
AcDbLine
10
-29.133716
20
5.000002
30
0
11
-29.5945
21
1.5
31
0
39
0
210
0
220
0
230
1
0
LINE
5
A8
100
AcDbEntity
8
2
62
256
6
ByLayer
370
13
48
1
60
0
100
AcDbLine
10
18.4055
20
-8.17
30
0
11
18.4055
21
29.678741
31
0
39
0
210
0
220
0
230
1
0
LINE
5
AA
100
AcDbEntity
8
2
62
256
6
ByLayer
370
13
48
1
60
0
100
AcDbLine
10
14.493
20
-0.67
30
0
11
20.4055
21
-0.67
31
0
39
0
210
0
220
0
230
1
0
LINE
5
AB
100
AcDbEntity
8
2
62
256
6
ByLayer
370
13
48
1
60
0
100
AcDbLine
10
14.493
20
0.67
30
0
11
20.4055
21
0.67
31
0
39
0
210
0
220
0
230
1
0
LINE
5
AC
100
AcDbEntity
8
1
62
256
6
ByLayer
370
18
48
1
60
1
100
AcDbLine
10
18.4055
20
-0.67
30
0
11
18.866284
21
-4.169998
31
0
39
0
210
0
220
0
230
1
0
LINE
5
AD
100
AcDbEntity
8
1
62
256
6
ByLayer
370
18
48
1
60
1
100
AcDbLine
10
18.866284
20
-4.169998
30
0
11
17.944716
21
-4.170002
31
0
39
0
210
0
220
0
230
1
0
LINE
5
AE
100
AcDbEntity
8
1
62
256
6
ByLayer
370
18
48
1
60
1
100
AcDbLine
10
17.944716
20
-4.170002
30
0
11
18.4055
21
-0.67
31
0
39
0
210
0
220
0
230
1
0
LINE
5
AF
100
AcDbEntity
8
1
62
256
6
ByLayer
370
18
48
1
60
1
100
AcDbLine
10
18.4055
20
0.67
30
0
11
17.944716
21
4.169998
31
0
39
0
210
0
220
0
230
1
0
LINE
5
B0
100
AcDbEntity
8
1
62
256
6
ByLayer
370
18
48
1
60
1
100
AcDbLine
10
17.944716
20
4.169998
30
0
11
18.866284
21
4.170002
31
0
39
0
210
0
220
0
230
1
0
LINE
5
B1
100
AcDbEntity
8
1
62
256
6
ByLayer
370
18
48
1
60
1
100
AcDbLine
10
18.866284
20
4.170002
30
0
11
18.4055
21
0.67
31
0
39
0
210
0
220
0
230
1
0
LINE
5
B2
100
AcDbEntity
8
SK2
62
256
6
ByLayer
370
13
48
1
60
0
100
AcDbLine
10
13.576406
20
-1.438764
30
0
11
20.660545
21
-16.630748
31
0
39
0
210
0
220
0
230
1
0
LINE
5
B3
100
AcDbEntity
8
SK2
62
256
6
ByLayer
370
13
48
1
60
0
100
AcDbLine
10
13.576406
20
1.438764
30
0
11
20.660545
21
16.630748
31
0
39
0
210
0
220
0
230
1
0
LINE
5
B4
100
AcDbEntity
8
1
62
256
6
ByLayer
370
18
48
1
60
1
100
AcDbLine
10
19.815309
20
-14.818132
30
0
11
22.687342
21
-12.765394
31
0
39
0
210
0
220
0
230
1
0
LINE
5
B5
100
AcDbEntity
8
1
62
256
6
ByLayer
370
18
48
1
60
1
100
AcDbLine
10
22.687342
20
-12.765394
30
0
11
23.120771
21
-13.578675
31
0
39
0
210
0
220
0
230
1
0
LINE
5
B6
100
AcDbEntity
8
1
62
256
6
ByLayer
370
18
48
1
60
1
100
AcDbLine
10
23.120771
20
-13.578675
30
0
11
19.815309
21
-14.818132
31
0
39
0
210
0
220
0
230
1
0
LINE
5
B7
100
AcDbEntity
8
1
62
256
6
ByLayer
370
18
48
1
60
1
100
AcDbLine
10
19.815309
20
14.818132
30
0
11
23.120768
21
13.578677
31
0
39
0
210
0
220
0
230
1
0
LINE
5
B8
100
AcDbEntity
8
1
62
256
6
ByLayer
370
18
48
1
60
1
100
AcDbLine
10
23.120768
20
13.578677
30
0
11
22.687345
21
12.765392
31
0
39
0
210
0
220
0
230
1
0
LINE
5
B9
100
AcDbEntity
8
1
62
256
6
ByLayer
370
18
48
1
60
1
100
AcDbLine
10
22.687345
20
12.765392
30
0
11
19.815309
21
14.818132
31
0
39
0
210
0
220
0
230
1
0
LINE
5
D2
100
AcDbEntity
8
1
62
256
6
ByLayer
370
18
48
1
60
1
100
AcDbLine
10
-29.5945
20
-1.5
30
0
11
-29.133716
21
-4.999998
31
0
39
0
210
0
220
0
230
1
0
LINE
5
D3
100
AcDbEntity
8
1
62
256
6
ByLayer
370
18
48
1
60
1
100
AcDbLine
10
-29.133716
20
-4.999998
30
0
11
-30.055284
21
-5.000002
31
0
39
0
210
0
220
0
230
1
0
LINE
5
D4
100
AcDbEntity
8
1
62
256
6
ByLayer
370
18
48
1
60
1
100
AcDbLine
10
-30.055284
20
-5.000002
30
0
11
-29.5945
21
-1.5
31
0
39
0
210
0
220
0
230
1
0
LINE
5
D6
100
AcDbEntity
8
1
62
256
6
ByLayer
370
18
48
1
60
1
100
AcDbLine
10
-29.5945
20
1.5
30
0
11
-30.055284
21
4.999998
31
0
39
0
210
0
220
0
230
1
0
LINE
5
D7
100
AcDbEntity
8
1
62
256
6
ByLayer
370
18
48
1
60
1
100
AcDbLine
10
-30.055284
20
4.999998
30
0
11
-29.133716
21
5.000002
31
0
39
0
210
0
220
0
230
1
0
LINE
5
D8
100
AcDbEntity
8
1
62
256
6
ByLayer
370
18
48
1
60
1
100
AcDbLine
10
-29.133716
20
5.000002
30
0
11
-29.5945
21
1.5
31
0
39
0
210
0
220
0
230
1
0
LINE
5
DC
100
AcDbEntity
8
1
62
256
6
ByLayer
370
18
48
1
60
1
100
AcDbLine
10
18.4055
20
-0.67
30
0
11
18.866284
21
-4.169998
31
0
39
0
210
0
220
0
230
1
0
LINE
5
DD
100
AcDbEntity
8
1
62
256
6
ByLayer
370
18
48
1
60
1
100
AcDbLine
10
18.866284
20
-4.169998
30
0
11
17.944716
21
-4.170002
31
0
39
0
210
0
220
0
230
1
0
LINE
5
DE
100
AcDbEntity
8
1
62
256
6
ByLayer
370
18
48
1
60
1
100
AcDbLine
10
17.944716
20
-4.170002
30
0
11
18.4055
21
-0.67
31
0
39
0
210
0
220
0
230
1
0
LINE
5
E0
100
AcDbEntity
8
1
62
256
6
ByLayer
370
18
48
1
60
1
100
AcDbLine
10
18.4055
20
0.67
30
0
11
17.944716
21
4.169998
31
0
39
0
210
0
220
0
230
1
0
LINE
5
E1
100
AcDbEntity
8
1
62
256
6
ByLayer
370
18
48
1
60
1
100
AcDbLine
10
17.944716
20
4.169998
30
0
11
18.866284
21
4.170002
31
0
39
0
210
0
220
0
230
1
0
LINE
5
E2
100
AcDbEntity
8
1
62
256
6
ByLayer
370
18
48
1
60
1
100
AcDbLine
10
18.866284
20
4.170002
30
0
11
18.4055
21
0.67
31
0
39
0
210
0
220
0
230
1
0
LINE
5
E5
100
AcDbEntity
8
1
62
256
6
ByLayer
370
18
48
1
60
1
100
AcDbLine
10
19.815309
20
-14.818132
30
0
11
22.687342
21
-12.765394
31
0
39
0
210
0
220
0
230
1
0
LINE
5
E6
100
AcDbEntity
8
1
62
256
6
ByLayer
370
18
48
1
60
1
100
AcDbLine
10
22.687342
20
-12.765394
30
0
11
23.120771
21
-13.578675
31
0
39
0
210
0
220
0
230
1
0
LINE
5
E7
100
AcDbEntity
8
1
62
256
6
ByLayer
370
18
48
1
60
1
100
AcDbLine
10
23.120771
20
-13.578675
30
0
11
19.815309
21
-14.818132
31
0
39
0
210
0
220
0
230
1
0
LINE
5
E9
100
AcDbEntity
8
1
62
256
6
ByLayer
370
18
48
1
60
1
100
AcDbLine
10
19.815309
20
14.818132
30
0
11
23.120768
21
13.578677
31
0
39
0
210
0
220
0
230
1
0
LINE
5
EA
100
AcDbEntity
8
1
62
256
6
ByLayer
370
18
48
1
60
1
100
AcDbLine
10
23.120768
20
13.578677
30
0
11
22.687345
21
12.765392
31
0
39
0
210
0
220
0
230
1
0
LINE
5
EB
100
AcDbEntity
8
1
62
256
6
ByLayer
370
18
48
1
60
1
100
AcDbLine
10
22.687345
20
12.765392
30
0
11
19.815309
21
14.818132
31
0
39
0
210
0
220
0
230
1
0
MTEXT
5
CE
100
AcDbEntity
8
SK2
62
256
6
ByLayer
370
18
48
1
60
0
100
AcDbMText
10
-30.935614
20
6.658437
30
0
210
0
220
0
230
1
1
%%c
40
3
41
0
44
1.084337
50
90
71
7
72
5
7
iso_b_vert
0
MTEXT
5
D1
100
AcDbEntity
8
SK2
62
256
6
ByLayer
370
18
48
1
60
0
100
AcDbMText
10
-30.935614
20
12.635
30
0
210
0
220
0
230
1
1
\W0.7468;3.000
40
3
41
0
44
1.084337
50
90
71
7
72
5
7
iso_b_vert
0
MTEXT
5
DA
100
AcDbEntity
8
2
62
256
6
ByLayer
370
18
48
1
60
0
100
AcDbMText
10
17.064386
20
14.988438
30
0
210
0
220
0
230
1
1
%%c
40
3
41
0
44
1.084337
50
90
71
7
72
5
7
iso_b_vert
0
MTEXT
5
DB
100
AcDbEntity
8
2
62
256
6
ByLayer
370
18
48
1
60
0
100
AcDbMText
10
17.064386
20
20.965
30
0
210
0
220
0
230
1
1
\W0.7091;1.340
40
3
41
0
44
1.084337
50
90
71
7
72
5
7
iso_b_vert
0
MTEXT
5
E4
100
AcDbEntity
8
SK2
62
256
6
ByLayer
370
18
48
1
60
0
100
AcDbMText
10
25.972786
20
-2.114886
30
0
210
0
220
0
230
1
1
\W0.6747;130%%d
40
3
41
0
44
1.084337
50
0
71
7
72
5
7
iso_b_vert
0
MTEXT
5
ED
100
AcDbEntity
8
SK6
62
256
6
ByLayer
370
18
48
1
60
0
100
AcDbMText
10
-33.88141
20
-42.114886
30
0
210
0
220
0
230
1
1
\W0.7694;462.1-0134-007A0-XM X0BU
40
3
41
0
44
1.084337
50
0
71
7
72
5
7
iso_b_vert
0
HATCH
5
D5
100
AcDbEntity
8
SK2
62
256
6
ByLayer
370
13
48
1
60
0
100
AcDbHatch
10
0
20
0
30
0
210
0
220
0
230
1
2
ANSI31
70
0
71
0
91
1
92
5
93
3
72
1
10
-29.5945
20
-1.5
11
-29.1337162584472
21
-4.99999830744682
72
1
10
-29.1337162584472
20
-4.99999830744682
11
-30.0552837415528
21
-5.00000169255318
72
1
10
-30.0552837415528
20
-5.00000169255318
11
-29.5945
21
-1.5
97
0
75
0
76
1
52
0
41
0.0062
77
0
78
1
53
45
43
0
44
0
45
-0.0139193969876572
46
0.0139193969876572
79
0
47
0
98
1
10
0
20
0
0
HATCH
5
D9
100
AcDbEntity
8
SK2
62
256
6
ByLayer
370
13
48
1
60
0
100
AcDbHatch
10
0
20
0
30
0
210
0
220
0
230
1
2
ANSI31
70
0
71
0
91
1
92
5
93
3
72
1
10
-29.5945
20
1.5
11
-30.0552837415528
21
4.99999830744682
72
1
10
-30.0552837415528
20
4.99999830744682
11
-29.1337162584472
21
5.00000169255318
72
1
10
-29.1337162584472
20
5.00000169255318
11
-29.5945
21
1.5
97
0
75
0
76
1
52
0
41
0.0062
77
0
78
1
53
45
43
0
44
0
45
-0.0139193969876572
46
0.0139193969876572
79
0
47
0
98
1
10
0
20
0
0
HATCH
5
DF
100
AcDbEntity
8
2
62
256
6
ByLayer
370
13
48
1
60
0
100
AcDbHatch
10
0
20
0
30
0
210
0
220
0
230
1
2
ANSI31
70
0
71
0
91
1
92
5
93
3
72
1
10
18.4055
20
-0.669999999999987
11
18.8662837415528
21
-4.1699983074468
72
1
10
18.8662837415528
20
-4.1699983074468
11
17.9447162584472
21
-4.17000169255317
72
1
10
17.9447162584472
20
-4.17000169255317
11
18.4055
21
-0.669999999999987
97
0
75
0
76
1
52
0
41
0.0062
77
0
78
1
53
45
43
0
44
0
45
-0.0139193969876572
46
0.0139193969876572
79
0
47
0
98
1
10
0
20
0
0
HATCH
5
E3
100
AcDbEntity
8
2
62
256
6
ByLayer
370
13
48
1
60
0
100
AcDbHatch
10
0
20
0
30
0
210
0
220
0
230
1
2
ANSI31
70
0
71
0
91
1
92
5
93
3
72
1
10
18.4055
20
0.669999999999987
11
17.9447162584472
21
4.1699983074468
72
1
10
17.9447162584472
20
4.1699983074468
11
18.8662837415528
21
4.17000169255317
72
1
10
18.8662837415528
20
4.17000169255317
11
18.4055
21
0.669999999999987
97
0
75
0
76
1
52
0
41
0.0062
77
0
78
1
53
45
43
0
44
0
45
-0.0139193969876572
46
0.0139193969876572
79
0
47
0
98
1
10
0
20
0
0
HATCH
5
E8
100
AcDbEntity
8
SK2
62
256
6
ByLayer
370
13
48
1
60
0
100
AcDbHatch
10
0
20
0
30
0
210
0
220
0
230
1
2
ANSI31
70
0
71
0
91
1
92
5
93
3
72
1
10
19.8153085794604
20
-14.8181323180492
11
22.6873418553693
21
-12.765393983365
72
1
10
22.6873418553693
20
-12.765393983365
11
23.1207706127348
21
-13.5786750775861
72
1
10
23.1207706127348
20
-13.5786750775861
11
19.8153085794604
21
-14.8181323180492
97
0
75
0
76
1
52
0
41
0.0062
77
0
78
1
53
45
43
0
44
0
45
-0.0139193969876572
46
0.0139193969876572
79
0
47
0
98
1
10
0
20
0
0
HATCH
5
EC
100
AcDbEntity
8
SK2
62
256
6
ByLayer
370
13
48
1
60
0
100
AcDbHatch
10
0
20
0
30
0
210
0
220
0
230
1
2
ANSI31
70
0
71
0
91
1
92
5
93
3
72
1
10
19.8153085794604
20
14.8181323180492
11
23.1207676253807
21
13.5786766696479
72
1
10
23.1207676253807
20
13.5786766696479
11
22.6873448427234
21
12.7653923913032
72
1
10
22.6873448427234
20
12.7653923913032
11
19.8153085794604
21
14.8181323180492
97
0
75
0
76
1
52
0
41
0.0062
77
0
78
1
53
45
43
0
44
0
45
-0.0139193969876572
46
0.0139193969876572
79
0
47
0
98
1
10
0
20
0
0
DIMENSION
5
F0
100
AcDbEntity
8
SK2
62
256
6
ByLayer
370
18
48
1
60
0
100
AcDbDimension
2
_U0
10
12.9055
20
-35.85
30
0
11
-6.0945
21
-35.85
31
0
70
32
71
1
72
1
41
1
210
0
220
0
230
1
3
Standard
100
AcDbAlignedDimension
13
-25.0945
23
1.5
33
0
14
12.9055
24
0.67
34
0
50
0
100
AcDbRotatedDimension
1001
ACAD
1000
DSTYLE
1002
{
1070
   371
1070
    13
1070
   372
1070
    13
1070
     3
1000

1070
   170
1070
     0
1070
   144
1040
1.0
1070
   277
1070
     2
1070
   284
1070
     8
1070
   278
1070
    46
1070
   146
1040
1.166667
1070
   345
1005
16
1070
   347
1005
16
1070
   346
1005
16
1070
   344
1005
0
1070
   343
1005
0
1070
   172
1070
     1
1070
    76
1070
     0
1070
    75
1070
     0
1070
   282
1070
     0
1070
   281
1070
     0
1070
    71
1070
     0
1070
    74
1070
     0
1070
   279
1070
     0
1070
   173
1070
     1
1070
   340
1005
CF
1070
   271
1070
     2
1070
   272
1070
     2
1070
    77
1070
     1
1070
    73
1070
     1
1070
   171
1070
     3
1070
   274
1070
     4
1070
   177
1070
     2
1070
   176
1070
     2
1070
   178
1070
     2
1070
    78
1070
     8
1070
    48
1040
-0.1
1070
    41
1040
3.5
1070
   147
1040
1.5
1070
    42
1040
1.5875
1070
    44
1040
2.0
1070
   140
1040
3.0
1002
}
1001
ACAD_DSTYLE_DIM_LINETYPE
1070
   380
1005
16
1001
ACAD_DSTYLE_DIM_EXT1_LINETYPE
1070
   381
1005
16
1001
ACAD_DSTYLE_DIM_EXT2_LINETYPE
1070
   382
1005
16
0
DIMENSION
5
109
100
AcDbEntity
8
SK2
62
256
6
ByLayer
370
18
48
1
60
0
100
AcDbDimension
2
_U1
10
5.7155
20
-22.17
30
0
11
28.9055
21
-22.17
31
0
70
32
71
1
72
1
41
1
210
0
220
0
230
1
3
Standard
100
AcDbAlignedDimension
13
12.9055
23
0.67
33
0
14
5.7155
24
0
34
0
50
0
100
AcDbRotatedDimension
1001
ACAD
1000
DSTYLE
1002
{
1070
   371
1070
    13
1070
   372
1070
    13
1070
     3
1000

1070
   170
1070
     0
1070
   144
1040
1.0
1070
   277
1070
     2
1070
   284
1070
     8
1070
   278
1070
    46
1070
   146
1040
1.166667
1070
   345
1005
16
1070
   347
1005
16
1070
   346
1005
16
1070
   344
1005
0
1070
   343
1005
0
1070
   172
1070
     1
1070
    76
1070
     0
1070
    75
1070
     0
1070
   282
1070
     0
1070
   281
1070
     0
1070
    71
1070
     0
1070
    74
1070
     0
1070
   279
1070
     0
1070
   173
1070
     1
1070
   340
1005
CF
1070
   271
1070
     2
1070
   272
1070
     2
1070
    77
1070
     1
1070
    73
1070
     1
1070
   171
1070
     3
1070
   274
1070
     4
1070
   177
1070
     2
1070
   176
1070
     2
1070
   178
1070
     2
1070
    78
1070
     8
1070
    48
1040
-0.1
1070
    41
1040
3.5
1070
   147
1040
1.5
1070
    42
1040
1.5875
1070
    44
1040
2.0
1070
   140
1040
3.0
1002
}
1001
ACAD_DSTYLE_DIM_LINETYPE
1070
   380
1005
16
1001
ACAD_DSTYLE_DIM_EXT1_LINETYPE
1070
   381
1005
16
1001
ACAD_DSTYLE_DIM_EXT2_LINETYPE
1070
   382
1005
16
0
DIMENSION
5
123
100
AcDbEntity
8
SK2
62
256
6
ByLayer
370
18
48
1
60
0
100
AcDbDimension
2
_U2
10
3.7055
20
-30.17
30
0
11
27.548357
21
-30.17
31
0
70
32
71
1
72
1
41
1
210
0
220
0
230
1
3
Standard
100
AcDbAlignedDimension
13
12.9055
23
0.67
33
0
14
3.7055
24
0
34
0
50
0
100
AcDbRotatedDimension
1001
ACAD
1000
DSTYLE
1002
{
1070
   371
1070
    13
1070
   372
1070
    13
1070
     3
1000

1070
   170
1070
     0
1070
   144
1040
1.0
1070
   277
1070
     2
1070
   284
1070
     8
1070
   278
1070
    46
1070
   146
1040
1.166667
1070
   345
1005
16
1070
   347
1005
16
1070
   346
1005
16
1070
   344
1005
0
1070
   343
1005
0
1070
   172
1070
     1
1070
    76
1070
     0
1070
    75
1070
     0
1070
   282
1070
     0
1070
   281
1070
     0
1070
    71
1070
     0
1070
    74
1070
     0
1070
   279
1070
     0
1070
   173
1070
     1
1070
   340
1005
CF
1070
   271
1070
     2
1070
   272
1070
     2
1070
    77
1070
     1
1070
    73
1070
     1
1070
   171
1070
     3
1070
   274
1070
     4
1070
   177
1070
     2
1070
   176
1070
     2
1070
   178
1070
     2
1070
    78
1070
     8
1070
    48
1040
-0.1
1070
    41
1040
3.5
1070
   147
1040
1.5
1070
    42
1040
1.5875
1070
    44
1040
2.0
1070
   140
1040
3.0
1002
}
1001
ACAD_DSTYLE_DIM_LINETYPE
1070
   380
1005
16
1001
ACAD_DSTYLE_DIM_EXT1_LINETYPE
1070
   381
1005
16
1001
ACAD_DSTYLE_DIM_EXT2_LINETYPE
1070
   382
1005
16
0
DIMENSION
5
13D
100
AcDbEntity
8
SK2
62
256
6
ByLayer
370
18
48
1
60
0
100
AcDbDimension
2
_U3
10
0
20
11.35
30
0
11
-12.54725
21
11.35
31
0
70
32
71
1
72
1
41
1
210
0
220
0
230
1
3
Standard
100
AcDbAlignedDimension
13
-25.0945
23
0
33
0
14
0
24
0
34
0
50
0
100
AcDbRotatedDimension
1001
ACAD
1000
DSTYLE
1002
{
1070
   371
1070
    13
1070
   372
1070
    13
1070
     3
1000

1070
   170
1070
     0
1070
   144
1040
1.0
1070
   277
1070
     2
1070
   284
1070
     8
1070
   278
1070
    46
1070
   146
1040
1.166667
1070
   345
1005
16
1070
   347
1005
16
1070
   346
1005
16
1070
   344
1005
0
1070
   343
1005
0
1070
   172
1070
     1
1070
    76
1070
     0
1070
    75
1070
     0
1070
   282
1070
     0
1070
   281
1070
     0
1070
    71
1070
     0
1070
    74
1070
     0
1070
   279
1070
     0
1070
   173
1070
     1
1070
   340
1005
CF
1070
   271
1070
     2
1070
   272
1070
     2
1070
    77
1070
     1
1070
    73
1070
     1
1070
   171
1070
     3
1070
   274
1070
     4
1070
   177
1070
     2
1070
   176
1070
     2
1070
   178
1070
     2
1070
    78
1070
     8
1070
    48
1040
-0.1
1070
    41
1040
3.5
1070
   147
1040
1.5
1070
    42
1040
1.5875
1070
    44
1040
2.0
1070
   140
1040
3.0
1002
}
1001
ACAD_DSTYLE_DIM_LINETYPE
1070
   380
1005
16
1001
ACAD_DSTYLE_DIM_EXT1_LINETYPE
1070
   381
1005
16
1001
ACAD_DSTYLE_DIM_EXT2_LINETYPE
1070
   382
1005
16
0
DIMENSION
5
155
100
AcDbEntity
8
2
62
256
6
ByLayer
370
18
48
1
60
0
100
AcDbDimension
2
_U4
10
0
20
11.35
30
0
11
6.45275
21
11.35
31
0
70
32
71
1
72
1
41
1
210
0
220
0
230
1
3
Standard
100
AcDbAlignedDimension
13
12.9055
23
0.67
33
0
14
0
24
0
34
0
50
0
100
AcDbRotatedDimension
1001
ACAD
1000
DSTYLE
1002
{
1070
   371
1070
    13
1070
   372
1070
    13
1070
     3
1000

1070
   170
1070
     0
1070
   144
1040
1.0
1070
   277
1070
     2
1070
   284
1070
     8
1070
   278
1070
    46
1070
   146
1040
1.166667
1070
   345
1005
16
1070
   347
1005
16
1070
   346
1005
16
1070
   344
1005
0
1070
   343
1005
0
1070
   172
1070
     1
1070
    76
1070
     0
1070
    75
1070
     0
1070
   282
1070
     0
1070
   281
1070
     0
1070
    71
1070
     0
1070
    74
1070
     0
1070
   279
1070
     0
1070
   173
1070
     1
1070
   340
1005
CF
1070
   271
1070
     2
1070
   272
1070
     2
1070
    77
1070
     1
1070
    73
1070
     1
1070
   171
1070
     3
1070
   274
1070
     4
1070
   177
1070
     2
1070
   176
1070
     2
1070
   178
1070
     2
1070
    78
1070
     8
1070
    48
1040
-0.1
1070
    41
1040
3.5
1070
   147
1040
1.5
1070
    42
1040
1.5875
1070
    44
1040
2.0
1070
   140
1040
3.0
1002
}
1001
ACAD_DSTYLE_DIM_LINETYPE
1070
   380
1005
16
1001
ACAD_DSTYLE_DIM_EXT1_LINETYPE
1070
   381
1005
16
1001
ACAD_DSTYLE_DIM_EXT2_LINETYPE
1070
   382
1005
16
0
ENDSEC
0
SECTION
2
OBJECTS
0
DICTIONARY
5
1de
330
0
100
AcDbDictionary
280
0
281
1
3
ACAD_GROUP
350
1df
3
ACAD_MLINESTYLE
350
1e0
0
DICTIONARY
5
1df
330
0
100
AcDbDictionary
280
0
281
1
0
DICTIONARY
5
1e0
330
0
100
AcDbDictionary
280
0
281
1
3
Standard
350
18
0
MLINESTYLE
5
18
330
1e0
100
AcDbMlineStyle
2
Standard
70
0
3

62
256
51
90
52
90
71
2
49
-0.5
62
256
6
ByLayer
49
0.5
62
256
6
ByLayer
0
RASTERVARIABLES
5
1cc
330

100
AcDbRasterVariables
90
0
70
1
71
1
72
1
0
ENDSEC
0
EOF
