0
SECTION
2
HEADER
9
$ACADVER
1
AC1015
9
$DWGCODEPAGE
3
ANSI_1252
9
$HANDSEED
5
1ea
9
$ANGBASE
50
0
9
$ANGDIR
70
0
9
$ATTMODE
70
1
9
$AUNITS
70
0
9
$AUPREC
70
0
9
$CECOLOR
62
256
9
$CELTSCALE
40
1
9
$CELTYPE
6
ByLayer
9
$CELWEIGHT
370
18
9
$CLAYER
8
0
9
$CMLJUST
70
0
9
$CMLSCALE
40
1
9
$CMLSTYLE
2
Standard
9
$DIMSTYLE
2
Standard
9
$TEXTSIZE
40
0.2
9
$TEXTSTYLE
7
Standard
9
$LUNITS
70
2
9
$LUPREC
70
4
9
$EXTNAMES
290
1
9
$INSUNITS
70
4
9
$LTSCALE
40
1
9
$LWDISPLAY
290
1
9
$PDMODE
70
0
9
$PDSIZE
40
0
9
$PLINEGEN
70
0
0
ENDSEC
0
SECTION
2
CLASSES
0
CLASS
1
RASTERVARIABLES
2
AcDbRasterVariables
3
ISM
90
0
280
0
281
0
0
ENDSEC
0
SECTION
2
TABLES
0
TABLE
2
VPORT
5
1e0
100
AcDbSymbolTable
0
VPORT
5
1
100
AcDbSymbolTableRecord
100
AcDbViewportTableRecord
2
*Active
70
0
10
0
20
0
11
1
21
1
12
-1
22
1
13
0
23
0
14
0.5
24
0.5
15
10
25
10
16
0
26
0
36
1
17
0
27
0
37
0
0
ENDTAB
0
TABLE
2
LTYPE
5
1e1
100
AcDbSymbolTable
0
LTYPE
5
14
100
AcDbSymbolTableRecord
100
AcDbLinetypeTableRecord
70
0
2
ByBlock
3

72
65
73
0
40
0
0
LTYPE
5
15
100
AcDbSymbolTableRecord
100
AcDbLinetypeTableRecord
70
0
2
ByLayer
3

72
65
73
0
40
0
0
LTYPE
5
16
100
AcDbSymbolTableRecord
100
AcDbLinetypeTableRecord
70
0
2
Continuous
3
Solid line
72
65
73
0
40
0
0
LTYPE
5
6E
100
AcDbSymbolTableRecord
100
AcDbLinetypeTableRecord
70
0
2
CENTER
3
____ _ ____ _ ____ _ ____
72
65
73
4
40
47.5
49
22
74
0
49
-8.5
74
0
49
8.5
74
0
49
-8.5
74
0
0
LTYPE
5
6F
100
AcDbSymbolTableRecord
100
AcDbLinetypeTableRecord
70
0
2
DASHED
3
__ __ __ __ __ __ __ __ __
72
65
73
2
40
25.72
49
12.86
74
0
49
-12.86
74
0
0
ENDTAB
0
TABLE
2
LAYER
5
1e2
100
AcDbSymbolTable
0
LAYER
5
10
100
AcDbSymbolTableRecord
100
AcDbLayerTableRecord
2
0
70
0
62
7
6
Continuous
290
1
370
-3
390
0
0
LAYER
5
71
100
AcDbSymbolTableRecord
100
AcDbLayerTableRecord
2
80
70
0
62
-6
6
Continuous
290
1
370
-3
390
0
0
LAYER
5
73
100
AcDbSymbolTableRecord
100
AcDbLayerTableRecord
2
81
70
0
62
-3
6
Continuous
290
1
370
-3
390
0
0
LAYER
5
75
100
AcDbSymbolTableRecord
100
AcDbLayerTableRecord
2
1
70
0
62
4
6
Continuous
290
1
370
-3
390
0
0
LAYER
5
9B
100
AcDbSymbolTableRecord
100
AcDbLayerTableRecord
2
4
70
0
62
-2
6
CENTER
290
1
370
-3
390
0
0
LAYER
5
AB
100
AcDbSymbolTableRecord
100
AcDbLayerTableRecord
2
2
70
0
62
7
6
Continuous
290
1
370
-3
390
0
0
LAYER
5
F3
100
AcDbSymbolTableRecord
100
AcDbLayerTableRecord
2
Defpoints
70
0
62
7
6
Continuous
290
0
370
-3
390
0
0
LAYER
5
1cc
100
AcDbSymbolTableRecord
100
AcDbLayerTableRecord
2
SK1
70
0
62
4
6
Continuous
290
1
370
-3
390
0
0
LAYER
5
1cd
100
AcDbSymbolTableRecord
100
AcDbLayerTableRecord
2
SK4
70
0
62
2
6
CENTER
290
1
370
-3
390
0
0
LAYER
5
1ce
100
AcDbSymbolTableRecord
100
AcDbLayerTableRecord
2
SK2
70
0
62
7
6
Continuous
290
1
370
-3
390
0
0
LAYER
5
1cf
100
AcDbSymbolTableRecord
100
AcDbLayerTableRecord
2
SK6
70
0
62
5
6
Continuous
290
1
370
-3
390
0
0
ENDTAB
0
TABLE
2
STYLE
5
1e3
100
AcDbSymbolTable
0
STYLE
5
11
100
AcDbSymbolTableRecord
100
AcDbTextStyleTableRecord
2
Standard
3
txt
70
0
71
0
40
0
41
1
42
0
50
0
0
STYLE
5
CF
100
AcDbSymbolTableRecord
100
AcDbTextStyleTableRecord
2
iso_b_vert
3
simplex.shx
70
0
71
0
40
0
41
1
42
0
50
0
0
STYLE
5
D0
100
AcDbSymbolTableRecord
100
AcDbTextStyleTableRecord
2
DWGDirectTextStyle
3
simplex
70
0
71
0
40
0
41
1
42
0
50
0
0
ENDTAB
0
TABLE
2
DIMSTYLE
5
1e4
100
AcDbSymbolTable
100
AcDbDimStyleTable
0
DIMSTYLE
105
27
100
AcDbSymbolTableRecord
100
AcDbDimStyleTableRecord
2
Standard
70
0
3
<>
41
0.18
42
0.0625
44
0.18
140
0.18
147
0.09
73
0
74
0
77
1
271
2
275
0
278
52
280
0
340
11
0
ENDTAB
0
TABLE
2
VIEW
5
1e5
100
AcDbSymbolTable
0
ENDTAB
0
TABLE
2
UCS
5
1e6
100
AcDbSymbolTable
0
ENDTAB
0
TABLE
2
APPID
5
1e7
100
AcDbSymbolTable
0
APPID
5
12
100
AcDbSymbolTableRecord
100
AcDbRegAppTableRecord
2
ACAD
70
0
0
APPID
5
EF
100
AcDbSymbolTableRecord
100
AcDbRegAppTableRecord
2
ACAD_DSTYLE_DIMBREAK
70
0
0
APPID
5
18B
100
AcDbSymbolTableRecord
100
AcDbRegAppTableRecord
2
ACAD_DSTYLE_DIM_LINETYPE
70
0
0
APPID
5
18C
100
AcDbSymbolTableRecord
100
AcDbRegAppTableRecord
2
ACAD_DSTYLE_DIM_EXT1_LINETYPE
70
0
0
APPID
5
18D
100
AcDbSymbolTableRecord
100
AcDbRegAppTableRecord
2
ACAD_DSTYLE_DIM_EXT2_LINETYPE
70
0
0
APPID
5
1C8
100
AcDbSymbolTableRecord
100
AcDbRegAppTableRecord
2
ACAD_MLEADERVER
70
0
0
ENDTAB
0
TABLE
2
BLOCK_RECORD
5
1e8
100
AcDbSymbolTable
0
BLOCK_RECORD
5
1F
100
AcDbSymbolTableRecord
100
AcDbBlockTableRecord
2
*Model_Space
340
0
70
0
0
BLOCK_RECORD
5
1B
100
AcDbSymbolTableRecord
100
AcDbBlockTableRecord
2
*Paper_Space
340
0
70
0
0
BLOCK_RECORD
5
23
100
AcDbSymbolTableRecord
100
AcDbBlockTableRecord
2
*Paper_Space0
340
0
70
0
0
BLOCK_RECORD
5
F4
100
AcDbSymbolTableRecord
100
AcDbBlockTableRecord
2
*D1
340
0
70
0
0
BLOCK_RECORD
5
100
100
AcDbSymbolTableRecord
100
AcDbBlockTableRecord
2
_U0
340
0
70
0
0
BLOCK_RECORD
5
10C
100
AcDbSymbolTableRecord
100
AcDbBlockTableRecord
2
*D3
340
0
70
0
0
BLOCK_RECORD
5
11A
100
AcDbSymbolTableRecord
100
AcDbBlockTableRecord
2
_U1
340
0
70
0
0
BLOCK_RECORD
5
126
100
AcDbSymbolTableRecord
100
AcDbBlockTableRecord
2
*D5
340
0
70
0
0
BLOCK_RECORD
5
133
100
AcDbSymbolTableRecord
100
AcDbBlockTableRecord
2
_U2
340
0
70
0
0
BLOCK_RECORD
5
13F
100
AcDbSymbolTableRecord
100
AcDbBlockTableRecord
2
*D7
340
0
70
0
0
BLOCK_RECORD
5
14B
100
AcDbSymbolTableRecord
100
AcDbBlockTableRecord
2
_U3
340
0
70
0
0
BLOCK_RECORD
5
157
100
AcDbSymbolTableRecord
100
AcDbBlockTableRecord
2
*D9
340
0
70
0
0
BLOCK_RECORD
5
164
100
AcDbSymbolTableRecord
100
AcDbBlockTableRecord
2
_U4
340
0
70
0
0
ENDTAB
0
ENDSEC
0
SECTION
2
BLOCKS
0
BLOCK
5
20
100
AcDbEntity
8
0
100
AcDbBlockBegin
2
*Model_Space
70
0
10
0
20
0
30
0
3
*Model_Space
0
ENDBLK
5
21
100
AcDbEntity
8
0
100
AcDbBlockEnd
0
BLOCK
5
1C
100
AcDbEntity
8
0
100
AcDbBlockBegin
2
*Paper_Space
70
0
10
0
20
0
30
0
3
*Paper_Space
0
ENDBLK
5
1D
100
AcDbEntity
8
0
100
AcDbBlockEnd
0
BLOCK
5
24
100
AcDbEntity
8
0
100
AcDbBlockBegin
2
*Paper_Space0
70
0
10
0
20
0
30
0
3
*Paper_Space0
0
ENDBLK
5
25
100
AcDbEntity
8
0
100
AcDbBlockEnd
0
BLOCK
5
F5
100
AcDbEntity
8
0
100
AcDbBlockBegin
2
*D1
70
1
10
0
20
0
30
0
3
*D1
0
LINE
5
F7
100
AcDbEntity
8
0
62
256
6
ByLayer
370
-2
48
1
60
0
100
AcDbLine
10
-23.4314
20
-0.0875
30
0
11
-23.4314
21
-40.977476
31
0
39
0
210
0
220
0
230
1
0
LINE
5
F8
100
AcDbEntity
8
0
62
256
6
ByLayer
370
-2
48
1
60
0
100
AcDbLine
10
14.5686
20
-0.6075
30
0
11
14.5686
21
-40.977476
31
0
39
0
210
0
220
0
230
1
0
LINE
5
F9
100
AcDbEntity
8
0
62
256
6
ByLayer
370
-2
48
1
60
0
100
AcDbLine
10
-19.9314
20
-38.977476
30
0
11
11.0686
21
-38.977476
31
0
39
0
210
0
220
0
230
1
0
SOLID
5
FA
100
AcDbEntity
8
0
62
256
6
ByLayer
370
-1
48
1
60
0
100
AcDbTrace
10
-19.9314
20
-38.394143
30
0
11
-19.9314
21
-39.56081
31
0
12
-23.4314
22
-38.977476
32
0
13
-23.4314
23
-38.977476
33
0
39
0
210
0
220
0
230
1
0
SOLID
5
FB
100
AcDbEntity
8
0
62
256
6
ByLayer
370
-1
48
1
60
0
100
AcDbTrace
10
11.0686
20
-39.56081
30
0
11
11.0686
21
-38.394143
31
0
12
14.5686
22
-38.977476
32
0
13
14.5686
23
-38.977476
33
0
39
0
210
0
220
0
230
1
0
MTEXT
5
FC
100
AcDbEntity
8
0
62
256
6
ByLayer
370
18
48
1
60
0
100
AcDbMText
10
-4.4314
20
-32.977476
30
0
210
0
220
0
230
1
1
\A1;38
40
3
41
0
44
1
50
0
71
5
72
5
7
iso_b_vert
0
POINT
5
FD
100
AcDbEntity
8
Defpoints
62
0
6
ByLayer
370
-1
48
1
60
0
100
AcDbPoint
10
-23.4314
20
1.5
30
0
39
0
210
0
220
0
230
1
50
360
0
POINT
5
FE
100
AcDbEntity
8
Defpoints
62
0
6
ByLayer
370
-1
48
1
60
0
100
AcDbPoint
10
14.5686
20
0.98
30
0
39
0
210
0
220
0
230
1
50
360
0
POINT
5
FF
100
AcDbEntity
8
Defpoints
62
0
6
ByLayer
370
-1
48
1
60
0
100
AcDbPoint
10
14.5686
20
-38.977476
30
0
39
0
210
0
220
0
230
1
50
360
0
ENDBLK
5
F6
100
AcDbEntity
8
0
100
AcDbBlockEnd
0
BLOCK
5
107
100
AcDbEntity
8
0
100
AcDbBlockBegin
2
_U0
70
0
10
0
20
0
30
0
3
_U0
0
MTEXT
5
101
100
AcDbEntity
8
SK2
62
256
6
ByLayer
370
18
48
1
60
0
100
AcDbMText
10
-8.91377
20
-38.092362
30
0
210
0
220
0
230
1
1
\W0.7468;38.00
40
3
41
0
44
1.084337
50
0
71
7
72
5
7
iso_b_vert
0
LINE
5
102
100
AcDbEntity
8
SK2
62
256
6
ByLayer
370
13
48
1
60
0
100
AcDbLine
10
-23.4314
20
-0.0875
30
0
11
-23.4314
21
-40.977476
31
0
39
0
210
0
220
0
230
1
0
LINE
5
103
100
AcDbEntity
8
SK2
62
256
6
ByLayer
370
13
48
1
60
0
100
AcDbLine
10
14.5686
20
-0.6075
30
0
11
14.5686
21
-40.977476
31
0
39
0
210
0
220
0
230
1
0
LINE
5
104
100
AcDbEntity
8
SK2
62
256
6
ByLayer
370
13
48
1
60
0
100
AcDbLine
10
-23.4314
20
-38.977476
30
0
11
14.5686
21
-38.977476
31
0
39
0
210
0
220
0
230
1
0
SOLID
5
105
100
AcDbEntity
8
SK2
62
256
6
ByLayer
370
18
48
1
60
0
100
AcDbTrace
10
-23.4314
20
-38.977476
30
0
11
-19.931402
21
-38.516692
31
0
12
-19.931398
22
-39.43826
32
0
13
-19.931398
23
-39.43826
33
0
39
0
210
0
220
0
230
1
0
SOLID
5
106
100
AcDbEntity
8
SK2
62
256
6
ByLayer
370
18
48
1
60
0
100
AcDbTrace
10
14.5686
20
-38.977476
30
0
11
11.068602
21
-39.43826
31
0
12
11.068598
22
-38.516692
32
0
13
11.068598
23
-38.516692
33
0
39
0
210
0
220
0
230
1
0
ENDBLK
5
108
100
AcDbEntity
8
0
100
AcDbBlockEnd
0
BLOCK
5
10D
100
AcDbEntity
8
0
100
AcDbBlockBegin
2
*D3
70
1
10
0
20
0
30
0
3
*D3
0
LINE
5
10F
100
AcDbEntity
8
0
62
256
6
ByLayer
370
-2
48
1
60
0
100
AcDbLine
10
14.5686
20
-0.6075
30
0
11
14.5686
21
-24.48
31
0
39
0
210
0
220
0
230
1
0
LINE
5
110
100
AcDbEntity
8
0
62
256
6
ByLayer
370
-2
48
1
60
0
100
AcDbLine
10
6.3086
20
-1.5875
30
0
11
6.3086
21
-24.48
31
0
39
0
210
0
220
0
230
1
0
LINE
5
111
100
AcDbEntity
8
0
62
256
6
ByLayer
370
-2
48
1
60
0
100
AcDbLine
10
14.5686
20
-22.48
30
0
11
39.711457
21
-22.48
31
0
39
0
210
0
220
0
230
1
0
LINE
5
112
100
AcDbEntity
8
0
62
256
6
ByLayer
370
-2
48
1
60
0
100
AcDbLine
10
18.0686
20
-22.48
30
0
11
21.5686
21
-22.48
31
0
39
0
210
0
220
0
230
1
0
LINE
5
113
100
AcDbEntity
8
0
62
256
6
ByLayer
370
-2
48
1
60
0
100
AcDbLine
10
2.8086
20
-22.48
30
0
11
-0.6914
21
-22.48
31
0
39
0
210
0
220
0
230
1
0
SOLID
5
114
100
AcDbEntity
8
0
62
256
6
ByLayer
370
-1
48
1
60
0
100
AcDbTrace
10
18.0686
20
-21.896667
30
0
11
18.0686
21
-23.063333
31
0
12
14.5686
22
-22.48
32
0
13
14.5686
23
-22.48
33
0
39
0
210
0
220
0
230
1
0
SOLID
5
115
100
AcDbEntity
8
0
62
256
6
ByLayer
370
-1
48
1
60
0
100
AcDbTrace
10
2.8086
20
-23.063333
30
0
11
2.8086
21
-21.896667
31
0
12
6.3086
22
-22.48
32
0
13
6.3086
23
-22.48
33
0
39
0
210
0
220
0
230
1
0
MTEXT
5
116
100
AcDbEntity
8
0
62
256
6
ByLayer
370
18
48
1
60
0
100
AcDbMText
10
30.640029
20
-16.48
30
0
210
0
220
0
230
1
1
\A1;8.26
40
3
41
0
44
1
50
0
71
5
72
5
7
iso_b_vert
0
POINT
5
117
100
AcDbEntity
8
Defpoints
62
0
6
ByLayer
370
-1
48
1
60
0
100
AcDbPoint
10
14.5686
20
0.98
30
0
39
0
210
0
220
0
230
1
50
360
0
POINT
5
118
100
AcDbEntity
8
Defpoints
62
0
6
ByLayer
370
-1
48
1
60
0
100
AcDbPoint
10
6.3086
20
0
30
0
39
0
210
0
220
0
230
1
50
360
0
POINT
5
119
100
AcDbEntity
8
Defpoints
62
0
6
ByLayer
370
-1
48
1
60
0
100
AcDbPoint
10
6.3086
20
-22.48
30
0
39
0
210
0
220
0
230
1
50
360
0
ENDBLK
5
10E
100
AcDbEntity
8
0
100
AcDbBlockEnd
0
BLOCK
5
121
100
AcDbEntity
8
0
100
AcDbBlockBegin
2
_U1
70
0
10
0
20
0
30
0
3
_U1
0
MTEXT
5
11B
100
AcDbEntity
8
SK2
62
256
6
ByLayer
370
18
48
1
60
0
100
AcDbMText
10
18.7276
20
-21.594886
30
0
210
0
220
0
230
1
1
\W0.7051;(8.26)
40
3
41
0
44
1.084337
50
0
71
7
72
5
7
iso_b_vert
0
LINE
5
11C
100
AcDbEntity
8
SK2
62
256
6
ByLayer
370
13
48
1
60
0
100
AcDbLine
10
14.5686
20
-0.6075
30
0
11
14.5686
21
-24.48
31
0
39
0
210
0
220
0
230
1
0
LINE
5
11D
100
AcDbEntity
8
SK2
62
256
6
ByLayer
370
13
48
1
60
0
100
AcDbLine
10
6.3086
20
-1.5875
30
0
11
6.3086
21
-24.48
31
0
39
0
210
0
220
0
230
1
0
LINE
5
11E
100
AcDbEntity
8
SK2
62
256
6
ByLayer
370
13
48
1
60
0
100
AcDbLine
10
6.3086
20
-22.48
30
0
11
28.040369
21
-22.48
31
0
39
0
210
0
220
0
230
1
0
SOLID
5
11F
100
AcDbEntity
8
SK2
62
256
6
ByLayer
370
18
48
1
60
0
100
AcDbTrace
10
14.5686
20
-22.48
30
0
11
11.068602
21
-22.940784
31
0
12
11.068598
22
-22.019216
32
0
13
11.068598
23
-22.019216
33
0
39
0
210
0
220
0
230
1
0
SOLID
5
120
100
AcDbEntity
8
SK2
62
256
6
ByLayer
370
18
48
1
60
0
100
AcDbTrace
10
6.3086
20
-22.48
30
0
11
9.808598
21
-22.019216
31
0
12
9.808602
22
-22.940784
32
0
13
9.808602
23
-22.940784
33
0
39
0
210
0
220
0
230
1
0
ENDBLK
5
122
100
AcDbEntity
8
0
100
AcDbBlockEnd
0
BLOCK
5
127
100
AcDbEntity
8
0
100
AcDbBlockBegin
2
*D5
70
1
10
0
20
0
30
0
3
*D5
0
LINE
5
129
100
AcDbEntity
8
0
62
256
6
ByLayer
370
-2
48
1
60
0
100
AcDbLine
10
14.5686
20
-0.6075
30
0
11
14.5686
21
-32.477476
31
0
39
0
210
0
220
0
230
1
0
LINE
5
12A
100
AcDbEntity
8
0
62
256
6
ByLayer
370
-2
48
1
60
0
100
AcDbLine
10
3.3686
20
-1.5875
30
0
11
3.3686
21
-32.477476
31
0
39
0
210
0
220
0
230
1
0
LINE
5
12B
100
AcDbEntity
8
0
62
256
6
ByLayer
370
-2
48
1
60
0
100
AcDbLine
10
18.0686
20
-30.477476
30
0
11
21.5686
21
-30.477476
31
0
39
0
210
0
220
0
230
1
0
LINE
5
12C
100
AcDbEntity
8
0
62
256
6
ByLayer
370
-2
48
1
60
0
100
AcDbLine
10
-0.1314
20
-30.477476
30
0
11
-3.6314
21
-30.477476
31
0
39
0
210
0
220
0
230
1
0
SOLID
5
12D
100
AcDbEntity
8
0
62
256
6
ByLayer
370
-1
48
1
60
0
100
AcDbTrace
10
18.0686
20
-29.894143
30
0
11
18.0686
21
-31.06081
31
0
12
14.5686
22
-30.477476
32
0
13
14.5686
23
-30.477476
33
0
39
0
210
0
220
0
230
1
0
SOLID
5
12E
100
AcDbEntity
8
0
62
256
6
ByLayer
370
-1
48
1
60
0
100
AcDbTrace
10
-0.1314
20
-31.06081
30
0
11
-0.1314
21
-29.894143
31
0
12
3.3686
22
-30.477476
32
0
13
3.3686
23
-30.477476
33
0
39
0
210
0
220
0
230
1
0
MTEXT
5
12F
100
AcDbEntity
8
0
62
256
6
ByLayer
370
18
48
1
60
0
100
AcDbMText
10
8.9686
20
-24.477476
30
0
210
0
220
0
230
1
1
\A1;11.2
40
3
41
0
44
1
50
0
71
5
72
5
7
iso_b_vert
0
POINT
5
130
100
AcDbEntity
8
Defpoints
62
0
6
ByLayer
370
-1
48
1
60
0
100
AcDbPoint
10
14.5686
20
0.98
30
0
39
0
210
0
220
0
230
1
50
360
0
POINT
5
131
100
AcDbEntity
8
Defpoints
62
0
6
ByLayer
370
-1
48
1
60
0
100
AcDbPoint
10
3.3686
20
0
30
0
39
0
210
0
220
0
230
1
50
360
0
POINT
5
132
100
AcDbEntity
8
Defpoints
62
0
6
ByLayer
370
-1
48
1
60
0
100
AcDbPoint
10
3.3686
20
-30.477476
30
0
39
0
210
0
220
0
230
1
50
360
0
ENDBLK
5
128
100
AcDbEntity
8
0
100
AcDbBlockEnd
0
BLOCK
5
13A
100
AcDbEntity
8
0
100
AcDbBlockBegin
2
_U2
70
0
10
0
20
0
30
0
3
_U2
0
MTEXT
5
134
100
AcDbEntity
8
SK2
62
256
6
ByLayer
370
18
48
1
60
0
100
AcDbMText
10
5.236115
20
-29.592362
30
0
210
0
220
0
230
1
1
\W0.6261;11.20
40
3
41
0
44
1.084337
50
0
71
7
72
5
7
iso_b_vert
0
LINE
5
135
100
AcDbEntity
8
SK2
62
256
6
ByLayer
370
13
48
1
60
0
100
AcDbLine
10
14.5686
20
-0.6075
30
0
11
14.5686
21
-32.477476
31
0
39
0
210
0
220
0
230
1
0
LINE
5
136
100
AcDbEntity
8
SK2
62
256
6
ByLayer
370
13
48
1
60
0
100
AcDbLine
10
3.3686
20
-1.5875
30
0
11
3.3686
21
-32.477476
31
0
39
0
210
0
220
0
230
1
0
LINE
5
137
100
AcDbEntity
8
SK2
62
256
6
ByLayer
370
13
48
1
60
0
100
AcDbLine
10
14.5686
20
-30.477476
30
0
11
3.3686
21
-30.477476
31
0
39
0
210
0
220
0
230
1
0
SOLID
5
138
100
AcDbEntity
8
SK2
62
256
6
ByLayer
370
18
48
1
60
0
100
AcDbTrace
10
14.5686
20
-30.477476
30
0
11
11.068602
21
-30.93826
31
0
12
11.068598
22
-30.016692
32
0
13
11.068598
23
-30.016692
33
0
39
0
210
0
220
0
230
1
0
SOLID
5
139
100
AcDbEntity
8
SK2
62
256
6
ByLayer
370
18
48
1
60
0
100
AcDbTrace
10
3.3686
20
-30.477476
30
0
11
6.868598
21
-30.016692
31
0
12
6.868602
22
-30.93826
32
0
13
6.868602
23
-30.93826
33
0
39
0
210
0
220
0
230
1
0
ENDBLK
5
13B
100
AcDbEntity
8
0
100
AcDbBlockEnd
0
BLOCK
5
140
100
AcDbEntity
8
0
100
AcDbBlockBegin
2
*D7
70
1
10
0
20
0
30
0
3
*D7
0
LINE
5
142
100
AcDbEntity
8
0
62
256
6
ByLayer
370
-2
48
1
60
0
100
AcDbLine
10
-23.4314
20
1.5875
30
0
11
-23.4314
21
13.477476
31
0
39
0
210
0
220
0
230
1
0
LINE
5
143
100
AcDbEntity
8
0
62
256
6
ByLayer
370
-2
48
1
60
0
100
AcDbLine
10
0
20
1.5875
30
0
11
0
21
13.477476
31
0
39
0
210
0
220
0
230
1
0
LINE
5
144
100
AcDbEntity
8
0
62
256
6
ByLayer
370
-2
48
1
60
0
100
AcDbLine
10
-19.9314
20
11.477476
30
0
11
-3.5
21
11.477476
31
0
39
0
210
0
220
0
230
1
0
SOLID
5
145
100
AcDbEntity
8
0
62
256
6
ByLayer
370
-1
48
1
60
0
100
AcDbTrace
10
-19.9314
20
12.06081
30
0
11
-19.9314
21
10.894143
31
0
12
-23.4314
22
11.477476
32
0
13
-23.4314
23
11.477476
33
0
39
0
210
0
220
0
230
1
0
SOLID
5
146
100
AcDbEntity
8
0
62
256
6
ByLayer
370
-1
48
1
60
0
100
AcDbTrace
10
-3.5
20
10.894143
30
0
11
-3.5
21
12.06081
31
0
12
0
22
11.477476
32
0
13
0
23
11.477476
33
0
39
0
210
0
220
0
230
1
0
MTEXT
5
147
100
AcDbEntity
8
0
62
256
6
ByLayer
370
18
48
1
60
0
100
AcDbMText
10
-11.7157
20
17.477476
30
0
210
0
220
0
230
1
1
\A1;23.43
40
3
41
0
44
1
50
0
71
5
72
5
7
iso_b_vert
0
POINT
5
148
100
AcDbEntity
8
Defpoints
62
0
6
ByLayer
370
-1
48
1
60
0
100
AcDbPoint
10
-23.4314
20
0
30
0
39
0
210
0
220
0
230
1
50
360
0
POINT
5
149
100
AcDbEntity
8
Defpoints
62
0
6
ByLayer
370
-1
48
1
60
0
100
AcDbPoint
10
0
20
0
30
0
39
0
210
0
220
0
230
1
50
360
0
POINT
5
14A
100
AcDbEntity
8
Defpoints
62
0
6
ByLayer
370
-1
48
1
60
0
100
AcDbPoint
10
0
20
11.477476
30
0
39
0
210
0
220
0
230
1
50
360
0
ENDBLK
5
141
100
AcDbEntity
8
0
100
AcDbBlockEnd
0
BLOCK
5
152
100
AcDbEntity
8
0
100
AcDbBlockBegin
2
_U3
70
0
10
0
20
0
30
0
3
_U3
0
MTEXT
5
14C
100
AcDbEntity
8
SK2
62
256
6
ByLayer
370
18
48
1
60
0
100
AcDbMText
10
-16.356013
20
12.362591
30
0
210
0
220
0
230
1
1
\W0.7694;23.43
40
3
41
0
44
1.084337
50
0
71
7
72
5
7
iso_b_vert
0
LINE
5
14D
100
AcDbEntity
8
SK2
62
256
6
ByLayer
370
13
48
1
60
0
100
AcDbLine
10
-23.4314
20
1.5875
30
0
11
-23.4314
21
13.477476
31
0
39
0
210
0
220
0
230
1
0
LINE
5
14E
100
AcDbEntity
8
SK2
62
256
6
ByLayer
370
13
48
1
60
0
100
AcDbLine
10
0
20
1.5875
30
0
11
0
21
13.477476
31
0
39
0
210
0
220
0
230
1
0
LINE
5
14F
100
AcDbEntity
8
SK2
62
256
6
ByLayer
370
13
48
1
60
0
100
AcDbLine
10
-23.4314
20
11.477476
30
0
11
0
21
11.477476
31
0
39
0
210
0
220
0
230
1
0
SOLID
5
150
100
AcDbEntity
8
SK2
62
256
6
ByLayer
370
18
48
1
60
0
100
AcDbTrace
10
-23.4314
20
11.477476
30
0
11
-19.931402
21
11.93826
31
0
12
-19.931398
22
11.016692
32
0
13
-19.931398
23
11.016692
33
0
39
0
210
0
220
0
230
1
0
SOLID
5
151
100
AcDbEntity
8
SK2
62
256
6
ByLayer
370
18
48
1
60
0
100
AcDbTrace
10
0
20
11.477476
30
0
11
-3.499998
21
11.016692
31
0
12
-3.500002
22
11.93826
32
0
13
-3.500002
23
11.93826
33
0
39
0
210
0
220
0
230
1
0
ENDBLK
5
153
100
AcDbEntity
8
0
100
AcDbBlockEnd
0
BLOCK
5
158
100
AcDbEntity
8
0
100
AcDbBlockBegin
2
*D9
70
1
10
0
20
0
30
0
3
*D9
0
LINE
5
15A
100
AcDbEntity
8
0
62
256
6
ByLayer
370
-2
48
1
60
0
100
AcDbLine
10
14.5686
20
2.5675
30
0
11
14.5686
21
13.477476
31
0
39
0
210
0
220
0
230
1
0
LINE
5
15B
100
AcDbEntity
8
0
62
256
6
ByLayer
370
-2
48
1
60
0
100
AcDbLine
10
0
20
1.5875
30
0
11
0
21
13.477476
31
0
39
0
210
0
220
0
230
1
0
LINE
5
15C
100
AcDbEntity
8
0
62
256
6
ByLayer
370
-2
48
1
60
0
100
AcDbLine
10
18.0686
20
11.477476
30
0
11
21.5686
21
11.477476
31
0
39
0
210
0
220
0
230
1
0
LINE
5
15D
100
AcDbEntity
8
0
62
256
6
ByLayer
370
-2
48
1
60
0
100
AcDbLine
10
-3.5
20
11.477476
30
0
11
-7
21
11.477476
31
0
39
0
210
0
220
0
230
1
0
SOLID
5
15E
100
AcDbEntity
8
0
62
256
6
ByLayer
370
-1
48
1
60
0
100
AcDbTrace
10
18.0686
20
12.06081
30
0
11
18.0686
21
10.894143
31
0
12
14.5686
22
11.477476
32
0
13
14.5686
23
11.477476
33
0
39
0
210
0
220
0
230
1
0
SOLID
5
15F
100
AcDbEntity
8
0
62
256
6
ByLayer
370
-1
48
1
60
0
100
AcDbTrace
10
-3.5
20
10.894143
30
0
11
-3.5
21
12.06081
31
0
12
0
22
11.477476
32
0
13
0
23
11.477476
33
0
39
0
210
0
220
0
230
1
0
MTEXT
5
160
100
AcDbEntity
8
0
62
256
6
ByLayer
370
18
48
1
60
0
100
AcDbMText
10
7.2843
20
17.477476
30
0
210
0
220
0
230
1
1
\A1;14.57
40
3
41
0
44
1
50
0
71
5
72
5
7
iso_b_vert
0
POINT
5
161
100
AcDbEntity
8
Defpoints
62
0
6
ByLayer
370
-1
48
1
60
0
100
AcDbPoint
10
14.5686
20
0.98
30
0
39
0
210
0
220
0
230
1
50
360
0
POINT
5
162
100
AcDbEntity
8
Defpoints
62
0
6
ByLayer
370
-1
48
1
60
0
100
AcDbPoint
10
0
20
0
30
0
39
0
210
0
220
0
230
1
50
360
0
POINT
5
163
100
AcDbEntity
8
Defpoints
62
0
6
ByLayer
370
-1
48
1
60
0
100
AcDbPoint
10
0
20
11.477476
30
0
39
0
210
0
220
0
230
1
50
360
0
ENDBLK
5
159
100
AcDbEntity
8
0
100
AcDbBlockEnd
0
BLOCK
5
16B
100
AcDbEntity
8
0
100
AcDbBlockBegin
2
_U4
70
0
10
0
20
0
30
0
3
_U4
0
MTEXT
5
165
100
AcDbEntity
8
2
62
256
6
ByLayer
370
18
48
1
60
0
100
AcDbMText
10
3.018929
20
12.362591
30
0
210
0
220
0
230
1
1
\W0.7091;14.57
40
3
41
0
44
1.084337
50
0
71
7
72
5
7
iso_b_vert
0
LINE
5
166
100
AcDbEntity
8
2
62
256
6
ByLayer
370
13
48
1
60
0
100
AcDbLine
10
14.5686
20
2.5675
30
0
11
14.5686
21
13.477476
31
0
39
0
210
0
220
0
230
1
0
LINE
5
167
100
AcDbEntity
8
2
62
256
6
ByLayer
370
13
48
1
60
0
100
AcDbLine
10
0
20
1.5875
30
0
11
0
21
13.477476
31
0
39
0
210
0
220
0
230
1
0
LINE
5
168
100
AcDbEntity
8
2
62
256
6
ByLayer
370
13
48
1
60
0
100
AcDbLine
10
14.5686
20
11.477476
30
0
11
0
21
11.477476
31
0
39
0
210
0
220
0
230
1
0
SOLID
5
169
100
AcDbEntity
8
2
62
256
6
ByLayer
370
18
48
1
60
0
100
AcDbTrace
10
14.5686
20
11.477476
30
0
11
11.068602
21
11.016692
31
0
12
11.068598
22
11.93826
32
0
13
11.068598
23
11.93826
33
0
39
0
210
0
220
0
230
1
0
SOLID
5
16A
100
AcDbEntity
8
2
62
256
6
ByLayer
370
18
48
1
60
0
100
AcDbTrace
10
0
20
11.477476
30
0
11
3.499998
21
11.93826
31
0
12
3.500002
22
11.016692
32
0
13
3.500002
23
11.016692
33
0
39
0
210
0
220
0
230
1
0
ENDBLK
5
16C
100
AcDbEntity
8
0
100
AcDbBlockEnd
0
ENDSEC
0
SECTION
2
ENTITIES
0
ARC
5
BC
100
AcDbEntity
8
1
62
256
6
ByLayer
370
18
48
1
60
0
100
AcDbCircle
39
0
10
1.168644
20
-1.98
30
0
40
1
210
0
220
0
230
1
100
AcDbArc
50
90
51
120
0
ARC
5
BD
100
AcDbEntity
8
1
62
256
6
ByLayer
370
18
48
1
60
0
100
AcDbCircle
39
0
10
1.168644
20
1.98
30
0
40
1
210
0
220
0
230
1
100
AcDbArc
50
240
51
270
0
ARC
5
BE
100
AcDbEntity
8
SK2
62
256
6
ByLayer
370
13
48
1
60
0
100
AcDbCircle
39
0
10
14.5686
20
0
30
0
40
16.35
210
0
220
0
230
1
100
AcDbArc
50
10.57289
51
65
0
ARC
5
BF
100
AcDbEntity
8
SK2
62
256
6
ByLayer
370
13
48
1
60
0
100
AcDbCircle
39
0
10
14.5686
20
0
30
0
40
16.35
210
0
220
0
230
1
100
AcDbArc
50
295
51
349.42711
0
ELLIPSE
5
C0
100
AcDbEntity
8
1
62
256
6
ByLayer
370
18
48
1
60
0
100
AcDbEllipse
10
4.461104
20
1.086455
30
0
11
-1.40914963116081
21
0.977492413086947
31
0
210
0
220
0
230
1
40
0.480052
41
1.09355964052112
42
1.89224706061886
0
POINT
5
70
100
AcDbEntity
8
80
62
256
6
ByLayer
370
18
48
1
60
0
100
AcDbPoint
10
0
20
0
30
0
39
0
210
0
220
0
230
1
50
360
0
POINT
5
72
100
AcDbEntity
8
81
62
256
6
ByLayer
370
18
48
1
60
0
100
AcDbPoint
10
14.5686
20
0
30
0
39
0
210
0
220
0
230
1
50
360
0
POINT
5
74
100
AcDbEntity
8
1
62
256
6
ByLayer
370
18
48
1
60
1
100
AcDbPoint
10
-23.4314
20
1.5
30
0
39
0
210
0
220
0
230
1
50
360
0
POINT
5
76
100
AcDbEntity
8
1
62
256
6
ByLayer
370
18
48
1
60
1
100
AcDbPoint
10
14.5686
20
0.98
30
0
39
0
210
0
220
0
230
1
50
360
0
POINT
5
77
100
AcDbEntity
8
1
62
256
6
ByLayer
370
18
48
1
60
1
100
AcDbPoint
10
14.5686
20
0.98
30
0
39
0
210
0
220
0
230
1
50
360
0
POINT
5
78
100
AcDbEntity
8
1
62
256
6
ByLayer
370
18
48
1
60
1
100
AcDbPoint
10
6.3086
20
0
30
0
39
0
210
0
220
0
230
1
50
360
0
POINT
5
79
100
AcDbEntity
8
1
62
256
6
ByLayer
370
18
48
1
60
1
100
AcDbPoint
10
14.5686
20
0.98
30
0
39
0
210
0
220
0
230
1
50
360
0
POINT
5
7A
100
AcDbEntity
8
1
62
256
6
ByLayer
370
18
48
1
60
1
100
AcDbPoint
10
3.3686
20
0
30
0
39
0
210
0
220
0
230
1
50
360
0
POINT
5
7B
100
AcDbEntity
8
1
62
256
6
ByLayer
370
18
48
1
60
1
100
AcDbPoint
10
-23.4314
20
0
30
0
39
0
210
0
220
0
230
1
50
360
0
POINT
5
7C
100
AcDbEntity
8
1
62
256
6
ByLayer
370
18
48
1
60
1
100
AcDbPoint
10
0
20
0
30
0
39
0
210
0
220
0
230
1
50
360
0
POINT
5
7D
100
AcDbEntity
8
1
62
256
6
ByLayer
370
18
48
1
60
1
100
AcDbPoint
10
14.5686
20
0.98
30
0
39
0
210
0
220
0
230
1
50
360
0
POINT
5
7E
100
AcDbEntity
8
1
62
256
6
ByLayer
370
18
48
1
60
1
100
AcDbPoint
10
0
20
0
30
0
39
0
210
0
220
0
230
1
50
360
0
SPLINE
5
C1
100
AcDbEntity
8
1
62
256
6
ByLayer
370
18
48
1
60
0
100
AcDbSpline
70
4
71
3
72
18
73
14
40
0
40
0
40
0
40
0
40
0.25
40
0.25
40
0.5
40
0.5
40
0.625
40
0.625
40
0.687499999999995
40
0.687499999999995
40
0.749999999999991
40
0.749999999999991
40
1
40
1
40
1
40
1
41
1
10
3.39702738198042
20
0.93456095501341
30
0
41
1
10
3.48477477684057
20
0.941062699293695
30
0
41
1
10
3.57295933773247
20
0.945128608715635
30
0
41
1
10
3.7501741670209
20
0.950128765899194
30
0
41
1
10
3.83920452687391
20
0.95105858752197
30
0
41
1
10
3.97339207633286
20
0.950380019513062
30
0
41
1
10
4.01822855310382
20
0.949798114804025
30
0
41
1
10
4.08564792584374
20
0.948331537867062
30
0
41
1
10
4.10813757435625
20
0.947742892682413
30
0
41
1
10
4.15291210573923
20
0.94635767852148
30
0
41
1
10
4.17522904017241
20
0.945560478677322
30
0
41
1
10
4.28646464906126
20
0.941006026709999
30
0
41
1
10
4.37434002810369
20
0.935595245168258
30
0
41
1
10
4.46110400002712
20
0.927427389315284
30
0
0
SPLINE
5
C2
100
AcDbEntity
8
1
62
256
6
ByLayer
370
18
48
1
60
0
100
AcDbSpline
70
4
71
3
72
42
73
38
40
0
40
0
40
0
40
0
40
0.0824708283862594
40
0.0824708283862594
40
0.12370624257939
40
0.12370624257939
40
0.164941656772521
40
0.164941656772521
40
0.329883313545044
40
0.329883313545044
40
0.371118727738175
40
0.371118727738175
40
0.412354141931306
40
0.412354141931306
40
0.494824970317567
40
0.494824970317567
40
0.536060384510697
40
0.536060384510697
40
0.577295798703827
40
0.577295798703827
40
0.659766627090086
40
0.659766627090086
40
0.701002041283215
40
0.701002041283215
40
0.742237455476344
40
0.742237455476344
40
0.824708283862601
40
0.824708283862601
40
0.845325990959167
40
0.845325990959167
40
0.865943698055733
40
0.865943698055733
40
0.907179112248862
40
0.907179112248862
40
0.989649940635122
40
0.989649940635122
40
1
40
1
40
1
40
1
41
1
10
4.46110400000001
20
-0.06529646840346
30
0
41
1
10
4.5620928298811
20
-0.123622025872038
30
0
41
1
10
4.66285912090379
20
-0.181257912432187
30
0
41
1
10
4.81414286565033
20
-0.265896527195167
30
0
41
1
10
4.86459230130851
20
-0.293807946743812
30
0
41
1
10
4.96561679567131
20
-0.348886021690959
30
0
41
1
10
5.01606110652341
20
-0.375994643359405
30
0
41
1
10
5.26740609451005
20
-0.508552105153456
30
0
41
1
10
5.46699643990402
20
-0.604688444251252
30
0
41
1
10
5.71772108290699
20
-0.708087125444081
30
0
41
1
10
5.76796457923075
20
-0.727877021658372
30
0
41
1
10
5.8687422464742
20
-0.765551764921184
30
0
41
1
10
5.91933237484383
20
-0.783456836019241
30
0
41
1
10
6.07070138507018
20
-0.833847814752801
30
0
41
1
10
6.17133350822814
20
-0.863132117432713
30
0
41
1
10
6.32237201030975
20
-0.900130050461883
30
0
41
1
10
6.37276444316171
20
-0.911283495199825
30
0
41
1
10
6.47374628251427
20
-0.931159602754207
30
0
41
1
10
6.52429000828579
20
-0.939875988731899
30
0
41
1
10
6.67558394948094
20
-0.962212933455106
30
0
41
1
10
6.77621201988677
20
-0.972080040162922
30
0
41
1
10
6.92731278508717
20
-0.979147065144673
30
0
41
1
10
6.97774028673848
20
-0.980207960772702
30
0
41
1
10
7.07879446844285
20
-0.979724787158773
30
0
41
1
10
7.12923889070504
20
-0.978182601357986
30
0
41
1
10
7.28044396100483
20
-0.969703130689851
30
0
41
1
10
7.38106699706759
20
-0.958915480597568
30
0
41
1
10
7.50704013971637
20
-0.939089893243022
30
0
41
1
10
7.5322526342764
20
-0.934811146360772
30
0
41
1
10
7.58272964570156
20
-0.925634203931025
30
0
41
1
10
7.60800741388002
20
-0.920732588872966
30
0
41
1
10
7.68365782691265
20
-0.905161854696274
30
0
41
1
10
7.73392798233098
20
-0.893612356523363
30
0
41
1
10
7.88437366398605
20
-0.855609088306636
30
0
41
1
10
7.98416842719959
20
-0.825790563088958
30
0
41
1
10
8.09629753029449
20
-0.787576817992232
30
0
41
1
10
8.10879995226708
20
-0.783253058302023
30
0
41
1
10
8.12130238951227
20
-0.778867264664854
30
0
0
SPLINE
5
C3
100
AcDbEntity
8
1
62
256
6
ByLayer
370
18
48
1
60
0
100
AcDbSpline
70
4
71
3
72
30
73
26
40
0
40
0
40
0
40
0
40
0.143322429692625
40
0.143322429692625
40
0.22899018672336
40
0.22899018672336
40
0.314657943754094
40
0.314657943754094
40
0.485993457815573
40
0.485993457815573
40
0.571661214846313
40
0.571661214846313
40
0.657328971877052
40
0.657328971877052
40
0.828664485938522
40
0.828664485938522
40
0.871498364453892
40
0.871498364453892
40
0.914332242969261
40
0.914332242969261
40
0.957166121484631
40
0.957166121484631
40
0.978583060742315
40
0.978583060742315
40
1
40
1
40
1
40
1
41
1
10
12.3463118617137
20
0.980000266113791
30
0
41
1
10
12.4305758723683
20
0.980020547220477
30
0
41
1
10
12.5147726210445
20
0.976409775852005
30
0
41
1
10
12.6495059782609
20
0.964912747815646
30
0
41
1
10
12.6999630092716
20
0.959328031806137
30
0
41
1
10
12.8010157814924
20
0.945598651173327
30
0
41
1
10
12.8514341958739
20
0.937474690355742
30
0
41
1
10
13.0025277974326
20
0.909415494570709
30
0
41
1
10
13.1031531877485
20
0.885860991190043
30
0
41
1
10
13.2544606777471
20
0.843666092641229
30
0
41
1
10
13.3050258931007
20
0.828428808612102
30
0
41
1
10
13.4059579348936
20
0.795833749135397
30
0
41
1
10
13.4562938989214
20
0.778482982359208
30
0
41
1
10
13.6070524550692
20
0.723434190790044
30
0
41
1
10
13.7073672269209
20
0.682902504081113
30
0
41
1
10
13.8329341791638
20
0.628005651711305
30
0
41
1
10
13.8580392499326
20
0.616791190097018
30
0
41
1
10
13.9082941856458
20
0.593973545388423
30
0
41
1
10
13.9335087515896
20
0.582463722388184
30
0
41
1
10
13.9838305382021
20
0.558839775809702
30
0
41
1
10
14.0088459168845
20
0.546583345237195
30
0
41
1
10
14.0466774744955
20
0.528310133864295
30
0
41
1
10
14.0593210227408
20
0.52221019117556
30
0
41
1
10
14.0849753174543
20
0.510466944623374
30
0
41
1
10
14.0980044505741
20
0.504850349674825
30
0
41
1
10
14.1116184950081
20
0.500109860748438
30
0
0
SPLINE
5
C4
100
AcDbEntity
8
1
62
256
6
ByLayer
370
18
48
1
60
0
100
AcDbSpline
70
4
71
3
72
26
73
22
40
0
40
0
40
0
40
0
40
0.0625000000000005
40
0.0625000000000005
40
0.125000000000001
40
0.125000000000001
40
0.250000000000002
40
0.250000000000002
40
0.375000000000003
40
0.375000000000003
40
0.500000000000004
40
0.500000000000004
40
0.625000000000005
40
0.625000000000005
40
0.750000000000006
40
0.750000000000006
40
0.875000000000007
40
0.875000000000007
40
0.937500000000004
40
0.937500000000004
40
1
40
1
40
1
40
1
41
1
10
14.1116184950081
20
0.500109860748438
30
0
41
1
10
14.1193133204429
20
0.488755690774496
30
0
41
1
10
14.1269955931705
20
0.478092963157849
30
0
41
1
10
14.1423489293688
20
0.458253430678894
30
0
41
1
10
14.15002023032
20
0.449066648758873
30
0
41
1
10
14.1730299461163
20
0.422995825414745
30
0
41
1
10
14.1883643916662
20
0.407562559786101
30
0
41
1
10
14.2190250296761
20
0.377766538670727
30
0
41
1
10
14.2343525001613
20
0.363251632221505
30
0
41
1
10
14.264975862209
20
0.335767715805531
30
0
41
1
10
14.2803104326049
20
0.322835587712831
30
0
41
1
10
14.3105196444646
20
0.299575664166241
30
0
41
1
10
14.3254293164928
20
0.289149592706167
30
0
41
1
10
14.3547065320136
20
0.270266528651348
30
0
41
1
10
14.3690856147748
20
0.261799958878157
30
0
41
1
10
14.3968249967398
20
0.246891626739483
30
0
41
1
10
14.410210188604
20
0.240459518216625
30
0
41
1
10
14.4285981031906
20
0.232381861286967
30
0
41
1
10
14.4344379642189
20
0.229949898509545
30
0
41
1
10
14.4452076840377
20
0.225610370759739
30
0
41
1
10
14.4501396437345
20
0.223702746972833
30
0
41
1
10
14.4543545101046
20
0.222060657742532
30
0
0
SPLINE
5
C5
100
AcDbEntity
8
1
62
256
6
ByLayer
370
18
48
1
60
0
100
AcDbSpline
70
4
71
3
72
20
73
16
40
0
40
0
40
0
40
0
40
0.0580585619823399
40
0.0580585619823399
40
0.11611712396468
40
0.11611712396468
40
0.23223424792936
40
0.23223424792936
40
0.348351371894039
40
0.348351371894039
40
0.464468495858719
40
0.464468495858719
40
0.928936991717414
40
0.928936991717414
40
1
40
1
40
1
40
1
41
1
10
14.1116184950081
20
0.943655555641328
30
0
41
1
10
14.0980305634368
20
0.942171228709242
30
0
41
1
10
14.0850313496704
20
0.940357804244769
30
0
41
1
10
14.0594341766933
20
0.936383505854877
30
0
41
1
10
14.0468179617884
20
0.93423389790982
30
0
41
1
10
14.0090578175338
20
0.927508225283219
30
0
41
1
10
13.9840782743465
20
0.922612413282422
30
0
41
1
10
13.9337979367124
20
0.912409390561351
30
0
41
1
10
13.9085886044165
20
0.9070573966344
30
0
41
1
10
13.8583170593538
20
0.895665674600934
30
0
41
1
10
13.8331901878239
20
0.889666577039037
30
0
41
1
10
13.7074420724961
20
0.858273475736439
30
0
41
1
10
13.60662130822
20
0.828429435844924
30
0
41
1
10
13.4907370758244
20
0.78916890094348
30
0
41
1
10
13.4753600557297
20
0.783863402758499
30
0
41
1
10
13.459982075275
20
0.778463739293983
30
0
0
SPLINE
5
C6
100
AcDbEntity
8
1
62
256
6
ByLayer
370
18
48
1
60
0
100
AcDbSpline
70
4
71
3
72
52
73
48
40
0
40
0
40
0
40
0
40
0.0214646291841281
40
0.0214646291841281
40
0.0530302863072209
40
0.0530302863072209
40
0.116161600553407
40
0.116161600553407
40
0.179292914799592
40
0.179292914799592
40
0.210858571922685
40
0.210858571922685
40
0.242424229045778
40
0.242424229045778
40
0.305555543291964
40
0.305555543291964
40
0.337121200415057
40
0.337121200415057
40
0.368686857538151
40
0.368686857538151
40
0.431818171784338
40
0.431818171784338
40
0.463383828907431
40
0.463383828907431
40
0.494949486030524
40
0.494949486030524
40
0.558080800276708
40
0.558080800276708
40
0.589646457399801
40
0.589646457399801
40
0.621212114522894
40
0.621212114522894
40
0.684343428769078
40
0.684343428769078
40
0.71590908589217
40
0.71590908589217
40
0.747474743015262
40
0.747474743015262
40
0.810606057261446
40
0.810606057261446
40
0.842171714384539
40
0.842171714384539
40
0.873737371507632
40
0.873737371507632
40
0.936868685753816
40
0.936868685753816
40
1
40
1
40
1
40
1
41
1
10
9.23569642363813
20
-0.979999603200099
30
0
41
1
10
9.20147171263156
20
-0.980002634875802
30
0
41
1
10
9.16724812956801
20
-0.97940719198769
30
0
41
1
10
9.08280049082958
20
-0.976470193195297
30
0
41
1
10
9.03257645667259
20
-0.973440046694208
30
0
41
1
10
8.88191716431771
20
-0.960543935081432
30
0
41
1
10
8.78147055063783
20
-0.946863665782558
30
0
41
1
10
8.58010173345934
20
-0.909482225983766
30
0
41
1
10
8.47971176904329
20
-0.885983802153817
30
0
41
1
10
8.32905524137217
20
-0.844000017453112
30
0
41
1
10
8.27882779559866
20
-0.828879141020991
30
0
41
1
10
8.17827640254322
20
-0.796443654867119
30
0
41
1
10
8.12789648095597
20
-0.779099671273286
30
0
41
1
10
7.97699307601857
20
-0.72407360304328
30
0
41
1
10
7.87662735701196
20
-0.683566578120036
30
0
41
1
10
7.72593982005975
20
-0.617744673919589
30
0
41
1
10
7.67569067556482
20
-0.594955429480109
30
0
41
1
10
7.57507159978886
20
-0.547777413770547
30
0
41
1
10
7.52467468171844
20
-0.523359096961201
30
0
41
1
10
7.37389171214409
20
-0.448230974555884
30
0
41
1
10
7.27355070973138
20
-0.395766405364043
30
0
41
1
10
7.12283158585143
20
-0.314288667250821
30
0
41
1
10
7.07255864614586
20
-0.286663126631424
30
0
41
1
10
6.97186671376338
20
-0.230602724132893
30
0
41
1
10
6.9215194925217
20
-0.202187920782734
30
0
41
1
10
6.77081102028188
20
-0.116392607357909
30
0
41
1
10
6.67047640060005
20
-0.058526497968785
30
0
41
1
10
6.51968392190912
20
0.02840959211062
30
0
41
1
10
6.46935509132723
20
0.0574289535290404
30
0
41
1
10
6.36860947698005
20
0.115337395010357
30
0
41
1
10
6.31834436259521
20
0.144157066498565
30
0
41
1
10
6.16770956422508
20
0.22993225461579
30
0
41
1
10
6.06737695043267
20
0.285993799456833
30
0
41
1
10
5.91651906275729
20
0.367581273411702
30
0
41
1
10
5.86611365749496
20
0.394394433855666
30
0
41
1
10
5.76546128719104
20
0.44687269082354
30
0
41
1
10
5.71522656734672
20
0.472539331941505
30
0
41
1
10
5.56465209600367
20
0.54760046411036
30
0
41
1
10
5.46429889220553
20
0.594845357506813
30
0
41
1
10
5.31333274202518
20
0.660850221159336
30
0
41
1
10
5.26289895996857
20
0.682057096981794
30
0
41
1
10
5.16240357060431
20
0.722499366714231
30
0
41
1
10
5.11228512258964
20
0.741780235609014
30
0
41
1
10
4.96213743602442
20
0.796604489897618
30
0
41
1
10
4.86220451644206
20
0.829013817003414
30
0
41
1
10
4.66202991114017
20
0.885004529870741
30
0
41
1
10
4.56179581265735
20
0.90859421366136
30
0
41
1
10
4.46110400000001
20
0.927427389317728
30
0
0
SPLINE
5
C7
100
AcDbEntity
8
1
62
256
6
ByLayer
370
18
48
1
60
0
100
AcDbSpline
70
4
71
3
72
39
73
35
40
0
40
0
40
0
40
0
40
0.0656433357580197
40
0.090259586667277
40
0.114875837576534
40
0.147697505455544
40
0.180519173334554
40
0.213340841213564
40
0.246162509092574
40
0.278984176971584
40
0.295395010911089
40
0.328216678790098
40
0.361038346669108
40
0.393860014548118
40
0.426681682427128
40
0.459503350306138
40
0.484119601215395
40
0.508735852124652
40
0.541557520003662
40
0.574379187882672
40
0.607200855761682
40
0.640022523640692
40
0.664638774549949
40
0.689255025459206
40
0.722076693338216
40
0.754898361217226
40
0.787720029096236
40
0.820541696975246
40
0.853363364854256
40
0.869774198793761
40
0.90259586667277
40
0.93541753455178
40
0.96823920243079
40
1
40
1
40
1
40
1
41
1
10
4.46110400000001
20
0.135807484665179
30
0
41
1
10
4.51374729698997
20
0.129467072232302
30
0
41
1
10
4.58613183035112
20
0.12049485416668
30
0
41
1
10
4.67825760008358
20
0.108687025690841
30
0
41
1
10
4.744061721321
20
0.10010963186997
30
0
41
1
10
4.81644625468221
20
0.0905015704659604
30
0
41
1
10
4.89541120016713
20
0.0798213081498602
30
0
41
0.999999999999999
10
4.97437614565206
20
0.0689622175295881
30
0
41
1
10
5.05334109113698
20
0.0579367001971036
30
0
41
1
10
5.11914521237441
20
0.0486344952295497
30
0
41
1
10
5.18494933361185
20
0.039287626248182
30
0
41
1
10
5.25075345484928
20
0.0298942636682114
30
0
41
1
10
5.32971840033425
20
0.0185633086884707
30
0
41
1
10
5.40868334581901
20
0.0071946686537387
30
0
41
1
10
5.48764829130456
20
-0.0041932432990563
30
0
41
1
10
5.56003282466315
20
-0.0146325463414883
30
0
41
1
10
5.62583694591314
20
-0.0241081564893193
30
0
41
1
10
5.69164106709073
20
-0.0335678719672217
30
0
41
1
10
5.76402560065691
20
-0.0439028272662938
30
0
41
1
10
5.8429905455323
20
-0.0550677549823035
30
0
41
1
10
5.92195549314777
20
-0.0661052351402986
30
0
41
1
10
5.99434001776808
20
-0.0760891362897098
30
0
41
1
10
6.06014407680081
20
-0.0850450933751289
30
0
41
1
10
6.12594810602849
20
-0.0938914396027713
30
0
41
1
10
6.19833249712662
20
-0.103462277196485
30
0
41
1
10
6.27729724228257
20
-0.113706065693833
30
0
41
1
10
6.35626194685983
20
-0.123694000942578
30
0
41
1
10
6.43522661569114
20
-0.133396189212362
30
0
41
1
10
6.5010304805655
20
-0.141235801993531
30
0
41
1
10
6.56683432906772
20
-0.148880026130485
30
0
41
1
10
6.63263816268971
20
-0.156324961735066
30
0
41
1
10
6.71160274400844
20
-0.164925202418544
30
0
41
1
10
6.78971654012881
20
-0.17308729535398
30
0
41
1
10
6.8415088077827
20
-0.178265751909294
30
0
41
1
10
6.86697955542883
20
-0.180752049451996
30
0
0
SPLINE
5
C8
100
AcDbEntity
8
1
62
256
6
ByLayer
370
18
48
1
60
0
100
AcDbSpline
70
4
71
3
72
24
73
20
40
0
40
0
40
0
40
0
40
0.124999999999999
40
0.124999999999999
40
0.249999999999997
40
0.249999999999997
40
0.374999999999996
40
0.374999999999996
40
0.499999999999995
40
0.499999999999995
40
0.624999999999994
40
0.624999999999994
40
0.749999999999993
40
0.749999999999993
40
0.874999999999991
40
0.874999999999991
40
0.937499999999996
40
0.937499999999996
40
1
40
1
40
1
40
1
41
1
10
14.4543545101046
20
0.222060657742532
30
0
41
1
10
14.4460145714177
20
0.251485296369424
30
0
41
1
10
14.4349310126721
20
0.280540249565917
30
0
41
1
10
14.4105714922312
20
0.338700311859924
30
0
41
1
10
14.3972382836071
20
0.367790886705052
30
0
41
1
10
14.3695355996889
20
0.426336953661149
30
0
41
1
10
14.3551381398273
20
0.455791616069519
30
0
41
1
10
14.3258545310301
20
0.515057704475993
30
0
41
1
10
14.3109505547185
20
0.544888537161398
30
0
41
1
10
14.2808862463546
20
0.604848308464909
30
0
41
1
10
14.2657277837404
20
0.634944503487816
30
0
41
1
10
14.2351917071505
20
0.695700965169436
30
0
41
1
10
14.2198193663636
20
0.726364104043824
30
0
41
1
10
14.1889329129258
20
0.788529809387882
30
0
41
1
10
14.1734225858277
20
0.819990798344435
30
0
41
1
10
14.150192197753
20
0.866871049601883
30
0
41
1
10
14.1424547042245
20
0.882441389229029
30
0
41
1
10
14.1270137410418
20
0.913274147918827
30
0
41
1
10
14.1193105287868
20
0.928532380605532
30
0
41
1
10
14.111618495008
20
0.943655555641328
30
0
0
SPLINE
5
C9
100
AcDbEntity
8
1
62
256
6
ByLayer
370
18
48
1
60
0
100
AcDbSpline
70
4
71
3
72
70
73
66
40
0
40
0
40
0
40
0
40
0.0021270067293366
40
0.0021270067293366
40
0.0255013237404978
40
0.0255013237404978
40
0.0722499577628205
40
0.0722499577628205
40
0.083937116268401
40
0.083937116268401
40
0.0956242747739814
40
0.0956242747739814
40
0.118998591785143
40
0.118998591785143
40
0.165747225807468
40
0.165747225807468
40
0.259244493852121
40
0.259244493852121
40
0.270931652357701
40
0.270931652357701
40
0.282618810863282
40
0.282618810863282
40
0.305993127874443
40
0.305993127874443
40
0.352741761896768
40
0.352741761896768
40
0.446239029941421
40
0.446239029941421
40
0.469613346952585
40
0.469613346952585
40
0.492987663963748
40
0.492987663963748
40
0.516361980974912
40
0.516361980974912
40
0.528049139480495
40
0.528049139480495
40
0.539736297986078
40
0.539736297986078
40
0.586484932008408
40
0.586484932008408
40
0.633233566030738
40
0.633233566030738
40
0.679982200053068
40
0.679982200053068
40
0.703356517064234
40
0.703356517064234
40
0.7267308340754
40
0.7267308340754
40
0.773479468097733
40
0.773479468097733
40
0.796853785108899
40
0.796853785108899
40
0.820228102120065
40
0.820228102120065
40
0.866976736142397
40
0.866976736142397
40
0.890351053153562
40
0.890351053153562
40
0.913725370164727
40
0.913725370164727
40
0.96047400418706
40
0.96047400418706
40
0.983848321198226
40
0.983848321198226
40
1
40
1
40
1
40
1
41
1
10
7.01447629028493
20
0.979999975364535
30
0
41
1
10
7.01907251432814
20
0.979999556316614
30
0
41
1
10
7.0236695336321
20
0.979988357785118
30
0
41
1
10
7.07879446844288
20
0.979724787158773
30
0
41
1
10
7.12923889070504
20
0.978182601357986
30
0
41
1
10
7.28044396100483
20
0.969703130689851
30
0
41
1
10
7.38106699706762
20
0.958915480597597
30
0
41
1
10
7.50704013971637
20
0.939089893243022
30
0
41
1
10
7.5322526342764
20
0.934811146360772
30
0
41
1
10
7.58272964570156
20
0.925634203931025
30
0
41
1
10
7.60800741388005
20
0.920732588872966
30
0
41
1
10
7.68365782691268
20
0.905161854696274
30
0
41
1
10
7.73392798233101
20
0.893612356523363
30
0
41
1
10
7.88437366398608
20
0.855609088306608
30
0
41
1
10
7.98416842719959
20
0.825790563088958
30
0
41
1
10
8.28304662937438
20
0.723932480596233
30
0
41
1
10
8.48214289762501
20
0.640101220264285
30
0
41
1
10
8.70881481644022
20
0.530946982788436
30
0
41
1
10
8.73407234177932
20
0.51860279784924
30
0
41
1
10
8.78453745356396
20
0.493627460748797
30
0
41
1
10
8.80973141113606
20
0.48100510176721
30
0
41
1
10
8.8852006491764
20
0.442741888309655
30
0
41
1
10
8.93536775987189
20
0.416712091606797
30
0
41
1
10
9.08555468952375
20
0.33727529114762
30
0
41
1
10
9.18525415444597
20
0.282512323764308
30
0
41
1
10
9.48399600490086
20
0.114378731105319
30
0
41
1
10
9.68327581633378
20
-0.0017959558925327
30
0
41
1
10
9.93564899602211
20
-0.146770848682451
30
0
41
1
10
9.98611116338867
20
-0.175569884071081
30
0
41
1
10
10.0869078611226
20
-0.232476723469944
30
0
41
1
10
10.1372691210503
20
-0.260616680047292
30
0
41
1
10
10.2379999373553
20
-0.316134203314476
30
0
41
1
10
10.2883679349533
20
-0.343514376716939
30
0
41
1
10
10.3639843071993
20
-0.383914740206421
30
0
41
1
10
10.3892009436752
20
-0.397269143583685
30
0
41
1
10
10.4396617718327
20
-0.423743591641369
30
0
41
1
10
10.4649284366164
20
-0.43687709289253
30
0
41
1
10
10.5910393597775
20
-0.501677495027053
30
0
41
1
10
10.6912786802716
20
-0.550655445490776
30
0
41
1
10
10.8911518082041
20
-0.642108285788055
30
0
41
1
10
10.9907668311455
20
-0.684610770974615
30
0
41
1
10
11.1899754494681
20
-0.762356180473148
30
0
41
1
10
11.2897097032469
20
-0.797429830492774
30
0
41
1
10
11.4400091144208
20
-0.843753761452177
30
0
41
1
10
11.4902228292114
20
-0.858149202832152
30
0
41
1
10
11.5909553235626
20
-0.884744040948164
30
0
41
1
10
11.641535070313
20
-0.896953870293459
30
0
41
1
10
11.7927834665997
20
-0.929887562741811
30
0
41
1
10
11.8934215476068
20
-0.946915637183537
30
0
41
1
10
12.0445861190323
20
-0.964900968101745
30
0
41
1
10
12.0950056086745
20
-0.969636653594279
30
0
41
1
10
12.1959880973174
20
-0.976544171232717
30
0
41
1
10
12.2465060370176
20
-0.97871028801697
30
0
41
1
10
12.397667541429
20
-0.981295073787607
30
0
41
1
10
12.498290268866
20
-0.977816243181366
30
0
41
1
10
12.6495059782609
20
-0.964912747815646
30
0
41
1
10
12.6999630092717
20
-0.959328031806137
30
0
41
1
10
12.8010157814924
20
-0.945598651173327
30
0
41
1
10
12.8514341958739
20
-0.937474690355714
30
0
41
1
10
13.0025277974326
20
-0.909415494570709
30
0
41
1
10
13.1031531877485
20
-0.885860991190043
30
0
41
1
10
13.2544606777471
20
-0.843666092641257
30
0
41
1
10
13.3050258931007
20
-0.828428808612102
30
0
41
1
10
13.3903639900254
20
-0.800869667872632
30
0
41
1
10
13.425173966172
20
-0.789105154594154
30
0
41
1
10
13.4599373314786
20
-0.77685569001153
30
0
0
SPLINE
5
CA
100
AcDbEntity
8
1
62
256
6
ByLayer
370
18
48
1
60
0
100
AcDbSpline
70
4
71
3
72
72
73
68
40
0
40
0
40
0
40
0
40
0.0062953264865805
40
0.0062953264865805
40
0.0125906529731609
40
0.0125906529731609
40
0.0251813059463218
40
0.0251813059463218
40
0.0377719589194827
40
0.0377719589194827
40
0.0503626118926436
40
0.0503626118926436
40
0.100725223785285
40
0.100725223785285
40
0.125906529731605
40
0.125906529731605
40
0.151087835677926
40
0.151087835677926
40
0.201450447570567
40
0.201450447570567
40
0.226631753516888
40
0.226631753516888
40
0.25181305946321
40
0.25181305946321
40
0.302175671355854
40
0.302175671355854
40
0.327356977302177
40
0.327356977302177
40
0.3525382832485
40
0.3525382832485
40
0.402900895141146
40
0.402900895141146
40
0.428082201087468
40
0.428082201087468
40
0.45326350703379
40
0.45326350703379
40
0.503626118926433
40
0.503626118926433
40
0.528807424872755
40
0.528807424872755
40
0.553988730819077
40
0.553988730819077
40
0.604351342711721
40
0.604351342711721
40
0.629532648658042
40
0.629532648658042
40
0.654713954604364
40
0.654713954604364
40
0.705076566497005
40
0.705076566497005
40
0.730257872443324
40
0.730257872443324
40
0.755439178389643
40
0.755439178389643
40
0.805801790282284
40
0.805801790282284
40
0.830983096228604
40
0.830983096228604
40
0.856164402174923
40
0.856164402174923
40
0.906527014067564
40
0.906527014067564
40
0.956889625960205
40
0.956889625960205
40
0.982070931906525
40
0.982070931906525
40
1
40
1
40
1
40
1
41
1
10
14.1116184950081
20
-0.943655555641328
30
0
41
1
10
14.0980305634368
20
-0.942171228709242
30
0
41
1
10
14.0850313496704
20
-0.940357804244769
30
0
41
1
10
14.0594341766933
20
-0.936383505854877
30
0
41
1
10
14.0468179617884
20
-0.93423389790982
30
0
41
1
10
14.0090578175338
20
-0.927508225283219
30
0
41
1
10
13.9840782743466
20
-0.922612413282422
30
0
41
1
10
13.9337979367124
20
-0.912409390561351
30
0
41
1
10
13.9085886044165
20
-0.907057396634372
30
0
41
1
10
13.8583170593538
20
-0.895665674600906
30
0
41
1
10
13.8331901878239
20
-0.889666577039037
30
0
41
1
10
13.7074420724961
20
-0.858273475736439
30
0
41
1
10
13.60662130822
20
-0.828429435844981
30
0
41
1
10
13.455861059668
20
-0.777353220576686
30
0
41
1
10
13.4056117011118
20
-0.759304968798801
30
0
41
1
10
13.305027541951
20
-0.721275028864937
30
0
41
1
10
13.25467355029
20
-0.701277824297392
30
0
41
1
10
13.1035355884923
20
-0.638563425727881
30
0
41
1
10
13.0031490566515
20
-0.593298036056098
30
0
41
1
10
12.8526085680544
20
-0.52092960877971
30
0
41
1
10
12.8024073528211
20
-0.496100819697148
30
0
41
1
10
12.7018548441409
20
-0.445193295347877
30
0
41
1
10
12.6514475140982
20
-0.419072831849405
30
0
41
1
10
12.5004388981016
20
-0.339270370137541
30
0
41
1
10
12.4000826571837
20
-0.284153957586085
30
0
41
1
10
12.2495235030039
20
-0.199430455714037
30
0
41
1
10
12.1992992158145
20
-0.170904573394921
30
0
41
1
10
12.0986761410575
20
-0.113452785091397
30
0
41
1
10
12.0482511917061
20
-0.0844976187493671
30
0
41
1
10
11.8973351478151
20
0.0023726567753499
30
0
41
1
10
11.7969894967052
20
0.0604400074005866
30
0
41
1
10
11.6463859494058
20
0.146930137120705
30
0
41
1
10
11.5961348607941
20
0.175596423827329
30
0
41
1
10
11.4954398506599
20
0.232440643228017
30
0
41
1
10
11.4450632144893
20
0.260585238754175
30
0
41
1
10
11.2942446653728
20
0.343715457380142
30
0
41
1
10
11.1939210238375
20
0.397527752243945
30
0
41
1
10
11.043264655863
20
0.475002930983521
30
0
41
1
10
10.9929636254516
20
0.500243544049397
30
0
41
1
10
10.8922219832746
20
0.549346598545299
30
0
41
1
10
10.8419308613528
20
0.573146435777232
30
0
41
1
10
10.6911750139476
20
0.642141581357407
30
0
41
1
10
10.590843164693
20
0.684956186752061
30
0
41
1
10
10.4400935046387
20
0.743705101496801
30
0
41
1
10
10.3897135347974
20
0.762364178867159
30
0
41
1
10
10.2890531631814
20
0.797536808300578
30
0
41
1
10
10.2387913444491
20
0.814058855715501
30
0
41
1
10
10.0880900396598
20
0.860338707507537
30
0
41
1
10
9.98774569967631
20
0.886824438986508
30
0
41
1
10
9.83691697714463
20
0.919522058248077
30
0
41
1
10
9.78652114705548
20
0.929229137730147
30
0
41
1
10
9.68593354857961
20
0.946107102352499
30
0
41
1
10
9.63569544278556
20
0.953296843247017
30
0
41
1
10
9.48502483619546
20
0.971090607353631
30
0
41
1
10
9.38464746343828
20
0.977928241237777
30
0
41
1
10
9.23369161904299
20
0.98043165499476
30
0
41
1
10
9.18333342756796
20
0.979966621493446
30
0
41
1
10
9.08280049082958
20
0.976470193195297
30
0
41
1
10
9.03257645667259
20
0.973440046694208
30
0
41
1
10
8.88191716431768
20
0.960543935081461
30
0
41
1
10
8.78147055063781
20
0.946863665782558
30
0
41
1
10
8.58010173345934
20
0.909482225983766
30
0
41
1
10
8.47971176904326
20
0.885983802153817
30
0
41
1
10
8.3290552413722
20
0.844000017453112
30
0
41
1
10
8.27882779559866
20
0.828879141021019
30
0
41
1
10
8.19275584654878
20
0.801114378874871
30
0
41
1
10
8.15690675788622
20
0.788996420317716
30
0
41
1
10
8.12107088982967
20
0.776353795635032
30
0
0
SPLINE
5
CB
100
AcDbEntity
8
1
62
256
6
ByLayer
370
18
48
1
60
0
100
AcDbSpline
70
4
71
3
72
47
73
43
40
0
40
0
40
0
40
0
40
0.0010625927613346
40
0.0289641750443701
40
0.0568657573274061
40
0.0847673396104416
40
0.112668921893478
40
0.126619713034995
40
0.154521295318031
40
0.182422877601067
40
0.210324459884103
40
0.238226042167138
40
0.266127624450174
40
0.287053811162451
40
0.307979997874728
40
0.335881580157763
40
0.363783162440799
40
0.391684744723835
40
0.419586327006871
40
0.447487909289906
40
0.461438700431424
40
0.48934028271446
40
0.517241864997496
40
0.545143447280532
40
0.573045029563568
40
0.600946611846603
40
0.614897402988121
40
0.642798985271157
40
0.670700567554192
40
0.698602149837228
40
0.726503732120264
40
0.7544053144033
40
0.775331501115576
40
0.796257687827853
40
0.824159270110889
40
0.852060852393925
40
0.87996243467696
40
0.907864016959996
40
0.928790203672273
40
0.94971639038455
40
0.977617972667586
40
1
40
1
40
1
40
1
41
1
10
9.39340299546694
20
0.179695316677169
30
0
41
1
10
9.39440542166236
20
0.179596956170798
30
0
41
1
10
9.4217295752324
20
0.176913337134096
30
0
41
1
10
9.47537545618297
20
0.171510558879362
30
0
41
1
10
9.55434063826721
20
0.163192602398596
30
0
41
1
10
9.63330582053012
20
0.1545236772929
30
0
41
1
10
9.69911013836969
20
0.147019002993659
30
0
41
1
10
9.76491445954224
20
0.139313963478486
30
0
41
1
10
9.83071876990252
20
0.131413452441535
30
0
41
1
10
9.90968374741078
20
0.121624068075704
30
0
41
1
10
9.98864857623931
20
0.111583868937487
30
0
41
1
10
10.0676132703308
20
0.101317713281759
30
0
41
0.999999999999999
10
10.1399974687893
20
0.0917122232409611
30
0
41
1
10
10.2058012162294
20
0.0828398851180054
30
0
41
1
10
10.2716049134339
20
0.0738555391625368
30
0
41
1
10
10.3439889274817
20
0.0638391246547201
30
0
41
1
10
10.4229532598851
20
0.0527664661885297
30
0
41
1
10
10.501917565083
20
0.0415570419098969
30
0
41
1
10
10.5808818624306
20
0.0302630992961781
30
0
41
1
10
10.6466854531408
20
0.0208143131804377
30
0
41
1
10
10.7124890631348
20
0.0113436748146682
30
0
41
1
10
10.7782926984768
20
0.001859486884257
30
0
41
1
10
10.8572571207357
20
-0.0095250180108053
30
0
41
1
10
10.9362216223625
20
-0.0208942981860503
30
0
41
1
10
11.0151862221332
20
-0.0322274470262585
30
0
41
1
10
11.0809901554174
20
-0.0416297079265746
30
0
41
1
10
11.1467941657886
20
-0.0509798654620113
30
0
41
1
10
11.2125983030434
20
-0.0602491100877955
30
0
41
1
10
11.2915632876247
20
-0.0712263004211025
30
0
41
1
10
11.3705282683409
20
-0.0820449642864105
30
0
41
1
10
11.4494932500307
20
-0.0926837794915514
30
0
41
1
10
11.5218778162892
20
-0.102255334530526
30
0
41
1
10
11.5876819675329
20
-0.110800218392001
30
0
41
1
10
11.6534861187454
20
-0.119200448894787
30
0
41
1
10
11.7258706850868
20
-0.128253822987489
30
0
41
1
10
11.8048356665483
20
-0.137834352138043
30
0
41
1
10
11.8838006480103
20
-0.147104806838485
30
0
41
1
10
11.9561852143504
20
-0.155305399286817
30
0
41
1
10
12.0219893655687
20
-0.162513740204645
30
0
41
0.999999999999999
10
12.0877935167866
20
-0.169503387380274
30
0
41
1
10
12.1549710719275
20
-0.176372256373639
30
0
41
1
10
12.2024073817002
20
-0.181017900305278
30
0
41
1
10
12.2235220309877
20
-0.183044983044056
30
0
0
SPLINE
5
CC
100
AcDbEntity
8
1
62
256
6
ByLayer
370
18
48
1
60
0
100
AcDbSpline
70
4
71
3
72
22
73
18
40
0
40
0
40
0
40
0
40
0.0239729362776941
40
0.0239729362776941
40
0.186644113564743
40
0.186644113564743
40
0.349315290851792
40
0.349315290851792
40
0.511986468138841
40
0.511986468138841
40
0.674657645425889
40
0.674657645425889
40
0.837328822712938
40
0.837328822712938
40
0.918664411356469
40
0.918664411356469
40
1
40
1
40
1
40
1
41
1
10
14.3894749881634
20
-0.384133311245563
30
0
41
1
10
14.3874582477758
20
-0.388439918396244
30
0
41
1
10
14.3854282211401
20
-0.392749937964936
30
0
41
1
10
14.3695355996889
20
-0.426336953661149
30
0
41
1
10
14.3551381398273
20
-0.455791616069519
30
0
41
1
10
14.3258545310301
20
-0.515057704475964
30
0
41
1
10
14.3109505547185
20
-0.54488853716137
30
0
41
1
10
14.2808862463546
20
-0.604848308464909
30
0
41
1
10
14.2657277837404
20
-0.634944503487816
30
0
41
1
10
14.2351917071505
20
-0.695700965169436
30
0
41
1
10
14.2198193663636
20
-0.726364104043824
30
0
41
1
10
14.1889329129258
20
-0.78852980938791
30
0
41
1
10
14.1734225858277
20
-0.819990798344435
30
0
41
1
10
14.150192197753
20
-0.866871049601855
30
0
41
1
10
14.1424547042245
20
-0.882441389229029
30
0
41
1
10
14.1270137410418
20
-0.913274147918827
30
0
41
1
10
14.1193105287868
20
-0.928532380605532
30
0
41
1
10
14.111618495008
20
-0.943655555641328
30
0
0
SPLINE
5
CD
100
AcDbEntity
8
1
62
256
6
ByLayer
370
18
48
1
60
0
100
AcDbSpline
70
4
71
3
72
44
73
40
40
0
40
0
40
0
40
0
40
0.125000000000004
40
0.125000000000004
40
0.187500000000004
40
0.187500000000004
40
0.250000000000003
40
0.250000000000003
40
0.312500000000003
40
0.312500000000003
40
0.375000000000002
40
0.375000000000002
40
0.500000000000001
40
0.500000000000001
40
0.531250000000004
40
0.531250000000004
40
0.562500000000007
40
0.562500000000007
40
0.625000000000009
40
0.625000000000009
40
0.687500000000011
40
0.687500000000011
40
0.71875000000001
40
0.71875000000001
40
0.75000000000001
40
0.75000000000001
40
0.812500000000008
40
0.812500000000008
40
0.828125000000007
40
0.828125000000007
40
0.843750000000007
40
0.843750000000007
40
0.875000000000006
40
0.875000000000006
40
0.937500000000003
40
0.937500000000003
40
0.968750000000001
40
0.968750000000001
40
1
40
1
40
1
40
1
41
1
10
4.46110400000001
20
-0.06529646840346
30
0
41
1
10
4.38642809921024
20
-0.0435891963218182
30
0
41
1
10
4.31325610434621
20
-0.0177266959684061
30
0
41
1
10
4.20575190175404
20
0.0273242916401841
30
0
41
1
10
4.17031019964628
20
0.0433842263429938
30
0
41
1
10
4.10058848777129
20
0.0774212238856364
30
0
41
1
10
4.06625873288465
20
0.0954180933894975
30
0
41
1
10
3.99868067601054
20
0.133375122651017
30
0
41
1
10
3.96534334289345
20
0.153396384806626
30
0
41
1
10
3.90046823247906
20
0.194986391743015
30
0
41
1
10
3.86888002868153
20
0.216575813028129
30
0
41
1
10
3.77673250442868
20
0.283627645975599
30
0
41
1
10
3.718756942048
20
0.331356104113269
30
0
41
1
10
3.65120240765407
20
0.394678946644547
30
0
41
1
10
3.63793990514731
20
0.407528025829237
30
0
41
1
10
3.61194006118092
20
0.433598962116975
30
0
41
1
10
3.59916080762341
20
0.446866584582068
30
0
41
1
10
3.56200668814412
20
0.486869665149499
30
0
41
1
10
3.5388692013691
20
0.513726428164034
30
0
41
1
10
3.49608193166779
20
0.567610973456993
30
0
41
1
10
3.47642796209706
20
0.594639351796559
30
0
41
1
10
3.44989131387649
20
0.635152864236858
30
0
41
1
10
3.44159390183083
20
0.648574610153958
30
0
41
1
10
3.42631438354084
20
0.674897175608436
30
0
41
1
10
3.41930023145972
20
0.687846226456855
30
0
41
1
10
3.40017107312454
20
0.7260020845344
30
0
41
1
10
3.38995534192318
20
0.750521175885353
30
0
41
1
10
3.38065498129777
20
0.779800999869224
30
0
41
1
10
3.37896947612197
20
0.785588233510282
30
0
41
1
10
3.37596000989186
20
0.797018388379314
30
0
41
1
10
3.37463708608911
20
0.80266297072086
30
0
41
1
10
3.37126816363468
20
0.81915630357534
30
0
41
1
10
3.36979966922758
20
0.829640219045899
30
0
41
1
10
3.36767635914708
20
0.859578156591965
30
0
41
1
10
3.36928964666242
20
0.87752363373653
30
0
41
1
10
3.37631125464694
20
0.901409402050803
30
0
41
1
10
3.37943936881902
20
0.908882891952459
30
0
41
1
10
3.3871479010522
20
0.922592902816803
30
0
41
1
10
3.3917311865535
20
0.928858614395523
30
0
41
1
10
3.39702738198042
20
0.93456095501341
30
0
0
LINE
5
7F
100
AcDbEntity
8
1
62
256
6
ByLayer
370
18
48
1
60
0
100
AcDbLine
10
0
20
1.5
30
0
11
0
21
0
31
0
39
0
210
0
220
0
230
1
0
LINE
5
80
100
AcDbEntity
8
1
62
256
6
ByLayer
370
18
48
1
60
0
100
AcDbLine
10
0
20
0
30
0
11
0
21
-1.5
31
0
39
0
210
0
220
0
230
1
0
LINE
5
81
100
AcDbEntity
8
1
62
256
6
ByLayer
370
18
48
1
60
0
100
AcDbLine
10
14.111618
20
0.50011
30
0
11
14.111618
21
-0.943656
31
0
39
0
210
0
220
0
230
1
0
LINE
5
82
100
AcDbEntity
8
1
62
256
6
ByLayer
370
18
48
1
60
0
100
AcDbLine
10
4.461104
20
0.927427
30
0
11
4.461104
21
0.135807
31
0
39
0
210
0
220
0
230
1
0
LINE
5
83
100
AcDbEntity
8
1
62
256
6
ByLayer
370
13
48
1
60
0
100
AcDbLine
10
1.168644
20
0.98
30
0
11
1.168644
21
-0.98
31
0
39
0
210
0
220
0
230
1
0
LINE
5
84
100
AcDbEntity
8
1
62
256
6
ByLayer
370
18
48
1
60
0
100
AcDbLine
10
4.461104
20
0.135807
30
0
11
4.461104
21
-0.065296
31
0
39
0
210
0
220
0
230
1
0
LINE
5
85
100
AcDbEntity
8
1
62
256
6
ByLayer
370
18
48
1
60
0
100
AcDbLine
10
2.8E-05
20
1.5
30
0
11
2.8E-05
21
-1.5
31
0
39
0
210
0
220
0
230
1
0
LINE
5
86
100
AcDbEntity
8
1
62
256
6
ByLayer
370
13
48
1
60
0
100
AcDbLine
10
0.668644
20
1.113975
30
0
11
0.668644
21
-1.113975
31
0
39
0
210
0
220
0
230
1
0
LINE
5
87
100
AcDbEntity
8
SK1
62
256
6
ByLayer
370
18
48
1
60
0
100
AcDbLine
10
-23.4314
20
1.326795
30
0
11
-23.4314
21
-1.326795
31
0
39
0
210
0
220
0
230
1
0
LINE
5
89
100
AcDbEntity
8
SK1
62
256
6
ByLayer
370
18
48
1
60
0
100
AcDbLine
10
0
20
1.5
30
0
11
0
21
0
31
0
39
0
210
0
220
0
230
1
0
LINE
5
8A
100
AcDbEntity
8
SK1
62
256
6
ByLayer
370
18
48
1
60
0
100
AcDbLine
10
0
20
0
30
0
11
0
21
-1.5
31
0
39
0
210
0
220
0
230
1
0
LINE
5
8B
100
AcDbEntity
8
SK1
62
256
6
ByLayer
370
18
48
1
60
0
100
AcDbLine
10
-23.1314
20
1.5
30
0
11
-23.1314
21
-1.5
31
0
39
0
210
0
220
0
230
1
0
LINE
5
8C
100
AcDbEntity
8
1
62
256
6
ByLayer
370
18
48
1
60
0
100
AcDbLine
10
0
20
-1.5
30
0
11
2.8E-05
21
-1.5
31
0
39
0
210
0
220
0
230
1
0
LINE
5
8D
100
AcDbEntity
8
1
62
256
6
ByLayer
370
18
48
1
60
0
100
AcDbLine
10
2.8E-05
20
1.5
30
0
11
0
21
1.5
31
0
39
0
210
0
220
0
230
1
0
LINE
5
8E
100
AcDbEntity
8
1
62
256
6
ByLayer
370
18
48
1
60
0
100
AcDbLine
10
14.5686
20
0
30
0
11
14.388993
21
0.385168
31
0
39
0
210
0
220
0
230
1
0
LINE
5
8F
100
AcDbEntity
8
1
62
256
6
ByLayer
370
18
48
1
60
0
100
AcDbLine
10
14.388993
20
-0.385168
30
0
11
14.5686
21
0
31
0
39
0
210
0
220
0
230
1
0
LINE
5
90
100
AcDbEntity
8
1
62
256
6
ByLayer
370
18
48
1
60
0
100
AcDbLine
10
1.168644
20
-0.98
30
0
11
7.014307
21
-0.98
31
0
39
0
210
0
220
0
230
1
0
LINE
5
91
100
AcDbEntity
8
1
62
256
6
ByLayer
370
18
48
1
60
0
100
AcDbLine
10
9.235545
20
-0.98
30
0
11
12.346731
21
-0.98
31
0
39
0
210
0
220
0
230
1
0
LINE
5
92
100
AcDbEntity
8
1
62
256
6
ByLayer
370
18
48
1
60
0
100
AcDbLine
10
12.346731
20
0.98
30
0
11
9.235545
21
0.98
31
0
39
0
210
0
220
0
230
1
0
LINE
5
93
100
AcDbEntity
8
1
62
256
6
ByLayer
370
18
48
1
60
0
100
AcDbLine
10
7.014307
20
0.98
30
0
11
1.168644
21
0.98
31
0
39
0
210
0
220
0
230
1
0
LINE
5
94
100
AcDbEntity
8
1
62
256
6
ByLayer
370
18
48
1
60
0
100
AcDbLine
10
0.668644
20
1.113975
30
0
11
2.8E-05
21
1.5
31
0
39
0
210
0
220
0
230
1
0
LINE
5
95
100
AcDbEntity
8
1
62
256
6
ByLayer
370
18
48
1
60
0
100
AcDbLine
10
2.8E-05
20
-1.5
30
0
11
0.668644
21
-1.113975
31
0
39
0
210
0
220
0
230
1
0
LINE
5
96
100
AcDbEntity
8
SK1
62
256
6
ByLayer
370
18
48
1
60
0
100
AcDbLine
10
-23.4314
20
-1.326795
30
0
11
-23.1314
21
-1.5
31
0
39
0
210
0
220
0
230
1
0
LINE
5
97
100
AcDbEntity
8
SK1
62
256
6
ByLayer
370
18
48
1
60
0
100
AcDbLine
10
-23.1314
20
1.5
30
0
11
-23.4314
21
1.326795
31
0
39
0
210
0
220
0
230
1
0
LINE
5
98
100
AcDbEntity
8
SK1
62
256
6
ByLayer
370
18
48
1
60
0
100
AcDbLine
10
-23.1314
20
-1.5
30
0
11
0
21
-1.5
31
0
39
0
210
0
220
0
230
1
0
LINE
5
99
100
AcDbEntity
8
SK1
62
256
6
ByLayer
370
18
48
1
60
0
100
AcDbLine
10
0
20
1.5
30
0
11
-23.1314
21
1.5
31
0
39
0
210
0
220
0
230
1
0
LINE
5
9A
100
AcDbEntity
8
4
62
256
6
ByLayer
370
18
48
0.05
60
0
100
AcDbLine
10
0
20
0
30
0
11
14.5686
21
0
31
0
39
0
210
0
220
0
230
1
0
LINE
5
9C
100
AcDbEntity
8
81
62
256
6
ByLayer
370
18
48
1
60
0
100
AcDbLine
10
14.5686
20
0
30
0
11
17.5686
21
0
31
0
39
0
210
0
220
0
230
1
0
LINE
5
9D
100
AcDbEntity
8
80
62
256
6
ByLayer
370
18
48
1
60
0
100
AcDbLine
10
0
20
0
30
0
11
-3
21
0
31
0
39
0
210
0
220
0
230
1
0
LINE
5
9E
100
AcDbEntity
8
SK4
62
256
6
ByLayer
370
18
48
0.05
60
0
100
AcDbLine
10
-26.4314
20
0
30
0
11
17.5686
21
0
31
0
39
0
210
0
220
0
230
1
0
LINE
5
A0
100
AcDbEntity
8
SK2
62
256
6
ByLayer
370
13
48
1
60
0
100
AcDbLine
10
-27.9314
20
-9
30
0
11
-27.9314
21
21.782741
31
0
39
0
210
0
220
0
230
1
0
LINE
5
A2
100
AcDbEntity
8
SK2
62
256
6
ByLayer
370
13
48
1
60
0
100
AcDbLine
10
-25.0189
20
-1.5
30
0
11
-29.9314
21
-1.5
31
0
39
0
210
0
220
0
230
1
0
LINE
5
A3
100
AcDbEntity
8
SK2
62
256
6
ByLayer
370
13
48
1
60
0
100
AcDbLine
10
-25.0189
20
1.5
30
0
11
-29.9314
21
1.5
31
0
39
0
210
0
220
0
230
1
0
LINE
5
A4
100
AcDbEntity
8
1
62
256
6
ByLayer
370
18
48
1
60
1
100
AcDbLine
10
-27.9314
20
-1.5
30
0
11
-27.470616
21
-4.999998
31
0
39
0
210
0
220
0
230
1
0
LINE
5
A5
100
AcDbEntity
8
1
62
256
6
ByLayer
370
18
48
1
60
1
100
AcDbLine
10
-27.470616
20
-4.999998
30
0
11
-28.392184
21
-5.000002
31
0
39
0
210
0
220
0
230
1
0
LINE
5
A6
100
AcDbEntity
8
1
62
256
6
ByLayer
370
18
48
1
60
1
100
AcDbLine
10
-28.392184
20
-5.000002
30
0
11
-27.9314
21
-1.5
31
0
39
0
210
0
220
0
230
1
0
LINE
5
A7
100
AcDbEntity
8
1
62
256
6
ByLayer
370
18
48
1
60
1
100
AcDbLine
10
-27.9314
20
1.5
30
0
11
-28.392184
21
4.999998
31
0
39
0
210
0
220
0
230
1
0
LINE
5
A8
100
AcDbEntity
8
1
62
256
6
ByLayer
370
18
48
1
60
1
100
AcDbLine
10
-28.392184
20
4.999998
30
0
11
-27.470616
21
5.000002
31
0
39
0
210
0
220
0
230
1
0
LINE
5
A9
100
AcDbEntity
8
1
62
256
6
ByLayer
370
18
48
1
60
1
100
AcDbLine
10
-27.470616
20
5.000002
30
0
11
-27.9314
21
1.5
31
0
39
0
210
0
220
0
230
1
0
LINE
5
AA
100
AcDbEntity
8
2
62
256
6
ByLayer
370
13
48
1
60
0
100
AcDbLine
10
20.0686
20
-8.48
30
0
11
20.0686
21
29.052855
31
0
39
0
210
0
220
0
230
1
0
LINE
5
AC
100
AcDbEntity
8
2
62
256
6
ByLayer
370
13
48
1
60
0
100
AcDbLine
10
16.1561
20
-0.98
30
0
11
22.0686
21
-0.98
31
0
39
0
210
0
220
0
230
1
0
LINE
5
AD
100
AcDbEntity
8
2
62
256
6
ByLayer
370
13
48
1
60
0
100
AcDbLine
10
16.1561
20
0.98
30
0
11
22.0686
21
0.98
31
0
39
0
210
0
220
0
230
1
0
LINE
5
AE
100
AcDbEntity
8
1
62
256
6
ByLayer
370
18
48
1
60
1
100
AcDbLine
10
20.0686
20
-0.98
30
0
11
20.529384
21
-4.479998
31
0
39
0
210
0
220
0
230
1
0
LINE
5
AF
100
AcDbEntity
8
1
62
256
6
ByLayer
370
18
48
1
60
1
100
AcDbLine
10
20.529384
20
-4.479998
30
0
11
19.607816
21
-4.480002
31
0
39
0
210
0
220
0
230
1
0
LINE
5
B0
100
AcDbEntity
8
1
62
256
6
ByLayer
370
18
48
1
60
1
100
AcDbLine
10
19.607816
20
-4.480002
30
0
11
20.0686
21
-0.98
31
0
39
0
210
0
220
0
230
1
0
LINE
5
B1
100
AcDbEntity
8
1
62
256
6
ByLayer
370
18
48
1
60
1
100
AcDbLine
10
20.0686
20
0.98
30
0
11
19.607816
21
4.479998
31
0
39
0
210
0
220
0
230
1
0
LINE
5
B2
100
AcDbEntity
8
1
62
256
6
ByLayer
370
18
48
1
60
1
100
AcDbLine
10
19.607816
20
4.479998
30
0
11
20.529384
21
4.480002
31
0
39
0
210
0
220
0
230
1
0
LINE
5
B3
100
AcDbEntity
8
1
62
256
6
ByLayer
370
18
48
1
60
1
100
AcDbLine
10
20.529384
20
4.480002
30
0
11
20.0686
21
0.98
31
0
39
0
210
0
220
0
230
1
0
LINE
5
B4
100
AcDbEntity
8
SK2
62
256
6
ByLayer
370
13
48
1
60
0
100
AcDbLine
10
15.239506
20
-1.438764
30
0
11
22.323645
21
-16.630748
31
0
39
0
210
0
220
0
230
1
0
LINE
5
B5
100
AcDbEntity
8
SK2
62
256
6
ByLayer
370
13
48
1
60
0
100
AcDbLine
10
15.239506
20
1.438764
30
0
11
22.323645
21
16.630748
31
0
39
0
210
0
220
0
230
1
0
LINE
5
B6
100
AcDbEntity
8
1
62
256
6
ByLayer
370
18
48
1
60
1
100
AcDbLine
10
21.478409
20
-14.818132
30
0
11
24.350442
21
-12.765394
31
0
39
0
210
0
220
0
230
1
0
LINE
5
B7
100
AcDbEntity
8
1
62
256
6
ByLayer
370
18
48
1
60
1
100
AcDbLine
10
24.350442
20
-12.765394
30
0
11
24.783871
21
-13.578675
31
0
39
0
210
0
220
0
230
1
0
LINE
5
B8
100
AcDbEntity
8
1
62
256
6
ByLayer
370
18
48
1
60
1
100
AcDbLine
10
24.783871
20
-13.578675
30
0
11
21.478409
21
-14.818132
31
0
39
0
210
0
220
0
230
1
0
LINE
5
B9
100
AcDbEntity
8
1
62
256
6
ByLayer
370
18
48
1
60
1
100
AcDbLine
10
21.478409
20
14.818132
30
0
11
24.783868
21
13.578677
31
0
39
0
210
0
220
0
230
1
0
LINE
5
BA
100
AcDbEntity
8
1
62
256
6
ByLayer
370
18
48
1
60
1
100
AcDbLine
10
24.783868
20
13.578677
30
0
11
24.350445
21
12.765392
31
0
39
0
210
0
220
0
230
1
0
LINE
5
BB
100
AcDbEntity
8
1
62
256
6
ByLayer
370
18
48
1
60
1
100
AcDbLine
10
24.350445
20
12.765392
30
0
11
21.478409
21
14.818132
31
0
39
0
210
0
220
0
230
1
0
LINE
5
D2
100
AcDbEntity
8
1
62
256
6
ByLayer
370
18
48
1
60
1
100
AcDbLine
10
-27.9314
20
-1.5
30
0
11
-27.470616
21
-4.999998
31
0
39
0
210
0
220
0
230
1
0
LINE
5
D3
100
AcDbEntity
8
1
62
256
6
ByLayer
370
18
48
1
60
1
100
AcDbLine
10
-27.470616
20
-4.999998
30
0
11
-28.392184
21
-5.000002
31
0
39
0
210
0
220
0
230
1
0
LINE
5
D4
100
AcDbEntity
8
1
62
256
6
ByLayer
370
18
48
1
60
1
100
AcDbLine
10
-28.392184
20
-5.000002
30
0
11
-27.9314
21
-1.5
31
0
39
0
210
0
220
0
230
1
0
LINE
5
D6
100
AcDbEntity
8
1
62
256
6
ByLayer
370
18
48
1
60
1
100
AcDbLine
10
-27.9314
20
1.5
30
0
11
-28.392184
21
4.999998
31
0
39
0
210
0
220
0
230
1
0
LINE
5
D7
100
AcDbEntity
8
1
62
256
6
ByLayer
370
18
48
1
60
1
100
AcDbLine
10
-28.392184
20
4.999998
30
0
11
-27.470616
21
5.000002
31
0
39
0
210
0
220
0
230
1
0
LINE
5
D8
100
AcDbEntity
8
1
62
256
6
ByLayer
370
18
48
1
60
1
100
AcDbLine
10
-27.470616
20
5.000002
30
0
11
-27.9314
21
1.5
31
0
39
0
210
0
220
0
230
1
0
LINE
5
DC
100
AcDbEntity
8
1
62
256
6
ByLayer
370
18
48
1
60
1
100
AcDbLine
10
20.0686
20
-0.98
30
0
11
20.529384
21
-4.479998
31
0
39
0
210
0
220
0
230
1
0
LINE
5
DD
100
AcDbEntity
8
1
62
256
6
ByLayer
370
18
48
1
60
1
100
AcDbLine
10
20.529384
20
-4.479998
30
0
11
19.607816
21
-4.480002
31
0
39
0
210
0
220
0
230
1
0
LINE
5
DE
100
AcDbEntity
8
1
62
256
6
ByLayer
370
18
48
1
60
1
100
AcDbLine
10
19.607816
20
-4.480002
30
0
11
20.0686
21
-0.98
31
0
39
0
210
0
220
0
230
1
0
LINE
5
E0
100
AcDbEntity
8
1
62
256
6
ByLayer
370
18
48
1
60
1
100
AcDbLine
10
20.0686
20
0.98
30
0
11
19.607816
21
4.479998
31
0
39
0
210
0
220
0
230
1
0
LINE
5
E1
100
AcDbEntity
8
1
62
256
6
ByLayer
370
18
48
1
60
1
100
AcDbLine
10
19.607816
20
4.479998
30
0
11
20.529384
21
4.480002
31
0
39
0
210
0
220
0
230
1
0
LINE
5
E2
100
AcDbEntity
8
1
62
256
6
ByLayer
370
18
48
1
60
1
100
AcDbLine
10
20.529384
20
4.480002
30
0
11
20.0686
21
0.98
31
0
39
0
210
0
220
0
230
1
0
LINE
5
E5
100
AcDbEntity
8
1
62
256
6
ByLayer
370
18
48
1
60
1
100
AcDbLine
10
21.478409
20
-14.818132
30
0
11
24.350442
21
-12.765394
31
0
39
0
210
0
220
0
230
1
0
LINE
5
E6
100
AcDbEntity
8
1
62
256
6
ByLayer
370
18
48
1
60
1
100
AcDbLine
10
24.350442
20
-12.765394
30
0
11
24.783871
21
-13.578675
31
0
39
0
210
0
220
0
230
1
0
LINE
5
E7
100
AcDbEntity
8
1
62
256
6
ByLayer
370
18
48
1
60
1
100
AcDbLine
10
24.783871
20
-13.578675
30
0
11
21.478409
21
-14.818132
31
0
39
0
210
0
220
0
230
1
0
LINE
5
E9
100
AcDbEntity
8
1
62
256
6
ByLayer
370
18
48
1
60
1
100
AcDbLine
10
21.478409
20
14.818132
30
0
11
24.783868
21
13.578677
31
0
39
0
210
0
220
0
230
1
0
LINE
5
EA
100
AcDbEntity
8
1
62
256
6
ByLayer
370
18
48
1
60
1
100
AcDbLine
10
24.783868
20
13.578677
30
0
11
24.350445
21
12.765392
31
0
39
0
210
0
220
0
230
1
0
LINE
5
EB
100
AcDbEntity
8
1
62
256
6
ByLayer
370
18
48
1
60
1
100
AcDbLine
10
24.350445
20
12.765392
30
0
11
21.478409
21
14.818132
31
0
39
0
210
0
220
0
230
1
0
MTEXT
5
CE
100
AcDbEntity
8
SK2
62
256
6
ByLayer
370
18
48
1
60
0
100
AcDbMText
10
-29.272514
20
6.658437
30
0
210
0
220
0
230
1
1
%%c
40
3
41
0
44
1.084337
50
90
71
7
72
5
7
iso_b_vert
0
MTEXT
5
D1
100
AcDbEntity
8
SK2
62
256
6
ByLayer
370
18
48
1
60
0
100
AcDbMText
10
-29.272514
20
12.635
30
0
210
0
220
0
230
1
1
\W0.7468;3.000
40
3
41
0
44
1.084337
50
90
71
7
72
5
7
iso_b_vert
0
MTEXT
5
DA
100
AcDbEntity
8
2
62
256
6
ByLayer
370
18
48
1
60
0
100
AcDbMText
10
18.727486
20
14.678438
30
0
210
0
220
0
230
1
1
%%c
40
3
41
0
44
1.084337
50
90
71
7
72
5
7
iso_b_vert
0
MTEXT
5
DB
100
AcDbEntity
8
2
62
256
6
ByLayer
370
18
48
1
60
0
100
AcDbMText
10
18.727486
20
20.655
30
0
210
0
220
0
230
1
1
\W0.6864;1.960
40
3
41
0
44
1.084337
50
90
71
7
72
5
7
iso_b_vert
0
MTEXT
5
E4
100
AcDbEntity
8
SK2
62
256
6
ByLayer
370
18
48
1
60
0
100
AcDbMText
10
27.635886
20
-2.114886
30
0
210
0
220
0
230
1
1
\W0.6747;130%%d
40
3
41
0
44
1.084337
50
0
71
7
72
5
7
iso_b_vert
0
MTEXT
5
ED
100
AcDbEntity
8
SK6
62
256
6
ByLayer
370
18
48
1
60
0
100
AcDbMText
10
-32.060367
20
-48.114886
30
0
210
0
220
0
230
1
1
\W0.7647;462.1-0196-008A0-XM X0BU
40
3
41
0
44
1.084337
50
0
71
7
72
5
7
iso_b_vert
0
HATCH
5
D5
100
AcDbEntity
8
SK2
62
256
6
ByLayer
370
13
48
1
60
0
100
AcDbHatch
10
0
20
0
30
0
210
0
220
0
230
1
2
ANSI31
70
0
71
0
91
1
92
5
93
3
72
1
10
-27.9314
20
-1.5
11
-27.4706162584472
21
-4.99999830744682
72
1
10
-27.4706162584472
20
-4.99999830744682
11
-28.3921837415528
21
-5.00000169255318
72
1
10
-28.3921837415528
20
-5.00000169255318
11
-27.9314
21
-1.5
97
0
75
0
76
1
52
0
41
0.0062
77
0
78
1
53
45
43
0
44
0
45
-0.0139193969876572
46
0.0139193969876572
79
0
47
0
98
1
10
0
20
0
0
HATCH
5
D9
100
AcDbEntity
8
SK2
62
256
6
ByLayer
370
13
48
1
60
0
100
AcDbHatch
10
0
20
0
30
0
210
0
220
0
230
1
2
ANSI31
70
0
71
0
91
1
92
5
93
3
72
1
10
-27.9314
20
1.5
11
-28.3921837415528
21
4.99999830744682
72
1
10
-28.3921837415528
20
4.99999830744682
11
-27.4706162584472
21
5.00000169255318
72
1
10
-27.4706162584472
20
5.00000169255318
11
-27.9314
21
1.5
97
0
75
0
76
1
52
0
41
0.0062
77
0
78
1
53
45
43
0
44
0
45
-0.0139193969876572
46
0.0139193969876572
79
0
47
0
98
1
10
0
20
0
0
HATCH
5
DF
100
AcDbEntity
8
2
62
256
6
ByLayer
370
13
48
1
60
0
100
AcDbHatch
10
0
20
0
30
0
210
0
220
0
230
1
2
ANSI31
70
0
71
0
91
1
92
5
93
3
72
1
10
20.0686
20
-0.97999999999999
11
20.5293837415528
21
-4.47999830744681
72
1
10
20.5293837415528
20
-4.47999830744681
11
19.6078162584472
21
-4.48000169255317
72
1
10
19.6078162584472
20
-4.48000169255317
11
20.0686
21
-0.97999999999999
97
0
75
0
76
1
52
0
41
0.0062
77
0
78
1
53
45
43
0
44
0
45
-0.0139193969876572
46
0.0139193969876572
79
0
47
0
98
1
10
0
20
0
0
HATCH
5
E3
100
AcDbEntity
8
2
62
256
6
ByLayer
370
13
48
1
60
0
100
AcDbHatch
10
0
20
0
30
0
210
0
220
0
230
1
2
ANSI31
70
0
71
0
91
1
92
5
93
3
72
1
10
20.0686
20
0.97999999999999
11
19.6078162584472
21
4.47999830744681
72
1
10
19.6078162584472
20
4.47999830744681
11
20.5293837415528
21
4.48000169255317
72
1
10
20.5293837415528
20
4.48000169255317
11
20.0686
21
0.97999999999999
97
0
75
0
76
1
52
0
41
0.0062
77
0
78
1
53
45
43
0
44
0
45
-0.0139193969876572
46
0.0139193969876572
79
0
47
0
98
1
10
0
20
0
0
HATCH
5
E8
100
AcDbEntity
8
SK2
62
256
6
ByLayer
370
13
48
1
60
0
100
AcDbHatch
10
0
20
0
30
0
210
0
220
0
230
1
2
ANSI31
70
0
71
0
91
1
92
5
93
3
72
1
10
21.4784085794604
20
-14.8181323180492
11
24.3504418553693
21
-12.765393983365
72
1
10
24.3504418553693
20
-12.765393983365
11
24.7838706127348
21
-13.5786750775861
72
1
10
24.7838706127348
20
-13.5786750775861
11
21.4784085794604
21
-14.8181323180492
97
0
75
0
76
1
52
0
41
0.0062
77
0
78
1
53
45
43
0
44
0
45
-0.0139193969876572
46
0.0139193969876572
79
0
47
0
98
1
10
0
20
0
0
HATCH
5
EC
100
AcDbEntity
8
SK2
62
256
6
ByLayer
370
13
48
1
60
0
100
AcDbHatch
10
0
20
0
30
0
210
0
220
0
230
1
2
ANSI31
70
0
71
0
91
1
92
5
93
3
72
1
10
21.4784085794604
20
14.8181323180492
11
24.7838676253807
21
13.5786766696479
72
1
10
24.7838676253807
20
13.5786766696479
11
24.3504448427234
21
12.7653923913032
72
1
10
24.3504448427234
20
12.7653923913032
11
21.4784085794604
21
14.8181323180492
97
0
75
0
76
1
52
0
41
0.0062
77
0
78
1
53
45
43
0
44
0
45
-0.0139193969876572
46
0.0139193969876572
79
0
47
0
98
1
10
0
20
0
0
DIMENSION
5
F0
100
AcDbEntity
8
SK2
62
256
6
ByLayer
370
18
48
1
60
0
100
AcDbDimension
2
_U0
10
14.5686
20
-38.977476
30
0
11
-4.4314
21
-38.977476
31
0
70
32
71
1
72
1
41
1
210
0
220
0
230
1
3
Standard
100
AcDbAlignedDimension
13
-23.4314
23
1.5
33
0
14
14.5686
24
0.98
34
0
50
0
100
AcDbRotatedDimension
1001
ACAD
1000
DSTYLE
1002
{
1070
   371
1070
    13
1070
   372
1070
    13
1070
     3
1000

1070
   170
1070
     0
1070
   144
1040
1.0
1070
   277
1070
     2
1070
   284
1070
     8
1070
   278
1070
    46
1070
   146
1040
1.166667
1070
   345
1005
16
1070
   347
1005
16
1070
   346
1005
16
1070
   344
1005
0
1070
   343
1005
0
1070
   172
1070
     1
1070
    76
1070
     0
1070
    75
1070
     0
1070
   282
1070
     0
1070
   281
1070
     0
1070
    71
1070
     0
1070
    74
1070
     0
1070
   279
1070
     0
1070
   173
1070
     1
1070
   340
1005
CF
1070
   271
1070
     2
1070
   272
1070
     2
1070
    77
1070
     1
1070
    73
1070
     1
1070
   171
1070
     3
1070
   274
1070
     4
1070
   177
1070
     2
1070
   176
1070
     2
1070
   178
1070
     2
1070
    78
1070
     8
1070
    48
1040
-0.1
1070
    41
1040
3.5
1070
   147
1040
1.5
1070
    42
1040
1.5875
1070
    44
1040
2.0
1070
   140
1040
3.0
1002
}
1001
ACAD_DSTYLE_DIM_LINETYPE
1070
   380
1005
16
1001
ACAD_DSTYLE_DIM_EXT1_LINETYPE
1070
   381
1005
16
1001
ACAD_DSTYLE_DIM_EXT2_LINETYPE
1070
   382
1005
16
0
DIMENSION
5
109
100
AcDbEntity
8
SK2
62
256
6
ByLayer
370
18
48
1
60
0
100
AcDbDimension
2
_U1
10
6.3086
20
-22.48
30
0
11
30.640029
21
-22.48
31
0
70
32
71
1
72
1
41
1
210
0
220
0
230
1
3
Standard
100
AcDbAlignedDimension
13
14.5686
23
0.98
33
0
14
6.3086
24
0
34
0
50
0
100
AcDbRotatedDimension
1001
ACAD
1000
DSTYLE
1002
{
1070
   371
1070
    13
1070
   372
1070
    13
1070
     3
1000

1070
   170
1070
     0
1070
   144
1040
1.0
1070
   277
1070
     2
1070
   284
1070
     8
1070
   278
1070
    46
1070
   146
1040
1.166667
1070
   345
1005
16
1070
   347
1005
16
1070
   346
1005
16
1070
   344
1005
0
1070
   343
1005
0
1070
   172
1070
     1
1070
    76
1070
     0
1070
    75
1070
     0
1070
   282
1070
     0
1070
   281
1070
     0
1070
    71
1070
     0
1070
    74
1070
     0
1070
   279
1070
     0
1070
   173
1070
     1
1070
   340
1005
CF
1070
   271
1070
     2
1070
   272
1070
     2
1070
    77
1070
     1
1070
    73
1070
     1
1070
   171
1070
     3
1070
   274
1070
     4
1070
   177
1070
     2
1070
   176
1070
     2
1070
   178
1070
     2
1070
    78
1070
     8
1070
    48
1040
-0.1
1070
    41
1040
3.5
1070
   147
1040
1.5
1070
    42
1040
1.5875
1070
    44
1040
2.0
1070
   140
1040
3.0
1002
}
1001
ACAD_DSTYLE_DIM_LINETYPE
1070
   380
1005
16
1001
ACAD_DSTYLE_DIM_EXT1_LINETYPE
1070
   381
1005
16
1001
ACAD_DSTYLE_DIM_EXT2_LINETYPE
1070
   382
1005
16
0
DIMENSION
5
123
100
AcDbEntity
8
SK2
62
256
6
ByLayer
370
18
48
1
60
0
100
AcDbDimension
2
_U2
10
3.3686
20
-30.477476
30
0
11
8.9686
21
-30.477476
31
0
70
32
71
1
72
1
41
1
210
0
220
0
230
1
3
Standard
100
AcDbAlignedDimension
13
14.5686
23
0.98
33
0
14
3.3686
24
0
34
0
50
0
100
AcDbRotatedDimension
1001
ACAD
1000
DSTYLE
1002
{
1070
   371
1070
    13
1070
   372
1070
    13
1070
     3
1000

1070
   170
1070
     0
1070
   144
1040
1.0
1070
   277
1070
     2
1070
   284
1070
     8
1070
   278
1070
    46
1070
   146
1040
1.166667
1070
   345
1005
16
1070
   347
1005
16
1070
   346
1005
16
1070
   344
1005
0
1070
   343
1005
0
1070
   172
1070
     1
1070
    76
1070
     0
1070
    75
1070
     0
1070
   282
1070
     0
1070
   281
1070
     0
1070
    71
1070
     0
1070
    74
1070
     0
1070
   279
1070
     0
1070
   173
1070
     1
1070
   340
1005
CF
1070
   271
1070
     2
1070
   272
1070
     2
1070
    77
1070
     1
1070
    73
1070
     1
1070
   171
1070
     3
1070
   274
1070
     4
1070
   177
1070
     2
1070
   176
1070
     2
1070
   178
1070
     2
1070
    78
1070
     8
1070
    48
1040
-0.1
1070
    41
1040
3.5
1070
   147
1040
1.5
1070
    42
1040
1.5875
1070
    44
1040
2.0
1070
   140
1040
3.0
1002
}
1001
ACAD_DSTYLE_DIM_LINETYPE
1070
   380
1005
16
1001
ACAD_DSTYLE_DIM_EXT1_LINETYPE
1070
   381
1005
16
1001
ACAD_DSTYLE_DIM_EXT2_LINETYPE
1070
   382
1005
16
0
DIMENSION
5
13C
100
AcDbEntity
8
SK2
62
256
6
ByLayer
370
18
48
1
60
0
100
AcDbDimension
2
_U3
10
0
20
11.477476
30
0
11
-11.7157
21
11.477476
31
0
70
32
71
1
72
1
41
1
210
0
220
0
230
1
3
Standard
100
AcDbAlignedDimension
13
-23.4314
23
0
33
0
14
0
24
0
34
0
50
0
100
AcDbRotatedDimension
1001
ACAD
1000
DSTYLE
1002
{
1070
   371
1070
    13
1070
   372
1070
    13
1070
     3
1000

1070
   170
1070
     0
1070
   144
1040
1.0
1070
   277
1070
     2
1070
   284
1070
     8
1070
   278
1070
    46
1070
   146
1040
1.166667
1070
   345
1005
16
1070
   347
1005
16
1070
   346
1005
16
1070
   344
1005
0
1070
   343
1005
0
1070
   172
1070
     1
1070
    76
1070
     0
1070
    75
1070
     0
1070
   282
1070
     0
1070
   281
1070
     0
1070
    71
1070
     0
1070
    74
1070
     0
1070
   279
1070
     0
1070
   173
1070
     1
1070
   340
1005
CF
1070
   271
1070
     2
1070
   272
1070
     2
1070
    77
1070
     1
1070
    73
1070
     1
1070
   171
1070
     3
1070
   274
1070
     4
1070
   177
1070
     2
1070
   176
1070
     2
1070
   178
1070
     2
1070
    78
1070
     8
1070
    48
1040
-0.1
1070
    41
1040
3.5
1070
   147
1040
1.5
1070
    42
1040
1.5875
1070
    44
1040
2.0
1070
   140
1040
3.0
1002
}
1001
ACAD_DSTYLE_DIM_LINETYPE
1070
   380
1005
16
1001
ACAD_DSTYLE_DIM_EXT1_LINETYPE
1070
   381
1005
16
1001
ACAD_DSTYLE_DIM_EXT2_LINETYPE
1070
   382
1005
16
0
DIMENSION
5
154
100
AcDbEntity
8
2
62
256
6
ByLayer
370
18
48
1
60
0
100
AcDbDimension
2
_U4
10
0
20
11.477476
30
0
11
7.2843
21
11.477476
31
0
70
32
71
1
72
1
41
1
210
0
220
0
230
1
3
Standard
100
AcDbAlignedDimension
13
14.5686
23
0.98
33
0
14
0
24
0
34
0
50
0
100
AcDbRotatedDimension
1001
ACAD
1000
DSTYLE
1002
{
1070
   371
1070
    13
1070
   372
1070
    13
1070
     3
1000

1070
   170
1070
     0
1070
   144
1040
1.0
1070
   277
1070
     2
1070
   284
1070
     8
1070
   278
1070
    46
1070
   146
1040
1.166667
1070
   345
1005
16
1070
   347
1005
16
1070
   346
1005
16
1070
   344
1005
0
1070
   343
1005
0
1070
   172
1070
     1
1070
    76
1070
     0
1070
    75
1070
     0
1070
   282
1070
     0
1070
   281
1070
     0
1070
    71
1070
     0
1070
    74
1070
     0
1070
   279
1070
     0
1070
   173
1070
     1
1070
   340
1005
CF
1070
   271
1070
     2
1070
   272
1070
     2
1070
    77
1070
     1
1070
    73
1070
     1
1070
   171
1070
     3
1070
   274
1070
     4
1070
   177
1070
     2
1070
   176
1070
     2
1070
   178
1070
     2
1070
    78
1070
     8
1070
    48
1040
-0.1
1070
    41
1040
3.5
1070
   147
1040
1.5
1070
    42
1040
1.5875
1070
    44
1040
2.0
1070
   140
1040
3.0
1002
}
1001
ACAD_DSTYLE_DIM_LINETYPE
1070
   380
1005
16
1001
ACAD_DSTYLE_DIM_EXT1_LINETYPE
1070
   381
1005
16
1001
ACAD_DSTYLE_DIM_EXT2_LINETYPE
1070
   382
1005
16
0
ENDSEC
0
SECTION
2
OBJECTS
0
DICTIONARY
5
1dd
330
0
100
AcDbDictionary
280
0
281
1
3
ACAD_GROUP
350
1de
3
ACAD_MLINESTYLE
350
1df
0
DICTIONARY
5
1de
330
0
100
AcDbDictionary
280
0
281
1
0
DICTIONARY
5
1df
330
0
100
AcDbDictionary
280
0
281
1
3
Standard
350
18
0
MLINESTYLE
5
18
330
1df
100
AcDbMlineStyle
2
Standard
70
0
3

62
256
51
90
52
90
71
2
49
-0.5
62
256
6
ByLayer
49
0.5
62
256
6
ByLayer
0
RASTERVARIABLES
5
1cb
330

100
AcDbRasterVariables
90
0
70
1
71
1
72
1
0
ENDSEC
0
EOF
