0
SECTION
2
HEADER
9
$ACADVER
1
AC1015
9
$DWGCODEPAGE
3
ANSI_1252
9
$HANDSEED
5
1e8
9
$ANGBASE
50
0
9
$ANGDIR
70
0
9
$ATTMODE
70
1
9
$AUNITS
70
0
9
$AUPREC
70
0
9
$CECOLOR
62
256
9
$CELTSCALE
40
1
9
$CELTYPE
6
ByLayer
9
$CELWEIGHT
370
18
9
$CLAYER
8
0
9
$CMLJUST
70
0
9
$CMLSCALE
40
1
9
$CMLSTYLE
2
Standard
9
$DIMSTYLE
2
Standard
9
$TEXTSIZE
40
0.2
9
$TEXTSTYLE
7
Standard
9
$LUNITS
70
2
9
$LUPREC
70
4
9
$EXTNAMES
290
1
9
$INSUNITS
70
4
9
$LTSCALE
40
1
9
$LWDISPLAY
290
1
9
$PDMODE
70
0
9
$PDSIZE
40
0
9
$PLINEGEN
70
0
0
ENDSEC
0
SECTION
2
CLASSES
0
CLASS
1
RASTERVARIABLES
2
AcDbRasterVariables
3
ISM
90
0
280
0
281
0
0
ENDSEC
0
SECTION
2
TABLES
0
TABLE
2
VPORT
5
1de
100
AcDbSymbolTable
0
VPORT
5
1
100
AcDbSymbolTableRecord
100
AcDbViewportTableRecord
2
*Active
70
0
10
0
20
0
11
1
21
1
12
-1
22
1
13
0
23
0
14
0.5
24
0.5
15
10
25
10
16
0
26
0
36
1
17
0
27
0
37
0
0
ENDTAB
0
TABLE
2
LTYPE
5
1df
100
AcDbSymbolTable
0
LTYPE
5
14
100
AcDbSymbolTableRecord
100
AcDbLinetypeTableRecord
70
0
2
ByBlock
3

72
65
73
0
40
0
0
LTYPE
5
15
100
AcDbSymbolTableRecord
100
AcDbLinetypeTableRecord
70
0
2
ByLayer
3

72
65
73
0
40
0
0
LTYPE
5
16
100
AcDbSymbolTableRecord
100
AcDbLinetypeTableRecord
70
0
2
Continuous
3
Solid line
72
65
73
0
40
0
0
LTYPE
5
6E
100
AcDbSymbolTableRecord
100
AcDbLinetypeTableRecord
70
0
2
CENTER
3
____ _ ____ _ ____ _ ____
72
65
73
4
40
47.5
49
22
74
0
49
-8.5
74
0
49
8.5
74
0
49
-8.5
74
0
0
LTYPE
5
6F
100
AcDbSymbolTableRecord
100
AcDbLinetypeTableRecord
70
0
2
DASHED
3
__ __ __ __ __ __ __ __ __
72
65
73
2
40
25.72
49
12.86
74
0
49
-12.86
74
0
0
ENDTAB
0
TABLE
2
LAYER
5
1e0
100
AcDbSymbolTable
0
LAYER
5
10
100
AcDbSymbolTableRecord
100
AcDbLayerTableRecord
2
0
70
0
62
7
6
Continuous
290
1
370
-3
390
0
0
LAYER
5
71
100
AcDbSymbolTableRecord
100
AcDbLayerTableRecord
2
80
70
0
62
-6
6
Continuous
290
1
370
-3
390
0
0
LAYER
5
73
100
AcDbSymbolTableRecord
100
AcDbLayerTableRecord
2
81
70
0
62
-3
6
Continuous
290
1
370
-3
390
0
0
LAYER
5
75
100
AcDbSymbolTableRecord
100
AcDbLayerTableRecord
2
1
70
0
62
4
6
Continuous
290
1
370
-3
390
0
0
LAYER
5
99
100
AcDbSymbolTableRecord
100
AcDbLayerTableRecord
2
4
70
0
62
-2
6
CENTER
290
1
370
-3
390
0
0
LAYER
5
A9
100
AcDbSymbolTableRecord
100
AcDbLayerTableRecord
2
2
70
0
62
7
6
Continuous
290
1
370
-3
390
0
0
LAYER
5
F1
100
AcDbSymbolTableRecord
100
AcDbLayerTableRecord
2
Defpoints
70
0
62
7
6
Continuous
290
0
370
-3
390
0
0
LAYER
5
1ca
100
AcDbSymbolTableRecord
100
AcDbLayerTableRecord
2
SK1
70
0
62
4
6
Continuous
290
1
370
-3
390
0
0
LAYER
5
1cb
100
AcDbSymbolTableRecord
100
AcDbLayerTableRecord
2
SK4
70
0
62
2
6
CENTER
290
1
370
-3
390
0
0
LAYER
5
1cc
100
AcDbSymbolTableRecord
100
AcDbLayerTableRecord
2
SK2
70
0
62
7
6
Continuous
290
1
370
-3
390
0
0
LAYER
5
1cd
100
AcDbSymbolTableRecord
100
AcDbLayerTableRecord
2
SK6
70
0
62
5
6
Continuous
290
1
370
-3
390
0
0
ENDTAB
0
TABLE
2
STYLE
5
1e1
100
AcDbSymbolTable
0
STYLE
5
11
100
AcDbSymbolTableRecord
100
AcDbTextStyleTableRecord
2
Standard
3
txt
70
0
71
0
40
0
41
1
42
0
50
0
0
STYLE
5
CD
100
AcDbSymbolTableRecord
100
AcDbTextStyleTableRecord
2
iso_b_vert
3
simplex.shx
70
0
71
0
40
0
41
1
42
0
50
0
0
STYLE
5
CE
100
AcDbSymbolTableRecord
100
AcDbTextStyleTableRecord
2
DWGDirectTextStyle
3
simplex
70
0
71
0
40
0
41
1
42
0
50
0
0
ENDTAB
0
TABLE
2
DIMSTYLE
5
1e2
100
AcDbSymbolTable
100
AcDbDimStyleTable
0
DIMSTYLE
105
27
100
AcDbSymbolTableRecord
100
AcDbDimStyleTableRecord
2
Standard
70
0
3
<>
41
0.18
42
0.0625
44
0.18
140
0.18
147
0.09
73
0
74
0
77
1
271
2
275
0
278
52
280
0
340
11
0
ENDTAB
0
TABLE
2
VIEW
5
1e3
100
AcDbSymbolTable
0
ENDTAB
0
TABLE
2
UCS
5
1e4
100
AcDbSymbolTable
0
ENDTAB
0
TABLE
2
APPID
5
1e5
100
AcDbSymbolTable
0
APPID
5
12
100
AcDbSymbolTableRecord
100
AcDbRegAppTableRecord
2
ACAD
70
0
0
APPID
5
ED
100
AcDbSymbolTableRecord
100
AcDbRegAppTableRecord
2
ACAD_DSTYLE_DIMBREAK
70
0
0
APPID
5
189
100
AcDbSymbolTableRecord
100
AcDbRegAppTableRecord
2
ACAD_DSTYLE_DIM_LINETYPE
70
0
0
APPID
5
18A
100
AcDbSymbolTableRecord
100
AcDbRegAppTableRecord
2
ACAD_DSTYLE_DIM_EXT1_LINETYPE
70
0
0
APPID
5
18B
100
AcDbSymbolTableRecord
100
AcDbRegAppTableRecord
2
ACAD_DSTYLE_DIM_EXT2_LINETYPE
70
0
0
APPID
5
1C6
100
AcDbSymbolTableRecord
100
AcDbRegAppTableRecord
2
ACAD_MLEADERVER
70
0
0
ENDTAB
0
TABLE
2
BLOCK_RECORD
5
1e6
100
AcDbSymbolTable
0
BLOCK_RECORD
5
1F
100
AcDbSymbolTableRecord
100
AcDbBlockTableRecord
2
*Model_Space
340
0
70
0
0
BLOCK_RECORD
5
1B
100
AcDbSymbolTableRecord
100
AcDbBlockTableRecord
2
*Paper_Space
340
0
70
0
0
BLOCK_RECORD
5
23
100
AcDbSymbolTableRecord
100
AcDbBlockTableRecord
2
*Paper_Space0
340
0
70
0
0
BLOCK_RECORD
5
F2
100
AcDbSymbolTableRecord
100
AcDbBlockTableRecord
2
*D1
340
0
70
0
0
BLOCK_RECORD
5
FE
100
AcDbSymbolTableRecord
100
AcDbBlockTableRecord
2
_U0
340
0
70
0
0
BLOCK_RECORD
5
10A
100
AcDbSymbolTableRecord
100
AcDbBlockTableRecord
2
*D3
340
0
70
0
0
BLOCK_RECORD
5
118
100
AcDbSymbolTableRecord
100
AcDbBlockTableRecord
2
_U1
340
0
70
0
0
BLOCK_RECORD
5
124
100
AcDbSymbolTableRecord
100
AcDbBlockTableRecord
2
*D5
340
0
70
0
0
BLOCK_RECORD
5
131
100
AcDbSymbolTableRecord
100
AcDbBlockTableRecord
2
_U2
340
0
70
0
0
BLOCK_RECORD
5
13D
100
AcDbSymbolTableRecord
100
AcDbBlockTableRecord
2
*D7
340
0
70
0
0
BLOCK_RECORD
5
149
100
AcDbSymbolTableRecord
100
AcDbBlockTableRecord
2
_U3
340
0
70
0
0
BLOCK_RECORD
5
155
100
AcDbSymbolTableRecord
100
AcDbBlockTableRecord
2
*D9
340
0
70
0
0
BLOCK_RECORD
5
162
100
AcDbSymbolTableRecord
100
AcDbBlockTableRecord
2
_U4
340
0
70
0
0
ENDTAB
0
ENDSEC
0
SECTION
2
BLOCKS
0
BLOCK
5
20
100
AcDbEntity
8
0
100
AcDbBlockBegin
2
*Model_Space
70
0
10
0
20
0
30
0
3
*Model_Space
0
ENDBLK
5
21
100
AcDbEntity
8
0
100
AcDbBlockEnd
0
BLOCK
5
1C
100
AcDbEntity
8
0
100
AcDbBlockBegin
2
*Paper_Space
70
0
10
0
20
0
30
0
3
*Paper_Space
0
ENDBLK
5
1D
100
AcDbEntity
8
0
100
AcDbBlockEnd
0
BLOCK
5
24
100
AcDbEntity
8
0
100
AcDbBlockBegin
2
*Paper_Space0
70
0
10
0
20
0
30
0
3
*Paper_Space0
0
ENDBLK
5
25
100
AcDbEntity
8
0
100
AcDbBlockEnd
0
BLOCK
5
F3
100
AcDbEntity
8
0
100
AcDbBlockBegin
2
*D1
70
1
10
0
20
0
30
0
3
*D1
0
LINE
5
F5
100
AcDbEntity
8
0
62
256
6
ByLayer
370
-2
48
1
60
0
100
AcDbLine
10
-23.4401
20
-0.0875
30
0
11
-23.4401
21
-40.9728
31
0
39
0
210
0
220
0
230
1
0
LINE
5
F6
100
AcDbEntity
8
0
62
256
6
ByLayer
370
-2
48
1
60
0
100
AcDbLine
10
14.5599
20
-0.6025
30
0
11
14.5599
21
-40.9728
31
0
39
0
210
0
220
0
230
1
0
LINE
5
F7
100
AcDbEntity
8
0
62
256
6
ByLayer
370
-2
48
1
60
0
100
AcDbLine
10
-19.9401
20
-38.9728
30
0
11
11.0599
21
-38.9728
31
0
39
0
210
0
220
0
230
1
0
SOLID
5
F8
100
AcDbEntity
8
0
62
256
6
ByLayer
370
-1
48
1
60
0
100
AcDbTrace
10
-19.9401
20
-38.389467
30
0
11
-19.9401
21
-39.556134
31
0
12
-23.4401
22
-38.9728
32
0
13
-23.4401
23
-38.9728
33
0
39
0
210
0
220
0
230
1
0
SOLID
5
F9
100
AcDbEntity
8
0
62
256
6
ByLayer
370
-1
48
1
60
0
100
AcDbTrace
10
11.0599
20
-39.556134
30
0
11
11.0599
21
-38.389467
31
0
12
14.5599
22
-38.9728
32
0
13
14.5599
23
-38.9728
33
0
39
0
210
0
220
0
230
1
0
MTEXT
5
FA
100
AcDbEntity
8
0
62
256
6
ByLayer
370
18
48
1
60
0
100
AcDbMText
10
-4.4401
20
-32.9728
30
0
210
0
220
0
230
1
1
\A1;38
40
3
41
0
44
1
50
0
71
5
72
5
7
iso_b_vert
0
POINT
5
FB
100
AcDbEntity
8
Defpoints
62
0
6
ByLayer
370
-1
48
1
60
0
100
AcDbPoint
10
-23.4401
20
1.5
30
0
39
0
210
0
220
0
230
1
50
360
0
POINT
5
FC
100
AcDbEntity
8
Defpoints
62
0
6
ByLayer
370
-1
48
1
60
0
100
AcDbPoint
10
14.5599
20
0.985
30
0
39
0
210
0
220
0
230
1
50
360
0
POINT
5
FD
100
AcDbEntity
8
Defpoints
62
0
6
ByLayer
370
-1
48
1
60
0
100
AcDbPoint
10
14.5599
20
-38.9728
30
0
39
0
210
0
220
0
230
1
50
360
0
ENDBLK
5
F4
100
AcDbEntity
8
0
100
AcDbBlockEnd
0
BLOCK
5
105
100
AcDbEntity
8
0
100
AcDbBlockBegin
2
_U0
70
0
10
0
20
0
30
0
3
_U0
0
MTEXT
5
FF
100
AcDbEntity
8
SK2
62
256
6
ByLayer
370
18
48
1
60
0
100
AcDbMText
10
-8.92247
20
-38.087686
30
0
210
0
220
0
230
1
1
\W0.7468;38.00
40
3
41
0
44
1.084337
50
0
71
7
72
5
7
iso_b_vert
0
LINE
5
100
100
AcDbEntity
8
SK2
62
256
6
ByLayer
370
13
48
1
60
0
100
AcDbLine
10
-23.4401
20
-0.0875
30
0
11
-23.4401
21
-40.9728
31
0
39
0
210
0
220
0
230
1
0
LINE
5
101
100
AcDbEntity
8
SK2
62
256
6
ByLayer
370
13
48
1
60
0
100
AcDbLine
10
14.5599
20
-0.6025
30
0
11
14.5599
21
-40.9728
31
0
39
0
210
0
220
0
230
1
0
LINE
5
102
100
AcDbEntity
8
SK2
62
256
6
ByLayer
370
13
48
1
60
0
100
AcDbLine
10
-23.4401
20
-38.9728
30
0
11
14.5599
21
-38.9728
31
0
39
0
210
0
220
0
230
1
0
SOLID
5
103
100
AcDbEntity
8
SK2
62
256
6
ByLayer
370
18
48
1
60
0
100
AcDbTrace
10
-23.4401
20
-38.9728
30
0
11
-19.940102
21
-38.512017
31
0
12
-19.940098
22
-39.433584
32
0
13
-19.940098
23
-39.433584
33
0
39
0
210
0
220
0
230
1
0
SOLID
5
104
100
AcDbEntity
8
SK2
62
256
6
ByLayer
370
18
48
1
60
0
100
AcDbTrace
10
14.5599
20
-38.9728
30
0
11
11.059902
21
-39.433584
31
0
12
11.059898
22
-38.512017
32
0
13
11.059898
23
-38.512017
33
0
39
0
210
0
220
0
230
1
0
ENDBLK
5
106
100
AcDbEntity
8
0
100
AcDbBlockEnd
0
BLOCK
5
10B
100
AcDbEntity
8
0
100
AcDbBlockBegin
2
*D3
70
1
10
0
20
0
30
0
3
*D3
0
LINE
5
10D
100
AcDbEntity
8
0
62
256
6
ByLayer
370
-2
48
1
60
0
100
AcDbLine
10
14.5599
20
-0.6025
30
0
11
14.5599
21
-24.485
31
0
39
0
210
0
220
0
230
1
0
LINE
5
10E
100
AcDbEntity
8
0
62
256
6
ByLayer
370
-2
48
1
60
0
100
AcDbLine
10
6.3149
20
-1.5875
30
0
11
6.3149
21
-24.485
31
0
39
0
210
0
220
0
230
1
0
LINE
5
10F
100
AcDbEntity
8
0
62
256
6
ByLayer
370
-2
48
1
60
0
100
AcDbLine
10
14.5599
20
-22.485
30
0
11
39.702757
21
-22.485
31
0
39
0
210
0
220
0
230
1
0
LINE
5
110
100
AcDbEntity
8
0
62
256
6
ByLayer
370
-2
48
1
60
0
100
AcDbLine
10
18.0599
20
-22.485
30
0
11
21.5599
21
-22.485
31
0
39
0
210
0
220
0
230
1
0
LINE
5
111
100
AcDbEntity
8
0
62
256
6
ByLayer
370
-2
48
1
60
0
100
AcDbLine
10
2.8149
20
-22.485
30
0
11
-0.6851
21
-22.485
31
0
39
0
210
0
220
0
230
1
0
SOLID
5
112
100
AcDbEntity
8
0
62
256
6
ByLayer
370
-1
48
1
60
0
100
AcDbTrace
10
18.0599
20
-21.901667
30
0
11
18.0599
21
-23.068333
31
0
12
14.5599
22
-22.485
32
0
13
14.5599
23
-22.485
33
0
39
0
210
0
220
0
230
1
0
SOLID
5
113
100
AcDbEntity
8
0
62
256
6
ByLayer
370
-1
48
1
60
0
100
AcDbTrace
10
2.8149
20
-23.068333
30
0
11
2.8149
21
-21.901667
31
0
12
6.3149
22
-22.485
32
0
13
6.3149
23
-22.485
33
0
39
0
210
0
220
0
230
1
0
MTEXT
5
114
100
AcDbEntity
8
0
62
256
6
ByLayer
370
18
48
1
60
0
100
AcDbMText
10
30.631329
20
-16.485
30
0
210
0
220
0
230
1
1
\A1;8.25
40
3
41
0
44
1
50
0
71
5
72
5
7
iso_b_vert
0
POINT
5
115
100
AcDbEntity
8
Defpoints
62
0
6
ByLayer
370
-1
48
1
60
0
100
AcDbPoint
10
14.5599
20
0.985
30
0
39
0
210
0
220
0
230
1
50
360
0
POINT
5
116
100
AcDbEntity
8
Defpoints
62
0
6
ByLayer
370
-1
48
1
60
0
100
AcDbPoint
10
6.3149
20
0
30
0
39
0
210
0
220
0
230
1
50
360
0
POINT
5
117
100
AcDbEntity
8
Defpoints
62
0
6
ByLayer
370
-1
48
1
60
0
100
AcDbPoint
10
6.3149
20
-22.485
30
0
39
0
210
0
220
0
230
1
50
360
0
ENDBLK
5
10C
100
AcDbEntity
8
0
100
AcDbBlockEnd
0
BLOCK
5
11F
100
AcDbEntity
8
0
100
AcDbBlockBegin
2
_U1
70
0
10
0
20
0
30
0
3
_U1
0
MTEXT
5
119
100
AcDbEntity
8
SK2
62
256
6
ByLayer
370
18
48
1
60
0
100
AcDbMText
10
18.7189
20
-21.599886
30
0
210
0
220
0
230
1
1
\W0.7261;(8.24)
40
3
41
0
44
1.084337
50
0
71
7
72
5
7
iso_b_vert
0
LINE
5
11A
100
AcDbEntity
8
SK2
62
256
6
ByLayer
370
13
48
1
60
0
100
AcDbLine
10
14.5599
20
-0.6025
30
0
11
14.5599
21
-24.485
31
0
39
0
210
0
220
0
230
1
0
LINE
5
11B
100
AcDbEntity
8
SK2
62
256
6
ByLayer
370
13
48
1
60
0
100
AcDbLine
10
6.3149
20
-1.5875
30
0
11
6.3149
21
-24.485
31
0
39
0
210
0
220
0
230
1
0
LINE
5
11C
100
AcDbEntity
8
SK2
62
256
6
ByLayer
370
13
48
1
60
0
100
AcDbLine
10
6.3149
20
-22.485
30
0
11
28.347555
21
-22.485
31
0
39
0
210
0
220
0
230
1
0
SOLID
5
11D
100
AcDbEntity
8
SK2
62
256
6
ByLayer
370
18
48
1
60
0
100
AcDbTrace
10
14.5599
20
-22.485
30
0
11
11.059902
21
-22.945784
31
0
12
11.059898
22
-22.024216
32
0
13
11.059898
23
-22.024216
33
0
39
0
210
0
220
0
230
1
0
SOLID
5
11E
100
AcDbEntity
8
SK2
62
256
6
ByLayer
370
18
48
1
60
0
100
AcDbTrace
10
6.3149
20
-22.485
30
0
11
9.814898
21
-22.024216
31
0
12
9.814902
22
-22.945784
32
0
13
9.814902
23
-22.945784
33
0
39
0
210
0
220
0
230
1
0
ENDBLK
5
120
100
AcDbEntity
8
0
100
AcDbBlockEnd
0
BLOCK
5
125
100
AcDbEntity
8
0
100
AcDbBlockBegin
2
*D5
70
1
10
0
20
0
30
0
3
*D5
0
LINE
5
127
100
AcDbEntity
8
0
62
256
6
ByLayer
370
-2
48
1
60
0
100
AcDbLine
10
14.5599
20
-0.6025
30
0
11
14.5599
21
-32.4728
31
0
39
0
210
0
220
0
230
1
0
LINE
5
128
100
AcDbEntity
8
0
62
256
6
ByLayer
370
-2
48
1
60
0
100
AcDbLine
10
3.3599
20
-1.5875
30
0
11
3.3599
21
-32.4728
31
0
39
0
210
0
220
0
230
1
0
LINE
5
129
100
AcDbEntity
8
0
62
256
6
ByLayer
370
-2
48
1
60
0
100
AcDbLine
10
18.0599
20
-30.4728
30
0
11
21.5599
21
-30.4728
31
0
39
0
210
0
220
0
230
1
0
LINE
5
12A
100
AcDbEntity
8
0
62
256
6
ByLayer
370
-2
48
1
60
0
100
AcDbLine
10
-0.1401
20
-30.4728
30
0
11
-3.6401
21
-30.4728
31
0
39
0
210
0
220
0
230
1
0
SOLID
5
12B
100
AcDbEntity
8
0
62
256
6
ByLayer
370
-1
48
1
60
0
100
AcDbTrace
10
18.0599
20
-29.889467
30
0
11
18.0599
21
-31.056134
31
0
12
14.5599
22
-30.4728
32
0
13
14.5599
23
-30.4728
33
0
39
0
210
0
220
0
230
1
0
SOLID
5
12C
100
AcDbEntity
8
0
62
256
6
ByLayer
370
-1
48
1
60
0
100
AcDbTrace
10
-0.1401
20
-31.056134
30
0
11
-0.1401
21
-29.889467
31
0
12
3.3599
22
-30.4728
32
0
13
3.3599
23
-30.4728
33
0
39
0
210
0
220
0
230
1
0
MTEXT
5
12D
100
AcDbEntity
8
0
62
256
6
ByLayer
370
18
48
1
60
0
100
AcDbMText
10
8.9599
20
-24.4728
30
0
210
0
220
0
230
1
1
\A1;11.2
40
3
41
0
44
1
50
0
71
5
72
5
7
iso_b_vert
0
POINT
5
12E
100
AcDbEntity
8
Defpoints
62
0
6
ByLayer
370
-1
48
1
60
0
100
AcDbPoint
10
14.5599
20
0.985
30
0
39
0
210
0
220
0
230
1
50
360
0
POINT
5
12F
100
AcDbEntity
8
Defpoints
62
0
6
ByLayer
370
-1
48
1
60
0
100
AcDbPoint
10
3.3599
20
0
30
0
39
0
210
0
220
0
230
1
50
360
0
POINT
5
130
100
AcDbEntity
8
Defpoints
62
0
6
ByLayer
370
-1
48
1
60
0
100
AcDbPoint
10
3.3599
20
-30.4728
30
0
39
0
210
0
220
0
230
1
50
360
0
ENDBLK
5
126
100
AcDbEntity
8
0
100
AcDbBlockEnd
0
BLOCK
5
138
100
AcDbEntity
8
0
100
AcDbBlockBegin
2
_U2
70
0
10
0
20
0
30
0
3
_U2
0
MTEXT
5
132
100
AcDbEntity
8
SK2
62
256
6
ByLayer
370
18
48
1
60
0
100
AcDbMText
10
5.227415
20
-29.587686
30
0
210
0
220
0
230
1
1
\W0.6261;11.20
40
3
41
0
44
1.084337
50
0
71
7
72
5
7
iso_b_vert
0
LINE
5
133
100
AcDbEntity
8
SK2
62
256
6
ByLayer
370
13
48
1
60
0
100
AcDbLine
10
14.5599
20
-0.6025
30
0
11
14.5599
21
-32.4728
31
0
39
0
210
0
220
0
230
1
0
LINE
5
134
100
AcDbEntity
8
SK2
62
256
6
ByLayer
370
13
48
1
60
0
100
AcDbLine
10
3.3599
20
-1.5875
30
0
11
3.3599
21
-32.4728
31
0
39
0
210
0
220
0
230
1
0
LINE
5
135
100
AcDbEntity
8
SK2
62
256
6
ByLayer
370
13
48
1
60
0
100
AcDbLine
10
14.5599
20
-30.4728
30
0
11
3.3599
21
-30.4728
31
0
39
0
210
0
220
0
230
1
0
SOLID
5
136
100
AcDbEntity
8
SK2
62
256
6
ByLayer
370
18
48
1
60
0
100
AcDbTrace
10
14.5599
20
-30.4728
30
0
11
11.059902
21
-30.933584
31
0
12
11.059898
22
-30.012017
32
0
13
11.059898
23
-30.012017
33
0
39
0
210
0
220
0
230
1
0
SOLID
5
137
100
AcDbEntity
8
SK2
62
256
6
ByLayer
370
18
48
1
60
0
100
AcDbTrace
10
3.3599
20
-30.4728
30
0
11
6.859898
21
-30.012017
31
0
12
6.859902
22
-30.933584
32
0
13
6.859902
23
-30.933584
33
0
39
0
210
0
220
0
230
1
0
ENDBLK
5
139
100
AcDbEntity
8
0
100
AcDbBlockEnd
0
BLOCK
5
13E
100
AcDbEntity
8
0
100
AcDbBlockBegin
2
*D7
70
1
10
0
20
0
30
0
3
*D7
0
LINE
5
140
100
AcDbEntity
8
0
62
256
6
ByLayer
370
-2
48
1
60
0
100
AcDbLine
10
-23.4401
20
1.5875
30
0
11
-23.4401
21
13.4728
31
0
39
0
210
0
220
0
230
1
0
LINE
5
141
100
AcDbEntity
8
0
62
256
6
ByLayer
370
-2
48
1
60
0
100
AcDbLine
10
0
20
1.5875
30
0
11
0
21
13.4728
31
0
39
0
210
0
220
0
230
1
0
LINE
5
142
100
AcDbEntity
8
0
62
256
6
ByLayer
370
-2
48
1
60
0
100
AcDbLine
10
-19.9401
20
11.4728
30
0
11
-3.5
21
11.4728
31
0
39
0
210
0
220
0
230
1
0
SOLID
5
143
100
AcDbEntity
8
0
62
256
6
ByLayer
370
-1
48
1
60
0
100
AcDbTrace
10
-19.9401
20
12.056134
30
0
11
-19.9401
21
10.889467
31
0
12
-23.4401
22
11.4728
32
0
13
-23.4401
23
11.4728
33
0
39
0
210
0
220
0
230
1
0
SOLID
5
144
100
AcDbEntity
8
0
62
256
6
ByLayer
370
-1
48
1
60
0
100
AcDbTrace
10
-3.5
20
10.889467
30
0
11
-3.5
21
12.056134
31
0
12
0
22
11.4728
32
0
13
0
23
11.4728
33
0
39
0
210
0
220
0
230
1
0
MTEXT
5
145
100
AcDbEntity
8
0
62
256
6
ByLayer
370
18
48
1
60
0
100
AcDbMText
10
-11.72005
20
17.4728
30
0
210
0
220
0
230
1
1
\A1;23.44
40
3
41
0
44
1
50
0
71
5
72
5
7
iso_b_vert
0
POINT
5
146
100
AcDbEntity
8
Defpoints
62
0
6
ByLayer
370
-1
48
1
60
0
100
AcDbPoint
10
-23.4401
20
0
30
0
39
0
210
0
220
0
230
1
50
360
0
POINT
5
147
100
AcDbEntity
8
Defpoints
62
0
6
ByLayer
370
-1
48
1
60
0
100
AcDbPoint
10
0
20
0
30
0
39
0
210
0
220
0
230
1
50
360
0
POINT
5
148
100
AcDbEntity
8
Defpoints
62
0
6
ByLayer
370
-1
48
1
60
0
100
AcDbPoint
10
0
20
11.4728
30
0
39
0
210
0
220
0
230
1
50
360
0
ENDBLK
5
13F
100
AcDbEntity
8
0
100
AcDbBlockEnd
0
BLOCK
5
150
100
AcDbEntity
8
0
100
AcDbBlockBegin
2
_U3
70
0
10
0
20
0
30
0
3
_U3
0
MTEXT
5
14A
100
AcDbEntity
8
SK2
62
256
6
ByLayer
370
18
48
1
60
0
100
AcDbMText
10
-16.518306
20
12.357915
30
0
210
0
220
0
230
1
1
\W0.7868;23.44
40
3
41
0
44
1.084337
50
0
71
7
72
5
7
iso_b_vert
0
LINE
5
14B
100
AcDbEntity
8
SK2
62
256
6
ByLayer
370
13
48
1
60
0
100
AcDbLine
10
-23.4401
20
1.5875
30
0
11
-23.4401
21
13.4728
31
0
39
0
210
0
220
0
230
1
0
LINE
5
14C
100
AcDbEntity
8
SK2
62
256
6
ByLayer
370
13
48
1
60
0
100
AcDbLine
10
0
20
1.5875
30
0
11
0
21
13.4728
31
0
39
0
210
0
220
0
230
1
0
LINE
5
14D
100
AcDbEntity
8
SK2
62
256
6
ByLayer
370
13
48
1
60
0
100
AcDbLine
10
-23.4401
20
11.4728
30
0
11
0
21
11.4728
31
0
39
0
210
0
220
0
230
1
0
SOLID
5
14E
100
AcDbEntity
8
SK2
62
256
6
ByLayer
370
18
48
1
60
0
100
AcDbTrace
10
-23.4401
20
11.4728
30
0
11
-19.940102
21
11.933584
31
0
12
-19.940098
22
11.012017
32
0
13
-19.940098
23
11.012017
33
0
39
0
210
0
220
0
230
1
0
SOLID
5
14F
100
AcDbEntity
8
SK2
62
256
6
ByLayer
370
18
48
1
60
0
100
AcDbTrace
10
0
20
11.4728
30
0
11
-3.499998
21
11.012017
31
0
12
-3.500002
22
11.933584
32
0
13
-3.500002
23
11.933584
33
0
39
0
210
0
220
0
230
1
0
ENDBLK
5
151
100
AcDbEntity
8
0
100
AcDbBlockEnd
0
BLOCK
5
156
100
AcDbEntity
8
0
100
AcDbBlockBegin
2
*D9
70
1
10
0
20
0
30
0
3
*D9
0
LINE
5
158
100
AcDbEntity
8
0
62
256
6
ByLayer
370
-2
48
1
60
0
100
AcDbLine
10
14.5599
20
2.5725
30
0
11
14.5599
21
13.4728
31
0
39
0
210
0
220
0
230
1
0
LINE
5
159
100
AcDbEntity
8
0
62
256
6
ByLayer
370
-2
48
1
60
0
100
AcDbLine
10
0
20
1.5875
30
0
11
0
21
13.4728
31
0
39
0
210
0
220
0
230
1
0
LINE
5
15A
100
AcDbEntity
8
0
62
256
6
ByLayer
370
-2
48
1
60
0
100
AcDbLine
10
18.0599
20
11.4728
30
0
11
21.5599
21
11.4728
31
0
39
0
210
0
220
0
230
1
0
LINE
5
15B
100
AcDbEntity
8
0
62
256
6
ByLayer
370
-2
48
1
60
0
100
AcDbLine
10
-3.5
20
11.4728
30
0
11
-7
21
11.4728
31
0
39
0
210
0
220
0
230
1
0
SOLID
5
15C
100
AcDbEntity
8
0
62
256
6
ByLayer
370
-1
48
1
60
0
100
AcDbTrace
10
18.0599
20
12.056134
30
0
11
18.0599
21
10.889467
31
0
12
14.5599
22
11.4728
32
0
13
14.5599
23
11.4728
33
0
39
0
210
0
220
0
230
1
0
SOLID
5
15D
100
AcDbEntity
8
0
62
256
6
ByLayer
370
-1
48
1
60
0
100
AcDbTrace
10
-3.5
20
10.889467
30
0
11
-3.5
21
12.056134
31
0
12
0
22
11.4728
32
0
13
0
23
11.4728
33
0
39
0
210
0
220
0
230
1
0
MTEXT
5
15E
100
AcDbEntity
8
0
62
256
6
ByLayer
370
18
48
1
60
0
100
AcDbMText
10
7.27995
20
17.4728
30
0
210
0
220
0
230
1
1
\A1;14.56
40
3
41
0
44
1
50
0
71
5
72
5
7
iso_b_vert
0
POINT
5
15F
100
AcDbEntity
8
Defpoints
62
0
6
ByLayer
370
-1
48
1
60
0
100
AcDbPoint
10
14.5599
20
0.985
30
0
39
0
210
0
220
0
230
1
50
360
0
POINT
5
160
100
AcDbEntity
8
Defpoints
62
0
6
ByLayer
370
-1
48
1
60
0
100
AcDbPoint
10
0
20
0
30
0
39
0
210
0
220
0
230
1
50
360
0
POINT
5
161
100
AcDbEntity
8
Defpoints
62
0
6
ByLayer
370
-1
48
1
60
0
100
AcDbPoint
10
0
20
11.4728
30
0
39
0
210
0
220
0
230
1
50
360
0
ENDBLK
5
157
100
AcDbEntity
8
0
100
AcDbBlockEnd
0
BLOCK
5
169
100
AcDbEntity
8
0
100
AcDbBlockBegin
2
_U4
70
0
10
0
20
0
30
0
3
_U4
0
MTEXT
5
163
100
AcDbEntity
8
2
62
256
6
ByLayer
370
18
48
1
60
0
100
AcDbMText
10
3.014579
20
12.357915
30
0
210
0
220
0
230
1
1
\W0.7091;14.56
40
3
41
0
44
1.084337
50
0
71
7
72
5
7
iso_b_vert
0
LINE
5
164
100
AcDbEntity
8
2
62
256
6
ByLayer
370
13
48
1
60
0
100
AcDbLine
10
14.5599
20
2.5725
30
0
11
14.5599
21
13.4728
31
0
39
0
210
0
220
0
230
1
0
LINE
5
165
100
AcDbEntity
8
2
62
256
6
ByLayer
370
13
48
1
60
0
100
AcDbLine
10
0
20
1.5875
30
0
11
0
21
13.4728
31
0
39
0
210
0
220
0
230
1
0
LINE
5
166
100
AcDbEntity
8
2
62
256
6
ByLayer
370
13
48
1
60
0
100
AcDbLine
10
14.5599
20
11.4728
30
0
11
0
21
11.4728
31
0
39
0
210
0
220
0
230
1
0
SOLID
5
167
100
AcDbEntity
8
2
62
256
6
ByLayer
370
18
48
1
60
0
100
AcDbTrace
10
14.5599
20
11.4728
30
0
11
11.059902
21
11.012017
31
0
12
11.059898
22
11.933584
32
0
13
11.059898
23
11.933584
33
0
39
0
210
0
220
0
230
1
0
SOLID
5
168
100
AcDbEntity
8
2
62
256
6
ByLayer
370
18
48
1
60
0
100
AcDbTrace
10
0
20
11.4728
30
0
11
3.499998
21
11.933584
31
0
12
3.500002
22
11.012017
32
0
13
3.500002
23
11.012017
33
0
39
0
210
0
220
0
230
1
0
ENDBLK
5
16A
100
AcDbEntity
8
0
100
AcDbBlockEnd
0
ENDSEC
0
SECTION
2
ENTITIES
0
ARC
5
BA
100
AcDbEntity
8
1
62
256
6
ByLayer
370
18
48
1
60
0
100
AcDbCircle
39
0
10
1.159944
20
-1.985
30
0
40
1
210
0
220
0
230
1
100
AcDbArc
50
90
51
120
0
ARC
5
BB
100
AcDbEntity
8
1
62
256
6
ByLayer
370
18
48
1
60
0
100
AcDbCircle
39
0
10
1.159944
20
1.985
30
0
40
1
210
0
220
0
230
1
100
AcDbArc
50
240
51
270
0
ARC
5
BC
100
AcDbEntity
8
SK2
62
256
6
ByLayer
370
13
48
1
60
0
100
AcDbCircle
39
0
10
14.5599
20
0
30
0
40
16.35
210
0
220
0
230
1
100
AcDbArc
50
10.57289
51
65
0
ARC
5
BD
100
AcDbEntity
8
SK2
62
256
6
ByLayer
370
13
48
1
60
0
100
AcDbCircle
39
0
10
14.5599
20
0
30
0
40
16.35
210
0
220
0
230
1
100
AcDbArc
50
295
51
349.42711
0
ELLIPSE
5
BE
100
AcDbEntity
8
1
62
256
6
ByLayer
370
18
48
1
60
0
100
AcDbEllipse
10
4.457978
20
1.036382
30
0
11
-1.4261425101577
21
0.968194395646041
31
0
210
0
220
0
230
1
40
0.455603
41
1.07207965269697
42
1.8707670727947
0
POINT
5
70
100
AcDbEntity
8
80
62
256
6
ByLayer
370
18
48
1
60
0
100
AcDbPoint
10
0
20
0
30
0
39
0
210
0
220
0
230
1
50
360
0
POINT
5
72
100
AcDbEntity
8
81
62
256
6
ByLayer
370
18
48
1
60
0
100
AcDbPoint
10
14.5599
20
0
30
0
39
0
210
0
220
0
230
1
50
360
0
POINT
5
74
100
AcDbEntity
8
1
62
256
6
ByLayer
370
18
48
1
60
1
100
AcDbPoint
10
-23.4401
20
1.5
30
0
39
0
210
0
220
0
230
1
50
360
0
POINT
5
76
100
AcDbEntity
8
1
62
256
6
ByLayer
370
18
48
1
60
1
100
AcDbPoint
10
14.5599
20
0.985
30
0
39
0
210
0
220
0
230
1
50
360
0
POINT
5
77
100
AcDbEntity
8
1
62
256
6
ByLayer
370
18
48
1
60
1
100
AcDbPoint
10
14.5599
20
0.985
30
0
39
0
210
0
220
0
230
1
50
360
0
POINT
5
78
100
AcDbEntity
8
1
62
256
6
ByLayer
370
18
48
1
60
1
100
AcDbPoint
10
6.3149
20
0
30
0
39
0
210
0
220
0
230
1
50
360
0
POINT
5
79
100
AcDbEntity
8
1
62
256
6
ByLayer
370
18
48
1
60
1
100
AcDbPoint
10
14.5599
20
0.985
30
0
39
0
210
0
220
0
230
1
50
360
0
POINT
5
7A
100
AcDbEntity
8
1
62
256
6
ByLayer
370
18
48
1
60
1
100
AcDbPoint
10
3.3599
20
0
30
0
39
0
210
0
220
0
230
1
50
360
0
POINT
5
7B
100
AcDbEntity
8
1
62
256
6
ByLayer
370
18
48
1
60
1
100
AcDbPoint
10
-23.4401
20
0
30
0
39
0
210
0
220
0
230
1
50
360
0
POINT
5
7C
100
AcDbEntity
8
1
62
256
6
ByLayer
370
18
48
1
60
1
100
AcDbPoint
10
0
20
0
30
0
39
0
210
0
220
0
230
1
50
360
0
POINT
5
7D
100
AcDbEntity
8
1
62
256
6
ByLayer
370
18
48
1
60
1
100
AcDbPoint
10
14.5599
20
0.985
30
0
39
0
210
0
220
0
230
1
50
360
0
POINT
5
7E
100
AcDbEntity
8
1
62
256
6
ByLayer
370
18
48
1
60
1
100
AcDbPoint
10
0
20
0
30
0
39
0
210
0
220
0
230
1
50
360
0
SPLINE
5
BF
100
AcDbEntity
8
1
62
256
6
ByLayer
370
18
48
1
60
0
100
AcDbSpline
70
4
71
3
72
18
73
14
40
0
40
0
40
0
40
0
40
0.249999999999998
40
0.249999999999998
40
0.499999999999995
40
0.499999999999995
40
0.62499999999999
40
0.62499999999999
40
0.687499999999987
40
0.687499999999987
40
0.749999999999984
40
0.749999999999984
40
1
40
1
40
1
40
1
41
1
10
3.38847241964359
20
0.92885586195942
30
0
41
1
10
3.47666750529385
20
0.936081688144668
30
0
41
1
10
3.56530198741478
20
0.940674000039166
30
0
41
1
10
3.74342097399551
20
0.9463363812458
30
0
41
1
10
3.83290557037839
20
0.947402003298549
30
0
41
1
10
3.96777775019171
20
0.946629059725751
30
0
41
1
10
4.01284298449721
20
0.9459659291999
30
0
41
1
10
4.08060633362868
20
0.944301385495692
30
0
41
1
10
4.10321072524585
20
0.943634044520422
30
0
41
1
10
4.14821369811548
20
0.942067014514095
30
0
41
1
10
4.17064449445903
20
0.941166609190532
30
0
41
1
10
4.28244763196466
20
0.936035371457052
30
0
41
1
10
4.37077135477981
20
0.929969157944441
30
0
41
1
10
4.45797800002936
20
0.920957715262688
30
0
0
SPLINE
5
C0
100
AcDbEntity
8
1
62
256
6
ByLayer
370
18
48
1
60
0
100
AcDbSpline
70
4
71
3
72
42
73
38
40
0
40
0
40
0
40
0
40
0.0829256167699428
40
0.0829256167699428
40
0.124388425154915
40
0.124388425154915
40
0.165851233539888
40
0.165851233539888
40
0.248776850309833
40
0.248776850309833
40
0.290239658694805
40
0.290239658694805
40
0.331702467079778
40
0.331702467079778
40
0.414628083849721
40
0.414628083849721
40
0.456090892234692
40
0.456090892234692
40
0.497553700619663
40
0.497553700619663
40
0.663404934159549
40
0.663404934159549
40
0.704867742544521
40
0.704867742544521
40
0.746330550929492
40
0.746330550929492
40
0.829256167699435
40
0.829256167699435
40
0.849987571891922
40
0.849987571891922
40
0.870718976084408
40
0.870718976084408
40
0.912181784469382
40
0.912181784469382
40
0.995107401239331
40
0.995107401239331
40
1
40
1
40
1
40
1
41
1
10
4.457978
20
-0.0985611325999116
30
0
41
1
10
4.55880434942091
20
-0.156626850089424
30
0
41
1
10
4.65938741885626
20
-0.213823278664506
30
0
41
1
10
4.81035796367445
20
-0.297556794409559
30
0
41
1
10
4.86069657847685
20
-0.325125491936149
30
0
41
1
10
4.96148492082403
20
-0.379440082330916
30
0
41
1
10
5.01194343416486
20
-0.406203099288831
30
0
41
1
10
5.16295718204731
20
-0.484683268706533
30
0
41
1
10
5.26349726171037
20
-0.534512108963554
30
0
41
1
10
5.41458572991337
20
-0.604832732538881
30
0
41
1
10
5.46504379410351
20
-0.627559676857487
30
0
41
1
10
5.56586736883807
20
-0.671312439054901
30
0
41
1
10
5.61619051973992
20
-0.692329825852909
30
0
41
1
10
5.76705115035713
20
-0.752607376583228
30
0
41
1
10
5.86761236675434
20
-0.788939728142736
30
0
41
1
10
6.01891698399248
20
-0.837141935863741
30
0
41
1
10
6.06930662509791
20
-0.852121166887571
30
0
41
1
10
6.16971082208724
20
-0.879737791276852
30
0
41
1
10
6.21976932279634
20
-0.892404301774718
30
0
41
1
10
6.46964275325976
20
-0.949836865553976
30
0
41
1
10
6.66863400428144
20
-0.976725898630832
30
0
41
1
10
6.91929407668081
20
-0.985041716807729
30
0
41
1
10
6.96955074964822
20
-0.98542896500129
30
0
41
1
10
7.07042841054729
20
-0.983618333852093
30
0
41
1
10
7.1208111176685
20
-0.981424449424395
30
0
41
1
10
7.27178267955563
20
-0.971033680669279
30
0
41
1
10
7.37224336080601
20
-0.959029992605764
30
0
41
1
10
7.49798992342207
20
-0.937773598867636
30
0
41
1
10
7.52315541274083
20
-0.933213125037298
30
0
41
1
10
7.57353660781337
20
-0.923483097664928
30
0
41
1
10
7.59877465251915
20
-0.918308072261397
30
0
41
1
10
7.67435135666884
20
-0.901923757558592
30
0
41
1
10
7.72456929198688
20
-0.889853045685811
30
0
41
1
10
7.87484708681055
20
-0.850352356961906
30
0
41
1
10
7.97451798748239
20
-0.819626306998629
30
0
41
1
10
8.07986517530799
20
-0.78280673601256
30
0
41
1
10
8.08573415686325
20
-0.780741898762528
30
0
41
1
10
8.0916029971884
20
-0.778663617244035
30
0
0
SPLINE
5
C1
100
AcDbEntity
8
1
62
256
6
ByLayer
370
18
48
1
60
0
100
AcDbSpline
70
4
71
3
72
32
73
28
40
0
40
0
40
0
40
0
40
0.148791279532492
40
0.148791279532492
40
0.233912151579242
40
0.233912151579242
40
0.319033023625992
40
0.319033023625992
40
0.489274767719492
40
0.489274767719492
40
0.574395639766242
40
0.574395639766242
40
0.659516511812992
40
0.659516511812992
40
0.829758255906499
40
0.829758255906499
40
0.872318691929875
40
0.872318691929875
40
0.914879127953249
40
0.914879127953249
40
0.936159345964937
40
0.936159345964937
40
0.957439563976625
40
0.957439563976625
40
0.978719781988313
40
0.978719781988313
40
1
40
1
40
1
40
1
41
1
10
12.3264178470967
20
0.985000151398481
30
0
41
1
10
12.4143366231321
20
0.985019949784288
30
0
41
1
10
12.5021609106888
20
0.981106662704832
30
0
41
1
10
12.6404300815707
20
0.968861337034269
30
0
41
1
10
12.6907858585641
20
0.963135079111765
30
0
41
1
10
12.7916556501511
20
0.949145308804333
30
0
41
1
10
12.8420312914525
20
0.940895689445
30
0
41
1
10
12.9929098164914
20
0.91250853364275
30
0
41
1
10
13.0933727163433
20
0.888786600680277
30
0
41
1
10
13.2443981418978
20
0.846421603817447
30
0
41
1
10
13.2948432153074
20
0.831148113331892
30
0
41
1
10
13.3956720990538
20
0.798458361303062
30
0
41
1
10
13.4459555910587
20
0.781070707623911
30
0
41
1
10
13.5965514192021
20
0.725941076840172
30
0
41
1
10
13.6967463196928
20
0.685390198867253
30
0
41
1
10
13.8221549748124
20
0.630524165858844
30
0
41
1
10
13.8472223975113
20
0.619311120244618
30
0
41
1
10
13.897396119409
20
0.596494116489396
30
0
41
1
10
13.9226073262094
20
0.585040799911553
30
0
41
1
10
13.9603047652041
20
0.567358827942911
30
0
41
1
10
13.9728325247866
20
0.561353738138138
30
0
41
1
10
13.9978502405761
20
0.549171493046202
30
0
41
1
10
14.0103553748335
20
0.543016143756091
30
0
41
1
10
14.0355255789474
20
0.530831657135309
30
0
41
1
10
14.048177004246
20
0.524781522465673
30
0
41
1
10
14.0738906483337
20
0.51320882531283
30
0
41
1
10
14.0869647270681
20
0.507703294596894
30
0
41
1
10
14.1005869567173
20
0.503017008458556
30
0
0
SPLINE
5
C2
100
AcDbEntity
8
1
62
256
6
ByLayer
370
18
48
1
60
0
100
AcDbSpline
70
4
71
3
72
28
73
24
40
0
40
0
40
0
40
0
40
0.0624999999999993
40
0.0624999999999993
40
0.124999999999999
40
0.124999999999999
40
0.249999999999997
40
0.249999999999997
40
0.312499999999997
40
0.312499999999997
40
0.374999999999996
40
0.374999999999996
40
0.499999999999995
40
0.499999999999995
40
0.624999999999994
40
0.624999999999994
40
0.749999999999993
40
0.749999999999993
40
0.874999999999993
40
0.874999999999993
40
0.937499999999996
40
0.937499999999996
40
1
40
1
40
1
40
1
41
1
10
14.1005869567173
20
0.503017008458556
30
0
41
1
10
14.1083091834961
20
0.491648863994072
30
0
41
1
10
14.1160247605565
20
0.480938612832119
30
0
41
1
10
14.1314565764628
20
0.460916501462776
30
0
41
1
10
14.1391730670095
20
0.451620518546008
30
0
41
1
10
14.1623308366174
20
0.425231167952404
30
0
41
1
10
14.1777804651277
20
0.409592590664431
30
0
41
1
10
14.2009563748113
20
0.387048360980828
30
0
41
1
10
14.2086816836539
20
0.379672534843081
30
0
41
1
10
14.2241303006629
20
0.36515317932799
30
0
41
1
10
14.2318556505499
20
0.358032659404387
30
0
41
1
10
14.2550121094284
20
0.337292352589344
30
0
41
1
10
14.2703373560036
20
0.324391713023999
30
0
41
1
10
14.3006017758317
20
0.301085356744693
30
0
41
1
10
14.3155488789156
20
0.290624021550229
30
0
41
1
10
14.3449142018023
20
0.271675261587888
30
0
41
1
10
14.3593439178167
20
0.263177504282424
30
0
41
1
10
14.387199043693
20
0.24820088154047
30
0
41
1
10
14.4006496441491
20
0.24173256853561
30
0
41
1
10
14.4191423258522
20
0.23360263271482
30
0
41
1
10
14.4250181586071
20
0.231153641227422
30
0
41
1
10
14.4358588202707
20
0.226781869191285
30
0
41
1
10
14.440825873915
20
0.224859021756174
30
0
41
1
10
14.4450716368072
20
0.223203233399403
30
0
0
SPLINE
5
C3
100
AcDbEntity
8
1
62
256
6
ByLayer
370
18
48
1
60
0
100
AcDbSpline
70
4
71
3
72
24
73
20
40
0
40
0
40
0
40
0
40
0.0578435799879744
40
0.0578435799879744
40
0.115687159975949
40
0.115687159975949
40
0.173530739963923
40
0.173530739963923
40
0.231374319951898
40
0.231374319951898
40
0.347061479927871
40
0.347061479927871
40
0.462748639903843
40
0.462748639903843
40
0.694122959855789
40
0.694122959855789
40
0.925497279807734
40
0.925497279807734
40
1
40
1
40
1
40
1
41
1
10
14.1005869567173
20
0.948358431630083
30
0
41
1
10
14.0869807606552
20
0.946887383758849
30
0
41
1
10
14.0739260966008
20
0.945106012584688
30
0
41
1
10
14.0482491715539
20
0.941185332266912
30
0
41
1
10
14.0356150355751
20
0.939053603031226
30
0
41
1
10
14.0104741166572
20
0.934569326306928
30
0
41
1
10
13.9979812452163
20
0.932209744421158
30
0
41
1
10
13.9729824124937
20
0.927344165694251
30
0
41
1
10
13.960461293925
20
0.924847824902542
30
0
41
1
10
13.9227730736589
20
0.917215470796606
30
0
41
1
10
13.8975544005443
20
0.911896538085756
30
0
41
1
10
13.8473435106193
20
0.90052409986086
30
0
41
1
10
13.8222458193268
20
0.894537916437287
30
0
41
1
10
13.7468726247502
20
0.875759273230187
30
0
41
1
10
13.6966087974789
20
0.862079442264871
30
0
41
1
10
13.5959611663546
20
0.832455813076308
30
0
41
1
10
13.5456582754209
20
0.816522781038373
30
0
41
1
10
13.4792668262392
20
0.794091826225724
30
0
41
1
10
13.4630972526718
20
0.788523698808547
30
0
41
1
10
13.4469278295265
20
0.782852511769676
30
0
0
SPLINE
5
C4
100
AcDbEntity
8
1
62
256
6
ByLayer
370
18
48
1
60
0
100
AcDbSpline
70
4
71
3
72
52
73
48
40
0
40
0
40
0
40
0
40
0.046559727686155
40
0.046559727686155
40
0.110122412507075
40
0.110122412507075
40
0.141903754917534
40
0.141903754917534
40
0.173685097327993
40
0.173685097327993
40
0.237247782148913
40
0.237247782148913
40
0.269029124559375
40
0.269029124559375
40
0.300810466969837
40
0.300810466969837
40
0.364373151790765
40
0.364373151790765
40
0.396154494201227
40
0.396154494201227
40
0.42793583661169
40
0.42793583661169
40
0.491498521432615
40
0.491498521432615
40
0.523279863843077
40
0.523279863843077
40
0.555061206253539
40
0.555061206253539
40
0.618623891074463
40
0.618623891074463
40
0.650405233484924
40
0.650405233484924
40
0.682186575895385
40
0.682186575895385
40
0.745749260716307
40
0.745749260716307
40
0.777530603126769
40
0.777530603126769
40
0.809311945537231
40
0.809311945537231
40
0.872874630358155
40
0.872874630358155
40
0.904655972768617
40
0.904655972768617
40
0.936437315179078
40
0.936437315179078
40
1
40
1
40
1
40
1
41
1
10
9.19910920567051
20
-0.985000603613059
30
0
41
1
10
9.12560470526262
20
-0.984990606282736
30
0
41
1
10
9.05201960632931
20
-0.982235125235462
30
0
41
1
10
8.87755509987716
20
-0.969233529376595
30
0
41
1
10
8.77723135925314
20
-0.956667147603781
30
0
41
1
10
8.62680414808514
20
-0.930435757041437
30
0
41
1
10
8.57664540668657
20
-0.920473657308349
30
0
41
1
10
8.47618076393709
20
-0.898184245683126
30
0
41
1
10
8.42582540333072
20
-0.885835865322974
30
0
41
1
10
8.27489703030037
20
-0.845416993742248
30
0
41
1
10
8.17460369781432
20
-0.814014640147775
30
0
41
1
10
8.02415751639495
20
-0.760696612197705
30
0
41
1
10
7.97397909153059
20
-0.741917285437296
30
0
41
1
10
7.87345376131449
20
-0.702469055675181
30
0
41
1
10
7.82306407170663
20
-0.681769596049293
30
0
41
1
10
7.67222620625182
20
-0.617232093588996
30
0
41
1
10
7.57194815464615
20
-0.570890182320852
30
0
41
1
10
7.42148155064933
20
-0.497041787371302
30
0
41
1
10
7.37128221662019
20
-0.471754472010161
30
0
41
1
10
7.27069707007007
20
-0.419986775206638
30
0
41
1
10
7.22033180814643
20
-0.393502291176588
30
0
41
1
10
7.06958954004961
20
-0.312810432629306
30
0
41
1
10
6.96933723577658
20
-0.257217861581836
30
0
41
1
10
6.81881324413868
20
-0.171971212599288
30
0
41
1
10
6.76858662330145
20
-0.143292922604672
30
0
41
1
10
6.66792171402565
20
-0.0855955210641639
30
0
41
1
10
6.6176237290654
20
-0.0566428875615372
30
0
41
1
10
6.46693849986221
20
0.0301967967668872
30
0
41
1
10
6.36667583358269
20
0.0881392786011475
30
0
41
1
10
6.21609052606763
20
0.17428532644513
30
0
41
1
10
6.16579026865659
20
0.202845536783684
30
0
41
1
10
6.06515475849864
20
0.259301914037991
30
0
41
1
10
6.01491488494142
20
0.287169610286725
30
0
41
1
10
5.86429750516473
20
0.369483009100975
30
0
41
1
10
5.76403592754929
20
0.422663852093763
30
0
41
1
10
5.61338593918333
20
0.499093163777701
30
0
41
1
10
5.563032544278
20
0.523986796226836
30
0
41
1
10
5.4624661016563
20
0.572213413261011
30
0
41
1
10
5.41224140039023
20
0.595562377756124
30
0
41
1
10
5.26162928397071
20
0.663176093614908
30
0
41
1
10
5.16131284843607
20
0.705022885028257
30
0
41
1
10
5.01049105341764
20
0.762273007667517
30
0
41
1
10
4.96015570972781
20
0.780384274358056
30
0
41
1
10
4.85968051314441
20
0.814421893812892
30
0
41
1
10
4.80948934523749
20
0.830377457929842
30
0
41
1
10
4.65893496561213
20
0.874956344367263
30
0
41
1
10
4.55859459393406
20
0.900301332122865
30
0
41
1
10
4.457978
20
0.920957715265615
30
0
0
SPLINE
5
C5
100
AcDbEntity
8
1
62
256
6
ByLayer
370
18
48
1
60
0
100
AcDbSpline
70
4
71
3
72
39
73
35
40
0
40
0
40
0
40
0
40
0.0668361256474369
40
0.0918996727652257
40
0.116963219883015
40
0.150381282706733
40
0.183799345530451
40
0.21721740835417
40
0.250635471177888
40
0.284053534001607
40
0.300762565413466
40
0.334180628237184
40
0.367598691060903
40
0.401016753884621
40
0.43443481670834
40
0.467852879532058
40
0.492916426649847
40
0.517979973767636
40
0.551398036591354
40
0.584816099415073
40
0.618234162238791
40
0.65165222506251
40
0.676715772180298
40
0.701779319298087
40
0.735197382121806
40
0.768615444945524
40
0.802033507769243
40
0.835451570592961
40
0.868869633416679
40
0.885578664828539
40
0.918996727652257
40
0.952414790475976
40
0.985832853299694
40
1
40
1
40
1
40
1
41
1
10
4.457978
20
0.129548318681998
30
0
41
1
10
4.51059222218853
20
0.123073711475939
30
0
41
1
10
4.58293677711981
20
0.11393263613968
30
0
41
1
10
4.67501166452763
20
0.101937437108376
30
0
41
1
10
4.74077944102751
20
0.0932369464094052
30
0
41
1
10
4.81312399495602
20
0.0835072657492901
30
0
41
1
10
4.89204532633968
20
0.0727115124950615
30
0
41
0.999999999999999
10
4.97096665764994
20
0.0617540792322018
30
0
41
1
10
5.0498879889881
20
0.0506473375477867
30
0
41
1
10
5.11565576521093
20
0.0412917013714491
30
0
41
1
10
5.1814235415778
20
0.0319017416647398
30
0
41
1
10
5.2471913181204
20
0.0224755481831949
30
0
41
1
10
5.32611265035396
20
0.0111214763370526
30
0
41
1
10
5.40503398307126
20
-0.0002541196803065
30
0
41
1
10
5.48395531637379
20
-0.011632954954564
30
0
41
1
10
5.55629987252945
20
-0.0220493639666017
30
0
41
1
10
5.62206765143097
20
-0.0314927138113035
30
0
41
1
10
5.68783543085368
20
-0.0409102776329178
30
0
41
1
10
5.76017998904146
20
-0.0511868716614856
30
0
41
1
10
5.83910132607471
20
-0.0622737928948993
30
0
41
1
10
5.91802266494903
20
-0.0732192505568321
30
0
41
1
10
5.99036722399606
20
-0.0831063179576006
30
0
41
1
10
6.05613499143524
20
-0.0919646313217867
30
0
41
1
10
6.12190275192643
20
-0.10070521324576
30
0
41
1
10
6.1942472789633
20
-0.110149839591685
30
0
41
1
10
6.27316857124834
20
-0.120243413395855
30
0
41
1
10
6.35208985510457
20
-0.130069891865389
30
0
41
1
10
6.4310111321154
20
-0.139600684678271
30
0
41
1
10
6.49677885855723
20
-0.147289392342827
30
0
41
1
10
6.56254658268051
20
-0.154777066832935
30
0
41
1
10
6.62831430497508
20
-0.162059924970236
30
0
41
1
10
6.70723557037209
20
-0.170457242368514
30
0
41
1
10
6.77100229044325
20
-0.176953438463073
30
0
41
1
10
6.8084619225798
20
-0.180644871358027
30
0
41
1
10
6.81961446583045
20
-0.18173250602203
30
0
0
SPLINE
5
C6
100
AcDbEntity
8
1
62
256
6
ByLayer
370
18
48
1
60
0
100
AcDbSpline
70
4
71
3
72
24
73
20
40
0
40
0
40
0
40
0
40
0.124999999999999
40
0.124999999999999
40
0.249999999999998
40
0.249999999999998
40
0.374999999999997
40
0.374999999999997
40
0.499999999999995
40
0.499999999999995
40
0.624999999999994
40
0.624999999999994
40
0.749999999999993
40
0.749999999999993
40
0.874999999999992
40
0.874999999999992
40
0.937499999999996
40
0.937499999999996
40
1
40
1
40
1
40
1
41
1
10
14.4450716368072
20
0.223203233399403
30
0
41
1
10
14.4366891495806
20
0.25277604567475
30
0
41
1
10
14.425549044131
20
0.281977384339172
30
0
41
1
10
14.4010651449473
20
0.340430848821654
30
0
41
1
10
14.3876637511447
20
0.36966848841945
30
0
41
1
10
14.3598192720591
20
0.428511289770199
30
0
41
1
10
14.3453480021169
20
0.458115970856426
30
0
41
1
10
14.3159159244713
20
0.517678939020954
30
0
41
1
10
14.3009371184617
20
0.547656452293978
30
0
41
1
10
14.270720892254
20
0.607913342111885
30
0
41
1
10
14.2554836099074
20
0.638166899777616
30
0
41
1
10
14.2247871072927
20
0.699251880634989
30
0
41
1
10
14.209332392553
20
0.730092281928791
30
0
41
1
10
14.1782868159296
20
0.792569703744391
30
0
41
1
10
14.1627004273189
20
0.824158613369121
30
0
41
1
10
14.1393564743142
20
0.871221801098756
30
0
41
1
10
14.1315812934373
20
0.886851114569112
30
0
41
1
10
14.116063713106
20
0.917810660782436
30
0
41
1
10
14.1083202299739
20
0.933147265080919
30
0
41
1
10
14.1005869567173
20
0.948358431630083
30
0
0
SPLINE
5
C7
100
AcDbEntity
8
1
62
256
6
ByLayer
370
18
48
1
60
0
100
AcDbSpline
70
4
71
3
72
70
73
66
40
0
40
0
40
0
40
0
40
0.0080660194432877
40
0.0080660194432877
40
0.0313110208724886
40
0.0313110208724886
40
0.0778010237308907
40
0.0778010237308907
40
0.089423524445492
40
0.089423524445492
40
0.101046025160093
40
0.101046025160093
40
0.124291026589296
40
0.124291026589296
40
0.170781029447701
40
0.170781029447701
40
0.263761035164507
40
0.263761035164507
40
0.287006036593708
40
0.287006036593708
40
0.310251038022908
40
0.310251038022908
40
0.356741040881309
40
0.356741040881309
40
0.37998604231051
40
0.37998604231051
40
0.403231043739712
40
0.403231043739712
40
0.449721046598118
40
0.449721046598118
40
0.496211049456523
40
0.496211049456523
40
0.519456050885725
40
0.519456050885725
40
0.531078551600326
40
0.531078551600326
40
0.542701052314927
40
0.542701052314927
40
0.589191055173337
40
0.589191055173337
40
0.635681058031747
40
0.635681058031747
40
0.682171060890158
40
0.682171060890158
40
0.705416062319362
40
0.705416062319362
40
0.728661063748566
40
0.728661063748566
40
0.775151066606974
40
0.775151066606974
40
0.798396068036177
40
0.798396068036177
40
0.821641069465379
40
0.821641069465379
40
0.868131072323787
40
0.868131072323787
40
0.891376073752991
40
0.891376073752991
40
0.914621075182195
40
0.914621075182195
40
0.961111078040603
40
0.961111078040603
40
0.984356079469807
40
0.984356079469807
40
1
40
1
40
1
40
1
41
1
10
6.96754612974706
20
0.984999869611926
30
0
41
1
10
6.98500694805696
20
0.984996302279882
30
0
41
1
10
7.00248729736649
20
0.984837794084825
30
0
41
1
10
7.07042841054729
20
0.983618333852093
30
0
41
1
10
7.12081111766852
20
0.981424449424395
30
0
41
1
10
7.27178267955563
20
0.971033680669279
30
0
41
1
10
7.37224336080601
20
0.959029992605764
30
0
41
1
10
7.49798992342207
20
0.937773598867636
30
0
41
1
10
7.52315541274083
20
0.933213125037298
30
0
41
1
10
7.57353660781337
20
0.923483097664928
30
0
41
1
10
7.59877465251915
20
0.918308072261397
30
0
41
1
10
7.67435135666881
20
0.901923757558592
30
0
41
1
10
7.72456929198685
20
0.889853045685811
30
0
41
1
10
7.87484708681052
20
0.850352356961906
30
0
41
1
10
7.97451798748239
20
0.819626306998629
30
0
41
1
10
8.27295199024479
20
0.715321558327418
30
0
41
1
10
8.47167202472815
20
0.630254015502601
30
0
41
1
10
8.72289913816459
20
0.507989735766643
30
0
41
1
10
8.77338494927199
20
0.482736281396598
30
0
41
1
10
8.87412584814976
20
0.431230262372907
30
0
41
1
10
8.92443759006665
20
0.404931701975187
30
0
41
1
10
9.07531858592944
20
0.32460221551429
30
0
41
1
10
9.17582550576253
20
0.269126662398918
30
0
41
1
10
9.32693596084019
20
0.183773802628764
30
0
41
1
10
9.37738577667466
20
0.155027742703737
30
0
41
1
10
9.47807712358286
20
0.0973964828448572
30
0
41
1
10
9.52837510310295
20
0.0684675006759221
30
0
41
1
10
9.67924041447233
20
-0.0184601307852574
30
0
41
1
10
9.77977150330813
20
-0.0766125996333074
30
0
41
1
10
9.98139573790141
20
-0.192184015797437
30
0
41
1
10
10.0819963636229
20
-0.248965727442084
30
0
41
1
10
10.2328566688827
20
-0.33171084907255
30
0
41
1
10
10.2831458239964
20
-0.358898899297117
30
0
41
1
10
10.3586428745013
20
-0.398990133611136
30
0
41
1
10
10.3838195350238
20
-0.412238050066975
30
0
41
1
10
10.4341997070954
20
-0.438493120363688
30
0
41
1
10
10.4594254906162
20
-0.451513385671859
30
0
41
1
10
10.5853320512745
20
-0.515730819516506
30
0
41
1
10
10.685415344693
20
-0.564203989969116
30
0
41
1
10
10.8849728854022
20
-0.654606835872386
30
0
41
1
10
10.9844292245577
20
-0.696562066680031
30
0
41
1
10
11.1833155023162
20
-0.773183344384648
30
0
41
1
10
11.282884835434
20
-0.807684286766573
30
0
41
1
10
11.432917856752
20
-0.853157640360905
30
0
41
1
10
11.4830399359801
20
-0.867270551164097
30
0
41
1
10
11.5835821561994
20
-0.893305324463256
30
0
41
1
10
11.634075817837
20
-0.905240805847711
30
0
41
1
10
11.7851017358945
20
-0.937374676820951
30
0
41
1
10
11.885584082236
20
-0.953891808405331
30
0
41
1
10
12.0364928003264
20
-0.971160301252752
30
0
41
1
10
12.0868238388657
20
-0.975664992404745
30
0
41
1
10
12.1876230929222
20
-0.982129253863519
30
0
41
1
10
12.238071887543
20
-0.98408542649031
30
0
41
1
10
12.3890169545657
20
-0.986067710452147
30
0
41
1
10
12.4894812019611
20
-0.982229596774573
30
0
41
1
10
12.6404300815707
20
-0.968861337034269
30
0
41
1
10
12.6907858585641
20
-0.963135079111765
30
0
41
1
10
12.7916556501511
20
-0.949145308804333
30
0
41
1
10
12.8420312914525
20
-0.940895689445
30
0
41
1
10
12.9929098164913
20
-0.91250853364275
30
0
41
1
10
13.0933727163433
20
-0.888786600680305
30
0
41
1
10
13.2443981418977
20
-0.846421603817447
30
0
41
1
10
13.2948432153074
20
-0.831148113331892
30
0
41
1
10
13.379186651534
20
-0.803803111452822
30
0
41
1
10
13.4130563346325
20
-0.792330679255969
30
0
41
1
10
13.4468807488426
20
-0.780402366965063
30
0
0
SPLINE
5
C8
100
AcDbEntity
8
1
62
256
6
ByLayer
370
18
48
1
60
0
100
AcDbSpline
70
4
71
3
72
74
73
70
40
0
40
0
40
0
40
0
40
0.0062675493378072
40
0.0062675493378072
40
0.0125350986756143
40
0.0125350986756143
40
0.0188026480134215
40
0.0188026480134215
40
0.0250701973512287
40
0.0250701973512287
40
0.0376052960268404
40
0.0376052960268404
40
0.0501403947024521
40
0.0501403947024521
40
0.0752105920536756
40
0.0752105920536756
40
0.100280789404899
40
0.100280789404899
40
0.150421184107346
40
0.150421184107346
40
0.175491381458569
40
0.175491381458569
40
0.200561578809793
40
0.200561578809793
40
0.225631776161016
40
0.225631776161016
40
0.25070197351224
40
0.25070197351224
40
0.300842368214689
40
0.300842368214689
40
0.325912565565914
40
0.325912565565914
40
0.350982762917139
40
0.350982762917139
40
0.401123157619586
40
0.401123157619586
40
0.451263552322033
40
0.451263552322033
40
0.476333749673257
40
0.476333749673257
40
0.501403947024482
40
0.501403947024482
40
0.551544341726932
40
0.551544341726932
40
0.576614539078157
40
0.576614539078157
40
0.601684736429381
40
0.601684736429381
40
0.651825131131833
40
0.651825131131833
40
0.676895328483059
40
0.676895328483059
40
0.701965525834286
40
0.701965525834286
40
0.752105920536738
40
0.752105920536738
40
0.777176117887965
40
0.777176117887965
40
0.802246315239193
40
0.802246315239193
40
0.852386709941645
40
0.852386709941645
40
0.902527104644097
40
0.902527104644097
40
0.927597301995322
40
0.927597301995322
40
0.952667499346546
40
0.952667499346546
40
1
40
1
40
1
40
1
41
1
10
14.1005869567173
20
-0.948358431630083
30
0
41
1
10
14.0869807606552
20
-0.946887383758849
30
0
41
1
10
14.0739260966008
20
-0.945106012584688
30
0
41
1
10
14.0482491715539
20
-0.941185332266912
30
0
41
1
10
14.0356150355751
20
-0.939053603031226
30
0
41
1
10
14.0104741166572
20
-0.934569326306928
30
0
41
1
10
13.9979812452163
20
-0.932209744421158
30
0
41
1
10
13.9729824124937
20
-0.927344165694251
30
0
41
1
10
13.960461293925
20
-0.924847824902542
30
0
41
1
10
13.922773073659
20
-0.917215470796606
30
0
41
1
10
13.8975544005442
20
-0.911896538085756
30
0
41
1
10
13.8473435106193
20
-0.900524099860888
30
0
41
1
10
13.8222458193268
20
-0.894537916437287
30
0
41
1
10
13.7468726247502
20
-0.875759273230187
30
0
41
1
10
13.6966087974789
20
-0.862079442264871
30
0
41
1
10
13.5959611663546
20
-0.832455813076308
30
0
41
1
10
13.5456582754209
20
-0.816522781038373
30
0
41
1
10
13.3949969861871
20
-0.765620494486825
30
0
41
1
10
13.294611906274
20
-0.727650263002431
30
0
41
1
10
13.1436523373421
20
-0.665196031150856
30
0
41
1
10
13.0932909897918
20
-0.643465081964166
30
0
41
1
10
12.9927709529134
20
-0.598434143034808
30
0
41
1
10
12.9425714888316
20
-0.575102133410667
30
0
41
1
10
12.8421735699047
20
-0.526968044523414
30
0
41
1
10
12.7919555205602
20
-0.502194362485625
30
0
41
1
10
12.691373523913
20
-0.451394879875011
30
0
41
1
10
12.6409988213843
20
-0.425350304739567
30
0
41
1
10
12.4901626691586
20
-0.345809268261604
30
0
41
1
10
12.3898013802568
20
-0.290793345782504
30
0
41
1
10
12.2390554614192
20
-0.206086983956055
30
0
41
1
10
12.1886818066701
20
-0.177503175731289
30
0
41
1
10
12.0882609009372
20
-0.120225626766853
30
0
41
1
10
12.0381700606327
20
-0.0914836802145658
30
0
41
1
10
11.8881358840555
20
-0.0051578655524622
30
0
41
1
10
11.7884384532159
20
0.0525398262674059
30
0
41
1
10
11.58907762676
20
0.167145627585512
30
0
41
1
10
11.4892656600906
20
0.223794438841878
30
0
41
1
10
11.3388788585228
20
0.306964617577762
30
0
41
1
10
11.2885830322231
20
0.334420281466862
30
0
41
1
10
11.1879485369511
20
0.388450400387711
30
0
41
1
10
11.1377367427706
20
0.414980909007738
30
0
41
1
10
10.9872432861582
20
0.492843206130317
30
0
41
1
10
10.8869838321218
20
0.542263515874481
30
0
41
1
10
10.7362146122918
20
0.611962877186386
30
0
41
1
10
10.6858360399235
20
0.634486126901095
30
0
41
1
10
10.5852632331683
20
0.677771180870764
30
0
41
1
10
10.5350689565064
20
0.698549922850447
30
0
41
1
10
10.3845952605336
20
0.758088429488623
30
0
41
1
10
10.2843203718524
20
0.793930949587747
30
0
41
1
10
10.1334635206899
20
0.841382451699246
30
0
41
1
10
10.0830801248262
20
0.856155393901986
30
0
41
1
10
9.98257488446606
20
0.883381727774633
30
0
41
1
10
9.9324019017283
20
0.895859402585927
30
0
41
1
10
9.78197315697665
20
0.92977122395439
30
0
41
1
10
9.68167302750234
20
0.947599100821492
30
0
41
1
10
9.53071195165896
20
0.966905738664394
30
0
41
1
10
9.48037008057403
20
0.972090998965228
30
0
41
1
10
9.37991372619237
20
0.979909816586002
30
0
41
1
10
9.32975253159842
20
0.982550665172738
30
0
41
1
10
9.17932539166071
20
0.986637511495616
30
0
41
1
10
9.07895701586483
20
0.984242578323716
30
0
41
1
10
8.87755509987713
20
0.969233529376595
30
0
41
1
10
8.77723135925314
20
0.956667147603781
30
0
41
1
10
8.62680414808514
20
0.930435757041437
30
0
41
1
10
8.57664540668657
20
0.920473657308349
30
0
41
1
10
8.47618076393707
20
0.898184245683126
30
0
41
1
10
8.42582540333072
20
0.885835865322974
30
0
41
1
10
8.28053175366691
20
0.846925982115806
30
0
41
1
10
8.18583769990244
20
0.817517768053392
30
0
41
1
10
8.09115642668414
20
0.784401941989159
30
0
0
SPLINE
5
C9
100
AcDbEntity
8
1
62
256
6
ByLayer
370
18
48
1
60
0
100
AcDbSpline
70
4
71
3
72
47
73
43
40
0
40
0
40
0
40
0
40
0.0113411189729968
40
0.0391432658574353
40
0.0669454127418735
40
0.0947475596263122
40
0.12254970651075
40
0.13645077995297
40
0.164252926837408
40
0.192055073721847
40
0.219857220606285
40
0.247659367490724
40
0.275461514375162
40
0.296313124538491
40
0.317164734701819
40
0.344966881586258
40
0.372769028470696
40
0.400571175355135
40
0.428373322239573
40
0.456175469124012
40
0.470076542566231
40
0.497878689450669
40
0.525680836335108
40
0.553482983219546
40
0.581285130103984
40
0.609087276988423
40
0.622988350430642
40
0.650790497315081
40
0.678592644199519
40
0.706394791083958
40
0.734196937968396
40
0.761999084852834
40
0.782850695016163
40
0.803702305179492
40
0.83150445206393
40
0.859306598948369
40
0.887108745832807
40
0.914910892717245
40
0.935762502880575
40
0.956614113043903
40
0.984416259928342
40
1
40
1
40
1
40
1
41
1
10
9.35837097578656
20
0.180608625127917
30
0
41
1
10
9.36910226700178
20
0.179555155161012
30
0
41
1
10
9.40614074495599
20
0.175883210583862
30
0
41
1
10
9.46948640968535
20
0.169393320610936
30
0
41
1
10
9.54840796976018
20
0.160951053848748
30
0
41
1
10
9.62732953052326
20
0.15216648266329
30
0
41
1
10
9.69309749507875
20
0.144572704142775
30
0
41
1
10
9.7588654724793
20
0.136784002167389
30
0
41
1
10
9.82463340269593
20
0.12880525375229
30
0
41
1
10
9.90355474243711
20
0.118931050973629
30
0
41
1
10
9.98247594245063
20
0.108815367260462
30
0
41
1
10
10.0613970178044
20
0.0984821965383559
30
0
41
0.999999999999999
10
10.133741240636
20
0.0888230131580202
30
0
41
1
10
10.1995086527786
20
0.0799079210792399
30
0
41
1
10
10.2652760196395
20
0.0708859511879609
30
0
41
1
10
10.337620076294
20
0.0608346145452856
30
0
41
1
10
10.4165408256239
20
0.0497318527044115
30
0
41
1
10
10.495461553912
20
0.0384998907601073
30
0
41
1
10
10.5743822798659
20
0.0271921985161896
30
0
41
1
10
10.6401495651387
20
0.0177372159951403
30
0
41
1
10
10.7059168723345
20
0.0082648086272457
30
0
41
1
10
10.7716842073118
20
-0.0012170383967032
30
0
41
1
10
10.8506050723932
20
-0.0125922565256076
30
0
41
1
10
10.9295260194186
20
-0.0239459848252181
30
0
41
1
10
11.0084470666466
20
-0.0352575660308219
30
0
41
1
10
11.0742147068231
20
-0.044637038791052
30
0
41
1
10
11.1399824264547
20
-0.053960256812303
30
0
41
1
10
11.2057502658533
20
-0.0631993748617389
30
0
41
1
10
11.2846716705235
20
-0.0741358563645917
30
0
41
1
10
11.3635930757009
20
-0.0849095647899105
30
0
41
1
10
11.4425144807504
20
-0.0954994029193017
30
0
41
1
10
11.5148591020841
20
-0.105022658967727
30
0
41
1
10
11.580626939647
20
-0.113521111411103
30
0
41
1
10
11.646394777214
20
-0.121873053907137
30
0
41
1
10
11.7187393985367
20
-0.130870383943091
30
0
41
1
10
11.7976608036163
20
-0.140387075250601
30
0
41
1
10
11.8765822086957
20
-0.149592144278927
30
0
41
1
10
11.9489268300186
20
-0.157731489009393
30
0
41
1
10
12.0146946675849
20
-0.164883086348965
30
0
41
0.999999999999999
10
12.0804625051507
20
-0.171816234874143
30
0
41
1
10
12.1412457431339
20
-0.177979459242124
30
0
41
1
10
12.1822986298445
20
-0.181990196585929
30
0
41
1
10
12.1970443815299
20
-0.183410932412954
30
0
0
SPLINE
5
CA
100
AcDbEntity
8
1
62
256
6
ByLayer
370
18
48
1
60
0
100
AcDbSpline
70
4
71
3
72
22
73
18
40
0
40
0
40
0
40
0
40
0.0240731139775326
40
0.0240731139775326
40
0.186727594981275
40
0.186727594981275
40
0.349382075985018
40
0.349382075985018
40
0.51203655698876
40
0.51203655698876
40
0.674691037992502
40
0.674691037992502
40
0.837345518996245
40
0.837345518996245
40
0.918672759498122
40
0.918672759498122
40
1
40
1
40
1
40
1
41
1
10
14.3798867535604
20
-0.386038166290916
30
0
41
1
10
14.3778511285958
20
-0.390385088954588
30
0
41
1
10
14.3758020245203
20
-0.394735476431464
30
0
41
1
10
14.3598192720592
20
-0.428511289770199
30
0
41
1
10
14.3453480021169
20
-0.458115970856426
30
0
41
1
10
14.3159159244713
20
-0.517678939020954
30
0
41
1
10
14.3009371184617
20
-0.547656452293978
30
0
41
1
10
14.2707208922539
20
-0.607913342111885
30
0
41
1
10
14.2554836099074
20
-0.638166899777616
30
0
41
1
10
14.2247871072927
20
-0.699251880634989
30
0
41
1
10
14.2093323925531
20
-0.730092281928791
30
0
41
1
10
14.1782868159296
20
-0.792569703744391
30
0
41
1
10
14.1627004273189
20
-0.824158613369121
30
0
41
1
10
14.1393564743141
20
-0.871221801098756
30
0
41
1
10
14.1315812934373
20
-0.886851114569112
30
0
41
1
10
14.116063713106
20
-0.917810660782436
30
0
41
1
10
14.1083202299739
20
-0.933147265080919
30
0
41
1
10
14.1005869567173
20
-0.948358431630083
30
0
0
SPLINE
5
CB
100
AcDbEntity
8
1
62
256
6
ByLayer
370
18
48
1
60
0
100
AcDbSpline
70
4
71
3
72
44
73
40
40
0
40
0
40
0
40
0
40
0.124999999999995
40
0.124999999999995
40
0.187499999999993
40
0.187499999999993
40
0.249999999999991
40
0.249999999999991
40
0.312499999999988
40
0.312499999999988
40
0.374999999999986
40
0.374999999999986
40
0.499999999999986
40
0.499999999999986
40
0.531249999999985
40
0.531249999999985
40
0.562499999999985
40
0.562499999999985
40
0.624999999999985
40
0.624999999999985
40
0.687499999999985
40
0.687499999999985
40
0.718749999999986
40
0.718749999999986
40
0.749999999999987
40
0.749999999999987
40
0.81249999999999
40
0.81249999999999
40
0.828124999999991
40
0.828124999999991
40
0.843749999999992
40
0.843749999999992
40
0.874999999999994
40
0.874999999999994
40
0.937499999999997
40
0.937499999999997
40
0.968749999999999
40
0.968749999999999
40
1
40
1
40
1
40
1
41
1
10
4.45797800000003
20
-0.0985611325999116
30
0
41
1
10
4.38292109971641
20
-0.0768042617062861
30
0
41
1
10
4.30937577834797
20
-0.05085910335481
30
0
41
1
10
4.20132308492626
20
-0.0055846703788518
30
0
41
1
10
4.16570055780772
20
0.0105665412930023
30
0
41
1
10
4.09562312291297
20
0.0448288109037378
30
0
41
1
10
4.0611182162157
20
0.0629597465865572
30
0
41
1
10
3.99319537333716
20
0.101239380285335
30
0
41
1
10
3.95968795178575
20
0.121449876402437
30
0
41
1
10
3.89448184591009
20
0.16348183040779
30
0
41
1
10
3.8627324778075
20
0.185324003480247
30
0
41
1
10
3.77011481312479
20
0.25324833025158
30
0
41
1
10
3.71184345705845
20
0.301708165483518
30
0
41
1
10
3.64394425667271
20
0.366222002267705
30
0
41
1
10
3.63061408833684
20
0.379323326651246
30
0
41
1
10
3.60448159210532
20
0.405930168562236
30
0
41
1
10
3.59163713827453
20
0.41948249393883
30
0
41
1
10
3.5542934569612
20
0.46038442526455
30
0
41
1
10
3.53103792178428
20
0.487897723762217
30
0
41
1
10
3.48803234968651
20
0.543228477911072
30
0
41
1
10
3.46827810476083
20
0.571046332751422
30
0
41
1
10
3.44160606547791
20
0.612864473465521
30
0
41
1
10
3.43326631969734
20
0.626738948170782
30
0
41
1
10
3.41790884468136
20
0.653993390366395
30
0
41
1
10
3.41085890611004
20
0.667423121442653
30
0
41
1
10
3.39163215002824
20
0.707067233338989
30
0
41
1
10
3.38136429774934
20
0.732639812465209
30
0
41
1
10
3.3720164863044
20
0.76332337929324
30
0
41
1
10
3.3703223816124
20
0.769395729094015
30
0
41
1
10
3.36729756096273
20
0.78140521442802
30
0
41
1
10
3.36596788754875
20
0.787344170757194
30
0
41
1
10
3.36258177671445
20
0.804723061298262
30
0
41
1
10
3.36110578998893
20
0.815804322827347
30
0
41
1
10
3.35897164669379
20
0.847554940303525
30
0
41
1
10
3.36059316526786
20
0.86673632357062
30
0
41
1
10
3.3676505977829
20
0.892517289295483
30
0
41
1
10
3.3707946717212
20
0.900631466386272
30
0
41
1
10
3.37854253320046
20
0.915616448281412
30
0
41
1
10
3.38314920281144
20
0.92251846688859
30
0
41
1
10
3.38847241964359
20
0.92885586195942
30
0
0
LINE
5
7F
100
AcDbEntity
8
1
62
256
6
ByLayer
370
18
48
1
60
0
100
AcDbLine
10
0.659944
20
1.118975
30
0
11
0
21
1.499993
31
0
39
0
210
0
220
0
230
1
0
LINE
5
80
100
AcDbEntity
8
1
62
256
6
ByLayer
370
18
48
1
60
0
100
AcDbLine
10
0
20
-1.499993
30
0
11
0.659944
21
-1.118975
31
0
39
0
210
0
220
0
230
1
0
LINE
5
81
100
AcDbEntity
8
1
62
256
6
ByLayer
370
18
48
1
60
0
100
AcDbLine
10
14.5599
20
0
30
0
11
14.379399
21
0.387085
31
0
39
0
210
0
220
0
230
1
0
LINE
5
82
100
AcDbEntity
8
1
62
256
6
ByLayer
370
18
48
1
60
0
100
AcDbLine
10
14.379399
20
-0.387085
30
0
11
14.5599
21
0
31
0
39
0
210
0
220
0
230
1
0
LINE
5
83
100
AcDbEntity
8
1
62
256
6
ByLayer
370
18
48
1
60
0
100
AcDbLine
10
1.159944
20
-0.985
30
0
11
6.967242
21
-0.985
31
0
39
0
210
0
220
0
230
1
0
LINE
5
84
100
AcDbEntity
8
1
62
256
6
ByLayer
370
18
48
1
60
0
100
AcDbLine
10
9.199115
20
-0.985
30
0
11
12.326749
21
-0.985
31
0
39
0
210
0
220
0
230
1
0
LINE
5
85
100
AcDbEntity
8
1
62
256
6
ByLayer
370
18
48
1
60
0
100
AcDbLine
10
12.326749
20
0.985
30
0
11
9.199115
21
0.985
31
0
39
0
210
0
220
0
230
1
0
LINE
5
86
100
AcDbEntity
8
1
62
256
6
ByLayer
370
18
48
1
60
0
100
AcDbLine
10
6.967242
20
0.985
30
0
11
1.159944
21
0.985
31
0
39
0
210
0
220
0
230
1
0
LINE
5
87
100
AcDbEntity
8
SK1
62
256
6
ByLayer
370
18
48
1
60
0
100
AcDbLine
10
-23.4401
20
-1.326795
30
0
11
-23.1401
21
-1.5
31
0
39
0
210
0
220
0
230
1
0
LINE
5
89
100
AcDbEntity
8
SK1
62
256
6
ByLayer
370
18
48
1
60
0
100
AcDbLine
10
-23.1401
20
1.5
30
0
11
-23.4401
21
1.326795
31
0
39
0
210
0
220
0
230
1
0
LINE
5
8A
100
AcDbEntity
8
SK1
62
256
6
ByLayer
370
18
48
1
60
0
100
AcDbLine
10
-23.1401
20
-1.5
30
0
11
-1.1E-05
21
-1.5
31
0
39
0
210
0
220
0
230
1
0
LINE
5
8B
100
AcDbEntity
8
SK1
62
256
6
ByLayer
370
18
48
1
60
0
100
AcDbLine
10
-1.1E-05
20
1.5
30
0
11
-23.1401
21
1.5
31
0
39
0
210
0
220
0
230
1
0
LINE
5
8C
100
AcDbEntity
8
1
62
256
6
ByLayer
370
18
48
1
60
0
100
AcDbLine
10
0
20
-1.499993
30
0
11
0
21
0
31
0
39
0
210
0
220
0
230
1
0
LINE
5
8D
100
AcDbEntity
8
1
62
256
6
ByLayer
370
18
48
1
60
0
100
AcDbLine
10
0
20
0
30
0
11
0
21
1.499993
31
0
39
0
210
0
220
0
230
1
0
LINE
5
8E
100
AcDbEntity
8
1
62
256
6
ByLayer
370
18
48
1
60
0
100
AcDbLine
10
14.100587
20
0.503017
30
0
11
14.100587
21
-0.948358
31
0
39
0
210
0
220
0
230
1
0
LINE
5
8F
100
AcDbEntity
8
1
62
256
6
ByLayer
370
18
48
1
60
0
100
AcDbLine
10
4.457978
20
0.920958
30
0
11
4.457978
21
0.129548
31
0
39
0
210
0
220
0
230
1
0
LINE
5
90
100
AcDbEntity
8
1
62
256
6
ByLayer
370
13
48
1
60
0
100
AcDbLine
10
1.159944
20
0.985
30
0
11
1.159944
21
-0.985
31
0
39
0
210
0
220
0
230
1
0
LINE
5
91
100
AcDbEntity
8
1
62
256
6
ByLayer
370
18
48
1
60
0
100
AcDbLine
10
4.457978
20
0.129548
30
0
11
4.457978
21
-0.098561
31
0
39
0
210
0
220
0
230
1
0
LINE
5
92
100
AcDbEntity
8
1
62
256
6
ByLayer
370
13
48
1
60
0
100
AcDbLine
10
0.659944
20
1.118975
30
0
11
0.659944
21
-1.118975
31
0
39
0
210
0
220
0
230
1
0
LINE
5
93
100
AcDbEntity
8
SK1
62
256
6
ByLayer
370
18
48
1
60
0
100
AcDbLine
10
-23.4401
20
1.326795
30
0
11
-23.4401
21
-1.326795
31
0
39
0
210
0
220
0
230
1
0
LINE
5
94
100
AcDbEntity
8
SK1
62
256
6
ByLayer
370
18
48
1
60
0
100
AcDbLine
10
-23.1401
20
1.5
30
0
11
-23.1401
21
-1.5
31
0
39
0
210
0
220
0
230
1
0
LINE
5
95
100
AcDbEntity
8
SK1
62
256
6
ByLayer
370
18
48
1
60
0
100
AcDbLine
10
0
20
-1.499993
30
0
11
0
21
0
31
0
39
0
210
0
220
0
230
1
0
LINE
5
96
100
AcDbEntity
8
SK1
62
256
6
ByLayer
370
18
48
1
60
0
100
AcDbLine
10
0
20
0
30
0
11
0
21
1.499993
31
0
39
0
210
0
220
0
230
1
0
LINE
5
97
100
AcDbEntity
8
SK1
62
256
6
ByLayer
370
18
48
1
60
0
100
AcDbLine
10
-1.1E-05
20
1.5
30
0
11
-1.1E-05
21
-1.5
31
0
39
0
210
0
220
0
230
1
0
LINE
5
98
100
AcDbEntity
8
4
62
256
6
ByLayer
370
18
48
0.05
60
0
100
AcDbLine
10
0
20
0
30
0
11
14.5599
21
0
31
0
39
0
210
0
220
0
230
1
0
LINE
5
9A
100
AcDbEntity
8
81
62
256
6
ByLayer
370
18
48
1
60
0
100
AcDbLine
10
14.5599
20
0
30
0
11
17.5599
21
0
31
0
39
0
210
0
220
0
230
1
0
LINE
5
9B
100
AcDbEntity
8
80
62
256
6
ByLayer
370
18
48
1
60
0
100
AcDbLine
10
0
20
0
30
0
11
-3
21
0
31
0
39
0
210
0
220
0
230
1
0
LINE
5
9C
100
AcDbEntity
8
SK4
62
256
6
ByLayer
370
18
48
0.05
60
0
100
AcDbLine
10
-26.4401
20
0
30
0
11
17.5599
21
0
31
0
39
0
210
0
220
0
230
1
0
LINE
5
9E
100
AcDbEntity
8
SK2
62
256
6
ByLayer
370
13
48
1
60
0
100
AcDbLine
10
-27.9401
20
-9
30
0
11
-27.9401
21
21.782741
31
0
39
0
210
0
220
0
230
1
0
LINE
5
A0
100
AcDbEntity
8
SK2
62
256
6
ByLayer
370
13
48
1
60
0
100
AcDbLine
10
-25.0276
20
-1.5
30
0
11
-29.9401
21
-1.5
31
0
39
0
210
0
220
0
230
1
0
LINE
5
A1
100
AcDbEntity
8
SK2
62
256
6
ByLayer
370
13
48
1
60
0
100
AcDbLine
10
-25.0276
20
1.5
30
0
11
-29.9401
21
1.5
31
0
39
0
210
0
220
0
230
1
0
LINE
5
A2
100
AcDbEntity
8
1
62
256
6
ByLayer
370
18
48
1
60
1
100
AcDbLine
10
-27.9401
20
-1.5
30
0
11
-27.479316
21
-4.999998
31
0
39
0
210
0
220
0
230
1
0
LINE
5
A3
100
AcDbEntity
8
1
62
256
6
ByLayer
370
18
48
1
60
1
100
AcDbLine
10
-27.479316
20
-4.999998
30
0
11
-28.400884
21
-5.000002
31
0
39
0
210
0
220
0
230
1
0
LINE
5
A4
100
AcDbEntity
8
1
62
256
6
ByLayer
370
18
48
1
60
1
100
AcDbLine
10
-28.400884
20
-5.000002
30
0
11
-27.9401
21
-1.5
31
0
39
0
210
0
220
0
230
1
0
LINE
5
A5
100
AcDbEntity
8
1
62
256
6
ByLayer
370
18
48
1
60
1
100
AcDbLine
10
-27.9401
20
1.5
30
0
11
-28.400884
21
4.999998
31
0
39
0
210
0
220
0
230
1
0
LINE
5
A6
100
AcDbEntity
8
1
62
256
6
ByLayer
370
18
48
1
60
1
100
AcDbLine
10
-28.400884
20
4.999998
30
0
11
-27.479316
21
5.000002
31
0
39
0
210
0
220
0
230
1
0
LINE
5
A7
100
AcDbEntity
8
1
62
256
6
ByLayer
370
18
48
1
60
1
100
AcDbLine
10
-27.479316
20
5.000002
30
0
11
-27.9401
21
1.5
31
0
39
0
210
0
220
0
230
1
0
LINE
5
A8
100
AcDbEntity
8
2
62
256
6
ByLayer
370
13
48
1
60
0
100
AcDbLine
10
20.0599
20
-8.485
30
0
11
20.0599
21
29.047855
31
0
39
0
210
0
220
0
230
1
0
LINE
5
AA
100
AcDbEntity
8
2
62
256
6
ByLayer
370
13
48
1
60
0
100
AcDbLine
10
16.1474
20
-0.985
30
0
11
22.0599
21
-0.985
31
0
39
0
210
0
220
0
230
1
0
LINE
5
AB
100
AcDbEntity
8
2
62
256
6
ByLayer
370
13
48
1
60
0
100
AcDbLine
10
16.1474
20
0.985
30
0
11
22.0599
21
0.985
31
0
39
0
210
0
220
0
230
1
0
LINE
5
AC
100
AcDbEntity
8
1
62
256
6
ByLayer
370
18
48
1
60
1
100
AcDbLine
10
20.0599
20
-0.985
30
0
11
20.520684
21
-4.484998
31
0
39
0
210
0
220
0
230
1
0
LINE
5
AD
100
AcDbEntity
8
1
62
256
6
ByLayer
370
18
48
1
60
1
100
AcDbLine
10
20.520684
20
-4.484998
30
0
11
19.599116
21
-4.485002
31
0
39
0
210
0
220
0
230
1
0
LINE
5
AE
100
AcDbEntity
8
1
62
256
6
ByLayer
370
18
48
1
60
1
100
AcDbLine
10
19.599116
20
-4.485002
30
0
11
20.0599
21
-0.985
31
0
39
0
210
0
220
0
230
1
0
LINE
5
AF
100
AcDbEntity
8
1
62
256
6
ByLayer
370
18
48
1
60
1
100
AcDbLine
10
20.0599
20
0.985
30
0
11
19.599116
21
4.484998
31
0
39
0
210
0
220
0
230
1
0
LINE
5
B0
100
AcDbEntity
8
1
62
256
6
ByLayer
370
18
48
1
60
1
100
AcDbLine
10
19.599116
20
4.484998
30
0
11
20.520684
21
4.485002
31
0
39
0
210
0
220
0
230
1
0
LINE
5
B1
100
AcDbEntity
8
1
62
256
6
ByLayer
370
18
48
1
60
1
100
AcDbLine
10
20.520684
20
4.485002
30
0
11
20.0599
21
0.985
31
0
39
0
210
0
220
0
230
1
0
LINE
5
B2
100
AcDbEntity
8
SK2
62
256
6
ByLayer
370
13
48
1
60
0
100
AcDbLine
10
15.230806
20
-1.438764
30
0
11
22.314945
21
-16.630748
31
0
39
0
210
0
220
0
230
1
0
LINE
5
B3
100
AcDbEntity
8
SK2
62
256
6
ByLayer
370
13
48
1
60
0
100
AcDbLine
10
15.230806
20
1.438764
30
0
11
22.314945
21
16.630748
31
0
39
0
210
0
220
0
230
1
0
LINE
5
B4
100
AcDbEntity
8
1
62
256
6
ByLayer
370
18
48
1
60
1
100
AcDbLine
10
21.469709
20
-14.818132
30
0
11
24.341742
21
-12.765394
31
0
39
0
210
0
220
0
230
1
0
LINE
5
B5
100
AcDbEntity
8
1
62
256
6
ByLayer
370
18
48
1
60
1
100
AcDbLine
10
24.341742
20
-12.765394
30
0
11
24.775171
21
-13.578675
31
0
39
0
210
0
220
0
230
1
0
LINE
5
B6
100
AcDbEntity
8
1
62
256
6
ByLayer
370
18
48
1
60
1
100
AcDbLine
10
24.775171
20
-13.578675
30
0
11
21.469709
21
-14.818132
31
0
39
0
210
0
220
0
230
1
0
LINE
5
B7
100
AcDbEntity
8
1
62
256
6
ByLayer
370
18
48
1
60
1
100
AcDbLine
10
21.469709
20
14.818132
30
0
11
24.775168
21
13.578677
31
0
39
0
210
0
220
0
230
1
0
LINE
5
B8
100
AcDbEntity
8
1
62
256
6
ByLayer
370
18
48
1
60
1
100
AcDbLine
10
24.775168
20
13.578677
30
0
11
24.341745
21
12.765392
31
0
39
0
210
0
220
0
230
1
0
LINE
5
B9
100
AcDbEntity
8
1
62
256
6
ByLayer
370
18
48
1
60
1
100
AcDbLine
10
24.341745
20
12.765392
30
0
11
21.469709
21
14.818132
31
0
39
0
210
0
220
0
230
1
0
LINE
5
D0
100
AcDbEntity
8
1
62
256
6
ByLayer
370
18
48
1
60
1
100
AcDbLine
10
-27.9401
20
-1.5
30
0
11
-27.479316
21
-4.999998
31
0
39
0
210
0
220
0
230
1
0
LINE
5
D1
100
AcDbEntity
8
1
62
256
6
ByLayer
370
18
48
1
60
1
100
AcDbLine
10
-27.479316
20
-4.999998
30
0
11
-28.400884
21
-5.000002
31
0
39
0
210
0
220
0
230
1
0
LINE
5
D2
100
AcDbEntity
8
1
62
256
6
ByLayer
370
18
48
1
60
1
100
AcDbLine
10
-28.400884
20
-5.000002
30
0
11
-27.9401
21
-1.5
31
0
39
0
210
0
220
0
230
1
0
LINE
5
D4
100
AcDbEntity
8
1
62
256
6
ByLayer
370
18
48
1
60
1
100
AcDbLine
10
-27.9401
20
1.5
30
0
11
-28.400884
21
4.999998
31
0
39
0
210
0
220
0
230
1
0
LINE
5
D5
100
AcDbEntity
8
1
62
256
6
ByLayer
370
18
48
1
60
1
100
AcDbLine
10
-28.400884
20
4.999998
30
0
11
-27.479316
21
5.000002
31
0
39
0
210
0
220
0
230
1
0
LINE
5
D6
100
AcDbEntity
8
1
62
256
6
ByLayer
370
18
48
1
60
1
100
AcDbLine
10
-27.479316
20
5.000002
30
0
11
-27.9401
21
1.5
31
0
39
0
210
0
220
0
230
1
0
LINE
5
DA
100
AcDbEntity
8
1
62
256
6
ByLayer
370
18
48
1
60
1
100
AcDbLine
10
20.0599
20
-0.985
30
0
11
20.520684
21
-4.484998
31
0
39
0
210
0
220
0
230
1
0
LINE
5
DB
100
AcDbEntity
8
1
62
256
6
ByLayer
370
18
48
1
60
1
100
AcDbLine
10
20.520684
20
-4.484998
30
0
11
19.599116
21
-4.485002
31
0
39
0
210
0
220
0
230
1
0
LINE
5
DC
100
AcDbEntity
8
1
62
256
6
ByLayer
370
18
48
1
60
1
100
AcDbLine
10
19.599116
20
-4.485002
30
0
11
20.0599
21
-0.985
31
0
39
0
210
0
220
0
230
1
0
LINE
5
DE
100
AcDbEntity
8
1
62
256
6
ByLayer
370
18
48
1
60
1
100
AcDbLine
10
20.0599
20
0.985
30
0
11
19.599116
21
4.484998
31
0
39
0
210
0
220
0
230
1
0
LINE
5
DF
100
AcDbEntity
8
1
62
256
6
ByLayer
370
18
48
1
60
1
100
AcDbLine
10
19.599116
20
4.484998
30
0
11
20.520684
21
4.485002
31
0
39
0
210
0
220
0
230
1
0
LINE
5
E0
100
AcDbEntity
8
1
62
256
6
ByLayer
370
18
48
1
60
1
100
AcDbLine
10
20.520684
20
4.485002
30
0
11
20.0599
21
0.985
31
0
39
0
210
0
220
0
230
1
0
LINE
5
E3
100
AcDbEntity
8
1
62
256
6
ByLayer
370
18
48
1
60
1
100
AcDbLine
10
21.469709
20
-14.818132
30
0
11
24.341742
21
-12.765394
31
0
39
0
210
0
220
0
230
1
0
LINE
5
E4
100
AcDbEntity
8
1
62
256
6
ByLayer
370
18
48
1
60
1
100
AcDbLine
10
24.341742
20
-12.765394
30
0
11
24.775171
21
-13.578675
31
0
39
0
210
0
220
0
230
1
0
LINE
5
E5
100
AcDbEntity
8
1
62
256
6
ByLayer
370
18
48
1
60
1
100
AcDbLine
10
24.775171
20
-13.578675
30
0
11
21.469709
21
-14.818132
31
0
39
0
210
0
220
0
230
1
0
LINE
5
E7
100
AcDbEntity
8
1
62
256
6
ByLayer
370
18
48
1
60
1
100
AcDbLine
10
21.469709
20
14.818132
30
0
11
24.775168
21
13.578677
31
0
39
0
210
0
220
0
230
1
0
LINE
5
E8
100
AcDbEntity
8
1
62
256
6
ByLayer
370
18
48
1
60
1
100
AcDbLine
10
24.775168
20
13.578677
30
0
11
24.341745
21
12.765392
31
0
39
0
210
0
220
0
230
1
0
LINE
5
E9
100
AcDbEntity
8
1
62
256
6
ByLayer
370
18
48
1
60
1
100
AcDbLine
10
24.341745
20
12.765392
30
0
11
21.469709
21
14.818132
31
0
39
0
210
0
220
0
230
1
0
MTEXT
5
CC
100
AcDbEntity
8
SK2
62
256
6
ByLayer
370
18
48
1
60
0
100
AcDbMText
10
-29.281214
20
6.658437
30
0
210
0
220
0
230
1
1
%%c
40
3
41
0
44
1.084337
50
90
71
7
72
5
7
iso_b_vert
0
MTEXT
5
CF
100
AcDbEntity
8
SK2
62
256
6
ByLayer
370
18
48
1
60
0
100
AcDbMText
10
-29.281214
20
12.635
30
0
210
0
220
0
230
1
1
\W0.7468;3.000
40
3
41
0
44
1.084337
50
90
71
7
72
5
7
iso_b_vert
0
MTEXT
5
D8
100
AcDbEntity
8
2
62
256
6
ByLayer
370
18
48
1
60
0
100
AcDbMText
10
18.718786
20
14.673437
30
0
210
0
220
0
230
1
1
%%c
40
3
41
0
44
1.084337
50
90
71
7
72
5
7
iso_b_vert
0
MTEXT
5
D9
100
AcDbEntity
8
2
62
256
6
ByLayer
370
18
48
1
60
0
100
AcDbMText
10
18.718786
20
20.65
30
0
210
0
220
0
230
1
1
\W0.6864;1.970
40
3
41
0
44
1.084337
50
90
71
7
72
5
7
iso_b_vert
0
MTEXT
5
E2
100
AcDbEntity
8
SK2
62
256
6
ByLayer
370
18
48
1
60
0
100
AcDbMText
10
27.627186
20
-2.114886
30
0
210
0
220
0
230
1
1
\W0.6747;130%%d
40
3
41
0
44
1.084337
50
0
71
7
72
5
7
iso_b_vert
0
MTEXT
5
EB
100
AcDbEntity
8
SK6
62
256
6
ByLayer
370
18
48
1
60
0
100
AcDbMText
10
-32.069067
20
-48.114886
30
0
210
0
220
0
230
1
1
\W0.7647;462.1-0197-008A0-XM X0BU
40
3
41
0
44
1.084337
50
0
71
7
72
5
7
iso_b_vert
0
HATCH
5
D3
100
AcDbEntity
8
SK2
62
256
6
ByLayer
370
13
48
1
60
0
100
AcDbHatch
10
0
20
0
30
0
210
0
220
0
230
1
2
ANSI31
70
0
71
0
91
1
92
5
93
3
72
1
10
-27.9401
20
-1.5
11
-27.4793162584472
21
-4.99999830744682
72
1
10
-27.4793162584472
20
-4.99999830744682
11
-28.4008837415528
21
-5.00000169255318
72
1
10
-28.4008837415528
20
-5.00000169255318
11
-27.9401
21
-1.5
97
0
75
0
76
1
52
0
41
0.0062
77
0
78
1
53
45
43
0
44
0
45
-0.0139193969876572
46
0.0139193969876572
79
0
47
0
98
1
10
0
20
0
0
HATCH
5
D7
100
AcDbEntity
8
SK2
62
256
6
ByLayer
370
13
48
1
60
0
100
AcDbHatch
10
0
20
0
30
0
210
0
220
0
230
1
2
ANSI31
70
0
71
0
91
1
92
5
93
3
72
1
10
-27.9401
20
1.5
11
-28.4008837415528
21
4.99999830744682
72
1
10
-28.4008837415528
20
4.99999830744682
11
-27.4793162584472
21
5.00000169255318
72
1
10
-27.4793162584472
20
5.00000169255318
11
-27.9401
21
1.5
97
0
75
0
76
1
52
0
41
0.0062
77
0
78
1
53
45
43
0
44
0
45
-0.0139193969876572
46
0.0139193969876572
79
0
47
0
98
1
10
0
20
0
0
HATCH
5
DD
100
AcDbEntity
8
2
62
256
6
ByLayer
370
13
48
1
60
0
100
AcDbHatch
10
0
20
0
30
0
210
0
220
0
230
1
2
ANSI31
70
0
71
0
91
1
92
5
93
3
72
1
10
20.0599
20
-0.985000000000014
11
20.5206837415528
21
-4.48499830744683
72
1
10
20.5206837415528
20
-4.48499830744683
11
19.5991162584472
21
-4.4850016925532
72
1
10
19.5991162584472
20
-4.4850016925532
11
20.0599
21
-0.985000000000014
97
0
75
0
76
1
52
0
41
0.0062
77
0
78
1
53
45
43
0
44
0
45
-0.0139193969876572
46
0.0139193969876572
79
0
47
0
98
1
10
0
20
0
0
HATCH
5
E1
100
AcDbEntity
8
2
62
256
6
ByLayer
370
13
48
1
60
0
100
AcDbHatch
10
0
20
0
30
0
210
0
220
0
230
1
2
ANSI31
70
0
71
0
91
1
92
5
93
3
72
1
10
20.0599
20
0.985000000000014
11
19.5991162584472
21
4.48499830744683
72
1
10
19.5991162584472
20
4.48499830744683
11
20.5206837415528
21
4.4850016925532
72
1
10
20.5206837415528
20
4.4850016925532
11
20.0599
21
0.985000000000014
97
0
75
0
76
1
52
0
41
0.0062
77
0
78
1
53
45
43
0
44
0
45
-0.0139193969876572
46
0.0139193969876572
79
0
47
0
98
1
10
0
20
0
0
HATCH
5
E6
100
AcDbEntity
8
SK2
62
256
6
ByLayer
370
13
48
1
60
0
100
AcDbHatch
10
0
20
0
30
0
210
0
220
0
230
1
2
ANSI31
70
0
71
0
91
1
92
5
93
3
72
1
10
21.4697085794604
20
-14.8181323180492
11
24.3417418553693
21
-12.765393983365
72
1
10
24.3417418553693
20
-12.765393983365
11
24.7751706127348
21
-13.5786750775861
72
1
10
24.7751706127348
20
-13.5786750775861
11
21.4697085794604
21
-14.8181323180492
97
0
75
0
76
1
52
0
41
0.0062
77
0
78
1
53
45
43
0
44
0
45
-0.0139193969876572
46
0.0139193969876572
79
0
47
0
98
1
10
0
20
0
0
HATCH
5
EA
100
AcDbEntity
8
SK2
62
256
6
ByLayer
370
13
48
1
60
0
100
AcDbHatch
10
0
20
0
30
0
210
0
220
0
230
1
2
ANSI31
70
0
71
0
91
1
92
5
93
3
72
1
10
21.4697085794604
20
14.8181323180492
11
24.7751676253807
21
13.5786766696479
72
1
10
24.7751676253807
20
13.5786766696479
11
24.3417448427234
21
12.7653923913032
72
1
10
24.3417448427234
20
12.7653923913032
11
21.4697085794604
21
14.8181323180492
97
0
75
0
76
1
52
0
41
0.0062
77
0
78
1
53
45
43
0
44
0
45
-0.0139193969876572
46
0.0139193969876572
79
0
47
0
98
1
10
0
20
0
0
DIMENSION
5
EE
100
AcDbEntity
8
SK2
62
256
6
ByLayer
370
18
48
1
60
0
100
AcDbDimension
2
_U0
10
14.5599
20
-38.9728
30
0
11
-4.4401
21
-38.9728
31
0
70
32
71
1
72
1
41
1
210
0
220
0
230
1
3
Standard
100
AcDbAlignedDimension
13
-23.4401
23
1.5
33
0
14
14.5599
24
0.985
34
0
50
0
100
AcDbRotatedDimension
1001
ACAD
1000
DSTYLE
1002
{
1070
   371
1070
    13
1070
   372
1070
    13
1070
     3
1000

1070
   170
1070
     0
1070
   144
1040
1.0
1070
   277
1070
     2
1070
   284
1070
     8
1070
   278
1070
    46
1070
   146
1040
1.166667
1070
   345
1005
16
1070
   347
1005
16
1070
   346
1005
16
1070
   344
1005
0
1070
   343
1005
0
1070
   172
1070
     1
1070
    76
1070
     0
1070
    75
1070
     0
1070
   282
1070
     0
1070
   281
1070
     0
1070
    71
1070
     0
1070
    74
1070
     0
1070
   279
1070
     0
1070
   173
1070
     1
1070
   340
1005
CD
1070
   271
1070
     2
1070
   272
1070
     2
1070
    77
1070
     1
1070
    73
1070
     1
1070
   171
1070
     3
1070
   274
1070
     4
1070
   177
1070
     2
1070
   176
1070
     2
1070
   178
1070
     2
1070
    78
1070
     8
1070
    48
1040
-0.1
1070
    41
1040
3.5
1070
   147
1040
1.5
1070
    42
1040
1.5875
1070
    44
1040
2.0
1070
   140
1040
3.0
1002
}
1001
ACAD_DSTYLE_DIM_LINETYPE
1070
   380
1005
16
1001
ACAD_DSTYLE_DIM_EXT1_LINETYPE
1070
   381
1005
16
1001
ACAD_DSTYLE_DIM_EXT2_LINETYPE
1070
   382
1005
16
0
DIMENSION
5
107
100
AcDbEntity
8
SK2
62
256
6
ByLayer
370
18
48
1
60
0
100
AcDbDimension
2
_U1
10
6.3149
20
-22.485
30
0
11
30.631329
21
-22.485
31
0
70
32
71
1
72
1
41
1
210
0
220
0
230
1
3
Standard
100
AcDbAlignedDimension
13
14.5599
23
0.985
33
0
14
6.3149
24
0
34
0
50
0
100
AcDbRotatedDimension
1001
ACAD
1000
DSTYLE
1002
{
1070
   371
1070
    13
1070
   372
1070
    13
1070
     3
1000

1070
   170
1070
     0
1070
   144
1040
1.0
1070
   277
1070
     2
1070
   284
1070
     8
1070
   278
1070
    46
1070
   146
1040
1.166667
1070
   345
1005
16
1070
   347
1005
16
1070
   346
1005
16
1070
   344
1005
0
1070
   343
1005
0
1070
   172
1070
     1
1070
    76
1070
     0
1070
    75
1070
     0
1070
   282
1070
     0
1070
   281
1070
     0
1070
    71
1070
     0
1070
    74
1070
     0
1070
   279
1070
     0
1070
   173
1070
     1
1070
   340
1005
CD
1070
   271
1070
     2
1070
   272
1070
     2
1070
    77
1070
     1
1070
    73
1070
     1
1070
   171
1070
     3
1070
   274
1070
     4
1070
   177
1070
     2
1070
   176
1070
     2
1070
   178
1070
     2
1070
    78
1070
     8
1070
    48
1040
-0.1
1070
    41
1040
3.5
1070
   147
1040
1.5
1070
    42
1040
1.5875
1070
    44
1040
2.0
1070
   140
1040
3.0
1002
}
1001
ACAD_DSTYLE_DIM_LINETYPE
1070
   380
1005
16
1001
ACAD_DSTYLE_DIM_EXT1_LINETYPE
1070
   381
1005
16
1001
ACAD_DSTYLE_DIM_EXT2_LINETYPE
1070
   382
1005
16
0
DIMENSION
5
121
100
AcDbEntity
8
SK2
62
256
6
ByLayer
370
18
48
1
60
0
100
AcDbDimension
2
_U2
10
3.3599
20
-30.4728
30
0
11
8.9599
21
-30.4728
31
0
70
32
71
1
72
1
41
1
210
0
220
0
230
1
3
Standard
100
AcDbAlignedDimension
13
14.5599
23
0.985
33
0
14
3.3599
24
0
34
0
50
0
100
AcDbRotatedDimension
1001
ACAD
1000
DSTYLE
1002
{
1070
   371
1070
    13
1070
   372
1070
    13
1070
     3
1000

1070
   170
1070
     0
1070
   144
1040
1.0
1070
   277
1070
     2
1070
   284
1070
     8
1070
   278
1070
    46
1070
   146
1040
1.166667
1070
   345
1005
16
1070
   347
1005
16
1070
   346
1005
16
1070
   344
1005
0
1070
   343
1005
0
1070
   172
1070
     1
1070
    76
1070
     0
1070
    75
1070
     0
1070
   282
1070
     0
1070
   281
1070
     0
1070
    71
1070
     0
1070
    74
1070
     0
1070
   279
1070
     0
1070
   173
1070
     1
1070
   340
1005
CD
1070
   271
1070
     2
1070
   272
1070
     2
1070
    77
1070
     1
1070
    73
1070
     1
1070
   171
1070
     3
1070
   274
1070
     4
1070
   177
1070
     2
1070
   176
1070
     2
1070
   178
1070
     2
1070
    78
1070
     8
1070
    48
1040
-0.1
1070
    41
1040
3.5
1070
   147
1040
1.5
1070
    42
1040
1.5875
1070
    44
1040
2.0
1070
   140
1040
3.0
1002
}
1001
ACAD_DSTYLE_DIM_LINETYPE
1070
   380
1005
16
1001
ACAD_DSTYLE_DIM_EXT1_LINETYPE
1070
   381
1005
16
1001
ACAD_DSTYLE_DIM_EXT2_LINETYPE
1070
   382
1005
16
0
DIMENSION
5
13A
100
AcDbEntity
8
SK2
62
256
6
ByLayer
370
18
48
1
60
0
100
AcDbDimension
2
_U3
10
0
20
11.4728
30
0
11
-11.72005
21
11.4728
31
0
70
32
71
1
72
1
41
1
210
0
220
0
230
1
3
Standard
100
AcDbAlignedDimension
13
-23.4401
23
0
33
0
14
0
24
0
34
0
50
0
100
AcDbRotatedDimension
1001
ACAD
1000
DSTYLE
1002
{
1070
   371
1070
    13
1070
   372
1070
    13
1070
     3
1000

1070
   170
1070
     0
1070
   144
1040
1.0
1070
   277
1070
     2
1070
   284
1070
     8
1070
   278
1070
    46
1070
   146
1040
1.166667
1070
   345
1005
16
1070
   347
1005
16
1070
   346
1005
16
1070
   344
1005
0
1070
   343
1005
0
1070
   172
1070
     1
1070
    76
1070
     0
1070
    75
1070
     0
1070
   282
1070
     0
1070
   281
1070
     0
1070
    71
1070
     0
1070
    74
1070
     0
1070
   279
1070
     0
1070
   173
1070
     1
1070
   340
1005
CD
1070
   271
1070
     2
1070
   272
1070
     2
1070
    77
1070
     1
1070
    73
1070
     1
1070
   171
1070
     3
1070
   274
1070
     4
1070
   177
1070
     2
1070
   176
1070
     2
1070
   178
1070
     2
1070
    78
1070
     8
1070
    48
1040
-0.1
1070
    41
1040
3.5
1070
   147
1040
1.5
1070
    42
1040
1.5875
1070
    44
1040
2.0
1070
   140
1040
3.0
1002
}
1001
ACAD_DSTYLE_DIM_LINETYPE
1070
   380
1005
16
1001
ACAD_DSTYLE_DIM_EXT1_LINETYPE
1070
   381
1005
16
1001
ACAD_DSTYLE_DIM_EXT2_LINETYPE
1070
   382
1005
16
0
DIMENSION
5
152
100
AcDbEntity
8
2
62
256
6
ByLayer
370
18
48
1
60
0
100
AcDbDimension
2
_U4
10
0
20
11.4728
30
0
11
7.27995
21
11.4728
31
0
70
32
71
1
72
1
41
1
210
0
220
0
230
1
3
Standard
100
AcDbAlignedDimension
13
14.5599
23
0.985
33
0
14
0
24
0
34
0
50
0
100
AcDbRotatedDimension
1001
ACAD
1000
DSTYLE
1002
{
1070
   371
1070
    13
1070
   372
1070
    13
1070
     3
1000

1070
   170
1070
     0
1070
   144
1040
1.0
1070
   277
1070
     2
1070
   284
1070
     8
1070
   278
1070
    46
1070
   146
1040
1.166667
1070
   345
1005
16
1070
   347
1005
16
1070
   346
1005
16
1070
   344
1005
0
1070
   343
1005
0
1070
   172
1070
     1
1070
    76
1070
     0
1070
    75
1070
     0
1070
   282
1070
     0
1070
   281
1070
     0
1070
    71
1070
     0
1070
    74
1070
     0
1070
   279
1070
     0
1070
   173
1070
     1
1070
   340
1005
CD
1070
   271
1070
     2
1070
   272
1070
     2
1070
    77
1070
     1
1070
    73
1070
     1
1070
   171
1070
     3
1070
   274
1070
     4
1070
   177
1070
     2
1070
   176
1070
     2
1070
   178
1070
     2
1070
    78
1070
     8
1070
    48
1040
-0.1
1070
    41
1040
3.5
1070
   147
1040
1.5
1070
    42
1040
1.5875
1070
    44
1040
2.0
1070
   140
1040
3.0
1002
}
1001
ACAD_DSTYLE_DIM_LINETYPE
1070
   380
1005
16
1001
ACAD_DSTYLE_DIM_EXT1_LINETYPE
1070
   381
1005
16
1001
ACAD_DSTYLE_DIM_EXT2_LINETYPE
1070
   382
1005
16
0
ENDSEC
0
SECTION
2
OBJECTS
0
DICTIONARY
5
1db
330
0
100
AcDbDictionary
280
0
281
1
3
ACAD_GROUP
350
1dc
3
ACAD_MLINESTYLE
350
1dd
0
DICTIONARY
5
1dc
330
0
100
AcDbDictionary
280
0
281
1
0
DICTIONARY
5
1dd
330
0
100
AcDbDictionary
280
0
281
1
3
Standard
350
18
0
MLINESTYLE
5
18
330
1dd
100
AcDbMlineStyle
2
Standard
70
0
3

62
256
51
90
52
90
71
2
49
-0.5
62
256
6
ByLayer
49
0.5
62
256
6
ByLayer
0
RASTERVARIABLES
5
1c9
330

100
AcDbRasterVariables
90
0
70
1
71
1
72
1
0
ENDSEC
0
EOF
