0
SECTION
2
HEADER
9
$ACADVER
1
AC1015
9
$DWGCODEPAGE
3
ANSI_1252
9
$HANDSEED
5
1ec
9
$ANGBASE
50
0
9
$ANGDIR
70
0
9
$ATTMODE
70
1
9
$AUNITS
70
0
9
$AUPREC
70
0
9
$CECOLOR
62
256
9
$CELTSCALE
40
1
9
$CELTYPE
6
ByLayer
9
$CELWEIGHT
370
18
9
$CLAYER
8
0
9
$CMLJUST
70
0
9
$CMLSCALE
40
1
9
$CMLSTYLE
2
Standard
9
$DIMSTYLE
2
Standard
9
$TEXTSIZE
40
0.2
9
$TEXTSTYLE
7
Standard
9
$LUNITS
70
2
9
$LUPREC
70
4
9
$EXTNAMES
290
1
9
$INSUNITS
70
4
9
$LTSCALE
40
1
9
$LWDISPLAY
290
1
9
$PDMODE
70
0
9
$PDSIZE
40
0
9
$PLINEGEN
70
0
0
ENDSEC
0
SECTION
2
CLASSES
0
CLASS
1
RASTERVARIABLES
2
AcDbRasterVariables
3
ISM
90
0
280
0
281
0
0
ENDSEC
0
SECTION
2
TABLES
0
TABLE
2
VPORT
5
1e2
100
AcDbSymbolTable
0
VPORT
5
1
100
AcDbSymbolTableRecord
100
AcDbViewportTableRecord
2
*Active
70
0
10
0
20
0
11
1
21
1
12
-1
22
1
13
0
23
0
14
0.5
24
0.5
15
10
25
10
16
0
26
0
36
1
17
0
27
0
37
0
0
ENDTAB
0
TABLE
2
LTYPE
5
1e3
100
AcDbSymbolTable
0
LTYPE
5
14
100
AcDbSymbolTableRecord
100
AcDbLinetypeTableRecord
70
0
2
ByBlock
3

72
65
73
0
40
0
0
LTYPE
5
15
100
AcDbSymbolTableRecord
100
AcDbLinetypeTableRecord
70
0
2
ByLayer
3

72
65
73
0
40
0
0
LTYPE
5
16
100
AcDbSymbolTableRecord
100
AcDbLinetypeTableRecord
70
0
2
Continuous
3
Solid line
72
65
73
0
40
0
0
LTYPE
5
6E
100
AcDbSymbolTableRecord
100
AcDbLinetypeTableRecord
70
0
2
CENTER
3
____ _ ____ _ ____ _ ____
72
65
73
4
40
47.5
49
22
74
0
49
-8.5
74
0
49
8.5
74
0
49
-8.5
74
0
0
LTYPE
5
6F
100
AcDbSymbolTableRecord
100
AcDbLinetypeTableRecord
70
0
2
DASHED
3
__ __ __ __ __ __ __ __ __
72
65
73
2
40
25.72
49
12.86
74
0
49
-12.86
74
0
0
ENDTAB
0
TABLE
2
LAYER
5
1e4
100
AcDbSymbolTable
0
LAYER
5
10
100
AcDbSymbolTableRecord
100
AcDbLayerTableRecord
2
0
70
0
62
7
6
Continuous
290
1
370
-3
390
0
0
LAYER
5
71
100
AcDbSymbolTableRecord
100
AcDbLayerTableRecord
2
80
70
0
62
-6
6
Continuous
290
1
370
-3
390
0
0
LAYER
5
73
100
AcDbSymbolTableRecord
100
AcDbLayerTableRecord
2
81
70
0
62
-3
6
Continuous
290
1
370
-3
390
0
0
LAYER
5
75
100
AcDbSymbolTableRecord
100
AcDbLayerTableRecord
2
1
70
0
62
4
6
Continuous
290
1
370
-3
390
0
0
LAYER
5
9A
100
AcDbSymbolTableRecord
100
AcDbLayerTableRecord
2
4
70
0
62
-2
6
CENTER
290
1
370
-3
390
0
0
LAYER
5
AA
100
AcDbSymbolTableRecord
100
AcDbLayerTableRecord
2
2
70
0
62
7
6
Continuous
290
1
370
-3
390
0
0
LAYER
5
F5
100
AcDbSymbolTableRecord
100
AcDbLayerTableRecord
2
Defpoints
70
0
62
7
6
Continuous
290
0
370
-3
390
0
0
LAYER
5
1ce
100
AcDbSymbolTableRecord
100
AcDbLayerTableRecord
2
SK1
70
0
62
4
6
Continuous
290
1
370
-3
390
0
0
LAYER
5
1cf
100
AcDbSymbolTableRecord
100
AcDbLayerTableRecord
2
SK4
70
0
62
2
6
CENTER
290
1
370
-3
390
0
0
LAYER
5
1d0
100
AcDbSymbolTableRecord
100
AcDbLayerTableRecord
2
SK2
70
0
62
7
6
Continuous
290
1
370
-3
390
0
0
LAYER
5
1d1
100
AcDbSymbolTableRecord
100
AcDbLayerTableRecord
2
SK6
70
0
62
5
6
Continuous
290
1
370
-3
390
0
0
ENDTAB
0
TABLE
2
STYLE
5
1e5
100
AcDbSymbolTable
0
STYLE
5
11
100
AcDbSymbolTableRecord
100
AcDbTextStyleTableRecord
2
Standard
3
txt
70
0
71
0
40
0
41
1
42
0
50
0
0
STYLE
5
D1
100
AcDbSymbolTableRecord
100
AcDbTextStyleTableRecord
2
iso_b_vert
3
simplex.shx
70
0
71
0
40
0
41
1
42
0
50
0
0
STYLE
5
D2
100
AcDbSymbolTableRecord
100
AcDbTextStyleTableRecord
2
DWGDirectTextStyle
3
simplex
70
0
71
0
40
0
41
1
42
0
50
0
0
ENDTAB
0
TABLE
2
DIMSTYLE
5
1e6
100
AcDbSymbolTable
100
AcDbDimStyleTable
0
DIMSTYLE
105
27
100
AcDbSymbolTableRecord
100
AcDbDimStyleTableRecord
2
Standard
70
0
3
<>
41
0.18
42
0.0625
44
0.18
140
0.18
147
0.09
73
0
74
0
77
1
271
2
275
0
278
52
280
0
340
11
0
ENDTAB
0
TABLE
2
VIEW
5
1e7
100
AcDbSymbolTable
0
ENDTAB
0
TABLE
2
UCS
5
1e8
100
AcDbSymbolTable
0
ENDTAB
0
TABLE
2
APPID
5
1e9
100
AcDbSymbolTable
0
APPID
5
12
100
AcDbSymbolTableRecord
100
AcDbRegAppTableRecord
2
ACAD
70
0
0
APPID
5
F1
100
AcDbSymbolTableRecord
100
AcDbRegAppTableRecord
2
ACAD_DSTYLE_DIMBREAK
70
0
0
APPID
5
18D
100
AcDbSymbolTableRecord
100
AcDbRegAppTableRecord
2
ACAD_DSTYLE_DIM_LINETYPE
70
0
0
APPID
5
18E
100
AcDbSymbolTableRecord
100
AcDbRegAppTableRecord
2
ACAD_DSTYLE_DIM_EXT1_LINETYPE
70
0
0
APPID
5
18F
100
AcDbSymbolTableRecord
100
AcDbRegAppTableRecord
2
ACAD_DSTYLE_DIM_EXT2_LINETYPE
70
0
0
APPID
5
1CA
100
AcDbSymbolTableRecord
100
AcDbRegAppTableRecord
2
ACAD_MLEADERVER
70
0
0
ENDTAB
0
TABLE
2
BLOCK_RECORD
5
1ea
100
AcDbSymbolTable
0
BLOCK_RECORD
5
1F
100
AcDbSymbolTableRecord
100
AcDbBlockTableRecord
2
*Model_Space
340
0
70
0
0
BLOCK_RECORD
5
1B
100
AcDbSymbolTableRecord
100
AcDbBlockTableRecord
2
*Paper_Space
340
0
70
0
0
BLOCK_RECORD
5
23
100
AcDbSymbolTableRecord
100
AcDbBlockTableRecord
2
*Paper_Space0
340
0
70
0
0
BLOCK_RECORD
5
F6
100
AcDbSymbolTableRecord
100
AcDbBlockTableRecord
2
*D1
340
0
70
0
0
BLOCK_RECORD
5
102
100
AcDbSymbolTableRecord
100
AcDbBlockTableRecord
2
_U0
340
0
70
0
0
BLOCK_RECORD
5
10E
100
AcDbSymbolTableRecord
100
AcDbBlockTableRecord
2
*D3
340
0
70
0
0
BLOCK_RECORD
5
11C
100
AcDbSymbolTableRecord
100
AcDbBlockTableRecord
2
_U1
340
0
70
0
0
BLOCK_RECORD
5
128
100
AcDbSymbolTableRecord
100
AcDbBlockTableRecord
2
*D5
340
0
70
0
0
BLOCK_RECORD
5
135
100
AcDbSymbolTableRecord
100
AcDbBlockTableRecord
2
_U2
340
0
70
0
0
BLOCK_RECORD
5
141
100
AcDbSymbolTableRecord
100
AcDbBlockTableRecord
2
*D7
340
0
70
0
0
BLOCK_RECORD
5
14D
100
AcDbSymbolTableRecord
100
AcDbBlockTableRecord
2
_U3
340
0
70
0
0
BLOCK_RECORD
5
159
100
AcDbSymbolTableRecord
100
AcDbBlockTableRecord
2
*D9
340
0
70
0
0
BLOCK_RECORD
5
166
100
AcDbSymbolTableRecord
100
AcDbBlockTableRecord
2
_U4
340
0
70
0
0
ENDTAB
0
ENDSEC
0
SECTION
2
BLOCKS
0
BLOCK
5
20
100
AcDbEntity
8
0
100
AcDbBlockBegin
2
*Model_Space
70
0
10
0
20
0
30
0
3
*Model_Space
0
ENDBLK
5
21
100
AcDbEntity
8
0
100
AcDbBlockEnd
0
BLOCK
5
1C
100
AcDbEntity
8
0
100
AcDbBlockBegin
2
*Paper_Space
70
0
10
0
20
0
30
0
3
*Paper_Space
0
ENDBLK
5
1D
100
AcDbEntity
8
0
100
AcDbBlockEnd
0
BLOCK
5
24
100
AcDbEntity
8
0
100
AcDbBlockBegin
2
*Paper_Space0
70
0
10
0
20
0
30
0
3
*Paper_Space0
0
ENDBLK
5
25
100
AcDbEntity
8
0
100
AcDbBlockEnd
0
BLOCK
5
F7
100
AcDbEntity
8
0
100
AcDbBlockBegin
2
*D1
70
1
10
0
20
0
30
0
3
*D1
0
LINE
5
F9
100
AcDbEntity
8
0
62
256
6
ByLayer
370
-2
48
1
60
0
100
AcDbLine
10
-22.9007
20
-0.0875
30
0
11
-22.9007
21
-41.079103
31
0
39
0
210
0
220
0
230
1
0
LINE
5
FA
100
AcDbEntity
8
0
62
256
6
ByLayer
370
-2
48
1
60
0
100
AcDbLine
10
15.0993
20
-0.5675
30
0
11
15.0993
21
-41.079103
31
0
39
0
210
0
220
0
230
1
0
LINE
5
FB
100
AcDbEntity
8
0
62
256
6
ByLayer
370
-2
48
1
60
0
100
AcDbLine
10
-19.4007
20
-39.079103
30
0
11
11.5993
21
-39.079103
31
0
39
0
210
0
220
0
230
1
0
SOLID
5
FC
100
AcDbEntity
8
0
62
256
6
ByLayer
370
-1
48
1
60
0
100
AcDbTrace
10
-19.4007
20
-38.49577
30
0
11
-19.4007
21
-39.662437
31
0
12
-22.9007
22
-39.079103
32
0
13
-22.9007
23
-39.079103
33
0
39
0
210
0
220
0
230
1
0
SOLID
5
FD
100
AcDbEntity
8
0
62
256
6
ByLayer
370
-1
48
1
60
0
100
AcDbTrace
10
11.5993
20
-39.662437
30
0
11
11.5993
21
-38.49577
31
0
12
15.0993
22
-39.079103
32
0
13
15.0993
23
-39.079103
33
0
39
0
210
0
220
0
230
1
0
MTEXT
5
FE
100
AcDbEntity
8
0
62
256
6
ByLayer
370
18
48
1
60
0
100
AcDbMText
10
-3.9007
20
-33.079103
30
0
210
0
220
0
230
1
1
\A1;38
40
3
41
0
44
1
50
0
71
5
72
5
7
iso_b_vert
0
POINT
5
FF
100
AcDbEntity
8
Defpoints
62
0
6
ByLayer
370
-1
48
1
60
0
100
AcDbPoint
10
-22.9007
20
1.5
30
0
39
0
210
0
220
0
230
1
50
360
0
POINT
5
100
100
AcDbEntity
8
Defpoints
62
0
6
ByLayer
370
-1
48
1
60
0
100
AcDbPoint
10
15.0993
20
1.02
30
0
39
0
210
0
220
0
230
1
50
360
0
POINT
5
101
100
AcDbEntity
8
Defpoints
62
0
6
ByLayer
370
-1
48
1
60
0
100
AcDbPoint
10
15.0993
20
-39.079103
30
0
39
0
210
0
220
0
230
1
50
360
0
ENDBLK
5
F8
100
AcDbEntity
8
0
100
AcDbBlockEnd
0
BLOCK
5
109
100
AcDbEntity
8
0
100
AcDbBlockBegin
2
_U0
70
0
10
0
20
0
30
0
3
_U0
0
MTEXT
5
103
100
AcDbEntity
8
SK2
62
256
6
ByLayer
370
18
48
1
60
0
100
AcDbMText
10
-8.38307
20
-38.193989
30
0
210
0
220
0
230
1
1
\W0.7468;38.00
40
3
41
0
44
1.084337
50
0
71
7
72
5
7
iso_b_vert
0
LINE
5
104
100
AcDbEntity
8
SK2
62
256
6
ByLayer
370
13
48
1
60
0
100
AcDbLine
10
-22.9007
20
-0.0875
30
0
11
-22.9007
21
-41.079103
31
0
39
0
210
0
220
0
230
1
0
LINE
5
105
100
AcDbEntity
8
SK2
62
256
6
ByLayer
370
13
48
1
60
0
100
AcDbLine
10
15.0993
20
-0.5675
30
0
11
15.0993
21
-41.079103
31
0
39
0
210
0
220
0
230
1
0
LINE
5
106
100
AcDbEntity
8
SK2
62
256
6
ByLayer
370
13
48
1
60
0
100
AcDbLine
10
-22.9007
20
-39.079103
30
0
11
15.0993
21
-39.079103
31
0
39
0
210
0
220
0
230
1
0
SOLID
5
107
100
AcDbEntity
8
SK2
62
256
6
ByLayer
370
18
48
1
60
0
100
AcDbTrace
10
-22.9007
20
-39.079103
30
0
11
-19.400702
21
-38.61832
31
0
12
-19.400698
22
-39.539887
32
0
13
-19.400698
23
-39.539887
33
0
39
0
210
0
220
0
230
1
0
SOLID
5
108
100
AcDbEntity
8
SK2
62
256
6
ByLayer
370
18
48
1
60
0
100
AcDbTrace
10
15.0993
20
-39.079103
30
0
11
11.599302
21
-39.539887
31
0
12
11.599298
22
-38.61832
32
0
13
11.599298
23
-38.61832
33
0
39
0
210
0
220
0
230
1
0
ENDBLK
5
10A
100
AcDbEntity
8
0
100
AcDbBlockEnd
0
BLOCK
5
10F
100
AcDbEntity
8
0
100
AcDbBlockBegin
2
*D3
70
1
10
0
20
0
30
0
3
*D3
0
LINE
5
111
100
AcDbEntity
8
0
62
256
6
ByLayer
370
-2
48
1
60
0
100
AcDbLine
10
15.0993
20
-0.5675
30
0
11
15.0993
21
-24.52
31
0
39
0
210
0
220
0
230
1
0
LINE
5
112
100
AcDbEntity
8
0
62
256
6
ByLayer
370
-2
48
1
60
0
100
AcDbLine
10
5.6593
20
-1.5875
30
0
11
5.6593
21
-24.52
31
0
39
0
210
0
220
0
230
1
0
LINE
5
113
100
AcDbEntity
8
0
62
256
6
ByLayer
370
-2
48
1
60
0
100
AcDbLine
10
15.0993
20
-22.52
30
0
11
40.385014
21
-22.52
31
0
39
0
210
0
220
0
230
1
0
LINE
5
114
100
AcDbEntity
8
0
62
256
6
ByLayer
370
-2
48
1
60
0
100
AcDbLine
10
18.5993
20
-22.52
30
0
11
22.0993
21
-22.52
31
0
39
0
210
0
220
0
230
1
0
LINE
5
115
100
AcDbEntity
8
0
62
256
6
ByLayer
370
-2
48
1
60
0
100
AcDbLine
10
2.1593
20
-22.52
30
0
11
-1.3407
21
-22.52
31
0
39
0
210
0
220
0
230
1
0
SOLID
5
116
100
AcDbEntity
8
0
62
256
6
ByLayer
370
-1
48
1
60
0
100
AcDbTrace
10
18.5993
20
-21.936667
30
0
11
18.5993
21
-23.103333
31
0
12
15.0993
22
-22.52
32
0
13
15.0993
23
-22.52
33
0
39
0
210
0
220
0
230
1
0
SOLID
5
117
100
AcDbEntity
8
0
62
256
6
ByLayer
370
-1
48
1
60
0
100
AcDbTrace
10
2.1593
20
-23.103333
30
0
11
2.1593
21
-21.936667
31
0
12
5.6593
22
-22.52
32
0
13
5.6593
23
-22.52
33
0
39
0
210
0
220
0
230
1
0
MTEXT
5
118
100
AcDbEntity
8
0
62
256
6
ByLayer
370
18
48
1
60
0
100
AcDbMText
10
31.242157
20
-16.52
30
0
210
0
220
0
230
1
1
\A1;9.44
40
3
41
0
44
1
50
0
71
5
72
5
7
iso_b_vert
0
POINT
5
119
100
AcDbEntity
8
Defpoints
62
0
6
ByLayer
370
-1
48
1
60
0
100
AcDbPoint
10
15.0993
20
1.02
30
0
39
0
210
0
220
0
230
1
50
360
0
POINT
5
11A
100
AcDbEntity
8
Defpoints
62
0
6
ByLayer
370
-1
48
1
60
0
100
AcDbPoint
10
5.6593
20
0
30
0
39
0
210
0
220
0
230
1
50
360
0
POINT
5
11B
100
AcDbEntity
8
Defpoints
62
0
6
ByLayer
370
-1
48
1
60
0
100
AcDbPoint
10
5.6593
20
-22.52
30
0
39
0
210
0
220
0
230
1
50
360
0
ENDBLK
5
110
100
AcDbEntity
8
0
100
AcDbBlockEnd
0
BLOCK
5
123
100
AcDbEntity
8
0
100
AcDbBlockBegin
2
_U1
70
0
10
0
20
0
30
0
3
_U1
0
MTEXT
5
11D
100
AcDbEntity
8
SK2
62
256
6
ByLayer
370
18
48
1
60
0
100
AcDbMText
10
19.2583
20
-21.634886
30
0
210
0
220
0
230
1
1
\W0.7505;(9.44)
40
3
41
0
44
1.084337
50
0
71
7
72
5
7
iso_b_vert
0
LINE
5
11E
100
AcDbEntity
8
SK2
62
256
6
ByLayer
370
13
48
1
60
0
100
AcDbLine
10
15.0993
20
-0.5675
30
0
11
15.0993
21
-24.52
31
0
39
0
210
0
220
0
230
1
0
LINE
5
11F
100
AcDbEntity
8
SK2
62
256
6
ByLayer
370
13
48
1
60
0
100
AcDbLine
10
5.6593
20
-1.5875
30
0
11
5.6593
21
-24.52
31
0
39
0
210
0
220
0
230
1
0
LINE
5
120
100
AcDbEntity
8
SK2
62
256
6
ByLayer
370
13
48
1
60
0
100
AcDbLine
10
5.6593
20
-22.52
30
0
11
29.20284
21
-22.52
31
0
39
0
210
0
220
0
230
1
0
SOLID
5
121
100
AcDbEntity
8
SK2
62
256
6
ByLayer
370
18
48
1
60
0
100
AcDbTrace
10
15.0993
20
-22.52
30
0
11
11.599302
21
-22.980784
31
0
12
11.599298
22
-22.059216
32
0
13
11.599298
23
-22.059216
33
0
39
0
210
0
220
0
230
1
0
SOLID
5
122
100
AcDbEntity
8
SK2
62
256
6
ByLayer
370
18
48
1
60
0
100
AcDbTrace
10
5.6593
20
-22.52
30
0
11
9.159298
21
-22.059216
31
0
12
9.159302
22
-22.980784
32
0
13
9.159302
23
-22.980784
33
0
39
0
210
0
220
0
230
1
0
ENDBLK
5
124
100
AcDbEntity
8
0
100
AcDbBlockEnd
0
BLOCK
5
129
100
AcDbEntity
8
0
100
AcDbBlockBegin
2
*D5
70
1
10
0
20
0
30
0
3
*D5
0
LINE
5
12B
100
AcDbEntity
8
0
62
256
6
ByLayer
370
-2
48
1
60
0
100
AcDbLine
10
15.0993
20
-0.5675
30
0
11
15.0993
21
-32.579103
31
0
39
0
210
0
220
0
230
1
0
LINE
5
12C
100
AcDbEntity
8
0
62
256
6
ByLayer
370
-2
48
1
60
0
100
AcDbLine
10
2.5993
20
-1.5875
30
0
11
2.5993
21
-32.579103
31
0
39
0
210
0
220
0
230
1
0
LINE
5
12D
100
AcDbEntity
8
0
62
256
6
ByLayer
370
-2
48
1
60
0
100
AcDbLine
10
18.5993
20
-30.579103
30
0
11
22.0993
21
-30.579103
31
0
39
0
210
0
220
0
230
1
0
LINE
5
12E
100
AcDbEntity
8
0
62
256
6
ByLayer
370
-2
48
1
60
0
100
AcDbLine
10
-0.9007
20
-30.579103
30
0
11
-4.4007
21
-30.579103
31
0
39
0
210
0
220
0
230
1
0
SOLID
5
12F
100
AcDbEntity
8
0
62
256
6
ByLayer
370
-1
48
1
60
0
100
AcDbTrace
10
18.5993
20
-29.99577
30
0
11
18.5993
21
-31.162437
31
0
12
15.0993
22
-30.579103
32
0
13
15.0993
23
-30.579103
33
0
39
0
210
0
220
0
230
1
0
SOLID
5
130
100
AcDbEntity
8
0
62
256
6
ByLayer
370
-1
48
1
60
0
100
AcDbTrace
10
-0.9007
20
-31.162437
30
0
11
-0.9007
21
-29.99577
31
0
12
2.5993
22
-30.579103
32
0
13
2.5993
23
-30.579103
33
0
39
0
210
0
220
0
230
1
0
MTEXT
5
131
100
AcDbEntity
8
0
62
256
6
ByLayer
370
18
48
1
60
0
100
AcDbMText
10
8.8493
20
-24.579103
30
0
210
0
220
0
230
1
1
\A1;12.5
40
3
41
0
44
1
50
0
71
5
72
5
7
iso_b_vert
0
POINT
5
132
100
AcDbEntity
8
Defpoints
62
0
6
ByLayer
370
-1
48
1
60
0
100
AcDbPoint
10
15.0993
20
1.02
30
0
39
0
210
0
220
0
230
1
50
360
0
POINT
5
133
100
AcDbEntity
8
Defpoints
62
0
6
ByLayer
370
-1
48
1
60
0
100
AcDbPoint
10
2.5993
20
0
30
0
39
0
210
0
220
0
230
1
50
360
0
POINT
5
134
100
AcDbEntity
8
Defpoints
62
0
6
ByLayer
370
-1
48
1
60
0
100
AcDbPoint
10
2.5993
20
-30.579103
30
0
39
0
210
0
220
0
230
1
50
360
0
ENDBLK
5
12A
100
AcDbEntity
8
0
100
AcDbBlockEnd
0
BLOCK
5
13C
100
AcDbEntity
8
0
100
AcDbBlockBegin
2
_U2
70
0
10
0
20
0
30
0
3
_U2
0
MTEXT
5
136
100
AcDbEntity
8
SK2
62
256
6
ByLayer
370
18
48
1
60
0
100
AcDbMText
10
4.741872
20
-29.693989
30
0
210
0
220
0
230
1
1
\W0.6864;12.50
40
3
41
0
44
1.084337
50
0
71
7
72
5
7
iso_b_vert
0
LINE
5
137
100
AcDbEntity
8
SK2
62
256
6
ByLayer
370
13
48
1
60
0
100
AcDbLine
10
15.0993
20
-0.5675
30
0
11
15.0993
21
-32.579103
31
0
39
0
210
0
220
0
230
1
0
LINE
5
138
100
AcDbEntity
8
SK2
62
256
6
ByLayer
370
13
48
1
60
0
100
AcDbLine
10
2.5993
20
-1.5875
30
0
11
2.5993
21
-32.579103
31
0
39
0
210
0
220
0
230
1
0
LINE
5
139
100
AcDbEntity
8
SK2
62
256
6
ByLayer
370
13
48
1
60
0
100
AcDbLine
10
15.0993
20
-30.579103
30
0
11
2.5993
21
-30.579103
31
0
39
0
210
0
220
0
230
1
0
SOLID
5
13A
100
AcDbEntity
8
SK2
62
256
6
ByLayer
370
18
48
1
60
0
100
AcDbTrace
10
15.0993
20
-30.579103
30
0
11
11.599302
21
-31.039887
31
0
12
11.599298
22
-30.11832
32
0
13
11.599298
23
-30.11832
33
0
39
0
210
0
220
0
230
1
0
SOLID
5
13B
100
AcDbEntity
8
SK2
62
256
6
ByLayer
370
18
48
1
60
0
100
AcDbTrace
10
2.5993
20
-30.579103
30
0
11
6.099298
21
-30.11832
31
0
12
6.099302
22
-31.039887
32
0
13
6.099302
23
-31.039887
33
0
39
0
210
0
220
0
230
1
0
ENDBLK
5
13D
100
AcDbEntity
8
0
100
AcDbBlockEnd
0
BLOCK
5
142
100
AcDbEntity
8
0
100
AcDbBlockBegin
2
*D7
70
1
10
0
20
0
30
0
3
*D7
0
LINE
5
144
100
AcDbEntity
8
0
62
256
6
ByLayer
370
-2
48
1
60
0
100
AcDbLine
10
-22.9007
20
1.5875
30
0
11
-22.9007
21
13.579103
31
0
39
0
210
0
220
0
230
1
0
LINE
5
145
100
AcDbEntity
8
0
62
256
6
ByLayer
370
-2
48
1
60
0
100
AcDbLine
10
0
20
1.5875
30
0
11
0
21
13.579103
31
0
39
0
210
0
220
0
230
1
0
LINE
5
146
100
AcDbEntity
8
0
62
256
6
ByLayer
370
-2
48
1
60
0
100
AcDbLine
10
-19.4007
20
11.579103
30
0
11
-3.5
21
11.579103
31
0
39
0
210
0
220
0
230
1
0
SOLID
5
147
100
AcDbEntity
8
0
62
256
6
ByLayer
370
-1
48
1
60
0
100
AcDbTrace
10
-19.4007
20
12.162437
30
0
11
-19.4007
21
10.99577
31
0
12
-22.9007
22
11.579103
32
0
13
-22.9007
23
11.579103
33
0
39
0
210
0
220
0
230
1
0
SOLID
5
148
100
AcDbEntity
8
0
62
256
6
ByLayer
370
-1
48
1
60
0
100
AcDbTrace
10
-3.5
20
10.99577
30
0
11
-3.5
21
12.162437
31
0
12
0
22
11.579103
32
0
13
0
23
11.579103
33
0
39
0
210
0
220
0
230
1
0
MTEXT
5
149
100
AcDbEntity
8
0
62
256
6
ByLayer
370
18
48
1
60
0
100
AcDbMText
10
-11.45035
20
17.579103
30
0
210
0
220
0
230
1
1
\A1;22.9
40
3
41
0
44
1
50
0
71
5
72
5
7
iso_b_vert
0
POINT
5
14A
100
AcDbEntity
8
Defpoints
62
0
6
ByLayer
370
-1
48
1
60
0
100
AcDbPoint
10
-22.9007
20
0
30
0
39
0
210
0
220
0
230
1
50
360
0
POINT
5
14B
100
AcDbEntity
8
Defpoints
62
0
6
ByLayer
370
-1
48
1
60
0
100
AcDbPoint
10
0
20
0
30
0
39
0
210
0
220
0
230
1
50
360
0
POINT
5
14C
100
AcDbEntity
8
Defpoints
62
0
6
ByLayer
370
-1
48
1
60
0
100
AcDbPoint
10
0
20
11.579103
30
0
39
0
210
0
220
0
230
1
50
360
0
ENDBLK
5
143
100
AcDbEntity
8
0
100
AcDbBlockEnd
0
BLOCK
5
154
100
AcDbEntity
8
0
100
AcDbBlockBegin
2
_U3
70
0
10
0
20
0
30
0
3
_U3
0
MTEXT
5
14E
100
AcDbEntity
8
SK2
62
256
6
ByLayer
370
18
48
1
60
0
100
AcDbMText
10
-15.93272
20
12.464218
30
0
210
0
220
0
230
1
1
\W0.7468;22.90
40
3
41
0
44
1.084337
50
0
71
7
72
5
7
iso_b_vert
0
LINE
5
14F
100
AcDbEntity
8
SK2
62
256
6
ByLayer
370
13
48
1
60
0
100
AcDbLine
10
-22.9007
20
1.5875
30
0
11
-22.9007
21
13.579103
31
0
39
0
210
0
220
0
230
1
0
LINE
5
150
100
AcDbEntity
8
SK2
62
256
6
ByLayer
370
13
48
1
60
0
100
AcDbLine
10
0
20
1.5875
30
0
11
0
21
13.579103
31
0
39
0
210
0
220
0
230
1
0
LINE
5
151
100
AcDbEntity
8
SK2
62
256
6
ByLayer
370
13
48
1
60
0
100
AcDbLine
10
-22.9007
20
11.579103
30
0
11
0
21
11.579103
31
0
39
0
210
0
220
0
230
1
0
SOLID
5
152
100
AcDbEntity
8
SK2
62
256
6
ByLayer
370
18
48
1
60
0
100
AcDbTrace
10
-22.9007
20
11.579103
30
0
11
-19.400702
21
12.039887
31
0
12
-19.400698
22
11.11832
32
0
13
-19.400698
23
11.11832
33
0
39
0
210
0
220
0
230
1
0
SOLID
5
153
100
AcDbEntity
8
SK2
62
256
6
ByLayer
370
18
48
1
60
0
100
AcDbTrace
10
0
20
11.579103
30
0
11
-3.499998
21
11.11832
31
0
12
-3.500002
22
12.039887
32
0
13
-3.500002
23
12.039887
33
0
39
0
210
0
220
0
230
1
0
ENDBLK
5
155
100
AcDbEntity
8
0
100
AcDbBlockEnd
0
BLOCK
5
15A
100
AcDbEntity
8
0
100
AcDbBlockBegin
2
*D9
70
1
10
0
20
0
30
0
3
*D9
0
LINE
5
15C
100
AcDbEntity
8
0
62
256
6
ByLayer
370
-2
48
1
60
0
100
AcDbLine
10
15.0993
20
2.6075
30
0
11
15.0993
21
13.579103
31
0
39
0
210
0
220
0
230
1
0
LINE
5
15D
100
AcDbEntity
8
0
62
256
6
ByLayer
370
-2
48
1
60
0
100
AcDbLine
10
0
20
1.5875
30
0
11
0
21
13.579103
31
0
39
0
210
0
220
0
230
1
0
LINE
5
15E
100
AcDbEntity
8
0
62
256
6
ByLayer
370
-2
48
1
60
0
100
AcDbLine
10
18.5993
20
11.579103
30
0
11
22.0993
21
11.579103
31
0
39
0
210
0
220
0
230
1
0
LINE
5
15F
100
AcDbEntity
8
0
62
256
6
ByLayer
370
-2
48
1
60
0
100
AcDbLine
10
-3.5
20
11.579103
30
0
11
-7
21
11.579103
31
0
39
0
210
0
220
0
230
1
0
SOLID
5
160
100
AcDbEntity
8
0
62
256
6
ByLayer
370
-1
48
1
60
0
100
AcDbTrace
10
18.5993
20
12.162437
30
0
11
18.5993
21
10.99577
31
0
12
15.0993
22
11.579103
32
0
13
15.0993
23
11.579103
33
0
39
0
210
0
220
0
230
1
0
SOLID
5
161
100
AcDbEntity
8
0
62
256
6
ByLayer
370
-1
48
1
60
0
100
AcDbTrace
10
-3.5
20
10.99577
30
0
11
-3.5
21
12.162437
31
0
12
0
22
11.579103
32
0
13
0
23
11.579103
33
0
39
0
210
0
220
0
230
1
0
MTEXT
5
162
100
AcDbEntity
8
0
62
256
6
ByLayer
370
18
48
1
60
0
100
AcDbMText
10
7.54965
20
17.579103
30
0
210
0
220
0
230
1
1
\A1;15.1
40
3
41
0
44
1
50
0
71
5
72
5
7
iso_b_vert
0
POINT
5
163
100
AcDbEntity
8
Defpoints
62
0
6
ByLayer
370
-1
48
1
60
0
100
AcDbPoint
10
15.0993
20
1.02
30
0
39
0
210
0
220
0
230
1
50
360
0
POINT
5
164
100
AcDbEntity
8
Defpoints
62
0
6
ByLayer
370
-1
48
1
60
0
100
AcDbPoint
10
0
20
0
30
0
39
0
210
0
220
0
230
1
50
360
0
POINT
5
165
100
AcDbEntity
8
Defpoints
62
0
6
ByLayer
370
-1
48
1
60
0
100
AcDbPoint
10
0
20
11.579103
30
0
39
0
210
0
220
0
230
1
50
360
0
ENDBLK
5
15B
100
AcDbEntity
8
0
100
AcDbBlockEnd
0
BLOCK
5
16D
100
AcDbEntity
8
0
100
AcDbBlockBegin
2
_U4
70
0
10
0
20
0
30
0
3
_U4
0
MTEXT
5
167
100
AcDbEntity
8
2
62
256
6
ByLayer
370
18
48
1
60
0
100
AcDbMText
10
4.938079
20
12.464218
30
0
210
0
220
0
230
1
1
\W0.6347;15.1
40
3
41
0
44
1.084337
50
0
71
7
72
5
7
iso_b_vert
0
LINE
5
168
100
AcDbEntity
8
2
62
256
6
ByLayer
370
13
48
1
60
0
100
AcDbLine
10
15.0993
20
2.6075
30
0
11
15.0993
21
13.579103
31
0
39
0
210
0
220
0
230
1
0
LINE
5
169
100
AcDbEntity
8
2
62
256
6
ByLayer
370
13
48
1
60
0
100
AcDbLine
10
0
20
1.5875
30
0
11
0
21
13.579103
31
0
39
0
210
0
220
0
230
1
0
LINE
5
16A
100
AcDbEntity
8
2
62
256
6
ByLayer
370
13
48
1
60
0
100
AcDbLine
10
15.0993
20
11.579103
30
0
11
0
21
11.579103
31
0
39
0
210
0
220
0
230
1
0
SOLID
5
16B
100
AcDbEntity
8
2
62
256
6
ByLayer
370
18
48
1
60
0
100
AcDbTrace
10
15.0993
20
11.579103
30
0
11
11.599302
21
11.11832
31
0
12
11.599298
22
12.039887
32
0
13
11.599298
23
12.039887
33
0
39
0
210
0
220
0
230
1
0
SOLID
5
16C
100
AcDbEntity
8
2
62
256
6
ByLayer
370
18
48
1
60
0
100
AcDbTrace
10
0
20
11.579103
30
0
11
3.499998
21
12.039887
31
0
12
3.500002
22
11.11832
32
0
13
3.500002
23
11.11832
33
0
39
0
210
0
220
0
230
1
0
ENDBLK
5
16E
100
AcDbEntity
8
0
100
AcDbBlockEnd
0
ENDSEC
0
SECTION
2
ENTITIES
0
ARC
5
BB
100
AcDbEntity
8
1
62
256
6
ByLayer
370
18
48
1
60
0
100
AcDbCircle
39
0
10
1.099344
20
-2.02
30
0
40
1
210
0
220
0
230
1
100
AcDbArc
50
90
51
120
0
ARC
5
BC
100
AcDbEntity
8
1
62
256
6
ByLayer
370
18
48
1
60
0
100
AcDbCircle
39
0
10
1.099344
20
2.02
30
0
40
1
210
0
220
0
230
1
100
AcDbArc
50
240
51
270
0
ARC
5
BD
100
AcDbEntity
8
SK2
62
256
6
ByLayer
370
13
48
1
60
0
100
AcDbCircle
39
0
10
15.0993
20
0
30
0
40
16.35
210
0
220
0
230
1
100
AcDbArc
50
10.57289
51
65
0
ARC
5
BE
100
AcDbEntity
8
SK2
62
256
6
ByLayer
370
13
48
1
60
0
100
AcDbCircle
39
0
10
15.0993
20
0
30
0
40
16.35
210
0
220
0
230
1
100
AcDbArc
50
295
51
349.42711
0
POINT
5
70
100
AcDbEntity
8
80
62
256
6
ByLayer
370
18
48
1
60
0
100
AcDbPoint
10
0
20
0
30
0
39
0
210
0
220
0
230
1
50
360
0
POINT
5
72
100
AcDbEntity
8
81
62
256
6
ByLayer
370
18
48
1
60
0
100
AcDbPoint
10
15.0993
20
0
30
0
39
0
210
0
220
0
230
1
50
360
0
POINT
5
74
100
AcDbEntity
8
1
62
256
6
ByLayer
370
18
48
1
60
1
100
AcDbPoint
10
-22.9007
20
1.5
30
0
39
0
210
0
220
0
230
1
50
360
0
POINT
5
76
100
AcDbEntity
8
1
62
256
6
ByLayer
370
18
48
1
60
1
100
AcDbPoint
10
15.0993
20
1.02
30
0
39
0
210
0
220
0
230
1
50
360
0
POINT
5
77
100
AcDbEntity
8
1
62
256
6
ByLayer
370
18
48
1
60
1
100
AcDbPoint
10
15.0993
20
1.02
30
0
39
0
210
0
220
0
230
1
50
360
0
POINT
5
78
100
AcDbEntity
8
1
62
256
6
ByLayer
370
18
48
1
60
1
100
AcDbPoint
10
5.6593
20
0
30
0
39
0
210
0
220
0
230
1
50
360
0
POINT
5
79
100
AcDbEntity
8
1
62
256
6
ByLayer
370
18
48
1
60
1
100
AcDbPoint
10
15.0993
20
1.02
30
0
39
0
210
0
220
0
230
1
50
360
0
POINT
5
7A
100
AcDbEntity
8
1
62
256
6
ByLayer
370
18
48
1
60
1
100
AcDbPoint
10
2.5993
20
0
30
0
39
0
210
0
220
0
230
1
50
360
0
POINT
5
7B
100
AcDbEntity
8
1
62
256
6
ByLayer
370
18
48
1
60
1
100
AcDbPoint
10
-22.9007
20
0
30
0
39
0
210
0
220
0
230
1
50
360
0
POINT
5
7C
100
AcDbEntity
8
1
62
256
6
ByLayer
370
18
48
1
60
1
100
AcDbPoint
10
0
20
0
30
0
39
0
210
0
220
0
230
1
50
360
0
POINT
5
7D
100
AcDbEntity
8
1
62
256
6
ByLayer
370
18
48
1
60
1
100
AcDbPoint
10
15.0993
20
1.02
30
0
39
0
210
0
220
0
230
1
50
360
0
POINT
5
7E
100
AcDbEntity
8
1
62
256
6
ByLayer
370
18
48
1
60
1
100
AcDbPoint
10
0
20
0
30
0
39
0
210
0
220
0
230
1
50
360
0
SPLINE
5
BF
100
AcDbEntity
8
1
62
256
6
ByLayer
370
18
48
1
60
0
100
AcDbSpline
70
4
71
3
72
12
73
8
40
0
40
0
40
0
40
0
40
0.308887112194998
40
0.308887112194998
40
0.6544435560975
40
0.6544435560975
40
1
40
1
40
1
40
1
41
1
10
2.6002671009773
20
-1.02000136705831
30
0
41
1
10
2.60117263435694
20
-1.01999091880785
30
0
41
1
10
2.60271237124388
20
-1.01950396727108
30
0
41
1
10
2.60732599973457
20
-1.0174608105853
30
0
41
1
10
2.61058179203613
20
-1.01577205495522
30
0
41
1
10
2.618604958238
20
-1.01126199559639
30
0
41
1
10
2.62337531661692
20
-1.00844088778828
30
0
41
1
10
2.62888768328574
20
-1.00508038813032
30
0
0
SPLINE
5
C0
100
AcDbEntity
8
1
62
256
6
ByLayer
370
18
48
1
60
0
100
AcDbSpline
70
4
71
3
72
18
73
14
40
0
40
0
40
0
40
0
40
0.249999999999986
40
0.249999999999986
40
0.499999999999973
40
0.499999999999973
40
0.624999999999966
40
0.624999999999966
40
0.687499999999967
40
0.687499999999967
40
0.749999999999968
40
0.749999999999968
40
1
40
1
40
1
40
1
41
1
10
2.62888768328574
20
-1.00508038813032
30
0
41
1
10
2.72021660446671
20
-1.00124878442685
30
0
41
1
10
2.81200053519095
20
-0.997809727446679
30
0
41
1
10
2.99644862281767
20
-0.993369767873332
30
0
41
1
10
3.0891128749096
20
-0.99236478738564
30
0
41
1
10
3.2287774672036
20
-0.993031183105586
30
0
41
1
10
3.27544400425092
20
-0.99360681924523
30
0
41
1
10
3.34561518812311
20
-0.99496198090506
30
0
41
1
10
3.36902278147284
20
-0.99549509630981
30
0
41
1
10
3.415624844749
20
-0.996701835259358
30
0
41
1
10
3.43885267446518
20
-0.997376045522913
30
0
41
1
10
3.55462851228828
20
-1.0010459776889
30
0
41
1
10
3.64609064149749
20
-1.00498359736383
30
0
41
1
10
3.73639600003003
20
-1.008861096148
30
0
0
SPLINE
5
C1
100
AcDbEntity
8
1
62
256
6
ByLayer
370
18
48
1
60
0
100
AcDbSpline
70
4
71
3
72
18
73
14
40
0
40
0
40
0
40
0
40
0.249999999999995
40
0.249999999999995
40
0.499999999999991
40
0.499999999999991
40
0.624999999999988
40
0.624999999999988
40
0.687499999999992
40
0.687499999999992
40
0.749999999999995
40
0.749999999999995
40
1
40
1
40
1
40
1
41
1
10
2.62888768328574
20
1.00508038813035
30
0
41
1
10
2.72021660446671
20
1.00124878442685
30
0
41
1
10
2.81200053519095
20
0.997809727446679
30
0
41
1
10
2.99644862281767
20
0.993369767873332
30
0
41
1
10
3.08911287490957
20
0.99236478738564
30
0
41
1
10
3.2287774672036
20
0.993031183105586
30
0
41
1
10
3.27544400425092
20
0.99360681924523
30
0
41
1
10
3.34561518812308
20
0.994961980905089
30
0
41
1
10
3.36902278147284
20
0.99549509630981
30
0
41
1
10
3.415624844749
20
0.996701835259358
30
0
41
1
10
3.43885267446518
20
0.997376045522913
30
0
41
1
10
3.55462851228828
20
1.0010459776889
30
0
41
1
10
3.64609064149749
20
1.00498359736383
30
0
41
1
10
3.73639600003003
20
1.008861096148
30
0
0
SPLINE
5
C2
100
AcDbEntity
8
1
62
256
6
ByLayer
370
18
48
1
60
0
100
AcDbSpline
70
4
71
3
72
80
73
76
40
0
40
0
40
0
40
0
40
0.003411292720134
40
0.003411292720134
40
0.006822585440268
40
0.006822585440268
40
0.013645170880536
40
0.013645170880536
40
0.01705646360067
40
0.01705646360067
40
0.020467756320804
40
0.027290341761072
40
0.027290341761072
40
0.03411292720134
40
0.03411292720134
40
0.0409355126416079
40
0.0409355126416079
40
0.0545806835221439
40
0.0545806835221439
40
0.0682258544026799
40
0.0682258544026799
40
0.0818710252832159
40
0.109161367044285
40
0.109161367044285
40
0.136451708805355
40
0.136451708805355
40
0.163742050566424
40
0.163742050566424
40
0.218322734088563
40
0.218322734088563
40
0.245613075849633
40
0.245613075849633
40
0.272903417610703
40
0.272903417610703
40
0.327484101132841
40
0.327484101132841
40
0.354774442893912
40
0.354774442893912
40
0.382064784654983
40
0.382064784654983
40
0.409355126416054
40
0.409355126416054
40
0.436645468177125
40
0.436645468177125
40
0.491226151699268
40
0.491226151699268
40
0.51851649346034
40
0.51851649346034
40
0.545806835221413
40
0.545806835221413
40
0.600387518743557
40
0.600387518743557
40
0.627677860504629
40
0.627677860504629
40
0.654968202265701
40
0.654968202265701
40
0.709548885787847
40
0.709548885787847
40
0.736839227548922
40
0.736839227548922
40
0.764129569309996
40
0.764129569309996
40
0.791419911071071
40
0.791419911071071
40
0.818710252832145
40
0.818710252832145
40
0.873290936354294
40
0.873290936354294
40
0.900581278115369
40
0.900581278115369
40
0.927871619876443
40
0.927871619876443
40
0.982452303398593
40
0.982452303398593
40
1
40
1
40
1
40
1
41
1
10
14.6236661886819
20
-0.982492905444815
30
0
41
1
10
14.615687615397
20
-0.981804732900173
30
0
41
1
10
14.6079948862421
20
-0.980971620765501
30
0
41
1
10
14.5930869034662
20
-0.979037774572703
30
0
41
1
10
14.5858475826251
20
-0.977948339558338
30
0
41
1
10
14.5644808556981
20
-0.974431312333337
30
0
41
1
10
14.550700898497
20
-0.971751874133787
30
0
41
1
10
14.5299307297326
20
-0.967616226869353
30
0
41
1
10
14.5229880770223
20
-0.966221192572107
30
0
41
1
10
14.5089704080769
20
-0.9634563418212
30
0
41
1
10
14.4877805469397
20
-0.959327270365037
30
0
41
1
10
14.4662627842672
20
-0.955189336181633
30
0
41
1
10
14.437613884752
20
-0.949475679621145
30
0
41
1
10
14.4233444833414
20
-0.946497127762655
30
0
41
1
10
14.3949607637797
20
-0.940251609773156
30
0
41
1
10
14.3808215263271
20
-0.937000147395707
30
0
41
1
10
14.3383614064768
20
-0.926990267302585
30
0
41
1
10
14.3098812343865
20
-0.920068714739529
30
0
41
1
10
14.252994767292
20
-0.9054384352726
30
0
41
1
10
14.2246082761851
20
-0.897749502282494
30
0
41
1
10
14.1678485882746
20
-0.881719845058853
30
0
41
1
10
14.0827467397574
20
-0.856680065931471
30
0
41
1
10
13.9977693955578
20
-0.82865642782474
30
0
41
1
10
13.8844427017188
20
-0.788771943448523
30
0
41
1
10
13.8277543383962
20
-0.767584175131617
30
0
41
1
10
13.7142043335316
20
-0.722848534061427
30
0
41
1
10
13.6572989566115
20
-0.699267252607655
30
0
41
1
10
13.4870357486561
20
-0.625519940671694
30
0
41
1
10
13.3738014149746
20
-0.572373081771588
30
0
41
1
10
13.2037127423615
20
-0.487606634187671
30
0
41
1
10
13.1469275155634
20
-0.458530684238809
30
0
41
1
10
13.0332287238645
20
-0.398983591786134
30
0
41
1
10
12.9764921121538
20
-0.368596871185645
30
0
41
1
10
12.8064405039813
20
-0.275897287125048
30
0
41
1
10
12.6931994167434
20
-0.212186092396706
30
0
41
1
10
12.5228776960491
20
-0.114840404267909
30
0
41
1
10
12.4659783341802
20
-0.0821183370233598
30
0
41
1
10
12.3524663959931
20
-0.0167020931911566
30
0
41
1
10
12.2957898780124
20
0.0160497800306416
30
0
41
1
10
12.1824660705511
20
0.0814153750317246
30
0
41
1
10
12.125805144767
20
0.114005401393854
30
0
41
1
10
12.012363784953
20
0.178789153235329
30
0
41
1
10
11.955540841615
20
0.211026263259299
30
0
41
1
10
11.7850722426041
20
0.306654297954566
30
0
41
1
10
11.6718083799382
20
0.368605455485522
30
0
41
1
10
11.5018100371506
20
0.457747954156844
30
0
41
1
10
11.4451078053744
20
0.486800637774849
30
0
41
1
10
11.3315080548971
20
0.543387579481248
30
0
41
1
10
11.2746270290928
20
0.570928948322717
30
0
41
1
10
11.1044446893883
20
0.650606397626518
30
0
41
1
10
10.9912095438485
20
0.699825934823252
30
0
41
1
10
10.8210551725053
20
0.766989787989701
30
0
41
1
10
10.7641967460213
20
0.788261696899241
30
0
41
1
10
10.6505588530127
20
0.828263170749523
30
0
41
1
10
10.593844900781
20
0.846982764331329
30
0
41
1
10
10.4238233057107
20
0.899123942751487
30
0
41
1
10
10.3105734184112
20
0.928476945718614
30
0
41
1
10
10.1401671299177
20
0.963808842412902
30
0
41
1
10
10.0833091451487
20
0.974108984994587
30
0
41
1
10
9.96984875398269
20
0.991617245804292
30
0
41
1
10
9.91318686189666
20
0.998844997697717
30
0
41
1
10
9.79986939148895
20
1.01020249597548
30
0
41
1
10
9.74319981174662
20
1.01432820538082
30
0
41
1
10
9.62971567545378
20
1.01944175499869
30
0
41
1
10
9.57283454232507
20
1.02042888726606
30
0
41
1
10
9.40245462852681
20
1.01863180123607
30
0
41
1
10
9.28919815170983
20
1.01112326412229
30
0
41
1
10
9.11916639549537
20
0.990571412948839
30
0
41
1
10
9.06244002069189
20
0.982179601586893
30
0
41
1
10
8.94878022152656
20
0.962345003080515
30
0
41
1
10
8.8919525847042
20
0.950914374399275
30
0
41
1
10
8.72183506479305
20
0.912317072888612
30
0
41
1
10
8.6086093169167
20
0.880872904655462
30
0
41
1
10
8.45865240242833
20
0.832240019107246
30
0
41
1
10
8.42210455311368
20
0.819851205325108
30
0
41
1
10
8.38556144971597
20
0.806950975979703
30
0
0
SPLINE
5
C3
100
AcDbEntity
8
1
62
256
6
ByLayer
370
18
48
1
60
0
100
AcDbSpline
70
4
71
3
72
8
73
4
40
0
40
0
40
0
40
0
40
1
40
1
40
1
40
1
41
1
10
3.99765793045091
20
-1.02000113738754
30
0
41
1
10
3.91091482161985
20
-1.0199989409133
30
0
41
1
10
3.82389118896893
20
-1.01631052977618
30
0
41
1
10
3.73639599999999
20
-1.00886109614657
30
0
0
SPLINE
5
C4
100
AcDbEntity
8
1
62
256
6
ByLayer
370
18
48
1
60
0
100
AcDbSpline
70
4
71
3
72
22
73
18
40
0
40
0
40
0
40
0
40
0.0244095871480806
40
0.0244095871480806
40
0.187007989290067
40
0.187007989290067
40
0.349606391432053
40
0.349606391432053
40
0.51220479357404
40
0.51220479357404
40
0.674803195716026
40
0.674803195716026
40
0.75610239678702
40
0.75610239678702
40
0.837401597858013
40
0.837401597858013
40
1
40
1
40
1
40
1
41
1
10
14.9129825318659
20
-0.399557656875771
30
0
41
1
10
14.9108448471964
20
-0.404122388981421
30
0
41
1
10
14.9086928082739
20
-0.408690761833555
30
0
41
1
10
14.8921127625876
20
-0.443722536033533
30
0
41
1
10
14.8771324004855
20
-0.474363484522797
30
0
41
1
10
14.8466713776914
20
-0.535985361166922
30
0
41
1
10
14.8311677754828
20
-0.566996282678161
30
0
41
1
10
14.7998625697196
20
-0.629454393302211
30
0
41
1
10
14.7840602961742
20
-0.660888774755705
30
0
41
1
10
14.7522688053346
20
-0.724193388486157
30
0
41
1
10
14.7362838582984
20
-0.756056881135521
30
0
41
1
10
14.7122290608525
20
-0.804237853235634
30
0
41
1
10
14.7041960532129
20
-0.820367009020771
30
0
41
1
10
14.688103467414
20
-0.852781002913162
30
0
41
1
10
14.6800448511843
20
-0.869059753294266
30
0
41
1
10
14.65586153836
20
-0.917917469843587
30
0
41
1
10
14.639729873919
20
-0.95053125583334
30
0
41
1
10
14.6236661886819
20
-0.982492905444843
30
0
0
SPLINE
5
C5
100
AcDbEntity
8
1
62
256
6
ByLayer
370
18
48
1
60
0
100
AcDbSpline
70
4
71
3
72
48
73
44
40
0
40
0
40
0
40
0
40
0.0731020857307359
40
0.0731020857307359
40
0.109653128596105
40
0.109653128596105
40
0.146204171461473
40
0.146204171461473
40
0.219306257192213
40
0.219306257192213
40
0.292408342922952
40
0.292408342922952
40
0.328959385788322
40
0.328959385788322
40
0.365510428653691
40
0.365510428653691
40
0.43861251438443
40
0.43861251438443
40
0.475163557249799
40
0.475163557249799
40
0.511714600115168
40
0.511714600115168
40
0.584816685845906
40
0.584816685845906
40
0.621367728711275
40
0.621367728711275
40
0.657918771576645
40
0.657918771576645
40
0.694469814442015
40
0.694469814442015
40
0.712745335874699
40
0.712745335874699
40
0.731020857307384
40
0.731020857307384
40
0.877225028768869
40
0.877225028768869
40
0.950327114499611
40
0.950327114499611
40
0.968602635932297
40
0.968602635932297
40
0.986878157364983
40
0.986878157364983
40
1
40
1
40
1
40
1
41
1
10
3.73639600000001
20
0.406842243534527
30
0
41
1
10
3.85011275611331
20
0.346601507396144
30
0
41
1
10
3.96356022494857
20
0.28410260146785
30
0
41
1
10
4.13395688679466
20
0.188018180732854
30
0
41
1
10
4.19085919869289
20
0.155605384626824
30
0
41
1
10
4.3044096181269
20
0.0905631469921104
30
0
41
1
10
4.36109963858098
20
0.0578887107350283
30
0
41
1
10
4.53109416859542
20
-0.0402812780841089
30
0
41
1
10
4.64444531317025
20
-0.105798112247783
30
0
41
1
10
4.87183724089195
20
-0.235317689902644
30
0
41
1
10
4.98513591258694
20
-0.298684855595923
30
0
41
1
10
5.15514665574366
20
-0.390568392664818
30
0
41
1
10
5.21184885827668
20
-0.420632733612479
30
0
41
1
10
5.32543044093981
20
-0.479449508322404
30
0
41
1
10
5.3823371077161
20
-0.508225737809369
30
0
41
1
10
5.55259402830364
20
-0.591875476542072
30
0
41
1
10
5.66583664850785
20
-0.644120617872915
30
0
41
1
10
5.83597187204461
20
-0.716295630628395
30
0
41
1
10
5.8927915926202
20
-0.739316234220411
30
0
41
1
10
6.00647965079676
20
-0.782996376097287
30
0
41
1
10
6.06321320641686
20
-0.803620486958835
30
0
41
1
10
6.2332719710854
20
-0.861658960929901
30
0
41
1
10
6.34652805784341
20
-0.895171493970281
30
0
41
1
10
6.51690379166348
20
-0.937038127005991
30
0
41
1
10
6.57379809510684
20
-0.949572427587555
30
0
41
1
10
6.68730335295655
20
-0.971599391978884
30
0
41
1
10
6.74398463710585
20
-0.981115486521418
30
0
41
1
10
6.85731801039532
20
-0.997101579988339
30
0
41
1
10
6.91399050850075
20
-1.00356281958429
30
0
41
1
10
6.99909531170363
20
-1.01092485356463
30
0
41
1
10
7.02747838727728
20
-1.0129908558408
30
0
41
1
10
7.08428510025428
20
-1.01634034379964
30
0
41
1
10
7.11273446967493
20
-1.01762430119715
30
0
41
1
10
7.36819551929065
20
-1.02559717768258
30
0
41
1
10
7.59195344005653
20
-1.00734011810917
30
0
41
1
10
7.92853085324026
20
-0.944686125088055
30
0
41
1
10
8.04092985959448
20
-0.917954578876135
30
0
41
1
10
8.18223031208643
20
-0.877462756199776
30
0
41
1
10
8.21053253917876
20
-0.869011710489019
30
0
41
1
10
8.26724513808168
20
-0.851419911585396
30
0
41
1
10
8.29568220248169
20
-0.842269078818276
30
0
41
1
10
8.34451102015674
20
-0.826000971071437
30
0
41
1
10
8.36490395110377
20
-0.819039741673123
30
0
41
1
10
8.38528552073853
20
-0.811919311194799
30
0
0
SPLINE
5
C6
100
AcDbEntity
8
1
62
256
6
ByLayer
370
18
48
1
60
0
100
AcDbSpline
70
4
71
3
72
40
73
36
40
0
40
0
40
0
40
0
40
0.0720119380179997
40
0.0720119380179997
40
0.164810744216204
40
0.164810744216204
40
0.257609550414408
40
0.257609550414408
40
0.443207162810809
40
0.443207162810809
40
0.628804775207209
40
0.628804775207209
40
0.721603581405413
40
0.721603581405413
40
0.768002984504515
40
0.768002984504515
40
0.814402387603617
40
0.814402387603617
40
0.860801790702719
40
0.860801790702719
40
0.884001492252266
40
0.884001492252266
40
0.907201193801813
40
0.907201193801813
40
0.930400895351359
40
0.930400895351359
40
0.942000746126133
40
0.942000746126133
40
0.953600596900906
40
0.953600596900906
40
0.976800298450453
40
0.976800298450453
40
0.988400149225227
40
0.988400149225227
40
1
40
1
40
1
40
1
41
1
10
12.7874974298389
20
1.02000168348738
30
0
41
1
10
12.8314833233585
20
1.01999655854942
30
0
41
1
10
12.8754826132605
20
1.01904279704101
30
0
41
1
10
12.9762705703019
20
1.01468440934798
30
0
41
1
10
13.0331747304651
20
1.01064319149427
30
0
41
1
10
13.1467412167071
20
0.999462407647599
30
0
41
1
10
13.2034386757696
20
0.992324088647763
30
0
41
1
10
13.3734399089414
20
0.966344697633332
30
0
41
1
10
13.4867460427351
20
0.942989693077209
30
0
41
1
10
13.7141713357717
20
0.884638030567544
30
0
41
1
10
13.8275726939251
20
0.849913329931496
30
0
41
1
10
13.997775849736
20
0.79018503773807
30
0
41
1
10
14.0545548200655
20
0.76901267897108
30
0
41
1
10
14.1398598432769
20
0.735476675332905
30
0
41
1
10
14.1682723971215
20
0.724019929160079
30
0
41
1
10
14.2250498928385
20
0.700548063469768
30
0
41
1
10
14.2534070402221
20
0.688522076683057
30
0
41
1
10
14.3101703237912
20
0.664038591039116
30
0
41
1
10
14.3385957537284
20
0.65161116249007
30
0
41
1
10
14.3809881293232
20
0.632260070762669
30
0
41
1
10
14.3951071767256
20
0.625729849700804
30
0
41
1
10
14.4234544708325
20
0.612696494920698
30
0
41
1
10
14.43770767109
20
0.606229006225391
30
0
41
1
10
14.4663269458316
20
0.59333762365867
30
0
41
1
10
14.4806589928677
20
0.586866564426401
30
0
41
1
10
14.5019420669111
20
0.576757519115745
30
0
41
1
10
14.5090007598401
20
0.573320723100551
30
0
41
1
10
14.5230103603406
20
0.566256090064513
30
0
41
1
10
14.5299497007917
20
0.562611035051503
30
0
41
1
10
14.5507118544485
20
0.551538547895319
30
0
41
1
10
14.5644888317076
20
0.543984498510724
30
0
41
1
10
14.5858523801086
20
0.533604277543759
30
0
41
1
10
14.593090864359
20
0.530304967765858
30
0
41
1
10
14.6079971087079
20
0.524334440498052
30
0
41
1
10
14.6156888917965
20
0.521700018425349
30
0
41
1
10
14.6236661886819
20
0.519495637983255
30
0
0
SPLINE
5
C7
100
AcDbEntity
8
1
62
256
6
ByLayer
370
18
48
1
60
0
100
AcDbSpline
70
4
71
3
72
28
73
24
40
0
40
0
40
0
40
0
40
0.125000000000008
40
0.125000000000008
40
0.187500000000013
40
0.187500000000013
40
0.250000000000017
40
0.250000000000017
40
0.375000000000016
40
0.375000000000016
40
0.43750000000001
40
0.43750000000001
40
0.500000000000005
40
0.500000000000005
40
0.625000000000004
40
0.625000000000004
40
0.750000000000002
40
0.750000000000002
40
0.875000000000001
40
0.875000000000001
40
0.937500000000001
40
0.937500000000001
40
1
40
1
40
1
40
1
41
1
10
14.6236661886819
20
0.519495637983255
30
0
41
1
10
14.6396701808407
20
0.497066110099382
30
0
41
1
10
14.6556436291382
20
0.477720878643112
30
0
41
1
10
14.6796064589732
20
0.450789679115815
30
0
41
1
10
14.687593407514
20
0.442169996518686
30
0
41
1
10
14.7035667494445
20
0.425332573411396
30
0
41
1
10
14.7115531505169
20
0.417098013097672
30
0
41
1
10
14.7355102354555
20
0.392997208010684
30
0
41
1
10
14.7514801523394
20
0.377755865480509
30
0
41
1
10
14.7754105825194
20
0.356415801933338
30
0
41
1
10
14.7833920476616
20
0.349548216772064
30
0
41
1
10
14.7992577603817
20
0.336413190809765
30
0
41
1
10
14.8071493199907
20
0.330135747554266
30
0
41
1
10
14.8306843295017
20
0.312128469429609
30
0
41
1
10
14.8461944540797
20
0.301218280103171
30
0
41
1
10
14.8766581978682
20
0.281464073896842
30
0
41
1
10
14.8916197015478
20
0.27263291800682
30
0
41
1
10
14.9204843112323
20
0.257104657758475
30
0
41
1
10
14.9344149525119
20
0.25040770422757
30
0
41
1
10
14.9535606947225
20
0.241978992211784
30
0
41
1
10
14.9596426031111
20
0.239438820205493
30
0
41
1
10
14.9708609151747
20
0.234902054148165
30
0
41
1
10
14.9759995600819
20
0.232905392481314
30
0
41
1
10
14.9803914247416
20
0.231184561339603
30
0
0
SPLINE
5
C8
100
AcDbEntity
8
1
62
256
6
ByLayer
370
18
48
1
60
0
100
AcDbSpline
70
4
71
3
72
28
73
24
40
0
40
0
40
0
40
0
40
0.0315895762871075
40
0.0315895762871075
40
0.0631791525742149
40
0.0631791525742149
40
0.12635830514843
40
0.12635830514843
40
0.157947881435548
40
0.157947881435548
40
0.189537457722667
40
0.252716610296928
40
0.252716610296928
40
0.315895762871188
40
0.315895762871188
40
0.379074915445449
40
0.379074915445449
40
0.505433220593993
40
0.505433220593993
40
0.631791525742537
40
0.631791525742537
40
0.758149830891081
40
1
40
1
40
1
40
1
41
1
10
14.6236661886819
20
0.982492905444815
30
0
41
1
10
14.615687615397
20
0.981804732900173
30
0
41
1
10
14.6079948862421
20
0.980971620765501
30
0
41
1
10
14.5930869034662
20
0.979037774572703
30
0
41
1
10
14.5858475826251
20
0.977948339558338
30
0
41
1
10
14.5644808556981
20
0.974431312333337
30
0
41
1
10
14.550700898497
20
0.971751874133787
30
0
41
1
10
14.5299307297326
20
0.967616226869353
30
0
41
1
10
14.5229880770223
20
0.966221192572107
30
0
41
1
10
14.5089704080769
20
0.9634563418212
30
0
41
1
10
14.4877805469398
20
0.959327270365037
30
0
41
1
10
14.4662627842672
20
0.955189336181661
30
0
41
1
10
14.4376138847521
20
0.949475679621145
30
0
41
1
10
14.4233444833414
20
0.946497127762655
30
0
41
1
10
14.3949607637797
20
0.940251609773156
30
0
41
1
10
14.3808215263271
20
0.937000147395707
30
0
41
1
10
14.3383614064769
20
0.926990267302585
30
0
41
1
10
14.3098812343866
20
0.920068714739557
30
0
41
1
10
14.252994767292
20
0.9054384352726
30
0
41
1
10
14.2246082761851
20
0.897749502282494
30
0
41
1
10
14.1678485882746
20
0.881719845058853
30
0
41
1
10
14.0851862423313
20
0.857397848290987
30
0
41
1
10
14.0026413650109
20
0.83026060935174
30
0
41
1
10
13.9484153094294
20
0.811279653565919
30
0
0
SPLINE
5
C9
100
AcDbEntity
8
1
62
256
6
ByLayer
370
18
48
1
60
0
100
AcDbSpline
70
4
71
3
72
60
73
56
40
0
40
0
40
0
40
0
40
0.0055571725254604
40
0.0055571725254604
40
0.0640538094357282
40
0.0640538094357282
40
0.0933021278908619
40
0.0933021278908619
40
0.122550446345996
40
0.122550446345996
40
0.181047083256264
40
0.181047083256264
40
0.210295401711397
40
0.210295401711397
40
0.239543720166531
40
0.239543720166531
40
0.298040357076799
40
0.298040357076799
40
0.327288675531932
40
0.327288675531932
40
0.356536993987065
40
0.356536993987065
40
0.385785312442198
40
0.385785312442198
40
0.415033630897331
40
0.415033630897331
40
0.473530267807598
40
0.473530267807598
40
0.502778586262731
40
0.502778586262731
40
0.532026904717863
40
0.532026904717863
40
0.590523541628128
40
0.590523541628128
40
0.619771860083261
40
0.619771860083261
40
0.649020178538393
40
0.649020178538393
40
0.678268496993526
40
0.678268496993526
40
0.707516815448658
40
0.707516815448658
40
0.766013452358925
40
0.766013452358925
40
0.795261770814059
40
0.795261770814059
40
0.809885930041625
40
0.809885930041625
40
0.824510089269193
40
0.824510089269193
40
0.883006726179462
40
0.883006726179462
40
0.941503363089731
40
0.941503363089731
40
1
40
1
40
1
40
1
41
1
10
9.54842133040211
20
-1.01999963700717
30
0
41
1
10
9.53762583307974
20
-1.02000022891403
30
0
41
1
10
9.52683195010232
20
-1.01994367387454
30
0
41
1
10
9.40245462852678
20
-1.01863180123607
30
0
41
1
10
9.28919815170983
20
-1.01112326412229
30
0
41
1
10
9.11916639549537
20
-0.990571412948839
30
0
41
1
10
9.06244002069189
20
-0.982179601586893
30
0
41
1
10
8.94878022152653
20
-0.962345003080515
30
0
41
1
10
8.8919525847042
20
-0.950914374399275
30
0
41
1
10
8.72183506479305
20
-0.912317072888612
30
0
41
1
10
8.6086093169167
20
-0.88087290465549
30
0
41
1
10
8.43839717134458
20
-0.825670996675655
30
0
41
1
10
8.38150088599556
20
-0.805922673820106
30
0
41
1
10
8.26792046869065
20
-0.764075096728078
30
0
41
1
10
8.2112242466192
20
-0.741962074145647
30
0
41
1
10
8.04122074919951
20
-0.67230012523035
30
0
41
1
10
7.92793896373894
20
-0.621507926906418
30
0
41
1
10
7.75742660941387
20
-0.539638003522924
30
0
41
1
10
7.70063660830991
20
-0.511501075044407
30
0
41
1
10
7.58721556376858
20
-0.453831345276257
30
0
41
1
10
7.53056271263998
20
-0.424270208022193
30
0
41
1
10
7.41724751208034
20
-0.363891639491584
30
0
41
1
10
7.36056815660939
20
-0.333101538551745
30
0
41
1
10
7.24704370064438
20
-0.270516732088737
30
0
41
1
10
7.19014353648458
20
-0.238669676370648
30
0
41
1
10
7.01986097668063
20
-0.142342268220091
30
0
41
1
10
6.90661807762106
20
-0.0771236467393237
30
0
41
1
10
6.73653321098109
20
0.02109599045761
30
0
41
1
10
6.67977643132838
20
0.0538625202457865
30
0
41
1
10
6.56604346565024
20
0.119253129252797
30
0
41
1
10
6.50929629540312
20
0.151759201192249
30
0
41
1
10
6.3392184242972
20
0.248379852289872
30
0
41
1
10
6.22598748103297
20
0.31148931144179
30
0
41
1
10
6.0557012935476
20
0.403063468894487
30
0
41
1
10
5.99880153806606
20
0.433063181486745
30
0
41
1
10
5.885281265624
20
0.491467498700786
30
0
41
1
10
5.82860487169074
20
0.519923963915716
30
0
41
1
10
5.71528558462958
20
0.575147784260452
30
0
41
1
10
5.65862922558739
20
0.601895539434963
30
0
41
1
10
5.54520066781956
20
0.653488567244551
30
0
41
1
10
5.48840342207697
20
0.678360195140755
30
0
41
1
10
5.31789361685702
20
0.749785940983912
30
0
41
1
10
5.2046080335098
20
0.792809856635301
30
0
41
1
10
5.03461298104315
20
0.849778794601434
30
0
41
1
10
4.97791449904074
20
0.867483080172548
30
0
41
1
10
4.89273221544053
20
0.892024054588234
30
0
41
1
10
4.8642902272876
20
0.899875214924805
30
0
41
1
10
4.8074835025383
20
0.91485707795411
30
0
41
1
10
4.77913519050654
20
0.921985651870898
30
0
41
1
10
4.63761137813503
20
0.955788211830566
30
0
41
1
10
4.52503484033366
20
0.976912193071513
30
0
41
1
10
4.30030671462524
20
1.00711308225087
30
0
41
1
10
4.18806857736334
20
1.01615454646676
30
0
41
1
10
3.96300758990725
20
1.02187116779953
30
0
41
1
10
3.85009998148877
20
1.0185419743012
30
0
41
1
10
3.73639599999999
20
1.00886109614657
30
0
0
SPLINE
5
CA
100
AcDbEntity
8
1
62
256
6
ByLayer
370
18
48
1
60
0
100
AcDbSpline
70
4
71
3
72
44
73
40
40
0
40
0
40
0
40
0
40
0.0084317921685725
40
0.038268685684873
40
0.0681055792011736
40
0.0979424727174741
40
0.127779366233775
40
0.142697812991925
40
0.172534706508225
40
0.202371600024526
40
0.232208493540827
40
0.262045387057127
40
0.291882280573428
40
0.314259950710653
40
0.336637620847879
40
0.366474514364179
40
0.39631140788048
40
0.42614830139678
40
0.455985194913081
40
0.478362865050306
40
0.500740535187532
40
0.530577428703832
40
0.560414322220133
40
0.590251215736433
40
0.620088109252734
40
0.649925002769034
40
0.664843449527185
40
0.694680343043485
40
0.724517236559786
40
0.754354130076086
40
0.784191023592387
40
0.814027917108687
40
0.828946363866838
40
0.858783257383138
40
0.888620150899439
40
0.918457044415739
40
0.94829393793204
40
0.97813083144834
40
1
40
1
40
1
40
1
41
1
10
4.1107941877728
20
0.192016328194257
30
0
41
1
10
4.11915658218806
20
0.191221961127326
30
0
41
1
10
4.15711027928049
20
0.187587580245605
30
0
41
1
10
4.22465513557873
20
0.180889745238204
30
0
41
0.999999999999999
10
4.3134285937349
20
0.171632445685589
30
0
41
1
10
4.4022018159981
20
0.161935032321281
30
0
41
1
10
4.47617933198239
20
0.153507191388002
30
0
41
1
10
4.55015674145457
20
0.144847549759589
30
0
41
1
10
4.62413405464596
20
0.135960091883362
30
0
41
1
10
4.71290670912662
20
0.124947979537012
30
0
41
1
10
4.80167927496268
20
0.113608791975395
30
0
41
1
10
4.8904517848577
20
0.101994751792375
30
0
41
1
10
4.97182656429254
20
0.091114809934453
30
0
41
1
10
5.04580364341166
20
0.0810566434280986
30
0
41
1
10
5.11978074375739
20
0.0708616328987546
30
0
41
1
10
5.20115560114584
20
0.0595096197124576
30
0
41
1
10
5.2899282638503
20
0.0469818675042575
30
0
41
1
10
5.37870105119131
20
0.0343350842258303
30
0
41
1
10
5.46007624706584
20
0.0226507373490392
30
0
41
1
10
5.53405384807794
20
0.0119955697612397
30
0
41
1
10
5.60803152882559
20
0.0013247444010176
30
0
41
1
10
5.6894069594446
20
-0.0104158149921147
30
0
41
1
10
5.77818016035187
20
-0.0232108843647723
30
0
41
1
10
5.86695336040242
20
-0.0359474045057766
30
0
41
1
10
5.95572656069828
20
-0.0485820143213118
30
0
41
1
10
6.02970422753583
20
-0.0590114023407864
30
0
41
1
10
6.10368189440262
20
-0.069349127372476
30
0
41
1
10
6.17765956126212
20
-0.0795856796075611
30
0
41
1
10
6.26643276149539
20
-0.091656092191613
30
0
41
1
10
6.35520596172822
20
-0.103493512274952
30
0
41
1
10
6.44397916196121
20
-0.115075008731736
30
0
41
1
10
6.51795682882204
20
-0.124489375047517
30
0
41
1
10
6.59193449568255
20
-0.133694422057516
30
0
41
1
10
6.66591216254435
20
-0.142690316093223
30
0
41
1
10
6.75468536277458
20
-0.153126756206944
30
0
41
1
10
6.84345856301502
20
-0.163187067529378
30
0
41
1
10
6.93223176322144
20
-0.17282566788569
30
0
41
1
10
7.01310288484688
20
-0.181206767472418
30
0
41
1
10
7.06438293927832
20
-0.186294432633218
30
0
41
1
10
7.08607192753581
20
-0.188404525943213
30
0
0
SPLINE
5
CB
100
AcDbEntity
8
1
62
256
6
ByLayer
370
18
48
1
60
0
100
AcDbSpline
70
4
71
3
72
26
73
22
40
0
40
0
40
0
40
0
40
0.0625
40
0.0625
40
0.125
40
0.125
40
0.25
40
0.25
40
0.375
40
0.375
40
0.5
40
0.5
40
0.625
40
0.625
40
0.75
40
0.75
40
0.8125
40
0.8125
40
0.875
40
0.875
40
1
40
1
40
1
40
1
41
1
10
14.9803914247416
20
0.231184561339603
30
0
41
1
10
14.9760515911431
20
0.246489495721221
30
0
41
1
10
14.9709736910517
20
0.2616933557849
30
0
41
1
10
14.9598680219982
20
0.292023101849622
30
0
41
1
10
14.9538383945604
20
0.307148753953499
30
0
41
1
10
14.9348233753015
20
0.352532179695402
30
0
41
1
10
14.9209445675417
20
0.382804170665906
30
0
41
1
10
14.8921127625876
20
0.443722536033533
30
0
41
1
10
14.8771324004855
20
0.474363484522797
30
0
41
1
10
14.8466713776914
20
0.535985361166922
30
0
41
1
10
14.8311677754827
20
0.566996282678133
30
0
41
1
10
14.7998625697196
20
0.629454393302183
30
0
41
1
10
14.7840602961742
20
0.660888774755676
30
0
41
1
10
14.7522688053346
20
0.724193388486157
30
0
41
1
10
14.7362838582984
20
0.756056881135493
30
0
41
1
10
14.7122290608525
20
0.804237853235605
30
0
41
1
10
14.7041960532129
20
0.820367009020742
30
0
41
1
10
14.688103467414
20
0.852781002913133
30
0
41
1
10
14.6800448511843
20
0.869059753294238
30
0
41
1
10
14.65586153836
20
0.917917469843587
30
0
41
1
10
14.639729873919
20
0.95053125583334
30
0
41
1
10
14.6236661886819
20
0.982492905444843
30
0
0
SPLINE
5
CC
100
AcDbEntity
8
1
62
256
6
ByLayer
370
18
48
1
60
0
100
AcDbSpline
70
4
71
3
72
66
73
62
40
0
40
0
40
0
40
0
40
0.0871679216596099
40
0.0871679216596099
40
0.137817504369557
40
0.137817504369557
40
0.150479900047044
40
0.150479900047044
40
0.163142295724531
40
0.163142295724531
40
0.188467087079507
40
0.188467087079507
40
0.239116669789458
40
0.239116669789458
40
0.264441461144434
40
0.264441461144434
40
0.289766252499409
40
0.289766252499409
40
0.315091043854385
40
0.315091043854385
40
0.340415835209361
40
0.340415835209361
40
0.391065417919312
40
0.391065417919312
40
0.416390209274288
40
0.416390209274288
40
0.441715000629263
40
0.441715000629263
40
0.492364583339215
40
0.492364583339215
40
0.517689374694189
40
0.517689374694189
40
0.543014166049163
40
0.543014166049163
40
0.59366374875911
40
0.59366374875911
40
0.618988540114084
40
0.618988540114084
40
0.644313331469057
40
0.644313331469057
40
0.66963812282403
40
0.66963812282403
40
0.694962914179004
40
0.694962914179004
40
0.745612496888948
40
0.745612496888948
40
0.770937288243921
40
0.770937288243921
40
0.796262079598893
40
0.796262079598893
40
0.846911662308835
40
0.846911662308835
40
0.872236453663806
40
0.872236453663806
40
0.897561245018777
40
0.897561245018777
40
0.948210827728719
40
0.948210827728719
40
0.998860410438662
40
0.998860410438662
40
1
40
1
40
1
40
1
41
1
10
7.23596758006641
20
1.0200014539214
30
0
41
1
10
7.43063622618573
20
1.0200458990962
30
0
41
1
10
7.62325516204137
20
1.00151329255891
30
0
41
1
10
7.92853085324023
20
0.944686125088055
30
0
41
1
10
8.04092985959448
20
0.917954578876135
30
0
41
1
10
8.18223031208646
20
0.877462756199776
30
0
41
1
10
8.21053253917873
20
0.869011710489019
30
0
41
1
10
8.26724513808165
20
0.851419911585396
30
0
41
1
10
8.29568220248169
20
0.842269078818276
30
0
41
1
10
8.38094784153617
20
0.813861456653996
30
0
41
1
10
8.43768291922098
20
0.793663518843886
30
0
41
1
10
8.60773365368368
20
0.729493949985596
30
0
41
1
10
8.7209844273049
20
0.682054262496905
30
0
41
1
10
8.89134004666244
20
0.604689186027883
30
0
41
1
10
8.94823255895741
20
0.577887378241684
30
0
41
1
10
9.06173238683942
20
0.522729607910378
30
0
41
1
10
9.11841164454566
20
0.494334032146924
30
0
41
1
10
9.23173630584003
20
0.436074851974183
30
0
41
1
10
9.28840548224892
20
0.40624798753484
30
0
41
1
10
9.40187118805702
20
0.345379352695659
30
0
41
1
10
9.45872522517797
20
0.314295098474844
30
0
41
1
10
9.62918876689724
20
0.219711460566799
30
0
41
1
10
9.74246934356302
20
0.155197358739855
30
0
41
1
10
9.91250572100091
20
0.0573752713053466
30
0
41
1
10
9.96921992321916
20
0.0246204764534639
30
0
41
1
10
10.0828505668034
20
-0.0409565612513063
30
0
41
1
10
10.1397242780552
20
-0.0737772025355525
30
0
41
1
10
10.3099062435721
20
-0.171548042083089
30
0
41
1
10
10.4231367146366
20
-0.235856035624579
30
0
41
1
10
10.5933237665886
20
-0.329854138361299
30
0
41
1
10
10.6501985433572
20
-0.360788596394627
30
0
41
1
10
10.7638296748003
20
-0.42135152741821
30
0
41
1
10
10.8205486846238
20
-0.45097762829954
30
0
41
1
10
10.9905845495567
20
-0.537635179285274
30
0
41
1
10
11.1038699333783
20
-0.592312696561891
30
0
41
1
10
11.2743235870373
20
-0.668729575281617
30
0
41
1
10
11.3311710982971
20
-0.693196802626971
30
0
41
1
10
11.4446319429278
20
-0.739801467509238
30
0
41
1
10
11.5012974855107
20
-0.761978053937526
30
0
41
1
10
11.6146208587857
20
-0.803937312142637
30
0
41
1
10
11.6712967119275
20
-0.823699900905325
30
0
41
1
10
11.7847980927427
20
-0.860658566555657
30
0
41
1
10
11.8416914607675
20
-0.877881954444945
30
0
41
1
10
12.0120555294236
20
-0.925311423773053
30
0
41
1
10
12.1253118966941
20
-0.951258273151552
30
0
41
1
10
12.2953896230597
20
-0.981256217595359
30
0
41
1
10
12.3521291989821
20
-0.989758662094658
30
0
41
1
10
12.4658331166602
20
-1.00369310357314
30
0
41
1
10
12.5226494254743
20
-1.00910953054066
30
0
41
1
10
12.6927779590877
20
-1.02064035120452
30
0
41
1
10
12.806020709401
20
-1.02204654784418
30
0
41
1
10
12.9762705703019
20
-1.01468440934798
30
0
41
1
10
13.0331747304651
20
-1.01064319149427
30
0
41
1
10
13.1467412167071
20
-0.999462407647599
30
0
41
1
10
13.2034386757696
20
-0.992324088647763
30
0
41
1
10
13.3734399089414
20
-0.96634469763336
30
0
41
1
10
13.4867460427351
20
-0.942989693077209
30
0
41
1
10
13.7141713357717
20
-0.884638030567572
30
0
41
1
10
13.8275726939251
20
-0.849913329931525
30
0
41
1
10
13.9435944534447
20
-0.809198564565605
30
0
41
1
10
13.9461475327042
20
-0.808300103349609
30
0
41
1
10
13.9487007064777
20
-0.807399091924083
30
0
0
SPLINE
5
CD
100
AcDbEntity
8
1
62
256
6
ByLayer
370
18
48
1
60
0
100
AcDbSpline
70
4
71
3
72
43
73
39
40
0
40
0
40
0
40
0
40
0.0254181008108763
40
0.0555270095468451
40
0.0856359182828143
40
0.115744827018783
40
0.145853735754752
40
0.168435417306729
40
0.191017098858706
40
0.221126007594675
40
0.251234916330644
40
0.281343825066613
40
0.311452733802582
40
0.341561642538551
40
0.356616096906535
40
0.386725005642505
40
0.416833914378473
40
0.446942823114442
40
0.477051731850412
40
0.50716064058638
40
0.522215094954365
40
0.552324003690334
40
0.582432912426303
40
0.612541821162272
40
0.642650729898241
40
0.67275963863421
40
0.695341320186187
40
0.717923001738163
40
0.748031910474133
40
0.778140819210101
40
0.808249727946071
40
0.83835863668204
40
0.860940318234017
40
0.883521999785993
40
0.913630908521962
40
0.943739817257931
40
0.9738487259939
40
1
40
1
40
1
40
1
41
1
10
9.69801255009182
20
0.188493552843965
30
0
41
1
10
9.72299336118033
20
0.186066698625723
30
0
41
1
10
9.77756509122742
20
0.180641951247594
30
0
41
1
10
9.86172774025215
20
0.171867189861416
30
0
41
1
10
9.95050049709377
20
0.162178030380915
30
0
41
1
10
10.0392732541251
20
0.152087536067057
30
0
41
0.999999999999999
10
10.1206482806369
20
0.142484096692755
30
0
41
1
10
10.1946255809597
20
0.133487162393777
30
0
41
1
10
10.2686028651586
20
0.124277232225296
30
0
41
1
10
10.3499777102191
20
0.113901271044853
30
0
41
1
10
10.4387501122885
20
0.102296450954242
30
0
41
1
10
10.5275223771729
20
0.0904275202839528
30
0
41
1
10
10.6162945303948
20
0.0783240837718324
30
0
41
1
10
10.6902712515676
20
0.0680858176728805
30
0
41
1
10
10.764247933119
20
0.0577418137114307
30
0
41
1
10
10.8382245825807
20
0.0473033819208411
30
0
41
1
10
10.9269965348584
20
0.0346451538815984
30
0
41
1
10
11.0157684843073
20
0.0219121611663695
30
0
41
1
10
11.1045404551748
20
0.0091282384398426
30
0
41
1
10
11.178517135632
20
-0.0015513633297246
30
0
41
1
10
11.2524938597468
20
-0.0122329750618064
30
0
41
1
10
11.3264706353086
20
-0.0228929089579708
30
0
41
1
10
11.4152428717589
20
-0.0356192484923383
30
0
41
1
10
11.5040152401427
20
-0.0482591268956298
30
0
41
1
10
11.5927877585319
20
-0.0607905410780347
30
0
41
1
10
11.6741627507832
20
-0.072127524147021
30
0
41
1
10
11.748140004992
20
-0.0822961668865503
30
0
41
1
10
11.8221172626013
20
-0.0923342956805299
30
0
41
1
10
11.9034922451394
20
-0.103201190418389
30
0
41
1
10
11.9922649535483
20
-0.114791701851289
30
0
41
1
10
12.0810376619141
20
-0.126083588787594
30
0
41
1
10
12.1624126445946
20
-0.136143318936462
30
0
41
1
10
12.2363899015732
20
-0.145042164969112
30
0
41
0.999999999999999
10
12.3103671585528
20
-0.153713049890257
30
0
41
1
10
12.3917421412301
20
-0.162934265133799
30
0
41
1
10
12.4805148496054
20
-0.172580991808019
30
0
41
1
10
12.5653980120128
20
-0.18139558455087
30
0
41
1
10
12.6206902716281
20
-0.186873681260266
30
0
41
1
10
12.646391628452
20
-0.189358649593828
30
0
0
SPLINE
5
CE
100
AcDbEntity
8
1
62
256
6
ByLayer
370
18
48
1
60
0
100
AcDbSpline
70
4
71
3
72
40
73
36
40
0
40
0
40
0
40
0
40
0.137428982996181
40
0.137428982996181
40
0.206143474494274
40
0.206143474494274
40
0.274857965992367
40
0.274857965992367
40
0.34357245749046
40
0.34357245749046
40
0.412286948988553
40
0.412286948988553
40
0.549715931984738
40
0.549715931984738
40
0.584073177733785
40
0.584073177733785
40
0.618430423482831
40
0.618430423482831
40
0.687144914980924
40
0.687144914980924
40
0.755859406479017
40
0.755859406479017
40
0.790216652228063
40
0.790216652228063
40
0.82457389797711
40
0.82457389797711
40
0.893288389475205
40
0.893288389475205
40
0.910467012349729
40
0.910467012349729
40
0.927645635224254
40
0.927645635224254
40
0.962002880973304
40
0.962002880973304
40
1
40
1
40
1
40
1
41
1
10
3.73639600000001
20
0.406842243534527
30
0
41
1
10
3.65867210325965
20
0.427606645278218
30
0
41
1
10
3.58251349636035
20
0.452011834940805
30
0
41
1
10
3.47062136713177
20
0.493398189377359
30
0
41
1
10
3.43373306493797
20
0.507987033883978
30
0
41
1
10
3.3611655689048
20
0.538455268896229
30
0
41
1
10
3.32543459953305
20
0.554353239783438
30
0
41
1
10
3.25509825462325
20
0.587318805904403
30
0
41
1
10
3.22040021403194
20
0.604436968760751
30
0
41
1
10
3.1528771399272
20
0.639304062432785
30
0
41
1
10
3.11999962168898
20
0.65707289301713
30
0
41
1
10
3.0240909739972
20
0.711018756028551
30
0
41
1
10
2.9637490621316
20
0.747854725468756
30
0
41
1
10
2.8934371998032
20
0.793599128733177
30
0
41
1
10
2.87963337066353
20
0.802731419680356
30
0
41
1
10
2.85257230857604
20
0.820919451307162
30
0
41
1
10
2.83927145283249
20
0.830005677605442
30
0
41
1
10
2.80060083868062
20
0.856828285767108
30
0
41
1
10
2.7765189646903
20
0.874083926634626
30
0
41
1
10
2.73198527581749
20
0.906877546700514
30
0
41
1
10
2.71152910340715
20
0.922418905381363
30
0
41
1
10
2.68390932668777
20
0.943995745116553
30
0
41
1
10
2.67527324476271
20
0.950853178599971
30
0
41
1
10
2.65937007266496
20
0.963678473454962
30
0
41
1
10
2.65206962866216
20
0.969672318006076
30
0
41
1
10
2.63215968835411
20
0.986315280627281
30
0
41
1
10
2.62152698853228
20
0.995633603337183
30
0
41
1
10
2.61184702135074
20
1.00469631941047
30
0
41
1
10
2.61009272004532
20
1.00637899509147
30
0
41
1
10
2.60696041845884
20
1.00947269319664
30
0
41
1
10
2.60558349776622
20
1.0108830954006
30
0
41
1
10
2.60207706827282
20
1.01464423821034
30
0
41
1
10
2.60054863532074
20
1.01654684585313
30
0
41
1
10
2.59899727508082
20
1.01929736063712
30
0
41
1
10
2.59914652078194
20
1.02001406945101
30
0
41
1
10
2.60026656974253
20
1.02000137313396
30
0
0
SPLINE
5
CF
100
AcDbEntity
8
1
62
256
6
ByLayer
370
18
48
1
60
0
100
AcDbSpline
70
4
71
3
72
10
73
6
40
0
40
0
40
0
40
0
40
0.333772072737754
40
0.333772072737754
40
1
40
1
40
1
40
1
41
1
10
2.60914123658603
20
1.01647437685858
30
0
41
1
10
2.61076356166009
20
1.01563438161568
30
0
41
1
10
2.61258362088964
20
1.0146467676648
30
0
41
1
10
2.618604958238
20
1.01126199559639
30
0
41
1
10
2.62337531661692
20
1.00844088778828
30
0
41
1
10
2.62888768328574
20
1.00508038813035
30
0
0
LINE
5
7F
100
AcDbEntity
8
1
62
256
6
ByLayer
370
18
48
1
60
0
100
AcDbLine
10
0
20
1.5
30
0
11
0
21
0
31
0
39
0
210
0
220
0
230
1
0
LINE
5
80
100
AcDbEntity
8
1
62
256
6
ByLayer
370
18
48
1
60
0
100
AcDbLine
10
0
20
0
30
0
11
0
21
-1.5
31
0
39
0
210
0
220
0
230
1
0
LINE
5
81
100
AcDbEntity
8
1
62
256
6
ByLayer
370
18
48
1
60
0
100
AcDbLine
10
14.623666
20
0.519496
30
0
11
14.623666
21
-0.982493
31
0
39
0
210
0
220
0
230
1
0
LINE
5
82
100
AcDbEntity
8
1
62
256
6
ByLayer
370
18
48
1
60
0
100
AcDbLine
10
3.736396
20
1.008861
30
0
11
3.736396
21
0.403038
31
0
39
0
210
0
220
0
230
1
0
LINE
5
83
100
AcDbEntity
8
1
62
256
6
ByLayer
370
13
48
1
60
0
100
AcDbLine
10
1.099344
20
1.02
30
0
11
1.099344
21
-1.02
31
0
39
0
210
0
220
0
230
1
0
LINE
5
84
100
AcDbEntity
8
1
62
256
6
ByLayer
370
18
48
1
60
0
100
AcDbLine
10
1E-05
20
1.5
30
0
11
1E-05
21
-1.5
31
0
39
0
210
0
220
0
230
1
0
LINE
5
85
100
AcDbEntity
8
1
62
256
6
ByLayer
370
13
48
1
60
0
100
AcDbLine
10
0.599344
20
1.153975
30
0
11
0.599344
21
-1.153975
31
0
39
0
210
0
220
0
230
1
0
LINE
5
86
100
AcDbEntity
8
SK1
62
256
6
ByLayer
370
18
48
1
60
0
100
AcDbLine
10
-22.9007
20
1.326795
30
0
11
-22.9007
21
-1.326795
31
0
39
0
210
0
220
0
230
1
0
LINE
5
88
100
AcDbEntity
8
SK1
62
256
6
ByLayer
370
18
48
1
60
0
100
AcDbLine
10
0
20
1.5
30
0
11
0
21
0
31
0
39
0
210
0
220
0
230
1
0
LINE
5
89
100
AcDbEntity
8
SK1
62
256
6
ByLayer
370
18
48
1
60
0
100
AcDbLine
10
0
20
0
30
0
11
0
21
-1.5
31
0
39
0
210
0
220
0
230
1
0
LINE
5
8A
100
AcDbEntity
8
SK1
62
256
6
ByLayer
370
18
48
1
60
0
100
AcDbLine
10
-22.6007
20
1.5
30
0
11
-22.6007
21
-1.5
31
0
39
0
210
0
220
0
230
1
0
LINE
5
8B
100
AcDbEntity
8
1
62
256
6
ByLayer
370
18
48
1
60
0
100
AcDbLine
10
15.0993
20
0
30
0
11
14.912478
21
0.400642
31
0
39
0
210
0
220
0
230
1
0
LINE
5
8C
100
AcDbEntity
8
1
62
256
6
ByLayer
370
18
48
1
60
0
100
AcDbLine
10
14.912478
20
-0.400642
30
0
11
15.0993
21
0
31
0
39
0
210
0
220
0
230
1
0
LINE
5
8D
100
AcDbEntity
8
1
62
256
6
ByLayer
370
18
48
1
60
0
100
AcDbLine
10
1.099344
20
-1.02
30
0
11
2.608329
21
-1.02
31
0
39
0
210
0
220
0
230
1
0
LINE
5
8E
100
AcDbEntity
8
1
62
256
6
ByLayer
370
18
48
1
60
0
100
AcDbLine
10
3.997696
20
-1.02
30
0
11
7.236104
21
-1.02
31
0
39
0
210
0
220
0
230
1
0
LINE
5
8F
100
AcDbEntity
8
1
62
256
6
ByLayer
370
18
48
1
60
0
100
AcDbLine
10
9.548465
20
-1.02
30
0
11
12.787412
21
-1.02
31
0
39
0
210
0
220
0
230
1
0
LINE
5
90
100
AcDbEntity
8
1
62
256
6
ByLayer
370
18
48
1
60
0
100
AcDbLine
10
12.787412
20
1.02
30
0
11
9.548465
21
1.02
31
0
39
0
210
0
220
0
230
1
0
LINE
5
91
100
AcDbEntity
8
1
62
256
6
ByLayer
370
18
48
1
60
0
100
AcDbLine
10
7.236104
20
1.02
30
0
11
3.997696
21
1.02
31
0
39
0
210
0
220
0
230
1
0
LINE
5
92
100
AcDbEntity
8
1
62
256
6
ByLayer
370
18
48
1
60
0
100
AcDbLine
10
2.608329
20
1.02
30
0
11
1.099344
21
1.02
31
0
39
0
210
0
220
0
230
1
0
LINE
5
93
100
AcDbEntity
8
1
62
256
6
ByLayer
370
18
48
1
60
0
100
AcDbLine
10
0.599344
20
1.153975
30
0
11
1E-05
21
1.5
31
0
39
0
210
0
220
0
230
1
0
LINE
5
94
100
AcDbEntity
8
1
62
256
6
ByLayer
370
18
48
1
60
0
100
AcDbLine
10
1E-05
20
-1.5
30
0
11
0.599344
21
-1.153975
31
0
39
0
210
0
220
0
230
1
0
LINE
5
95
100
AcDbEntity
8
SK1
62
256
6
ByLayer
370
18
48
1
60
0
100
AcDbLine
10
-22.9007
20
-1.326795
30
0
11
-22.6007
21
-1.5
31
0
39
0
210
0
220
0
230
1
0
LINE
5
96
100
AcDbEntity
8
SK1
62
256
6
ByLayer
370
18
48
1
60
0
100
AcDbLine
10
-22.6007
20
1.5
30
0
11
-22.9007
21
1.326795
31
0
39
0
210
0
220
0
230
1
0
LINE
5
97
100
AcDbEntity
8
SK1
62
256
6
ByLayer
370
18
48
1
60
0
100
AcDbLine
10
-22.6007
20
-1.5
30
0
11
0
21
-1.5
31
0
39
0
210
0
220
0
230
1
0
LINE
5
98
100
AcDbEntity
8
SK1
62
256
6
ByLayer
370
18
48
1
60
0
100
AcDbLine
10
0
20
1.5
30
0
11
-22.6007
21
1.5
31
0
39
0
210
0
220
0
230
1
0
LINE
5
99
100
AcDbEntity
8
4
62
256
6
ByLayer
370
18
48
0.05
60
0
100
AcDbLine
10
0
20
0
30
0
11
15.0993
21
0
31
0
39
0
210
0
220
0
230
1
0
LINE
5
9B
100
AcDbEntity
8
81
62
256
6
ByLayer
370
18
48
1
60
0
100
AcDbLine
10
15.0993
20
0
30
0
11
18.0993
21
0
31
0
39
0
210
0
220
0
230
1
0
LINE
5
9C
100
AcDbEntity
8
80
62
256
6
ByLayer
370
18
48
1
60
0
100
AcDbLine
10
0
20
0
30
0
11
-3
21
0
31
0
39
0
210
0
220
0
230
1
0
LINE
5
9D
100
AcDbEntity
8
SK4
62
256
6
ByLayer
370
18
48
0.05
60
0
100
AcDbLine
10
-25.9007
20
0
30
0
11
18.0993
21
0
31
0
39
0
210
0
220
0
230
1
0
LINE
5
9F
100
AcDbEntity
8
SK2
62
256
6
ByLayer
370
13
48
1
60
0
100
AcDbLine
10
-27.4007
20
-9
30
0
11
-27.4007
21
21.782741
31
0
39
0
210
0
220
0
230
1
0
LINE
5
A1
100
AcDbEntity
8
SK2
62
256
6
ByLayer
370
13
48
1
60
0
100
AcDbLine
10
-24.4882
20
-1.5
30
0
11
-29.4007
21
-1.5
31
0
39
0
210
0
220
0
230
1
0
LINE
5
A2
100
AcDbEntity
8
SK2
62
256
6
ByLayer
370
13
48
1
60
0
100
AcDbLine
10
-24.4882
20
1.5
30
0
11
-29.4007
21
1.5
31
0
39
0
210
0
220
0
230
1
0
LINE
5
A3
100
AcDbEntity
8
1
62
256
6
ByLayer
370
18
48
1
60
1
100
AcDbLine
10
-27.4007
20
-1.5
30
0
11
-26.939916
21
-4.999998
31
0
39
0
210
0
220
0
230
1
0
LINE
5
A4
100
AcDbEntity
8
1
62
256
6
ByLayer
370
18
48
1
60
1
100
AcDbLine
10
-26.939916
20
-4.999998
30
0
11
-27.861484
21
-5.000002
31
0
39
0
210
0
220
0
230
1
0
LINE
5
A5
100
AcDbEntity
8
1
62
256
6
ByLayer
370
18
48
1
60
1
100
AcDbLine
10
-27.861484
20
-5.000002
30
0
11
-27.4007
21
-1.5
31
0
39
0
210
0
220
0
230
1
0
LINE
5
A6
100
AcDbEntity
8
1
62
256
6
ByLayer
370
18
48
1
60
1
100
AcDbLine
10
-27.4007
20
1.5
30
0
11
-27.861484
21
4.999998
31
0
39
0
210
0
220
0
230
1
0
LINE
5
A7
100
AcDbEntity
8
1
62
256
6
ByLayer
370
18
48
1
60
1
100
AcDbLine
10
-27.861484
20
4.999998
30
0
11
-26.939916
21
5.000002
31
0
39
0
210
0
220
0
230
1
0
LINE
5
A8
100
AcDbEntity
8
1
62
256
6
ByLayer
370
18
48
1
60
1
100
AcDbLine
10
-26.939916
20
5.000002
30
0
11
-27.4007
21
1.5
31
0
39
0
210
0
220
0
230
1
0
LINE
5
A9
100
AcDbEntity
8
2
62
256
6
ByLayer
370
13
48
1
60
0
100
AcDbLine
10
20.5993
20
-8.52
30
0
11
20.5993
21
30.078627
31
0
39
0
210
0
220
0
230
1
0
LINE
5
AB
100
AcDbEntity
8
2
62
256
6
ByLayer
370
13
48
1
60
0
100
AcDbLine
10
16.6868
20
-1.02
30
0
11
22.5993
21
-1.02
31
0
39
0
210
0
220
0
230
1
0
LINE
5
AC
100
AcDbEntity
8
2
62
256
6
ByLayer
370
13
48
1
60
0
100
AcDbLine
10
16.6868
20
1.02
30
0
11
22.5993
21
1.02
31
0
39
0
210
0
220
0
230
1
0
LINE
5
AD
100
AcDbEntity
8
1
62
256
6
ByLayer
370
18
48
1
60
1
100
AcDbLine
10
20.5993
20
-1.02
30
0
11
21.060084
21
-4.519998
31
0
39
0
210
0
220
0
230
1
0
LINE
5
AE
100
AcDbEntity
8
1
62
256
6
ByLayer
370
18
48
1
60
1
100
AcDbLine
10
21.060084
20
-4.519998
30
0
11
20.138516
21
-4.520002
31
0
39
0
210
0
220
0
230
1
0
LINE
5
AF
100
AcDbEntity
8
1
62
256
6
ByLayer
370
18
48
1
60
1
100
AcDbLine
10
20.138516
20
-4.520002
30
0
11
20.5993
21
-1.02
31
0
39
0
210
0
220
0
230
1
0
LINE
5
B0
100
AcDbEntity
8
1
62
256
6
ByLayer
370
18
48
1
60
1
100
AcDbLine
10
20.5993
20
1.02
30
0
11
20.138516
21
4.519998
31
0
39
0
210
0
220
0
230
1
0
LINE
5
B1
100
AcDbEntity
8
1
62
256
6
ByLayer
370
18
48
1
60
1
100
AcDbLine
10
20.138516
20
4.519998
30
0
11
21.060084
21
4.520002
31
0
39
0
210
0
220
0
230
1
0
LINE
5
B2
100
AcDbEntity
8
1
62
256
6
ByLayer
370
18
48
1
60
1
100
AcDbLine
10
21.060084
20
4.520002
30
0
11
20.5993
21
1.02
31
0
39
0
210
0
220
0
230
1
0
LINE
5
B3
100
AcDbEntity
8
SK2
62
256
6
ByLayer
370
13
48
1
60
0
100
AcDbLine
10
15.770206
20
-1.438764
30
0
11
22.854345
21
-16.630748
31
0
39
0
210
0
220
0
230
1
0
LINE
5
B4
100
AcDbEntity
8
SK2
62
256
6
ByLayer
370
13
48
1
60
0
100
AcDbLine
10
15.770206
20
1.438764
30
0
11
22.854345
21
16.630748
31
0
39
0
210
0
220
0
230
1
0
LINE
5
B5
100
AcDbEntity
8
1
62
256
6
ByLayer
370
18
48
1
60
1
100
AcDbLine
10
22.009109
20
-14.818132
30
0
11
24.881142
21
-12.765394
31
0
39
0
210
0
220
0
230
1
0
LINE
5
B6
100
AcDbEntity
8
1
62
256
6
ByLayer
370
18
48
1
60
1
100
AcDbLine
10
24.881142
20
-12.765394
30
0
11
25.314571
21
-13.578675
31
0
39
0
210
0
220
0
230
1
0
LINE
5
B7
100
AcDbEntity
8
1
62
256
6
ByLayer
370
18
48
1
60
1
100
AcDbLine
10
25.314571
20
-13.578675
30
0
11
22.009109
21
-14.818132
31
0
39
0
210
0
220
0
230
1
0
LINE
5
B8
100
AcDbEntity
8
1
62
256
6
ByLayer
370
18
48
1
60
1
100
AcDbLine
10
22.009109
20
14.818132
30
0
11
25.314568
21
13.578677
31
0
39
0
210
0
220
0
230
1
0
LINE
5
B9
100
AcDbEntity
8
1
62
256
6
ByLayer
370
18
48
1
60
1
100
AcDbLine
10
25.314568
20
13.578677
30
0
11
24.881145
21
12.765392
31
0
39
0
210
0
220
0
230
1
0
LINE
5
BA
100
AcDbEntity
8
1
62
256
6
ByLayer
370
18
48
1
60
1
100
AcDbLine
10
24.881145
20
12.765392
30
0
11
22.009109
21
14.818132
31
0
39
0
210
0
220
0
230
1
0
LINE
5
D4
100
AcDbEntity
8
1
62
256
6
ByLayer
370
18
48
1
60
1
100
AcDbLine
10
-27.4007
20
-1.5
30
0
11
-26.939916
21
-4.999998
31
0
39
0
210
0
220
0
230
1
0
LINE
5
D5
100
AcDbEntity
8
1
62
256
6
ByLayer
370
18
48
1
60
1
100
AcDbLine
10
-26.939916
20
-4.999998
30
0
11
-27.861484
21
-5.000002
31
0
39
0
210
0
220
0
230
1
0
LINE
5
D6
100
AcDbEntity
8
1
62
256
6
ByLayer
370
18
48
1
60
1
100
AcDbLine
10
-27.861484
20
-5.000002
30
0
11
-27.4007
21
-1.5
31
0
39
0
210
0
220
0
230
1
0
LINE
5
D8
100
AcDbEntity
8
1
62
256
6
ByLayer
370
18
48
1
60
1
100
AcDbLine
10
-27.4007
20
1.5
30
0
11
-27.861484
21
4.999998
31
0
39
0
210
0
220
0
230
1
0
LINE
5
D9
100
AcDbEntity
8
1
62
256
6
ByLayer
370
18
48
1
60
1
100
AcDbLine
10
-27.861484
20
4.999998
30
0
11
-26.939916
21
5.000002
31
0
39
0
210
0
220
0
230
1
0
LINE
5
DA
100
AcDbEntity
8
1
62
256
6
ByLayer
370
18
48
1
60
1
100
AcDbLine
10
-26.939916
20
5.000002
30
0
11
-27.4007
21
1.5
31
0
39
0
210
0
220
0
230
1
0
LINE
5
DE
100
AcDbEntity
8
1
62
256
6
ByLayer
370
18
48
1
60
1
100
AcDbLine
10
20.5993
20
-1.02
30
0
11
21.060084
21
-4.519998
31
0
39
0
210
0
220
0
230
1
0
LINE
5
DF
100
AcDbEntity
8
1
62
256
6
ByLayer
370
18
48
1
60
1
100
AcDbLine
10
21.060084
20
-4.519998
30
0
11
20.138516
21
-4.520002
31
0
39
0
210
0
220
0
230
1
0
LINE
5
E0
100
AcDbEntity
8
1
62
256
6
ByLayer
370
18
48
1
60
1
100
AcDbLine
10
20.138516
20
-4.520002
30
0
11
20.5993
21
-1.02
31
0
39
0
210
0
220
0
230
1
0
LINE
5
E2
100
AcDbEntity
8
1
62
256
6
ByLayer
370
18
48
1
60
1
100
AcDbLine
10
20.5993
20
1.02
30
0
11
20.138516
21
4.519998
31
0
39
0
210
0
220
0
230
1
0
LINE
5
E3
100
AcDbEntity
8
1
62
256
6
ByLayer
370
18
48
1
60
1
100
AcDbLine
10
20.138516
20
4.519998
30
0
11
21.060084
21
4.520002
31
0
39
0
210
0
220
0
230
1
0
LINE
5
E4
100
AcDbEntity
8
1
62
256
6
ByLayer
370
18
48
1
60
1
100
AcDbLine
10
21.060084
20
4.520002
30
0
11
20.5993
21
1.02
31
0
39
0
210
0
220
0
230
1
0
LINE
5
E7
100
AcDbEntity
8
1
62
256
6
ByLayer
370
18
48
1
60
1
100
AcDbLine
10
22.009109
20
-14.818132
30
0
11
24.881142
21
-12.765394
31
0
39
0
210
0
220
0
230
1
0
LINE
5
E8
100
AcDbEntity
8
1
62
256
6
ByLayer
370
18
48
1
60
1
100
AcDbLine
10
24.881142
20
-12.765394
30
0
11
25.314571
21
-13.578675
31
0
39
0
210
0
220
0
230
1
0
LINE
5
E9
100
AcDbEntity
8
1
62
256
6
ByLayer
370
18
48
1
60
1
100
AcDbLine
10
25.314571
20
-13.578675
30
0
11
22.009109
21
-14.818132
31
0
39
0
210
0
220
0
230
1
0
LINE
5
EB
100
AcDbEntity
8
1
62
256
6
ByLayer
370
18
48
1
60
1
100
AcDbLine
10
22.009109
20
14.818132
30
0
11
25.314568
21
13.578677
31
0
39
0
210
0
220
0
230
1
0
LINE
5
EC
100
AcDbEntity
8
1
62
256
6
ByLayer
370
18
48
1
60
1
100
AcDbLine
10
25.314568
20
13.578677
30
0
11
24.881145
21
12.765392
31
0
39
0
210
0
220
0
230
1
0
LINE
5
ED
100
AcDbEntity
8
1
62
256
6
ByLayer
370
18
48
1
60
1
100
AcDbLine
10
24.881145
20
12.765392
30
0
11
22.009109
21
14.818132
31
0
39
0
210
0
220
0
230
1
0
MTEXT
5
D0
100
AcDbEntity
8
SK2
62
256
6
ByLayer
370
18
48
1
60
0
100
AcDbMText
10
-28.741814
20
6.658437
30
0
210
0
220
0
230
1
1
%%c
40
3
41
0
44
1.084337
50
90
71
7
72
5
7
iso_b_vert
0
MTEXT
5
D3
100
AcDbEntity
8
SK2
62
256
6
ByLayer
370
18
48
1
60
0
100
AcDbMText
10
-28.741814
20
12.635
30
0
210
0
220
0
230
1
1
\W0.7468;3.000
40
3
41
0
44
1.084337
50
90
71
7
72
5
7
iso_b_vert
0
MTEXT
5
DC
100
AcDbEntity
8
2
62
256
6
ByLayer
370
18
48
1
60
0
100
AcDbMText
10
19.258186
20
14.638437
30
0
210
0
220
0
230
1
1
%%c
40
3
41
0
44
1.084337
50
90
71
7
72
5
7
iso_b_vert
0
MTEXT
5
DD
100
AcDbEntity
8
2
62
256
6
ByLayer
370
18
48
1
60
0
100
AcDbMText
10
19.258186
20
20.615
30
0
210
0
220
0
230
1
1
\W0.7694;2.040
40
3
41
0
44
1.084337
50
90
71
7
72
5
7
iso_b_vert
0
MTEXT
5
E6
100
AcDbEntity
8
SK2
62
256
6
ByLayer
370
18
48
1
60
0
100
AcDbMText
10
28.166586
20
-2.114886
30
0
210
0
220
0
230
1
1
\W0.6747;130%%d
40
3
41
0
44
1.084337
50
0
71
7
72
5
7
iso_b_vert
0
MTEXT
5
EF
100
AcDbEntity
8
SK6
62
256
6
ByLayer
370
18
48
1
60
0
100
AcDbMText
10
-32.062553
20
-48.114886
30
0
210
0
220
0
230
1
1
\W0.7801;462.1-0204-009A0-XM X0BU
40
3
41
0
44
1.084337
50
0
71
7
72
5
7
iso_b_vert
0
HATCH
5
D7
100
AcDbEntity
8
SK2
62
256
6
ByLayer
370
13
48
1
60
0
100
AcDbHatch
10
0
20
0
30
0
210
0
220
0
230
1
2
ANSI31
70
0
71
0
91
1
92
5
93
3
72
1
10
-27.4007
20
-1.5
11
-26.9399162584472
21
-4.99999830744682
72
1
10
-26.9399162584472
20
-4.99999830744682
11
-27.8614837415528
21
-5.00000169255318
72
1
10
-27.8614837415528
20
-5.00000169255318
11
-27.4007
21
-1.5
97
0
75
0
76
1
52
0
41
0.0062
77
0
78
1
53
45
43
0
44
0
45
-0.0139193969876572
46
0.0139193969876572
79
0
47
0
98
1
10
0
20
0
0
HATCH
5
DB
100
AcDbEntity
8
SK2
62
256
6
ByLayer
370
13
48
1
60
0
100
AcDbHatch
10
0
20
0
30
0
210
0
220
0
230
1
2
ANSI31
70
0
71
0
91
1
92
5
93
3
72
1
10
-27.4007
20
1.5
11
-27.8614837415528
21
4.99999830744682
72
1
10
-27.8614837415528
20
4.99999830744682
11
-26.9399162584472
21
5.00000169255318
72
1
10
-26.9399162584472
20
5.00000169255318
11
-27.4007
21
1.5
97
0
75
0
76
1
52
0
41
0.0062
77
0
78
1
53
45
43
0
44
0
45
-0.0139193969876572
46
0.0139193969876572
79
0
47
0
98
1
10
0
20
0
0
HATCH
5
E1
100
AcDbEntity
8
2
62
256
6
ByLayer
370
13
48
1
60
0
100
AcDbHatch
10
0
20
0
30
0
210
0
220
0
230
1
2
ANSI31
70
0
71
0
91
1
92
5
93
3
72
1
10
20.5993
20
-1.02000000000001
11
21.0600837415528
21
-4.51999830744683
72
1
10
21.0600837415528
20
-4.51999830744683
11
20.1385162584472
21
-4.52000169255319
72
1
10
20.1385162584472
20
-4.52000169255319
11
20.5993
21
-1.02000000000001
97
0
75
0
76
1
52
0
41
0.0062
77
0
78
1
53
45
43
0
44
0
45
-0.0139193969876572
46
0.0139193969876572
79
0
47
0
98
1
10
0
20
0
0
HATCH
5
E5
100
AcDbEntity
8
2
62
256
6
ByLayer
370
13
48
1
60
0
100
AcDbHatch
10
0
20
0
30
0
210
0
220
0
230
1
2
ANSI31
70
0
71
0
91
1
92
5
93
3
72
1
10
20.5993
20
1.02000000000001
11
20.1385162584472
21
4.51999830744683
72
1
10
20.1385162584472
20
4.51999830744683
11
21.0600837415528
21
4.52000169255319
72
1
10
21.0600837415528
20
4.52000169255319
11
20.5993
21
1.02000000000001
97
0
75
0
76
1
52
0
41
0.0062
77
0
78
1
53
45
43
0
44
0
45
-0.0139193969876572
46
0.0139193969876572
79
0
47
0
98
1
10
0
20
0
0
HATCH
5
EA
100
AcDbEntity
8
SK2
62
256
6
ByLayer
370
13
48
1
60
0
100
AcDbHatch
10
0
20
0
30
0
210
0
220
0
230
1
2
ANSI31
70
0
71
0
91
1
92
5
93
3
72
1
10
22.0091085794604
20
-14.8181323180492
11
24.8811418553693
21
-12.765393983365
72
1
10
24.8811418553693
20
-12.765393983365
11
25.3145706127348
21
-13.5786750775861
72
1
10
25.3145706127348
20
-13.5786750775861
11
22.0091085794604
21
-14.8181323180492
97
0
75
0
76
1
52
0
41
0.0062
77
0
78
1
53
45
43
0
44
0
45
-0.0139193969876572
46
0.0139193969876572
79
0
47
0
98
1
10
0
20
0
0
HATCH
5
EE
100
AcDbEntity
8
SK2
62
256
6
ByLayer
370
13
48
1
60
0
100
AcDbHatch
10
0
20
0
30
0
210
0
220
0
230
1
2
ANSI31
70
0
71
0
91
1
92
5
93
3
72
1
10
22.0091085794604
20
14.8181323180492
11
25.3145676253807
21
13.5786766696479
72
1
10
25.3145676253807
20
13.5786766696479
11
24.8811448427234
21
12.7653923913032
72
1
10
24.8811448427234
20
12.7653923913032
11
22.0091085794604
21
14.8181323180492
97
0
75
0
76
1
52
0
41
0.0062
77
0
78
1
53
45
43
0
44
0
45
-0.0139193969876572
46
0.0139193969876572
79
0
47
0
98
1
10
0
20
0
0
DIMENSION
5
F2
100
AcDbEntity
8
SK2
62
256
6
ByLayer
370
18
48
1
60
0
100
AcDbDimension
2
_U0
10
15.0993
20
-39.079103
30
0
11
-3.9007
21
-39.079103
31
0
70
32
71
1
72
1
41
1
210
0
220
0
230
1
3
Standard
100
AcDbAlignedDimension
13
-22.9007
23
1.5
33
0
14
15.0993
24
1.02
34
0
50
0
100
AcDbRotatedDimension
1001
ACAD
1000
DSTYLE
1002
{
1070
   371
1070
    13
1070
   372
1070
    13
1070
     3
1000

1070
   170
1070
     0
1070
   144
1040
1.0
1070
   277
1070
     2
1070
   284
1070
     8
1070
   278
1070
    46
1070
   146
1040
1.166667
1070
   345
1005
16
1070
   347
1005
16
1070
   346
1005
16
1070
   344
1005
0
1070
   343
1005
0
1070
   172
1070
     1
1070
    76
1070
     0
1070
    75
1070
     0
1070
   282
1070
     0
1070
   281
1070
     0
1070
    71
1070
     0
1070
    74
1070
     0
1070
   279
1070
     0
1070
   173
1070
     1
1070
   340
1005
D1
1070
   271
1070
     2
1070
   272
1070
     2
1070
    77
1070
     1
1070
    73
1070
     1
1070
   171
1070
     3
1070
   274
1070
     4
1070
   177
1070
     2
1070
   176
1070
     2
1070
   178
1070
     2
1070
    78
1070
     8
1070
    48
1040
-0.1
1070
    41
1040
3.5
1070
   147
1040
1.5
1070
    42
1040
1.5875
1070
    44
1040
2.0
1070
   140
1040
3.0
1002
}
1001
ACAD_DSTYLE_DIM_LINETYPE
1070
   380
1005
16
1001
ACAD_DSTYLE_DIM_EXT1_LINETYPE
1070
   381
1005
16
1001
ACAD_DSTYLE_DIM_EXT2_LINETYPE
1070
   382
1005
16
0
DIMENSION
5
10B
100
AcDbEntity
8
SK2
62
256
6
ByLayer
370
18
48
1
60
0
100
AcDbDimension
2
_U1
10
5.6593
20
-22.52
30
0
11
31.242157
21
-22.52
31
0
70
32
71
1
72
1
41
1
210
0
220
0
230
1
3
Standard
100
AcDbAlignedDimension
13
15.0993
23
1.02
33
0
14
5.6593
24
0
34
0
50
0
100
AcDbRotatedDimension
1001
ACAD
1000
DSTYLE
1002
{
1070
   371
1070
    13
1070
   372
1070
    13
1070
     3
1000

1070
   170
1070
     0
1070
   144
1040
1.0
1070
   277
1070
     2
1070
   284
1070
     8
1070
   278
1070
    46
1070
   146
1040
1.166667
1070
   345
1005
16
1070
   347
1005
16
1070
   346
1005
16
1070
   344
1005
0
1070
   343
1005
0
1070
   172
1070
     1
1070
    76
1070
     0
1070
    75
1070
     0
1070
   282
1070
     0
1070
   281
1070
     0
1070
    71
1070
     0
1070
    74
1070
     0
1070
   279
1070
     0
1070
   173
1070
     1
1070
   340
1005
D1
1070
   271
1070
     2
1070
   272
1070
     2
1070
    77
1070
     1
1070
    73
1070
     1
1070
   171
1070
     3
1070
   274
1070
     4
1070
   177
1070
     2
1070
   176
1070
     2
1070
   178
1070
     2
1070
    78
1070
     8
1070
    48
1040
-0.1
1070
    41
1040
3.5
1070
   147
1040
1.5
1070
    42
1040
1.5875
1070
    44
1040
2.0
1070
   140
1040
3.0
1002
}
1001
ACAD_DSTYLE_DIM_LINETYPE
1070
   380
1005
16
1001
ACAD_DSTYLE_DIM_EXT1_LINETYPE
1070
   381
1005
16
1001
ACAD_DSTYLE_DIM_EXT2_LINETYPE
1070
   382
1005
16
0
DIMENSION
5
125
100
AcDbEntity
8
SK2
62
256
6
ByLayer
370
18
48
1
60
0
100
AcDbDimension
2
_U2
10
2.5993
20
-30.579103
30
0
11
8.8493
21
-30.579103
31
0
70
32
71
1
72
1
41
1
210
0
220
0
230
1
3
Standard
100
AcDbAlignedDimension
13
15.0993
23
1.02
33
0
14
2.5993
24
0
34
0
50
0
100
AcDbRotatedDimension
1001
ACAD
1000
DSTYLE
1002
{
1070
   371
1070
    13
1070
   372
1070
    13
1070
     3
1000

1070
   170
1070
     0
1070
   144
1040
1.0
1070
   277
1070
     2
1070
   284
1070
     8
1070
   278
1070
    46
1070
   146
1040
1.166667
1070
   345
1005
16
1070
   347
1005
16
1070
   346
1005
16
1070
   344
1005
0
1070
   343
1005
0
1070
   172
1070
     1
1070
    76
1070
     0
1070
    75
1070
     0
1070
   282
1070
     0
1070
   281
1070
     0
1070
    71
1070
     0
1070
    74
1070
     0
1070
   279
1070
     0
1070
   173
1070
     1
1070
   340
1005
D1
1070
   271
1070
     2
1070
   272
1070
     2
1070
    77
1070
     1
1070
    73
1070
     1
1070
   171
1070
     3
1070
   274
1070
     4
1070
   177
1070
     2
1070
   176
1070
     2
1070
   178
1070
     2
1070
    78
1070
     8
1070
    48
1040
-0.1
1070
    41
1040
3.5
1070
   147
1040
1.5
1070
    42
1040
1.5875
1070
    44
1040
2.0
1070
   140
1040
3.0
1002
}
1001
ACAD_DSTYLE_DIM_LINETYPE
1070
   380
1005
16
1001
ACAD_DSTYLE_DIM_EXT1_LINETYPE
1070
   381
1005
16
1001
ACAD_DSTYLE_DIM_EXT2_LINETYPE
1070
   382
1005
16
0
DIMENSION
5
13E
100
AcDbEntity
8
SK2
62
256
6
ByLayer
370
18
48
1
60
0
100
AcDbDimension
2
_U3
10
0
20
11.579103
30
0
11
-11.45035
21
11.579103
31
0
70
32
71
1
72
1
41
1
210
0
220
0
230
1
3
Standard
100
AcDbAlignedDimension
13
-22.9007
23
0
33
0
14
0
24
0
34
0
50
0
100
AcDbRotatedDimension
1001
ACAD
1000
DSTYLE
1002
{
1070
   371
1070
    13
1070
   372
1070
    13
1070
     3
1000

1070
   170
1070
     0
1070
   144
1040
1.0
1070
   277
1070
     2
1070
   284
1070
     8
1070
   278
1070
    46
1070
   146
1040
1.166667
1070
   345
1005
16
1070
   347
1005
16
1070
   346
1005
16
1070
   344
1005
0
1070
   343
1005
0
1070
   172
1070
     1
1070
    76
1070
     0
1070
    75
1070
     0
1070
   282
1070
     0
1070
   281
1070
     0
1070
    71
1070
     0
1070
    74
1070
     0
1070
   279
1070
     0
1070
   173
1070
     1
1070
   340
1005
D1
1070
   271
1070
     2
1070
   272
1070
     2
1070
    77
1070
     1
1070
    73
1070
     1
1070
   171
1070
     3
1070
   274
1070
     4
1070
   177
1070
     2
1070
   176
1070
     2
1070
   178
1070
     2
1070
    78
1070
     8
1070
    48
1040
-0.1
1070
    41
1040
3.5
1070
   147
1040
1.5
1070
    42
1040
1.5875
1070
    44
1040
2.0
1070
   140
1040
3.0
1002
}
1001
ACAD_DSTYLE_DIM_LINETYPE
1070
   380
1005
16
1001
ACAD_DSTYLE_DIM_EXT1_LINETYPE
1070
   381
1005
16
1001
ACAD_DSTYLE_DIM_EXT2_LINETYPE
1070
   382
1005
16
0
DIMENSION
5
156
100
AcDbEntity
8
2
62
256
6
ByLayer
370
18
48
1
60
0
100
AcDbDimension
2
_U4
10
0
20
11.579103
30
0
11
7.54965
21
11.579103
31
0
70
32
71
1
72
1
41
1
210
0
220
0
230
1
3
Standard
100
AcDbAlignedDimension
13
15.0993
23
1.02
33
0
14
0
24
0
34
0
50
0
100
AcDbRotatedDimension
1001
ACAD
1000
DSTYLE
1002
{
1070
   371
1070
    13
1070
   372
1070
    13
1070
     3
1000

1070
   170
1070
     0
1070
   144
1040
1.0
1070
   277
1070
     2
1070
   284
1070
     8
1070
   278
1070
    46
1070
   146
1040
1.166667
1070
   345
1005
16
1070
   347
1005
16
1070
   346
1005
16
1070
   344
1005
0
1070
   343
1005
0
1070
   172
1070
     1
1070
    76
1070
     0
1070
    75
1070
     0
1070
   282
1070
     0
1070
   281
1070
     0
1070
    71
1070
     0
1070
    74
1070
     0
1070
   279
1070
     0
1070
   173
1070
     1
1070
   340
1005
D1
1070
   271
1070
     2
1070
   272
1070
     2
1070
    77
1070
     1
1070
    73
1070
     1
1070
   171
1070
     3
1070
   274
1070
     4
1070
   177
1070
     2
1070
   176
1070
     2
1070
   178
1070
     2
1070
    78
1070
     8
1070
    48
1040
-0.1
1070
    41
1040
3.5
1070
   147
1040
1.5
1070
    42
1040
1.5875
1070
    44
1040
2.0
1070
   140
1040
3.0
1002
}
1001
ACAD_DSTYLE_DIM_LINETYPE
1070
   380
1005
16
1001
ACAD_DSTYLE_DIM_EXT1_LINETYPE
1070
   381
1005
16
1001
ACAD_DSTYLE_DIM_EXT2_LINETYPE
1070
   382
1005
16
0
ENDSEC
0
SECTION
2
OBJECTS
0
DICTIONARY
5
1df
330
0
100
AcDbDictionary
280
0
281
1
3
ACAD_GROUP
350
1e0
3
ACAD_MLINESTYLE
350
1e1
0
DICTIONARY
5
1e0
330
0
100
AcDbDictionary
280
0
281
1
0
DICTIONARY
5
1e1
330
0
100
AcDbDictionary
280
0
281
1
3
Standard
350
18
0
MLINESTYLE
5
18
330
1e1
100
AcDbMlineStyle
2
Standard
70
0
3

62
256
51
90
52
90
71
2
49
-0.5
62
256
6
ByLayer
49
0.5
62
256
6
ByLayer
0
RASTERVARIABLES
5
1cd
330

100
AcDbRasterVariables
90
0
70
1
71
1
72
1
0
ENDSEC
0
EOF
