0
SECTION
2
HEADER
9
$ACADVER
1
AC1015
9
$DWGCODEPAGE
3
ANSI_1252
9
$HANDSEED
5
1ea
9
$ANGBASE
50
0
9
$ANGDIR
70
0
9
$ATTMODE
70
1
9
$AUNITS
70
0
9
$AUPREC
70
0
9
$CECOLOR
62
256
9
$CELTSCALE
40
1
9
$CELTYPE
6
ByLayer
9
$CELWEIGHT
370
18
9
$CLAYER
8
0
9
$CMLJUST
70
0
9
$CMLSCALE
40
1
9
$CMLSTYLE
2
Standard
9
$DIMSTYLE
2
Standard
9
$TEXTSIZE
40
0.2
9
$TEXTSTYLE
7
Standard
9
$LUNITS
70
2
9
$LUPREC
70
4
9
$EXTNAMES
290
1
9
$INSUNITS
70
4
9
$LTSCALE
40
1
9
$LWDISPLAY
290
1
9
$PDMODE
70
0
9
$PDSIZE
40
0
9
$PLINEGEN
70
0
0
ENDSEC
0
SECTION
2
CLASSES
0
CLASS
1
RASTERVARIABLES
2
AcDbRasterVariables
3
ISM
90
0
280
0
281
0
0
ENDSEC
0
SECTION
2
TABLES
0
TABLE
2
VPORT
5
1e0
100
AcDbSymbolTable
0
VPORT
5
1
100
AcDbSymbolTableRecord
100
AcDbViewportTableRecord
2
*Active
70
0
10
0
20
0
11
1
21
1
12
-1
22
1
13
0
23
0
14
0.5
24
0.5
15
10
25
10
16
0
26
0
36
1
17
0
27
0
37
0
0
ENDTAB
0
TABLE
2
LTYPE
5
1e1
100
AcDbSymbolTable
0
LTYPE
5
14
100
AcDbSymbolTableRecord
100
AcDbLinetypeTableRecord
70
0
2
ByBlock
3

72
65
73
0
40
0
0
LTYPE
5
15
100
AcDbSymbolTableRecord
100
AcDbLinetypeTableRecord
70
0
2
ByLayer
3

72
65
73
0
40
0
0
LTYPE
5
16
100
AcDbSymbolTableRecord
100
AcDbLinetypeTableRecord
70
0
2
Continuous
3
Solid line
72
65
73
0
40
0
0
LTYPE
5
6E
100
AcDbSymbolTableRecord
100
AcDbLinetypeTableRecord
70
0
2
CENTER
3
____ _ ____ _ ____ _ ____
72
65
73
4
40
47.5
49
22
74
0
49
-8.5
74
0
49
8.5
74
0
49
-8.5
74
0
0
LTYPE
5
6F
100
AcDbSymbolTableRecord
100
AcDbLinetypeTableRecord
70
0
2
DASHED
3
__ __ __ __ __ __ __ __ __
72
65
73
2
40
25.72
49
12.86
74
0
49
-12.86
74
0
0
ENDTAB
0
TABLE
2
LAYER
5
1e2
100
AcDbSymbolTable
0
LAYER
5
10
100
AcDbSymbolTableRecord
100
AcDbLayerTableRecord
2
0
70
0
62
7
6
Continuous
290
1
370
-3
390
0
0
LAYER
5
71
100
AcDbSymbolTableRecord
100
AcDbLayerTableRecord
2
80
70
0
62
-6
6
Continuous
290
1
370
-3
390
0
0
LAYER
5
73
100
AcDbSymbolTableRecord
100
AcDbLayerTableRecord
2
81
70
0
62
-3
6
Continuous
290
1
370
-3
390
0
0
LAYER
5
75
100
AcDbSymbolTableRecord
100
AcDbLayerTableRecord
2
1
70
0
62
4
6
Continuous
290
1
370
-3
390
0
0
LAYER
5
9B
100
AcDbSymbolTableRecord
100
AcDbLayerTableRecord
2
4
70
0
62
-2
6
CENTER
290
1
370
-3
390
0
0
LAYER
5
AB
100
AcDbSymbolTableRecord
100
AcDbLayerTableRecord
2
2
70
0
62
7
6
Continuous
290
1
370
-3
390
0
0
LAYER
5
F3
100
AcDbSymbolTableRecord
100
AcDbLayerTableRecord
2
Defpoints
70
0
62
7
6
Continuous
290
0
370
-3
390
0
0
LAYER
5
1cc
100
AcDbSymbolTableRecord
100
AcDbLayerTableRecord
2
SK1
70
0
62
4
6
Continuous
290
1
370
-3
390
0
0
LAYER
5
1cd
100
AcDbSymbolTableRecord
100
AcDbLayerTableRecord
2
SK4
70
0
62
2
6
CENTER
290
1
370
-3
390
0
0
LAYER
5
1ce
100
AcDbSymbolTableRecord
100
AcDbLayerTableRecord
2
SK2
70
0
62
7
6
Continuous
290
1
370
-3
390
0
0
LAYER
5
1cf
100
AcDbSymbolTableRecord
100
AcDbLayerTableRecord
2
SK6
70
0
62
5
6
Continuous
290
1
370
-3
390
0
0
ENDTAB
0
TABLE
2
STYLE
5
1e3
100
AcDbSymbolTable
0
STYLE
5
11
100
AcDbSymbolTableRecord
100
AcDbTextStyleTableRecord
2
Standard
3
txt
70
0
71
0
40
0
41
1
42
0
50
0
0
STYLE
5
CF
100
AcDbSymbolTableRecord
100
AcDbTextStyleTableRecord
2
iso_b_vert
3
simplex.shx
70
0
71
0
40
0
41
1
42
0
50
0
0
STYLE
5
D0
100
AcDbSymbolTableRecord
100
AcDbTextStyleTableRecord
2
DWGDirectTextStyle
3
simplex
70
0
71
0
40
0
41
1
42
0
50
0
0
ENDTAB
0
TABLE
2
DIMSTYLE
5
1e4
100
AcDbSymbolTable
100
AcDbDimStyleTable
0
DIMSTYLE
105
27
100
AcDbSymbolTableRecord
100
AcDbDimStyleTableRecord
2
Standard
70
0
3
<>
41
0.18
42
0.0625
44
0.18
140
0.18
147
0.09
73
0
74
0
77
1
271
2
275
0
278
52
280
0
340
11
0
ENDTAB
0
TABLE
2
VIEW
5
1e5
100
AcDbSymbolTable
0
ENDTAB
0
TABLE
2
UCS
5
1e6
100
AcDbSymbolTable
0
ENDTAB
0
TABLE
2
APPID
5
1e7
100
AcDbSymbolTable
0
APPID
5
12
100
AcDbSymbolTableRecord
100
AcDbRegAppTableRecord
2
ACAD
70
0
0
APPID
5
EF
100
AcDbSymbolTableRecord
100
AcDbRegAppTableRecord
2
ACAD_DSTYLE_DIMBREAK
70
0
0
APPID
5
18B
100
AcDbSymbolTableRecord
100
AcDbRegAppTableRecord
2
ACAD_DSTYLE_DIM_LINETYPE
70
0
0
APPID
5
18C
100
AcDbSymbolTableRecord
100
AcDbRegAppTableRecord
2
ACAD_DSTYLE_DIM_EXT1_LINETYPE
70
0
0
APPID
5
18D
100
AcDbSymbolTableRecord
100
AcDbRegAppTableRecord
2
ACAD_DSTYLE_DIM_EXT2_LINETYPE
70
0
0
APPID
5
1C8
100
AcDbSymbolTableRecord
100
AcDbRegAppTableRecord
2
ACAD_MLEADERVER
70
0
0
ENDTAB
0
TABLE
2
BLOCK_RECORD
5
1e8
100
AcDbSymbolTable
0
BLOCK_RECORD
5
1F
100
AcDbSymbolTableRecord
100
AcDbBlockTableRecord
2
*Model_Space
340
0
70
0
0
BLOCK_RECORD
5
1B
100
AcDbSymbolTableRecord
100
AcDbBlockTableRecord
2
*Paper_Space
340
0
70
0
0
BLOCK_RECORD
5
23
100
AcDbSymbolTableRecord
100
AcDbBlockTableRecord
2
*Paper_Space0
340
0
70
0
0
BLOCK_RECORD
5
F4
100
AcDbSymbolTableRecord
100
AcDbBlockTableRecord
2
*D1
340
0
70
0
0
BLOCK_RECORD
5
100
100
AcDbSymbolTableRecord
100
AcDbBlockTableRecord
2
_U0
340
0
70
0
0
BLOCK_RECORD
5
10C
100
AcDbSymbolTableRecord
100
AcDbBlockTableRecord
2
*D3
340
0
70
0
0
BLOCK_RECORD
5
11A
100
AcDbSymbolTableRecord
100
AcDbBlockTableRecord
2
_U1
340
0
70
0
0
BLOCK_RECORD
5
126
100
AcDbSymbolTableRecord
100
AcDbBlockTableRecord
2
*D5
340
0
70
0
0
BLOCK_RECORD
5
133
100
AcDbSymbolTableRecord
100
AcDbBlockTableRecord
2
_U2
340
0
70
0
0
BLOCK_RECORD
5
13F
100
AcDbSymbolTableRecord
100
AcDbBlockTableRecord
2
*D7
340
0
70
0
0
BLOCK_RECORD
5
14B
100
AcDbSymbolTableRecord
100
AcDbBlockTableRecord
2
_U3
340
0
70
0
0
BLOCK_RECORD
5
157
100
AcDbSymbolTableRecord
100
AcDbBlockTableRecord
2
*D9
340
0
70
0
0
BLOCK_RECORD
5
164
100
AcDbSymbolTableRecord
100
AcDbBlockTableRecord
2
_U4
340
0
70
0
0
ENDTAB
0
ENDSEC
0
SECTION
2
BLOCKS
0
BLOCK
5
20
100
AcDbEntity
8
0
100
AcDbBlockBegin
2
*Model_Space
70
0
10
0
20
0
30
0
3
*Model_Space
0
ENDBLK
5
21
100
AcDbEntity
8
0
100
AcDbBlockEnd
0
BLOCK
5
1C
100
AcDbEntity
8
0
100
AcDbBlockBegin
2
*Paper_Space
70
0
10
0
20
0
30
0
3
*Paper_Space
0
ENDBLK
5
1D
100
AcDbEntity
8
0
100
AcDbBlockEnd
0
BLOCK
5
24
100
AcDbEntity
8
0
100
AcDbBlockBegin
2
*Paper_Space0
70
0
10
0
20
0
30
0
3
*Paper_Space0
0
ENDBLK
5
25
100
AcDbEntity
8
0
100
AcDbBlockEnd
0
BLOCK
5
F5
100
AcDbEntity
8
0
100
AcDbBlockBegin
2
*D1
70
1
10
0
20
0
30
0
3
*D1
0
LINE
5
F7
100
AcDbEntity
8
0
62
256
6
ByLayer
370
-2
48
1
60
0
100
AcDbLine
10
-23.0046
20
-0.0875
30
0
11
-23.0046
21
-41.16957
31
0
39
0
210
0
220
0
230
1
0
LINE
5
F8
100
AcDbEntity
8
0
62
256
6
ByLayer
370
-2
48
1
60
0
100
AcDbLine
10
14.9954
20
-0.5075
30
0
11
14.9954
21
-41.16957
31
0
39
0
210
0
220
0
230
1
0
LINE
5
F9
100
AcDbEntity
8
0
62
256
6
ByLayer
370
-2
48
1
60
0
100
AcDbLine
10
-19.5046
20
-39.16957
30
0
11
11.4954
21
-39.16957
31
0
39
0
210
0
220
0
230
1
0
SOLID
5
FA
100
AcDbEntity
8
0
62
256
6
ByLayer
370
-1
48
1
60
0
100
AcDbTrace
10
-19.5046
20
-38.586237
30
0
11
-19.5046
21
-39.752903
31
0
12
-23.0046
22
-39.16957
32
0
13
-23.0046
23
-39.16957
33
0
39
0
210
0
220
0
230
1
0
SOLID
5
FB
100
AcDbEntity
8
0
62
256
6
ByLayer
370
-1
48
1
60
0
100
AcDbTrace
10
11.4954
20
-39.752903
30
0
11
11.4954
21
-38.586237
31
0
12
14.9954
22
-39.16957
32
0
13
14.9954
23
-39.16957
33
0
39
0
210
0
220
0
230
1
0
MTEXT
5
FC
100
AcDbEntity
8
0
62
256
6
ByLayer
370
18
48
1
60
0
100
AcDbMText
10
-4.0046
20
-33.16957
30
0
210
0
220
0
230
1
1
\A1;38
40
3
41
0
44
1
50
0
71
5
72
5
7
iso_b_vert
0
POINT
5
FD
100
AcDbEntity
8
Defpoints
62
0
6
ByLayer
370
-1
48
1
60
0
100
AcDbPoint
10
-23.0046
20
1.5
30
0
39
0
210
0
220
0
230
1
50
360
0
POINT
5
FE
100
AcDbEntity
8
Defpoints
62
0
6
ByLayer
370
-1
48
1
60
0
100
AcDbPoint
10
14.9954
20
1.08
30
0
39
0
210
0
220
0
230
1
50
360
0
POINT
5
FF
100
AcDbEntity
8
Defpoints
62
0
6
ByLayer
370
-1
48
1
60
0
100
AcDbPoint
10
14.9954
20
-39.16957
30
0
39
0
210
0
220
0
230
1
50
360
0
ENDBLK
5
F6
100
AcDbEntity
8
0
100
AcDbBlockEnd
0
BLOCK
5
107
100
AcDbEntity
8
0
100
AcDbBlockBegin
2
_U0
70
0
10
0
20
0
30
0
3
_U0
0
MTEXT
5
101
100
AcDbEntity
8
SK2
62
256
6
ByLayer
370
18
48
1
60
0
100
AcDbMText
10
-8.48697
20
-38.284455
30
0
210
0
220
0
230
1
1
\W0.7468;38.00
40
3
41
0
44
1.084337
50
0
71
7
72
5
7
iso_b_vert
0
LINE
5
102
100
AcDbEntity
8
SK2
62
256
6
ByLayer
370
13
48
1
60
0
100
AcDbLine
10
-23.0046
20
-0.0875
30
0
11
-23.0046
21
-41.16957
31
0
39
0
210
0
220
0
230
1
0
LINE
5
103
100
AcDbEntity
8
SK2
62
256
6
ByLayer
370
13
48
1
60
0
100
AcDbLine
10
14.9954
20
-0.5075
30
0
11
14.9954
21
-41.16957
31
0
39
0
210
0
220
0
230
1
0
LINE
5
104
100
AcDbEntity
8
SK2
62
256
6
ByLayer
370
13
48
1
60
0
100
AcDbLine
10
-23.0046
20
-39.16957
30
0
11
14.9954
21
-39.16957
31
0
39
0
210
0
220
0
230
1
0
SOLID
5
105
100
AcDbEntity
8
SK2
62
256
6
ByLayer
370
18
48
1
60
0
100
AcDbTrace
10
-23.0046
20
-39.16957
30
0
11
-19.504602
21
-38.708786
31
0
12
-19.504598
22
-39.630354
32
0
13
-19.504598
23
-39.630354
33
0
39
0
210
0
220
0
230
1
0
SOLID
5
106
100
AcDbEntity
8
SK2
62
256
6
ByLayer
370
18
48
1
60
0
100
AcDbTrace
10
14.9954
20
-39.16957
30
0
11
11.495402
21
-39.630354
31
0
12
11.495398
22
-38.708786
32
0
13
11.495398
23
-38.708786
33
0
39
0
210
0
220
0
230
1
0
ENDBLK
5
108
100
AcDbEntity
8
0
100
AcDbBlockEnd
0
BLOCK
5
10D
100
AcDbEntity
8
0
100
AcDbBlockBegin
2
*D3
70
1
10
0
20
0
30
0
3
*D3
0
LINE
5
10F
100
AcDbEntity
8
0
62
256
6
ByLayer
370
-2
48
1
60
0
100
AcDbLine
10
14.9954
20
-0.5075
30
0
11
14.9954
21
-24.58
31
0
39
0
210
0
220
0
230
1
0
LINE
5
110
100
AcDbEntity
8
0
62
256
6
ByLayer
370
-2
48
1
60
0
100
AcDbLine
10
5.7354
20
-1.5875
30
0
11
5.7354
21
-24.58
31
0
39
0
210
0
220
0
230
1
0
LINE
5
111
100
AcDbEntity
8
0
62
256
6
ByLayer
370
-2
48
1
60
0
100
AcDbLine
10
14.9954
20
-22.58
30
0
11
40.138257
21
-22.58
31
0
39
0
210
0
220
0
230
1
0
LINE
5
112
100
AcDbEntity
8
0
62
256
6
ByLayer
370
-2
48
1
60
0
100
AcDbLine
10
18.4954
20
-22.58
30
0
11
21.9954
21
-22.58
31
0
39
0
210
0
220
0
230
1
0
LINE
5
113
100
AcDbEntity
8
0
62
256
6
ByLayer
370
-2
48
1
60
0
100
AcDbLine
10
2.2354
20
-22.58
30
0
11
-1.2646
21
-22.58
31
0
39
0
210
0
220
0
230
1
0
SOLID
5
114
100
AcDbEntity
8
0
62
256
6
ByLayer
370
-1
48
1
60
0
100
AcDbTrace
10
18.4954
20
-21.996667
30
0
11
18.4954
21
-23.163333
31
0
12
14.9954
22
-22.58
32
0
13
14.9954
23
-22.58
33
0
39
0
210
0
220
0
230
1
0
SOLID
5
115
100
AcDbEntity
8
0
62
256
6
ByLayer
370
-1
48
1
60
0
100
AcDbTrace
10
2.2354
20
-23.163333
30
0
11
2.2354
21
-21.996667
31
0
12
5.7354
22
-22.58
32
0
13
5.7354
23
-22.58
33
0
39
0
210
0
220
0
230
1
0
MTEXT
5
116
100
AcDbEntity
8
0
62
256
6
ByLayer
370
18
48
1
60
0
100
AcDbMText
10
31.066829
20
-16.58
30
0
210
0
220
0
230
1
1
\A1;9.26
40
3
41
0
44
1
50
0
71
5
72
5
7
iso_b_vert
0
POINT
5
117
100
AcDbEntity
8
Defpoints
62
0
6
ByLayer
370
-1
48
1
60
0
100
AcDbPoint
10
14.9954
20
1.08
30
0
39
0
210
0
220
0
230
1
50
360
0
POINT
5
118
100
AcDbEntity
8
Defpoints
62
0
6
ByLayer
370
-1
48
1
60
0
100
AcDbPoint
10
5.7354
20
0
30
0
39
0
210
0
220
0
230
1
50
360
0
POINT
5
119
100
AcDbEntity
8
Defpoints
62
0
6
ByLayer
370
-1
48
1
60
0
100
AcDbPoint
10
5.7354
20
-22.58
30
0
39
0
210
0
220
0
230
1
50
360
0
ENDBLK
5
10E
100
AcDbEntity
8
0
100
AcDbBlockEnd
0
BLOCK
5
121
100
AcDbEntity
8
0
100
AcDbBlockBegin
2
_U1
70
0
10
0
20
0
30
0
3
_U1
0
MTEXT
5
11B
100
AcDbEntity
8
SK2
62
256
6
ByLayer
370
18
48
1
60
0
100
AcDbMText
10
19.1544
20
-21.694886
30
0
210
0
220
0
230
1
1
\W0.7051;(9.26)
40
3
41
0
44
1.084337
50
0
71
7
72
5
7
iso_b_vert
0
LINE
5
11C
100
AcDbEntity
8
SK2
62
256
6
ByLayer
370
13
48
1
60
0
100
AcDbLine
10
14.9954
20
-0.5075
30
0
11
14.9954
21
-24.58
31
0
39
0
210
0
220
0
230
1
0
LINE
5
11D
100
AcDbEntity
8
SK2
62
256
6
ByLayer
370
13
48
1
60
0
100
AcDbLine
10
5.7354
20
-1.5875
30
0
11
5.7354
21
-24.58
31
0
39
0
210
0
220
0
230
1
0
LINE
5
11E
100
AcDbEntity
8
SK2
62
256
6
ByLayer
370
13
48
1
60
0
100
AcDbLine
10
5.7354
20
-22.58
30
0
11
28.467169
21
-22.58
31
0
39
0
210
0
220
0
230
1
0
SOLID
5
11F
100
AcDbEntity
8
SK2
62
256
6
ByLayer
370
18
48
1
60
0
100
AcDbTrace
10
14.9954
20
-22.58
30
0
11
11.495402
21
-23.040784
31
0
12
11.495398
22
-22.119216
32
0
13
11.495398
23
-22.119216
33
0
39
0
210
0
220
0
230
1
0
SOLID
5
120
100
AcDbEntity
8
SK2
62
256
6
ByLayer
370
18
48
1
60
0
100
AcDbTrace
10
5.7354
20
-22.58
30
0
11
9.235398
21
-22.119216
31
0
12
9.235402
22
-23.040784
32
0
13
9.235402
23
-23.040784
33
0
39
0
210
0
220
0
230
1
0
ENDBLK
5
122
100
AcDbEntity
8
0
100
AcDbBlockEnd
0
BLOCK
5
127
100
AcDbEntity
8
0
100
AcDbBlockBegin
2
*D5
70
1
10
0
20
0
30
0
3
*D5
0
LINE
5
129
100
AcDbEntity
8
0
62
256
6
ByLayer
370
-2
48
1
60
0
100
AcDbLine
10
14.9954
20
-0.5075
30
0
11
14.9954
21
-32.66957
31
0
39
0
210
0
220
0
230
1
0
LINE
5
12A
100
AcDbEntity
8
0
62
256
6
ByLayer
370
-2
48
1
60
0
100
AcDbLine
10
2.4954
20
-1.5875
30
0
11
2.4954
21
-32.66957
31
0
39
0
210
0
220
0
230
1
0
LINE
5
12B
100
AcDbEntity
8
0
62
256
6
ByLayer
370
-2
48
1
60
0
100
AcDbLine
10
18.4954
20
-30.66957
30
0
11
21.9954
21
-30.66957
31
0
39
0
210
0
220
0
230
1
0
LINE
5
12C
100
AcDbEntity
8
0
62
256
6
ByLayer
370
-2
48
1
60
0
100
AcDbLine
10
-1.0046
20
-30.66957
30
0
11
-4.5046
21
-30.66957
31
0
39
0
210
0
220
0
230
1
0
SOLID
5
12D
100
AcDbEntity
8
0
62
256
6
ByLayer
370
-1
48
1
60
0
100
AcDbTrace
10
18.4954
20
-30.086237
30
0
11
18.4954
21
-31.252903
31
0
12
14.9954
22
-30.66957
32
0
13
14.9954
23
-30.66957
33
0
39
0
210
0
220
0
230
1
0
SOLID
5
12E
100
AcDbEntity
8
0
62
256
6
ByLayer
370
-1
48
1
60
0
100
AcDbTrace
10
-1.0046
20
-31.252903
30
0
11
-1.0046
21
-30.086237
31
0
12
2.4954
22
-30.66957
32
0
13
2.4954
23
-30.66957
33
0
39
0
210
0
220
0
230
1
0
MTEXT
5
12F
100
AcDbEntity
8
0
62
256
6
ByLayer
370
18
48
1
60
0
100
AcDbMText
10
8.7454
20
-24.66957
30
0
210
0
220
0
230
1
1
\A1;12.5
40
3
41
0
44
1
50
0
71
5
72
5
7
iso_b_vert
0
POINT
5
130
100
AcDbEntity
8
Defpoints
62
0
6
ByLayer
370
-1
48
1
60
0
100
AcDbPoint
10
14.9954
20
1.08
30
0
39
0
210
0
220
0
230
1
50
360
0
POINT
5
131
100
AcDbEntity
8
Defpoints
62
0
6
ByLayer
370
-1
48
1
60
0
100
AcDbPoint
10
2.4954
20
0
30
0
39
0
210
0
220
0
230
1
50
360
0
POINT
5
132
100
AcDbEntity
8
Defpoints
62
0
6
ByLayer
370
-1
48
1
60
0
100
AcDbPoint
10
2.4954
20
-30.66957
30
0
39
0
210
0
220
0
230
1
50
360
0
ENDBLK
5
128
100
AcDbEntity
8
0
100
AcDbBlockEnd
0
BLOCK
5
13A
100
AcDbEntity
8
0
100
AcDbBlockBegin
2
_U2
70
0
10
0
20
0
30
0
3
_U2
0
MTEXT
5
134
100
AcDbEntity
8
SK2
62
256
6
ByLayer
370
18
48
1
60
0
100
AcDbMText
10
4.637972
20
-29.784455
30
0
210
0
220
0
230
1
1
\W0.6864;12.50
40
3
41
0
44
1.084337
50
0
71
7
72
5
7
iso_b_vert
0
LINE
5
135
100
AcDbEntity
8
SK2
62
256
6
ByLayer
370
13
48
1
60
0
100
AcDbLine
10
14.9954
20
-0.5075
30
0
11
14.9954
21
-32.66957
31
0
39
0
210
0
220
0
230
1
0
LINE
5
136
100
AcDbEntity
8
SK2
62
256
6
ByLayer
370
13
48
1
60
0
100
AcDbLine
10
2.4954
20
-1.5875
30
0
11
2.4954
21
-32.66957
31
0
39
0
210
0
220
0
230
1
0
LINE
5
137
100
AcDbEntity
8
SK2
62
256
6
ByLayer
370
13
48
1
60
0
100
AcDbLine
10
14.9954
20
-30.66957
30
0
11
2.4954
21
-30.66957
31
0
39
0
210
0
220
0
230
1
0
SOLID
5
138
100
AcDbEntity
8
SK2
62
256
6
ByLayer
370
18
48
1
60
0
100
AcDbTrace
10
14.9954
20
-30.66957
30
0
11
11.495402
21
-31.130354
31
0
12
11.495398
22
-30.208786
32
0
13
11.495398
23
-30.208786
33
0
39
0
210
0
220
0
230
1
0
SOLID
5
139
100
AcDbEntity
8
SK2
62
256
6
ByLayer
370
18
48
1
60
0
100
AcDbTrace
10
2.4954
20
-30.66957
30
0
11
5.995398
21
-30.208786
31
0
12
5.995402
22
-31.130354
32
0
13
5.995402
23
-31.130354
33
0
39
0
210
0
220
0
230
1
0
ENDBLK
5
13B
100
AcDbEntity
8
0
100
AcDbBlockEnd
0
BLOCK
5
140
100
AcDbEntity
8
0
100
AcDbBlockBegin
2
*D7
70
1
10
0
20
0
30
0
3
*D7
0
LINE
5
142
100
AcDbEntity
8
0
62
256
6
ByLayer
370
-2
48
1
60
0
100
AcDbLine
10
-23.0046
20
1.5875
30
0
11
-23.0046
21
13.66957
31
0
39
0
210
0
220
0
230
1
0
LINE
5
143
100
AcDbEntity
8
0
62
256
6
ByLayer
370
-2
48
1
60
0
100
AcDbLine
10
0
20
1.5875
30
0
11
0
21
13.66957
31
0
39
0
210
0
220
0
230
1
0
LINE
5
144
100
AcDbEntity
8
0
62
256
6
ByLayer
370
-2
48
1
60
0
100
AcDbLine
10
-19.5046
20
11.66957
30
0
11
-3.5
21
11.66957
31
0
39
0
210
0
220
0
230
1
0
SOLID
5
145
100
AcDbEntity
8
0
62
256
6
ByLayer
370
-1
48
1
60
0
100
AcDbTrace
10
-19.5046
20
12.252903
30
0
11
-19.5046
21
11.086237
31
0
12
-23.0046
22
11.66957
32
0
13
-23.0046
23
11.66957
33
0
39
0
210
0
220
0
230
1
0
SOLID
5
146
100
AcDbEntity
8
0
62
256
6
ByLayer
370
-1
48
1
60
0
100
AcDbTrace
10
-3.5
20
11.086237
30
0
11
-3.5
21
12.252903
31
0
12
0
22
11.66957
32
0
13
0
23
11.66957
33
0
39
0
210
0
220
0
230
1
0
MTEXT
5
147
100
AcDbEntity
8
0
62
256
6
ByLayer
370
18
48
1
60
0
100
AcDbMText
10
-11.5023
20
17.66957
30
0
210
0
220
0
230
1
1
\A1;23
40
3
41
0
44
1
50
0
71
5
72
5
7
iso_b_vert
0
POINT
5
148
100
AcDbEntity
8
Defpoints
62
0
6
ByLayer
370
-1
48
1
60
0
100
AcDbPoint
10
-23.0046
20
0
30
0
39
0
210
0
220
0
230
1
50
360
0
POINT
5
149
100
AcDbEntity
8
Defpoints
62
0
6
ByLayer
370
-1
48
1
60
0
100
AcDbPoint
10
0
20
0
30
0
39
0
210
0
220
0
230
1
50
360
0
POINT
5
14A
100
AcDbEntity
8
Defpoints
62
0
6
ByLayer
370
-1
48
1
60
0
100
AcDbPoint
10
0
20
11.66957
30
0
39
0
210
0
220
0
230
1
50
360
0
ENDBLK
5
141
100
AcDbEntity
8
0
100
AcDbBlockEnd
0
BLOCK
5
152
100
AcDbEntity
8
0
100
AcDbBlockBegin
2
_U3
70
0
10
0
20
0
30
0
3
_U3
0
MTEXT
5
14C
100
AcDbEntity
8
SK2
62
256
6
ByLayer
370
18
48
1
60
0
100
AcDbMText
10
-15.98467
20
12.554684
30
0
210
0
220
0
230
1
1
\W0.7468;23.00
40
3
41
0
44
1.084337
50
0
71
7
72
5
7
iso_b_vert
0
LINE
5
14D
100
AcDbEntity
8
SK2
62
256
6
ByLayer
370
13
48
1
60
0
100
AcDbLine
10
-23.0046
20
1.5875
30
0
11
-23.0046
21
13.66957
31
0
39
0
210
0
220
0
230
1
0
LINE
5
14E
100
AcDbEntity
8
SK2
62
256
6
ByLayer
370
13
48
1
60
0
100
AcDbLine
10
0
20
1.5875
30
0
11
0
21
13.66957
31
0
39
0
210
0
220
0
230
1
0
LINE
5
14F
100
AcDbEntity
8
SK2
62
256
6
ByLayer
370
13
48
1
60
0
100
AcDbLine
10
-23.0046
20
11.66957
30
0
11
0
21
11.66957
31
0
39
0
210
0
220
0
230
1
0
SOLID
5
150
100
AcDbEntity
8
SK2
62
256
6
ByLayer
370
18
48
1
60
0
100
AcDbTrace
10
-23.0046
20
11.66957
30
0
11
-19.504602
21
12.130354
31
0
12
-19.504598
22
11.208786
32
0
13
-19.504598
23
11.208786
33
0
39
0
210
0
220
0
230
1
0
SOLID
5
151
100
AcDbEntity
8
SK2
62
256
6
ByLayer
370
18
48
1
60
0
100
AcDbTrace
10
0
20
11.66957
30
0
11
-3.499998
21
11.208786
31
0
12
-3.500002
22
12.130354
32
0
13
-3.500002
23
12.130354
33
0
39
0
210
0
220
0
230
1
0
ENDBLK
5
153
100
AcDbEntity
8
0
100
AcDbBlockEnd
0
BLOCK
5
158
100
AcDbEntity
8
0
100
AcDbBlockBegin
2
*D9
70
1
10
0
20
0
30
0
3
*D9
0
LINE
5
15A
100
AcDbEntity
8
0
62
256
6
ByLayer
370
-2
48
1
60
0
100
AcDbLine
10
14.9954
20
2.6675
30
0
11
14.9954
21
13.66957
31
0
39
0
210
0
220
0
230
1
0
LINE
5
15B
100
AcDbEntity
8
0
62
256
6
ByLayer
370
-2
48
1
60
0
100
AcDbLine
10
0
20
1.5875
30
0
11
0
21
13.66957
31
0
39
0
210
0
220
0
230
1
0
LINE
5
15C
100
AcDbEntity
8
0
62
256
6
ByLayer
370
-2
48
1
60
0
100
AcDbLine
10
18.4954
20
11.66957
30
0
11
21.9954
21
11.66957
31
0
39
0
210
0
220
0
230
1
0
LINE
5
15D
100
AcDbEntity
8
0
62
256
6
ByLayer
370
-2
48
1
60
0
100
AcDbLine
10
-3.5
20
11.66957
30
0
11
-7
21
11.66957
31
0
39
0
210
0
220
0
230
1
0
SOLID
5
15E
100
AcDbEntity
8
0
62
256
6
ByLayer
370
-1
48
1
60
0
100
AcDbTrace
10
18.4954
20
12.252903
30
0
11
18.4954
21
11.086237
31
0
12
14.9954
22
11.66957
32
0
13
14.9954
23
11.66957
33
0
39
0
210
0
220
0
230
1
0
SOLID
5
15F
100
AcDbEntity
8
0
62
256
6
ByLayer
370
-1
48
1
60
0
100
AcDbTrace
10
-3.5
20
11.086237
30
0
11
-3.5
21
12.252903
31
0
12
0
22
11.66957
32
0
13
0
23
11.66957
33
0
39
0
210
0
220
0
230
1
0
MTEXT
5
160
100
AcDbEntity
8
0
62
256
6
ByLayer
370
18
48
1
60
0
100
AcDbMText
10
7.4977
20
17.66957
30
0
210
0
220
0
230
1
1
\A1;15
40
3
41
0
44
1
50
0
71
5
72
5
7
iso_b_vert
0
POINT
5
161
100
AcDbEntity
8
Defpoints
62
0
6
ByLayer
370
-1
48
1
60
0
100
AcDbPoint
10
14.9954
20
1.08
30
0
39
0
210
0
220
0
230
1
50
360
0
POINT
5
162
100
AcDbEntity
8
Defpoints
62
0
6
ByLayer
370
-1
48
1
60
0
100
AcDbPoint
10
0
20
0
30
0
39
0
210
0
220
0
230
1
50
360
0
POINT
5
163
100
AcDbEntity
8
Defpoints
62
0
6
ByLayer
370
-1
48
1
60
0
100
AcDbPoint
10
0
20
11.66957
30
0
39
0
210
0
220
0
230
1
50
360
0
ENDBLK
5
159
100
AcDbEntity
8
0
100
AcDbBlockEnd
0
BLOCK
5
16B
100
AcDbEntity
8
0
100
AcDbBlockBegin
2
_U4
70
0
10
0
20
0
30
0
3
_U4
0
MTEXT
5
165
100
AcDbEntity
8
2
62
256
6
ByLayer
370
18
48
1
60
0
100
AcDbMText
10
6.239815
20
12.554684
30
0
210
0
220
0
230
1
1
\W0.5321;15
40
3
41
0
44
1.084337
50
0
71
7
72
5
7
iso_b_vert
0
LINE
5
166
100
AcDbEntity
8
2
62
256
6
ByLayer
370
13
48
1
60
0
100
AcDbLine
10
14.9954
20
2.6675
30
0
11
14.9954
21
13.66957
31
0
39
0
210
0
220
0
230
1
0
LINE
5
167
100
AcDbEntity
8
2
62
256
6
ByLayer
370
13
48
1
60
0
100
AcDbLine
10
0
20
1.5875
30
0
11
0
21
13.66957
31
0
39
0
210
0
220
0
230
1
0
LINE
5
168
100
AcDbEntity
8
2
62
256
6
ByLayer
370
13
48
1
60
0
100
AcDbLine
10
14.9954
20
11.66957
30
0
11
0
21
11.66957
31
0
39
0
210
0
220
0
230
1
0
SOLID
5
169
100
AcDbEntity
8
2
62
256
6
ByLayer
370
18
48
1
60
0
100
AcDbTrace
10
14.9954
20
11.66957
30
0
11
11.495402
21
11.208786
31
0
12
11.495398
22
12.130354
32
0
13
11.495398
23
12.130354
33
0
39
0
210
0
220
0
230
1
0
SOLID
5
16A
100
AcDbEntity
8
2
62
256
6
ByLayer
370
18
48
1
60
0
100
AcDbTrace
10
0
20
11.66957
30
0
11
3.499998
21
12.130354
31
0
12
3.500002
22
11.208786
32
0
13
3.500002
23
11.208786
33
0
39
0
210
0
220
0
230
1
0
ENDBLK
5
16C
100
AcDbEntity
8
0
100
AcDbBlockEnd
0
ENDSEC
0
SECTION
2
ENTITIES
0
ARC
5
BC
100
AcDbEntity
8
1
62
256
6
ByLayer
370
18
48
1
60
0
100
AcDbCircle
39
0
10
0.995444
20
-2.08
30
0
40
0.999999999999999
210
0
220
0
230
1
100
AcDbArc
50
90
51
120
0
ARC
5
BD
100
AcDbEntity
8
1
62
256
6
ByLayer
370
18
48
1
60
0
100
AcDbCircle
39
0
10
0.995444
20
2.08
30
0
40
0.999999999999999
210
0
220
0
230
1
100
AcDbArc
50
240
51
270
0
ARC
5
BE
100
AcDbEntity
8
SK2
62
256
6
ByLayer
370
13
48
1
60
0
100
AcDbCircle
39
0
10
14.9954
20
0
30
0
40
16.35
210
0
220
0
230
1
100
AcDbArc
50
10.57289
51
65
0
ARC
5
BF
100
AcDbEntity
8
SK2
62
256
6
ByLayer
370
13
48
1
60
0
100
AcDbCircle
39
0
10
14.9954
20
0
30
0
40
16.35
210
0
220
0
230
1
100
AcDbArc
50
295
51
349.42711
0
ELLIPSE
5
C0
100
AcDbEntity
8
1
62
256
6
ByLayer
370
18
48
1
60
0
100
AcDbEllipse
10
3.699384
20
1.34415
30
0
11
-1.52102536384291
21
1.12184861521701
31
0
210
0
220
0
230
1
40
0.538923
41
1.15044809890875
42
1.94913551900647
0
POINT
5
70
100
AcDbEntity
8
80
62
256
6
ByLayer
370
18
48
1
60
0
100
AcDbPoint
10
0
20
0
30
0
39
0
210
0
220
0
230
1
50
360
0
POINT
5
72
100
AcDbEntity
8
81
62
256
6
ByLayer
370
18
48
1
60
0
100
AcDbPoint
10
14.9954
20
0
30
0
39
0
210
0
220
0
230
1
50
360
0
POINT
5
74
100
AcDbEntity
8
1
62
256
6
ByLayer
370
18
48
1
60
1
100
AcDbPoint
10
-23.0046
20
1.5
30
0
39
0
210
0
220
0
230
1
50
360
0
POINT
5
76
100
AcDbEntity
8
1
62
256
6
ByLayer
370
18
48
1
60
1
100
AcDbPoint
10
14.9954
20
1.08
30
0
39
0
210
0
220
0
230
1
50
360
0
POINT
5
77
100
AcDbEntity
8
1
62
256
6
ByLayer
370
18
48
1
60
1
100
AcDbPoint
10
14.9954
20
1.08
30
0
39
0
210
0
220
0
230
1
50
360
0
POINT
5
78
100
AcDbEntity
8
1
62
256
6
ByLayer
370
18
48
1
60
1
100
AcDbPoint
10
5.7354
20
0
30
0
39
0
210
0
220
0
230
1
50
360
0
POINT
5
79
100
AcDbEntity
8
1
62
256
6
ByLayer
370
18
48
1
60
1
100
AcDbPoint
10
14.9954
20
1.08
30
0
39
0
210
0
220
0
230
1
50
360
0
POINT
5
7A
100
AcDbEntity
8
1
62
256
6
ByLayer
370
18
48
1
60
1
100
AcDbPoint
10
2.4954
20
0
30
0
39
0
210
0
220
0
230
1
50
360
0
POINT
5
7B
100
AcDbEntity
8
1
62
256
6
ByLayer
370
18
48
1
60
1
100
AcDbPoint
10
-23.0046
20
0
30
0
39
0
210
0
220
0
230
1
50
360
0
POINT
5
7C
100
AcDbEntity
8
1
62
256
6
ByLayer
370
18
48
1
60
1
100
AcDbPoint
10
0
20
0
30
0
39
0
210
0
220
0
230
1
50
360
0
POINT
5
7D
100
AcDbEntity
8
1
62
256
6
ByLayer
370
18
48
1
60
1
100
AcDbPoint
10
14.9954
20
1.08
30
0
39
0
210
0
220
0
230
1
50
360
0
POINT
5
7E
100
AcDbEntity
8
1
62
256
6
ByLayer
370
18
48
1
60
1
100
AcDbPoint
10
0
20
0
30
0
39
0
210
0
220
0
230
1
50
360
0
SPLINE
5
C1
100
AcDbEntity
8
1
62
256
6
ByLayer
370
18
48
1
60
0
100
AcDbSpline
70
4
71
3
72
18
73
14
40
0
40
0
40
0
40
0
40
0.25
40
0.25
40
0.5
40
0.5
40
0.625
40
0.625
40
0.6875
40
0.6875
40
0.75
40
0.75
40
1
40
1
40
1
40
1
41
1
10
2.52672813524373
20
1.05359541684348
30
0
41
1
10
2.62342934590592
20
1.05882752099589
30
0
41
1
10
2.72061233137865
20
1.06189732323063
30
0
41
1
10
2.91591030651284
20
1.065631658478
30
0
41
1
10
3.01402539696309
20
1.06629133381818
30
0
41
1
10
3.16190555350968
20
1.06579692461409
30
0
41
1
10
3.21131718097155
20
1.06537375306854
30
0
41
1
10
3.28561608154209
20
1.06428870079333
30
0
41
1
10
3.31040059214769
20
1.06385109433233
30
0
41
1
10
3.35974395326363
20
1.0628120439392
30
0
41
1
10
3.38433812590429
20
1.06221013398934
30
0
41
1
10
3.50692430712874
20
1.05873613695127
30
0
41
1
10
3.60376656158604
20
1.05452710625687
30
0
41
1
10
3.69938400003227
20
1.0477728442178
30
0
0
SPLINE
5
C2
100
AcDbEntity
8
1
62
256
6
ByLayer
370
18
48
1
60
0
100
AcDbSpline
70
4
71
3
72
22
73
18
40
0
40
0
40
0
40
0
40
0.059382402271724
40
0.059382402271724
40
0.118764804543448
40
0.118764804543448
40
0.237529609086874
40
0.237529609086874
40
0.3562944136303
40
0.3562944136303
40
0.475059218173726
40
0.475059218173726
40
0.7125888272606
40
0.7125888272606
40
0.950118436347474
40
0.950118436347474
40
1
40
1
40
1
40
1
41
1
10
14.4917877291926
20
1.04025803358226
30
0
41
1
10
14.4766183447926
20
1.03858719065963
30
0
41
1
10
14.4622466748371
20
1.03648122016384
30
0
41
1
10
14.4339222713835
20
1.03187901233861
30
0
41
1
10
14.419952940131
20
1.02939367979261
30
0
41
1
10
14.3777772962269
20
1.0218160224166
30
0
41
1
10
14.3495696425905
20
1.01647438521527
30
0
41
1
10
14.2932841777833
20
1.00503968968655
30
0
41
1
10
14.2651788023469
20
0.99895815815043
30
0
41
1
10
14.2088997360197
20
0.986160062591864
30
0
41
1
10
14.1807454827889
20
0.979432076231461
30
0
41
1
10
14.0962772099464
20
0.958232325349769
30
0
41
1
10
14.0398845524913
20
0.942755441049826
30
0
41
1
10
13.9273644791944
20
0.909339837103772
30
0
41
1
10
13.8711984225798
20
0.891382234478215
30
0
41
1
10
13.8032794098154
20
0.868209673363367
30
0
41
1
10
13.7914915190735
20
0.864137233714189
30
0
41
1
10
13.7797029818549
20
0.860014544309365
30
0
0
SPLINE
5
C3
100
AcDbEntity
8
1
62
256
6
ByLayer
370
18
48
1
60
0
100
AcDbSpline
70
4
71
3
72
54
73
50
40
0
40
0
40
0
40
0
40
0.0045726655850966
40
0.0045726655850966
40
0.0667868739860233
40
0.0667868739860233
40
0.0978939781864866
40
0.0978939781864866
40
0.12900108238695
40
0.12900108238695
40
0.191215290787876
40
0.191215290787876
40
0.222322394988341
40
0.222322394988341
40
0.253429499188805
40
0.253429499188805
40
0.315643707589734
40
0.315643707589734
40
0.3467508117902
40
0.3467508117902
40
0.377857915990665
40
0.377857915990665
40
0.440072124391596
40
0.440072124391596
40
0.471179228592062
40
0.471179228592062
40
0.502286332792527
40
0.502286332792527
40
0.56450054119346
40
0.56450054119346
40
0.595607645393926
40
0.595607645393926
40
0.626714749594393
40
0.626714749594393
40
0.688928957995327
40
0.688928957995327
40
0.720036062195794
40
0.720036062195794
40
0.751143166396261
40
0.751143166396261
40
0.782250270596728
40
0.782250270596728
40
0.813357374797194
40
0.813357374797194
40
0.875571583198129
40
0.875571583198129
40
0.937785791599065
40
0.937785791599065
40
1
40
1
40
1
40
1
41
1
10
9.11746179940201
20
-1.08000008149281
30
0
41
1
10
9.10918777114324
20
-1.07999867791929
30
0
41
1
10
9.10091215813534
20
-1.07996550692977
30
0
41
1
10
8.98001590820192
20
-1.07901617380634
30
0
41
1
10
8.86764230344349
20
-1.07224676034932
30
0
41
1
10
8.69912111304168
20
-1.05352427584359
30
0
41
1
10
8.64294395956534
20
-1.04585278718761
30
0
41
1
10
8.53048942827272
20
-1.02767023561009
30
0
41
1
10
8.47415729900754
20
-1.01713796300751
30
0
41
1
10
8.3053410370687
20
-0.981430206091659
30
0
41
1
10
8.19308334495233
20
-0.952278603123318
30
0
41
1
10
8.02453952167602
20
-0.901101288647311
30
0
41
1
10
7.9683357747665
20
-0.882796151132339
30
0
41
1
10
7.85579157398274
20
-0.843765576255777
30
0
41
1
10
7.79941867327514
20
-0.823013699484875
30
0
41
1
10
7.63074645239701
20
-0.757588032372212
30
0
41
1
10
7.51851021989805
20
-0.709828726479742
30
0
41
1
10
7.34990376879276
20
-0.632767424190689
30
0
41
1
10
7.29366318574517
20
-0.606170725850319
30
0
41
1
10
7.18101102888005
20
-0.551274747196601
30
0
41
1
10
7.12471292125306
20
-0.523012865169591
30
0
41
1
10
6.95617932490487
20
-0.436285546386699
30
0
41
1
10
6.84395502087648
20
-0.376045209618752
30
0
41
1
10
6.67526539692523
20
-0.282964294328934
30
0
41
1
10
6.61892541179409
20
-0.251450959122991
30
0
41
1
10
6.50628467357504
20
-0.187794898459515
30
0
41
1
10
6.45008148462662
20
-0.155685726002218
30
0
41
1
10
6.28161370360306
20
-0.0588777504429743
30
0
41
1
10
6.16937190359224
20
0.0060948330786914
30
0
41
1
10
6.00054845463833
20
0.103218200216588
30
0
41
1
10
5.94414305271317
20
0.135576344538151
30
0
41
1
10
5.83160480747927
20
0.199734719576611
30
0
41
1
10
5.7754364753583
20
0.231580867311976
30
0
41
1
10
5.60703036759642
20
0.326071938279313
30
0
41
1
10
5.49476857240475
20
0.387464475270065
30
0
41
1
10
5.32580464533285
20
0.476187737423345
30
0
41
1
10
5.26944638945372
20
0.50517465133035
30
0
41
1
10
5.15700028123015
20
0.561614746006455
30
0
41
1
10
5.10085413327792
20
0.58910643945822
30
0
41
1
10
4.98860358042833
20
0.642464648929433
30
0
41
1
10
4.93246164025169
20
0.668277592372363
30
0
41
1
10
4.82003784268932
20
0.718029310375812
30
0
41
1
10
4.76371822148116
20
0.741990010217791
30
0
41
1
10
4.5946958375599
20
0.810781916741206
30
0
41
1
10
4.48269105662092
20
0.852241337872385
30
0
41
1
10
4.25926928632759
20
0.925644443557474
30
0
41
1
10
4.14768922156236
20
0.957426014659291
30
0
41
1
10
3.92405727050357
20
1.01058191034866
30
0
41
1
10
3.81201381848965
20
1.03196479712088
30
0
41
1
10
3.69938399999998
20
1.04777284421994
30
0
0
SPLINE
5
C4
100
AcDbEntity
8
1
62
256
6
ByLayer
370
18
48
1
60
0
100
AcDbSpline
70
4
71
3
72
26
73
22
40
0
40
0
40
0
40
0
40
0.0624999999999994
40
0.0624999999999994
40
0.124999999999999
40
0.124999999999999
40
0.249999999999998
40
0.249999999999998
40
0.374999999999996
40
0.374999999999996
40
0.499999999999995
40
0.499999999999995
40
0.624999999999994
40
0.624999999999994
40
0.749999999999993
40
0.749999999999993
40
0.874999999999992
40
0.874999999999992
40
0.937499999999996
40
0.937499999999996
40
1
40
1
40
1
40
1
41
1
10
14.8694967735336
20
0.244717630219014
30
0
41
1
10
14.8649013097003
20
0.260931397702365
30
0
41
1
10
14.8595242983229
20
0.277037742589982
30
0
41
1
10
14.8477646971606
20
0.309166702729499
30
0
41
1
10
14.8413801385852
20
0.325189072068184
30
0
41
1
10
14.8212464962972
20
0.373260325884559
30
0
41
1
10
14.8065531678765
20
0.405318940402083
30
0
41
1
10
14.7760251313925
20
0.469836058876325
30
0
41
1
10
14.7601598100221
20
0.50229247305677
30
0
41
1
10
14.7278863166715
20
0.567611380886206
30
0
41
1
10
14.7114583393808
20
0.600497130169884
30
0
41
1
10
14.6783213943211
20
0.666595925877658
30
0
41
1
10
14.6616187291245
20
0.699756061102249
30
0
41
1
10
14.6279798177149
20
0.766654869158089
30
0
41
1
10
14.6110504072335
20
0.800384939649604
30
0
41
1
10
14.5770237669298
20
0.868863298274903
30
0
41
1
10
14.5599252217731
20
0.903608394021092
30
0
41
1
10
14.5343109205325
20
0.955434010862064
30
0
41
1
10
14.5257785773022
20
0.972654797157674
30
0
41
1
10
14.5087523172396
20
1.00675123036166
30
0
41
1
10
14.5002614816666
20
1.0236007080058
30
0
41
1
10
14.4917877291926
20
1.04025803358229
30
0
0
SPLINE
5
C5
100
AcDbEntity
8
1
62
256
6
ByLayer
370
18
48
1
60
0
100
AcDbSpline
70
4
71
3
72
74
73
70
40
0
40
0
40
0
40
0
40
0.0063941891421913
40
0.0063941891421913
40
0.0127883782843826
40
0.0127883782843826
40
0.0255767565687627
40
0.0255767565687627
40
0.0383651348531429
40
0.0383651348531429
40
0.0511535131375231
40
0.0511535131375231
40
0.0767302697062811
40
0.0767302697062811
40
0.102307026275039
40
0.102307026275039
40
0.153460539412558
40
0.153460539412558
40
0.179037295981316
40
0.179037295981316
40
0.204614052550074
40
0.204614052550074
40
0.230190809118832
40
0.230190809118832
40
0.25576756568759
40
0.25576756568759
40
0.306921078825106
40
0.306921078825106
40
0.332497835393863
40
0.332497835393863
40
0.358074591962619
40
0.358074591962619
40
0.409228105100133
40
0.409228105100133
40
0.43480486166889
40
0.43480486166889
40
0.460381618237647
40
0.460381618237647
40
0.511535131375161
40
0.511535131375161
40
0.537111887943919
40
0.537111887943919
40
0.562688644512677
40
0.562688644512677
40
0.613842157650193
40
0.613842157650193
40
0.639418914218951
40
0.639418914218951
40
0.664995670787709
40
0.664995670787709
40
0.716149183925225
40
0.716149183925225
40
0.741725940493983
40
0.741725940493983
40
0.767302697062741
40
0.767302697062741
40
0.818456210200257
40
0.818456210200257
40
0.869609723337773
40
0.869609723337773
40
0.895186479906532
40
0.895186479906532
40
0.920763236475291
40
0.920763236475291
40
0.971916749612807
40
0.971916749612807
40
0.997493506181566
40
0.997493506181566
40
1
40
1
40
1
40
1
41
1
10
14.4917877291926
20
-1.04025803358226
30
0
41
1
10
14.4766183447926
20
-1.03858719065966
30
0
41
1
10
14.4622466748371
20
-1.03648122016384
30
0
41
1
10
14.4339222713835
20
-1.03187901233861
30
0
41
1
10
14.419952940131
20
-1.02939367979261
30
0
41
1
10
14.3777772962269
20
-1.0218160224166
30
0
41
1
10
14.3495696425905
20
-1.01647438521527
30
0
41
1
10
14.2932841777833
20
-1.00503968968655
30
0
41
1
10
14.2651788023469
20
-0.99895815815043
30
0
41
1
10
14.2088997360197
20
-0.986160062591864
30
0
41
1
10
14.1807454827889
20
-0.979432076231461
30
0
41
1
10
14.0962772099464
20
-0.958232325349741
30
0
41
1
10
14.0398845524913
20
-0.942755441049826
30
0
41
1
10
13.9273644791944
20
-0.909339837103772
30
0
41
1
10
13.8711984225799
20
-0.891382234478215
30
0
41
1
10
13.702804378628
20
-0.833929672728175
30
0
41
1
10
13.5905211875886
20
-0.791026445828294
30
0
41
1
10
13.4215207840502
20
-0.720394769452781
30
0
41
1
10
13.3651722816728
20
-0.6958322543191
30
0
41
1
10
13.2527302365086
20
-0.644955008801418
30
0
41
1
10
13.1965902725802
20
-0.618604110717428
30
0
41
1
10
13.0843364049429
20
-0.564266455412394
30
0
41
1
10
13.0281969280241
20
-0.536317157305774
30
0
41
1
10
12.9157728238627
20
-0.479041117154793
30
0
41
1
10
12.8594522074752
20
-0.449683527216507
30
0
41
1
10
12.690431335606
20
-0.359868424332404
30
0
41
1
10
12.5781571808206
20
-0.297902985446939
30
0
41
1
10
12.4097628569237
20
-0.202810362963419
30
0
41
1
10
12.3536019895558
20
-0.170809728497687
30
0
41
1
10
12.241093715588
20
-0.106422280056734
30
0
41
1
10
12.1846900441727
20
-0.0739823126242811
30
0
41
1
10
12.0158175145309
20
0.0233055232155834
30
0
41
1
10
11.9035682912949
20
0.0882168370283694
30
0
41
1
10
11.7351339558208
20
0.184688277159324
30
0
41
1
10
11.6789394924783
20
0.216627668837845
30
0
41
1
10
11.566339451621
20
0.279878658900714
30
0
41
1
10
11.5099640245815
20
0.311180735562914
30
0
41
1
10
11.3412361497736
20
0.403482205645758
30
0
41
1
10
11.2290179203725
20
0.463048004650403
30
0
41
1
10
11.0605175059407
20
0.548507416950457
30
0
41
1
10
11.0042695878434
20
0.576287065715604
30
0
41
1
10
10.8915702938625
20
0.630236107422746
30
0
41
1
10
10.8353127804371
20
0.656323458489936
30
0
41
1
10
10.6666762677867
20
0.731757019510127
30
0
41
1
10
10.5544525608871
20
0.778303546714483
30
0
41
1
10
10.3858266239342
20
0.841717060990391
30
0
41
1
10
10.3294692490111
20
0.86177418382448
30
0
41
1
10
10.2168854499291
20
0.899392406290843
30
0
41
1
10
10.1606694111993
20
0.916967130066126
30
0
41
1
10
9.99210886337985
20
0.965886402687147
30
0
41
1
10
9.87986531008212
20
0.993442399929819
30
0
41
1
10
9.71111862949923
20
1.02666042567878
30
0
41
1
10
9.65475711490319
20
1.03635414359547
30
0
41
1
10
9.54226723865972
20
1.05283983073662
30
0
41
1
10
9.48608041455188
20
1.05965289123472
30
0
41
1
10
9.317551657053
20
1.0757776256693
30
0
41
1
10
9.20525371435602
20
1.08078484496156
30
0
41
1
10
8.98001590820195
20
1.07901617380634
30
0
41
1
10
8.86764230344349
20
1.07224676034932
30
0
41
1
10
8.69912111304171
20
1.05352427584359
30
0
41
1
10
8.64294395956534
20
1.04585278718761
30
0
41
1
10
8.53048942827277
20
1.02767023561009
30
0
41
1
10
8.47415729900754
20
1.01713796300751
30
0
41
1
10
8.3053410370687
20
0.981430206091659
30
0
41
1
10
8.19308334495233
20
0.952278603123318
30
0
41
1
10
8.02453952167605
20
0.901101288647311
30
0
41
1
10
7.9683357747665
20
0.882796151132339
30
0
41
1
10
7.90654907085548
20
0.86136838713756
30
0
41
1
10
7.90103349927196
20
0.85944403464552
30
0
41
1
10
7.89551719456347
20
0.857507975542461
30
0
0
SPLINE
5
C6
100
AcDbEntity
8
1
62
256
6
ByLayer
370
18
48
1
60
0
100
AcDbSpline
70
4
71
3
72
22
73
18
40
0
40
0
40
0
40
0
40
0.0239742549629721
40
0.0239742549629721
40
0.186645212469141
40
0.186645212469141
40
0.349316169975311
40
0.349316169975311
40
0.51198712748148
40
0.51198712748148
40
0.674658084987649
40
0.674658084987649
40
0.837329042493819
40
0.837329042493819
40
0.91866452124691
40
0.91866452124691
40
1
40
1
40
1
40
1
41
1
10
14.7979985004508
20
-0.423327237969204
30
0
41
1
10
14.7957759401742
20
-0.428073385276775
30
0
41
1
10
14.7935387427438
20
-0.43282327100647
30
0
41
1
10
14.7760251313925
20
-0.469836058876325
30
0
41
1
10
14.7601598100221
20
-0.50229247305677
30
0
41
1
10
14.7278863166715
20
-0.567611380886234
30
0
41
1
10
14.7114583393808
20
-0.600497130169884
30
0
41
1
10
14.6783213943211
20
-0.666595925877687
30
0
41
1
10
14.6616187291245
20
-0.699756061102278
30
0
41
1
10
14.6279798177149
20
-0.766654869158089
30
0
41
1
10
14.6110504072334
20
-0.800384939649632
30
0
41
1
10
14.5770237669298
20
-0.868863298274931
30
0
41
1
10
14.5599252217731
20
-0.90360839402112
30
0
41
1
10
14.5343109205325
20
-0.955434010862092
30
0
41
1
10
14.5257785773021
20
-0.972654797157702
30
0
41
1
10
14.5087523172396
20
-1.00675123036169
30
0
41
1
10
14.5002614816665
20
-1.02360070800583
30
0
41
1
10
14.4917877291926
20
-1.04025803358229
30
0
0
SPLINE
5
C7
100
AcDbEntity
8
1
62
256
6
ByLayer
370
18
48
1
60
0
100
AcDbSpline
70
4
71
3
72
68
73
64
40
0
40
0
40
0
40
0
40
0.0086356566332932
40
0.0086356566332932
40
0.0560841145838294
40
0.0560841145838294
40
0.0798083435590976
40
0.0798083435590976
40
0.103532572534366
40
0.103532572534366
40
0.150981030484901
40
0.150981030484901
40
0.24587794638597
40
0.24587794638597
40
0.269602175361236
40
0.269602175361236
40
0.293326404336501
40
0.293326404336501
40
0.340774862287035
40
0.340774862287035
40
0.364499091262302
40
0.364499091262302
40
0.388223320237568
40
0.388223320237568
40
0.435671778188104
40
0.435671778188104
40
0.459396007163372
40
0.459396007163372
40
0.48312023613864
40
0.48312023613864
40
0.530568694089176
40
0.530568694089176
40
0.578017152039711
40
0.578017152039711
40
0.60174138101498
40
0.60174138101498
40
0.62546560999025
40
0.62546560999025
40
0.672914067940785
40
0.672914067940785
40
0.696638296916052
40
0.696638296916052
40
0.720362525891319
40
0.720362525891319
40
0.767810983841853
40
0.767810983841853
40
0.79153521281712
40
0.79153521281712
40
0.815259441792388
40
0.815259441792388
40
0.862707899742924
40
0.862707899742924
40
0.886432128718191
40
0.886432128718191
40
0.910156357693458
40
0.910156357693458
40
0.957604815643989
40
0.957604815643989
40
0.969466930131621
40
0.969466930131621
40
0.981329044619253
40
0.981329044619253
40
1
40
1
40
1
40
1
41
1
10
6.67037971134343
20
1.0800003835659
30
0
41
1
10
6.69067370215961
20
1.08000021456954
30
0
41
1
10
6.71096820342939
20
1.07980973431694
30
0
41
1
10
6.84278885963724
20
1.07733851505634
30
0
41
1
10
6.95437866847806
20
1.06951333395313
30
0
41
1
10
7.12239938035643
20
1.04908365020756
30
0
41
1
10
7.17855151160254
20
1.04083720146716
30
0
41
1
10
7.29126880246019
20
1.02149529111233
30
0
41
1
10
7.347901459882
20
1.01037274732377
30
0
41
1
10
7.51687911847088
20
0.973122419073889
30
0
41
1
10
7.62880536279343
20
0.943038367605681
30
0
41
1
10
7.96352405910775
20
0.8382336506169
30
0
41
1
10
8.1858970118864
20
0.749654410764265
30
0
41
1
10
8.46651438105147
20
0.619498521470575
30
0
41
1
10
8.52279714871318
20
0.592526939044149
30
0
41
1
10
8.63583713476746
20
0.536906695595036
30
0
41
1
10
8.69229725301753
20
0.508376763987457
30
0
41
1
10
8.86147957646298
20
0.420950618561932
30
0
41
1
10
8.97406892152
20
0.360175003529633
30
0
41
1
10
9.1431946280498
20
0.266122646331212
30
0
41
1
10
9.19971421784368
20
0.234312678105624
30
0
41
1
10
9.31268317997734
20
0.170269192611215
30
0
41
1
10
9.3690893234195
20
0.138044940795993
30
0
41
1
10
9.538206720217
20
0.0409982654099679
30
0
41
1
10
9.65081038916117
20
-0.0242091569766103
30
0
41
1
10
9.82006360669703
20
-0.121815475161327
30
0
41
1
10
9.87662842170275
20
-0.154278630516302
30
0
41
1
10
9.98924362982805
20
-0.21831049908576
30
0
41
1
10
10.0453840611213
20
-0.249951765135393
30
0
41
1
10
10.2134483045694
20
-0.343531360879155
30
0
41
1
10
10.3250015545944
20
-0.404151235920978
30
0
41
1
10
10.5478761775885
20
-0.520650523894233
30
0
41
1
10
10.6593395914377
20
-0.576302351910897
30
0
41
1
10
10.8271612497461
20
-0.654977650755256
30
0
41
1
10
10.8832009991545
20
-0.680409646729487
30
0
41
1
10
10.9955715342879
20
-0.729535482474716
30
0
41
1
10
11.0519281778691
20
-0.753246928772882
30
0
41
1
10
11.2213956660466
20
-0.821447184381469
30
0
41
1
10
11.3340294759324
20
-0.862397415905804
30
0
41
1
10
11.5030798959643
20
-0.916497881016113
30
0
41
1
10
11.5594426293776
20
-0.933313935073386
30
0
41
1
10
11.6722813585815
20
-0.96441743957385
30
0
41
1
10
11.7288268107127
20
-0.978721234115454
30
0
41
1
10
11.8981322933
20
-1.01752258160448
30
0
41
1
10
12.01074363005
20
-1.0378195733372
30
0
41
1
10
12.1798521120195
20
-1.05971383336063
30
0
41
1
10
12.2362497243296
20
-1.06558695756272
30
0
41
1
10
12.3491931155876
20
-1.07443130183768
30
0
41
1
10
12.4057358591688
20
-1.07739883463668
30
0
41
1
10
12.5748988337446
20
-1.08184964998591
30
0
41
1
10
12.6874729965421
20
-1.07890434280793
30
0
41
1
10
12.8566383482395
20
-1.06574602907753
30
0
41
1
10
12.9130734486651
20
-1.05990143888647
30
0
41
1
10
13.0261296085414
20
-1.04529515659607
30
0
41
1
10
13.0825557126829
20
-1.03655447581463
30
0
41
1
10
13.2516065813415
20
-1.00613120588622
30
0
41
1
10
13.364184477662
20
-0.980321456138171
30
0
41
1
10
13.505255644792
20
-0.941537150007861
30
0
41
1
10
13.533486193507
20
-0.933452946428389
30
0
41
1
10
13.5899910517145
20
-0.916636345911883
30
0
41
1
10
13.6182754597181
20
-0.907900375921741
30
0
41
1
10
13.6909360204109
20
-0.884659486599787
30
0
41
1
10
13.7352742306793
20
-0.869703008741737
30
0
41
1
10
13.7795462691716
20
-0.854033406176995
30
0
0
SPLINE
5
C8
100
AcDbEntity
8
1
62
256
6
ByLayer
370
18
48
1
60
0
100
AcDbSpline
70
4
71
3
72
47
73
43
40
0
40
0
40
0
40
0
40
0.0031961583033128
40
0.0316138392173834
40
0.060031520131454
40
0.0884492010455247
40
0.10265804150256
40
0.131075722416631
40
0.159493403330701
40
0.187911084244772
40
0.216328765158843
40
0.244746446072913
40
0.266059706758466
40
0.287372967444019
40
0.31579064835809
40
0.34420832927216
40
0.372626010186231
40
0.401043691100302
40
0.429461372014372
40
0.443670212471408
40
0.472087893385478
40
0.500505574299549
40
0.528923255213619
40
0.55734093612769
40
0.585758617041761
40
0.599967457498796
40
0.628385138412867
40
0.656802819326937
40
0.685220500241008
40
0.713638181155079
40
0.742055862069149
40
0.763369122754702
40
0.784682383440255
40
0.813100064354326
40
0.841517745268396
40
0.869935426182467
40
0.898353107096538
40
0.91966636778209
40
0.940979628467644
40
0.969397309381714
40
0.997814990295785
40
1
40
1
40
1
40
1
41
1
10
9.29334302837705
20
0.197923181277645
30
0
41
1
10
9.29665156006172
20
0.197598607038884
30
0
41
1
10
9.32937690680552
20
0.194379139889236
30
0
41
1
10
9.39151906860727
20
0.18809663919771
30
0
41
1
10
9.47976951379447
20
0.178758771639707
30
0
41
1
10
9.55331155140476
20
0.170643796032778
30
0
41
1
10
9.6268535892288
20
0.162289994750807
30
0
41
1
10
9.70039562621523
20
0.153702807662484
30
0
41
1
10
9.7886460731539
20
0.143028260948995
30
0
41
1
10
9.87689651333724
20
0.132047368942807
30
0
41
1
10
9.96514697657843
20
0.120790368940874
30
0
41
0.999999999999999
10
10.0460430521578
20
0.11023206941536
30
0
41
1
10
10.1195848261945
20
0.100460117126602
30
0
41
1
10
10.1931265086923
20
0.090548586846495
30
0
41
1
10
10.2740222578242
20
0.0794784123173145
30
0
41
1
10
10.3622720614604
20
0.0672164716414443
30
0
41
1
10
10.4505217833778
20
0.0547805445152676
30
0
41
1
10
10.5387714462478
20
0.0422249457710109
30
0
41
1
10
10.6123128016844
20
0.0317054638582022
30
0
41
1
10
10.685854148586
20
0.0211489282196453
30
0
41
1
10
10.7593954940473
20
0.0105655193002008
30
0
41
1
10
10.847645128982
20
-0.0021569987979717
30
0
41
1
10
10.9358948070128
20
-0.0148805093536168
30
0
41
1
10
11.0241445507598
20
-0.0275809601256753
30
0
41
1
10
11.0976860778416
20
-0.0381316494465409
30
0
41
1
10
11.1712276732868
20
-0.0486360399397654
30
0
41
1
10
11.2447693497189
20
-0.0590594794568346
30
0
41
1
10
11.3330194930401
20
-0.07141803375211
30
0
41
1
10
11.4212698406347
20
-0.0836120943103538
30
0
41
1
10
11.5095201987995
20
-0.0956172032628046
30
0
41
1
10
11.5904163572961
20
-0.106430200063954
30
0
41
1
10
11.6639583206473
20
-0.116092935257029
30
0
41
1
10
11.7375002836592
20
-0.125599796090995
30
0
41
1
10
11.8183964430555
20
-0.13585713110848
30
0
41
1
10
11.9066467987419
20
-0.146725119309195
30
0
41
1
10
11.9948971544326
20
-0.15725171336112
30
0
41
1
10
12.0757933138145
20
-0.166573490730997
30
0
41
1
10
12.1493352768894
20
-0.174775069300324
30
0
41
0.999999999999999
10
12.2228772399642
20
-0.182734825440917
30
0
41
1
10
12.3037733993465
20
-0.1911713138349
30
0
41
1
10
12.364868799735
20
-0.197253466503525
30
0
41
1
10
12.3965474148936
20
-0.20032472646821
30
0
41
1
10
12.3988092448223
20
-0.200543588756602
30
0
0
SPLINE
5
C9
100
AcDbEntity
8
1
62
256
6
ByLayer
370
18
48
1
60
0
100
AcDbSpline
70
4
71
3
72
44
73
40
40
0
40
0
40
0
40
0
40
0.0802246335809294
40
0.0802246335809294
40
0.100280791976162
40
0.100280791976162
40
0.120336950371394
40
0.120336950371394
40
0.160449267161861
40
0.160449267161861
40
0.240673900742794
40
0.240673900742794
40
0.320898534323727
40
0.320898534323727
40
0.40112316790466
40
0.40112316790466
40
0.421179326299893
40
0.421179326299893
40
0.441235484695127
40
0.441235484695127
40
0.481347801485593
40
0.481347801485593
40
0.52146011827606
40
0.52146011827606
40
0.561572435066526
40
0.561572435066526
40
0.641797068647459
40
0.641797068647459
40
0.722021702228392
40
0.722021702228392
40
0.802246335809325
40
0.802246335809325
40
0.842358652599793
40
0.842358652599793
40
0.88247096939026
40
0.88247096939026
40
0.962695602971197
40
0.962695602971197
40
1
40
1
40
1
40
1
41
1
10
3.69938399999998
20
0.0188457037275498
30
0
41
1
10
3.81236901218082
20
-0.0465470602137827
30
0
41
1
10
3.92515168627338
20
-0.111683227802331
30
0
41
1
10
4.0663267918375
20
-0.192012914491897
30
0
41
1
10
4.09457157988399
20
-0.208024383667208
30
0
41
1
10
4.15109197676597
20
-0.239918805450884
30
0
41
1
10
4.17936180178259
20
-0.255797727231766
30
0
41
1
10
4.26394868594247
20
-0.303049731657325
30
0
41
1
10
4.32013085157286
20
-0.334104644480988
30
0
41
1
10
4.48822975660065
20
-0.425645345353644
30
0
41
1
10
4.59984619405716
20
-0.484261653243237
30
0
41
1
10
4.82291445864618
20
-0.595639656473878
30
0
41
1
10
4.93434794973498
20
-0.648429556108141
30
0
41
1
10
5.15772884556824
20
-0.747084464787889
30
0
41
1
10
5.26984871324635
20
-0.792714040514994
30
0
41
1
10
5.41101036383324
20
-0.844430921775967
30
0
41
1
10
5.43930075775609
20
-0.854510182769133
30
0
41
1
10
5.49578158262338
20
-0.874047568563157
30
0
41
1
10
5.52399750099715
20
-0.883515930723263
30
0
41
1
10
5.6085944827949
20
-0.910999469014399
30
0
41
1
10
5.66491158743921
20
-0.928105673564687
30
0
41
1
10
5.77751712597853
20
-0.959759389631586
30
0
41
1
10
5.83382967857347
20
-0.974286491409885
30
0
41
1
10
5.94660818374703
20
-1.00064452057154
30
0
41
1
10
6.00311488102903
20
-1.01249328675323
30
0
41
1
10
6.17264320881768
20
-1.04384163397691
30
0
41
1
10
6.28482968159491
20
-1.05901442560022
30
0
41
1
10
6.50830436294231
20
-1.07787375164534
30
0
41
1
10
6.61974221231105
20
-1.08151993234512
30
0
41
1
10
6.84278885963724
20
-1.07733851505634
30
0
41
1
10
6.95437866847809
20
-1.06951333395313
30
0
41
1
10
7.12239938035646
20
-1.04908365020756
30
0
41
1
10
7.17855151160256
20
-1.04083720146716
30
0
41
1
10
7.29126880246022
20
-1.02149529111233
30
0
41
1
10
7.34790145988202
20
-1.01037274732377
30
0
41
1
10
7.51687911847091
20
-0.973122419073889
30
0
41
1
10
7.62880536279346
20
-0.943038367605681
30
0
41
1
10
7.79225957940508
20
-0.891858755886204
30
0
41
1
10
7.84409912028445
20
-0.874602691406324
30
0
41
1
10
7.89593325337967
20
-0.856375033177017
30
0
0
SPLINE
5
CA
100
AcDbEntity
8
1
62
256
6
ByLayer
370
18
48
1
60
0
100
AcDbSpline
70
4
71
3
72
32
73
28
40
0
40
0
40
0
40
0
40
0.130510597602925
40
0.130510597602925
40
0.21745953784263
40
0.21745953784263
40
0.304408478082334
40
0.304408478082334
40
0.478306358561743
40
0.478306358561743
40
0.521780828681597
40
0.521780828681597
40
0.565255298801451
40
0.565255298801451
40
0.652204239041159
40
0.652204239041159
40
0.826102119520584
40
0.826102119520584
40
0.86957658964044
40
0.86957658964044
40
0.913051059760296
40
0.913051059760296
40
0.956525529880152
40
0.956525529880152
40
0.978262764940076
40
0.978262764940076
40
1
40
1
40
1
40
1
41
1
10
12.5465040857931
20
1.08000055919098
30
0
41
1
10
12.6310856528191
20
1.08001722765616
30
0
41
1
10
12.7156106788292
20
1.07671568864524
30
0
41
1
10
12.8566383482395
20
1.06574602907753
30
0
41
1
10
12.9130734486651
20
1.05990143888644
30
0
41
1
10
13.0261296085415
20
1.04529515659604
30
0
41
1
10
13.0825557126829
20
1.03655447581463
30
0
41
1
10
13.2516065813415
20
1.00613120588622
30
0
41
1
10
13.3641844776621
20
0.980321456138171
30
0
41
1
10
13.505255644792
20
0.941537150007861
30
0
41
1
10
13.533486193507
20
0.933452946428389
30
0
41
1
10
13.5899910517146
20
0.916636345911854
30
0
41
1
10
13.6182754597182
20
0.907900375921741
30
0
41
1
10
13.7029614634565
20
0.880813080954027
30
0
41
1
10
13.759267544311
20
0.8615525511577
30
0
41
1
10
13.9279013388005
20
0.800358213894469
30
0
41
1
10
14.0401047673389
20
0.755195598451849
30
0
41
1
10
14.1805509943801
20
0.693912109306069
30
0
41
1
10
14.2086579840543
20
0.681424775729056
30
0
41
1
10
14.2648828802025
20
0.65595360141586
30
0
41
1
10
14.29298146257
20
0.642941368099258
30
0
41
1
10
14.3492911519312
20
0.61656072925075
30
0
41
1
10
14.3775297629356
20
0.603236302875047
30
0
41
1
10
14.4197853674235
20
0.582705235023951
30
0
41
1
10
14.4337877453078
20
0.575668511463874
30
0
41
1
10
14.4621809287662
20
0.56205767138465
30
0
41
1
10
14.4765891548005
20
0.555508313528037
30
0
41
1
10
14.4917877291926
20
0.550147881448765
30
0
0
SPLINE
5
CB
100
AcDbEntity
8
1
62
256
6
ByLayer
370
18
48
1
60
0
100
AcDbSpline
70
4
71
3
72
28
73
24
40
0
40
0
40
0
40
0
40
0.0625000000000003
40
0.0625000000000003
40
0.125000000000001
40
0.125000000000001
40
0.250000000000001
40
0.250000000000001
40
0.375000000000002
40
0.375000000000002
40
0.437500000000003
40
0.437500000000003
40
0.500000000000003
40
0.500000000000003
40
0.625000000000004
40
0.625000000000004
40
0.750000000000005
40
0.750000000000005
40
0.875000000000006
40
0.875000000000006
40
0.937500000000003
40
0.937500000000003
40
1
40
1
40
1
40
1
41
1
10
14.4917877291926
20
0.550147881448765
30
0
41
1
10
14.5002714582377
20
0.537608084890138
30
0
41
1
10
14.5087415987108
20
0.525941197313301
30
0
41
1
10
14.5256722344145
20
0.504373096544555
30
0
41
1
10
14.534133026255
20
0.494407291267095
30
0
41
1
10
14.5595129588286
20
0.466099956322267
30
0
41
1
10
14.5764294000685
20
0.449299627721444
30
0
41
1
10
14.610254560712
20
0.416426394101023
30
0
41
1
10
14.6271649790531
20
0.400275826056088
30
0
41
1
10
14.6525056714354
20
0.377449050788641
30
0
41
1
10
14.6609596879082
20
0.370064057480676
30
0
41
1
10
14.6777859721425
20
0.355936774695607
30
0
41
1
10
14.6861528519728
20
0.349203363727582
30
0
41
1
10
14.7110838756895
20
0.330048730525505
30
0
41
1
10
14.7274925287454
20
0.318600665188882
30
0
41
1
10
14.7597228129495
20
0.297829240963893
30
0
41
1
10
14.7755568869199
20
0.28849934090465
30
0
41
1
10
14.8061073288264
20
0.272076148207475
30
0
41
1
10
14.820851541808
20
0.264990287694673
30
0
41
1
10
14.8411107108743
20
0.256090964780441
30
0
41
1
10
14.847545676251
20
0.253411393228475
30
0
41
1
10
14.8594144125505
20
0.24862963524879
30
0
41
1
10
14.8648505300434
20
0.246527382051454
30
0
41
1
10
14.8694967735336
20
0.244717630219014
30
0
0
SPLINE
5
CC
100
AcDbEntity
8
1
62
256
6
ByLayer
370
18
48
1
60
0
100
AcDbSpline
70
4
71
3
72
41
73
37
40
0
40
0
40
0
40
0
40
0.0627417408652383
40
0.0862698936897027
40
0.109798046514167
40
0.141168916946786
40
0.172539787379405
40
0.203910657812024
40
0.235281528244644
40
0.266652398677263
40
0.282337833893572
40
0.313708704326192
40
0.345079574758811
40
0.37645044519143
40
0.407821315624049
40
0.439192186056668
40
0.462720338881133
40
0.486248491705597
40
0.517619362138216
40
0.548990232570835
40
0.580361103003454
40
0.611731973436073
40
0.635260126260538
40
0.658788279085002
40
0.690159149517621
40
0.72153001995024
40
0.75290089038286
40
0.784271760815479
40
0.815642631248098
40
0.831328066464407
40
0.862698936897027
40
0.894069807329646
40
0.925440677762265
40
0.956811548194884
40
0.988182418627503
40
1
40
1
40
1
40
1
41
1
10
3.69938399999998
20
0.168019471964527
30
0
41
1
10
3.75821600185705
20
0.161354936882787
30
0
41
1
10
3.83910893345072
20
0.151864568750114
30
0
41
1
10
3.94206426719509
20
0.139275746452398
30
0
41
1
10
4.01560425065594
20
0.130093969850407
30
0
41
1
10
4.09649995921194
20
0.119762366200149
30
0
41
1
10
4.18475061611323
20
0.108221542822605
30
0
41
0.999999999999999
10
4.2730010994471
20
0.096433002106096
30
0
41
1
10
4.361251631904
20
0.0844105284849661
30
0
41
1
10
4.43479372730357
20
0.0742239254828974
30
0
41
1
10
4.50833582843361
20
0.0639579986252556
30
0
41
1
10
4.581877928154
20
0.053610852080908
30
0
41
1
10
4.6701284481671
20
0.0410823055651121
30
0
41
1
10
4.75837896811001
20
0.0284659710141568
30
0
41
1
10
4.84662948807121
20
0.0157826484336283
30
0
41
1
10
4.92752579803002
20
0.0041143883675261
30
0
41
1
10
5.00106789799449
20
-0.0065094221148172
30
0
41
1
10
5.0746099979589
20
-0.0171437460936374
30
0
41
1
10
5.15550630791734
20
-0.0287971211682532
30
0
41
1
10
5.24375682788019
20
-0.0414290461403937
30
0
41
1
10
5.33200734781579
20
-0.0539593793382948
30
0
41
1
10
5.4129036578633
20
-0.0653324563130298
30
0
41
1
10
5.48644575743824
20
-0.0755656716771966
30
0
41
1
10
5.55998785909
20
-0.0856992178078713
30
0
41
1
10
5.64088416063129
20
-0.0967001963292091
30
0
41
1
10
5.72913465717207
20
-0.108512415923656
30
0
41
1
10
5.81738514137706
20
-0.120075830245071
30
0
41
1
10
5.90563561452461
20
-0.131349157849513
30
0
41
1
10
5.9791776674584
20
-0.140494014709588
30
0
41
1
10
6.0527197152382
20
-0.149437718590889
30
0
41
1
10
6.12626175830374
20
-0.158175663979875
30
0
41
1
10
6.21451220383321
20
-0.168313981088346
30
0
41
1
10
6.30276264460858
20
-0.178086567449242
30
0
41
1
10
6.39101308202529
20
-0.187478551005427
30
0
41
1
10
6.46092818228294
20
-0.194593444803275
30
0
41
1
10
6.50142647054759
20
-0.198568999724756
30
0
41
1
10
6.51250794712138
20
-0.199646041918726
30
0
0
SPLINE
5
CD
100
AcDbEntity
8
1
62
256
6
ByLayer
370
18
48
1
60
0
100
AcDbSpline
70
4
71
3
72
45
73
41
40
0
40
0
40
0
40
0
40
0.125000000000006
40
0.125000000000006
40
0.187500000000007
40
0.187500000000007
40
0.250000000000008
40
0.250000000000008
40
0.312500000000008
40
0.312500000000008
40
0.375000000000009
40
0.375000000000009
40
0.500000000000007
40
0.500000000000007
40
0.531250000000008
40
0.531250000000008
40
0.562500000000009
40
0.562500000000009
40
0.625000000000011
40
0.625000000000011
40
0.687500000000014
40
0.687500000000014
40
0.703125000000013
40
0.703125000000013
40
0.718750000000013
40
0.750000000000013
40
0.750000000000013
40
0.812500000000012
40
0.812500000000012
40
0.828125000000012
40
0.828125000000012
40
0.843750000000011
40
0.843750000000011
40
0.875000000000009
40
0.875000000000009
40
0.937500000000005
40
0.937500000000005
40
0.968750000000002
40
0.968750000000002
40
1
40
1
40
1
40
1
41
1
10
3.69938400000001
20
0.0188457037275498
30
0
41
1
10
3.61708810933374
20
0.0428176312474591
30
0
41
1
10
3.53644958438153
20
0.0713135666836706
30
0
41
1
10
3.41797556519833
20
0.12073360356402
30
0
41
1
10
3.37891736287548
20
0.138319110519745
30
0
41
1
10
3.30208119060509
20
0.175501963235888
30
0
41
1
10
3.26424839950556
20
0.19512111110393
30
0
41
1
10
3.18977462254225
20
0.236390230226732
30
0
41
1
10
3.15303552073971
20
0.258106151162991
30
0
41
1
10
3.08154050109934
20
0.303082280702455
30
0
41
1
10
3.04672901120008
20
0.32636534644945
30
0
41
1
10
2.94517867834998
20
0.398436916329814
30
0
41
1
10
2.88128724225697
20
0.449435482900128
30
0
41
1
10
2.8068393880269
20
0.516490838364717
30
0
41
1
10
2.79222356893783
20
0.530068248062122
30
0
41
1
10
2.76357067966873
20
0.5575507911133
30
0
41
1
10
2.74948742064618
20
0.571503888324997
30
0
41
1
10
2.70854206448536
20
0.613462649597352
30
0
41
1
10
2.68304360967207
20
0.641486614089189
30
0
41
1
10
2.63589029204203
20
0.697358803359236
30
0
41
1
10
2.61423081537225
20
0.725208230849603
30
0
41
1
10
2.58986042414929
20
0.759717519975226
30
0
41
1
10
2.58512286259656
20
0.766604571851218
30
0
41
1
10
2.57601479411849
20
0.780213057706646
30
0
41
1
10
2.56286854729379
20
0.800426072416684
30
0
41
1
10
2.5512737244658
20
0.820017606757631
30
0
41
1
10
2.53019261119846
20
0.858305993766834
30
0
41
1
10
2.51893445844596
20
0.882643471693825
30
0
41
1
10
2.5086850814302
20
0.911306227718768
30
0
41
1
10
2.50682758593032
20
0.916950449969761
30
0
41
1
10
2.50351103130936
20
0.928053631912348
30
0
41
1
10
2.50205311528185
20
0.933513997860473
30
0
41
1
10
2.49834042523003
20
0.949399280627716
30
0
41
1
10
2.49672208445725
20
0.959402085236519
30
0
41
1
10
2.494382110083
20
0.987672564600672
30
0
41
1
10
2.49616001877084
20
1.00420834192022
30
0
41
1
10
2.50389811736602
20
1.025530624814
30
0
41
1
10
2.5073454268618
20
1.03207100271453
30
0
41
1
10
2.5158405440167
20
1.04379556480674
30
0
41
1
10
2.52089151171199
20
1.04900661132623
30
0
41
1
10
2.5267281352437
20
1.05359541684348
30
0
0
LINE
5
7F
100
AcDbEntity
8
1
62
256
6
ByLayer
370
18
48
1
60
0
100
AcDbLine
10
0
20
1.5
30
0
11
0
21
0
31
0
39
0
210
0
220
0
230
1
0
LINE
5
80
100
AcDbEntity
8
1
62
256
6
ByLayer
370
18
48
1
60
0
100
AcDbLine
10
0
20
0
30
0
11
0
21
-1.5
31
0
39
0
210
0
220
0
230
1
0
LINE
5
81
100
AcDbEntity
8
1
62
256
6
ByLayer
370
18
48
1
60
0
100
AcDbLine
10
14.491788
20
0.550148
30
0
11
14.491788
21
-1.040258
31
0
39
0
210
0
220
0
230
1
0
LINE
5
82
100
AcDbEntity
8
1
62
256
6
ByLayer
370
18
48
1
60
0
100
AcDbLine
10
3.699384
20
1.047773
30
0
11
3.699384
21
0.168019
31
0
39
0
210
0
220
0
230
1
0
LINE
5
83
100
AcDbEntity
8
1
62
256
6
ByLayer
370
13
48
1
60
0
100
AcDbLine
10
0.995444
20
1.08
30
0
11
0.995444
21
-1.08
31
0
39
0
210
0
220
0
230
1
0
LINE
5
84
100
AcDbEntity
8
1
62
256
6
ByLayer
370
18
48
1
60
0
100
AcDbLine
10
3.699384
20
0.168019
30
0
11
3.699384
21
0.018459
31
0
39
0
210
0
220
0
230
1
0
LINE
5
85
100
AcDbEntity
8
1
62
256
6
ByLayer
370
18
48
1
60
0
100
AcDbLine
10
3.3E-05
20
1.5
30
0
11
3.3E-05
21
-1.5
31
0
39
0
210
0
220
0
230
1
0
LINE
5
86
100
AcDbEntity
8
1
62
256
6
ByLayer
370
13
48
1
60
0
100
AcDbLine
10
0.495444
20
1.213975
30
0
11
0.495444
21
-1.213975
31
0
39
0
210
0
220
0
230
1
0
LINE
5
87
100
AcDbEntity
8
SK1
62
256
6
ByLayer
370
18
48
1
60
0
100
AcDbLine
10
-23.0046
20
1.326795
30
0
11
-23.0046
21
-1.326795
31
0
39
0
210
0
220
0
230
1
0
LINE
5
89
100
AcDbEntity
8
SK1
62
256
6
ByLayer
370
18
48
1
60
0
100
AcDbLine
10
0
20
1.5
30
0
11
0
21
0
31
0
39
0
210
0
220
0
230
1
0
LINE
5
8A
100
AcDbEntity
8
SK1
62
256
6
ByLayer
370
18
48
1
60
0
100
AcDbLine
10
0
20
0
30
0
11
0
21
-1.5
31
0
39
0
210
0
220
0
230
1
0
LINE
5
8B
100
AcDbEntity
8
SK1
62
256
6
ByLayer
370
18
48
1
60
0
100
AcDbLine
10
-22.7046
20
1.5
30
0
11
-22.7046
21
-1.5
31
0
39
0
210
0
220
0
230
1
0
LINE
5
8C
100
AcDbEntity
8
1
62
256
6
ByLayer
370
18
48
1
60
0
100
AcDbLine
10
0
20
-1.5
30
0
11
3.3E-05
21
-1.5
31
0
39
0
210
0
220
0
230
1
0
LINE
5
8D
100
AcDbEntity
8
1
62
256
6
ByLayer
370
18
48
1
60
0
100
AcDbLine
10
3.3E-05
20
1.5
30
0
11
0
21
1.5
31
0
39
0
210
0
220
0
230
1
0
LINE
5
8E
100
AcDbEntity
8
1
62
256
6
ByLayer
370
18
48
1
60
0
100
AcDbLine
10
14.9954
20
0
30
0
11
14.797467
21
0.424468
31
0
39
0
210
0
220
0
230
1
0
LINE
5
8F
100
AcDbEntity
8
1
62
256
6
ByLayer
370
18
48
1
60
0
100
AcDbLine
10
14.797467
20
-0.424468
30
0
11
14.9954
21
0
31
0
39
0
210
0
220
0
230
1
0
LINE
5
90
100
AcDbEntity
8
1
62
256
6
ByLayer
370
18
48
1
60
0
100
AcDbLine
10
0.995444
20
-1.08
30
0
11
6.67035
21
-1.08
31
0
39
0
210
0
220
0
230
1
0
LINE
5
91
100
AcDbEntity
8
1
62
256
6
ByLayer
370
18
48
1
60
0
100
AcDbLine
10
9.11778
20
-1.08
30
0
11
12.546896
21
-1.08
31
0
39
0
210
0
220
0
230
1
0
LINE
5
92
100
AcDbEntity
8
1
62
256
6
ByLayer
370
18
48
1
60
0
100
AcDbLine
10
12.546896
20
1.08
30
0
11
9.11778
21
1.08
31
0
39
0
210
0
220
0
230
1
0
LINE
5
93
100
AcDbEntity
8
1
62
256
6
ByLayer
370
18
48
1
60
0
100
AcDbLine
10
6.67035
20
1.08
30
0
11
0.995444
21
1.08
31
0
39
0
210
0
220
0
230
1
0
LINE
5
94
100
AcDbEntity
8
1
62
256
6
ByLayer
370
18
48
1
60
0
100
AcDbLine
10
0.495444
20
1.213975
30
0
11
3.3E-05
21
1.5
31
0
39
0
210
0
220
0
230
1
0
LINE
5
95
100
AcDbEntity
8
1
62
256
6
ByLayer
370
18
48
1
60
0
100
AcDbLine
10
3.3E-05
20
-1.5
30
0
11
0.495444
21
-1.213975
31
0
39
0
210
0
220
0
230
1
0
LINE
5
96
100
AcDbEntity
8
SK1
62
256
6
ByLayer
370
18
48
1
60
0
100
AcDbLine
10
-23.0046
20
-1.326795
30
0
11
-22.7046
21
-1.5
31
0
39
0
210
0
220
0
230
1
0
LINE
5
97
100
AcDbEntity
8
SK1
62
256
6
ByLayer
370
18
48
1
60
0
100
AcDbLine
10
-22.7046
20
1.5
30
0
11
-23.0046
21
1.326795
31
0
39
0
210
0
220
0
230
1
0
LINE
5
98
100
AcDbEntity
8
SK1
62
256
6
ByLayer
370
18
48
1
60
0
100
AcDbLine
10
-22.7046
20
-1.5
30
0
11
0
21
-1.5
31
0
39
0
210
0
220
0
230
1
0
LINE
5
99
100
AcDbEntity
8
SK1
62
256
6
ByLayer
370
18
48
1
60
0
100
AcDbLine
10
0
20
1.5
30
0
11
-22.7046
21
1.5
31
0
39
0
210
0
220
0
230
1
0
LINE
5
9A
100
AcDbEntity
8
4
62
256
6
ByLayer
370
18
48
0.05
60
0
100
AcDbLine
10
0
20
0
30
0
11
14.9954
21
0
31
0
39
0
210
0
220
0
230
1
0
LINE
5
9C
100
AcDbEntity
8
81
62
256
6
ByLayer
370
18
48
1
60
0
100
AcDbLine
10
14.9954
20
0
30
0
11
17.9954
21
0
31
0
39
0
210
0
220
0
230
1
0
LINE
5
9D
100
AcDbEntity
8
80
62
256
6
ByLayer
370
18
48
1
60
0
100
AcDbLine
10
0
20
0
30
0
11
-3
21
0
31
0
39
0
210
0
220
0
230
1
0
LINE
5
9E
100
AcDbEntity
8
SK4
62
256
6
ByLayer
370
18
48
0.05
60
0
100
AcDbLine
10
-26.0046
20
0
30
0
11
17.9954
21
0
31
0
39
0
210
0
220
0
230
1
0
LINE
5
A0
100
AcDbEntity
8
SK2
62
256
6
ByLayer
370
13
48
1
60
0
100
AcDbLine
10
-27.5046
20
-9
30
0
11
-27.5046
21
21.782741
31
0
39
0
210
0
220
0
230
1
0
LINE
5
A2
100
AcDbEntity
8
SK2
62
256
6
ByLayer
370
13
48
1
60
0
100
AcDbLine
10
-24.5921
20
-1.5
30
0
11
-29.5046
21
-1.5
31
0
39
0
210
0
220
0
230
1
0
LINE
5
A3
100
AcDbEntity
8
SK2
62
256
6
ByLayer
370
13
48
1
60
0
100
AcDbLine
10
-24.5921
20
1.5
30
0
11
-29.5046
21
1.5
31
0
39
0
210
0
220
0
230
1
0
LINE
5
A4
100
AcDbEntity
8
1
62
256
6
ByLayer
370
18
48
1
60
1
100
AcDbLine
10
-27.5046
20
-1.5
30
0
11
-27.043816
21
-4.999998
31
0
39
0
210
0
220
0
230
1
0
LINE
5
A5
100
AcDbEntity
8
1
62
256
6
ByLayer
370
18
48
1
60
1
100
AcDbLine
10
-27.043816
20
-4.999998
30
0
11
-27.965384
21
-5.000002
31
0
39
0
210
0
220
0
230
1
0
LINE
5
A6
100
AcDbEntity
8
1
62
256
6
ByLayer
370
18
48
1
60
1
100
AcDbLine
10
-27.965384
20
-5.000002
30
0
11
-27.5046
21
-1.5
31
0
39
0
210
0
220
0
230
1
0
LINE
5
A7
100
AcDbEntity
8
1
62
256
6
ByLayer
370
18
48
1
60
1
100
AcDbLine
10
-27.5046
20
1.5
30
0
11
-27.965384
21
4.999998
31
0
39
0
210
0
220
0
230
1
0
LINE
5
A8
100
AcDbEntity
8
1
62
256
6
ByLayer
370
18
48
1
60
1
100
AcDbLine
10
-27.965384
20
4.999998
30
0
11
-27.043816
21
5.000002
31
0
39
0
210
0
220
0
230
1
0
LINE
5
A9
100
AcDbEntity
8
1
62
256
6
ByLayer
370
18
48
1
60
1
100
AcDbLine
10
-27.043816
20
5.000002
30
0
11
-27.5046
21
1.5
31
0
39
0
210
0
220
0
230
1
0
LINE
5
AA
100
AcDbEntity
8
2
62
256
6
ByLayer
370
13
48
1
60
0
100
AcDbLine
10
20.4954
20
-8.58
30
0
11
20.4954
21
28.952855
31
0
39
0
210
0
220
0
230
1
0
LINE
5
AC
100
AcDbEntity
8
2
62
256
6
ByLayer
370
13
48
1
60
0
100
AcDbLine
10
16.5829
20
-1.08
30
0
11
22.4954
21
-1.08
31
0
39
0
210
0
220
0
230
1
0
LINE
5
AD
100
AcDbEntity
8
2
62
256
6
ByLayer
370
13
48
1
60
0
100
AcDbLine
10
16.5829
20
1.08
30
0
11
22.4954
21
1.08
31
0
39
0
210
0
220
0
230
1
0
LINE
5
AE
100
AcDbEntity
8
1
62
256
6
ByLayer
370
18
48
1
60
1
100
AcDbLine
10
20.4954
20
-1.08
30
0
11
20.956184
21
-4.579998
31
0
39
0
210
0
220
0
230
1
0
LINE
5
AF
100
AcDbEntity
8
1
62
256
6
ByLayer
370
18
48
1
60
1
100
AcDbLine
10
20.956184
20
-4.579998
30
0
11
20.034616
21
-4.580002
31
0
39
0
210
0
220
0
230
1
0
LINE
5
B0
100
AcDbEntity
8
1
62
256
6
ByLayer
370
18
48
1
60
1
100
AcDbLine
10
20.034616
20
-4.580002
30
0
11
20.4954
21
-1.08
31
0
39
0
210
0
220
0
230
1
0
LINE
5
B1
100
AcDbEntity
8
1
62
256
6
ByLayer
370
18
48
1
60
1
100
AcDbLine
10
20.4954
20
1.08
30
0
11
20.034616
21
4.579998
31
0
39
0
210
0
220
0
230
1
0
LINE
5
B2
100
AcDbEntity
8
1
62
256
6
ByLayer
370
18
48
1
60
1
100
AcDbLine
10
20.034616
20
4.579998
30
0
11
20.956184
21
4.580002
31
0
39
0
210
0
220
0
230
1
0
LINE
5
B3
100
AcDbEntity
8
1
62
256
6
ByLayer
370
18
48
1
60
1
100
AcDbLine
10
20.956184
20
4.580002
30
0
11
20.4954
21
1.08
31
0
39
0
210
0
220
0
230
1
0
LINE
5
B4
100
AcDbEntity
8
SK2
62
256
6
ByLayer
370
13
48
1
60
0
100
AcDbLine
10
15.666306
20
-1.438764
30
0
11
22.750445
21
-16.630748
31
0
39
0
210
0
220
0
230
1
0
LINE
5
B5
100
AcDbEntity
8
SK2
62
256
6
ByLayer
370
13
48
1
60
0
100
AcDbLine
10
15.666306
20
1.438764
30
0
11
22.750445
21
16.630748
31
0
39
0
210
0
220
0
230
1
0
LINE
5
B6
100
AcDbEntity
8
1
62
256
6
ByLayer
370
18
48
1
60
1
100
AcDbLine
10
21.905209
20
-14.818132
30
0
11
24.777242
21
-12.765394
31
0
39
0
210
0
220
0
230
1
0
LINE
5
B7
100
AcDbEntity
8
1
62
256
6
ByLayer
370
18
48
1
60
1
100
AcDbLine
10
24.777242
20
-12.765394
30
0
11
25.210671
21
-13.578675
31
0
39
0
210
0
220
0
230
1
0
LINE
5
B8
100
AcDbEntity
8
1
62
256
6
ByLayer
370
18
48
1
60
1
100
AcDbLine
10
25.210671
20
-13.578675
30
0
11
21.905209
21
-14.818132
31
0
39
0
210
0
220
0
230
1
0
LINE
5
B9
100
AcDbEntity
8
1
62
256
6
ByLayer
370
18
48
1
60
1
100
AcDbLine
10
21.905209
20
14.818132
30
0
11
25.210668
21
13.578677
31
0
39
0
210
0
220
0
230
1
0
LINE
5
BA
100
AcDbEntity
8
1
62
256
6
ByLayer
370
18
48
1
60
1
100
AcDbLine
10
25.210668
20
13.578677
30
0
11
24.777245
21
12.765392
31
0
39
0
210
0
220
0
230
1
0
LINE
5
BB
100
AcDbEntity
8
1
62
256
6
ByLayer
370
18
48
1
60
1
100
AcDbLine
10
24.777245
20
12.765392
30
0
11
21.905209
21
14.818132
31
0
39
0
210
0
220
0
230
1
0
LINE
5
D2
100
AcDbEntity
8
1
62
256
6
ByLayer
370
18
48
1
60
1
100
AcDbLine
10
-27.5046
20
-1.5
30
0
11
-27.043816
21
-4.999998
31
0
39
0
210
0
220
0
230
1
0
LINE
5
D3
100
AcDbEntity
8
1
62
256
6
ByLayer
370
18
48
1
60
1
100
AcDbLine
10
-27.043816
20
-4.999998
30
0
11
-27.965384
21
-5.000002
31
0
39
0
210
0
220
0
230
1
0
LINE
5
D4
100
AcDbEntity
8
1
62
256
6
ByLayer
370
18
48
1
60
1
100
AcDbLine
10
-27.965384
20
-5.000002
30
0
11
-27.5046
21
-1.5
31
0
39
0
210
0
220
0
230
1
0
LINE
5
D6
100
AcDbEntity
8
1
62
256
6
ByLayer
370
18
48
1
60
1
100
AcDbLine
10
-27.5046
20
1.5
30
0
11
-27.965384
21
4.999998
31
0
39
0
210
0
220
0
230
1
0
LINE
5
D7
100
AcDbEntity
8
1
62
256
6
ByLayer
370
18
48
1
60
1
100
AcDbLine
10
-27.965384
20
4.999998
30
0
11
-27.043816
21
5.000002
31
0
39
0
210
0
220
0
230
1
0
LINE
5
D8
100
AcDbEntity
8
1
62
256
6
ByLayer
370
18
48
1
60
1
100
AcDbLine
10
-27.043816
20
5.000002
30
0
11
-27.5046
21
1.5
31
0
39
0
210
0
220
0
230
1
0
LINE
5
DC
100
AcDbEntity
8
1
62
256
6
ByLayer
370
18
48
1
60
1
100
AcDbLine
10
20.4954
20
-1.08
30
0
11
20.956184
21
-4.579998
31
0
39
0
210
0
220
0
230
1
0
LINE
5
DD
100
AcDbEntity
8
1
62
256
6
ByLayer
370
18
48
1
60
1
100
AcDbLine
10
20.956184
20
-4.579998
30
0
11
20.034616
21
-4.580002
31
0
39
0
210
0
220
0
230
1
0
LINE
5
DE
100
AcDbEntity
8
1
62
256
6
ByLayer
370
18
48
1
60
1
100
AcDbLine
10
20.034616
20
-4.580002
30
0
11
20.4954
21
-1.08
31
0
39
0
210
0
220
0
230
1
0
LINE
5
E0
100
AcDbEntity
8
1
62
256
6
ByLayer
370
18
48
1
60
1
100
AcDbLine
10
20.4954
20
1.08
30
0
11
20.034616
21
4.579998
31
0
39
0
210
0
220
0
230
1
0
LINE
5
E1
100
AcDbEntity
8
1
62
256
6
ByLayer
370
18
48
1
60
1
100
AcDbLine
10
20.034616
20
4.579998
30
0
11
20.956184
21
4.580002
31
0
39
0
210
0
220
0
230
1
0
LINE
5
E2
100
AcDbEntity
8
1
62
256
6
ByLayer
370
18
48
1
60
1
100
AcDbLine
10
20.956184
20
4.580002
30
0
11
20.4954
21
1.08
31
0
39
0
210
0
220
0
230
1
0
LINE
5
E5
100
AcDbEntity
8
1
62
256
6
ByLayer
370
18
48
1
60
1
100
AcDbLine
10
21.905209
20
-14.818132
30
0
11
24.777242
21
-12.765394
31
0
39
0
210
0
220
0
230
1
0
LINE
5
E6
100
AcDbEntity
8
1
62
256
6
ByLayer
370
18
48
1
60
1
100
AcDbLine
10
24.777242
20
-12.765394
30
0
11
25.210671
21
-13.578675
31
0
39
0
210
0
220
0
230
1
0
LINE
5
E7
100
AcDbEntity
8
1
62
256
6
ByLayer
370
18
48
1
60
1
100
AcDbLine
10
25.210671
20
-13.578675
30
0
11
21.905209
21
-14.818132
31
0
39
0
210
0
220
0
230
1
0
LINE
5
E9
100
AcDbEntity
8
1
62
256
6
ByLayer
370
18
48
1
60
1
100
AcDbLine
10
21.905209
20
14.818132
30
0
11
25.210668
21
13.578677
31
0
39
0
210
0
220
0
230
1
0
LINE
5
EA
100
AcDbEntity
8
1
62
256
6
ByLayer
370
18
48
1
60
1
100
AcDbLine
10
25.210668
20
13.578677
30
0
11
24.777245
21
12.765392
31
0
39
0
210
0
220
0
230
1
0
LINE
5
EB
100
AcDbEntity
8
1
62
256
6
ByLayer
370
18
48
1
60
1
100
AcDbLine
10
24.777245
20
12.765392
30
0
11
21.905209
21
14.818132
31
0
39
0
210
0
220
0
230
1
0
MTEXT
5
CE
100
AcDbEntity
8
SK2
62
256
6
ByLayer
370
18
48
1
60
0
100
AcDbMText
10
-28.845714
20
6.658437
30
0
210
0
220
0
230
1
1
%%c
40
3
41
0
44
1.084337
50
90
71
7
72
5
7
iso_b_vert
0
MTEXT
5
D1
100
AcDbEntity
8
SK2
62
256
6
ByLayer
370
18
48
1
60
0
100
AcDbMText
10
-28.845714
20
12.635
30
0
210
0
220
0
230
1
1
\W0.7468;3.000
40
3
41
0
44
1.084337
50
90
71
7
72
5
7
iso_b_vert
0
MTEXT
5
DA
100
AcDbEntity
8
2
62
256
6
ByLayer
370
18
48
1
60
0
100
AcDbMText
10
19.154286
20
14.578437
30
0
210
0
220
0
230
1
1
%%c
40
3
41
0
44
1.084337
50
90
71
7
72
5
7
iso_b_vert
0
MTEXT
5
DB
100
AcDbEntity
8
2
62
256
6
ByLayer
370
18
48
1
60
0
100
AcDbMText
10
19.154286
20
20.555
30
0
210
0
220
0
230
1
1
\W0.6864;2.160
40
3
41
0
44
1.084337
50
90
71
7
72
5
7
iso_b_vert
0
MTEXT
5
E4
100
AcDbEntity
8
SK2
62
256
6
ByLayer
370
18
48
1
60
0
100
AcDbMText
10
28.062686
20
-2.114886
30
0
210
0
220
0
230
1
1
\W0.6747;130%%d
40
3
41
0
44
1.084337
50
0
71
7
72
5
7
iso_b_vert
0
MTEXT
5
ED
100
AcDbEntity
8
SK6
62
256
6
ByLayer
370
18
48
1
60
0
100
AcDbMText
10
-31.633567
20
-48.114886
30
0
210
0
220
0
230
1
1
\W0.7647;462.1-0216-009A0-XM X0BU
40
3
41
0
44
1.084337
50
0
71
7
72
5
7
iso_b_vert
0
HATCH
5
D5
100
AcDbEntity
8
SK2
62
256
6
ByLayer
370
13
48
1
60
0
100
AcDbHatch
10
0
20
0
30
0
210
0
220
0
230
1
2
ANSI31
70
0
71
0
91
1
92
5
93
3
72
1
10
-27.5046
20
-1.5
11
-27.0438162584472
21
-4.99999830744682
72
1
10
-27.0438162584472
20
-4.99999830744682
11
-27.9653837415528
21
-5.00000169255318
72
1
10
-27.9653837415528
20
-5.00000169255318
11
-27.5046
21
-1.5
97
0
75
0
76
1
52
0
41
0.0062
77
0
78
1
53
45
43
0
44
0
45
-0.0139193969876572
46
0.0139193969876572
79
0
47
0
98
1
10
0
20
0
0
HATCH
5
D9
100
AcDbEntity
8
SK2
62
256
6
ByLayer
370
13
48
1
60
0
100
AcDbHatch
10
0
20
0
30
0
210
0
220
0
230
1
2
ANSI31
70
0
71
0
91
1
92
5
93
3
72
1
10
-27.5046
20
1.5
11
-27.9653837415528
21
4.99999830744682
72
1
10
-27.9653837415528
20
4.99999830744682
11
-27.0438162584472
21
5.00000169255318
72
1
10
-27.0438162584472
20
5.00000169255318
11
-27.5046
21
1.5
97
0
75
0
76
1
52
0
41
0.0062
77
0
78
1
53
45
43
0
44
0
45
-0.0139193969876572
46
0.0139193969876572
79
0
47
0
98
1
10
0
20
0
0
HATCH
5
DF
100
AcDbEntity
8
2
62
256
6
ByLayer
370
13
48
1
60
0
100
AcDbHatch
10
0
20
0
30
0
210
0
220
0
230
1
2
ANSI31
70
0
71
0
91
1
92
5
93
3
72
1
10
20.4954
20
-1.08000000000001
11
20.9561837415528
21
-4.57999830744683
72
1
10
20.9561837415528
20
-4.57999830744683
11
20.0346162584472
21
-4.5800016925532
72
1
10
20.0346162584472
20
-4.5800016925532
11
20.4954
21
-1.08000000000001
97
0
75
0
76
1
52
0
41
0.0062
77
0
78
1
53
45
43
0
44
0
45
-0.0139193969876572
46
0.0139193969876572
79
0
47
0
98
1
10
0
20
0
0
HATCH
5
E3
100
AcDbEntity
8
2
62
256
6
ByLayer
370
13
48
1
60
0
100
AcDbHatch
10
0
20
0
30
0
210
0
220
0
230
1
2
ANSI31
70
0
71
0
91
1
92
5
93
3
72
1
10
20.4954
20
1.08000000000001
11
20.0346162584472
21
4.57999830744683
72
1
10
20.0346162584472
20
4.57999830744683
11
20.9561837415528
21
4.5800016925532
72
1
10
20.9561837415528
20
4.5800016925532
11
20.4954
21
1.08000000000001
97
0
75
0
76
1
52
0
41
0.0062
77
0
78
1
53
45
43
0
44
0
45
-0.0139193969876572
46
0.0139193969876572
79
0
47
0
98
1
10
0
20
0
0
HATCH
5
E8
100
AcDbEntity
8
SK2
62
256
6
ByLayer
370
13
48
1
60
0
100
AcDbHatch
10
0
20
0
30
0
210
0
220
0
230
1
2
ANSI31
70
0
71
0
91
1
92
5
93
3
72
1
10
21.9052085794604
20
-14.8181323180492
11
24.7772418553693
21
-12.765393983365
72
1
10
24.7772418553693
20
-12.765393983365
11
25.2106706127348
21
-13.5786750775861
72
1
10
25.2106706127348
20
-13.5786750775861
11
21.9052085794604
21
-14.8181323180492
97
0
75
0
76
1
52
0
41
0.0062
77
0
78
1
53
45
43
0
44
0
45
-0.0139193969876572
46
0.0139193969876572
79
0
47
0
98
1
10
0
20
0
0
HATCH
5
EC
100
AcDbEntity
8
SK2
62
256
6
ByLayer
370
13
48
1
60
0
100
AcDbHatch
10
0
20
0
30
0
210
0
220
0
230
1
2
ANSI31
70
0
71
0
91
1
92
5
93
3
72
1
10
21.9052085794604
20
14.8181323180492
11
25.2106676253807
21
13.5786766696479
72
1
10
25.2106676253807
20
13.5786766696479
11
24.7772448427234
21
12.7653923913032
72
1
10
24.7772448427234
20
12.7653923913032
11
21.9052085794604
21
14.8181323180492
97
0
75
0
76
1
52
0
41
0.0062
77
0
78
1
53
45
43
0
44
0
45
-0.0139193969876572
46
0.0139193969876572
79
0
47
0
98
1
10
0
20
0
0
DIMENSION
5
F0
100
AcDbEntity
8
SK2
62
256
6
ByLayer
370
18
48
1
60
0
100
AcDbDimension
2
_U0
10
14.9954
20
-39.16957
30
0
11
-4.0046
21
-39.16957
31
0
70
32
71
1
72
1
41
1
210
0
220
0
230
1
3
Standard
100
AcDbAlignedDimension
13
-23.0046
23
1.5
33
0
14
14.9954
24
1.08
34
0
50
0
100
AcDbRotatedDimension
1001
ACAD
1000
DSTYLE
1002
{
1070
   371
1070
    13
1070
   372
1070
    13
1070
     3
1000

1070
   170
1070
     0
1070
   144
1040
1.0
1070
   277
1070
     2
1070
   284
1070
     8
1070
   278
1070
    46
1070
   146
1040
1.166667
1070
   345
1005
16
1070
   347
1005
16
1070
   346
1005
16
1070
   344
1005
0
1070
   343
1005
0
1070
   172
1070
     1
1070
    76
1070
     0
1070
    75
1070
     0
1070
   282
1070
     0
1070
   281
1070
     0
1070
    71
1070
     0
1070
    74
1070
     0
1070
   279
1070
     0
1070
   173
1070
     1
1070
   340
1005
CF
1070
   271
1070
     2
1070
   272
1070
     2
1070
    77
1070
     1
1070
    73
1070
     1
1070
   171
1070
     3
1070
   274
1070
     4
1070
   177
1070
     2
1070
   176
1070
     2
1070
   178
1070
     2
1070
    78
1070
     8
1070
    48
1040
-0.1
1070
    41
1040
3.5
1070
   147
1040
1.5
1070
    42
1040
1.5875
1070
    44
1040
2.0
1070
   140
1040
3.0
1002
}
1001
ACAD_DSTYLE_DIM_LINETYPE
1070
   380
1005
16
1001
ACAD_DSTYLE_DIM_EXT1_LINETYPE
1070
   381
1005
16
1001
ACAD_DSTYLE_DIM_EXT2_LINETYPE
1070
   382
1005
16
0
DIMENSION
5
109
100
AcDbEntity
8
SK2
62
256
6
ByLayer
370
18
48
1
60
0
100
AcDbDimension
2
_U1
10
5.7354
20
-22.58
30
0
11
31.066829
21
-22.58
31
0
70
32
71
1
72
1
41
1
210
0
220
0
230
1
3
Standard
100
AcDbAlignedDimension
13
14.9954
23
1.08
33
0
14
5.7354
24
0
34
0
50
0
100
AcDbRotatedDimension
1001
ACAD
1000
DSTYLE
1002
{
1070
   371
1070
    13
1070
   372
1070
    13
1070
     3
1000

1070
   170
1070
     0
1070
   144
1040
1.0
1070
   277
1070
     2
1070
   284
1070
     8
1070
   278
1070
    46
1070
   146
1040
1.166667
1070
   345
1005
16
1070
   347
1005
16
1070
   346
1005
16
1070
   344
1005
0
1070
   343
1005
0
1070
   172
1070
     1
1070
    76
1070
     0
1070
    75
1070
     0
1070
   282
1070
     0
1070
   281
1070
     0
1070
    71
1070
     0
1070
    74
1070
     0
1070
   279
1070
     0
1070
   173
1070
     1
1070
   340
1005
CF
1070
   271
1070
     2
1070
   272
1070
     2
1070
    77
1070
     1
1070
    73
1070
     1
1070
   171
1070
     3
1070
   274
1070
     4
1070
   177
1070
     2
1070
   176
1070
     2
1070
   178
1070
     2
1070
    78
1070
     8
1070
    48
1040
-0.1
1070
    41
1040
3.5
1070
   147
1040
1.5
1070
    42
1040
1.5875
1070
    44
1040
2.0
1070
   140
1040
3.0
1002
}
1001
ACAD_DSTYLE_DIM_LINETYPE
1070
   380
1005
16
1001
ACAD_DSTYLE_DIM_EXT1_LINETYPE
1070
   381
1005
16
1001
ACAD_DSTYLE_DIM_EXT2_LINETYPE
1070
   382
1005
16
0
DIMENSION
5
123
100
AcDbEntity
8
SK2
62
256
6
ByLayer
370
18
48
1
60
0
100
AcDbDimension
2
_U2
10
2.4954
20
-30.66957
30
0
11
8.7454
21
-30.66957
31
0
70
32
71
1
72
1
41
1
210
0
220
0
230
1
3
Standard
100
AcDbAlignedDimension
13
14.9954
23
1.08
33
0
14
2.4954
24
0
34
0
50
0
100
AcDbRotatedDimension
1001
ACAD
1000
DSTYLE
1002
{
1070
   371
1070
    13
1070
   372
1070
    13
1070
     3
1000

1070
   170
1070
     0
1070
   144
1040
1.0
1070
   277
1070
     2
1070
   284
1070
     8
1070
   278
1070
    46
1070
   146
1040
1.166667
1070
   345
1005
16
1070
   347
1005
16
1070
   346
1005
16
1070
   344
1005
0
1070
   343
1005
0
1070
   172
1070
     1
1070
    76
1070
     0
1070
    75
1070
     0
1070
   282
1070
     0
1070
   281
1070
     0
1070
    71
1070
     0
1070
    74
1070
     0
1070
   279
1070
     0
1070
   173
1070
     1
1070
   340
1005
CF
1070
   271
1070
     2
1070
   272
1070
     2
1070
    77
1070
     1
1070
    73
1070
     1
1070
   171
1070
     3
1070
   274
1070
     4
1070
   177
1070
     2
1070
   176
1070
     2
1070
   178
1070
     2
1070
    78
1070
     8
1070
    48
1040
-0.1
1070
    41
1040
3.5
1070
   147
1040
1.5
1070
    42
1040
1.5875
1070
    44
1040
2.0
1070
   140
1040
3.0
1002
}
1001
ACAD_DSTYLE_DIM_LINETYPE
1070
   380
1005
16
1001
ACAD_DSTYLE_DIM_EXT1_LINETYPE
1070
   381
1005
16
1001
ACAD_DSTYLE_DIM_EXT2_LINETYPE
1070
   382
1005
16
0
DIMENSION
5
13C
100
AcDbEntity
8
SK2
62
256
6
ByLayer
370
18
48
1
60
0
100
AcDbDimension
2
_U3
10
0
20
11.66957
30
0
11
-11.5023
21
11.66957
31
0
70
32
71
1
72
1
41
1
210
0
220
0
230
1
3
Standard
100
AcDbAlignedDimension
13
-23.0046
23
0
33
0
14
0
24
0
34
0
50
0
100
AcDbRotatedDimension
1001
ACAD
1000
DSTYLE
1002
{
1070
   371
1070
    13
1070
   372
1070
    13
1070
     3
1000

1070
   170
1070
     0
1070
   144
1040
1.0
1070
   277
1070
     2
1070
   284
1070
     8
1070
   278
1070
    46
1070
   146
1040
1.166667
1070
   345
1005
16
1070
   347
1005
16
1070
   346
1005
16
1070
   344
1005
0
1070
   343
1005
0
1070
   172
1070
     1
1070
    76
1070
     0
1070
    75
1070
     0
1070
   282
1070
     0
1070
   281
1070
     0
1070
    71
1070
     0
1070
    74
1070
     0
1070
   279
1070
     0
1070
   173
1070
     1
1070
   340
1005
CF
1070
   271
1070
     2
1070
   272
1070
     2
1070
    77
1070
     1
1070
    73
1070
     1
1070
   171
1070
     3
1070
   274
1070
     4
1070
   177
1070
     2
1070
   176
1070
     2
1070
   178
1070
     2
1070
    78
1070
     8
1070
    48
1040
-0.1
1070
    41
1040
3.5
1070
   147
1040
1.5
1070
    42
1040
1.5875
1070
    44
1040
2.0
1070
   140
1040
3.0
1002
}
1001
ACAD_DSTYLE_DIM_LINETYPE
1070
   380
1005
16
1001
ACAD_DSTYLE_DIM_EXT1_LINETYPE
1070
   381
1005
16
1001
ACAD_DSTYLE_DIM_EXT2_LINETYPE
1070
   382
1005
16
0
DIMENSION
5
154
100
AcDbEntity
8
2
62
256
6
ByLayer
370
18
48
1
60
0
100
AcDbDimension
2
_U4
10
0
20
11.66957
30
0
11
7.4977
21
11.66957
31
0
70
32
71
1
72
1
41
1
210
0
220
0
230
1
3
Standard
100
AcDbAlignedDimension
13
14.9954
23
1.08
33
0
14
0
24
0
34
0
50
0
100
AcDbRotatedDimension
1001
ACAD
1000
DSTYLE
1002
{
1070
   371
1070
    13
1070
   372
1070
    13
1070
     3
1000

1070
   170
1070
     0
1070
   144
1040
1.0
1070
   277
1070
     2
1070
   284
1070
     8
1070
   278
1070
    46
1070
   146
1040
1.166667
1070
   345
1005
16
1070
   347
1005
16
1070
   346
1005
16
1070
   344
1005
0
1070
   343
1005
0
1070
   172
1070
     1
1070
    76
1070
     0
1070
    75
1070
     0
1070
   282
1070
     0
1070
   281
1070
     0
1070
    71
1070
     0
1070
    74
1070
     0
1070
   279
1070
     0
1070
   173
1070
     1
1070
   340
1005
CF
1070
   271
1070
     2
1070
   272
1070
     2
1070
    77
1070
     1
1070
    73
1070
     1
1070
   171
1070
     3
1070
   274
1070
     4
1070
   177
1070
     2
1070
   176
1070
     2
1070
   178
1070
     2
1070
    78
1070
     8
1070
    48
1040
-0.1
1070
    41
1040
3.5
1070
   147
1040
1.5
1070
    42
1040
1.5875
1070
    44
1040
2.0
1070
   140
1040
3.0
1002
}
1001
ACAD_DSTYLE_DIM_LINETYPE
1070
   380
1005
16
1001
ACAD_DSTYLE_DIM_EXT1_LINETYPE
1070
   381
1005
16
1001
ACAD_DSTYLE_DIM_EXT2_LINETYPE
1070
   382
1005
16
0
ENDSEC
0
SECTION
2
OBJECTS
0
DICTIONARY
5
1dd
330
0
100
AcDbDictionary
280
0
281
1
3
ACAD_GROUP
350
1de
3
ACAD_MLINESTYLE
350
1df
0
DICTIONARY
5
1de
330
0
100
AcDbDictionary
280
0
281
1
0
DICTIONARY
5
1df
330
0
100
AcDbDictionary
280
0
281
1
3
Standard
350
18
0
MLINESTYLE
5
18
330
1df
100
AcDbMlineStyle
2
Standard
70
0
3

62
256
51
90
52
90
71
2
49
-0.5
62
256
6
ByLayer
49
0.5
62
256
6
ByLayer
0
RASTERVARIABLES
5
1cb
330

100
AcDbRasterVariables
90
0
70
1
71
1
72
1
0
ENDSEC
0
EOF
