0
SECTION
2
HEADER
9
$ACADVER
1
AC1015
9
$DWGCODEPAGE
3
ANSI_1252
9
$HANDSEED
5
1ea
9
$ANGBASE
50
0
9
$ANGDIR
70
0
9
$ATTMODE
70
1
9
$AUNITS
70
0
9
$AUPREC
70
0
9
$CECOLOR
62
256
9
$CELTSCALE
40
1
9
$CELTYPE
6
ByLayer
9
$CELWEIGHT
370
18
9
$CLAYER
8
0
9
$CMLJUST
70
0
9
$CMLSCALE
40
1
9
$CMLSTYLE
2
Standard
9
$DIMSTYLE
2
Standard
9
$TEXTSIZE
40
0.2
9
$TEXTSTYLE
7
Standard
9
$LUNITS
70
2
9
$LUPREC
70
4
9
$EXTNAMES
290
1
9
$INSUNITS
70
4
9
$LTSCALE
40
1
9
$LWDISPLAY
290
1
9
$PDMODE
70
0
9
$PDSIZE
40
0
9
$PLINEGEN
70
0
0
ENDSEC
0
SECTION
2
CLASSES
0
CLASS
1
RASTERVARIABLES
2
AcDbRasterVariables
3
ISM
90
0
280
0
281
0
0
ENDSEC
0
SECTION
2
TABLES
0
TABLE
2
VPORT
5
1e0
100
AcDbSymbolTable
0
VPORT
5
1
100
AcDbSymbolTableRecord
100
AcDbViewportTableRecord
2
*Active
70
0
10
0
20
0
11
1
21
1
12
-1
22
1
13
0
23
0
14
0.5
24
0.5
15
10
25
10
16
0
26
0
36
1
17
0
27
0
37
0
0
ENDTAB
0
TABLE
2
LTYPE
5
1e1
100
AcDbSymbolTable
0
LTYPE
5
14
100
AcDbSymbolTableRecord
100
AcDbLinetypeTableRecord
70
0
2
ByBlock
3

72
65
73
0
40
0
0
LTYPE
5
15
100
AcDbSymbolTableRecord
100
AcDbLinetypeTableRecord
70
0
2
ByLayer
3

72
65
73
0
40
0
0
LTYPE
5
16
100
AcDbSymbolTableRecord
100
AcDbLinetypeTableRecord
70
0
2
Continuous
3
Solid line
72
65
73
0
40
0
0
LTYPE
5
6E
100
AcDbSymbolTableRecord
100
AcDbLinetypeTableRecord
70
0
2
CENTER
3
____ _ ____ _ ____ _ ____
72
65
73
4
40
47.5
49
22
74
0
49
-8.5
74
0
49
8.5
74
0
49
-8.5
74
0
0
LTYPE
5
6F
100
AcDbSymbolTableRecord
100
AcDbLinetypeTableRecord
70
0
2
DASHED
3
__ __ __ __ __ __ __ __ __
72
65
73
2
40
25.72
49
12.86
74
0
49
-12.86
74
0
0
ENDTAB
0
TABLE
2
LAYER
5
1e2
100
AcDbSymbolTable
0
LAYER
5
10
100
AcDbSymbolTableRecord
100
AcDbLayerTableRecord
2
0
70
0
62
7
6
Continuous
290
1
370
-3
390
0
0
LAYER
5
71
100
AcDbSymbolTableRecord
100
AcDbLayerTableRecord
2
80
70
0
62
-6
6
Continuous
290
1
370
-3
390
0
0
LAYER
5
73
100
AcDbSymbolTableRecord
100
AcDbLayerTableRecord
2
81
70
0
62
-3
6
Continuous
290
1
370
-3
390
0
0
LAYER
5
75
100
AcDbSymbolTableRecord
100
AcDbLayerTableRecord
2
1
70
0
62
4
6
Continuous
290
1
370
-3
390
0
0
LAYER
5
9B
100
AcDbSymbolTableRecord
100
AcDbLayerTableRecord
2
4
70
0
62
-2
6
CENTER
290
1
370
-3
390
0
0
LAYER
5
AB
100
AcDbSymbolTableRecord
100
AcDbLayerTableRecord
2
2
70
0
62
7
6
Continuous
290
1
370
-3
390
0
0
LAYER
5
F3
100
AcDbSymbolTableRecord
100
AcDbLayerTableRecord
2
Defpoints
70
0
62
7
6
Continuous
290
0
370
-3
390
0
0
LAYER
5
1cc
100
AcDbSymbolTableRecord
100
AcDbLayerTableRecord
2
SK1
70
0
62
4
6
Continuous
290
1
370
-3
390
0
0
LAYER
5
1cd
100
AcDbSymbolTableRecord
100
AcDbLayerTableRecord
2
SK4
70
0
62
2
6
CENTER
290
1
370
-3
390
0
0
LAYER
5
1ce
100
AcDbSymbolTableRecord
100
AcDbLayerTableRecord
2
SK2
70
0
62
7
6
Continuous
290
1
370
-3
390
0
0
LAYER
5
1cf
100
AcDbSymbolTableRecord
100
AcDbLayerTableRecord
2
SK6
70
0
62
5
6
Continuous
290
1
370
-3
390
0
0
ENDTAB
0
TABLE
2
STYLE
5
1e3
100
AcDbSymbolTable
0
STYLE
5
11
100
AcDbSymbolTableRecord
100
AcDbTextStyleTableRecord
2
Standard
3
txt
70
0
71
0
40
0
41
1
42
0
50
0
0
STYLE
5
CF
100
AcDbSymbolTableRecord
100
AcDbTextStyleTableRecord
2
iso_b_vert
3
simplex.shx
70
0
71
0
40
0
41
1
42
0
50
0
0
STYLE
5
D0
100
AcDbSymbolTableRecord
100
AcDbTextStyleTableRecord
2
DWGDirectTextStyle
3
simplex
70
0
71
0
40
0
41
1
42
0
50
0
0
ENDTAB
0
TABLE
2
DIMSTYLE
5
1e4
100
AcDbSymbolTable
100
AcDbDimStyleTable
0
DIMSTYLE
105
27
100
AcDbSymbolTableRecord
100
AcDbDimStyleTableRecord
2
Standard
70
0
3
<>
41
0.18
42
0.0625
44
0.18
140
0.18
147
0.09
73
0
74
0
77
1
271
2
275
0
278
52
280
0
340
11
0
ENDTAB
0
TABLE
2
VIEW
5
1e5
100
AcDbSymbolTable
0
ENDTAB
0
TABLE
2
UCS
5
1e6
100
AcDbSymbolTable
0
ENDTAB
0
TABLE
2
APPID
5
1e7
100
AcDbSymbolTable
0
APPID
5
12
100
AcDbSymbolTableRecord
100
AcDbRegAppTableRecord
2
ACAD
70
0
0
APPID
5
EF
100
AcDbSymbolTableRecord
100
AcDbRegAppTableRecord
2
ACAD_DSTYLE_DIMBREAK
70
0
0
APPID
5
18B
100
AcDbSymbolTableRecord
100
AcDbRegAppTableRecord
2
ACAD_DSTYLE_DIM_LINETYPE
70
0
0
APPID
5
18C
100
AcDbSymbolTableRecord
100
AcDbRegAppTableRecord
2
ACAD_DSTYLE_DIM_EXT1_LINETYPE
70
0
0
APPID
5
18D
100
AcDbSymbolTableRecord
100
AcDbRegAppTableRecord
2
ACAD_DSTYLE_DIM_EXT2_LINETYPE
70
0
0
APPID
5
1C8
100
AcDbSymbolTableRecord
100
AcDbRegAppTableRecord
2
ACAD_MLEADERVER
70
0
0
ENDTAB
0
TABLE
2
BLOCK_RECORD
5
1e8
100
AcDbSymbolTable
0
BLOCK_RECORD
5
1F
100
AcDbSymbolTableRecord
100
AcDbBlockTableRecord
2
*Model_Space
340
0
70
0
0
BLOCK_RECORD
5
1B
100
AcDbSymbolTableRecord
100
AcDbBlockTableRecord
2
*Paper_Space
340
0
70
0
0
BLOCK_RECORD
5
23
100
AcDbSymbolTableRecord
100
AcDbBlockTableRecord
2
*Paper_Space0
340
0
70
0
0
BLOCK_RECORD
5
F4
100
AcDbSymbolTableRecord
100
AcDbBlockTableRecord
2
*D1
340
0
70
0
0
BLOCK_RECORD
5
100
100
AcDbSymbolTableRecord
100
AcDbBlockTableRecord
2
_U0
340
0
70
0
0
BLOCK_RECORD
5
10C
100
AcDbSymbolTableRecord
100
AcDbBlockTableRecord
2
*D3
340
0
70
0
0
BLOCK_RECORD
5
11A
100
AcDbSymbolTableRecord
100
AcDbBlockTableRecord
2
_U1
340
0
70
0
0
BLOCK_RECORD
5
126
100
AcDbSymbolTableRecord
100
AcDbBlockTableRecord
2
*D5
340
0
70
0
0
BLOCK_RECORD
5
133
100
AcDbSymbolTableRecord
100
AcDbBlockTableRecord
2
_U2
340
0
70
0
0
BLOCK_RECORD
5
13F
100
AcDbSymbolTableRecord
100
AcDbBlockTableRecord
2
*D7
340
0
70
0
0
BLOCK_RECORD
5
14B
100
AcDbSymbolTableRecord
100
AcDbBlockTableRecord
2
_U3
340
0
70
0
0
BLOCK_RECORD
5
157
100
AcDbSymbolTableRecord
100
AcDbBlockTableRecord
2
*D9
340
0
70
0
0
BLOCK_RECORD
5
164
100
AcDbSymbolTableRecord
100
AcDbBlockTableRecord
2
_U4
340
0
70
0
0
ENDTAB
0
ENDSEC
0
SECTION
2
BLOCKS
0
BLOCK
5
20
100
AcDbEntity
8
0
100
AcDbBlockBegin
2
*Model_Space
70
0
10
0
20
0
30
0
3
*Model_Space
0
ENDBLK
5
21
100
AcDbEntity
8
0
100
AcDbBlockEnd
0
BLOCK
5
1C
100
AcDbEntity
8
0
100
AcDbBlockBegin
2
*Paper_Space
70
0
10
0
20
0
30
0
3
*Paper_Space
0
ENDBLK
5
1D
100
AcDbEntity
8
0
100
AcDbBlockEnd
0
BLOCK
5
24
100
AcDbEntity
8
0
100
AcDbBlockBegin
2
*Paper_Space0
70
0
10
0
20
0
30
0
3
*Paper_Space0
0
ENDBLK
5
25
100
AcDbEntity
8
0
100
AcDbBlockEnd
0
BLOCK
5
F5
100
AcDbEntity
8
0
100
AcDbBlockBegin
2
*D1
70
1
10
0
20
0
30
0
3
*D1
0
LINE
5
F7
100
AcDbEntity
8
0
62
256
6
ByLayer
370
-2
48
1
60
0
100
AcDbLine
10
-23.0826
20
-0.0875
30
0
11
-23.0826
21
-41.12547
31
0
39
0
210
0
220
0
230
1
0
LINE
5
F8
100
AcDbEntity
8
0
62
256
6
ByLayer
370
-2
48
1
60
0
100
AcDbLine
10
14.9174
20
-0.4625
30
0
11
14.9174
21
-41.12547
31
0
39
0
210
0
220
0
230
1
0
LINE
5
F9
100
AcDbEntity
8
0
62
256
6
ByLayer
370
-2
48
1
60
0
100
AcDbLine
10
-19.5826
20
-39.12547
30
0
11
11.4174
21
-39.12547
31
0
39
0
210
0
220
0
230
1
0
SOLID
5
FA
100
AcDbEntity
8
0
62
256
6
ByLayer
370
-1
48
1
60
0
100
AcDbTrace
10
-19.5826
20
-38.542136
30
0
11
-19.5826
21
-39.708803
31
0
12
-23.0826
22
-39.12547
32
0
13
-23.0826
23
-39.12547
33
0
39
0
210
0
220
0
230
1
0
SOLID
5
FB
100
AcDbEntity
8
0
62
256
6
ByLayer
370
-1
48
1
60
0
100
AcDbTrace
10
11.4174
20
-39.708803
30
0
11
11.4174
21
-38.542136
31
0
12
14.9174
22
-39.12547
32
0
13
14.9174
23
-39.12547
33
0
39
0
210
0
220
0
230
1
0
MTEXT
5
FC
100
AcDbEntity
8
0
62
256
6
ByLayer
370
18
48
1
60
0
100
AcDbMText
10
-4.0826
20
-33.12547
30
0
210
0
220
0
230
1
1
\A1;38
40
3
41
0
44
1
50
0
71
5
72
5
7
iso_b_vert
0
POINT
5
FD
100
AcDbEntity
8
Defpoints
62
0
6
ByLayer
370
-1
48
1
60
0
100
AcDbPoint
10
-23.0826
20
1.5
30
0
39
0
210
0
220
0
230
1
50
360
0
POINT
5
FE
100
AcDbEntity
8
Defpoints
62
0
6
ByLayer
370
-1
48
1
60
0
100
AcDbPoint
10
14.9174
20
1.125
30
0
39
0
210
0
220
0
230
1
50
360
0
POINT
5
FF
100
AcDbEntity
8
Defpoints
62
0
6
ByLayer
370
-1
48
1
60
0
100
AcDbPoint
10
14.9174
20
-39.12547
30
0
39
0
210
0
220
0
230
1
50
360
0
ENDBLK
5
F6
100
AcDbEntity
8
0
100
AcDbBlockEnd
0
BLOCK
5
107
100
AcDbEntity
8
0
100
AcDbBlockBegin
2
_U0
70
0
10
0
20
0
30
0
3
_U0
0
MTEXT
5
101
100
AcDbEntity
8
SK2
62
256
6
ByLayer
370
18
48
1
60
0
100
AcDbMText
10
-8.56497
20
-38.240355
30
0
210
0
220
0
230
1
1
\W0.7468;38.00
40
3
41
0
44
1.084337
50
0
71
7
72
5
7
iso_b_vert
0
LINE
5
102
100
AcDbEntity
8
SK2
62
256
6
ByLayer
370
13
48
1
60
0
100
AcDbLine
10
-23.0826
20
-0.0875
30
0
11
-23.0826
21
-41.12547
31
0
39
0
210
0
220
0
230
1
0
LINE
5
103
100
AcDbEntity
8
SK2
62
256
6
ByLayer
370
13
48
1
60
0
100
AcDbLine
10
14.9174
20
-0.4625
30
0
11
14.9174
21
-41.12547
31
0
39
0
210
0
220
0
230
1
0
LINE
5
104
100
AcDbEntity
8
SK2
62
256
6
ByLayer
370
13
48
1
60
0
100
AcDbLine
10
-23.0826
20
-39.12547
30
0
11
14.9174
21
-39.12547
31
0
39
0
210
0
220
0
230
1
0
SOLID
5
105
100
AcDbEntity
8
SK2
62
256
6
ByLayer
370
18
48
1
60
0
100
AcDbTrace
10
-23.0826
20
-39.12547
30
0
11
-19.582602
21
-38.664686
31
0
12
-19.582598
22
-39.586253
32
0
13
-19.582598
23
-39.586253
33
0
39
0
210
0
220
0
230
1
0
SOLID
5
106
100
AcDbEntity
8
SK2
62
256
6
ByLayer
370
18
48
1
60
0
100
AcDbTrace
10
14.9174
20
-39.12547
30
0
11
11.417402
21
-39.586253
31
0
12
11.417398
22
-38.664686
32
0
13
11.417398
23
-38.664686
33
0
39
0
210
0
220
0
230
1
0
ENDBLK
5
108
100
AcDbEntity
8
0
100
AcDbBlockEnd
0
BLOCK
5
10D
100
AcDbEntity
8
0
100
AcDbBlockBegin
2
*D3
70
1
10
0
20
0
30
0
3
*D3
0
LINE
5
10F
100
AcDbEntity
8
0
62
256
6
ByLayer
370
-2
48
1
60
0
100
AcDbLine
10
14.9174
20
-0.4625
30
0
11
14.9174
21
-24.625
31
0
39
0
210
0
220
0
230
1
0
LINE
5
110
100
AcDbEntity
8
0
62
256
6
ByLayer
370
-2
48
1
60
0
100
AcDbLine
10
5.7924
20
-1.5875
30
0
11
5.7924
21
-24.625
31
0
39
0
210
0
220
0
230
1
0
LINE
5
111
100
AcDbEntity
8
0
62
256
6
ByLayer
370
-2
48
1
60
0
100
AcDbLine
10
14.9174
20
-22.625
30
0
11
40.060257
21
-22.625
31
0
39
0
210
0
220
0
230
1
0
LINE
5
112
100
AcDbEntity
8
0
62
256
6
ByLayer
370
-2
48
1
60
0
100
AcDbLine
10
18.4174
20
-22.625
30
0
11
21.9174
21
-22.625
31
0
39
0
210
0
220
0
230
1
0
LINE
5
113
100
AcDbEntity
8
0
62
256
6
ByLayer
370
-2
48
1
60
0
100
AcDbLine
10
2.2924
20
-22.625
30
0
11
-1.2076
21
-22.625
31
0
39
0
210
0
220
0
230
1
0
SOLID
5
114
100
AcDbEntity
8
0
62
256
6
ByLayer
370
-1
48
1
60
0
100
AcDbTrace
10
18.4174
20
-22.041667
30
0
11
18.4174
21
-23.208333
31
0
12
14.9174
22
-22.625
32
0
13
14.9174
23
-22.625
33
0
39
0
210
0
220
0
230
1
0
SOLID
5
115
100
AcDbEntity
8
0
62
256
6
ByLayer
370
-1
48
1
60
0
100
AcDbTrace
10
2.2924
20
-23.208333
30
0
11
2.2924
21
-22.041667
31
0
12
5.7924
22
-22.625
32
0
13
5.7924
23
-22.625
33
0
39
0
210
0
220
0
230
1
0
MTEXT
5
116
100
AcDbEntity
8
0
62
256
6
ByLayer
370
18
48
1
60
0
100
AcDbMText
10
30.988829
20
-16.625
30
0
210
0
220
0
230
1
1
\A1;9.13
40
3
41
0
44
1
50
0
71
5
72
5
7
iso_b_vert
0
POINT
5
117
100
AcDbEntity
8
Defpoints
62
0
6
ByLayer
370
-1
48
1
60
0
100
AcDbPoint
10
14.9174
20
1.125
30
0
39
0
210
0
220
0
230
1
50
360
0
POINT
5
118
100
AcDbEntity
8
Defpoints
62
0
6
ByLayer
370
-1
48
1
60
0
100
AcDbPoint
10
5.7924
20
0
30
0
39
0
210
0
220
0
230
1
50
360
0
POINT
5
119
100
AcDbEntity
8
Defpoints
62
0
6
ByLayer
370
-1
48
1
60
0
100
AcDbPoint
10
5.7924
20
-22.625
30
0
39
0
210
0
220
0
230
1
50
360
0
ENDBLK
5
10E
100
AcDbEntity
8
0
100
AcDbBlockEnd
0
BLOCK
5
121
100
AcDbEntity
8
0
100
AcDbBlockBegin
2
_U1
70
0
10
0
20
0
30
0
3
_U1
0
MTEXT
5
11B
100
AcDbEntity
8
SK2
62
256
6
ByLayer
370
18
48
1
60
0
100
AcDbMText
10
19.0764
20
-21.739886
30
0
210
0
220
0
230
1
1
\W0.6493;(9.12)
40
3
41
0
44
1.084337
50
0
71
7
72
5
7
iso_b_vert
0
LINE
5
11C
100
AcDbEntity
8
SK2
62
256
6
ByLayer
370
13
48
1
60
0
100
AcDbLine
10
14.9174
20
-0.4625
30
0
11
14.9174
21
-24.625
31
0
39
0
210
0
220
0
230
1
0
LINE
5
11D
100
AcDbEntity
8
SK2
62
256
6
ByLayer
370
13
48
1
60
0
100
AcDbLine
10
5.7924
20
-1.5875
30
0
11
5.7924
21
-24.625
31
0
39
0
210
0
220
0
230
1
0
LINE
5
11E
100
AcDbEntity
8
SK2
62
256
6
ByLayer
370
13
48
1
60
0
100
AcDbLine
10
5.7924
20
-22.625
30
0
11
27.639283
21
-22.625
31
0
39
0
210
0
220
0
230
1
0
SOLID
5
11F
100
AcDbEntity
8
SK2
62
256
6
ByLayer
370
18
48
1
60
0
100
AcDbTrace
10
14.9174
20
-22.625
30
0
11
11.417402
21
-23.085784
31
0
12
11.417398
22
-22.164216
32
0
13
11.417398
23
-22.164216
33
0
39
0
210
0
220
0
230
1
0
SOLID
5
120
100
AcDbEntity
8
SK2
62
256
6
ByLayer
370
18
48
1
60
0
100
AcDbTrace
10
5.7924
20
-22.625
30
0
11
9.292398
21
-22.164216
31
0
12
9.292402
22
-23.085784
32
0
13
9.292402
23
-23.085784
33
0
39
0
210
0
220
0
230
1
0
ENDBLK
5
122
100
AcDbEntity
8
0
100
AcDbBlockEnd
0
BLOCK
5
127
100
AcDbEntity
8
0
100
AcDbBlockBegin
2
*D5
70
1
10
0
20
0
30
0
3
*D5
0
LINE
5
129
100
AcDbEntity
8
0
62
256
6
ByLayer
370
-2
48
1
60
0
100
AcDbLine
10
14.9174
20
-0.4625
30
0
11
14.9174
21
-32.62547
31
0
39
0
210
0
220
0
230
1
0
LINE
5
12A
100
AcDbEntity
8
0
62
256
6
ByLayer
370
-2
48
1
60
0
100
AcDbLine
10
2.4174
20
-1.5875
30
0
11
2.4174
21
-32.62547
31
0
39
0
210
0
220
0
230
1
0
LINE
5
12B
100
AcDbEntity
8
0
62
256
6
ByLayer
370
-2
48
1
60
0
100
AcDbLine
10
18.4174
20
-30.62547
30
0
11
21.9174
21
-30.62547
31
0
39
0
210
0
220
0
230
1
0
LINE
5
12C
100
AcDbEntity
8
0
62
256
6
ByLayer
370
-2
48
1
60
0
100
AcDbLine
10
-1.0826
20
-30.62547
30
0
11
-4.5826
21
-30.62547
31
0
39
0
210
0
220
0
230
1
0
SOLID
5
12D
100
AcDbEntity
8
0
62
256
6
ByLayer
370
-1
48
1
60
0
100
AcDbTrace
10
18.4174
20
-30.042136
30
0
11
18.4174
21
-31.208803
31
0
12
14.9174
22
-30.62547
32
0
13
14.9174
23
-30.62547
33
0
39
0
210
0
220
0
230
1
0
SOLID
5
12E
100
AcDbEntity
8
0
62
256
6
ByLayer
370
-1
48
1
60
0
100
AcDbTrace
10
-1.0826
20
-31.208803
30
0
11
-1.0826
21
-30.042136
31
0
12
2.4174
22
-30.62547
32
0
13
2.4174
23
-30.62547
33
0
39
0
210
0
220
0
230
1
0
MTEXT
5
12F
100
AcDbEntity
8
0
62
256
6
ByLayer
370
18
48
1
60
0
100
AcDbMText
10
8.6674
20
-24.62547
30
0
210
0
220
0
230
1
1
\A1;12.5
40
3
41
0
44
1
50
0
71
5
72
5
7
iso_b_vert
0
POINT
5
130
100
AcDbEntity
8
Defpoints
62
0
6
ByLayer
370
-1
48
1
60
0
100
AcDbPoint
10
14.9174
20
1.125
30
0
39
0
210
0
220
0
230
1
50
360
0
POINT
5
131
100
AcDbEntity
8
Defpoints
62
0
6
ByLayer
370
-1
48
1
60
0
100
AcDbPoint
10
2.4174
20
0
30
0
39
0
210
0
220
0
230
1
50
360
0
POINT
5
132
100
AcDbEntity
8
Defpoints
62
0
6
ByLayer
370
-1
48
1
60
0
100
AcDbPoint
10
2.4174
20
-30.62547
30
0
39
0
210
0
220
0
230
1
50
360
0
ENDBLK
5
128
100
AcDbEntity
8
0
100
AcDbBlockEnd
0
BLOCK
5
13A
100
AcDbEntity
8
0
100
AcDbBlockBegin
2
_U2
70
0
10
0
20
0
30
0
3
_U2
0
MTEXT
5
134
100
AcDbEntity
8
SK2
62
256
6
ByLayer
370
18
48
1
60
0
100
AcDbMText
10
4.559972
20
-29.740355
30
0
210
0
220
0
230
1
1
\W0.6864;12.50
40
3
41
0
44
1.084337
50
0
71
7
72
5
7
iso_b_vert
0
LINE
5
135
100
AcDbEntity
8
SK2
62
256
6
ByLayer
370
13
48
1
60
0
100
AcDbLine
10
14.9174
20
-0.4625
30
0
11
14.9174
21
-32.62547
31
0
39
0
210
0
220
0
230
1
0
LINE
5
136
100
AcDbEntity
8
SK2
62
256
6
ByLayer
370
13
48
1
60
0
100
AcDbLine
10
2.4174
20
-1.5875
30
0
11
2.4174
21
-32.62547
31
0
39
0
210
0
220
0
230
1
0
LINE
5
137
100
AcDbEntity
8
SK2
62
256
6
ByLayer
370
13
48
1
60
0
100
AcDbLine
10
14.9174
20
-30.62547
30
0
11
2.4174
21
-30.62547
31
0
39
0
210
0
220
0
230
1
0
SOLID
5
138
100
AcDbEntity
8
SK2
62
256
6
ByLayer
370
18
48
1
60
0
100
AcDbTrace
10
14.9174
20
-30.62547
30
0
11
11.417402
21
-31.086253
31
0
12
11.417398
22
-30.164686
32
0
13
11.417398
23
-30.164686
33
0
39
0
210
0
220
0
230
1
0
SOLID
5
139
100
AcDbEntity
8
SK2
62
256
6
ByLayer
370
18
48
1
60
0
100
AcDbTrace
10
2.4174
20
-30.62547
30
0
11
5.917398
21
-30.164686
31
0
12
5.917402
22
-31.086253
32
0
13
5.917402
23
-31.086253
33
0
39
0
210
0
220
0
230
1
0
ENDBLK
5
13B
100
AcDbEntity
8
0
100
AcDbBlockEnd
0
BLOCK
5
140
100
AcDbEntity
8
0
100
AcDbBlockBegin
2
*D7
70
1
10
0
20
0
30
0
3
*D7
0
LINE
5
142
100
AcDbEntity
8
0
62
256
6
ByLayer
370
-2
48
1
60
0
100
AcDbLine
10
-23.0826
20
1.5875
30
0
11
-23.0826
21
13.62547
31
0
39
0
210
0
220
0
230
1
0
LINE
5
143
100
AcDbEntity
8
0
62
256
6
ByLayer
370
-2
48
1
60
0
100
AcDbLine
10
0
20
1.5875
30
0
11
0
21
13.62547
31
0
39
0
210
0
220
0
230
1
0
LINE
5
144
100
AcDbEntity
8
0
62
256
6
ByLayer
370
-2
48
1
60
0
100
AcDbLine
10
-19.5826
20
11.62547
30
0
11
-3.5
21
11.62547
31
0
39
0
210
0
220
0
230
1
0
SOLID
5
145
100
AcDbEntity
8
0
62
256
6
ByLayer
370
-1
48
1
60
0
100
AcDbTrace
10
-19.5826
20
12.208803
30
0
11
-19.5826
21
11.042136
31
0
12
-23.0826
22
11.62547
32
0
13
-23.0826
23
11.62547
33
0
39
0
210
0
220
0
230
1
0
SOLID
5
146
100
AcDbEntity
8
0
62
256
6
ByLayer
370
-1
48
1
60
0
100
AcDbTrace
10
-3.5
20
11.042136
30
0
11
-3.5
21
12.208803
31
0
12
0
22
11.62547
32
0
13
0
23
11.62547
33
0
39
0
210
0
220
0
230
1
0
MTEXT
5
147
100
AcDbEntity
8
0
62
256
6
ByLayer
370
18
48
1
60
0
100
AcDbMText
10
-11.5413
20
17.62547
30
0
210
0
220
0
230
1
1
\A1;23.08
40
3
41
0
44
1
50
0
71
5
72
5
7
iso_b_vert
0
POINT
5
148
100
AcDbEntity
8
Defpoints
62
0
6
ByLayer
370
-1
48
1
60
0
100
AcDbPoint
10
-23.0826
20
0
30
0
39
0
210
0
220
0
230
1
50
360
0
POINT
5
149
100
AcDbEntity
8
Defpoints
62
0
6
ByLayer
370
-1
48
1
60
0
100
AcDbPoint
10
0
20
0
30
0
39
0
210
0
220
0
230
1
50
360
0
POINT
5
14A
100
AcDbEntity
8
Defpoints
62
0
6
ByLayer
370
-1
48
1
60
0
100
AcDbPoint
10
0
20
11.62547
30
0
39
0
210
0
220
0
230
1
50
360
0
ENDBLK
5
141
100
AcDbEntity
8
0
100
AcDbBlockEnd
0
BLOCK
5
152
100
AcDbEntity
8
0
100
AcDbBlockBegin
2
_U3
70
0
10
0
20
0
30
0
3
_U3
0
MTEXT
5
14C
100
AcDbEntity
8
SK2
62
256
6
ByLayer
370
18
48
1
60
0
100
AcDbMText
10
-16.02367
20
12.510584
30
0
210
0
220
0
230
1
1
\W0.7468;23.08
40
3
41
0
44
1.084337
50
0
71
7
72
5
7
iso_b_vert
0
LINE
5
14D
100
AcDbEntity
8
SK2
62
256
6
ByLayer
370
13
48
1
60
0
100
AcDbLine
10
-23.0826
20
1.5875
30
0
11
-23.0826
21
13.62547
31
0
39
0
210
0
220
0
230
1
0
LINE
5
14E
100
AcDbEntity
8
SK2
62
256
6
ByLayer
370
13
48
1
60
0
100
AcDbLine
10
0
20
1.5875
30
0
11
0
21
13.62547
31
0
39
0
210
0
220
0
230
1
0
LINE
5
14F
100
AcDbEntity
8
SK2
62
256
6
ByLayer
370
13
48
1
60
0
100
AcDbLine
10
-23.0826
20
11.62547
30
0
11
0
21
11.62547
31
0
39
0
210
0
220
0
230
1
0
SOLID
5
150
100
AcDbEntity
8
SK2
62
256
6
ByLayer
370
18
48
1
60
0
100
AcDbTrace
10
-23.0826
20
11.62547
30
0
11
-19.582602
21
12.086253
31
0
12
-19.582598
22
11.164686
32
0
13
-19.582598
23
11.164686
33
0
39
0
210
0
220
0
230
1
0
SOLID
5
151
100
AcDbEntity
8
SK2
62
256
6
ByLayer
370
18
48
1
60
0
100
AcDbTrace
10
0
20
11.62547
30
0
11
-3.499998
21
11.164686
31
0
12
-3.500002
22
12.086253
32
0
13
-3.500002
23
12.086253
33
0
39
0
210
0
220
0
230
1
0
ENDBLK
5
153
100
AcDbEntity
8
0
100
AcDbBlockEnd
0
BLOCK
5
158
100
AcDbEntity
8
0
100
AcDbBlockBegin
2
*D9
70
1
10
0
20
0
30
0
3
*D9
0
LINE
5
15A
100
AcDbEntity
8
0
62
256
6
ByLayer
370
-2
48
1
60
0
100
AcDbLine
10
14.9174
20
2.7125
30
0
11
14.9174
21
13.62547
31
0
39
0
210
0
220
0
230
1
0
LINE
5
15B
100
AcDbEntity
8
0
62
256
6
ByLayer
370
-2
48
1
60
0
100
AcDbLine
10
0
20
1.5875
30
0
11
0
21
13.62547
31
0
39
0
210
0
220
0
230
1
0
LINE
5
15C
100
AcDbEntity
8
0
62
256
6
ByLayer
370
-2
48
1
60
0
100
AcDbLine
10
18.4174
20
11.62547
30
0
11
21.9174
21
11.62547
31
0
39
0
210
0
220
0
230
1
0
LINE
5
15D
100
AcDbEntity
8
0
62
256
6
ByLayer
370
-2
48
1
60
0
100
AcDbLine
10
-3.5
20
11.62547
30
0
11
-7
21
11.62547
31
0
39
0
210
0
220
0
230
1
0
SOLID
5
15E
100
AcDbEntity
8
0
62
256
6
ByLayer
370
-1
48
1
60
0
100
AcDbTrace
10
18.4174
20
12.208803
30
0
11
18.4174
21
11.042136
31
0
12
14.9174
22
11.62547
32
0
13
14.9174
23
11.62547
33
0
39
0
210
0
220
0
230
1
0
SOLID
5
15F
100
AcDbEntity
8
0
62
256
6
ByLayer
370
-1
48
1
60
0
100
AcDbTrace
10
-3.5
20
11.042136
30
0
11
-3.5
21
12.208803
31
0
12
0
22
11.62547
32
0
13
0
23
11.62547
33
0
39
0
210
0
220
0
230
1
0
MTEXT
5
160
100
AcDbEntity
8
0
62
256
6
ByLayer
370
18
48
1
60
0
100
AcDbMText
10
7.4587
20
17.62547
30
0
210
0
220
0
230
1
1
\A1;14.92
40
3
41
0
44
1
50
0
71
5
72
5
7
iso_b_vert
0
POINT
5
161
100
AcDbEntity
8
Defpoints
62
0
6
ByLayer
370
-1
48
1
60
0
100
AcDbPoint
10
14.9174
20
1.125
30
0
39
0
210
0
220
0
230
1
50
360
0
POINT
5
162
100
AcDbEntity
8
Defpoints
62
0
6
ByLayer
370
-1
48
1
60
0
100
AcDbPoint
10
0
20
0
30
0
39
0
210
0
220
0
230
1
50
360
0
POINT
5
163
100
AcDbEntity
8
Defpoints
62
0
6
ByLayer
370
-1
48
1
60
0
100
AcDbPoint
10
0
20
11.62547
30
0
39
0
210
0
220
0
230
1
50
360
0
ENDBLK
5
159
100
AcDbEntity
8
0
100
AcDbBlockEnd
0
BLOCK
5
16B
100
AcDbEntity
8
0
100
AcDbBlockBegin
2
_U4
70
0
10
0
20
0
30
0
3
_U4
0
MTEXT
5
165
100
AcDbEntity
8
2
62
256
6
ByLayer
370
18
48
1
60
0
100
AcDbMText
10
3.193329
20
12.510584
30
0
210
0
220
0
230
1
1
\W0.7091;14.92
40
3
41
0
44
1.084337
50
0
71
7
72
5
7
iso_b_vert
0
LINE
5
166
100
AcDbEntity
8
2
62
256
6
ByLayer
370
13
48
1
60
0
100
AcDbLine
10
14.9174
20
2.7125
30
0
11
14.9174
21
13.62547
31
0
39
0
210
0
220
0
230
1
0
LINE
5
167
100
AcDbEntity
8
2
62
256
6
ByLayer
370
13
48
1
60
0
100
AcDbLine
10
0
20
1.5875
30
0
11
0
21
13.62547
31
0
39
0
210
0
220
0
230
1
0
LINE
5
168
100
AcDbEntity
8
2
62
256
6
ByLayer
370
13
48
1
60
0
100
AcDbLine
10
14.9174
20
11.62547
30
0
11
0
21
11.62547
31
0
39
0
210
0
220
0
230
1
0
SOLID
5
169
100
AcDbEntity
8
2
62
256
6
ByLayer
370
18
48
1
60
0
100
AcDbTrace
10
14.9174
20
11.62547
30
0
11
11.417402
21
11.164686
31
0
12
11.417398
22
12.086253
32
0
13
11.417398
23
12.086253
33
0
39
0
210
0
220
0
230
1
0
SOLID
5
16A
100
AcDbEntity
8
2
62
256
6
ByLayer
370
18
48
1
60
0
100
AcDbTrace
10
0
20
11.62547
30
0
11
3.499998
21
12.086253
31
0
12
3.500002
22
11.164686
32
0
13
3.500002
23
11.164686
33
0
39
0
210
0
220
0
230
1
0
ENDBLK
5
16C
100
AcDbEntity
8
0
100
AcDbBlockEnd
0
ENDSEC
0
SECTION
2
ENTITIES
0
ARC
5
BC
100
AcDbEntity
8
1
62
256
6
ByLayer
370
18
48
1
60
0
100
AcDbCircle
39
0
10
0.917444
20
-2.125
30
0
40
1
210
0
220
0
230
1
100
AcDbArc
50
90
51
120
0
ARC
5
BD
100
AcDbEntity
8
1
62
256
6
ByLayer
370
18
48
1
60
0
100
AcDbCircle
39
0
10
0.917444
20
2.125
30
0
40
1
210
0
220
0
230
1
100
AcDbArc
50
240
51
270
0
ARC
5
BE
100
AcDbEntity
8
SK2
62
256
6
ByLayer
370
13
48
1
60
0
100
AcDbCircle
39
0
10
14.9174
20
0
30
0
40
16.35
210
0
220
0
230
1
100
AcDbArc
50
10.57289
51
65
0
ARC
5
BF
100
AcDbEntity
8
SK2
62
256
6
ByLayer
370
13
48
1
60
0
100
AcDbCircle
39
0
10
14.9174
20
0
30
0
40
16.35
210
0
220
0
230
1
100
AcDbArc
50
295
51
349.42711
0
ELLIPSE
5
C0
100
AcDbEntity
8
1
62
256
6
ByLayer
370
18
48
1
60
0
100
AcDbEllipse
10
3.67155
20
0.884444
30
0
11
-1.66731463067286
21
1.04689911899569
31
0
210
0
220
0
230
1
40
0.340424
41
0.982690825511576
42
1.78137824560931
0
POINT
5
70
100
AcDbEntity
8
80
62
256
6
ByLayer
370
18
48
1
60
0
100
AcDbPoint
10
0
20
0
30
0
39
0
210
0
220
0
230
1
50
360
0
POINT
5
72
100
AcDbEntity
8
81
62
256
6
ByLayer
370
18
48
1
60
0
100
AcDbPoint
10
14.9174
20
0
30
0
39
0
210
0
220
0
230
1
50
360
0
POINT
5
74
100
AcDbEntity
8
1
62
256
6
ByLayer
370
18
48
1
60
1
100
AcDbPoint
10
-23.0826
20
1.5
30
0
39
0
210
0
220
0
230
1
50
360
0
POINT
5
76
100
AcDbEntity
8
1
62
256
6
ByLayer
370
18
48
1
60
1
100
AcDbPoint
10
14.9174
20
1.125
30
0
39
0
210
0
220
0
230
1
50
360
0
POINT
5
77
100
AcDbEntity
8
1
62
256
6
ByLayer
370
18
48
1
60
1
100
AcDbPoint
10
14.9174
20
1.125
30
0
39
0
210
0
220
0
230
1
50
360
0
POINT
5
78
100
AcDbEntity
8
1
62
256
6
ByLayer
370
18
48
1
60
1
100
AcDbPoint
10
5.7924
20
0
30
0
39
0
210
0
220
0
230
1
50
360
0
POINT
5
79
100
AcDbEntity
8
1
62
256
6
ByLayer
370
18
48
1
60
1
100
AcDbPoint
10
14.9174
20
1.125
30
0
39
0
210
0
220
0
230
1
50
360
0
POINT
5
7A
100
AcDbEntity
8
1
62
256
6
ByLayer
370
18
48
1
60
1
100
AcDbPoint
10
2.4174
20
0
30
0
39
0
210
0
220
0
230
1
50
360
0
POINT
5
7B
100
AcDbEntity
8
1
62
256
6
ByLayer
370
18
48
1
60
1
100
AcDbPoint
10
-23.0826
20
0
30
0
39
0
210
0
220
0
230
1
50
360
0
POINT
5
7C
100
AcDbEntity
8
1
62
256
6
ByLayer
370
18
48
1
60
1
100
AcDbPoint
10
0
20
0
30
0
39
0
210
0
220
0
230
1
50
360
0
POINT
5
7D
100
AcDbEntity
8
1
62
256
6
ByLayer
370
18
48
1
60
1
100
AcDbPoint
10
14.9174
20
1.125
30
0
39
0
210
0
220
0
230
1
50
360
0
POINT
5
7E
100
AcDbEntity
8
1
62
256
6
ByLayer
370
18
48
1
60
1
100
AcDbPoint
10
0
20
0
30
0
39
0
210
0
220
0
230
1
50
360
0
SPLINE
5
C1
100
AcDbEntity
8
1
62
256
6
ByLayer
370
18
48
1
60
0
100
AcDbSpline
70
4
71
3
72
26
73
22
40
0
40
0
40
0
40
0
40
0.124999999999988
40
0.124999999999988
40
0.249999999999975
40
0.249999999999975
40
0.312499999999974
40
0.312499999999974
40
0.374999999999972
40
0.374999999999972
40
0.499999999999978
40
0.499999999999978
40
0.624999999999983
40
0.624999999999983
40
0.749999999999989
40
0.749999999999989
40
0.874999999999994
40
0.874999999999994
40
0.937499999999997
40
0.937499999999997
40
1
40
1
40
1
40
1
41
1
10
14.3928038845756
20
0.575244544231481
30
0
41
1
10
14.4104436230003
20
0.549760195348625
30
0
41
1
10
14.4280478593159
20
0.527032324630426
30
0
41
1
10
14.4632632762996
20
0.486185456690663
30
0
41
1
10
14.4808725631267
20
0.467884655013506
30
0
41
1
10
14.5072855239601
20
0.441924836894486
30
0
41
1
10
14.5160893172786
20
0.433525777039762
30
0
41
1
10
14.5336932376625
20
0.417050746355841
30
0
41
1
10
14.5424934684614
20
0.408990236585282
30
0
41
1
10
14.5688816473694
20
0.385497978925173
30
0
41
1
10
14.5864636534263
20
0.370771851513183
30
0
41
1
10
14.6211163397805
20
0.344047673830033
30
0
41
1
10
14.6382291552187
20
0.332018012931741
30
0
41
1
10
14.6718301507566
20
0.31029235210238
30
0
41
1
10
14.6883312153771
20
0.300581871475288
30
0
41
1
10
14.7201718811344
20
0.283471240864571
30
0
41
1
10
14.7355399497137
20
0.276085193947495
30
0
41
1
10
14.7566587295051
20
0.266801932615039
30
0
41
1
10
14.7633670463246
20
0.264005976681915
30
0
41
1
10
14.7757401738199
20
0.259015581486665
30
0
41
1
10
14.7814074446574
20
0.256821070555532
30
0
41
1
10
14.7862509105431
20
0.254931517238134
30
0
0
SPLINE
5
C2
100
AcDbEntity
8
1
62
256
6
ByLayer
370
18
48
1
60
0
100
AcDbSpline
70
4
71
3
72
42
73
38
40
0
40
0
40
0
40
0
40
0.0435653876210558
40
0.0435653876210558
40
0.0871307752421117
40
0.0871307752421117
40
0.130696162863168
40
0.130696162863168
40
0.174261550484223
40
0.174261550484223
40
0.261392325726335
40
0.261392325726335
40
0.304957713347392
40
0.304957713347392
40
0.348523100968449
40
0.348523100968449
40
0.522784651452676
40
0.522784651452676
40
0.60991542669479
40
0.60991542669479
40
0.631698120505318
40
0.631698120505318
40
0.653480814315847
40
0.653480814315847
40
0.697046201936907
40
0.697046201936907
40
0.784176977179027
40
0.784176977179027
40
0.827742364800086
40
0.827742364800086
40
0.871307752421145
40
0.871307752421145
40
0.958438527663262
40
0.958438527663262
40
0.98022122147379
40
0.98022122147379
40
1
40
1
40
1
40
1
41
1
10
3.67155
20
-0.278582278359806
30
0
41
1
10
3.72773498420105
20
-0.309856650053575
30
0
41
1
10
3.78378744020188
20
-0.340830177127827
30
0
41
1
10
3.89584429652257
20
-0.401810503857519
30
0
41
1
10
3.9518477834078
20
-0.431820008120923
30
0
41
1
10
4.06389468440193
20
-0.490732914681303
30
0
41
1
10
4.11994281837687
20
-0.519628814564982
30
0
41
1
10
4.23217939619931
20
-0.576151578423293
30
0
41
1
10
4.28824969782897
20
-0.603734381790588
30
0
41
1
10
4.45616195509214
20
-0.684067668730165
30
0
41
1
10
4.56792351904508
20
-0.734344524839742
30
0
41
1
10
4.7358348894204
20
-0.80412406312854
30
0
41
1
10
4.79185770459074
20
-0.826446749653456
30
0
41
1
10
4.9040532907062
20
-0.869072654552355
30
0
41
1
10
4.95993395636475
20
-0.889273788870639
30
0
41
1
10
5.23853665794792
20
-0.984484519759178
30
0
41
1
10
5.45944420066505
20
-1.04159256318621
30
0
41
1
10
5.79181311470472
20
-1.09639292502163
30
0
41
1
10
5.90287263407834
20
-1.10944655824895
30
0
41
1
10
6.04244406194346
20
-1.11897841280745
30
0
41
1
10
6.07039554136091
20
-1.12054512131579
30
0
41
1
10
6.1263836997953
20
-1.12299045266542
30
0
41
1
10
6.1544433621192
20
-1.12386940658985
30
0
41
1
10
6.23859177195283
20
-1.1254570549597
30
0
41
1
10
6.29457393037546
20
-1.12511790594684
30
0
41
1
10
6.46234066062596
20
-1.11991581445363
30
0
41
1
10
6.57405021146261
20
-1.11088216255649
30
0
41
1
10
6.74198726412848
20
-1.08913622792815
30
0
41
1
10
6.79809331231894
20
-1.08051211293178
30
0
41
1
10
6.91023974889572
20
-1.06061339046676
30
0
41
1
10
6.96621988657333
20
-1.04934765533358
30
0
41
1
10
7.13403105076742
20
-1.01171173320651
30
0
41
1
10
7.24585041906622
20
-0.981591558428448
30
0
41
1
10
7.38593966078315
20
-0.937985983636167
30
0
41
1
10
7.41397304389193
20
-0.928966349298094
30
0
41
1
10
7.46749946918032
20
-0.911192755919501
30
0
41
1
10
7.49298454254833
20
-0.902491314440852
30
0
41
1
10
7.51841553809686
20
-0.893576454204094
30
0
0
SPLINE
5
C3
100
AcDbEntity
8
1
62
256
6
ByLayer
370
18
48
1
60
0
100
AcDbSpline
70
4
71
3
72
38
73
34
40
0
40
0
40
0
40
0
40
0.0055521917046949
40
0.0055521917046949
40
0.088422842395958
40
0.088422842395958
40
0.171293493087221
40
0.171293493087221
40
0.337034794469756
40
0.337034794469756
40
0.419905445161023
40
0.419905445161023
40
0.46134077050666
40
0.46134077050666
40
0.502776095852297
40
0.502776095852297
40
0.668517397234862
40
0.668517397234862
40
0.834258698617428
40
0.834258698617428
40
0.875694023963071
40
0.875694023963071
40
0.896411686635892
40
0.896411686635892
40
0.917129349308714
40
0.917129349308714
40
0.937847011981536
40
0.937847011981536
40
0.958564674654357
40
0.958564674654357
40
0.979282337327178
40
0.979282337327178
40
1
40
1
40
1
40
1
41
1
10
12.3670289809395
20
1.12499993592581
30
0
41
1
10
12.3707733552173
20
1.12500069549975
30
0
41
1
10
12.3745175693626
20
1.12499519406077
30
0
41
1
10
12.4341446556568
20
1.12480781883687
30
0
41
1
10
12.4899966011443
20
1.12323399962861
30
0
41
1
10
12.6018320891863
20
1.11729299105977
30
0
41
1
10
12.6578442569344
20
1.11293011310474
30
0
41
1
10
12.8261554634371
20
1.09569901244421
30
0
41
1
10
12.9380217600618
20
1.07876527672661
30
0
41
1
10
13.1058056189476
20
1.04551301227403
30
0
41
1
10
13.1617521945851
20
1.03313097055579
30
0
41
1
10
13.2457792953714
20
1.01266643553563
30
0
41
1
10
13.2738048775267
20
1.00552875017817
30
0
41
1
10
13.3298992627576
20
0.990627136854954
30
0
41
1
10
13.3579893387525
20
0.982856917599918
30
0
41
1
10
13.4982491683148
20
0.942546979318223
30
0
41
1
10
13.6098545763035
20
0.905639538234198
30
0
41
1
10
13.8325037568751
20
0.823251497439799
30
0
41
1
10
13.943669091231
20
0.777900877784163
30
0
41
1
10
14.0829648741943
20
0.716709555490695
30
0
41
1
10
14.1108203071563
20
0.704218921608259
30
0
41
1
10
14.1525556826868
20
0.685036021894376
30
0
41
1
10
14.1664859818846
20
0.678603840413246
30
0
41
1
10
14.1945007512645
20
0.665837265613447
30
0
41
1
10
14.2085605083938
20
0.659468805880266
30
0
41
1
10
14.2365860021518
20
0.646472196734067
30
0
41
1
10
14.2505451217435
20
0.639834172365113
30
0
41
1
10
14.2782081544754
20
0.626042643628182
30
0
41
1
10
14.2919476489442
20
0.61893922191922
30
0
41
1
10
14.3197091835035
20
0.605023313051419
30
0
41
1
10
14.3337255289062
20
0.598201946683758
30
0
41
1
10
14.362588909776
20
0.585737535051123
30
0
41
1
10
14.3774319704403
20
0.580090355458083
30
0
41
1
10
14.3928038845756
20
0.575244544231481
30
0
0
SPLINE
5
C4
100
AcDbEntity
8
1
62
256
6
ByLayer
370
18
48
1
60
0
100
AcDbSpline
70
4
71
3
72
18
73
14
40
0
40
0
40
0
40
0
40
0.249999999999994
40
0.249999999999994
40
0.499999999999987
40
0.499999999999987
40
0.624999999999988
40
0.624999999999988
40
0.687499999999989
40
0.687499999999989
40
0.749999999999989
40
0.749999999999989
40
1
40
1
40
1
40
1
41
1
10
2.45003347421221
20
0.993014355246771
30
0
41
1
10
2.55076390198533
20
1.0046692535046
30
0
41
1
10
2.65199617851943
20
1.01241506897173
30
0
41
1
10
2.85543156928421
20
1.02203307715069
30
0
41
1
10
2.95763478850321
20
1.02390026771542
30
0
41
1
10
3.11167661823927
20
1.02256701409732
30
0
41
1
10
3.16314706351204
20
1.02142185647537
30
0
41
1
10
3.24054175160631
20
1.01857764035421
30
0
41
1
10
3.26635895015386
20
1.01744078789983
30
0
41
1
10
3.31775828464964
20
1.01478648072265
30
0
41
1
10
3.34337721448364
20
1.01326780086529
30
0
41
1
10
3.47107115325912
20
1.00467124339599
30
0
41
1
10
3.57194850165067
20
0.994643559379909
30
0
41
1
10
3.67155000003217
20
0.980412464714846
30
0
0
SPLINE
5
C5
100
AcDbEntity
8
1
62
256
6
ByLayer
370
18
48
1
60
0
100
AcDbSpline
70
4
71
3
72
26
73
22
40
0
40
0
40
0
40
0
40
0.0565354746731472
40
0.0565354746731472
40
0.113070949346294
40
0.113070949346294
40
0.169606424019442
40
0.169606424019442
40
0.226141898692589
40
0.226141898692589
40
0.282677373365736
40
0.282677373365736
40
0.339212848038883
40
0.339212848038883
40
0.452283797385178
40
0.452283797385178
40
0.678425696077767
40
0.678425696077767
40
0.904567594770356
40
0.904567594770356
40
1
40
1
40
1
40
1
41
1
10
14.3928038845756
20
1.08291956302381
30
0
41
1
10
14.3774502613385
20
1.08139358225398
30
0
41
1
10
14.3626315770649
20
1.07956860661238
30
0
41
1
10
14.3338173646373
20
1.07536201071625
30
0
41
1
10
14.3198261163361
20
1.07297567455711
30
0
41
1
10
14.2921067254033
20
1.06788215229415
30
0
41
1
10
14.2783844206861
20
1.06517199182414
30
0
41
1
10
14.2507431079723
20
1.05968847790041
30
0
41
1
10
14.2367874846434
20
1.05694041210398
30
0
41
1
10
14.2087541750938
20
1.0513638757422
30
0
41
1
10
14.1946835323076
20
1.04853128789216
30
0
41
1
10
14.166635575989
20
1.04264968501963
30
0
41
1
10
14.1526834228644
20
1.03958228779254
30
0
41
1
10
14.1108661754716
20
1.03010537717952
30
0
41
1
10
14.0829319318115
20
1.02349970991432
30
0
41
1
10
13.9990461292283
20
1.00277879067923
30
0
41
1
10
13.9430872742027
20
0.987673741027095
30
0
41
1
10
13.8313921187525
20
0.955145887780191
30
0
41
1
10
13.7756292609023
20
0.937690720194155
30
0
41
1
10
13.696365386937
20
0.911262217683714
30
0
41
1
10
13.6728410533459
20
0.903223642452787
30
0
41
1
10
13.6493122163125
20
0.894993073314112
30
0
0
SPLINE
5
C6
100
AcDbEntity
8
1
62
256
6
ByLayer
370
18
48
1
60
0
100
AcDbSpline
70
4
71
3
72
54
73
50
40
0
40
0
40
0
40
0
40
0.0194476676969686
40
0.0194476676969686
40
0.0848178231838405
40
0.0848178231838405
40
0.117502900927277
40
0.117502900927277
40
0.150187978670711
40
0.150187978670711
40
0.215558134157582
40
0.215558134157582
40
0.248243211901017
40
0.248243211901017
40
0.280928289644451
40
0.280928289644451
40
0.346298445131322
40
0.346298445131322
40
0.378983522874758
40
0.378983522874758
40
0.411668600618193
40
0.411668600618193
40
0.477038756105063
40
0.477038756105063
40
0.509723833848498
40
0.509723833848498
40
0.542408911591933
40
0.542408911591933
40
0.607779067078801
40
0.607779067078801
40
0.640464144822234
40
0.640464144822234
40
0.673149222565667
40
0.673149222565667
40
0.738519378052533
40
0.738519378052533
40
0.771204455795966
40
0.771204455795966
40
0.8038895335394
40
0.8038895335394
40
0.869259689026268
40
0.869259689026268
40
0.901944766769701
40
0.901944766769701
40
0.934629844513134
40
0.934629844513134
40
0.967314922256567
40
0.967314922256567
40
1
40
1
40
1
40
1
41
1
10
8.79564296236168
20
-1.12499928314574
30
0
41
1
10
8.76235597888649
20
-1.12500021399202
30
0
41
1
10
8.72906348481803
20
-1.1245108876135
30
0
41
1
10
8.58407011820384
20
-1.12024405931641
30
0
41
1
10
8.47262137532516
20
-1.11144353609151
30
0
41
1
10
8.30536643035043
20
-1.09006441807006
30
0
41
1
10
8.24957220706946
20
-1.08158433025295
30
0
41
1
10
8.13777812952503
20
-1.06196665790796
30
0
41
1
10
8.08180853740762
20
-1.05082526255799
30
0
41
1
10
7.91428096827138
20
-1.01364435769608
30
0
41
1
10
7.80285657344655
20
-0.983800834605233
30
0
41
1
10
7.63558642652168
20
-0.931842617043571
30
0
41
1
10
7.5797726657627
20
-0.913355408965145
30
0
41
1
10
7.46791917002727
20
-0.874155429146526
30
0
41
1
10
7.41197509223124
20
-0.853467113108479
30
0
41
1
10
7.24443680973494
20
-0.788473439733195
30
0
41
1
10
7.13295549793105
20
-0.74116914297889
30
0
41
1
10
6.96559224131991
20
-0.664804628486849
30
0
41
1
10
6.9097515495742
20
-0.638487322522593
30
0
41
1
10
6.79786572060712
20
-0.584257345314683
30
0
41
1
10
6.74200631596716
20
-0.556421109172987
30
0
41
1
10
6.57462700851784
20
-0.471021158617333
30
0
41
1
10
6.46324411854656
20
-0.411580745142572
30
0
41
1
10
6.2959071098517
20
-0.319554307999283
30
0
41
1
10
6.2400238609136
20
-0.288424478840341
30
0
41
1
10
6.1281539361085
20
-0.2255697006091
30
0
41
1
10
6.07229822754164
20
-0.193903562734903
30
0
41
1
10
5.90484276857512
20
-0.0984093921653368
30
0
41
1
10
5.79335910051233
20
-0.0340783917304464
30
0
41
1
10
5.62586845510774
20
0.0625625726634382
30
0
41
1
10
5.56991569561683
20
0.0948027454914779
30
0
41
1
10
5.45806308614985
20
0.158874522053623
30
0
41
1
10
5.40222177624116
20
0.190699454967131
30
0
41
1
10
5.23483044042115
20
0.285336093660049
30
0
41
1
10
5.12340792852663
20
0.347302117551323
30
0
41
1
10
4.95601578910612
20
0.437674266794801
30
0
41
1
10
4.90007242581081
20
0.467338026602334
30
0
41
1
10
4.78832276385043
20
0.525295876610443
30
0
41
1
10
4.73251167290195
20
0.553604751726937
30
0
41
1
10
4.56513617059747
20
0.636334798456602
30
0
41
1
10
4.45363060101542
20
0.68856295781373
30
0
41
1
10
4.28594900516211
20
0.761722284263357
30
0
41
1
10
4.22998647201575
20
0.785201622120837
30
0
41
1
10
4.11827523307164
20
0.830043048537846
30
0
41
1
10
4.06247315729846
20
0.851442212509284
30
0
41
1
10
3.9508860871249
20
0.892101658867034
30
0
41
1
10
3.89509644808052
20
0.911356850406037
30
0
41
1
10
3.78343642892691
20
0.947621327735078
30
0
41
1
10
3.72756674927112
20
0.964628806204217
30
0
41
1
10
3.67155
20
0.980412464719308
30
0
0
SPLINE
5
C7
100
AcDbEntity
8
1
62
256
6
ByLayer
370
18
48
1
60
0
100
AcDbSpline
70
4
71
3
72
36
73
32
40
0
40
0
40
0
40
0
40
0.0732869512465171
40
0.100769557963961
40
0.128252164681405
40
0.164895640304663
40
0.201539115927922
40
0.238182591551181
40
0.274826067174439
40
0.311469542797698
40
0.329791280609327
40
0.366434756232586
40
0.403078231855844
40
0.439721707479103
40
0.476365183102361
40
0.51300865872562
40
0.540491265443064
40
0.567973872160508
40
0.604617347783766
40
0.641260823407025
40
0.677904299030283
40
0.714547774653542
40
0.742030381370986
40
0.76951298808843
40
0.806156463711688
40
0.842799939334947
40
0.879443414958205
40
0.916086890581464
40
0.952730366204723
40
0.971052104016352
40
1
40
1
40
1
40
1
41
1
10
3.67155
20
0.110556053557616
30
0
41
1
10
3.73012230367516
20
0.102820735643121
30
0
41
1
10
3.81065922122844
20
0.0919372396832899
30
0
41
1
10
3.91316075265996
20
0.0778129479303686
30
0
41
1
10
3.98637613225387
20
0.0676240260631858
30
0
41
1
10
4.0669130498072
20
0.0563040909078438
30
0
41
1
10
4.1547715053199
20
0.0438415465192463
30
0
41
0.999999999999999
10
4.24262996083263
20
0.0312862927576987
30
0
41
1
10
4.33048841634533
20
0.0186511690553459
30
0
41
1
10
4.40370379593926
20
0.0080816272933077
30
0
41
1
10
4.4769191755332
20
-0.0024848520939145
30
0
41
1
10
4.55013455512716
20
-0.0130478396841909
30
0
41
1
10
4.63799301063974
20
-0.0256974233635105
30
0
41
1
10
4.72585146615276
20
-0.0382979075616561
30
0
41
1
10
4.81370992166435
20
-0.0508263072742636
30
0
41
1
10
4.89424683922275
20
-0.0622245285495069
30
0
41
1
10
4.96746221879204
20
-0.0725023617835632
30
0
41
1
10
5.04067759850383
20
-0.0827038528425703
30
0
41
1
10
5.12121451565332
20
-0.0937739645766555
30
0
41
1
10
5.20907297236795
20
-0.10564131767859
30
0
41
1
10
5.29693142030606
20
-0.117281704024435
30
0
41
1
10
5.37746832356021
20
-0.127727617621048
30
0
41
1
10
5.45068368489163
20
-0.137030497941396
30
0
41
1
10
5.52389904207991
20
-0.146157704773827
30
0
41
1
10
5.60443593014807
20
-0.155965793401038
30
0
41
1
10
5.69229434825471
20
-0.16636205017457
30
0
41
1
10
5.78015276191348
20
-0.176412707469723
30
0
41
1
10
5.86801117191717
20
-0.186094995290972
30
0
41
1
10
5.9412265112015
20
-0.193847102069839
30
0
41
1
10
6.00829140134576
20
-0.200722196040857
30
0
41
1
10
6.04607015582925
20
-0.204483614254286
30
0
41
1
10
6.06920584278577
20
-0.206744080194255
30
0
0
SPLINE
5
C8
100
AcDbEntity
8
1
62
256
6
ByLayer
370
18
48
1
60
0
100
AcDbSpline
70
4
71
3
72
26
73
22
40
0
40
0
40
0
40
0
40
0.0624999999999987
40
0.0624999999999987
40
0.124999999999997
40
0.124999999999997
40
0.250000000000002
40
0.250000000000002
40
0.375000000000006
40
0.375000000000006
40
0.50000000000001
40
0.50000000000001
40
0.625000000000013
40
0.625000000000013
40
0.687500000000011
40
0.687500000000011
40
0.750000000000009
40
0.750000000000009
40
0.875000000000004
40
0.875000000000004
40
1
40
1
40
1
40
1
41
1
10
14.7862509105431
20
0.254931517238134
30
0
41
1
10
14.7814640614367
20
0.271818734738048
30
0
41
1
10
14.7758631224822
20
0.288594098494428
30
0
41
1
10
14.7636136846769
20
0.322057894495515
30
0
41
1
10
14.7569631344768
20
0.338746069591792
30
0
41
1
10
14.7359903388177
20
0.38881589930449
30
0
41
1
10
14.7206835631741
20
0.422209856890788
30
0
41
1
10
14.6888804443661
20
0.489418721086452
30
0
41
1
10
14.6723520125574
20
0.52323363295082
30
0
41
1
10
14.6387439160366
20
0.59124143945192
30
0
41
1
10
14.6216430564153
20
0.625455360059391
30
0
41
1
10
14.5871358203651
20
0.694261203056044
30
0
41
1
10
14.5697228286974
20
0.728853541847855
30
0
41
1
10
14.5434134410417
20
0.781249957287571
30
0
41
1
10
14.534610917194
20
0.79880200292186
30
0
41
1
10
14.5169647146511
20
0.834085145703114
30
0
41
1
10
14.5081175009054
20
0.851828805296805
30
0
41
1
10
14.4815326578097
20
0.905260132777045
30
0
41
1
10
14.4637525007165
20
0.94115719432989
30
0
41
1
10
14.4282299037975
20
1.01255261135833
30
0
41
1
10
14.4104968739439
20
1.04797088219348
30
0
41
1
10
14.3928038845756
20
1.08291956302381
30
0
0
SPLINE
5
C9
100
AcDbEntity
8
1
62
256
6
ByLayer
370
18
48
1
60
0
100
AcDbSpline
70
4
71
3
72
75
73
71
40
0
40
0
40
0
40
0
40
0.0141638256270546
40
0.0141638256270546
40
0.0594157640438454
40
0.0594157640438454
40
0.0820417332522409
40
0.0820417332522409
40
0.104667702460636
40
0.104667702460636
40
0.149919640877427
40
0.149919640877427
40
0.161232625481625
40
0.161232625481625
40
0.172545610085823
40
0.172545610085823
40
0.195171579294219
40
0.195171579294219
40
0.285675456127802
40
0.285675456127802
40
0.330927394544594
40
0.330927394544594
40
0.35355336375299
40
0.35355336375299
40
0.376179332961386
40
0.376179332961386
40
0.421431271378177
40
0.421431271378177
40
0.444057240586573
40
0.444057240586573
40
0.466683209794969
40
0.466683209794969
40
0.511935148211764
40
0.511935148211764
40
0.523248132815964
40
0.523248132815964
40
0.534561117420163
40
0.534561117420163
40
0.557187086628565
40
0.557187086628565
40
0.60243902504537
40
0.60243902504537
40
0.647690963462175
40
0.647690963462175
40
0.69294290187898
40
0.69294290187898
40
0.704255886483181
40
0.704255886483181
40
0.715568871087382
40
0.738194840295785
40
0.738194840295785
40
0.78344677871259
40
0.78344677871259
40
0.806072747920994
40
0.806072747920994
40
0.828698717129398
40
0.828698717129398
40
0.851324686337801
40
0.851324686337801
40
0.873950655546205
40
0.873950655546205
40
0.919202593963012
40
0.919202593963012
40
0.941828563171416
40
0.941828563171416
40
0.953141547775618
40
0.953141547775618
40
0.964454532379819
40
0.964454532379819
40
1
40
1
40
1
40
1
41
1
10
6.24539004371849
20
1.12499986075537
30
0
41
1
10
6.28045819960508
20
1.12500825868923
30
0
41
1
10
6.31548892627356
20
1.12446937615743
30
0
41
1
10
6.46234066062596
20
1.11991581445363
30
0
41
1
10
6.57405021146263
20
1.11088216255649
30
0
41
1
10
6.74198726412851
20
1.08913622792815
30
0
41
1
10
6.79809331231897
20
1.08051211293178
30
0
41
1
10
6.91023974889572
20
1.06061339046676
30
0
41
1
10
6.96621988657336
20
1.04934765533358
30
0
41
1
10
7.13403105076745
20
1.01171173320651
30
0
41
1
10
7.24585041906624
20
0.981591558428448
30
0
41
1
10
7.38593966078315
20
0.937985983636167
30
0
41
1
10
7.4139730438919
20
0.928966349298094
30
0
41
1
10
7.47008028298984
20
0.910335789757681
30
0
41
1
10
7.4981487819195
20
0.900725620707846
30
0
41
1
10
7.58213304721306
20
0.871129500622516
30
0
41
1
10
7.63791889063398
20
0.850336336696728
30
0
41
1
10
7.91612023108723
20
0.741443945560661
30
0
41
1
10
8.13689858128734
20
0.63930465441581
30
0
41
1
10
8.46932590000677
20
0.469317217532563
30
0
41
1
10
8.58048743298997
20
0.410069107669955
30
0
41
1
10
8.74829224832757
20
0.318120674099788
30
0
41
1
10
8.80448928812316
20
0.286900898353878
30
0
41
1
10
8.91659054221833
20
0.223938440155763
30
0
41
1
10
8.97254921713335
20
0.19216013936861
30
0
41
1
10
9.14029162807412
20
0.0961782663873123
30
0
41
1
10
9.25206022658307
20
0.0315324320438322
30
0
41
1
10
9.42016311174325
20
-0.0654874091036106
30
0
41
1
10
9.47631167164076
20
-0.0978567708382059
30
0
41
1
10
9.58832839826511
20
-0.162153668736949
30
0
41
1
10
9.64424854961132
20
-0.194128131105259
30
0
41
1
10
9.81190324144561
20
-0.289255844183032
30
0
41
1
10
9.92366637691953
20
-0.351385557623303
30
0
41
1
10
10.0638270307375
20
-0.426662760137106
30
0
41
1
10
10.0919107226799
20
-0.441605328087178
30
0
41
1
10
10.1479870554254
20
-0.471124361966019
30
0
41
1
10
10.1759859156864
20
-0.485703909472875
30
0
41
1
10
10.2598631366359
20
-0.528914352773029
30
0
41
1
10
10.3156147405195
20
-0.557029597157225
30
0
41
1
10
10.4824451194464
20
-0.639207687965751
30
0
41
1
10
10.593148633856
20
-0.69102351275896
30
0
41
1
10
10.8143208879622
20
-0.787591478401083
30
0
41
1
10
10.924889443649
20
-0.832214031037694
30
0
41
1
10
11.1466986217053
20
-0.913222788097585
30
0
41
1
10
11.2580306030699
20
-0.94950691658201
30
0
41
1
10
11.3981678729631
20
-0.989039717347708
30
0
41
1
10
11.426254227611
20
-0.996657192220596
30
0
41
1
10
11.4823387230893
20
-1.01124393153967
30
0
41
1
10
11.5664040762464
20
-1.03217278410244
30
0
41
1
10
11.6503244352915
20
-1.05023000094116
30
0
41
1
10
11.8181027026638
20
-1.08243324585504
30
0
41
1
10
11.9299942812053
20
-1.09862229290067
30
0
41
1
10
12.0983855396724
20
-1.11473450808893
30
0
41
1
10
12.1544813119747
20
-1.11872892215075
30
0
41
1
10
12.2664627343731
20
-1.12393914132892
30
0
41
1
10
12.3223786163364
20
-1.12515903818942
30
0
41
1
10
12.4341446556567
20
-1.12480781883687
30
0
41
1
10
12.4899966011443
20
-1.12323399962861
30
0
41
1
10
12.6018320891863
20
-1.11729299105977
30
0
41
1
10
12.6578442569344
20
-1.11293011310474
30
0
41
1
10
12.8261554634372
20
-1.09569901244421
30
0
41
1
10
12.9380217600618
20
-1.07876527672658
30
0
41
1
10
13.1058056189476
20
-1.04551301227403
30
0
41
1
10
13.1617521945851
20
-1.03313097055579
30
0
41
1
10
13.2457792953714
20
-1.01266643553563
30
0
41
1
10
13.2738048775267
20
-1.00552875017817
30
0
41
1
10
13.3298992627576
20
-0.990627136854954
30
0
41
1
10
13.3579893387525
20
-0.982856917599918
30
0
41
1
10
13.4741807551202
20
-0.949464114847586
30
0
41
1
10
13.5619484827935
20
-0.921258335056478
30
0
41
1
10
13.6495003741575
20
-0.890358327332166
30
0
0
SPLINE
5
CA
100
AcDbEntity
8
1
62
256
6
ByLayer
370
18
48
1
60
0
100
AcDbSpline
70
4
71
3
72
80
73
76
40
0
40
0
40
0
40
0
40
0.0060928054707331
40
0.0060928054707331
40
0.0121856109414662
40
0.0121856109414662
40
0.0182784164121993
40
0.0182784164121993
40
0.0243712218829324
40
0.0243712218829324
40
0.0304640273536655
40
0.0304640273536655
40
0.0365568328243986
40
0.0365568328243986
40
0.048742443765867
40
0.048742443765867
40
0.0731136656488039
40
0.0731136656488039
40
0.0974848875317408
40
0.0974848875317408
40
0.146227331297617
40
0.146227331297617
40
0.170598553180555
40
0.170598553180555
40
0.194969775063493
40
0.194969775063493
40
0.243712218829367
40
0.243712218829367
40
0.268083440712304
40
0.268083440712304
40
0.292454662595241
40
0.292454662595241
40
0.341197106361114
40
0.341197106361114
40
0.389939550126988
40
0.389939550126988
40
0.414310772009924
40
0.414310772009924
40
0.43868199389286
40
0.43868199389286
40
0.487424437658731
40
0.487424437658731
40
0.511795659541667
40
0.511795659541667
40
0.536166881424603
40
0.536166881424603
40
0.584909325190476
40
0.584909325190476
40
0.609280547073412
40
0.609280547073412
40
0.633651768956348
40
0.633651768956348
40
0.682394212722219
40
0.682394212722219
40
0.706765434605154
40
0.706765434605154
40
0.731136656488088
40
0.731136656488088
40
0.779879100253955
40
0.779879100253955
40
0.804250322136888
40
0.804250322136888
40
0.82862154401982
40
0.82862154401982
40
0.877363987785687
40
0.877363987785687
40
0.90173520966862
40
0.90173520966862
40
0.926106431551555
40
0.926106431551555
40
0.974848875317423
40
0.974848875317423
40
0.999220097200356
40
0.999220097200356
40
1
40
1
40
1
40
1
41
1
10
14.3928038845756
20
-1.08291956302384
30
0
41
1
10
14.3774502613385
20
-1.08139358225401
30
0
41
1
10
14.362631577065
20
-1.07956860661238
30
0
41
1
10
14.3338173646373
20
-1.07536201071625
30
0
41
1
10
14.3198261163361
20
-1.07297567455711
30
0
41
1
10
14.2921067254033
20
-1.06788215229415
30
0
41
1
10
14.2783844206861
20
-1.06517199182414
30
0
41
1
10
14.2507431079723
20
-1.05968847790041
30
0
41
1
10
14.2367874846434
20
-1.05694041210398
30
0
41
1
10
14.2087541750938
20
-1.0513638757422
30
0
41
1
10
14.1946835323076
20
-1.04853128789216
30
0
41
1
10
14.166635575989
20
-1.04264968501963
30
0
41
1
10
14.1526834228644
20
-1.03958228779254
30
0
41
1
10
14.1108661754716
20
-1.0301053771795
30
0
41
1
10
14.0829319318115
20
-1.02349970991432
30
0
41
1
10
13.9990461292283
20
-1.00277879067923
30
0
41
1
10
13.9430872742028
20
-0.987673741027095
30
0
41
1
10
13.8313921187525
20
-0.955145887780191
30
0
41
1
10
13.7756292609023
20
-0.937690720194155
30
0
41
1
10
13.6084061705844
20
-0.88193447663474
30
0
41
1
10
13.4968906494101
20
-0.840372796230582
30
0
41
1
10
13.3290859622002
20
-0.772001796212606
30
0
41
1
10
13.273081948516
20
-0.748208287099828
30
0
41
1
10
13.1613498138226
20
-0.698927984471823
30
0
41
1
10
13.1055614635544
20
-0.673407883168665
30
0
41
1
10
12.9382718727035
20
-0.594424685402856
30
0
41
1
10
12.8267618808372
20
-0.538663497482304
30
0
41
1
10
12.6590303305109
20
-0.451057645633938
30
0
41
1
10
12.6031220806363
20
-0.421231246252887
30
0
41
1
10
12.4915869026179
20
-0.36062354783445
30
0
41
1
10
12.4358928192682
20
-0.32984003917116
30
0
41
1
10
12.2687414261537
20
-0.236536174538202
30
0
41
1
10
12.1572012284813
20
-0.173090557980771
30
0
41
1
10
11.9333056706022
20
-0.0447536544166667
30
0
41
1
10
11.821672308635
20
0.0197376055922973
30
0
41
1
10
11.6543858168671
20
0.116016819835067
30
0
41
1
10
11.5986113216473
20
0.147986862980332
30
0
41
1
10
11.4869472088264
20
0.211524176528883
30
0
41
1
10
11.4310337378869
20
0.243110715216488
30
0
41
1
10
11.2631713929607
20
0.336966249535948
30
0
41
1
10
11.1516654882452
20
0.398003351483169
30
0
41
1
10
10.9844950580688
20
0.486413451192618
30
0
41
1
10
10.9287616714974
20
0.515319483307309
30
0
41
1
10
10.8171784509007
20
0.571849490995533
30
0
41
1
10
10.7612826998672
20
0.599516653241267
30
0
41
1
10
10.5936878223345
20
0.680157638466454
30
0
41
1
10
10.4822485270685
20
0.730538394930988
30
0
41
1
10
10.3149027312002
20
0.800298913409023
30
0
41
1
10
10.2590772475632
20
0.822569301062089
30
0
41
1
10
10.1472912583138
20
0.865087919736368
30
0
41
1
10
10.0912823713664
20
0.885378799016479
30
0
41
1
10
9.92359804919909
20
0.942914245835595
30
0
41
1
10
9.8121672200802
20
0.976729219399715
30
0
41
1
10
9.64500746984237
20
1.02012543050631
30
0
41
1
10
9.58925213599665
20
1.03334291668335
30
0
41
1
10
9.47756437931844
20
1.05720667706243
30
0
41
1
10
9.42158240169601
20
1.06786566254843
30
0
41
1
10
9.25398085293037
20
1.09578282192862
30
0
41
1
10
9.14253686670583
20
1.10902927814237
30
0
41
1
10
8.97527921857105
20
1.12068342968217
30
0
41
1
10
8.9194814459774
20
1.12319133826429
30
0
41
1
10
8.80770019304663
20
1.12543979173714
30
0
41
1
10
8.75169241557629
20
1.12517680609201
30
0
41
1
10
8.58407011820387
20
1.12024405931641
30
0
41
1
10
8.47262137532516
20
1.11144353609151
30
0
41
1
10
8.30536643035046
20
1.09006441807006
30
0
41
1
10
8.24957220706946
20
1.08158433025295
30
0
41
1
10
8.13777812952503
20
1.06196665790796
30
0
41
1
10
8.08180853740762
20
1.05082526255799
30
0
41
1
10
7.91428096827138
20
1.01364435769608
30
0
41
1
10
7.80285657344655
20
0.983800834605233
30
0
41
1
10
7.63558642652171
20
0.931842617043571
30
0
41
1
10
7.57977266576268
20
0.913355408965145
30
0
41
1
10
7.5220562075782
20
0.89312820031904
30
0
41
1
10
7.52026647951448
20
0.892499867068608
30
0
41
1
10
7.51847673748279
20
0.891870422977576
30
0
0
SPLINE
5
CB
100
AcDbEntity
8
1
62
256
6
ByLayer
370
18
48
1
60
0
100
AcDbSpline
70
4
71
3
72
48
73
44
40
0
40
0
40
0
40
0
40
0.0188470897347379
40
0.0323564869747995
40
0.0593752814549225
40
0.0863940759350456
40
0.113412870415169
40
0.140431664895292
40
0.167450459375415
40
0.180959856615477
40
0.2079786510956
40
0.234997445575723
40
0.262016240055846
40
0.289035034535969
40
0.316053829016093
40
0.336317924876185
40
0.356582020736277
40
0.3836008152164
40
0.410619609696523
40
0.437638404176647
40
0.46465719865677
40
0.491675993136893
40
0.505185390376954
40
0.532204184857078
40
0.559222979337201
40
0.586241773817324
40
0.613260568297447
40
0.64027936277757
40
0.653788760017632
40
0.680807554497755
40
0.707826348977878
40
0.734845143458001
40
0.761863937938124
40
0.788882732418247
40
0.80914682827834
40
0.829410924138432
40
0.856429718618555
40
0.883448513098679
40
0.910467307578801
40
0.937486102058925
40
0.957750197919017
40
0.978014293779109
40
1
40
1
40
1
40
1
41
1
10
8.96961989847483
20
0.207029847765142
30
0
41
1
10
8.99004859624762
20
0.205033182334802
30
0
41
1
10
9.02512037139692
20
0.201545040863806
30
0
41
1
10
9.08947830129989
20
0.19495987961713
30
0
41
1
10
9.16269368818183
20
0.187226701824812
30
0
41
1
10
9.2505521524447
20
0.177570942221109
30
0
41
1
10
9.33841061669472
20
0.167555695642818
30
0
41
1
10
9.42626908099219
20
0.157196841706536
30
0
41
1
10
9.49948446771743
20
0.148295810462713
30
0
41
1
10
9.57269985532775
20
0.13920372564101
30
0
41
1
10
9.64591523946547
20
0.129926279503735
30
0
41
1
10
9.73377371136684
20
0.11850414939218
30
0
41
1
10
9.82163198659816
20
0.106858024536564
30
0
41
1
10
9.90949011435369
20
0.0950098988303409
30
0
41
0.999999999999999
10
9.99002660843258
20
0.0839774105256198
30
0
41
1
10
10.0632415222165
20
0.0738291473719528
30
0
41
1
10
10.1364563757811
20
0.0636037539556469
30
0
41
1
10
10.2169926501741
20
0.0522747551903251
30
0
41
1
10
10.3048503442989
20
0.0398100290406092
30
0
41
1
10
10.3927079994308
20
0.0272390573683765
30
0
41
1
10
10.4805656363212
20
0.0145966780766287
30
0
41
1
10
10.5537803358247
20
0.0040253324907269
30
0
41
1
10
10.6269950498686
20
-0.0065587690527877
30
0
41
1
10
10.7002097849462
20
-0.0171543892102193
30
0
41
1
10
10.7880675214183
20
-0.0298383286056207
30
0
41
1
10
10.8759253330991
20
-0.0424475474334827
30
0
41
1
10
10.9637832404774
20
-0.0549665405506516
30
0
41
1
10
11.0369982613571
20
-0.0653097743534943
30
0
41
1
10
11.1102133641168
20
-0.075565464063942
30
0
41
1
10
11.1834285751334
20
-0.0857081043489529
30
0
41
1
10
11.2712869486425
20
-0.0976945955509336
30
0
41
1
10
11.3591452991656
20
-0.109473608578469
30
0
41
1
10
11.4470036554795
20
-0.12102675853572
30
0
41
1
10
11.5275404803726
20
-0.131389305685303
30
0
41
1
10
11.6007557763224
20
-0.140616937273165
30
0
41
1
10
11.6739710720864
20
-0.149669666653153
30
0
41
1
10
11.7545078974723
20
-0.159397149317812
30
0
41
1
10
11.8423662524286
20
-0.169668269433117
30
0
41
1
10
11.9302246073872
20
-0.179588160644442
30
0
41
1
10
12.0107614327653
20
-0.18834572358378
30
0
41
1
10
12.0839767285637
20
-0.196029779819383
30
0
41
0.999999999999999
10
12.1517365767338
20
-0.202915504892388
30
0
41
1
10
12.1975318361639
20
-0.207404740888961
30
0
41
1
10
12.2213625068548
20
-0.20969522297537
30
0
0
SPLINE
5
CC
100
AcDbEntity
8
1
62
256
6
ByLayer
370
18
48
1
60
0
100
AcDbSpline
70
4
71
3
72
22
73
18
40
0
40
0
40
0
40
0
40
0.0240526740317011
40
0.0240526740317011
40
0.18671056169309
40
0.18671056169309
40
0.349368449354478
40
0.349368449354478
40
0.512026337015866
40
0.512026337015866
40
0.593355280846555
40
0.593355280846555
40
0.674684224677244
40
0.674684224677244
40
0.837342112338622
40
0.837342112338622
40
1
40
1
40
1
40
1
41
1
10
14.7117948490638
20
-0.440919918483587
30
0
41
1
10
14.7094718136045
20
-0.445880529713008
30
0
41
1
10
14.7071334115649
20
-0.450845108195182
30
0
41
1
10
14.6888804443661
20
-0.489418721086452
30
0
41
1
10
14.6723520125574
20
-0.52323363295082
30
0
41
1
10
14.6387439160366
20
-0.59124143945192
30
0
41
1
10
14.6216430564153
20
-0.625455360059391
30
0
41
1
10
14.5871358203651
20
-0.694261203056044
30
0
41
1
10
14.5697228286974
20
-0.728853541847855
30
0
41
1
10
14.5434134410417
20
-0.781249957287571
30
0
41
1
10
14.534610917194
20
-0.79880200292186
30
0
41
1
10
14.5169647146511
20
-0.834085145703114
30
0
41
1
10
14.5081175009054
20
-0.851828805296805
30
0
41
1
10
14.4815326578097
20
-0.905260132777045
30
0
41
1
10
14.4637525007164
20
-0.94115719432989
30
0
41
1
10
14.4282299037975
20
-1.01255261135833
30
0
41
1
10
14.4104968739439
20
-1.04797088219345
30
0
41
1
10
14.3928038845756
20
-1.08291956302381
30
0
0
SPLINE
5
CD
100
AcDbEntity
8
1
62
256
6
ByLayer
370
18
48
1
60
0
100
AcDbSpline
70
4
71
3
72
45
73
41
40
0
40
0
40
0
40
0
40
0.125000000000007
40
0.125000000000007
40
0.18750000000001
40
0.18750000000001
40
0.250000000000014
40
0.250000000000014
40
0.312500000000017
40
0.312500000000017
40
0.375000000000021
40
0.375000000000021
40
0.500000000000028
40
0.500000000000028
40
0.531250000000028
40
0.531250000000028
40
0.562500000000028
40
0.562500000000028
40
0.625000000000028
40
0.625000000000028
40
0.687500000000028
40
0.687500000000028
40
0.703125000000028
40
0.703125000000028
40
0.718750000000027
40
0.750000000000024
40
0.750000000000024
40
0.812500000000018
40
0.812500000000018
40
0.828125000000016
40
0.828125000000016
40
0.843750000000015
40
0.843750000000015
40
0.875000000000011
40
0.875000000000011
40
0.937500000000005
40
0.937500000000005
40
0.968750000000003
40
0.968750000000003
40
1
40
1
40
1
40
1
41
1
10
3.67155
20
-0.278582278359806
30
0
41
1
10
3.58582511388931
20
-0.254385550375673
30
0
41
1
10
3.50182665039742
20
-0.225410614709773
30
0
41
1
10
3.37841621374827
20
-0.174444137175101
30
0
41
1
10
3.33773058632863
20
-0.156203200059537
30
0
41
1
10
3.25769290688029
20
-0.117346084459967
30
0
41
1
10
3.21828374948495
20
-0.0967076673408087
30
0
41
1
10
3.14070689848151
20
-0.0529317456963554
30
0
41
1
10
3.10243700077052
20
-0.0297226755166662
30
0
41
1
10
3.02796302197851
20
0.0187929376033935
30
0
41
1
10
2.9917010533334
20
0.0441224750727542
30
0
41
1
10
2.88591945661455
20
0.123334057043195
30
0
41
1
10
2.819365877351
20
0.18040360879786
30
0
41
1
10
2.7418160291947
20
0.257490832175193
30
0
41
1
10
2.72659121764357
20
0.273198619399182
30
0
41
1
10
2.69674445798827
20
0.305219660969072
30
0
41
1
10
2.68207439650644
20
0.321589757917025
30
0
41
1
10
2.63942298383893
20
0.371198431155733
30
0
41
1
10
2.61286209340841
20
0.404833921168631
30
0
41
1
10
2.56374405421045
20
0.473120495839851
30
0
41
1
10
2.54118209934612
20
0.507771012984762
30
0
41
1
10
2.51579627515551
20
0.551681109464027
30
0
41
1
10
2.51086131520475
20
0.560494040560997
30
0
41
1
10
2.50137374387344
20
0.578011539997362
30
0
41
1
10
2.48767973676433
20
0.604187061810222
30
0
41
1
10
2.47560179631856
20
0.6300431964099
30
0
41
1
10
2.45364230333175
20
0.681281900860995
30
0
41
1
10
2.4419150608812
20
0.714811697833312
30
0
41
1
10
2.4312386264898
20
0.755757276605806
30
0
41
1
10
2.42930373534409
20
0.763897897428592
30
0
41
1
10
2.42584899094726
20
0.780076866440197
30
0
41
1
10
2.42433032841862
20
0.788118035009489
30
0
41
1
10
2.42046294294795
20
0.811772009104942
30
0
41
1
10
2.41877717130964
20
0.827021615925048
30
0
41
1
10
2.41633969800313
20
0.871232793770162
30
0
41
1
10
2.41819168621962
20
0.898662083111333
30
0
41
1
10
2.42625220558961
20
0.936725756942991
30
0
41
1
10
2.42984315298105
20
0.948931785380466
30
0
41
1
10
2.43869223335076
20
0.971942784520991
30
0
41
1
10
2.44395365803334
20
0.982792452190068
30
0
41
1
10
2.45003347421221
20
0.993014355246771
30
0
0
LINE
5
7F
100
AcDbEntity
8
1
62
256
6
ByLayer
370
18
48
1
60
0
100
AcDbLine
10
0
20
-1.499986
30
0
11
0
21
0
31
0
39
0
210
0
220
0
230
1
0
LINE
5
80
100
AcDbEntity
8
1
62
256
6
ByLayer
370
18
48
1
60
0
100
AcDbLine
10
0
20
0
30
0
11
0
21
1.499986
31
0
39
0
210
0
220
0
230
1
0
LINE
5
81
100
AcDbEntity
8
1
62
256
6
ByLayer
370
18
48
1
60
0
100
AcDbLine
10
14.392804
20
0.575245
30
0
11
14.392804
21
-1.08292
31
0
39
0
210
0
220
0
230
1
0
LINE
5
82
100
AcDbEntity
8
1
62
256
6
ByLayer
370
18
48
1
60
0
100
AcDbLine
10
3.67155
20
0.980412
30
0
11
3.67155
21
0.110556
31
0
39
0
210
0
220
0
230
1
0
LINE
5
83
100
AcDbEntity
8
1
62
256
6
ByLayer
370
13
48
1
60
0
100
AcDbLine
10
0.917444
20
1.125
30
0
11
0.917444
21
-1.125
31
0
39
0
210
0
220
0
230
1
0
LINE
5
84
100
AcDbEntity
8
1
62
256
6
ByLayer
370
18
48
1
60
0
100
AcDbLine
10
3.67155
20
0.110556
30
0
11
3.67155
21
-0.278582
31
0
39
0
210
0
220
0
230
1
0
LINE
5
85
100
AcDbEntity
8
1
62
256
6
ByLayer
370
13
48
1
60
0
100
AcDbLine
10
0.417444
20
1.258975
30
0
11
0.417444
21
-1.258975
31
0
39
0
210
0
220
0
230
1
0
LINE
5
86
100
AcDbEntity
8
SK1
62
256
6
ByLayer
370
18
48
1
60
0
100
AcDbLine
10
-23.0826
20
1.326795
30
0
11
-23.0826
21
-1.326795
31
0
39
0
210
0
220
0
230
1
0
LINE
5
88
100
AcDbEntity
8
SK1
62
256
6
ByLayer
370
18
48
1
60
0
100
AcDbLine
10
-22.7826
20
1.5
30
0
11
-22.7826
21
-1.5
31
0
39
0
210
0
220
0
230
1
0
LINE
5
89
100
AcDbEntity
8
SK1
62
256
6
ByLayer
370
18
48
1
60
0
100
AcDbLine
10
0
20
-1.499986
30
0
11
0
21
0
31
0
39
0
210
0
220
0
230
1
0
LINE
5
8A
100
AcDbEntity
8
SK1
62
256
6
ByLayer
370
18
48
1
60
0
100
AcDbLine
10
0
20
0
30
0
11
0
21
1.499986
31
0
39
0
210
0
220
0
230
1
0
LINE
5
8B
100
AcDbEntity
8
SK1
62
256
6
ByLayer
370
18
48
1
60
0
100
AcDbLine
10
-2.4E-05
20
1.5
30
0
11
-2.4E-05
21
-1.5
31
0
39
0
210
0
220
0
230
1
0
LINE
5
8C
100
AcDbEntity
8
1
62
256
6
ByLayer
370
18
48
1
60
0
100
AcDbLine
10
0.417444
20
1.258975
30
0
11
0
21
1.499986
31
0
39
0
210
0
220
0
230
1
0
LINE
5
8D
100
AcDbEntity
8
1
62
256
6
ByLayer
370
18
48
1
60
0
100
AcDbLine
10
0
20
-1.499986
30
0
11
0.417444
21
-1.258975
31
0
39
0
210
0
220
0
230
1
0
LINE
5
8E
100
AcDbEntity
8
1
62
256
6
ByLayer
370
18
48
1
60
0
100
AcDbLine
10
14.9174
20
0
30
0
11
14.711241
21
0.442109
31
0
39
0
210
0
220
0
230
1
0
LINE
5
8F
100
AcDbEntity
8
1
62
256
6
ByLayer
370
18
48
1
60
0
100
AcDbLine
10
14.711241
20
-0.442109
30
0
11
14.9174
21
0
31
0
39
0
210
0
220
0
230
1
0
LINE
5
90
100
AcDbEntity
8
1
62
256
6
ByLayer
370
18
48
1
60
0
100
AcDbLine
10
0.917444
20
-1.125
30
0
11
6.2456
21
-1.125
31
0
39
0
210
0
220
0
230
1
0
LINE
5
91
100
AcDbEntity
8
1
62
256
6
ByLayer
370
18
48
1
60
0
100
AcDbLine
10
8.795515
20
-1.125
30
0
11
12.367085
21
-1.125
31
0
39
0
210
0
220
0
230
1
0
LINE
5
92
100
AcDbEntity
8
1
62
256
6
ByLayer
370
18
48
1
60
0
100
AcDbLine
10
12.367085
20
1.125
30
0
11
8.795515
21
1.125
31
0
39
0
210
0
220
0
230
1
0
LINE
5
93
100
AcDbEntity
8
1
62
256
6
ByLayer
370
18
48
1
60
0
100
AcDbLine
10
6.2456
20
1.125
30
0
11
0.917444
21
1.125
31
0
39
0
210
0
220
0
230
1
0
LINE
5
94
100
AcDbEntity
8
SK1
62
256
6
ByLayer
370
18
48
1
60
0
100
AcDbLine
10
-23.0826
20
-1.326795
30
0
11
-22.7826
21
-1.5
31
0
39
0
210
0
220
0
230
1
0
LINE
5
95
100
AcDbEntity
8
SK1
62
256
6
ByLayer
370
18
48
1
60
0
100
AcDbLine
10
-22.7826
20
1.5
30
0
11
-23.0826
21
1.326795
31
0
39
0
210
0
220
0
230
1
0
LINE
5
96
100
AcDbEntity
8
SK1
62
256
6
ByLayer
370
18
48
1
60
0
100
AcDbLine
10
-22.7826
20
-1.5
30
0
11
-2.4E-05
21
-1.5
31
0
39
0
210
0
220
0
230
1
0
LINE
5
97
100
AcDbEntity
8
SK1
62
256
6
ByLayer
370
18
48
1
60
0
100
AcDbLine
10
-2.4E-05
20
1.5
30
0
11
-22.7826
21
1.5
31
0
39
0
210
0
220
0
230
1
0
LINE
5
98
100
AcDbEntity
8
SK1
62
256
6
ByLayer
370
18
48
1
60
0
100
AcDbLine
10
0
20
1.499986
30
0
11
-2.4E-05
21
1.5
31
0
39
0
210
0
220
0
230
1
0
LINE
5
99
100
AcDbEntity
8
SK1
62
256
6
ByLayer
370
18
48
1
60
0
100
AcDbLine
10
-2.4E-05
20
-1.5
30
0
11
0
21
-1.499986
31
0
39
0
210
0
220
0
230
1
0
LINE
5
9A
100
AcDbEntity
8
4
62
256
6
ByLayer
370
18
48
0.05
60
0
100
AcDbLine
10
0
20
0
30
0
11
14.9174
21
0
31
0
39
0
210
0
220
0
230
1
0
LINE
5
9C
100
AcDbEntity
8
81
62
256
6
ByLayer
370
18
48
1
60
0
100
AcDbLine
10
14.9174
20
0
30
0
11
17.9174
21
0
31
0
39
0
210
0
220
0
230
1
0
LINE
5
9D
100
AcDbEntity
8
80
62
256
6
ByLayer
370
18
48
1
60
0
100
AcDbLine
10
0
20
0
30
0
11
-3
21
0
31
0
39
0
210
0
220
0
230
1
0
LINE
5
9E
100
AcDbEntity
8
SK4
62
256
6
ByLayer
370
18
48
0.05
60
0
100
AcDbLine
10
-26.0826
20
0
30
0
11
17.9174
21
0
31
0
39
0
210
0
220
0
230
1
0
LINE
5
A0
100
AcDbEntity
8
SK2
62
256
6
ByLayer
370
13
48
1
60
0
100
AcDbLine
10
-27.5826
20
-9
30
0
11
-27.5826
21
21.782741
31
0
39
0
210
0
220
0
230
1
0
LINE
5
A2
100
AcDbEntity
8
SK2
62
256
6
ByLayer
370
13
48
1
60
0
100
AcDbLine
10
-24.6701
20
-1.5
30
0
11
-29.5826
21
-1.5
31
0
39
0
210
0
220
0
230
1
0
LINE
5
A3
100
AcDbEntity
8
SK2
62
256
6
ByLayer
370
13
48
1
60
0
100
AcDbLine
10
-24.6701
20
1.5
30
0
11
-29.5826
21
1.5
31
0
39
0
210
0
220
0
230
1
0
LINE
5
A4
100
AcDbEntity
8
1
62
256
6
ByLayer
370
18
48
1
60
1
100
AcDbLine
10
-27.5826
20
-1.5
30
0
11
-27.121816
21
-4.999998
31
0
39
0
210
0
220
0
230
1
0
LINE
5
A5
100
AcDbEntity
8
1
62
256
6
ByLayer
370
18
48
1
60
1
100
AcDbLine
10
-27.121816
20
-4.999998
30
0
11
-28.043384
21
-5.000002
31
0
39
0
210
0
220
0
230
1
0
LINE
5
A6
100
AcDbEntity
8
1
62
256
6
ByLayer
370
18
48
1
60
1
100
AcDbLine
10
-28.043384
20
-5.000002
30
0
11
-27.5826
21
-1.5
31
0
39
0
210
0
220
0
230
1
0
LINE
5
A7
100
AcDbEntity
8
1
62
256
6
ByLayer
370
18
48
1
60
1
100
AcDbLine
10
-27.5826
20
1.5
30
0
11
-28.043384
21
4.999998
31
0
39
0
210
0
220
0
230
1
0
LINE
5
A8
100
AcDbEntity
8
1
62
256
6
ByLayer
370
18
48
1
60
1
100
AcDbLine
10
-28.043384
20
4.999998
30
0
11
-27.121816
21
5.000002
31
0
39
0
210
0
220
0
230
1
0
LINE
5
A9
100
AcDbEntity
8
1
62
256
6
ByLayer
370
18
48
1
60
1
100
AcDbLine
10
-27.121816
20
5.000002
30
0
11
-27.5826
21
1.5
31
0
39
0
210
0
220
0
230
1
0
LINE
5
AA
100
AcDbEntity
8
2
62
256
6
ByLayer
370
13
48
1
60
0
100
AcDbLine
10
20.4174
20
-8.625
30
0
11
20.4174
21
29.657741
31
0
39
0
210
0
220
0
230
1
0
LINE
5
AC
100
AcDbEntity
8
2
62
256
6
ByLayer
370
13
48
1
60
0
100
AcDbLine
10
16.5049
20
-1.125
30
0
11
22.4174
21
-1.125
31
0
39
0
210
0
220
0
230
1
0
LINE
5
AD
100
AcDbEntity
8
2
62
256
6
ByLayer
370
13
48
1
60
0
100
AcDbLine
10
16.5049
20
1.125
30
0
11
22.4174
21
1.125
31
0
39
0
210
0
220
0
230
1
0
LINE
5
AE
100
AcDbEntity
8
1
62
256
6
ByLayer
370
18
48
1
60
1
100
AcDbLine
10
20.4174
20
-1.125
30
0
11
20.878184
21
-4.624998
31
0
39
0
210
0
220
0
230
1
0
LINE
5
AF
100
AcDbEntity
8
1
62
256
6
ByLayer
370
18
48
1
60
1
100
AcDbLine
10
20.878184
20
-4.624998
30
0
11
19.956616
21
-4.625002
31
0
39
0
210
0
220
0
230
1
0
LINE
5
B0
100
AcDbEntity
8
1
62
256
6
ByLayer
370
18
48
1
60
1
100
AcDbLine
10
19.956616
20
-4.625002
30
0
11
20.4174
21
-1.125
31
0
39
0
210
0
220
0
230
1
0
LINE
5
B1
100
AcDbEntity
8
1
62
256
6
ByLayer
370
18
48
1
60
1
100
AcDbLine
10
20.4174
20
1.125
30
0
11
19.956616
21
4.624998
31
0
39
0
210
0
220
0
230
1
0
LINE
5
B2
100
AcDbEntity
8
1
62
256
6
ByLayer
370
18
48
1
60
1
100
AcDbLine
10
19.956616
20
4.624998
30
0
11
20.878184
21
4.625002
31
0
39
0
210
0
220
0
230
1
0
LINE
5
B3
100
AcDbEntity
8
1
62
256
6
ByLayer
370
18
48
1
60
1
100
AcDbLine
10
20.878184
20
4.625002
30
0
11
20.4174
21
1.125
31
0
39
0
210
0
220
0
230
1
0
LINE
5
B4
100
AcDbEntity
8
SK2
62
256
6
ByLayer
370
13
48
1
60
0
100
AcDbLine
10
15.588306
20
-1.438764
30
0
11
22.672445
21
-16.630748
31
0
39
0
210
0
220
0
230
1
0
LINE
5
B5
100
AcDbEntity
8
SK2
62
256
6
ByLayer
370
13
48
1
60
0
100
AcDbLine
10
15.588306
20
1.438764
30
0
11
22.672445
21
16.630748
31
0
39
0
210
0
220
0
230
1
0
LINE
5
B6
100
AcDbEntity
8
1
62
256
6
ByLayer
370
18
48
1
60
1
100
AcDbLine
10
21.827209
20
-14.818132
30
0
11
24.699242
21
-12.765394
31
0
39
0
210
0
220
0
230
1
0
LINE
5
B7
100
AcDbEntity
8
1
62
256
6
ByLayer
370
18
48
1
60
1
100
AcDbLine
10
24.699242
20
-12.765394
30
0
11
25.132671
21
-13.578675
31
0
39
0
210
0
220
0
230
1
0
LINE
5
B8
100
AcDbEntity
8
1
62
256
6
ByLayer
370
18
48
1
60
1
100
AcDbLine
10
25.132671
20
-13.578675
30
0
11
21.827209
21
-14.818132
31
0
39
0
210
0
220
0
230
1
0
LINE
5
B9
100
AcDbEntity
8
1
62
256
6
ByLayer
370
18
48
1
60
1
100
AcDbLine
10
21.827209
20
14.818132
30
0
11
25.132668
21
13.578677
31
0
39
0
210
0
220
0
230
1
0
LINE
5
BA
100
AcDbEntity
8
1
62
256
6
ByLayer
370
18
48
1
60
1
100
AcDbLine
10
25.132668
20
13.578677
30
0
11
24.699245
21
12.765392
31
0
39
0
210
0
220
0
230
1
0
LINE
5
BB
100
AcDbEntity
8
1
62
256
6
ByLayer
370
18
48
1
60
1
100
AcDbLine
10
24.699245
20
12.765392
30
0
11
21.827209
21
14.818132
31
0
39
0
210
0
220
0
230
1
0
LINE
5
D2
100
AcDbEntity
8
1
62
256
6
ByLayer
370
18
48
1
60
1
100
AcDbLine
10
-27.5826
20
-1.5
30
0
11
-27.121816
21
-4.999998
31
0
39
0
210
0
220
0
230
1
0
LINE
5
D3
100
AcDbEntity
8
1
62
256
6
ByLayer
370
18
48
1
60
1
100
AcDbLine
10
-27.121816
20
-4.999998
30
0
11
-28.043384
21
-5.000002
31
0
39
0
210
0
220
0
230
1
0
LINE
5
D4
100
AcDbEntity
8
1
62
256
6
ByLayer
370
18
48
1
60
1
100
AcDbLine
10
-28.043384
20
-5.000002
30
0
11
-27.5826
21
-1.5
31
0
39
0
210
0
220
0
230
1
0
LINE
5
D6
100
AcDbEntity
8
1
62
256
6
ByLayer
370
18
48
1
60
1
100
AcDbLine
10
-27.5826
20
1.5
30
0
11
-28.043384
21
4.999998
31
0
39
0
210
0
220
0
230
1
0
LINE
5
D7
100
AcDbEntity
8
1
62
256
6
ByLayer
370
18
48
1
60
1
100
AcDbLine
10
-28.043384
20
4.999998
30
0
11
-27.121816
21
5.000002
31
0
39
0
210
0
220
0
230
1
0
LINE
5
D8
100
AcDbEntity
8
1
62
256
6
ByLayer
370
18
48
1
60
1
100
AcDbLine
10
-27.121816
20
5.000002
30
0
11
-27.5826
21
1.5
31
0
39
0
210
0
220
0
230
1
0
LINE
5
DC
100
AcDbEntity
8
1
62
256
6
ByLayer
370
18
48
1
60
1
100
AcDbLine
10
20.4174
20
-1.125
30
0
11
20.878184
21
-4.624998
31
0
39
0
210
0
220
0
230
1
0
LINE
5
DD
100
AcDbEntity
8
1
62
256
6
ByLayer
370
18
48
1
60
1
100
AcDbLine
10
20.878184
20
-4.624998
30
0
11
19.956616
21
-4.625002
31
0
39
0
210
0
220
0
230
1
0
LINE
5
DE
100
AcDbEntity
8
1
62
256
6
ByLayer
370
18
48
1
60
1
100
AcDbLine
10
19.956616
20
-4.625002
30
0
11
20.4174
21
-1.125
31
0
39
0
210
0
220
0
230
1
0
LINE
5
E0
100
AcDbEntity
8
1
62
256
6
ByLayer
370
18
48
1
60
1
100
AcDbLine
10
20.4174
20
1.125
30
0
11
19.956616
21
4.624998
31
0
39
0
210
0
220
0
230
1
0
LINE
5
E1
100
AcDbEntity
8
1
62
256
6
ByLayer
370
18
48
1
60
1
100
AcDbLine
10
19.956616
20
4.624998
30
0
11
20.878184
21
4.625002
31
0
39
0
210
0
220
0
230
1
0
LINE
5
E2
100
AcDbEntity
8
1
62
256
6
ByLayer
370
18
48
1
60
1
100
AcDbLine
10
20.878184
20
4.625002
30
0
11
20.4174
21
1.125
31
0
39
0
210
0
220
0
230
1
0
LINE
5
E5
100
AcDbEntity
8
1
62
256
6
ByLayer
370
18
48
1
60
1
100
AcDbLine
10
21.827209
20
-14.818132
30
0
11
24.699242
21
-12.765394
31
0
39
0
210
0
220
0
230
1
0
LINE
5
E6
100
AcDbEntity
8
1
62
256
6
ByLayer
370
18
48
1
60
1
100
AcDbLine
10
24.699242
20
-12.765394
30
0
11
25.132671
21
-13.578675
31
0
39
0
210
0
220
0
230
1
0
LINE
5
E7
100
AcDbEntity
8
1
62
256
6
ByLayer
370
18
48
1
60
1
100
AcDbLine
10
25.132671
20
-13.578675
30
0
11
21.827209
21
-14.818132
31
0
39
0
210
0
220
0
230
1
0
LINE
5
E9
100
AcDbEntity
8
1
62
256
6
ByLayer
370
18
48
1
60
1
100
AcDbLine
10
21.827209
20
14.818132
30
0
11
25.132668
21
13.578677
31
0
39
0
210
0
220
0
230
1
0
LINE
5
EA
100
AcDbEntity
8
1
62
256
6
ByLayer
370
18
48
1
60
1
100
AcDbLine
10
25.132668
20
13.578677
30
0
11
24.699245
21
12.765392
31
0
39
0
210
0
220
0
230
1
0
LINE
5
EB
100
AcDbEntity
8
1
62
256
6
ByLayer
370
18
48
1
60
1
100
AcDbLine
10
24.699245
20
12.765392
30
0
11
21.827209
21
14.818132
31
0
39
0
210
0
220
0
230
1
0
MTEXT
5
CE
100
AcDbEntity
8
SK2
62
256
6
ByLayer
370
18
48
1
60
0
100
AcDbMText
10
-28.923714
20
6.658437
30
0
210
0
220
0
230
1
1
%%c
40
3
41
0
44
1.084337
50
90
71
7
72
5
7
iso_b_vert
0
MTEXT
5
D1
100
AcDbEntity
8
SK2
62
256
6
ByLayer
370
18
48
1
60
0
100
AcDbMText
10
-28.923714
20
12.635
30
0
210
0
220
0
230
1
1
\W0.7468;3.000
40
3
41
0
44
1.084337
50
90
71
7
72
5
7
iso_b_vert
0
MTEXT
5
DA
100
AcDbEntity
8
2
62
256
6
ByLayer
370
18
48
1
60
0
100
AcDbMText
10
19.076286
20
14.533437
30
0
210
0
220
0
230
1
1
%%c
40
3
41
0
44
1.084337
50
90
71
7
72
5
7
iso_b_vert
0
MTEXT
5
DB
100
AcDbEntity
8
2
62
256
6
ByLayer
370
18
48
1
60
0
100
AcDbMText
10
19.076286
20
20.51
30
0
210
0
220
0
230
1
1
\W0.7468;2.250
40
3
41
0
44
1.084337
50
90
71
7
72
5
7
iso_b_vert
0
MTEXT
5
E4
100
AcDbEntity
8
SK2
62
256
6
ByLayer
370
18
48
1
60
0
100
AcDbMText
10
27.984686
20
-2.114886
30
0
210
0
220
0
230
1
1
\W0.6747;130%%d
40
3
41
0
44
1.084337
50
0
71
7
72
5
7
iso_b_vert
0
MTEXT
5
ED
100
AcDbEntity
8
SK6
62
256
6
ByLayer
370
18
48
1
60
0
100
AcDbMText
10
-32.08651
20
-48.114886
30
0
210
0
220
0
230
1
1
\W0.7754;462.1-0225-009A0-XM X0BU
40
3
41
0
44
1.084337
50
0
71
7
72
5
7
iso_b_vert
0
HATCH
5
D5
100
AcDbEntity
8
SK2
62
256
6
ByLayer
370
13
48
1
60
0
100
AcDbHatch
10
0
20
0
30
0
210
0
220
0
230
1
2
ANSI31
70
0
71
0
91
1
92
5
93
3
72
1
10
-27.5826
20
-1.5
11
-27.1218162584472
21
-4.99999830744682
72
1
10
-27.1218162584472
20
-4.99999830744682
11
-28.0433837415528
21
-5.00000169255318
72
1
10
-28.0433837415528
20
-5.00000169255318
11
-27.5826
21
-1.5
97
0
75
0
76
1
52
0
41
0.0062
77
0
78
1
53
45
43
0
44
0
45
-0.0139193969876572
46
0.0139193969876572
79
0
47
0
98
1
10
0
20
0
0
HATCH
5
D9
100
AcDbEntity
8
SK2
62
256
6
ByLayer
370
13
48
1
60
0
100
AcDbHatch
10
0
20
0
30
0
210
0
220
0
230
1
2
ANSI31
70
0
71
0
91
1
92
5
93
3
72
1
10
-27.5826
20
1.5
11
-28.0433837415528
21
4.99999830744682
72
1
10
-28.0433837415528
20
4.99999830744682
11
-27.1218162584472
21
5.00000169255318
72
1
10
-27.1218162584472
20
5.00000169255318
11
-27.5826
21
1.5
97
0
75
0
76
1
52
0
41
0.0062
77
0
78
1
53
45
43
0
44
0
45
-0.0139193969876572
46
0.0139193969876572
79
0
47
0
98
1
10
0
20
0
0
HATCH
5
DF
100
AcDbEntity
8
2
62
256
6
ByLayer
370
13
48
1
60
0
100
AcDbHatch
10
0
20
0
30
0
210
0
220
0
230
1
2
ANSI31
70
0
71
0
91
1
92
5
93
3
72
1
10
20.4174
20
-1.125
11
20.8781837415528
21
-4.62499830744682
72
1
10
20.8781837415528
20
-4.62499830744682
11
19.9566162584472
21
-4.62500169255318
72
1
10
19.9566162584472
20
-4.62500169255318
11
20.4174
21
-1.125
97
0
75
0
76
1
52
0
41
0.0062
77
0
78
1
53
45
43
0
44
0
45
-0.0139193969876572
46
0.0139193969876572
79
0
47
0
98
1
10
0
20
0
0
HATCH
5
E3
100
AcDbEntity
8
2
62
256
6
ByLayer
370
13
48
1
60
0
100
AcDbHatch
10
0
20
0
30
0
210
0
220
0
230
1
2
ANSI31
70
0
71
0
91
1
92
5
93
3
72
1
10
20.4174
20
1.125
11
19.9566162584472
21
4.62499830744682
72
1
10
19.9566162584472
20
4.62499830744682
11
20.8781837415528
21
4.62500169255318
72
1
10
20.8781837415528
20
4.62500169255318
11
20.4174
21
1.125
97
0
75
0
76
1
52
0
41
0.0062
77
0
78
1
53
45
43
0
44
0
45
-0.0139193969876572
46
0.0139193969876572
79
0
47
0
98
1
10
0
20
0
0
HATCH
5
E8
100
AcDbEntity
8
SK2
62
256
6
ByLayer
370
13
48
1
60
0
100
AcDbHatch
10
0
20
0
30
0
210
0
220
0
230
1
2
ANSI31
70
0
71
0
91
1
92
5
93
3
72
1
10
21.8272085794604
20
-14.8181323180492
11
24.6992418553693
21
-12.765393983365
72
1
10
24.6992418553693
20
-12.765393983365
11
25.1326706127348
21
-13.5786750775861
72
1
10
25.1326706127348
20
-13.5786750775861
11
21.8272085794604
21
-14.8181323180492
97
0
75
0
76
1
52
0
41
0.0062
77
0
78
1
53
45
43
0
44
0
45
-0.0139193969876572
46
0.0139193969876572
79
0
47
0
98
1
10
0
20
0
0
HATCH
5
EC
100
AcDbEntity
8
SK2
62
256
6
ByLayer
370
13
48
1
60
0
100
AcDbHatch
10
0
20
0
30
0
210
0
220
0
230
1
2
ANSI31
70
0
71
0
91
1
92
5
93
3
72
1
10
21.8272085794604
20
14.8181323180492
11
25.1326676253807
21
13.5786766696479
72
1
10
25.1326676253807
20
13.5786766696479
11
24.6992448427234
21
12.7653923913032
72
1
10
24.6992448427234
20
12.7653923913032
11
21.8272085794604
21
14.8181323180492
97
0
75
0
76
1
52
0
41
0.0062
77
0
78
1
53
45
43
0
44
0
45
-0.0139193969876572
46
0.0139193969876572
79
0
47
0
98
1
10
0
20
0
0
DIMENSION
5
F0
100
AcDbEntity
8
SK2
62
256
6
ByLayer
370
18
48
1
60
0
100
AcDbDimension
2
_U0
10
14.9174
20
-39.12547
30
0
11
-4.0826
21
-39.12547
31
0
70
32
71
1
72
1
41
1
210
0
220
0
230
1
3
Standard
100
AcDbAlignedDimension
13
-23.0826
23
1.5
33
0
14
14.9174
24
1.125
34
0
50
0
100
AcDbRotatedDimension
1001
ACAD
1000
DSTYLE
1002
{
1070
   371
1070
    13
1070
   372
1070
    13
1070
     3
1000

1070
   170
1070
     0
1070
   144
1040
1.0
1070
   277
1070
     2
1070
   284
1070
     8
1070
   278
1070
    46
1070
   146
1040
1.166667
1070
   345
1005
16
1070
   347
1005
16
1070
   346
1005
16
1070
   344
1005
0
1070
   343
1005
0
1070
   172
1070
     1
1070
    76
1070
     0
1070
    75
1070
     0
1070
   282
1070
     0
1070
   281
1070
     0
1070
    71
1070
     0
1070
    74
1070
     0
1070
   279
1070
     0
1070
   173
1070
     1
1070
   340
1005
CF
1070
   271
1070
     2
1070
   272
1070
     2
1070
    77
1070
     1
1070
    73
1070
     1
1070
   171
1070
     3
1070
   274
1070
     4
1070
   177
1070
     2
1070
   176
1070
     2
1070
   178
1070
     2
1070
    78
1070
     8
1070
    48
1040
-0.1
1070
    41
1040
3.5
1070
   147
1040
1.5
1070
    42
1040
1.5875
1070
    44
1040
2.0
1070
   140
1040
3.0
1002
}
1001
ACAD_DSTYLE_DIM_LINETYPE
1070
   380
1005
16
1001
ACAD_DSTYLE_DIM_EXT1_LINETYPE
1070
   381
1005
16
1001
ACAD_DSTYLE_DIM_EXT2_LINETYPE
1070
   382
1005
16
0
DIMENSION
5
109
100
AcDbEntity
8
SK2
62
256
6
ByLayer
370
18
48
1
60
0
100
AcDbDimension
2
_U1
10
5.7924
20
-22.625
30
0
11
30.988829
21
-22.625
31
0
70
32
71
1
72
1
41
1
210
0
220
0
230
1
3
Standard
100
AcDbAlignedDimension
13
14.9174
23
1.125
33
0
14
5.7924
24
0
34
0
50
0
100
AcDbRotatedDimension
1001
ACAD
1000
DSTYLE
1002
{
1070
   371
1070
    13
1070
   372
1070
    13
1070
     3
1000

1070
   170
1070
     0
1070
   144
1040
1.0
1070
   277
1070
     2
1070
   284
1070
     8
1070
   278
1070
    46
1070
   146
1040
1.166667
1070
   345
1005
16
1070
   347
1005
16
1070
   346
1005
16
1070
   344
1005
0
1070
   343
1005
0
1070
   172
1070
     1
1070
    76
1070
     0
1070
    75
1070
     0
1070
   282
1070
     0
1070
   281
1070
     0
1070
    71
1070
     0
1070
    74
1070
     0
1070
   279
1070
     0
1070
   173
1070
     1
1070
   340
1005
CF
1070
   271
1070
     2
1070
   272
1070
     2
1070
    77
1070
     1
1070
    73
1070
     1
1070
   171
1070
     3
1070
   274
1070
     4
1070
   177
1070
     2
1070
   176
1070
     2
1070
   178
1070
     2
1070
    78
1070
     8
1070
    48
1040
-0.1
1070
    41
1040
3.5
1070
   147
1040
1.5
1070
    42
1040
1.5875
1070
    44
1040
2.0
1070
   140
1040
3.0
1002
}
1001
ACAD_DSTYLE_DIM_LINETYPE
1070
   380
1005
16
1001
ACAD_DSTYLE_DIM_EXT1_LINETYPE
1070
   381
1005
16
1001
ACAD_DSTYLE_DIM_EXT2_LINETYPE
1070
   382
1005
16
0
DIMENSION
5
123
100
AcDbEntity
8
SK2
62
256
6
ByLayer
370
18
48
1
60
0
100
AcDbDimension
2
_U2
10
2.4174
20
-30.62547
30
0
11
8.6674
21
-30.62547
31
0
70
32
71
1
72
1
41
1
210
0
220
0
230
1
3
Standard
100
AcDbAlignedDimension
13
14.9174
23
1.125
33
0
14
2.4174
24
0
34
0
50
0
100
AcDbRotatedDimension
1001
ACAD
1000
DSTYLE
1002
{
1070
   371
1070
    13
1070
   372
1070
    13
1070
     3
1000

1070
   170
1070
     0
1070
   144
1040
1.0
1070
   277
1070
     2
1070
   284
1070
     8
1070
   278
1070
    46
1070
   146
1040
1.166667
1070
   345
1005
16
1070
   347
1005
16
1070
   346
1005
16
1070
   344
1005
0
1070
   343
1005
0
1070
   172
1070
     1
1070
    76
1070
     0
1070
    75
1070
     0
1070
   282
1070
     0
1070
   281
1070
     0
1070
    71
1070
     0
1070
    74
1070
     0
1070
   279
1070
     0
1070
   173
1070
     1
1070
   340
1005
CF
1070
   271
1070
     2
1070
   272
1070
     2
1070
    77
1070
     1
1070
    73
1070
     1
1070
   171
1070
     3
1070
   274
1070
     4
1070
   177
1070
     2
1070
   176
1070
     2
1070
   178
1070
     2
1070
    78
1070
     8
1070
    48
1040
-0.1
1070
    41
1040
3.5
1070
   147
1040
1.5
1070
    42
1040
1.5875
1070
    44
1040
2.0
1070
   140
1040
3.0
1002
}
1001
ACAD_DSTYLE_DIM_LINETYPE
1070
   380
1005
16
1001
ACAD_DSTYLE_DIM_EXT1_LINETYPE
1070
   381
1005
16
1001
ACAD_DSTYLE_DIM_EXT2_LINETYPE
1070
   382
1005
16
0
DIMENSION
5
13C
100
AcDbEntity
8
SK2
62
256
6
ByLayer
370
18
48
1
60
0
100
AcDbDimension
2
_U3
10
0
20
11.62547
30
0
11
-11.5413
21
11.62547
31
0
70
32
71
1
72
1
41
1
210
0
220
0
230
1
3
Standard
100
AcDbAlignedDimension
13
-23.0826
23
0
33
0
14
0
24
0
34
0
50
0
100
AcDbRotatedDimension
1001
ACAD
1000
DSTYLE
1002
{
1070
   371
1070
    13
1070
   372
1070
    13
1070
     3
1000

1070
   170
1070
     0
1070
   144
1040
1.0
1070
   277
1070
     2
1070
   284
1070
     8
1070
   278
1070
    46
1070
   146
1040
1.166667
1070
   345
1005
16
1070
   347
1005
16
1070
   346
1005
16
1070
   344
1005
0
1070
   343
1005
0
1070
   172
1070
     1
1070
    76
1070
     0
1070
    75
1070
     0
1070
   282
1070
     0
1070
   281
1070
     0
1070
    71
1070
     0
1070
    74
1070
     0
1070
   279
1070
     0
1070
   173
1070
     1
1070
   340
1005
CF
1070
   271
1070
     2
1070
   272
1070
     2
1070
    77
1070
     1
1070
    73
1070
     1
1070
   171
1070
     3
1070
   274
1070
     4
1070
   177
1070
     2
1070
   176
1070
     2
1070
   178
1070
     2
1070
    78
1070
     8
1070
    48
1040
-0.1
1070
    41
1040
3.5
1070
   147
1040
1.5
1070
    42
1040
1.5875
1070
    44
1040
2.0
1070
   140
1040
3.0
1002
}
1001
ACAD_DSTYLE_DIM_LINETYPE
1070
   380
1005
16
1001
ACAD_DSTYLE_DIM_EXT1_LINETYPE
1070
   381
1005
16
1001
ACAD_DSTYLE_DIM_EXT2_LINETYPE
1070
   382
1005
16
0
DIMENSION
5
154
100
AcDbEntity
8
2
62
256
6
ByLayer
370
18
48
1
60
0
100
AcDbDimension
2
_U4
10
0
20
11.62547
30
0
11
7.4587
21
11.62547
31
0
70
32
71
1
72
1
41
1
210
0
220
0
230
1
3
Standard
100
AcDbAlignedDimension
13
14.9174
23
1.125
33
0
14
0
24
0
34
0
50
0
100
AcDbRotatedDimension
1001
ACAD
1000
DSTYLE
1002
{
1070
   371
1070
    13
1070
   372
1070
    13
1070
     3
1000

1070
   170
1070
     0
1070
   144
1040
1.0
1070
   277
1070
     2
1070
   284
1070
     8
1070
   278
1070
    46
1070
   146
1040
1.166667
1070
   345
1005
16
1070
   347
1005
16
1070
   346
1005
16
1070
   344
1005
0
1070
   343
1005
0
1070
   172
1070
     1
1070
    76
1070
     0
1070
    75
1070
     0
1070
   282
1070
     0
1070
   281
1070
     0
1070
    71
1070
     0
1070
    74
1070
     0
1070
   279
1070
     0
1070
   173
1070
     1
1070
   340
1005
CF
1070
   271
1070
     2
1070
   272
1070
     2
1070
    77
1070
     1
1070
    73
1070
     1
1070
   171
1070
     3
1070
   274
1070
     4
1070
   177
1070
     2
1070
   176
1070
     2
1070
   178
1070
     2
1070
    78
1070
     8
1070
    48
1040
-0.1
1070
    41
1040
3.5
1070
   147
1040
1.5
1070
    42
1040
1.5875
1070
    44
1040
2.0
1070
   140
1040
3.0
1002
}
1001
ACAD_DSTYLE_DIM_LINETYPE
1070
   380
1005
16
1001
ACAD_DSTYLE_DIM_EXT1_LINETYPE
1070
   381
1005
16
1001
ACAD_DSTYLE_DIM_EXT2_LINETYPE
1070
   382
1005
16
0
ENDSEC
0
SECTION
2
OBJECTS
0
DICTIONARY
5
1dd
330
0
100
AcDbDictionary
280
0
281
1
3
ACAD_GROUP
350
1de
3
ACAD_MLINESTYLE
350
1df
0
DICTIONARY
5
1de
330
0
100
AcDbDictionary
280
0
281
1
0
DICTIONARY
5
1df
330
0
100
AcDbDictionary
280
0
281
1
3
Standard
350
18
0
MLINESTYLE
5
18
330
1df
100
AcDbMlineStyle
2
Standard
70
0
3

62
256
51
90
52
90
71
2
49
-0.5
62
256
6
ByLayer
49
0.5
62
256
6
ByLayer
0
RASTERVARIABLES
5
1cb
330

100
AcDbRasterVariables
90
0
70
1
71
1
72
1
0
ENDSEC
0
EOF
