0
SECTION
2
HEADER
9
$ACADVER
1
AC1015
9
$DWGCODEPAGE
3
ANSI_1252
9
$HANDSEED
5
1ea
9
$ANGBASE
50
0
9
$ANGDIR
70
0
9
$ATTMODE
70
1
9
$AUNITS
70
0
9
$AUPREC
70
0
9
$CECOLOR
62
256
9
$CELTSCALE
40
1
9
$CELTYPE
6
ByLayer
9
$CELWEIGHT
370
18
9
$CLAYER
8
0
9
$CMLJUST
70
0
9
$CMLSCALE
40
1
9
$CMLSTYLE
2
Standard
9
$DIMSTYLE
2
Standard
9
$TEXTSIZE
40
0.2
9
$TEXTSTYLE
7
Standard
9
$LUNITS
70
2
9
$LUPREC
70
4
9
$EXTNAMES
290
1
9
$INSUNITS
70
4
9
$LTSCALE
40
1
9
$LWDISPLAY
290
1
9
$PDMODE
70
0
9
$PDSIZE
40
0
9
$PLINEGEN
70
0
0
ENDSEC
0
SECTION
2
CLASSES
0
CLASS
1
RASTERVARIABLES
2
AcDbRasterVariables
3
ISM
90
0
280
0
281
0
0
ENDSEC
0
SECTION
2
TABLES
0
TABLE
2
VPORT
5
1e0
100
AcDbSymbolTable
0
VPORT
5
1
100
AcDbSymbolTableRecord
100
AcDbViewportTableRecord
2
*Active
70
0
10
0
20
0
11
1
21
1
12
-1
22
1
13
0
23
0
14
0.5
24
0.5
15
10
25
10
16
0
26
0
36
1
17
0
27
0
37
0
0
ENDTAB
0
TABLE
2
LTYPE
5
1e1
100
AcDbSymbolTable
0
LTYPE
5
14
100
AcDbSymbolTableRecord
100
AcDbLinetypeTableRecord
70
0
2
ByBlock
3

72
65
73
0
40
0
0
LTYPE
5
15
100
AcDbSymbolTableRecord
100
AcDbLinetypeTableRecord
70
0
2
ByLayer
3

72
65
73
0
40
0
0
LTYPE
5
16
100
AcDbSymbolTableRecord
100
AcDbLinetypeTableRecord
70
0
2
Continuous
3
Solid line
72
65
73
0
40
0
0
LTYPE
5
6E
100
AcDbSymbolTableRecord
100
AcDbLinetypeTableRecord
70
0
2
CENTER
3
____ _ ____ _ ____ _ ____
72
65
73
4
40
47.5
49
22
74
0
49
-8.5
74
0
49
8.5
74
0
49
-8.5
74
0
0
LTYPE
5
6F
100
AcDbSymbolTableRecord
100
AcDbLinetypeTableRecord
70
0
2
DASHED
3
__ __ __ __ __ __ __ __ __
72
65
73
2
40
25.72
49
12.86
74
0
49
-12.86
74
0
0
ENDTAB
0
TABLE
2
LAYER
5
1e2
100
AcDbSymbolTable
0
LAYER
5
10
100
AcDbSymbolTableRecord
100
AcDbLayerTableRecord
2
0
70
0
62
7
6
Continuous
290
1
370
-3
390
0
0
LAYER
5
71
100
AcDbSymbolTableRecord
100
AcDbLayerTableRecord
2
80
70
0
62
-6
6
Continuous
290
1
370
-3
390
0
0
LAYER
5
73
100
AcDbSymbolTableRecord
100
AcDbLayerTableRecord
2
81
70
0
62
-3
6
Continuous
290
1
370
-3
390
0
0
LAYER
5
75
100
AcDbSymbolTableRecord
100
AcDbLayerTableRecord
2
1
70
0
62
4
6
Continuous
290
1
370
-3
390
0
0
LAYER
5
9B
100
AcDbSymbolTableRecord
100
AcDbLayerTableRecord
2
4
70
0
62
-2
6
CENTER
290
1
370
-3
390
0
0
LAYER
5
AB
100
AcDbSymbolTableRecord
100
AcDbLayerTableRecord
2
2
70
0
62
7
6
Continuous
290
1
370
-3
390
0
0
LAYER
5
F3
100
AcDbSymbolTableRecord
100
AcDbLayerTableRecord
2
Defpoints
70
0
62
7
6
Continuous
290
0
370
-3
390
0
0
LAYER
5
1cc
100
AcDbSymbolTableRecord
100
AcDbLayerTableRecord
2
SK1
70
0
62
4
6
Continuous
290
1
370
-3
390
0
0
LAYER
5
1cd
100
AcDbSymbolTableRecord
100
AcDbLayerTableRecord
2
SK4
70
0
62
2
6
CENTER
290
1
370
-3
390
0
0
LAYER
5
1ce
100
AcDbSymbolTableRecord
100
AcDbLayerTableRecord
2
SK2
70
0
62
7
6
Continuous
290
1
370
-3
390
0
0
LAYER
5
1cf
100
AcDbSymbolTableRecord
100
AcDbLayerTableRecord
2
SK6
70
0
62
5
6
Continuous
290
1
370
-3
390
0
0
ENDTAB
0
TABLE
2
STYLE
5
1e3
100
AcDbSymbolTable
0
STYLE
5
11
100
AcDbSymbolTableRecord
100
AcDbTextStyleTableRecord
2
Standard
3
txt
70
0
71
0
40
0
41
1
42
0
50
0
0
STYLE
5
CF
100
AcDbSymbolTableRecord
100
AcDbTextStyleTableRecord
2
iso_b_vert
3
simplex.shx
70
0
71
0
40
0
41
1
42
0
50
0
0
STYLE
5
D0
100
AcDbSymbolTableRecord
100
AcDbTextStyleTableRecord
2
DWGDirectTextStyle
3
simplex
70
0
71
0
40
0
41
1
42
0
50
0
0
ENDTAB
0
TABLE
2
DIMSTYLE
5
1e4
100
AcDbSymbolTable
100
AcDbDimStyleTable
0
DIMSTYLE
105
27
100
AcDbSymbolTableRecord
100
AcDbDimStyleTableRecord
2
Standard
70
0
3
<>
41
0.18
42
0.0625
44
0.18
140
0.18
147
0.09
73
0
74
0
77
1
271
2
275
0
278
52
280
0
340
11
0
ENDTAB
0
TABLE
2
VIEW
5
1e5
100
AcDbSymbolTable
0
ENDTAB
0
TABLE
2
UCS
5
1e6
100
AcDbSymbolTable
0
ENDTAB
0
TABLE
2
APPID
5
1e7
100
AcDbSymbolTable
0
APPID
5
12
100
AcDbSymbolTableRecord
100
AcDbRegAppTableRecord
2
ACAD
70
0
0
APPID
5
EF
100
AcDbSymbolTableRecord
100
AcDbRegAppTableRecord
2
ACAD_DSTYLE_DIMBREAK
70
0
0
APPID
5
18B
100
AcDbSymbolTableRecord
100
AcDbRegAppTableRecord
2
ACAD_DSTYLE_DIM_LINETYPE
70
0
0
APPID
5
18C
100
AcDbSymbolTableRecord
100
AcDbRegAppTableRecord
2
ACAD_DSTYLE_DIM_EXT1_LINETYPE
70
0
0
APPID
5
18D
100
AcDbSymbolTableRecord
100
AcDbRegAppTableRecord
2
ACAD_DSTYLE_DIM_EXT2_LINETYPE
70
0
0
APPID
5
1C8
100
AcDbSymbolTableRecord
100
AcDbRegAppTableRecord
2
ACAD_MLEADERVER
70
0
0
ENDTAB
0
TABLE
2
BLOCK_RECORD
5
1e8
100
AcDbSymbolTable
0
BLOCK_RECORD
5
1F
100
AcDbSymbolTableRecord
100
AcDbBlockTableRecord
2
*Model_Space
340
0
70
0
0
BLOCK_RECORD
5
1B
100
AcDbSymbolTableRecord
100
AcDbBlockTableRecord
2
*Paper_Space
340
0
70
0
0
BLOCK_RECORD
5
23
100
AcDbSymbolTableRecord
100
AcDbBlockTableRecord
2
*Paper_Space0
340
0
70
0
0
BLOCK_RECORD
5
F4
100
AcDbSymbolTableRecord
100
AcDbBlockTableRecord
2
*D1
340
0
70
0
0
BLOCK_RECORD
5
100
100
AcDbSymbolTableRecord
100
AcDbBlockTableRecord
2
_U0
340
0
70
0
0
BLOCK_RECORD
5
10C
100
AcDbSymbolTableRecord
100
AcDbBlockTableRecord
2
*D3
340
0
70
0
0
BLOCK_RECORD
5
11A
100
AcDbSymbolTableRecord
100
AcDbBlockTableRecord
2
_U1
340
0
70
0
0
BLOCK_RECORD
5
126
100
AcDbSymbolTableRecord
100
AcDbBlockTableRecord
2
*D5
340
0
70
0
0
BLOCK_RECORD
5
133
100
AcDbSymbolTableRecord
100
AcDbBlockTableRecord
2
_U2
340
0
70
0
0
BLOCK_RECORD
5
13F
100
AcDbSymbolTableRecord
100
AcDbBlockTableRecord
2
*D7
340
0
70
0
0
BLOCK_RECORD
5
14B
100
AcDbSymbolTableRecord
100
AcDbBlockTableRecord
2
_U3
340
0
70
0
0
BLOCK_RECORD
5
157
100
AcDbSymbolTableRecord
100
AcDbBlockTableRecord
2
*D9
340
0
70
0
0
BLOCK_RECORD
5
164
100
AcDbSymbolTableRecord
100
AcDbBlockTableRecord
2
_U4
340
0
70
0
0
ENDTAB
0
ENDSEC
0
SECTION
2
BLOCKS
0
BLOCK
5
20
100
AcDbEntity
8
0
100
AcDbBlockBegin
2
*Model_Space
70
0
10
0
20
0
30
0
3
*Model_Space
0
ENDBLK
5
21
100
AcDbEntity
8
0
100
AcDbBlockEnd
0
BLOCK
5
1C
100
AcDbEntity
8
0
100
AcDbBlockBegin
2
*Paper_Space
70
0
10
0
20
0
30
0
3
*Paper_Space
0
ENDBLK
5
1D
100
AcDbEntity
8
0
100
AcDbBlockEnd
0
BLOCK
5
24
100
AcDbEntity
8
0
100
AcDbBlockBegin
2
*Paper_Space0
70
0
10
0
20
0
30
0
3
*Paper_Space0
0
ENDBLK
5
25
100
AcDbEntity
8
0
100
AcDbBlockEnd
0
BLOCK
5
F5
100
AcDbEntity
8
0
100
AcDbBlockBegin
2
*D1
70
1
10
0
20
0
30
0
3
*D1
0
LINE
5
F7
100
AcDbEntity
8
0
62
256
6
ByLayer
370
-2
48
1
60
0
100
AcDbLine
10
-23.2904
20
-0.0875
30
0
11
-23.2904
21
-40.85
31
0
39
0
210
0
220
0
230
1
0
LINE
5
F8
100
AcDbEntity
8
0
62
256
6
ByLayer
370
-2
48
1
60
0
100
AcDbLine
10
14.7096
20
-0.3425
30
0
11
14.7096
21
-40.85
31
0
39
0
210
0
220
0
230
1
0
LINE
5
F9
100
AcDbEntity
8
0
62
256
6
ByLayer
370
-2
48
1
60
0
100
AcDbLine
10
-19.7904
20
-38.85
30
0
11
11.2096
21
-38.85
31
0
39
0
210
0
220
0
230
1
0
SOLID
5
FA
100
AcDbEntity
8
0
62
256
6
ByLayer
370
-1
48
1
60
0
100
AcDbTrace
10
-19.7904
20
-38.266667
30
0
11
-19.7904
21
-39.433333
31
0
12
-23.2904
22
-38.85
32
0
13
-23.2904
23
-38.85
33
0
39
0
210
0
220
0
230
1
0
SOLID
5
FB
100
AcDbEntity
8
0
62
256
6
ByLayer
370
-1
48
1
60
0
100
AcDbTrace
10
11.2096
20
-39.433333
30
0
11
11.2096
21
-38.266667
31
0
12
14.7096
22
-38.85
32
0
13
14.7096
23
-38.85
33
0
39
0
210
0
220
0
230
1
0
MTEXT
5
FC
100
AcDbEntity
8
0
62
256
6
ByLayer
370
18
48
1
60
0
100
AcDbMText
10
-4.2904
20
-32.85
30
0
210
0
220
0
230
1
1
\A1;38
40
3
41
0
44
1
50
0
71
5
72
5
7
iso_b_vert
0
POINT
5
FD
100
AcDbEntity
8
Defpoints
62
0
6
ByLayer
370
-1
48
1
60
0
100
AcDbPoint
10
-23.2904
20
1.5
30
0
39
0
210
0
220
0
230
1
50
360
0
POINT
5
FE
100
AcDbEntity
8
Defpoints
62
0
6
ByLayer
370
-1
48
1
60
0
100
AcDbPoint
10
14.7096
20
1.245
30
0
39
0
210
0
220
0
230
1
50
360
0
POINT
5
FF
100
AcDbEntity
8
Defpoints
62
0
6
ByLayer
370
-1
48
1
60
0
100
AcDbPoint
10
14.7096
20
-38.85
30
0
39
0
210
0
220
0
230
1
50
360
0
ENDBLK
5
F6
100
AcDbEntity
8
0
100
AcDbBlockEnd
0
BLOCK
5
107
100
AcDbEntity
8
0
100
AcDbBlockBegin
2
_U0
70
0
10
0
20
0
30
0
3
_U0
0
MTEXT
5
101
100
AcDbEntity
8
SK2
62
256
6
ByLayer
370
18
48
1
60
0
100
AcDbMText
10
-8.77277
20
-37.964886
30
0
210
0
220
0
230
1
1
\W0.7468;38.00
40
3
41
0
44
1.084337
50
0
71
7
72
5
7
iso_b_vert
0
LINE
5
102
100
AcDbEntity
8
SK2
62
256
6
ByLayer
370
13
48
1
60
0
100
AcDbLine
10
-23.2904
20
-0.0875
30
0
11
-23.2904
21
-40.85
31
0
39
0
210
0
220
0
230
1
0
LINE
5
103
100
AcDbEntity
8
SK2
62
256
6
ByLayer
370
13
48
1
60
0
100
AcDbLine
10
14.7096
20
-0.3425
30
0
11
14.7096
21
-40.85
31
0
39
0
210
0
220
0
230
1
0
LINE
5
104
100
AcDbEntity
8
SK2
62
256
6
ByLayer
370
13
48
1
60
0
100
AcDbLine
10
-23.2904
20
-38.85
30
0
11
14.7096
21
-38.85
31
0
39
0
210
0
220
0
230
1
0
SOLID
5
105
100
AcDbEntity
8
SK2
62
256
6
ByLayer
370
18
48
1
60
0
100
AcDbTrace
10
-23.2904
20
-38.85
30
0
11
-19.790402
21
-38.389216
31
0
12
-19.790398
22
-39.310784
32
0
13
-19.790398
23
-39.310784
33
0
39
0
210
0
220
0
230
1
0
SOLID
5
106
100
AcDbEntity
8
SK2
62
256
6
ByLayer
370
18
48
1
60
0
100
AcDbTrace
10
14.7096
20
-38.85
30
0
11
11.209602
21
-39.310784
31
0
12
11.209598
22
-38.389216
32
0
13
11.209598
23
-38.389216
33
0
39
0
210
0
220
0
230
1
0
ENDBLK
5
108
100
AcDbEntity
8
0
100
AcDbBlockEnd
0
BLOCK
5
10D
100
AcDbEntity
8
0
100
AcDbBlockBegin
2
*D3
70
1
10
0
20
0
30
0
3
*D3
0
LINE
5
10F
100
AcDbEntity
8
0
62
256
6
ByLayer
370
-2
48
1
60
0
100
AcDbLine
10
14.7096
20
-0.3425
30
0
11
14.7096
21
-24.745
31
0
39
0
210
0
220
0
230
1
0
LINE
5
110
100
AcDbEntity
8
0
62
256
6
ByLayer
370
-2
48
1
60
0
100
AcDbLine
10
5.9446
20
-1.5875
30
0
11
5.9446
21
-24.745
31
0
39
0
210
0
220
0
230
1
0
LINE
5
111
100
AcDbEntity
8
0
62
256
6
ByLayer
370
-2
48
1
60
0
100
AcDbLine
10
14.7096
20
-22.745
30
0
11
39.852457
21
-22.745
31
0
39
0
210
0
220
0
230
1
0
LINE
5
112
100
AcDbEntity
8
0
62
256
6
ByLayer
370
-2
48
1
60
0
100
AcDbLine
10
18.2096
20
-22.745
30
0
11
21.7096
21
-22.745
31
0
39
0
210
0
220
0
230
1
0
LINE
5
113
100
AcDbEntity
8
0
62
256
6
ByLayer
370
-2
48
1
60
0
100
AcDbLine
10
2.4446
20
-22.745
30
0
11
-1.0554
21
-22.745
31
0
39
0
210
0
220
0
230
1
0
SOLID
5
114
100
AcDbEntity
8
0
62
256
6
ByLayer
370
-1
48
1
60
0
100
AcDbTrace
10
18.2096
20
-22.161667
30
0
11
18.2096
21
-23.328333
31
0
12
14.7096
22
-22.745
32
0
13
14.7096
23
-22.745
33
0
39
0
210
0
220
0
230
1
0
SOLID
5
115
100
AcDbEntity
8
0
62
256
6
ByLayer
370
-1
48
1
60
0
100
AcDbTrace
10
2.4446
20
-23.328333
30
0
11
2.4446
21
-22.161667
31
0
12
5.9446
22
-22.745
32
0
13
5.9446
23
-22.745
33
0
39
0
210
0
220
0
230
1
0
MTEXT
5
116
100
AcDbEntity
8
0
62
256
6
ByLayer
370
18
48
1
60
0
100
AcDbMText
10
30.781029
20
-16.745
30
0
210
0
220
0
230
1
1
\A1;8.77
40
3
41
0
44
1
50
0
71
5
72
5
7
iso_b_vert
0
POINT
5
117
100
AcDbEntity
8
Defpoints
62
0
6
ByLayer
370
-1
48
1
60
0
100
AcDbPoint
10
14.7096
20
1.245
30
0
39
0
210
0
220
0
230
1
50
360
0
POINT
5
118
100
AcDbEntity
8
Defpoints
62
0
6
ByLayer
370
-1
48
1
60
0
100
AcDbPoint
10
5.9446
20
0
30
0
39
0
210
0
220
0
230
1
50
360
0
POINT
5
119
100
AcDbEntity
8
Defpoints
62
0
6
ByLayer
370
-1
48
1
60
0
100
AcDbPoint
10
5.9446
20
-22.745
30
0
39
0
210
0
220
0
230
1
50
360
0
ENDBLK
5
10E
100
AcDbEntity
8
0
100
AcDbBlockEnd
0
BLOCK
5
121
100
AcDbEntity
8
0
100
AcDbBlockBegin
2
_U1
70
0
10
0
20
0
30
0
3
_U1
0
MTEXT
5
11B
100
AcDbEntity
8
SK2
62
256
6
ByLayer
370
18
48
1
60
0
100
AcDbMText
10
18.8686
20
-21.859886
30
0
210
0
220
0
230
1
1
\W0.7051;(8.76)
40
3
41
0
44
1.084337
50
0
71
7
72
5
7
iso_b_vert
0
LINE
5
11C
100
AcDbEntity
8
SK2
62
256
6
ByLayer
370
13
48
1
60
0
100
AcDbLine
10
14.7096
20
-0.3425
30
0
11
14.7096
21
-24.745
31
0
39
0
210
0
220
0
230
1
0
LINE
5
11D
100
AcDbEntity
8
SK2
62
256
6
ByLayer
370
13
48
1
60
0
100
AcDbLine
10
5.9446
20
-1.5875
30
0
11
5.9446
21
-24.745
31
0
39
0
210
0
220
0
230
1
0
LINE
5
11E
100
AcDbEntity
8
SK2
62
256
6
ByLayer
370
13
48
1
60
0
100
AcDbLine
10
5.9446
20
-22.745
30
0
11
28.181369
21
-22.745
31
0
39
0
210
0
220
0
230
1
0
SOLID
5
11F
100
AcDbEntity
8
SK2
62
256
6
ByLayer
370
18
48
1
60
0
100
AcDbTrace
10
14.7096
20
-22.745
30
0
11
11.209602
21
-23.205784
31
0
12
11.209598
22
-22.284216
32
0
13
11.209598
23
-22.284216
33
0
39
0
210
0
220
0
230
1
0
SOLID
5
120
100
AcDbEntity
8
SK2
62
256
6
ByLayer
370
18
48
1
60
0
100
AcDbTrace
10
5.9446
20
-22.745
30
0
11
9.444598
21
-22.284216
31
0
12
9.444602
22
-23.205784
32
0
13
9.444602
23
-23.205784
33
0
39
0
210
0
220
0
230
1
0
ENDBLK
5
122
100
AcDbEntity
8
0
100
AcDbBlockEnd
0
BLOCK
5
127
100
AcDbEntity
8
0
100
AcDbBlockBegin
2
*D5
70
1
10
0
20
0
30
0
3
*D5
0
LINE
5
129
100
AcDbEntity
8
0
62
256
6
ByLayer
370
-2
48
1
60
0
100
AcDbLine
10
14.7096
20
-0.3425
30
0
11
14.7096
21
-32.35
31
0
39
0
210
0
220
0
230
1
0
LINE
5
12A
100
AcDbEntity
8
0
62
256
6
ByLayer
370
-2
48
1
60
0
100
AcDbLine
10
2.2096
20
-1.5875
30
0
11
2.2096
21
-32.35
31
0
39
0
210
0
220
0
230
1
0
LINE
5
12B
100
AcDbEntity
8
0
62
256
6
ByLayer
370
-2
48
1
60
0
100
AcDbLine
10
18.2096
20
-30.35
30
0
11
21.7096
21
-30.35
31
0
39
0
210
0
220
0
230
1
0
LINE
5
12C
100
AcDbEntity
8
0
62
256
6
ByLayer
370
-2
48
1
60
0
100
AcDbLine
10
-1.2904
20
-30.35
30
0
11
-4.7904
21
-30.35
31
0
39
0
210
0
220
0
230
1
0
SOLID
5
12D
100
AcDbEntity
8
0
62
256
6
ByLayer
370
-1
48
1
60
0
100
AcDbTrace
10
18.2096
20
-29.766667
30
0
11
18.2096
21
-30.933333
31
0
12
14.7096
22
-30.35
32
0
13
14.7096
23
-30.35
33
0
39
0
210
0
220
0
230
1
0
SOLID
5
12E
100
AcDbEntity
8
0
62
256
6
ByLayer
370
-1
48
1
60
0
100
AcDbTrace
10
-1.2904
20
-30.933333
30
0
11
-1.2904
21
-29.766667
31
0
12
2.2096
22
-30.35
32
0
13
2.2096
23
-30.35
33
0
39
0
210
0
220
0
230
1
0
MTEXT
5
12F
100
AcDbEntity
8
0
62
256
6
ByLayer
370
18
48
1
60
0
100
AcDbMText
10
8.4596
20
-24.35
30
0
210
0
220
0
230
1
1
\A1;12.5
40
3
41
0
44
1
50
0
71
5
72
5
7
iso_b_vert
0
POINT
5
130
100
AcDbEntity
8
Defpoints
62
0
6
ByLayer
370
-1
48
1
60
0
100
AcDbPoint
10
14.7096
20
1.245
30
0
39
0
210
0
220
0
230
1
50
360
0
POINT
5
131
100
AcDbEntity
8
Defpoints
62
0
6
ByLayer
370
-1
48
1
60
0
100
AcDbPoint
10
2.2096
20
0
30
0
39
0
210
0
220
0
230
1
50
360
0
POINT
5
132
100
AcDbEntity
8
Defpoints
62
0
6
ByLayer
370
-1
48
1
60
0
100
AcDbPoint
10
2.2096
20
-30.35
30
0
39
0
210
0
220
0
230
1
50
360
0
ENDBLK
5
128
100
AcDbEntity
8
0
100
AcDbBlockEnd
0
BLOCK
5
13A
100
AcDbEntity
8
0
100
AcDbBlockBegin
2
_U2
70
0
10
0
20
0
30
0
3
_U2
0
MTEXT
5
134
100
AcDbEntity
8
SK2
62
256
6
ByLayer
370
18
48
1
60
0
100
AcDbMText
10
4.352172
20
-29.464886
30
0
210
0
220
0
230
1
1
\W0.6864;12.50
40
3
41
0
44
1.084337
50
0
71
7
72
5
7
iso_b_vert
0
LINE
5
135
100
AcDbEntity
8
SK2
62
256
6
ByLayer
370
13
48
1
60
0
100
AcDbLine
10
14.7096
20
-0.3425
30
0
11
14.7096
21
-32.35
31
0
39
0
210
0
220
0
230
1
0
LINE
5
136
100
AcDbEntity
8
SK2
62
256
6
ByLayer
370
13
48
1
60
0
100
AcDbLine
10
2.2096
20
-1.5875
30
0
11
2.2096
21
-32.35
31
0
39
0
210
0
220
0
230
1
0
LINE
5
137
100
AcDbEntity
8
SK2
62
256
6
ByLayer
370
13
48
1
60
0
100
AcDbLine
10
14.7096
20
-30.35
30
0
11
2.2096
21
-30.35
31
0
39
0
210
0
220
0
230
1
0
SOLID
5
138
100
AcDbEntity
8
SK2
62
256
6
ByLayer
370
18
48
1
60
0
100
AcDbTrace
10
14.7096
20
-30.35
30
0
11
11.209602
21
-30.810784
31
0
12
11.209598
22
-29.889216
32
0
13
11.209598
23
-29.889216
33
0
39
0
210
0
220
0
230
1
0
SOLID
5
139
100
AcDbEntity
8
SK2
62
256
6
ByLayer
370
18
48
1
60
0
100
AcDbTrace
10
2.2096
20
-30.35
30
0
11
5.709598
21
-29.889216
31
0
12
5.709602
22
-30.810784
32
0
13
5.709602
23
-30.810784
33
0
39
0
210
0
220
0
230
1
0
ENDBLK
5
13B
100
AcDbEntity
8
0
100
AcDbBlockEnd
0
BLOCK
5
140
100
AcDbEntity
8
0
100
AcDbBlockBegin
2
*D7
70
1
10
0
20
0
30
0
3
*D7
0
LINE
5
142
100
AcDbEntity
8
0
62
256
6
ByLayer
370
-2
48
1
60
0
100
AcDbLine
10
-23.2904
20
1.5875
30
0
11
-23.2904
21
13.35
31
0
39
0
210
0
220
0
230
1
0
LINE
5
143
100
AcDbEntity
8
0
62
256
6
ByLayer
370
-2
48
1
60
0
100
AcDbLine
10
0
20
1.5875
30
0
11
0
21
13.35
31
0
39
0
210
0
220
0
230
1
0
LINE
5
144
100
AcDbEntity
8
0
62
256
6
ByLayer
370
-2
48
1
60
0
100
AcDbLine
10
-19.7904
20
11.35
30
0
11
-3.5
21
11.35
31
0
39
0
210
0
220
0
230
1
0
SOLID
5
145
100
AcDbEntity
8
0
62
256
6
ByLayer
370
-1
48
1
60
0
100
AcDbTrace
10
-19.7904
20
11.933333
30
0
11
-19.7904
21
10.766667
31
0
12
-23.2904
22
11.35
32
0
13
-23.2904
23
11.35
33
0
39
0
210
0
220
0
230
1
0
SOLID
5
146
100
AcDbEntity
8
0
62
256
6
ByLayer
370
-1
48
1
60
0
100
AcDbTrace
10
-3.5
20
10.766667
30
0
11
-3.5
21
11.933333
31
0
12
0
22
11.35
32
0
13
0
23
11.35
33
0
39
0
210
0
220
0
230
1
0
MTEXT
5
147
100
AcDbEntity
8
0
62
256
6
ByLayer
370
18
48
1
60
0
100
AcDbMText
10
-11.6452
20
17.35
30
0
210
0
220
0
230
1
1
\A1;23.29
40
3
41
0
44
1
50
0
71
5
72
5
7
iso_b_vert
0
POINT
5
148
100
AcDbEntity
8
Defpoints
62
0
6
ByLayer
370
-1
48
1
60
0
100
AcDbPoint
10
-23.2904
20
0
30
0
39
0
210
0
220
0
230
1
50
360
0
POINT
5
149
100
AcDbEntity
8
Defpoints
62
0
6
ByLayer
370
-1
48
1
60
0
100
AcDbPoint
10
0
20
0
30
0
39
0
210
0
220
0
230
1
50
360
0
POINT
5
14A
100
AcDbEntity
8
Defpoints
62
0
6
ByLayer
370
-1
48
1
60
0
100
AcDbPoint
10
0
20
11.35
30
0
39
0
210
0
220
0
230
1
50
360
0
ENDBLK
5
141
100
AcDbEntity
8
0
100
AcDbBlockEnd
0
BLOCK
5
152
100
AcDbEntity
8
0
100
AcDbBlockBegin
2
_U3
70
0
10
0
20
0
30
0
3
_U3
0
MTEXT
5
14C
100
AcDbEntity
8
SK2
62
256
6
ByLayer
370
18
48
1
60
0
100
AcDbMText
10
-16.12757
20
12.235114
30
0
210
0
220
0
230
1
1
\W0.7555;23.29
40
3
41
0
44
1.084337
50
0
71
7
72
5
7
iso_b_vert
0
LINE
5
14D
100
AcDbEntity
8
SK2
62
256
6
ByLayer
370
13
48
1
60
0
100
AcDbLine
10
-23.2904
20
1.5875
30
0
11
-23.2904
21
13.35
31
0
39
0
210
0
220
0
230
1
0
LINE
5
14E
100
AcDbEntity
8
SK2
62
256
6
ByLayer
370
13
48
1
60
0
100
AcDbLine
10
0
20
1.5875
30
0
11
0
21
13.35
31
0
39
0
210
0
220
0
230
1
0
LINE
5
14F
100
AcDbEntity
8
SK2
62
256
6
ByLayer
370
13
48
1
60
0
100
AcDbLine
10
-23.2904
20
11.35
30
0
11
0
21
11.35
31
0
39
0
210
0
220
0
230
1
0
SOLID
5
150
100
AcDbEntity
8
SK2
62
256
6
ByLayer
370
18
48
1
60
0
100
AcDbTrace
10
-23.2904
20
11.35
30
0
11
-19.790402
21
11.810784
31
0
12
-19.790398
22
10.889216
32
0
13
-19.790398
23
10.889216
33
0
39
0
210
0
220
0
230
1
0
SOLID
5
151
100
AcDbEntity
8
SK2
62
256
6
ByLayer
370
18
48
1
60
0
100
AcDbTrace
10
0
20
11.35
30
0
11
-3.499998
21
10.889216
31
0
12
-3.500002
22
11.810784
32
0
13
-3.500002
23
11.810784
33
0
39
0
210
0
220
0
230
1
0
ENDBLK
5
153
100
AcDbEntity
8
0
100
AcDbBlockEnd
0
BLOCK
5
158
100
AcDbEntity
8
0
100
AcDbBlockBegin
2
*D9
70
1
10
0
20
0
30
0
3
*D9
0
LINE
5
15A
100
AcDbEntity
8
0
62
256
6
ByLayer
370
-2
48
1
60
0
100
AcDbLine
10
14.7096
20
2.8325
30
0
11
14.7096
21
13.35
31
0
39
0
210
0
220
0
230
1
0
LINE
5
15B
100
AcDbEntity
8
0
62
256
6
ByLayer
370
-2
48
1
60
0
100
AcDbLine
10
0
20
1.5875
30
0
11
0
21
13.35
31
0
39
0
210
0
220
0
230
1
0
LINE
5
15C
100
AcDbEntity
8
0
62
256
6
ByLayer
370
-2
48
1
60
0
100
AcDbLine
10
18.2096
20
11.35
30
0
11
21.7096
21
11.35
31
0
39
0
210
0
220
0
230
1
0
LINE
5
15D
100
AcDbEntity
8
0
62
256
6
ByLayer
370
-2
48
1
60
0
100
AcDbLine
10
-3.5
20
11.35
30
0
11
-7
21
11.35
31
0
39
0
210
0
220
0
230
1
0
SOLID
5
15E
100
AcDbEntity
8
0
62
256
6
ByLayer
370
-1
48
1
60
0
100
AcDbTrace
10
18.2096
20
11.933333
30
0
11
18.2096
21
10.766667
31
0
12
14.7096
22
11.35
32
0
13
14.7096
23
11.35
33
0
39
0
210
0
220
0
230
1
0
SOLID
5
15F
100
AcDbEntity
8
0
62
256
6
ByLayer
370
-1
48
1
60
0
100
AcDbTrace
10
-3.5
20
10.766667
30
0
11
-3.5
21
11.933333
31
0
12
0
22
11.35
32
0
13
0
23
11.35
33
0
39
0
210
0
220
0
230
1
0
MTEXT
5
160
100
AcDbEntity
8
0
62
256
6
ByLayer
370
18
48
1
60
0
100
AcDbMText
10
7.3548
20
17.35
30
0
210
0
220
0
230
1
1
\A1;14.71
40
3
41
0
44
1
50
0
71
5
72
5
7
iso_b_vert
0
POINT
5
161
100
AcDbEntity
8
Defpoints
62
0
6
ByLayer
370
-1
48
1
60
0
100
AcDbPoint
10
14.7096
20
1.245
30
0
39
0
210
0
220
0
230
1
50
360
0
POINT
5
162
100
AcDbEntity
8
Defpoints
62
0
6
ByLayer
370
-1
48
1
60
0
100
AcDbPoint
10
0
20
0
30
0
39
0
210
0
220
0
230
1
50
360
0
POINT
5
163
100
AcDbEntity
8
Defpoints
62
0
6
ByLayer
370
-1
48
1
60
0
100
AcDbPoint
10
0
20
11.35
30
0
39
0
210
0
220
0
230
1
50
360
0
ENDBLK
5
159
100
AcDbEntity
8
0
100
AcDbBlockEnd
0
BLOCK
5
16B
100
AcDbEntity
8
0
100
AcDbBlockBegin
2
_U4
70
0
10
0
20
0
30
0
3
_U4
0
MTEXT
5
165
100
AcDbEntity
8
2
62
256
6
ByLayer
370
18
48
1
60
0
100
AcDbMText
10
3.464372
20
12.235114
30
0
210
0
220
0
230
1
1
\W0.6968;14.71
40
3
41
0
44
1.084337
50
0
71
7
72
5
7
iso_b_vert
0
LINE
5
166
100
AcDbEntity
8
2
62
256
6
ByLayer
370
13
48
1
60
0
100
AcDbLine
10
14.7096
20
2.8325
30
0
11
14.7096
21
13.35
31
0
39
0
210
0
220
0
230
1
0
LINE
5
167
100
AcDbEntity
8
2
62
256
6
ByLayer
370
13
48
1
60
0
100
AcDbLine
10
0
20
1.5875
30
0
11
0
21
13.35
31
0
39
0
210
0
220
0
230
1
0
LINE
5
168
100
AcDbEntity
8
2
62
256
6
ByLayer
370
13
48
1
60
0
100
AcDbLine
10
14.7096
20
11.35
30
0
11
0
21
11.35
31
0
39
0
210
0
220
0
230
1
0
SOLID
5
169
100
AcDbEntity
8
2
62
256
6
ByLayer
370
18
48
1
60
0
100
AcDbTrace
10
14.7096
20
11.35
30
0
11
11.209602
21
10.889216
31
0
12
11.209598
22
11.810784
32
0
13
11.209598
23
11.810784
33
0
39
0
210
0
220
0
230
1
0
SOLID
5
16A
100
AcDbEntity
8
2
62
256
6
ByLayer
370
18
48
1
60
0
100
AcDbTrace
10
0
20
11.35
30
0
11
3.499998
21
11.810784
31
0
12
3.500002
22
10.889216
32
0
13
3.500002
23
10.889216
33
0
39
0
210
0
220
0
230
1
0
ENDBLK
5
16C
100
AcDbEntity
8
0
100
AcDbBlockEnd
0
ENDSEC
0
SECTION
2
ENTITIES
0
ARC
5
BC
100
AcDbEntity
8
1
62
256
6
ByLayer
370
18
48
1
60
0
100
AcDbCircle
39
0
10
0.709644
20
-2.245
30
0
40
1
210
0
220
0
230
1
100
AcDbArc
50
90
51
120
0
ARC
5
BD
100
AcDbEntity
8
1
62
256
6
ByLayer
370
18
48
1
60
0
100
AcDbCircle
39
0
10
0.709644
20
2.245
30
0
40
1
210
0
220
0
230
1
100
AcDbArc
50
240
51
270
0
ARC
5
BE
100
AcDbEntity
8
SK2
62
256
6
ByLayer
370
13
48
1
60
0
100
AcDbCircle
39
0
10
14.7096
20
0
30
0
40
16.35
210
0
220
0
230
1
100
AcDbArc
50
10.57289
51
65
0
ARC
5
BF
100
AcDbEntity
8
SK2
62
256
6
ByLayer
370
13
48
1
60
0
100
AcDbCircle
39
0
10
14.7096
20
0
30
0
40
16.35
210
0
220
0
230
1
100
AcDbArc
50
295
51
349.42711
0
ELLIPSE
5
C0
100
AcDbEntity
8
1
62
256
6
ByLayer
370
18
48
1
60
0
100
AcDbEllipse
10
3.597526
20
-0.528535
30
0
11
-1.875812315217
21
1.10825531849304
31
0
210
0
220
0
230
1
40
0.183826
41
-1.46261335011267
42
-0.66392593001495
0
POINT
5
70
100
AcDbEntity
8
80
62
256
6
ByLayer
370
18
48
1
60
0
100
AcDbPoint
10
0
20
0
30
0
39
0
210
0
220
0
230
1
50
360
0
POINT
5
72
100
AcDbEntity
8
81
62
256
6
ByLayer
370
18
48
1
60
0
100
AcDbPoint
10
14.7096
20
0
30
0
39
0
210
0
220
0
230
1
50
360
0
POINT
5
74
100
AcDbEntity
8
1
62
256
6
ByLayer
370
18
48
1
60
1
100
AcDbPoint
10
-23.2904
20
1.5
30
0
39
0
210
0
220
0
230
1
50
360
0
POINT
5
76
100
AcDbEntity
8
1
62
256
6
ByLayer
370
18
48
1
60
1
100
AcDbPoint
10
14.7096
20
1.245
30
0
39
0
210
0
220
0
230
1
50
360
0
POINT
5
77
100
AcDbEntity
8
1
62
256
6
ByLayer
370
18
48
1
60
1
100
AcDbPoint
10
14.7096
20
1.245
30
0
39
0
210
0
220
0
230
1
50
360
0
POINT
5
78
100
AcDbEntity
8
1
62
256
6
ByLayer
370
18
48
1
60
1
100
AcDbPoint
10
5.9446
20
0
30
0
39
0
210
0
220
0
230
1
50
360
0
POINT
5
79
100
AcDbEntity
8
1
62
256
6
ByLayer
370
18
48
1
60
1
100
AcDbPoint
10
14.7096
20
1.245
30
0
39
0
210
0
220
0
230
1
50
360
0
POINT
5
7A
100
AcDbEntity
8
1
62
256
6
ByLayer
370
18
48
1
60
1
100
AcDbPoint
10
2.2096
20
0
30
0
39
0
210
0
220
0
230
1
50
360
0
POINT
5
7B
100
AcDbEntity
8
1
62
256
6
ByLayer
370
18
48
1
60
1
100
AcDbPoint
10
-23.2904
20
0
30
0
39
0
210
0
220
0
230
1
50
360
0
POINT
5
7C
100
AcDbEntity
8
1
62
256
6
ByLayer
370
18
48
1
60
1
100
AcDbPoint
10
0
20
0
30
0
39
0
210
0
220
0
230
1
50
360
0
POINT
5
7D
100
AcDbEntity
8
1
62
256
6
ByLayer
370
18
48
1
60
1
100
AcDbPoint
10
14.7096
20
1.245
30
0
39
0
210
0
220
0
230
1
50
360
0
POINT
5
7E
100
AcDbEntity
8
1
62
256
6
ByLayer
370
18
48
1
60
1
100
AcDbPoint
10
0
20
0
30
0
39
0
210
0
220
0
230
1
50
360
0
SPLINE
5
C1
100
AcDbEntity
8
1
62
256
6
ByLayer
370
18
48
1
60
0
100
AcDbSpline
70
4
71
3
72
30
73
26
40
0
40
0
40
0
40
0
40
0.113077397064304
40
0.113077397064304
40
0.169616095596455
40
0.169616095596455
40
0.226154794128607
40
0.226154794128607
40
0.339232191192908
40
0.339232191192908
40
0.395770889725058
40
0.395770889725058
40
0.452309588257209
40
0.452309588257209
40
0.565386985321507
40
0.565386985321507
40
0.621925683853656
40
0.621925683853656
40
0.678464382385805
40
0.678464382385805
40
0.90461917651441
40
0.90461917651441
40
0.961157875046559
40
0.961157875046559
40
1
40
1
40
1
40
1
41
1
10
3.59752599999999
20
-0.950071382828753
30
0
41
1
10
3.70740224009381
20
-0.991148737524071
30
0
41
1
10
3.81709997738778
20
-1.02833999608342
30
0
41
1
10
3.98175348720264
20
-1.07798362765004
30
0
41
1
10
4.03665510152695
20
-1.09350723464121
30
0
41
1
10
4.14655847282833
20
-1.12243911345837
30
0
41
1
10
4.20147950917334
20
-1.13582998682551
30
0
41
1
10
4.3659549141737
20
-1.17261205445811
30
0
41
1
10
4.47545466642927
20
-1.19258443570391
30
0
41
1
10
4.63987489945058
20
-1.21556019552852
30
0
41
1
10
4.69470801254784
20
-1.22205514501837
30
0
41
1
10
4.80448758958991
20
-1.23268048650607
30
0
41
1
10
4.85947861432408
20
-1.23681198637368
30
0
41
1
10
5.02408562758134
20
-1.24556181174216
30
0
41
1
10
5.13361350726532
20
-1.24654510805311
30
0
41
1
10
5.29798067764077
20
-1.2408165017045
30
0
41
1
10
5.35278076836505
20
-1.23770523251611
30
0
41
1
10
5.46246920514758
20
-1.22907898609216
30
0
41
1
10
5.51738218103483
20
-1.22355720293564
30
0
41
1
10
5.79199475726122
20
-1.18997082103698
30
0
41
1
10
6.01062324508953
20
-1.14443416423771
30
0
41
1
10
6.2851543083317
20
-1.06582569806898
30
0
41
1
10
6.34011380940481
20
-1.04904180037039
30
0
41
1
10
6.43266523631473
20
-1.01911816942953
30
0
41
1
10
6.47033207221116
20
-1.00647261616922
30
0
41
1
10
6.50798602698279
20
-0.993379468092826
30
0
0
SPLINE
5
C2
100
AcDbEntity
8
1
62
256
6
ByLayer
370
18
48
1
60
0
100
AcDbSpline
70
4
71
3
72
32
73
28
40
0
40
0
40
0
40
0
40
0.044609590252048
40
0.044609590252048
40
0.118101160232656
40
0.118101160232656
40
0.265084300193877
40
0.265084300193877
40
0.338575870174492
40
0.338575870174492
40
0.412067440155106
40
0.412067440155106
40
0.559050580116327
40
0.559050580116327
40
0.632542150096942
40
0.632542150096942
40
0.706033720077556
40
0.706033720077556
40
0.853016860038785
40
0.853016860038785
40
0.926508430019396
40
0.926508430019396
40
0.963254215009702
40
0.963254215009702
40
0.981627107504851
40
0.981627107504851
40
1
40
1
40
1
40
1
41
1
10
11.8883667573443
20
1.24499993899516
30
0
41
1
10
11.9216687048834
20
1.24499186758038
30
0
41
1
10
11.9549897543441
20
1.24453897888557
30
0
41
1
10
12.0432756893539
20
1.24215688252093
30
0
41
1
10
12.0982108379634
20
1.23946039321336
30
0
41
1
10
12.2626887268435
20
1.22777222388194
30
0
41
1
10
12.372181196895
20
1.21520375878859
30
0
41
1
10
12.5365899898207
20
1.18938838613764
30
0
41
1
10
12.5914186818192
20
1.17962097999933
30
0
41
1
10
12.7011912592669
20
1.1577812778562
30
0
41
1
10
12.7561799536404
20
1.14569321647335
30
0
41
1
10
12.9208137107257
20
1.10615785266759
30
0
41
1
10
13.0303675345383
20
1.07549611040002
30
0
41
1
10
13.1948013603142
20
1.02345544374307
30
0
41
1
10
13.2496267121422
20
1.00509697337529
30
0
41
1
10
13.3593701254119
20
0.966411361598404
30
0
41
1
10
13.4143375610136
20
0.946056525602103
30
0
41
1
10
13.579033077029
20
0.882294997467824
30
0
41
1
10
13.688599055793
20
0.836368169427999
30
0
41
1
10
13.8529912219514
20
0.762904670751823
30
0
41
1
10
13.9077950861314
20
0.737653117890545
30
0
41
1
10
13.9900552036526
20
0.698687772863451
30
0
41
1
10
14.0174837196152
20
0.685517127717475
30
0
41
1
10
14.0586422458613
20
0.6654905697213
30
0
41
1
10
14.0723099439531
20
0.658686820544489
30
0
41
1
10
14.1000825947877
20
0.645645325264439
30
0
41
1
10
14.1141955796345
20
0.639418719435213
30
0
41
1
10
14.129046965597
20
0.634293075230971
30
0
0
SPLINE
5
C3
100
AcDbEntity
8
1
62
256
6
ByLayer
370
18
48
1
60
0
100
AcDbSpline
70
4
71
3
72
27
73
23
40
0
40
0
40
0
40
0
40
0.0625000000000005
40
0.0625000000000005
40
0.125000000000001
40
0.187500000000001
40
0.187500000000001
40
0.250000000000002
40
0.250000000000002
40
0.375000000000002
40
0.375000000000002
40
0.500000000000003
40
0.500000000000003
40
0.625000000000004
40
0.625000000000004
40
0.750000000000005
40
0.750000000000005
40
0.875000000000006
40
0.875000000000006
40
0.937500000000003
40
0.937500000000003
40
1
40
1
40
1
40
1
41
1
10
14.129046965597
20
0.634293075230971
30
0
41
1
10
14.1388191625195
20
0.619921177605391
30
0
41
1
10
14.1485741632126
20
0.606647581911005
30
0
41
1
10
14.1680712923022
20
0.582100522489952
30
0
41
1
10
14.1875561545725
20
0.559389641881495
30
0
41
1
10
14.2070339529332
20
0.53886172249085
30
0
41
1
10
14.226509489223
20
0.518817450257046
30
0
41
1
10
14.2362463521196
20
0.50899881031259
30
0
41
1
10
14.2654538525273
20
0.479892844970323
30
0
41
1
10
14.284922517437
20
0.46116134524982
30
0
41
1
10
14.3238148897287
20
0.426309451721835
30
0
41
1
10
14.3432704972818
20
0.410236358566578
30
0
41
1
10
14.3816226520235
20
0.380937876587751
30
0
41
1
10
14.40057552469
20
0.367622935205844
30
0
41
1
10
14.4378041048793
20
0.343458154093525
30
0
41
1
10
14.4560863630697
20
0.332649007629215
30
0
41
1
10
14.4913426664442
20
0.313692537444609
30
0
41
1
10
14.5083515577785
20
0.305534374511723
30
0
41
1
10
14.5317220453537
20
0.295268628323896
30
0
41
1
10
14.5391448676932
20
0.292175805165726
30
0
41
1
10
14.5528345250392
20
0.286654185024645
30
0
41
1
10
14.5591040185059
20
0.284225425712236
30
0
41
1
10
14.5644617675394
20
0.28213384225603
30
0
0
SPLINE
5
C4
100
AcDbEntity
8
1
62
256
6
ByLayer
370
18
48
1
60
0
100
AcDbSpline
70
4
71
3
72
73
73
69
40
0
40
0
40
0
40
0
40
0.0053988682645043
40
0.0053988682645043
40
0.0107977365290085
40
0.0107977365290085
40
0.0215954730580191
40
0.0431909461160403
40
0.0431909461160403
40
0.0647864191740614
40
0.0647864191740614
40
0.0863818922320826
40
0.0863818922320826
40
0.129572838348125
40
0.129572838348125
40
0.151168311406146
40
0.151168311406146
40
0.172763784464167
40
0.172763784464167
40
0.215954730580212
40
0.215954730580212
40
0.237550203638233
40
0.237550203638233
40
0.259145676696254
40
0.259145676696254
40
0.302336622812296
40
0.302336622812296
40
0.323932095870317
40
0.323932095870317
40
0.345527568928339
40
0.345527568928339
40
0.431909461160429
40
0.431909461160429
40
0.51829135339252
40
0.51829135339252
40
0.539886826450543
40
0.539886826450543
40
0.561482299508565
40
0.561482299508565
40
0.604673245624613
40
0.604673245624613
40
0.626268718682635
40
0.626268718682635
40
0.647864191740658
40
0.647864191740658
40
0.691055137856704
40
0.691055137856704
40
0.712650610914725
40
0.712650610914725
40
0.734246083972747
40
0.734246083972747
40
0.77743703008879
40
0.77743703008879
40
0.799032503146813
40
0.799032503146813
40
0.820627976204836
40
0.820627976204836
40
0.863818922320881
40
0.863818922320881
40
0.885414395378904
40
0.885414395378904
40
0.907009868436927
40
0.907009868436927
40
0.950200814552973
40
0.950200814552973
40
0.99339176066902
40
0.99339176066902
40
1
40
1
40
1
40
1
41
1
10
14.129046965597
20
-1.19915666058321
30
0
41
1
10
14.1141908433197
20
-1.19755474828514
30
0
41
1
10
14.1000749121252
20
-1.19555627082784
30
0
41
1
10
14.0722935665396
20
-1.19119130750153
30
0
41
1
10
14.0586200685319
20
-1.18883035030768
30
0
41
1
10
14.0174360923799
20
-1.18161386235533
30
0
41
1
10
13.9350716452443
20
-1.16632839370445
30
0
41
1
10
13.8527125612686
20
-1.14849907361108
30
0
41
1
10
13.7428450023628
20
-1.12250674051114
30
0
41
1
10
13.6878429163212
20
-1.10838810560074
30
0
41
1
10
13.5780422414415
20
-1.07806112006611
30
0
41
1
10
13.5232240713569
20
-1.06184351969438
30
0
41
1
10
13.3588927602367
20
-1.01014270994372
30
0
41
1
10
13.2493883800132
20
-0.971724769248141
30
0
41
1
10
13.0848263210256
20
-0.908594930095347
30
0
41
1
10
13.0299007471576
20
-0.88662303439645
30
0
41
1
10
12.9199804169733
20
-0.840937558246594
30
0
41
1
10
12.8651195091789
20
-0.817269680932156
30
0
41
1
10
12.7006958577806
20
-0.743978503258262
30
0
41
1
10
12.5912015312295
20
-0.692192997512791
30
0
41
1
10
12.4267433229476
20
-0.610719162370543
30
0
41
1
10
12.3718916366629
20
-0.582922303714383
30
0
41
1
10
12.2620491375566
20
-0.526155058747548
30
0
41
1
10
12.2070824547634
20
-0.49717140761382
30
0
41
1
10
12.042555783099
20
-0.408998507248356
30
0
41
1
10
11.9330480053248
20
-0.348619537494699
30
0
41
1
10
11.7686496115469
20
-0.256340879862165
30
0
41
1
10
11.7138293779449
20
-0.225292675983496
30
0
41
1
10
11.6040842910307
20
-0.162723272107911
30
0
41
1
10
11.549105705925
20
-0.131160626409894
30
0
41
1
10
11.27462901276
20
0.0270075810370258
30
0
41
1
10
11.0559730605785
20
0.153974631107246
30
0
41
1
10
10.616458155493
20
0.401729792118317
30
0
41
1
10
10.3977783794049
20
0.52011506543414
30
0
41
1
10
10.1233687715448
20
0.657014059069354
30
0
41
1
10
10.0683824904141
20
0.683803599708028
30
0
41
1
10
9.95862338460168
20
0.735852416978958
30
0
41
1
10
9.9037968831118
20
0.761144053457542
30
0
41
1
10
9.73938569265368
20
0.834709101233358
30
0
41
1
10
9.62987491774587
20
0.880682252295799
30
0
41
1
10
9.46535869046821
20
0.944494812824217
30
0
41
1
10
9.41039878283379
20
0.96489475956821
30
0
41
1
10
9.30053481073219
20
1.00372172599813
30
0
41
1
10
9.24567273353281
20
1.02214256329486
30
0
41
1
10
9.08119976984977
20
1.07435261310508
30
0
41
1
10
8.97171134638052
20
1.10510059324895
30
0
41
1
10
8.80731420085357
20
1.14475419156309
30
0
41
1
10
8.75246293034817
20
1.15687487680188
30
0
41
1
10
8.64256951205155
20
1.17885798977619
30
0
41
1
10
8.58762624169736
20
1.18870318019521
30
0
41
1
10
8.42305726215653
20
1.21471113340223
30
0
41
1
10
8.31355505429229
20
1.22738132820532
30
0
41
1
10
8.149226071263
20
1.239230511415
30
0
41
1
10
8.09441015722254
20
1.24198035133685
30
0
41
1
10
7.98461457864045
20
1.24506566048217
30
0
41
1
10
7.92959979235664
20
1.24539952243751
30
0
41
1
10
7.76488932842966
20
1.24277347463334
30
0
41
1
10
7.65535583178394
20
1.23620150947201
30
0
41
1
10
7.49107400028154
20
1.21918197436952
30
0
41
1
10
7.43628766822684
20
1.21232306537726
30
0
41
1
10
7.32658912105225
20
1.19626242570772
30
0
41
1
10
7.27163922135142
20
1.18705278656824
30
0
41
1
10
7.10678093314567
20
1.15598292908547
30
0
41
1
10
6.99720732065109
20
1.13075272370142
30
0
41
1
10
6.7781888538523
20
1.07166048764611
30
0
41
1
10
6.66862251975761
20
1.03789748958286
30
0
41
1
10
6.54192459753588
20
0.994374907269503
30
0
41
1
10
6.52510899372305
20
0.988507346015496
30
0
41
1
10
6.50829455562916
20
0.982550486075979
30
0
0
SPLINE
5
C5
100
AcDbEntity
8
1
62
256
6
ByLayer
370
18
48
1
60
0
100
AcDbSpline
70
4
71
3
72
24
73
20
40
0
40
0
40
0
40
0
40
0.0241121329728415
40
0.0241121329728415
40
0.186760110810705
40
0.186760110810705
40
0.349408088648568
40
0.349408088648568
40
0.512056066486432
40
0.512056066486432
40
0.674704044324295
40
0.674704044324295
40
0.756028033243221
40
0.756028033243221
40
0.837352022162147
40
0.837352022162147
40
0.918676011081074
40
0.918676011081074
40
1
40
1
40
1
40
1
41
1
10
14.4820726996178
20
-0.487932158447649
30
0
41
1
10
14.479495352631
20
-0.493435931554558
30
0
41
1
10
14.4769010013684
20
-0.498943923610426
30
0
41
1
10
14.4566953716762
20
-0.541643701714946
30
0
41
1
10
14.4384137790035
20
-0.579040019311918
30
0
41
1
10
14.4012349619072
20
-0.654254376899473
30
0
41
1
10
14.3823073630316
20
-0.692118868160094
30
0
41
1
10
14.3440868410799
20
-0.768390852843339
30
0
41
1
10
14.3247940673038
20
-0.806780154354215
30
0
41
1
10
14.2860022049963
20
-0.883989021763398
30
0
41
1
10
14.2665010322521
20
-0.922818627479757
30
0
41
1
10
14.2371253373207
20
-0.981733278413657
30
0
41
1
10
14.227308346462
20
-1.00150683813459
30
0
41
1
10
14.2076397976296
20
-1.04126922637127
30
0
41
1
10
14.1977906323441
20
-1.06124133015743
30
0
41
1
10
14.1780985674339
20
-1.10111487713795
30
0
41
1
10
14.1682557624287
20
-1.12101600503738
30
0
41
1
10
14.1486132366644
20
-1.16043919770686
30
0
41
1
10
14.1388176479403
20
-1.17992772778791
30
0
41
1
10
14.129046965597
20
-1.19915666058327
30
0
0
SPLINE
5
C6
100
AcDbEntity
8
1
62
256
6
ByLayer
370
18
48
1
60
0
100
AcDbSpline
70
4
71
3
72
76
73
72
40
0
40
0
40
0
40
0
40
0.0159793891898383
40
0.0159793891898383
40
0.0360540669932493
40
0.0360540669932493
40
0.0561287447966602
40
0.0561287447966602
40
0.136427456010306
40
0.136427456010306
40
0.156502133813717
40
0.156502133813717
40
0.176576811617128
40
0.176576811617128
40
0.216726167223949
40
0.216726167223949
40
0.236800845027361
40
0.236800845027361
40
0.256875522830772
40
0.256875522830772
40
0.297024878437595
40
0.297024878437595
40
0.337174234044418
40
0.337174234044418
40
0.377323589651241
40
0.377323589651241
40
0.397398267454654
40
0.397398267454654
40
0.417472945258067
40
0.417472945258067
40
0.45762230086489
40
0.45762230086489
40
0.477696978668302
40
0.477696978668302
40
0.497771656471713
40
0.497771656471713
40
0.537921012078538
40
0.537921012078538
40
0.578070367685363
40
0.578070367685363
40
0.618219723292188
40
0.618219723292188
40
0.658369078899014
40
0.658369078899014
40
0.678443756702427
40
0.678443756702427
40
0.698518434505841
40
0.698518434505841
40
0.738667790112668
40
0.738667790112668
40
0.75874246791608
40
0.75874246791608
40
0.778817145719493
40
0.778817145719493
40
0.81896650132632
40
0.81896650132632
40
0.839041179129734
40
0.839041179129734
40
0.859115856933149
40
0.859115856933149
40
0.899265212539976
40
0.899265212539976
40
0.91933989034339
40
0.91933989034339
40
0.939414568146805
40
0.939414568146805
40
0.979563923753634
40
0.979563923753634
40
0.999638601557048
40
0.999638601557048
40
1
40
1
40
1
40
1
41
1
10
5.11236325539062
20
1.24500086733247
30
0
41
1
10
5.15597569625828
20
1.24500529824996
30
0
41
1
10
5.19957967995535
20
1.24424602220279
30
0
41
1
10
5.29798067764077
20
1.2408165017045
30
0
41
1
10
5.35278076836502
20
1.23770523251608
30
0
41
1
10
5.46246920514758
20
1.22907898609216
30
0
41
1
10
5.51738218103483
20
1.22355720293564
30
0
41
1
10
5.79199475726119
20
1.18997082103698
30
0
41
1
10
6.01062324508951
20
1.14443416423768
30
0
41
1
10
6.2851543083317
20
1.06582569806898
30
0
41
1
10
6.34011380940481
20
1.04904180037042
30
0
41
1
10
6.44983685505602
20
1.01356625954514
30
0
41
1
10
6.50464950149049
20
0.99485450184207
30
0
41
1
10
6.66903506538955
20
0.935909200417086
30
0
41
1
10
6.77854882020213
20
0.892860872041467
30
0
41
1
10
6.94309839436201
20
0.823067866535524
30
0
41
1
10
6.99807601696369
20
0.798937434497532
30
0
41
1
10
7.1078882005186
20
0.74929152255001
30
0
41
1
10
7.16273040260617
20
0.723759147584275
30
0
41
1
10
7.32716265798948
20
0.645183814585579
30
0
41
1
10
7.4366542001188
20
0.590158463888145
30
0
41
1
10
7.65590010253715
20
0.475580362996283
30
0
41
1
10
7.76594540372875
20
0.416124873989276
30
0
41
1
10
7.98532094290968
20
0.294873128191057
30
0
41
1
10
8.09481984736405
20
0.232966481495851
30
0
41
1
10
8.25916887629489
20
0.138832255314213
30
0
41
1
10
8.31399675512657
20
0.107290056304322
30
0
41
1
10
8.42382275238108
20
0.0440166460349474
30
0
41
1
10
8.4788204585733
20
0.0122742508232534
30
0
41
1
10
8.64345741217781
20
-0.0826916198292622
30
0
41
1
10
8.75296268000645
20
-0.145804352027341
30
0
41
1
10
8.9172471788512
20
-0.239472377305873
30
0
41
1
10
8.97203831194113
20
-0.270484799432751
30
0
41
1
10
9.0817635048177
20
-0.33194618054145
30
0
41
1
10
9.13675078259712
20
-0.362432481796048
30
0
41
1
10
9.30153901842456
20
-0.45264476433394
30
0
41
1
10
9.41109394024861
20
-0.511102071985192
30
0
41
1
10
9.63012188125978
20
-0.623814165949966
30
0
41
1
10
9.73971161573934
20
-0.677888142192444
30
0
41
1
10
9.95956937395536
20
-0.780668480060513
30
0
41
1
10
10.0692358154768
20
-0.829111491578232
30
0
41
1
10
10.2882588262545
20
-0.919293734447592
30
0
41
1
10
10.3977849686397
20
-0.960908624748498
30
0
41
1
10
10.5625016258085
20
-1.01764693620871
30
0
41
1
10
10.6175079037464
20
-1.03562213056014
30
0
41
1
10
10.7272736424556
20
-1.06946363910865
30
0
41
1
10
10.7820790767609
20
-1.08535414758484
30
0
41
1
10
10.9463851282157
20
-1.12983063526357
30
0
41
1
10
11.0558889667226
20
-1.15513384633746
30
0
41
1
10
11.2204829580334
20
-1.18631488562704
30
0
41
1
10
11.2754501478746
20
-1.19558640495703
30
0
41
1
10
11.3853275625075
20
-1.21178591881878
30
0
41
1
10
11.4401728219806
20
-1.21870924808883
30
0
41
1
10
11.6045622012744
20
-1.23590800213319
30
0
41
1
10
11.7140510789877
20
-1.24258845978957
30
0
41
1
10
11.878533185906
20
-1.24539097900367
30
0
41
1
10
11.9333991740293
20
-1.24512152742935
30
0
41
1
10
12.0432756893539
20
-1.24215688252093
30
0
41
1
10
12.0982108379634
20
-1.23946039321336
30
0
41
1
10
12.2626887268434
20
-1.22777222388194
30
0
41
1
10
12.372181196895
20
-1.21520375878859
30
0
41
1
10
12.5365899898207
20
-1.18938838613764
30
0
41
1
10
12.5914186818193
20
-1.17962097999933
30
0
41
1
10
12.7011912592669
20
-1.1577812778562
30
0
41
1
10
12.7561799536404
20
-1.14569321647335
30
0
41
1
10
12.9208137107256
20
-1.10615785266759
30
0
41
1
10
13.0303675345383
20
-1.07549611040005
30
0
41
1
10
13.1948013603142
20
-1.02345544374307
30
0
41
1
10
13.2496267121422
20
-1.00509697337532
30
0
41
1
10
13.3054862577617
20
-0.985405944715922
30
0
41
1
10
13.3064741277719
20
-0.985057393948779
30
0
41
1
10
13.3074620278469
20
-0.984708515844886
30
0
0
SPLINE
5
C7
100
AcDbEntity
8
1
62
256
6
ByLayer
370
18
48
1
60
0
100
AcDbSpline
70
4
71
3
72
53
73
49
40
0
40
0
40
0
40
0
40
0.0158400792609753
40
0.0398378590291188
40
0.0638356387972625
40
0.08183397362337
40
0.0998323084494777
40
0.123830088217621
40
0.147827867985765
40
0.171825647753908
40
0.195823427522052
40
0.219821207290195
40
0.231820097174267
40
0.255817876942411
40
0.279815656710554
40
0.303813436478697
40
0.327811216246841
40
0.351808996014985
40
0.363807885899056
40
0.3878056656672
40
0.411803445435343
40
0.435801225203487
40
0.45979900497163
40
0.483796784739774
40
0.501795119565881
40
0.519793454391989
40
0.543791234160133
40
0.567789013928276
40
0.59178679369642
40
0.615784573464563
40
0.639782353232707
40
0.651781243116778
40
0.675779022884922
40
0.699776802653065
40
0.723774582421209
40
0.747772362189352
40
0.771770141957496
40
0.783769031841568
40
0.807766811609711
40
0.831764591377855
40
0.855762371145998
40
0.879760150914142
40
0.903757930682285
40
0.921756265508393
40
0.9397546003345
40
0.963752380102644
40
0.987750159870788
40
1
40
1
40
1
40
1
41
1
10
8.09790678502389
20
0.231933744122358
30
0
41
1
10
8.11700760623432
20
0.230094948647178
30
0
41
1
10
8.16504624355327
20
0.225399933912371
30
0
41
1
10
8.24202269698065
20
0.217596009783051
30
0
41
1
10
8.321601691279
20
0.209214604052221
30
0
41
1
10
8.39394623155036
20
0.201355147134308
30
0
41
1
10
8.46629077182129
20
0.193294443887481
30
0
41
1
10
8.54586976612078
20
0.184177955028645
30
0
41
1
10
8.63268321444312
20
0.173933842717929
30
0
41
1
10
8.71949666277908
20
0.163403398048047
30
0
41
1
10
8.80631011106035
20
0.152600312265093
30
0
41
1
10
8.87865465153206
20
0.143377404496221
30
0
41
1
10
8.95099919079425
20
0.13401768855104
30
0
41
1
10
9.02334373635134
20
0.124528615964067
30
0
41
1
10
9.11015702100801
20
0.112948442012964
30
0
41
1
10
9.1969701736553
20
0.101190068023385
30
0
41
1
10
9.28378320512783
20
0.0892684329666621
30
0
41
1
10
9.35612731131491
20
0.0792098532126318
30
0
41
1
10
9.42847136195908
20
0.0690687637166434
30
0
41
1
10
9.50081536211164
20
0.058846172789373
30
0
41
1
10
9.58762809718223
20
0.0464733430140427
30
0
41
1
10
9.67444078286982
20
0.0340450533066132
30
0
41
1
10
9.76125343489499
20
0.0215722007236252
30
0
41
0.999999999999999
10
9.84083168280637
20
0.010108258065145
30
0
41
1
10
9.91317554292641
20
-0.0003236843007812
30
0
41
1
10
9.98551940902991
20
-0.0107580518917416
30
0
41
1
10
10.0650976788795
20
-0.0222289175827939
30
0
41
1
10
10.1519103739851
20
-0.0347191293386686
30
0
41
1
10
10.238723121896
20
-0.0471679294358011
30
0
41
1
10
10.3255359383514
20
-0.0595192428645532
30
0
41
1
10
10.3978800222158
20
-0.0697260464717431
30
0
41
1
10
10.4702241688705
20
-0.0798563520847608
30
0
41
1
10
10.5425683816024
20
-0.0899062667527346
30
0
41
1
10
10.6293815647837
20
-0.101822717724076
30
0
41
1
10
10.7161948747125
20
-0.113578312762542
30
0
41
1
10
10.8030081579921
20
-0.125161618042824
30
0
41
1
10
10.8753525685868
20
-0.134656883977215
30
0
41
1
10
10.9476969762579
20
-0.144000813717952
30
0
41
1
10
11.0200413846222
20
-0.153192909630349
30
0
41
1
10
11.1068546744943
20
-0.163969050828086
30
0
41
1
10
11.1936679643983
20
-0.174476679093601
30
0
41
1
10
11.2804812542942
20
-0.184703031690617
30
0
41
1
10
11.360060103368
20
-0.193807734626631
30
0
41
1
10
11.432404511616
20
-0.201860249632063
30
0
41
1
10
11.5047489198642
20
-0.209718530633125
30
0
41
1
10
11.5843277689372
20
-0.218086599880735
30
0
41
1
10
11.6569747859628
20
-0.225421229110282
30
0
41
1
10
11.7006840396891
20
-0.229692737748479
30
0
41
1
10
11.715455530116
20
-0.231119897507853
30
0
0
SPLINE
5
C8
100
AcDbEntity
8
1
62
256
6
ByLayer
370
18
48
1
60
0
100
AcDbSpline
70
4
71
3
72
19
73
15
40
0
40
0
40
0
40
0
40
0.0501806250109696
40
0.0501806250109696
40
0.100361250021939
40
0.100361250021939
40
0.200722500043878
40
0.401445000087775
40
0.401445000087775
40
0.602167500131673
40
0.602167500131673
40
0.80289000017557
40
0.80289000017557
40
1
40
1
40
1
40
1
41
1
10
14.129046965597
20
1.19915666058321
30
0
41
1
10
14.1141908433197
20
1.19755474828514
30
0
41
1
10
14.1000749121253
20
1.19555627082784
30
0
41
1
10
14.0722935665396
20
1.19119130750153
30
0
41
1
10
14.0586200685319
20
1.18883035030771
30
0
41
1
10
14.0174360923799
20
1.18161386235536
30
0
41
1
10
13.9350716452443
20
1.16632839370445
30
0
41
1
10
13.8527125612686
20
1.14849907361108
30
0
41
1
10
13.7428450023628
20
1.12250674051117
30
0
41
1
10
13.6878429163213
20
1.10838810560074
30
0
41
1
10
13.5780422414415
20
1.07806112006611
30
0
41
1
10
13.523224071357
20
1.06184351969438
30
0
41
1
10
13.4146557140556
20
1.02768647471302
30
0
41
1
10
13.3608764729111
20
1.00981058115309
30
0
41
1
10
13.3070792386188
20
0.991015630244931
30
0
0
SPLINE
5
C9
100
AcDbEntity
8
1
62
256
6
ByLayer
370
18
48
1
60
0
100
AcDbSpline
70
4
71
3
72
42
73
38
40
0
40
0
40
0
40
0
40
0.0138441288557706
40
0.0138441288557706
40
0.0897022727899378
40
0.0897022727899378
40
0.127631344757022
40
0.127631344757022
40
0.165560416724107
40
0.165560416724107
40
0.241418560658278
40
0.241418560658278
40
0.317276704592449
40
0.317276704592449
40
0.355205776559535
40
0.355205776559535
40
0.393134848526622
40
0.393134848526622
40
0.468992992460796
40
0.468992992460796
40
0.506922064427884
40
0.506922064427884
40
0.544851136394971
40
0.544851136394971
40
0.620709280329144
40
0.620709280329144
40
0.65863835229623
40
0.65863835229623
40
0.696567424263316
40
0.696567424263316
40
0.772425568197488
40
0.772425568197488
40
0.810354640164573
40
0.810354640164573
40
0.848283712131658
40
0.848283712131658
40
1
40
1
40
1
40
1
41
1
10
7.93484908196879
20
-1.24499940946768
30
0
41
1
10
7.91479072927569
20
-1.24500208137238
30
0
41
1
10
7.89473610295096
20
-1.24484367605822
30
0
41
1
10
7.76488932842969
20
-1.24277347463334
30
0
41
1
10
7.65535583178397
20
-1.23620150947201
30
0
41
1
10
7.49107400028151
20
-1.21918197436952
30
0
41
1
10
7.43628766822684
20
-1.21232306537726
30
0
41
1
10
7.32658912105228
20
-1.19626242570772
30
0
41
1
10
7.27163922135145
20
-1.18705278656824
30
0
41
1
10
7.1067809331457
20
-1.15598292908547
30
0
41
1
10
6.99720732065109
20
-1.13075272370142
30
0
41
1
10
6.7781888538523
20
-1.07166048764611
30
0
41
1
10
6.66862251975761
20
-1.03789748958286
30
0
41
1
10
6.50379442821642
20
-0.981276638539185
30
0
41
1
10
6.44881888118093
20
-0.961418226318983
30
0
41
1
10
6.33909815973843
20
-0.919935231055774
30
0
41
1
10
6.28430716788901
20
-0.898286430905017
30
0
41
1
10
6.12000779927902
20
-0.830779131568931
30
0
41
1
10
6.01048618564263
20
-0.782470564272217
30
0
41
1
10
5.84581321071548
20
-0.705592100149943
30
0
41
1
10
5.7908055689303
20
-0.679197525340726
30
0
41
1
10
5.68099666873849
20
-0.625205583206565
30
0
41
1
10
5.62617620646492
20
-0.5975899260944
30
0
41
1
10
5.46184235895089
20
-0.513075276308712
30
0
41
1
10
5.35234942933207
20
-0.454676553703649
30
0
41
1
10
5.18780568498238
20
-0.364644738579443
30
0
41
1
10
5.13289268165852
20
-0.334216671107726
30
0
41
1
10
5.02297180763301
20
-0.272677741350549
30
0
41
1
10
4.96810891855256
20
-0.241643117553394
30
0
41
1
10
4.80369908366052
20
-0.147940204580237
30
0
41
1
10
4.69421253429499
20
-0.0848773030303676
30
0
41
1
10
4.52977972122252
20
0.0099403269696552
30
0
41
1
10
4.47493651624535
20
0.0415862258259097
30
0
41
1
10
4.36512073147125
20
0.104846013193367
30
0
41
1
10
4.31013403485051
20
0.136491407984607
30
0
41
1
10
4.03586496792789
20
0.293611161931011
30
0
41
1
10
3.81728779486056
20
0.4156639374294
30
0
41
1
10
3.59752599999999
20
0.530664420695871
30
0
0
SPLINE
5
CA
100
AcDbEntity
8
1
62
256
6
ByLayer
370
18
48
1
60
0
100
AcDbSpline
70
4
71
3
72
24
73
20
40
0
40
0
40
0
40
0
40
0.128992255908593
40
0.177364351874315
40
0.225736447840037
40
0.290232575794334
40
0.35472870374863
40
0.419224831702927
40
0.483720959657223
40
0.54821708761152
40
0.580465151588668
40
0.644961279542964
40
0.70945740749726
40
0.773953535451557
40
0.838449663405853
40
0.90294579136015
40
0.951317887325872
40
0.999689983291594
40
1
40
1
40
1
40
1
41
1
10
3.59752599999999
20
-0.0660672332004424
30
0
41
1
10
3.65540009447406
20
-0.074246200382845
30
0
41
1
10
3.73497602321942
20
-0.0853777282426905
30
0
41
1
10
3.83625513789406
20
-0.0992973551885825
30
0
41
1
10
3.90859777790931
20
-0.109136543313326
30
0
41
1
10
3.98817629106583
20
-0.119817977060478
30
0
41
1
10
4.07498970483695
20
-0.131279466706502
30
0
41
0.999999999999999
10
4.16180301129092
20
-0.142533567545741
30
0
41
1
10
4.2486163481177
20
-0.153569807592987
30
0
41
1
10
4.32096078621049
20
-0.162563954687698
30
0
41
1
10
4.39330522784647
20
-0.171377847708129
30
0
41
1
10
4.46564966861081
20
-0.180013598346619
30
0
41
1
10
4.55246299774359
20
-0.19008150126578
30
0
41
1
10
4.63927632683297
20
-0.199840464782568
30
0
41
1
10
4.72608965593369
20
-0.209278819949901
30
0
41
1
10
4.80566854093919
20
-0.217625635887487
30
0
41
1
10
4.87801298185454
20
-0.224961879074442
30
0
41
1
10
4.92155874303546
20
-0.229245453343253
30
0
41
1
10
4.94340117194202
20
-0.231357307394603
30
0
41
1
10
4.94354026857406
20
-0.231370754580809
30
0
0
SPLINE
5
CB
100
AcDbEntity
8
1
62
256
6
ByLayer
370
18
48
1
60
0
100
AcDbSpline
70
4
71
3
72
28
73
24
40
0
40
0
40
0
40
0
40
0.0624999999999991
40
0.0624999999999991
40
0.124999999999998
40
0.124999999999998
40
0.249999999999996
40
0.249999999999996
40
0.374999999999994
40
0.374999999999994
40
0.499999999999993
40
0.499999999999993
40
0.624999999999991
40
0.624999999999991
40
0.749999999999989
40
0.749999999999989
40
0.812499999999991
40
0.812499999999991
40
0.874999999999994
40
0.874999999999994
40
0.937499999999997
40
0.937499999999997
40
1
40
1
40
1
40
1
41
1
10
14.5644617675394
20
0.28213384225603
30
0
41
1
10
14.559164060545
20
0.300821971559742
30
0
41
1
10
14.5529652748684
20
0.319386472119305
30
0
41
1
10
14.539407897815
20
0.356420206317381
30
0
41
1
10
14.5320470032091
20
0.374889210242344
30
0
41
1
10
14.5088333415465
20
0.430304545833138
30
0
41
1
10
14.4918892339641
20
0.467269869608316
30
0
41
1
10
14.4566953716762
20
0.541643701714946
30
0
41
1
10
14.4384137790034
20
0.57904001931189
30
0
41
1
10
14.4012349619072
20
0.654254376899445
30
0
41
1
10
14.3823073630316
20
0.692118868160065
30
0
41
1
10
14.3440868410799
20
0.768390852843311
30
0
41
1
10
14.3247940673039
20
0.806780154354186
30
0
41
1
10
14.2860022049964
20
0.883989021763369
30
0
41
1
10
14.2665010322522
20
0.922818627479728
30
0
41
1
10
14.2371253373208
20
0.981733278413628
30
0
41
1
10
14.227308346462
20
1.00150683813453
30
0
41
1
10
14.2076397976296
20
1.04126922637124
30
0
41
1
10
14.1977906323441
20
1.0612413301574
30
0
41
1
10
14.1780985674339
20
1.10111487713789
30
0
41
1
10
14.1682557624287
20
1.12101600503735
30
0
41
1
10
14.1486132366644
20
1.16043919770681
30
0
41
1
10
14.1388176479403
20
1.17992772778786
30
0
41
1
10
14.129046965597
20
1.19915666058324
30
0
0
SPLINE
5
CC
100
AcDbEntity
8
1
62
256
6
ByLayer
370
18
48
1
60
0
100
AcDbSpline
70
4
71
3
72
47
73
43
40
0
40
0
40
0
40
0
40
0.124999999999996
40
0.124999999999996
40
0.187499999999997
40
0.187499999999997
40
0.249999999999997
40
0.249999999999997
40
0.312499999999997
40
0.312499999999997
40
0.374999999999997
40
0.374999999999997
40
0.437499999999997
40
0.437499999999997
40
0.499999999999998
40
0.499999999999998
40
0.531249999999998
40
0.531249999999998
40
0.562499999999998
40
0.562499999999998
40
0.624999999999998
40
0.624999999999998
40
0.687499999999998
40
0.687499999999998
40
0.703124999999998
40
0.703124999999998
40
0.718749999999998
40
0.749999999999998
40
0.749999999999998
40
0.8125
40
0.8125
40
0.828125
40
0.828125
40
0.84375
40
0.84375
40
0.875
40
0.875
40
0.9375
40
0.9375
40
0.96875
40
0.96875
40
1
40
1
40
1
40
1
41
1
10
3.59752599999999
20
-0.950071382828753
30
0
41
1
10
3.50265712603749
20
-0.932209463996571
30
0
41
1
10
3.40969882643984
20
-0.910290562446932
30
0
41
1
10
3.27312460988142
20
-0.869958342952003
30
0
41
1
10
3.22809918220369
20
-0.855265986489428
30
0
41
1
10
3.13952415028084
20
-0.823266063923427
30
0
41
1
10
3.09591134943
20
-0.805941500848888
30
0
41
1
10
3.01005963431953
20
-0.768323889186831
30
0
41
1
10
2.96770761418605
20
-0.747965510439002
30
0
41
1
10
2.88528974432288
20
-0.704352904815011
30
0
41
1
10
2.84515983235568
20
-0.681081895987347
30
0
41
1
10
2.76711652099863
20
-0.631319926944087
30
0
41
1
10
2.72920245405783
20
-0.604830446996516
30
0
41
1
10
2.65570158373225
20
-0.54824433225437
30
0
41
1
10
2.62011350481794
20
-0.518150446544468
30
0
41
1
10
2.56862040564215
20
-0.469894808012214
30
0
41
1
10
2.55177161419223
20
-0.453288986115553
30
0
41
1
10
2.51874120017371
20
-0.418943333990626
30
0
41
1
10
2.5025063321338
20
-0.401140458761404
30
0
41
1
10
2.4553054354484
20
-0.346368429317039
30
0
41
1
10
2.42591138337198
20
-0.308159647808509
30
0
41
1
10
2.37155408665959
20
-0.22800827221144
30
0
41
1
10
2.34658552327636
20
-0.186070553281894
30
0
41
1
10
2.31849187783877
20
-0.130950786504087
30
0
41
1
10
2.31303052215995
20
-0.119789309315109
30
0
41
1
10
2.30253094321995
20
-0.097399245942853
30
0
41
1
10
2.28737624201924
20
-0.0636362189943611
30
0
41
1
10
2.27400998792587
20
-0.0293387336829767
30
0
41
1
10
2.24970814902048
20
0.0399810145815991
30
0
41
1
10
2.23673000070852
20
0.0871551818625278
30
0
41
1
10
2.22491474664872
20
0.147432719704597
30
0
41
1
10
2.22277346711414
20
0.159554140586778
30
0
41
1
10
2.21895021664832
20
0.183933420394709
30
0
41
1
10
2.21726956344995
20
0.196196865590934
30
0
41
1
10
2.21298965686242
20
0.232717970373926
30
0
41
1
10
2.21112406958267
20
0.256864784989887
30
0
41
1
10
2.20842659912347
20
0.328711921169543
30
0
41
1
10
2.2104761327497
20
0.375821059697188
30
0
41
1
10
2.21939644085251
20
0.445295957785362
30
0
41
1
10
2.22337042263234
20
0.468324934431735
30
0
41
1
10
2.23316340490814
20
0.513268223320438
30
0
41
1
10
2.23898604822355
20
0.535259511804156
30
0
41
1
10
2.24571437812818
20
0.556788166503821
30
0
0
SPLINE
5
CD
100
AcDbEntity
8
1
62
256
6
ByLayer
370
18
48
1
60
0
100
AcDbSpline
70
4
71
3
72
18
73
14
40
0
40
0
40
0
40
0
40
0.249999999999989
40
0.249999999999989
40
0.499999999999978
40
0.499999999999978
40
0.624999999999972
40
0.624999999999972
40
0.687499999999973
40
0.687499999999973
40
0.749999999999974
40
0.749999999999974
40
1
40
1
40
1
40
1
41
1
10
2.24571437812818
20
0.556788166503821
30
0
41
1
10
2.35718938486377
20
0.581334895108171
30
0
41
1
10
2.4692197708948
20
0.598677310416434
30
0
41
1
10
2.6943549366745
20
0.620407000808626
30
0
41
1
10
2.80745983261022
20
0.624790335889912
30
0
41
1
10
2.97793279085144
20
0.621719460713223
30
0
41
1
10
3.03489341695334
20
0.619078073529863
30
0
41
1
10
3.12054353844437
20
0.61260359645209
30
0
41
1
10
3.14911457150362
20
0.610025560350124
30
0
41
1
10
3.20599650167892
20
0.604050160734829
30
0
41
1
10
3.23434811736189
20
0.600650004922699
30
0
41
1
10
3.37566274294008
20
0.58157207155503
30
0
41
1
10
3.48730034182705
20
0.559713734132089
30
0
41
1
10
3.59752600003591
20
0.530664420686492
30
0
0
LINE
5
7F
100
AcDbEntity
8
1
62
256
6
ByLayer
370
18
48
1
60
0
100
AcDbLine
10
0
20
1.5
30
0
11
0
21
0
31
0
39
0
210
0
220
0
230
1
0
LINE
5
80
100
AcDbEntity
8
1
62
256
6
ByLayer
370
18
48
1
60
0
100
AcDbLine
10
0
20
0
30
0
11
0
21
-1.5
31
0
39
0
210
0
220
0
230
1
0
LINE
5
81
100
AcDbEntity
8
1
62
256
6
ByLayer
370
18
48
1
60
0
100
AcDbLine
10
14.129047
20
0.634293
30
0
11
14.129047
21
-1.199157
31
0
39
0
210
0
220
0
230
1
0
LINE
5
82
100
AcDbEntity
8
1
62
256
6
ByLayer
370
18
48
1
60
0
100
AcDbLine
10
3.597526
20
-0.066067
30
0
11
3.597526
21
-0.950071
31
0
39
0
210
0
220
0
230
1
0
LINE
5
83
100
AcDbEntity
8
1
62
256
6
ByLayer
370
13
48
1
60
0
100
AcDbLine
10
0.709644
20
1.245
30
0
11
0.709644
21
-1.245
31
0
39
0
210
0
220
0
230
1
0
LINE
5
84
100
AcDbEntity
8
1
62
256
6
ByLayer
370
18
48
1
60
0
100
AcDbLine
10
2.2E-05
20
1.5
30
0
11
2.2E-05
21
-1.5
31
0
39
0
210
0
220
0
230
1
0
LINE
5
85
100
AcDbEntity
8
1
62
256
6
ByLayer
370
13
48
1
60
0
100
AcDbLine
10
0.209644
20
1.378975
30
0
11
0.209644
21
-1.378975
31
0
39
0
210
0
220
0
230
1
0
LINE
5
86
100
AcDbEntity
8
1
62
256
6
ByLayer
370
18
48
1
60
0
100
AcDbLine
10
3.597526
20
0.530664
30
0
11
3.597526
21
-0.066067
31
0
39
0
210
0
220
0
230
1
0
LINE
5
87
100
AcDbEntity
8
SK1
62
256
6
ByLayer
370
18
48
1
60
0
100
AcDbLine
10
-23.2904
20
1.326795
30
0
11
-23.2904
21
-1.326795
31
0
39
0
210
0
220
0
230
1
0
LINE
5
89
100
AcDbEntity
8
SK1
62
256
6
ByLayer
370
18
48
1
60
0
100
AcDbLine
10
0
20
1.5
30
0
11
0
21
0
31
0
39
0
210
0
220
0
230
1
0
LINE
5
8A
100
AcDbEntity
8
SK1
62
256
6
ByLayer
370
18
48
1
60
0
100
AcDbLine
10
0
20
0
30
0
11
0
21
-1.5
31
0
39
0
210
0
220
0
230
1
0
LINE
5
8B
100
AcDbEntity
8
SK1
62
256
6
ByLayer
370
18
48
1
60
0
100
AcDbLine
10
-22.9904
20
1.5
30
0
11
-22.9904
21
-1.5
31
0
39
0
210
0
220
0
230
1
0
LINE
5
8C
100
AcDbEntity
8
1
62
256
6
ByLayer
370
18
48
1
60
0
100
AcDbLine
10
0
20
-1.5
30
0
11
2.2E-05
21
-1.5
31
0
39
0
210
0
220
0
230
1
0
LINE
5
8D
100
AcDbEntity
8
1
62
256
6
ByLayer
370
18
48
1
60
0
100
AcDbLine
10
2.2E-05
20
1.5
30
0
11
0
21
1.5
31
0
39
0
210
0
220
0
230
1
0
LINE
5
8E
100
AcDbEntity
8
1
62
256
6
ByLayer
370
18
48
1
60
0
100
AcDbLine
10
0.709644
20
-1.245
30
0
11
5.11254
21
-1.245
31
0
39
0
210
0
220
0
230
1
0
LINE
5
8F
100
AcDbEntity
8
1
62
256
6
ByLayer
370
18
48
1
60
0
100
AcDbLine
10
7.934601
20
-1.245
30
0
11
11.888126
21
-1.245
31
0
39
0
210
0
220
0
230
1
0
LINE
5
90
100
AcDbEntity
8
1
62
256
6
ByLayer
370
18
48
1
60
0
100
AcDbLine
10
11.888126
20
1.245
30
0
11
7.934601
21
1.245
31
0
39
0
210
0
220
0
230
1
0
LINE
5
91
100
AcDbEntity
8
1
62
256
6
ByLayer
370
18
48
1
60
0
100
AcDbLine
10
5.11254
20
1.245
30
0
11
0.709644
21
1.245
31
0
39
0
210
0
220
0
230
1
0
LINE
5
92
100
AcDbEntity
8
1
62
256
6
ByLayer
370
18
48
1
60
0
100
AcDbLine
10
14.7096
20
0
30
0
11
14.48146
21
0.489248
31
0
39
0
210
0
220
0
230
1
0
LINE
5
93
100
AcDbEntity
8
1
62
256
6
ByLayer
370
18
48
1
60
0
100
AcDbLine
10
14.48146
20
-0.489248
30
0
11
14.7096
21
0
31
0
39
0
210
0
220
0
230
1
0
LINE
5
94
100
AcDbEntity
8
1
62
256
6
ByLayer
370
18
48
1
60
0
100
AcDbLine
10
0.209644
20
1.378975
30
0
11
2.2E-05
21
1.5
31
0
39
0
210
0
220
0
230
1
0
LINE
5
95
100
AcDbEntity
8
1
62
256
6
ByLayer
370
18
48
1
60
0
100
AcDbLine
10
2.2E-05
20
-1.5
30
0
11
0.209644
21
-1.378975
31
0
39
0
210
0
220
0
230
1
0
LINE
5
96
100
AcDbEntity
8
SK1
62
256
6
ByLayer
370
18
48
1
60
0
100
AcDbLine
10
-23.2904
20
-1.326795
30
0
11
-22.9904
21
-1.5
31
0
39
0
210
0
220
0
230
1
0
LINE
5
97
100
AcDbEntity
8
SK1
62
256
6
ByLayer
370
18
48
1
60
0
100
AcDbLine
10
-22.9904
20
1.5
30
0
11
-23.2904
21
1.326795
31
0
39
0
210
0
220
0
230
1
0
LINE
5
98
100
AcDbEntity
8
SK1
62
256
6
ByLayer
370
18
48
1
60
0
100
AcDbLine
10
-22.9904
20
-1.5
30
0
11
0
21
-1.5
31
0
39
0
210
0
220
0
230
1
0
LINE
5
99
100
AcDbEntity
8
SK1
62
256
6
ByLayer
370
18
48
1
60
0
100
AcDbLine
10
0
20
1.5
30
0
11
-22.9904
21
1.5
31
0
39
0
210
0
220
0
230
1
0
LINE
5
9A
100
AcDbEntity
8
4
62
256
6
ByLayer
370
18
48
0.05
60
0
100
AcDbLine
10
0
20
0
30
0
11
14.7096
21
0
31
0
39
0
210
0
220
0
230
1
0
LINE
5
9C
100
AcDbEntity
8
81
62
256
6
ByLayer
370
18
48
1
60
0
100
AcDbLine
10
14.7096
20
0
30
0
11
17.7096
21
0
31
0
39
0
210
0
220
0
230
1
0
LINE
5
9D
100
AcDbEntity
8
80
62
256
6
ByLayer
370
18
48
1
60
0
100
AcDbLine
10
0
20
0
30
0
11
-3
21
0
31
0
39
0
210
0
220
0
230
1
0
LINE
5
9E
100
AcDbEntity
8
SK4
62
256
6
ByLayer
370
18
48
0.05
60
0
100
AcDbLine
10
-26.2904
20
0
30
0
11
17.7096
21
0
31
0
39
0
210
0
220
0
230
1
0
LINE
5
A0
100
AcDbEntity
8
SK2
62
256
6
ByLayer
370
13
48
1
60
0
100
AcDbLine
10
-27.7904
20
-9
30
0
11
-27.7904
21
21.782741
31
0
39
0
210
0
220
0
230
1
0
LINE
5
A2
100
AcDbEntity
8
SK2
62
256
6
ByLayer
370
13
48
1
60
0
100
AcDbLine
10
-24.8779
20
-1.5
30
0
11
-29.7904
21
-1.5
31
0
39
0
210
0
220
0
230
1
0
LINE
5
A3
100
AcDbEntity
8
SK2
62
256
6
ByLayer
370
13
48
1
60
0
100
AcDbLine
10
-24.8779
20
1.5
30
0
11
-29.7904
21
1.5
31
0
39
0
210
0
220
0
230
1
0
LINE
5
A4
100
AcDbEntity
8
1
62
256
6
ByLayer
370
18
48
1
60
1
100
AcDbLine
10
-27.7904
20
-1.5
30
0
11
-27.329616
21
-4.999998
31
0
39
0
210
0
220
0
230
1
0
LINE
5
A5
100
AcDbEntity
8
1
62
256
6
ByLayer
370
18
48
1
60
1
100
AcDbLine
10
-27.329616
20
-4.999998
30
0
11
-28.251184
21
-5.000002
31
0
39
0
210
0
220
0
230
1
0
LINE
5
A6
100
AcDbEntity
8
1
62
256
6
ByLayer
370
18
48
1
60
1
100
AcDbLine
10
-28.251184
20
-5.000002
30
0
11
-27.7904
21
-1.5
31
0
39
0
210
0
220
0
230
1
0
LINE
5
A7
100
AcDbEntity
8
1
62
256
6
ByLayer
370
18
48
1
60
1
100
AcDbLine
10
-27.7904
20
1.5
30
0
11
-28.251184
21
4.999998
31
0
39
0
210
0
220
0
230
1
0
LINE
5
A8
100
AcDbEntity
8
1
62
256
6
ByLayer
370
18
48
1
60
1
100
AcDbLine
10
-28.251184
20
4.999998
30
0
11
-27.329616
21
5.000002
31
0
39
0
210
0
220
0
230
1
0
LINE
5
A9
100
AcDbEntity
8
1
62
256
6
ByLayer
370
18
48
1
60
1
100
AcDbLine
10
-27.329616
20
5.000002
30
0
11
-27.7904
21
1.5
31
0
39
0
210
0
220
0
230
1
0
LINE
5
AA
100
AcDbEntity
8
2
62
256
6
ByLayer
370
13
48
1
60
0
100
AcDbLine
10
20.2096
20
-8.745
30
0
11
20.2096
21
29.853627
31
0
39
0
210
0
220
0
230
1
0
LINE
5
AC
100
AcDbEntity
8
2
62
256
6
ByLayer
370
13
48
1
60
0
100
AcDbLine
10
16.2971
20
-1.245
30
0
11
22.2096
21
-1.245
31
0
39
0
210
0
220
0
230
1
0
LINE
5
AD
100
AcDbEntity
8
2
62
256
6
ByLayer
370
13
48
1
60
0
100
AcDbLine
10
16.2971
20
1.245
30
0
11
22.2096
21
1.245
31
0
39
0
210
0
220
0
230
1
0
LINE
5
AE
100
AcDbEntity
8
1
62
256
6
ByLayer
370
18
48
1
60
1
100
AcDbLine
10
20.2096
20
-1.245
30
0
11
20.670384
21
-4.744998
31
0
39
0
210
0
220
0
230
1
0
LINE
5
AF
100
AcDbEntity
8
1
62
256
6
ByLayer
370
18
48
1
60
1
100
AcDbLine
10
20.670384
20
-4.744998
30
0
11
19.748816
21
-4.745002
31
0
39
0
210
0
220
0
230
1
0
LINE
5
B0
100
AcDbEntity
8
1
62
256
6
ByLayer
370
18
48
1
60
1
100
AcDbLine
10
19.748816
20
-4.745002
30
0
11
20.2096
21
-1.245
31
0
39
0
210
0
220
0
230
1
0
LINE
5
B1
100
AcDbEntity
8
1
62
256
6
ByLayer
370
18
48
1
60
1
100
AcDbLine
10
20.2096
20
1.245
30
0
11
19.748816
21
4.744998
31
0
39
0
210
0
220
0
230
1
0
LINE
5
B2
100
AcDbEntity
8
1
62
256
6
ByLayer
370
18
48
1
60
1
100
AcDbLine
10
19.748816
20
4.744998
30
0
11
20.670384
21
4.745002
31
0
39
0
210
0
220
0
230
1
0
LINE
5
B3
100
AcDbEntity
8
1
62
256
6
ByLayer
370
18
48
1
60
1
100
AcDbLine
10
20.670384
20
4.745002
30
0
11
20.2096
21
1.245
31
0
39
0
210
0
220
0
230
1
0
LINE
5
B4
100
AcDbEntity
8
SK2
62
256
6
ByLayer
370
13
48
1
60
0
100
AcDbLine
10
15.380506
20
-1.438764
30
0
11
22.464645
21
-16.630748
31
0
39
0
210
0
220
0
230
1
0
LINE
5
B5
100
AcDbEntity
8
SK2
62
256
6
ByLayer
370
13
48
1
60
0
100
AcDbLine
10
15.380506
20
1.438764
30
0
11
22.464645
21
16.630748
31
0
39
0
210
0
220
0
230
1
0
LINE
5
B6
100
AcDbEntity
8
1
62
256
6
ByLayer
370
18
48
1
60
1
100
AcDbLine
10
21.619409
20
-14.818132
30
0
11
24.491442
21
-12.765394
31
0
39
0
210
0
220
0
230
1
0
LINE
5
B7
100
AcDbEntity
8
1
62
256
6
ByLayer
370
18
48
1
60
1
100
AcDbLine
10
24.491442
20
-12.765394
30
0
11
24.924871
21
-13.578675
31
0
39
0
210
0
220
0
230
1
0
LINE
5
B8
100
AcDbEntity
8
1
62
256
6
ByLayer
370
18
48
1
60
1
100
AcDbLine
10
24.924871
20
-13.578675
30
0
11
21.619409
21
-14.818132
31
0
39
0
210
0
220
0
230
1
0
LINE
5
B9
100
AcDbEntity
8
1
62
256
6
ByLayer
370
18
48
1
60
1
100
AcDbLine
10
21.619409
20
14.818132
30
0
11
24.924868
21
13.578677
31
0
39
0
210
0
220
0
230
1
0
LINE
5
BA
100
AcDbEntity
8
1
62
256
6
ByLayer
370
18
48
1
60
1
100
AcDbLine
10
24.924868
20
13.578677
30
0
11
24.491445
21
12.765392
31
0
39
0
210
0
220
0
230
1
0
LINE
5
BB
100
AcDbEntity
8
1
62
256
6
ByLayer
370
18
48
1
60
1
100
AcDbLine
10
24.491445
20
12.765392
30
0
11
21.619409
21
14.818132
31
0
39
0
210
0
220
0
230
1
0
LINE
5
D2
100
AcDbEntity
8
1
62
256
6
ByLayer
370
18
48
1
60
1
100
AcDbLine
10
-27.7904
20
-1.5
30
0
11
-27.329616
21
-4.999998
31
0
39
0
210
0
220
0
230
1
0
LINE
5
D3
100
AcDbEntity
8
1
62
256
6
ByLayer
370
18
48
1
60
1
100
AcDbLine
10
-27.329616
20
-4.999998
30
0
11
-28.251184
21
-5.000002
31
0
39
0
210
0
220
0
230
1
0
LINE
5
D4
100
AcDbEntity
8
1
62
256
6
ByLayer
370
18
48
1
60
1
100
AcDbLine
10
-28.251184
20
-5.000002
30
0
11
-27.7904
21
-1.5
31
0
39
0
210
0
220
0
230
1
0
LINE
5
D6
100
AcDbEntity
8
1
62
256
6
ByLayer
370
18
48
1
60
1
100
AcDbLine
10
-27.7904
20
1.5
30
0
11
-28.251184
21
4.999998
31
0
39
0
210
0
220
0
230
1
0
LINE
5
D7
100
AcDbEntity
8
1
62
256
6
ByLayer
370
18
48
1
60
1
100
AcDbLine
10
-28.251184
20
4.999998
30
0
11
-27.329616
21
5.000002
31
0
39
0
210
0
220
0
230
1
0
LINE
5
D8
100
AcDbEntity
8
1
62
256
6
ByLayer
370
18
48
1
60
1
100
AcDbLine
10
-27.329616
20
5.000002
30
0
11
-27.7904
21
1.5
31
0
39
0
210
0
220
0
230
1
0
LINE
5
DC
100
AcDbEntity
8
1
62
256
6
ByLayer
370
18
48
1
60
1
100
AcDbLine
10
20.2096
20
-1.245
30
0
11
20.670384
21
-4.744998
31
0
39
0
210
0
220
0
230
1
0
LINE
5
DD
100
AcDbEntity
8
1
62
256
6
ByLayer
370
18
48
1
60
1
100
AcDbLine
10
20.670384
20
-4.744998
30
0
11
19.748816
21
-4.745002
31
0
39
0
210
0
220
0
230
1
0
LINE
5
DE
100
AcDbEntity
8
1
62
256
6
ByLayer
370
18
48
1
60
1
100
AcDbLine
10
19.748816
20
-4.745002
30
0
11
20.2096
21
-1.245
31
0
39
0
210
0
220
0
230
1
0
LINE
5
E0
100
AcDbEntity
8
1
62
256
6
ByLayer
370
18
48
1
60
1
100
AcDbLine
10
20.2096
20
1.245
30
0
11
19.748816
21
4.744998
31
0
39
0
210
0
220
0
230
1
0
LINE
5
E1
100
AcDbEntity
8
1
62
256
6
ByLayer
370
18
48
1
60
1
100
AcDbLine
10
19.748816
20
4.744998
30
0
11
20.670384
21
4.745002
31
0
39
0
210
0
220
0
230
1
0
LINE
5
E2
100
AcDbEntity
8
1
62
256
6
ByLayer
370
18
48
1
60
1
100
AcDbLine
10
20.670384
20
4.745002
30
0
11
20.2096
21
1.245
31
0
39
0
210
0
220
0
230
1
0
LINE
5
E5
100
AcDbEntity
8
1
62
256
6
ByLayer
370
18
48
1
60
1
100
AcDbLine
10
21.619409
20
-14.818132
30
0
11
24.491442
21
-12.765394
31
0
39
0
210
0
220
0
230
1
0
LINE
5
E6
100
AcDbEntity
8
1
62
256
6
ByLayer
370
18
48
1
60
1
100
AcDbLine
10
24.491442
20
-12.765394
30
0
11
24.924871
21
-13.578675
31
0
39
0
210
0
220
0
230
1
0
LINE
5
E7
100
AcDbEntity
8
1
62
256
6
ByLayer
370
18
48
1
60
1
100
AcDbLine
10
24.924871
20
-13.578675
30
0
11
21.619409
21
-14.818132
31
0
39
0
210
0
220
0
230
1
0
LINE
5
E9
100
AcDbEntity
8
1
62
256
6
ByLayer
370
18
48
1
60
1
100
AcDbLine
10
21.619409
20
14.818132
30
0
11
24.924868
21
13.578677
31
0
39
0
210
0
220
0
230
1
0
LINE
5
EA
100
AcDbEntity
8
1
62
256
6
ByLayer
370
18
48
1
60
1
100
AcDbLine
10
24.924868
20
13.578677
30
0
11
24.491445
21
12.765392
31
0
39
0
210
0
220
0
230
1
0
LINE
5
EB
100
AcDbEntity
8
1
62
256
6
ByLayer
370
18
48
1
60
1
100
AcDbLine
10
24.491445
20
12.765392
30
0
11
21.619409
21
14.818132
31
0
39
0
210
0
220
0
230
1
0
MTEXT
5
CE
100
AcDbEntity
8
SK2
62
256
6
ByLayer
370
18
48
1
60
0
100
AcDbMText
10
-29.131514
20
6.658437
30
0
210
0
220
0
230
1
1
%%c
40
3
41
0
44
1.084337
50
90
71
7
72
5
7
iso_b_vert
0
MTEXT
5
D1
100
AcDbEntity
8
SK2
62
256
6
ByLayer
370
18
48
1
60
0
100
AcDbMText
10
-29.131514
20
12.635
30
0
210
0
220
0
230
1
1
\W0.7468;3.000
40
3
41
0
44
1.084337
50
90
71
7
72
5
7
iso_b_vert
0
MTEXT
5
DA
100
AcDbEntity
8
2
62
256
6
ByLayer
370
18
48
1
60
0
100
AcDbMText
10
18.868486
20
14.413437
30
0
210
0
220
0
230
1
1
%%c
40
3
41
0
44
1.084337
50
90
71
7
72
5
7
iso_b_vert
0
MTEXT
5
DB
100
AcDbEntity
8
2
62
256
6
ByLayer
370
18
48
1
60
0
100
AcDbMText
10
18.868486
20
20.39
30
0
210
0
220
0
230
1
1
\W0.7694;2.490
40
3
41
0
44
1.084337
50
90
71
7
72
5
7
iso_b_vert
0
MTEXT
5
E4
100
AcDbEntity
8
SK2
62
256
6
ByLayer
370
18
48
1
60
0
100
AcDbMText
10
27.776886
20
-2.114886
30
0
210
0
220
0
230
1
1
\W0.6747;130%%d
40
3
41
0
44
1.084337
50
0
71
7
72
5
7
iso_b_vert
0
MTEXT
5
ED
100
AcDbEntity
8
SK6
62
256
6
ByLayer
370
18
48
1
60
0
100
AcDbMText
10
-32.452253
20
-48.114886
30
0
210
0
220
0
230
1
1
\W0.7801;462.1-0249-008A0-XM X0BU
40
3
41
0
44
1.084337
50
0
71
7
72
5
7
iso_b_vert
0
HATCH
5
D5
100
AcDbEntity
8
SK2
62
256
6
ByLayer
370
13
48
1
60
0
100
AcDbHatch
10
0
20
0
30
0
210
0
220
0
230
1
2
ANSI31
70
0
71
0
91
1
92
5
93
3
72
1
10
-27.7904
20
-1.5
11
-27.3296162584472
21
-4.99999830744682
72
1
10
-27.3296162584472
20
-4.99999830744682
11
-28.2511837415528
21
-5.00000169255318
72
1
10
-28.2511837415528
20
-5.00000169255318
11
-27.7904
21
-1.5
97
0
75
0
76
1
52
0
41
0.0062
77
0
78
1
53
45
43
0
44
0
45
-0.0139193969876572
46
0.0139193969876572
79
0
47
0
98
1
10
0
20
0
0
HATCH
5
D9
100
AcDbEntity
8
SK2
62
256
6
ByLayer
370
13
48
1
60
0
100
AcDbHatch
10
0
20
0
30
0
210
0
220
0
230
1
2
ANSI31
70
0
71
0
91
1
92
5
93
3
72
1
10
-27.7904
20
1.5
11
-28.2511837415528
21
4.99999830744682
72
1
10
-28.2511837415528
20
4.99999830744682
11
-27.3296162584472
21
5.00000169255318
72
1
10
-27.3296162584472
20
5.00000169255318
11
-27.7904
21
1.5
97
0
75
0
76
1
52
0
41
0.0062
77
0
78
1
53
45
43
0
44
0
45
-0.0139193969876572
46
0.0139193969876572
79
0
47
0
98
1
10
0
20
0
0
HATCH
5
DF
100
AcDbEntity
8
2
62
256
6
ByLayer
370
13
48
1
60
0
100
AcDbHatch
10
0
20
0
30
0
210
0
220
0
230
1
2
ANSI31
70
0
71
0
91
1
92
5
93
3
72
1
10
20.2096
20
-1.245
11
20.6703837415528
21
-4.74499830744682
72
1
10
20.6703837415528
20
-4.74499830744682
11
19.7488162584472
21
-4.74500169255319
72
1
10
19.7488162584472
20
-4.74500169255319
11
20.2096
21
-1.245
97
0
75
0
76
1
52
0
41
0.0062
77
0
78
1
53
45
43
0
44
0
45
-0.0139193969876572
46
0.0139193969876572
79
0
47
0
98
1
10
0
20
0
0
HATCH
5
E3
100
AcDbEntity
8
2
62
256
6
ByLayer
370
13
48
1
60
0
100
AcDbHatch
10
0
20
0
30
0
210
0
220
0
230
1
2
ANSI31
70
0
71
0
91
1
92
5
93
3
72
1
10
20.2096
20
1.245
11
19.7488162584472
21
4.74499830744682
72
1
10
19.7488162584472
20
4.74499830744682
11
20.6703837415528
21
4.74500169255319
72
1
10
20.6703837415528
20
4.74500169255319
11
20.2096
21
1.245
97
0
75
0
76
1
52
0
41
0.0062
77
0
78
1
53
45
43
0
44
0
45
-0.0139193969876572
46
0.0139193969876572
79
0
47
0
98
1
10
0
20
0
0
HATCH
5
E8
100
AcDbEntity
8
SK2
62
256
6
ByLayer
370
13
48
1
60
0
100
AcDbHatch
10
0
20
0
30
0
210
0
220
0
230
1
2
ANSI31
70
0
71
0
91
1
92
5
93
3
72
1
10
21.6194085794604
20
-14.8181323180492
11
24.4914418553693
21
-12.765393983365
72
1
10
24.4914418553693
20
-12.765393983365
11
24.9248706127348
21
-13.5786750775861
72
1
10
24.9248706127348
20
-13.5786750775861
11
21.6194085794604
21
-14.8181323180492
97
0
75
0
76
1
52
0
41
0.0062
77
0
78
1
53
45
43
0
44
0
45
-0.0139193969876572
46
0.0139193969876572
79
0
47
0
98
1
10
0
20
0
0
HATCH
5
EC
100
AcDbEntity
8
SK2
62
256
6
ByLayer
370
13
48
1
60
0
100
AcDbHatch
10
0
20
0
30
0
210
0
220
0
230
1
2
ANSI31
70
0
71
0
91
1
92
5
93
3
72
1
10
21.6194085794604
20
14.8181323180492
11
24.9248676253807
21
13.5786766696479
72
1
10
24.9248676253807
20
13.5786766696479
11
24.4914448427234
21
12.7653923913032
72
1
10
24.4914448427234
20
12.7653923913032
11
21.6194085794604
21
14.8181323180492
97
0
75
0
76
1
52
0
41
0.0062
77
0
78
1
53
45
43
0
44
0
45
-0.0139193969876572
46
0.0139193969876572
79
0
47
0
98
1
10
0
20
0
0
DIMENSION
5
F0
100
AcDbEntity
8
SK2
62
256
6
ByLayer
370
18
48
1
60
0
100
AcDbDimension
2
_U0
10
14.7096
20
-38.85
30
0
11
-4.2904
21
-38.85
31
0
70
32
71
1
72
1
41
1
210
0
220
0
230
1
3
Standard
100
AcDbAlignedDimension
13
-23.2904
23
1.5
33
0
14
14.7096
24
1.245
34
0
50
0
100
AcDbRotatedDimension
1001
ACAD
1000
DSTYLE
1002
{
1070
   371
1070
    13
1070
   372
1070
    13
1070
     3
1000

1070
   170
1070
     0
1070
   144
1040
1.0
1070
   277
1070
     2
1070
   284
1070
     8
1070
   278
1070
    46
1070
   146
1040
1.166667
1070
   345
1005
16
1070
   347
1005
16
1070
   346
1005
16
1070
   344
1005
0
1070
   343
1005
0
1070
   172
1070
     1
1070
    76
1070
     0
1070
    75
1070
     0
1070
   282
1070
     0
1070
   281
1070
     0
1070
    71
1070
     0
1070
    74
1070
     0
1070
   279
1070
     0
1070
   173
1070
     1
1070
   340
1005
CF
1070
   271
1070
     2
1070
   272
1070
     2
1070
    77
1070
     1
1070
    73
1070
     1
1070
   171
1070
     3
1070
   274
1070
     4
1070
   177
1070
     2
1070
   176
1070
     2
1070
   178
1070
     2
1070
    78
1070
     8
1070
    48
1040
-0.1
1070
    41
1040
3.5
1070
   147
1040
1.5
1070
    42
1040
1.5875
1070
    44
1040
2.0
1070
   140
1040
3.0
1002
}
1001
ACAD_DSTYLE_DIM_LINETYPE
1070
   380
1005
16
1001
ACAD_DSTYLE_DIM_EXT1_LINETYPE
1070
   381
1005
16
1001
ACAD_DSTYLE_DIM_EXT2_LINETYPE
1070
   382
1005
16
0
DIMENSION
5
109
100
AcDbEntity
8
SK2
62
256
6
ByLayer
370
18
48
1
60
0
100
AcDbDimension
2
_U1
10
5.9446
20
-22.745
30
0
11
30.781029
21
-22.745
31
0
70
32
71
1
72
1
41
1
210
0
220
0
230
1
3
Standard
100
AcDbAlignedDimension
13
14.7096
23
1.245
33
0
14
5.9446
24
0
34
0
50
0
100
AcDbRotatedDimension
1001
ACAD
1000
DSTYLE
1002
{
1070
   371
1070
    13
1070
   372
1070
    13
1070
     3
1000

1070
   170
1070
     0
1070
   144
1040
1.0
1070
   277
1070
     2
1070
   284
1070
     8
1070
   278
1070
    46
1070
   146
1040
1.166667
1070
   345
1005
16
1070
   347
1005
16
1070
   346
1005
16
1070
   344
1005
0
1070
   343
1005
0
1070
   172
1070
     1
1070
    76
1070
     0
1070
    75
1070
     0
1070
   282
1070
     0
1070
   281
1070
     0
1070
    71
1070
     0
1070
    74
1070
     0
1070
   279
1070
     0
1070
   173
1070
     1
1070
   340
1005
CF
1070
   271
1070
     2
1070
   272
1070
     2
1070
    77
1070
     1
1070
    73
1070
     1
1070
   171
1070
     3
1070
   274
1070
     4
1070
   177
1070
     2
1070
   176
1070
     2
1070
   178
1070
     2
1070
    78
1070
     8
1070
    48
1040
-0.1
1070
    41
1040
3.5
1070
   147
1040
1.5
1070
    42
1040
1.5875
1070
    44
1040
2.0
1070
   140
1040
3.0
1002
}
1001
ACAD_DSTYLE_DIM_LINETYPE
1070
   380
1005
16
1001
ACAD_DSTYLE_DIM_EXT1_LINETYPE
1070
   381
1005
16
1001
ACAD_DSTYLE_DIM_EXT2_LINETYPE
1070
   382
1005
16
0
DIMENSION
5
123
100
AcDbEntity
8
SK2
62
256
6
ByLayer
370
18
48
1
60
0
100
AcDbDimension
2
_U2
10
2.2096
20
-30.35
30
0
11
8.4596
21
-30.35
31
0
70
32
71
1
72
1
41
1
210
0
220
0
230
1
3
Standard
100
AcDbAlignedDimension
13
14.7096
23
1.245
33
0
14
2.2096
24
0
34
0
50
0
100
AcDbRotatedDimension
1001
ACAD
1000
DSTYLE
1002
{
1070
   371
1070
    13
1070
   372
1070
    13
1070
     3
1000

1070
   170
1070
     0
1070
   144
1040
1.0
1070
   277
1070
     2
1070
   284
1070
     8
1070
   278
1070
    46
1070
   146
1040
1.166667
1070
   345
1005
16
1070
   347
1005
16
1070
   346
1005
16
1070
   344
1005
0
1070
   343
1005
0
1070
   172
1070
     1
1070
    76
1070
     0
1070
    75
1070
     0
1070
   282
1070
     0
1070
   281
1070
     0
1070
    71
1070
     0
1070
    74
1070
     0
1070
   279
1070
     0
1070
   173
1070
     1
1070
   340
1005
CF
1070
   271
1070
     2
1070
   272
1070
     2
1070
    77
1070
     1
1070
    73
1070
     1
1070
   171
1070
     3
1070
   274
1070
     4
1070
   177
1070
     2
1070
   176
1070
     2
1070
   178
1070
     2
1070
    78
1070
     8
1070
    48
1040
-0.1
1070
    41
1040
3.5
1070
   147
1040
1.5
1070
    42
1040
1.5875
1070
    44
1040
2.0
1070
   140
1040
3.0
1002
}
1001
ACAD_DSTYLE_DIM_LINETYPE
1070
   380
1005
16
1001
ACAD_DSTYLE_DIM_EXT1_LINETYPE
1070
   381
1005
16
1001
ACAD_DSTYLE_DIM_EXT2_LINETYPE
1070
   382
1005
16
0
DIMENSION
5
13C
100
AcDbEntity
8
SK2
62
256
6
ByLayer
370
18
48
1
60
0
100
AcDbDimension
2
_U3
10
0
20
11.35
30
0
11
-11.6452
21
11.35
31
0
70
32
71
1
72
1
41
1
210
0
220
0
230
1
3
Standard
100
AcDbAlignedDimension
13
-23.2904
23
0
33
0
14
0
24
0
34
0
50
0
100
AcDbRotatedDimension
1001
ACAD
1000
DSTYLE
1002
{
1070
   371
1070
    13
1070
   372
1070
    13
1070
     3
1000

1070
   170
1070
     0
1070
   144
1040
1.0
1070
   277
1070
     2
1070
   284
1070
     8
1070
   278
1070
    46
1070
   146
1040
1.166667
1070
   345
1005
16
1070
   347
1005
16
1070
   346
1005
16
1070
   344
1005
0
1070
   343
1005
0
1070
   172
1070
     1
1070
    76
1070
     0
1070
    75
1070
     0
1070
   282
1070
     0
1070
   281
1070
     0
1070
    71
1070
     0
1070
    74
1070
     0
1070
   279
1070
     0
1070
   173
1070
     1
1070
   340
1005
CF
1070
   271
1070
     2
1070
   272
1070
     2
1070
    77
1070
     1
1070
    73
1070
     1
1070
   171
1070
     3
1070
   274
1070
     4
1070
   177
1070
     2
1070
   176
1070
     2
1070
   178
1070
     2
1070
    78
1070
     8
1070
    48
1040
-0.1
1070
    41
1040
3.5
1070
   147
1040
1.5
1070
    42
1040
1.5875
1070
    44
1040
2.0
1070
   140
1040
3.0
1002
}
1001
ACAD_DSTYLE_DIM_LINETYPE
1070
   380
1005
16
1001
ACAD_DSTYLE_DIM_EXT1_LINETYPE
1070
   381
1005
16
1001
ACAD_DSTYLE_DIM_EXT2_LINETYPE
1070
   382
1005
16
0
DIMENSION
5
154
100
AcDbEntity
8
2
62
256
6
ByLayer
370
18
48
1
60
0
100
AcDbDimension
2
_U4
10
0
20
11.35
30
0
11
7.3548
21
11.35
31
0
70
32
71
1
72
1
41
1
210
0
220
0
230
1
3
Standard
100
AcDbAlignedDimension
13
14.7096
23
1.245
33
0
14
0
24
0
34
0
50
0
100
AcDbRotatedDimension
1001
ACAD
1000
DSTYLE
1002
{
1070
   371
1070
    13
1070
   372
1070
    13
1070
     3
1000

1070
   170
1070
     0
1070
   144
1040
1.0
1070
   277
1070
     2
1070
   284
1070
     8
1070
   278
1070
    46
1070
   146
1040
1.166667
1070
   345
1005
16
1070
   347
1005
16
1070
   346
1005
16
1070
   344
1005
0
1070
   343
1005
0
1070
   172
1070
     1
1070
    76
1070
     0
1070
    75
1070
     0
1070
   282
1070
     0
1070
   281
1070
     0
1070
    71
1070
     0
1070
    74
1070
     0
1070
   279
1070
     0
1070
   173
1070
     1
1070
   340
1005
CF
1070
   271
1070
     2
1070
   272
1070
     2
1070
    77
1070
     1
1070
    73
1070
     1
1070
   171
1070
     3
1070
   274
1070
     4
1070
   177
1070
     2
1070
   176
1070
     2
1070
   178
1070
     2
1070
    78
1070
     8
1070
    48
1040
-0.1
1070
    41
1040
3.5
1070
   147
1040
1.5
1070
    42
1040
1.5875
1070
    44
1040
2.0
1070
   140
1040
3.0
1002
}
1001
ACAD_DSTYLE_DIM_LINETYPE
1070
   380
1005
16
1001
ACAD_DSTYLE_DIM_EXT1_LINETYPE
1070
   381
1005
16
1001
ACAD_DSTYLE_DIM_EXT2_LINETYPE
1070
   382
1005
16
0
ENDSEC
0
SECTION
2
OBJECTS
0
DICTIONARY
5
1dd
330
0
100
AcDbDictionary
280
0
281
1
3
ACAD_GROUP
350
1de
3
ACAD_MLINESTYLE
350
1df
0
DICTIONARY
5
1de
330
0
100
AcDbDictionary
280
0
281
1
0
DICTIONARY
5
1df
330
0
100
AcDbDictionary
280
0
281
1
3
Standard
350
18
0
MLINESTYLE
5
18
330
1df
100
AcDbMlineStyle
2
Standard
70
0
3

62
256
51
90
52
90
71
2
49
-0.5
62
256
6
ByLayer
49
0.5
62
256
6
ByLayer
0
RASTERVARIABLES
5
1cb
330

100
AcDbRasterVariables
90
0
70
1
71
1
72
1
0
ENDSEC
0
EOF
