0
SECTION
2
HEADER
9
$ACADVER
1
AC1015
9
$DWGCODEPAGE
3
ANSI_1252
9
$HANDSEED
5
1e7
9
$ANGBASE
50
0
9
$ANGDIR
70
0
9
$ATTMODE
70
1
9
$AUNITS
70
0
9
$AUPREC
70
0
9
$CECOLOR
62
256
9
$CELTSCALE
40
1
9
$CELTYPE
6
ByLayer
9
$CELWEIGHT
370
18
9
$CLAYER
8
0
9
$CMLJUST
70
0
9
$CMLSCALE
40
1
9
$CMLSTYLE
2
Standard
9
$DIMSTYLE
2
Standard
9
$TEXTSIZE
40
0.2
9
$TEXTSTYLE
7
Standard
9
$LUNITS
70
2
9
$LUPREC
70
4
9
$EXTNAMES
290
1
9
$INSUNITS
70
4
9
$LTSCALE
40
1
9
$LWDISPLAY
290
1
9
$PDMODE
70
0
9
$PDSIZE
40
0
9
$PLINEGEN
70
0
0
ENDSEC
0
SECTION
2
CLASSES
0
CLASS
1
RASTERVARIABLES
2
AcDbRasterVariables
3
ISM
90
0
280
0
281
0
0
ENDSEC
0
SECTION
2
TABLES
0
TABLE
2
VPORT
5
1dd
100
AcDbSymbolTable
0
VPORT
5
1
100
AcDbSymbolTableRecord
100
AcDbViewportTableRecord
2
*Active
70
0
10
0
20
0
11
1
21
1
12
-1
22
1
13
0
23
0
14
0.5
24
0.5
15
10
25
10
16
0
26
0
36
1
17
0
27
0
37
0
0
ENDTAB
0
TABLE
2
LTYPE
5
1de
100
AcDbSymbolTable
0
LTYPE
5
14
100
AcDbSymbolTableRecord
100
AcDbLinetypeTableRecord
70
0
2
ByBlock
3

72
65
73
0
40
0
0
LTYPE
5
15
100
AcDbSymbolTableRecord
100
AcDbLinetypeTableRecord
70
0
2
ByLayer
3

72
65
73
0
40
0
0
LTYPE
5
16
100
AcDbSymbolTableRecord
100
AcDbLinetypeTableRecord
70
0
2
Continuous
3
Solid line
72
65
73
0
40
0
0
LTYPE
5
6E
100
AcDbSymbolTableRecord
100
AcDbLinetypeTableRecord
70
0
2
CENTER
3
____ _ ____ _ ____ _ ____
72
65
73
4
40
47.5
49
22
74
0
49
-8.5
74
0
49
8.5
74
0
49
-8.5
74
0
0
LTYPE
5
6F
100
AcDbSymbolTableRecord
100
AcDbLinetypeTableRecord
70
0
2
DASHED
3
__ __ __ __ __ __ __ __ __
72
65
73
2
40
25.72
49
12.86
74
0
49
-12.86
74
0
0
ENDTAB
0
TABLE
2
LAYER
5
1df
100
AcDbSymbolTable
0
LAYER
5
10
100
AcDbSymbolTableRecord
100
AcDbLayerTableRecord
2
0
70
0
62
7
6
Continuous
290
1
370
-3
390
0
0
LAYER
5
71
100
AcDbSymbolTableRecord
100
AcDbLayerTableRecord
2
80
70
0
62
-6
6
Continuous
290
1
370
-3
390
0
0
LAYER
5
73
100
AcDbSymbolTableRecord
100
AcDbLayerTableRecord
2
81
70
0
62
-3
6
Continuous
290
1
370
-3
390
0
0
LAYER
5
75
100
AcDbSymbolTableRecord
100
AcDbLayerTableRecord
2
1
70
0
62
4
6
Continuous
290
1
370
-3
390
0
0
LAYER
5
99
100
AcDbSymbolTableRecord
100
AcDbLayerTableRecord
2
4
70
0
62
-2
6
CENTER
290
1
370
-3
390
0
0
LAYER
5
A9
100
AcDbSymbolTableRecord
100
AcDbLayerTableRecord
2
2
70
0
62
7
6
Continuous
290
1
370
-3
390
0
0
LAYER
5
F1
100
AcDbSymbolTableRecord
100
AcDbLayerTableRecord
2
Defpoints
70
0
62
7
6
Continuous
290
0
370
-3
390
0
0
LAYER
5
1c9
100
AcDbSymbolTableRecord
100
AcDbLayerTableRecord
2
SK1
70
0
62
4
6
Continuous
290
1
370
-3
390
0
0
LAYER
5
1ca
100
AcDbSymbolTableRecord
100
AcDbLayerTableRecord
2
SK4
70
0
62
2
6
CENTER
290
1
370
-3
390
0
0
LAYER
5
1cb
100
AcDbSymbolTableRecord
100
AcDbLayerTableRecord
2
SK2
70
0
62
7
6
Continuous
290
1
370
-3
390
0
0
LAYER
5
1cc
100
AcDbSymbolTableRecord
100
AcDbLayerTableRecord
2
SK6
70
0
62
5
6
Continuous
290
1
370
-3
390
0
0
ENDTAB
0
TABLE
2
STYLE
5
1e0
100
AcDbSymbolTable
0
STYLE
5
11
100
AcDbSymbolTableRecord
100
AcDbTextStyleTableRecord
2
Standard
3
txt
70
0
71
0
40
0
41
1
42
0
50
0
0
STYLE
5
CD
100
AcDbSymbolTableRecord
100
AcDbTextStyleTableRecord
2
iso_b_vert
3
simplex.shx
70
0
71
0
40
0
41
1
42
0
50
0
0
STYLE
5
CE
100
AcDbSymbolTableRecord
100
AcDbTextStyleTableRecord
2
DWGDirectTextStyle
3
simplex
70
0
71
0
40
0
41
1
42
0
50
0
0
ENDTAB
0
TABLE
2
DIMSTYLE
5
1e1
100
AcDbSymbolTable
100
AcDbDimStyleTable
0
DIMSTYLE
105
27
100
AcDbSymbolTableRecord
100
AcDbDimStyleTableRecord
2
Standard
70
0
3
<>
41
0.18
42
0.0625
44
0.18
140
0.18
147
0.09
73
0
74
0
77
1
271
2
275
0
278
52
280
0
340
11
0
ENDTAB
0
TABLE
2
VIEW
5
1e2
100
AcDbSymbolTable
0
ENDTAB
0
TABLE
2
UCS
5
1e3
100
AcDbSymbolTable
0
ENDTAB
0
TABLE
2
APPID
5
1e4
100
AcDbSymbolTable
0
APPID
5
12
100
AcDbSymbolTableRecord
100
AcDbRegAppTableRecord
2
ACAD
70
0
0
APPID
5
ED
100
AcDbSymbolTableRecord
100
AcDbRegAppTableRecord
2
ACAD_DSTYLE_DIMBREAK
70
0
0
APPID
5
188
100
AcDbSymbolTableRecord
100
AcDbRegAppTableRecord
2
ACAD_DSTYLE_DIM_LINETYPE
70
0
0
APPID
5
189
100
AcDbSymbolTableRecord
100
AcDbRegAppTableRecord
2
ACAD_DSTYLE_DIM_EXT1_LINETYPE
70
0
0
APPID
5
18A
100
AcDbSymbolTableRecord
100
AcDbRegAppTableRecord
2
ACAD_DSTYLE_DIM_EXT2_LINETYPE
70
0
0
APPID
5
1C5
100
AcDbSymbolTableRecord
100
AcDbRegAppTableRecord
2
ACAD_MLEADERVER
70
0
0
ENDTAB
0
TABLE
2
BLOCK_RECORD
5
1e5
100
AcDbSymbolTable
0
BLOCK_RECORD
5
1F
100
AcDbSymbolTableRecord
100
AcDbBlockTableRecord
2
*Model_Space
340
0
70
0
0
BLOCK_RECORD
5
1B
100
AcDbSymbolTableRecord
100
AcDbBlockTableRecord
2
*Paper_Space
340
0
70
0
0
BLOCK_RECORD
5
23
100
AcDbSymbolTableRecord
100
AcDbBlockTableRecord
2
*Paper_Space0
340
0
70
0
0
BLOCK_RECORD
5
F2
100
AcDbSymbolTableRecord
100
AcDbBlockTableRecord
2
*D1
340
0
70
0
0
BLOCK_RECORD
5
FE
100
AcDbSymbolTableRecord
100
AcDbBlockTableRecord
2
_U0
340
0
70
0
0
BLOCK_RECORD
5
10A
100
AcDbSymbolTableRecord
100
AcDbBlockTableRecord
2
*D3
340
0
70
0
0
BLOCK_RECORD
5
118
100
AcDbSymbolTableRecord
100
AcDbBlockTableRecord
2
_U1
340
0
70
0
0
BLOCK_RECORD
5
124
100
AcDbSymbolTableRecord
100
AcDbBlockTableRecord
2
*D5
340
0
70
0
0
BLOCK_RECORD
5
131
100
AcDbSymbolTableRecord
100
AcDbBlockTableRecord
2
_U2
340
0
70
0
0
BLOCK_RECORD
5
13D
100
AcDbSymbolTableRecord
100
AcDbBlockTableRecord
2
*D7
340
0
70
0
0
BLOCK_RECORD
5
149
100
AcDbSymbolTableRecord
100
AcDbBlockTableRecord
2
_U3
340
0
70
0
0
BLOCK_RECORD
5
155
100
AcDbSymbolTableRecord
100
AcDbBlockTableRecord
2
*D9
340
0
70
0
0
BLOCK_RECORD
5
161
100
AcDbSymbolTableRecord
100
AcDbBlockTableRecord
2
_U4
340
0
70
0
0
ENDTAB
0
ENDSEC
0
SECTION
2
BLOCKS
0
BLOCK
5
20
100
AcDbEntity
8
0
100
AcDbBlockBegin
2
*Model_Space
70
0
10
0
20
0
30
0
3
*Model_Space
0
ENDBLK
5
21
100
AcDbEntity
8
0
100
AcDbBlockEnd
0
BLOCK
5
1C
100
AcDbEntity
8
0
100
AcDbBlockBegin
2
*Paper_Space
70
0
10
0
20
0
30
0
3
*Paper_Space
0
ENDBLK
5
1D
100
AcDbEntity
8
0
100
AcDbBlockEnd
0
BLOCK
5
24
100
AcDbEntity
8
0
100
AcDbBlockBegin
2
*Paper_Space0
70
0
10
0
20
0
30
0
3
*Paper_Space0
0
ENDBLK
5
25
100
AcDbEntity
8
0
100
AcDbBlockEnd
0
BLOCK
5
F3
100
AcDbEntity
8
0
100
AcDbBlockBegin
2
*D1
70
1
10
0
20
0
30
0
3
*D1
0
LINE
5
F5
100
AcDbEntity
8
0
62
256
6
ByLayer
370
-2
48
1
60
0
100
AcDbLine
10
-20.3424
20
-0.0875
30
0
11
-20.3424
21
-41.299532
31
0
39
0
210
0
220
0
230
1
0
LINE
5
F6
100
AcDbEntity
8
0
62
256
6
ByLayer
370
-2
48
1
60
0
100
AcDbLine
10
17.6576
20
-0.3125
30
0
11
17.6576
21
-41.299532
31
0
39
0
210
0
220
0
230
1
0
LINE
5
F7
100
AcDbEntity
8
0
62
256
6
ByLayer
370
-2
48
1
60
0
100
AcDbLine
10
-16.8424
20
-39.299532
30
0
11
14.1576
21
-39.299532
31
0
39
0
210
0
220
0
230
1
0
SOLID
5
F8
100
AcDbEntity
8
0
62
256
6
ByLayer
370
-1
48
1
60
0
100
AcDbTrace
10
-16.8424
20
-38.716199
30
0
11
-16.8424
21
-39.882865
31
0
12
-20.3424
22
-39.299532
32
0
13
-20.3424
23
-39.299532
33
0
39
0
210
0
220
0
230
1
0
SOLID
5
F9
100
AcDbEntity
8
0
62
256
6
ByLayer
370
-1
48
1
60
0
100
AcDbTrace
10
14.1576
20
-39.882865
30
0
11
14.1576
21
-38.716199
31
0
12
17.6576
22
-39.299532
32
0
13
17.6576
23
-39.299532
33
0
39
0
210
0
220
0
230
1
0
MTEXT
5
FA
100
AcDbEntity
8
0
62
256
6
ByLayer
370
18
48
1
60
0
100
AcDbMText
10
-1.3424
20
-33.299532
30
0
210
0
220
0
230
1
1
\A1;38
40
3
41
0
44
1
50
0
71
5
72
5
7
iso_b_vert
0
POINT
5
FB
100
AcDbEntity
8
Defpoints
62
0
6
ByLayer
370
-1
48
1
60
0
100
AcDbPoint
10
-20.3424
20
1.5
30
0
39
0
210
0
220
0
230
1
50
360
0
POINT
5
FC
100
AcDbEntity
8
Defpoints
62
0
6
ByLayer
370
-1
48
1
60
0
100
AcDbPoint
10
17.6576
20
1.275
30
0
39
0
210
0
220
0
230
1
50
360
0
POINT
5
FD
100
AcDbEntity
8
Defpoints
62
0
6
ByLayer
370
-1
48
1
60
0
100
AcDbPoint
10
17.6576
20
-39.299532
30
0
39
0
210
0
220
0
230
1
50
360
0
ENDBLK
5
F4
100
AcDbEntity
8
0
100
AcDbBlockEnd
0
BLOCK
5
105
100
AcDbEntity
8
0
100
AcDbBlockBegin
2
_U0
70
0
10
0
20
0
30
0
3
_U0
0
MTEXT
5
FF
100
AcDbEntity
8
SK2
62
256
6
ByLayer
370
18
48
1
60
0
100
AcDbMText
10
-5.82477
20
-38.414418
30
0
210
0
220
0
230
1
1
\W0.7468;38.00
40
3
41
0
44
1.084337
50
0
71
7
72
5
7
iso_b_vert
0
LINE
5
100
100
AcDbEntity
8
SK2
62
256
6
ByLayer
370
13
48
1
60
0
100
AcDbLine
10
-20.3424
20
-0.0875
30
0
11
-20.3424
21
-41.299532
31
0
39
0
210
0
220
0
230
1
0
LINE
5
101
100
AcDbEntity
8
SK2
62
256
6
ByLayer
370
13
48
1
60
0
100
AcDbLine
10
17.6576
20
-0.3125
30
0
11
17.6576
21
-41.299532
31
0
39
0
210
0
220
0
230
1
0
LINE
5
102
100
AcDbEntity
8
SK2
62
256
6
ByLayer
370
13
48
1
60
0
100
AcDbLine
10
-20.3424
20
-39.299532
30
0
11
17.6576
21
-39.299532
31
0
39
0
210
0
220
0
230
1
0
SOLID
5
103
100
AcDbEntity
8
SK2
62
256
6
ByLayer
370
18
48
1
60
0
100
AcDbTrace
10
-20.3424
20
-39.299532
30
0
11
-16.842402
21
-38.838748
31
0
12
-16.842398
22
-39.760316
32
0
13
-16.842398
23
-39.760316
33
0
39
0
210
0
220
0
230
1
0
SOLID
5
104
100
AcDbEntity
8
SK2
62
256
6
ByLayer
370
18
48
1
60
0
100
AcDbTrace
10
17.6576
20
-39.299532
30
0
11
14.157602
21
-39.760316
31
0
12
14.157598
22
-38.838748
32
0
13
14.157598
23
-38.838748
33
0
39
0
210
0
220
0
230
1
0
ENDBLK
5
106
100
AcDbEntity
8
0
100
AcDbBlockEnd
0
BLOCK
5
10B
100
AcDbEntity
8
0
100
AcDbBlockBegin
2
*D3
70
1
10
0
20
0
30
0
3
*D3
0
LINE
5
10D
100
AcDbEntity
8
0
62
256
6
ByLayer
370
-2
48
1
60
0
100
AcDbLine
10
17.6576
20
-0.3125
30
0
11
17.6576
21
-24.775
31
0
39
0
210
0
220
0
230
1
0
LINE
5
10E
100
AcDbEntity
8
0
62
256
6
ByLayer
370
-2
48
1
60
0
100
AcDbLine
10
7.4826
20
-1.5875
30
0
11
7.4826
21
-24.775
31
0
39
0
210
0
220
0
230
1
0
LINE
5
10F
100
AcDbEntity
8
0
62
256
6
ByLayer
370
-2
48
1
60
0
100
AcDbLine
10
17.6576
20
-22.775
30
0
11
45.229029
21
-22.775
31
0
39
0
210
0
220
0
230
1
0
LINE
5
110
100
AcDbEntity
8
0
62
256
6
ByLayer
370
-2
48
1
60
0
100
AcDbLine
10
21.1576
20
-22.775
30
0
11
24.6576
21
-22.775
31
0
39
0
210
0
220
0
230
1
0
LINE
5
111
100
AcDbEntity
8
0
62
256
6
ByLayer
370
-2
48
1
60
0
100
AcDbLine
10
3.9826
20
-22.775
30
0
11
0.4826
21
-22.775
31
0
39
0
210
0
220
0
230
1
0
SOLID
5
112
100
AcDbEntity
8
0
62
256
6
ByLayer
370
-1
48
1
60
0
100
AcDbTrace
10
21.1576
20
-22.191667
30
0
11
21.1576
21
-23.358333
31
0
12
17.6576
22
-22.775
32
0
13
17.6576
23
-22.775
33
0
39
0
210
0
220
0
230
1
0
SOLID
5
113
100
AcDbEntity
8
0
62
256
6
ByLayer
370
-1
48
1
60
0
100
AcDbTrace
10
3.9826
20
-23.358333
30
0
11
3.9826
21
-22.191667
31
0
12
7.4826
22
-22.775
32
0
13
7.4826
23
-22.775
33
0
39
0
210
0
220
0
230
1
0
MTEXT
5
114
100
AcDbEntity
8
0
62
256
6
ByLayer
370
18
48
1
60
0
100
AcDbMText
10
34.943314
20
-16.775
30
0
210
0
220
0
230
1
1
\A1;10.18
40
3
41
0
44
1
50
0
71
5
72
5
7
iso_b_vert
0
POINT
5
115
100
AcDbEntity
8
Defpoints
62
0
6
ByLayer
370
-1
48
1
60
0
100
AcDbPoint
10
17.6576
20
1.275
30
0
39
0
210
0
220
0
230
1
50
360
0
POINT
5
116
100
AcDbEntity
8
Defpoints
62
0
6
ByLayer
370
-1
48
1
60
0
100
AcDbPoint
10
7.4826
20
0
30
0
39
0
210
0
220
0
230
1
50
360
0
POINT
5
117
100
AcDbEntity
8
Defpoints
62
0
6
ByLayer
370
-1
48
1
60
0
100
AcDbPoint
10
7.4826
20
-22.775
30
0
39
0
210
0
220
0
230
1
50
360
0
ENDBLK
5
10C
100
AcDbEntity
8
0
100
AcDbBlockEnd
0
BLOCK
5
11F
100
AcDbEntity
8
0
100
AcDbBlockBegin
2
_U1
70
0
10
0
20
0
30
0
3
_U1
0
MTEXT
5
119
100
AcDbEntity
8
SK2
62
256
6
ByLayer
370
18
48
1
60
0
100
AcDbMText
10
21.8166
20
-21.889886
30
0
210
0
220
0
230
1
1
\W0.6246;(10.18)
40
3
41
0
44
1.084337
50
0
71
7
72
5
7
iso_b_vert
0
LINE
5
11A
100
AcDbEntity
8
SK2
62
256
6
ByLayer
370
13
48
1
60
0
100
AcDbLine
10
17.6576
20
-0.3125
30
0
11
17.6576
21
-24.775
31
0
39
0
210
0
220
0
230
1
0
LINE
5
11B
100
AcDbEntity
8
SK2
62
256
6
ByLayer
370
13
48
1
60
0
100
AcDbLine
10
7.4826
20
-1.5875
30
0
11
7.4826
21
-24.775
31
0
39
0
210
0
220
0
230
1
0
LINE
5
11C
100
AcDbEntity
8
SK2
62
256
6
ByLayer
370
13
48
1
60
0
100
AcDbLine
10
7.4826
20
-22.775
30
0
11
31.871426
21
-22.775
31
0
39
0
210
0
220
0
230
1
0
SOLID
5
11D
100
AcDbEntity
8
SK2
62
256
6
ByLayer
370
18
48
1
60
0
100
AcDbTrace
10
17.6576
20
-22.775
30
0
11
14.157602
21
-23.235784
31
0
12
14.157598
22
-22.314216
32
0
13
14.157598
23
-22.314216
33
0
39
0
210
0
220
0
230
1
0
SOLID
5
11E
100
AcDbEntity
8
SK2
62
256
6
ByLayer
370
18
48
1
60
0
100
AcDbTrace
10
7.4826
20
-22.775
30
0
11
10.982598
21
-22.314216
31
0
12
10.982602
22
-23.235784
32
0
13
10.982602
23
-23.235784
33
0
39
0
210
0
220
0
230
1
0
ENDBLK
5
120
100
AcDbEntity
8
0
100
AcDbBlockEnd
0
BLOCK
5
125
100
AcDbEntity
8
0
100
AcDbBlockBegin
2
*D5
70
1
10
0
20
0
30
0
3
*D5
0
LINE
5
127
100
AcDbEntity
8
0
62
256
6
ByLayer
370
-2
48
1
60
0
100
AcDbLine
10
17.6576
20
-0.3125
30
0
11
17.6576
21
-32.799532
31
0
39
0
210
0
220
0
230
1
0
LINE
5
128
100
AcDbEntity
8
0
62
256
6
ByLayer
370
-2
48
1
60
0
100
AcDbLine
10
3.6576
20
-1.5875
30
0
11
3.6576
21
-32.799532
31
0
39
0
210
0
220
0
230
1
0
LINE
5
129
100
AcDbEntity
8
0
62
256
6
ByLayer
370
-2
48
1
60
0
100
AcDbLine
10
21.1576
20
-30.799532
30
0
11
24.6576
21
-30.799532
31
0
39
0
210
0
220
0
230
1
0
LINE
5
12A
100
AcDbEntity
8
0
62
256
6
ByLayer
370
-2
48
1
60
0
100
AcDbLine
10
0.1576
20
-30.799532
30
0
11
-3.3424
21
-30.799532
31
0
39
0
210
0
220
0
230
1
0
SOLID
5
12B
100
AcDbEntity
8
0
62
256
6
ByLayer
370
-1
48
1
60
0
100
AcDbTrace
10
21.1576
20
-30.216199
30
0
11
21.1576
21
-31.382865
31
0
12
17.6576
22
-30.799532
32
0
13
17.6576
23
-30.799532
33
0
39
0
210
0
220
0
230
1
0
SOLID
5
12C
100
AcDbEntity
8
0
62
256
6
ByLayer
370
-1
48
1
60
0
100
AcDbTrace
10
0.1576
20
-31.382865
30
0
11
0.1576
21
-30.216199
31
0
12
3.6576
22
-30.799532
32
0
13
3.6576
23
-30.799532
33
0
39
0
210
0
220
0
230
1
0
MTEXT
5
12D
100
AcDbEntity
8
0
62
256
6
ByLayer
370
18
48
1
60
0
100
AcDbMText
10
10.6576
20
-24.799532
30
0
210
0
220
0
230
1
1
\A1;14
40
3
41
0
44
1
50
0
71
5
72
5
7
iso_b_vert
0
POINT
5
12E
100
AcDbEntity
8
Defpoints
62
0
6
ByLayer
370
-1
48
1
60
0
100
AcDbPoint
10
17.6576
20
1.275
30
0
39
0
210
0
220
0
230
1
50
360
0
POINT
5
12F
100
AcDbEntity
8
Defpoints
62
0
6
ByLayer
370
-1
48
1
60
0
100
AcDbPoint
10
3.6576
20
0
30
0
39
0
210
0
220
0
230
1
50
360
0
POINT
5
130
100
AcDbEntity
8
Defpoints
62
0
6
ByLayer
370
-1
48
1
60
0
100
AcDbPoint
10
3.6576
20
-30.799532
30
0
39
0
210
0
220
0
230
1
50
360
0
ENDBLK
5
126
100
AcDbEntity
8
0
100
AcDbBlockEnd
0
BLOCK
5
138
100
AcDbEntity
8
0
100
AcDbBlockBegin
2
_U2
70
0
10
0
20
0
30
0
3
_U2
0
MTEXT
5
132
100
AcDbEntity
8
SK2
62
256
6
ByLayer
370
18
48
1
60
0
100
AcDbMText
10
6.392229
20
-29.914418
30
0
210
0
220
0
230
1
1
\W0.7091;14.00
40
3
41
0
44
1.084337
50
0
71
7
72
5
7
iso_b_vert
0
LINE
5
133
100
AcDbEntity
8
SK2
62
256
6
ByLayer
370
13
48
1
60
0
100
AcDbLine
10
17.6576
20
-0.3125
30
0
11
17.6576
21
-32.799532
31
0
39
0
210
0
220
0
230
1
0
LINE
5
134
100
AcDbEntity
8
SK2
62
256
6
ByLayer
370
13
48
1
60
0
100
AcDbLine
10
3.6576
20
-1.5875
30
0
11
3.6576
21
-32.799532
31
0
39
0
210
0
220
0
230
1
0
LINE
5
135
100
AcDbEntity
8
SK2
62
256
6
ByLayer
370
13
48
1
60
0
100
AcDbLine
10
17.6576
20
-30.799532
30
0
11
3.6576
21
-30.799532
31
0
39
0
210
0
220
0
230
1
0
SOLID
5
136
100
AcDbEntity
8
SK2
62
256
6
ByLayer
370
18
48
1
60
0
100
AcDbTrace
10
17.6576
20
-30.799532
30
0
11
14.157602
21
-31.260316
31
0
12
14.157598
22
-30.338748
32
0
13
14.157598
23
-30.338748
33
0
39
0
210
0
220
0
230
1
0
SOLID
5
137
100
AcDbEntity
8
SK2
62
256
6
ByLayer
370
18
48
1
60
0
100
AcDbTrace
10
3.6576
20
-30.799532
30
0
11
7.157598
21
-30.338748
31
0
12
7.157602
22
-31.260316
32
0
13
7.157602
23
-31.260316
33
0
39
0
210
0
220
0
230
1
0
ENDBLK
5
139
100
AcDbEntity
8
0
100
AcDbBlockEnd
0
BLOCK
5
13E
100
AcDbEntity
8
0
100
AcDbBlockBegin
2
*D7
70
1
10
0
20
0
30
0
3
*D7
0
LINE
5
140
100
AcDbEntity
8
0
62
256
6
ByLayer
370
-2
48
1
60
0
100
AcDbLine
10
-20.3424
20
1.5875
30
0
11
-20.3424
21
13.799532
31
0
39
0
210
0
220
0
230
1
0
LINE
5
141
100
AcDbEntity
8
0
62
256
6
ByLayer
370
-2
48
1
60
0
100
AcDbLine
10
0
20
1.5875
30
0
11
0
21
13.799532
31
0
39
0
210
0
220
0
230
1
0
LINE
5
142
100
AcDbEntity
8
0
62
256
6
ByLayer
370
-2
48
1
60
0
100
AcDbLine
10
-16.8424
20
11.799532
30
0
11
-3.5
21
11.799532
31
0
39
0
210
0
220
0
230
1
0
SOLID
5
143
100
AcDbEntity
8
0
62
256
6
ByLayer
370
-1
48
1
60
0
100
AcDbTrace
10
-16.8424
20
12.382865
30
0
11
-16.8424
21
11.216199
31
0
12
-20.3424
22
11.799532
32
0
13
-20.3424
23
11.799532
33
0
39
0
210
0
220
0
230
1
0
SOLID
5
144
100
AcDbEntity
8
0
62
256
6
ByLayer
370
-1
48
1
60
0
100
AcDbTrace
10
-3.5
20
11.216199
30
0
11
-3.5
21
12.382865
31
0
12
0
22
11.799532
32
0
13
0
23
11.799532
33
0
39
0
210
0
220
0
230
1
0
MTEXT
5
145
100
AcDbEntity
8
0
62
256
6
ByLayer
370
18
48
1
60
0
100
AcDbMText
10
-10.1712
20
17.799532
30
0
210
0
220
0
230
1
1
\A1;20.34
40
3
41
0
44
1
50
0
71
5
72
5
7
iso_b_vert
0
POINT
5
146
100
AcDbEntity
8
Defpoints
62
0
6
ByLayer
370
-1
48
1
60
0
100
AcDbPoint
10
-20.3424
20
0
30
0
39
0
210
0
220
0
230
1
50
360
0
POINT
5
147
100
AcDbEntity
8
Defpoints
62
0
6
ByLayer
370
-1
48
1
60
0
100
AcDbPoint
10
0
20
0
30
0
39
0
210
0
220
0
230
1
50
360
0
POINT
5
148
100
AcDbEntity
8
Defpoints
62
0
6
ByLayer
370
-1
48
1
60
0
100
AcDbPoint
10
0
20
11.799532
30
0
39
0
210
0
220
0
230
1
50
360
0
ENDBLK
5
13F
100
AcDbEntity
8
0
100
AcDbBlockEnd
0
BLOCK
5
150
100
AcDbEntity
8
0
100
AcDbBlockBegin
2
_U3
70
0
10
0
20
0
30
0
3
_U3
0
MTEXT
5
14A
100
AcDbEntity
8
SK2
62
256
6
ByLayer
370
18
48
1
60
0
100
AcDbMText
10
-14.811513
20
12.684647
30
0
210
0
220
0
230
1
1
\W0.7607;20.34
40
3
41
0
44
1.084337
50
0
71
7
72
5
7
iso_b_vert
0
LINE
5
14B
100
AcDbEntity
8
SK2
62
256
6
ByLayer
370
13
48
1
60
0
100
AcDbLine
10
-20.3424
20
1.5875
30
0
11
-20.3424
21
13.799532
31
0
39
0
210
0
220
0
230
1
0
LINE
5
14C
100
AcDbEntity
8
SK2
62
256
6
ByLayer
370
13
48
1
60
0
100
AcDbLine
10
0
20
1.5875
30
0
11
0
21
13.799532
31
0
39
0
210
0
220
0
230
1
0
LINE
5
14D
100
AcDbEntity
8
SK2
62
256
6
ByLayer
370
13
48
1
60
0
100
AcDbLine
10
-20.3424
20
11.799532
30
0
11
0
21
11.799532
31
0
39
0
210
0
220
0
230
1
0
SOLID
5
14E
100
AcDbEntity
8
SK2
62
256
6
ByLayer
370
18
48
1
60
0
100
AcDbTrace
10
-20.3424
20
11.799532
30
0
11
-16.842402
21
12.260316
31
0
12
-16.842398
22
11.338748
32
0
13
-16.842398
23
11.338748
33
0
39
0
210
0
220
0
230
1
0
SOLID
5
14F
100
AcDbEntity
8
SK2
62
256
6
ByLayer
370
18
48
1
60
0
100
AcDbTrace
10
0
20
11.799532
30
0
11
-3.499998
21
11.338748
31
0
12
-3.500002
22
12.260316
32
0
13
-3.500002
23
12.260316
33
0
39
0
210
0
220
0
230
1
0
ENDBLK
5
151
100
AcDbEntity
8
0
100
AcDbBlockEnd
0
BLOCK
5
156
100
AcDbEntity
8
0
100
AcDbBlockBegin
2
*D9
70
1
10
0
20
0
30
0
3
*D9
0
LINE
5
158
100
AcDbEntity
8
0
62
256
6
ByLayer
370
-2
48
1
60
0
100
AcDbLine
10
17.6576
20
2.8625
30
0
11
17.6576
21
13.799532
31
0
39
0
210
0
220
0
230
1
0
LINE
5
159
100
AcDbEntity
8
0
62
256
6
ByLayer
370
-2
48
1
60
0
100
AcDbLine
10
0
20
1.5875
30
0
11
0
21
13.799532
31
0
39
0
210
0
220
0
230
1
0
LINE
5
15A
100
AcDbEntity
8
0
62
256
6
ByLayer
370
-2
48
1
60
0
100
AcDbLine
10
14.1576
20
11.799532
30
0
11
3.5
21
11.799532
31
0
39
0
210
0
220
0
230
1
0
SOLID
5
15B
100
AcDbEntity
8
0
62
256
6
ByLayer
370
-1
48
1
60
0
100
AcDbTrace
10
14.1576
20
11.216199
30
0
11
14.1576
21
12.382865
31
0
12
17.6576
22
11.799532
32
0
13
17.6576
23
11.799532
33
0
39
0
210
0
220
0
230
1
0
SOLID
5
15C
100
AcDbEntity
8
0
62
256
6
ByLayer
370
-1
48
1
60
0
100
AcDbTrace
10
3.5
20
12.382865
30
0
11
3.5
21
11.216199
31
0
12
0
22
11.799532
32
0
13
0
23
11.799532
33
0
39
0
210
0
220
0
230
1
0
MTEXT
5
15D
100
AcDbEntity
8
0
62
256
6
ByLayer
370
18
48
1
60
0
100
AcDbMText
10
8.8288
20
17.799532
30
0
210
0
220
0
230
1
1
\A1;17.66
40
3
41
0
44
1
50
0
71
5
72
5
7
iso_b_vert
0
POINT
5
15E
100
AcDbEntity
8
Defpoints
62
0
6
ByLayer
370
-1
48
1
60
0
100
AcDbPoint
10
17.6576
20
1.275
30
0
39
0
210
0
220
0
230
1
50
360
0
POINT
5
15F
100
AcDbEntity
8
Defpoints
62
0
6
ByLayer
370
-1
48
1
60
0
100
AcDbPoint
10
0
20
0
30
0
39
0
210
0
220
0
230
1
50
360
0
POINT
5
160
100
AcDbEntity
8
Defpoints
62
0
6
ByLayer
370
-1
48
1
60
0
100
AcDbPoint
10
0
20
11.799532
30
0
39
0
210
0
220
0
230
1
50
360
0
ENDBLK
5
157
100
AcDbEntity
8
0
100
AcDbBlockEnd
0
BLOCK
5
168
100
AcDbEntity
8
0
100
AcDbBlockBegin
2
_U4
70
0
10
0
20
0
30
0
3
_U4
0
MTEXT
5
162
100
AcDbEntity
8
2
62
256
6
ByLayer
370
18
48
1
60
0
100
AcDbMText
10
4.721372
20
12.684647
30
0
210
0
220
0
230
1
1
\W0.6864;17.66
40
3
41
0
44
1.084337
50
0
71
7
72
5
7
iso_b_vert
0
LINE
5
163
100
AcDbEntity
8
2
62
256
6
ByLayer
370
13
48
1
60
0
100
AcDbLine
10
17.6576
20
2.8625
30
0
11
17.6576
21
13.799532
31
0
39
0
210
0
220
0
230
1
0
LINE
5
164
100
AcDbEntity
8
2
62
256
6
ByLayer
370
13
48
1
60
0
100
AcDbLine
10
0
20
1.5875
30
0
11
0
21
13.799532
31
0
39
0
210
0
220
0
230
1
0
LINE
5
165
100
AcDbEntity
8
2
62
256
6
ByLayer
370
13
48
1
60
0
100
AcDbLine
10
17.6576
20
11.799532
30
0
11
0
21
11.799532
31
0
39
0
210
0
220
0
230
1
0
SOLID
5
166
100
AcDbEntity
8
2
62
256
6
ByLayer
370
18
48
1
60
0
100
AcDbTrace
10
17.6576
20
11.799532
30
0
11
14.157602
21
11.338748
31
0
12
14.157598
22
12.260316
32
0
13
14.157598
23
12.260316
33
0
39
0
210
0
220
0
230
1
0
SOLID
5
167
100
AcDbEntity
8
2
62
256
6
ByLayer
370
18
48
1
60
0
100
AcDbTrace
10
0
20
11.799532
30
0
11
3.499998
21
12.260316
31
0
12
3.500002
22
11.338748
32
0
13
3.500002
23
11.338748
33
0
39
0
210
0
220
0
230
1
0
ENDBLK
5
169
100
AcDbEntity
8
0
100
AcDbBlockEnd
0
ENDSEC
0
SECTION
2
ENTITIES
0
ARC
5
BA
100
AcDbEntity
8
1
62
256
6
ByLayer
370
18
48
1
60
0
100
AcDbCircle
39
0
10
0.657644
20
-2.275
30
0
40
1
210
0
220
0
230
1
100
AcDbArc
50
90
51
120
0
ARC
5
BB
100
AcDbEntity
8
1
62
256
6
ByLayer
370
18
48
1
60
0
100
AcDbCircle
39
0
10
0.657644
20
2.275
30
0
40
1
210
0
220
0
230
1
100
AcDbArc
50
240
51
270
0
ARC
5
BC
100
AcDbEntity
8
SK2
62
256
6
ByLayer
370
13
48
1
60
0
100
AcDbCircle
39
0
10
17.6576
20
0
30
0
40
16.35
210
0
220
0
230
1
100
AcDbArc
50
10.57289
51
65
0
ARC
5
BD
100
AcDbEntity
8
SK2
62
256
6
ByLayer
370
13
48
1
60
0
100
AcDbCircle
39
0
10
17.6576
20
0
30
0
40
16.35
210
0
220
0
230
1
100
AcDbArc
50
295
51
349.42711
0
ELLIPSE
5
BE
100
AcDbEntity
8
1
62
256
6
ByLayer
370
18
48
1
60
0
100
AcDbEllipse
10
5.07897
20
0.822689
30
0
11
-1.9048441064315
21
1.16189207363252
31
0
210
0
220
0
230
1
40
0.279401
41
0.940912493354749
42
1.73959991345249
0
POINT
5
70
100
AcDbEntity
8
80
62
256
6
ByLayer
370
18
48
1
60
0
100
AcDbPoint
10
0
20
0
30
0
39
0
210
0
220
0
230
1
50
360
0
POINT
5
72
100
AcDbEntity
8
81
62
256
6
ByLayer
370
18
48
1
60
0
100
AcDbPoint
10
17.6576
20
0
30
0
39
0
210
0
220
0
230
1
50
360
0
POINT
5
74
100
AcDbEntity
8
1
62
256
6
ByLayer
370
18
48
1
60
1
100
AcDbPoint
10
-20.3424
20
1.5
30
0
39
0
210
0
220
0
230
1
50
360
0
POINT
5
76
100
AcDbEntity
8
1
62
256
6
ByLayer
370
18
48
1
60
1
100
AcDbPoint
10
17.6576
20
1.275
30
0
39
0
210
0
220
0
230
1
50
360
0
POINT
5
77
100
AcDbEntity
8
1
62
256
6
ByLayer
370
18
48
1
60
1
100
AcDbPoint
10
17.6576
20
1.275
30
0
39
0
210
0
220
0
230
1
50
360
0
POINT
5
78
100
AcDbEntity
8
1
62
256
6
ByLayer
370
18
48
1
60
1
100
AcDbPoint
10
7.4826
20
0
30
0
39
0
210
0
220
0
230
1
50
360
0
POINT
5
79
100
AcDbEntity
8
1
62
256
6
ByLayer
370
18
48
1
60
1
100
AcDbPoint
10
17.6576
20
1.275
30
0
39
0
210
0
220
0
230
1
50
360
0
POINT
5
7A
100
AcDbEntity
8
1
62
256
6
ByLayer
370
18
48
1
60
1
100
AcDbPoint
10
3.6576
20
0
30
0
39
0
210
0
220
0
230
1
50
360
0
POINT
5
7B
100
AcDbEntity
8
1
62
256
6
ByLayer
370
18
48
1
60
1
100
AcDbPoint
10
-20.3424
20
0
30
0
39
0
210
0
220
0
230
1
50
360
0
POINT
5
7C
100
AcDbEntity
8
1
62
256
6
ByLayer
370
18
48
1
60
1
100
AcDbPoint
10
0
20
0
30
0
39
0
210
0
220
0
230
1
50
360
0
POINT
5
7D
100
AcDbEntity
8
1
62
256
6
ByLayer
370
18
48
1
60
1
100
AcDbPoint
10
17.6576
20
1.275
30
0
39
0
210
0
220
0
230
1
50
360
0
POINT
5
7E
100
AcDbEntity
8
1
62
256
6
ByLayer
370
18
48
1
60
1
100
AcDbPoint
10
0
20
0
30
0
39
0
210
0
220
0
230
1
50
360
0
SPLINE
5
BF
100
AcDbEntity
8
1
62
256
6
ByLayer
370
18
48
1
60
0
100
AcDbSpline
70
4
71
3
72
28
73
24
40
0
40
0
40
0
40
0
40
0.125
40
0.125
40
0.25
40
0.25
40
0.3125
40
0.3125
40
0.375
40
0.375
40
0.4375
40
0.4375
40
0.5
40
0.5
40
0.625
40
0.625
40
0.75
40
0.75
40
0.875
40
0.875
40
0.9375
40
0.9375
40
1
40
1
40
1
40
1
41
1
10
17.0630577358524
20
0.651747719046341
30
0
41
1
10
17.0830419088997
20
0.62323163521495
30
0
41
1
10
17.1029929740762
20
0.597788921045378
30
0
41
1
10
17.1429065086272
20
0.551406932948879
30
0
41
1
10
17.1628668583459
20
0.530416500326993
30
0
41
1
10
17.1928091431802
20
0.500770276778155
30
0
41
1
10
17.2027898045191
20
0.491200748674714
30
0
41
1
10
17.2227474695551
20
0.472516641311273
30
0
41
1
10
17.2327245871338
20
0.463395972479304
30
0
41
1
10
17.2526698019098
20
0.445684861340141
30
0
41
1
10
17.262647104186
20
0.437088256104261
30
0
41
1
10
17.2824882593061
20
0.420579831093221
30
0
41
1
10
17.292361077795
20
0.412659667654793
30
0
41
1
10
17.321801446933
20
0.389974129623539
30
0
41
1
10
17.3411939707221
20
0.376313398239091
30
0
41
1
10
17.3792715066311
20
0.351665186413555
30
0
41
1
10
17.3979709568031
20
0.340659637051914
30
0
41
1
10
17.4340560512852
20
0.32127062331034
30
0
41
1
10
17.4514743473031
20
0.312901368252739
30
0
41
1
10
17.4754140727028
20
0.30237885207606
30
0
41
1
10
17.4830190394863
20
0.29920928243277
30
0
41
1
10
17.4970469118154
20
0.293551715957563
30
0
41
1
10
17.5034726298995
20
0.291063636069083
30
0
41
1
10
17.5089643942655
20
0.288921307884607
30
0
0
SPLINE
5
C0
100
AcDbEntity
8
1
62
256
6
ByLayer
370
18
48
1
60
0
100
AcDbSpline
70
4
71
3
72
42
73
38
40
0
40
0
40
0
40
0
40
0.0892299367242658
40
0.0892299367242658
40
0.133844905086399
40
0.133844905086399
40
0.178459873448532
40
0.178459873448532
40
0.267689810172797
40
0.267689810172797
40
0.312304778534931
40
0.312304778534931
40
0.356919746897065
40
0.356919746897065
40
0.446149683621331
40
0.446149683621331
40
0.468457167802396
40
0.468457167802396
40
0.490764651983461
40
0.490764651983461
40
0.535379620345591
40
0.535379620345591
40
0.624609557069849
40
0.624609557069849
40
0.713839493794107
40
0.713839493794107
40
0.803069430518366
40
0.803069430518366
40
0.825376914699431
40
0.825376914699431
40
0.847684398880497
40
0.847684398880497
40
0.89229936724263
40
0.89229936724263
40
0.981529303966897
40
0.981529303966897
40
1
40
1
40
1
40
1
41
1
10
5.07897
20
-0.407987007191764
30
0
41
1
10
5.20450346689248
20
-0.476683980539576
30
0
41
1
10
5.32983195015299
20
-0.543042449192455
30
0
41
1
10
5.51802322892905
20
-0.638314158161165
30
0
41
1
10
5.58083411063905
20
-0.669389567251642
30
0
41
1
10
5.70635665950908
20
-0.729870632124346
30
0
41
1
10
5.76899267678579
20
-0.759254561910723
30
0
41
1
10
5.95669675350263
20
-0.844591856080058
30
0
41
1
10
6.081702417657
20
-0.897540955973682
30
0
41
1
10
6.2695974880148
20
-0.970307683733978
30
0
41
1
10
6.33236929901923
20
-0.993471178479751
30
0
41
1
10
6.45777596901854
20
-1.0373073814915
30
0
41
1
10
6.52036838592926
20
-1.05797660703328
30
0
41
1
10
6.70800182438217
20
-1.11606192061277
30
0
41
1
10
6.83305226549601
20
-1.14942190645058
30
0
41
1
10
6.98976459879779
20
-1.18410681473571
30
0
41
1
10
7.02112709332309
20
-1.19069256086772
30
0
41
1
10
7.08390138772376
20
-1.20315301628477
30
0
41
1
10
7.11530973052473
20
-1.20902669058861
30
0
41
1
10
7.20930072337387
20
-1.22550849046163
30
0
41
1
10
7.27174326429073
20
-1.23500915782327
30
0
41
1
10
7.45860429698939
20
-1.25901844786719
30
0
41
1
10
7.58265252533158
20
-1.26900594337405
30
0
41
1
10
7.83040214523896
20
-1.27700053529546
30
0
41
1
10
7.95409552249023
20
-1.27500419671404
30
0
41
1
10
8.20189821431384
20
-1.25891403261056
30
0
41
1
10
8.32615479525256
20
-1.24484922874765
30
0
41
1
10
8.48241919079084
20
-1.21978024674655
30
0
41
1
10
8.51371901528981
20
-1.2143916478193
30
0
41
1
10
8.57642637616837
20
-1.20286529052547
30
0
41
1
10
8.60783276763848
20
-1.19672681118632
30
0
41
1
10
8.70189649010601
20
-1.17725946197757
30
0
41
1
10
8.76450340641347
20
-1.16285516227873
30
0
41
1
10
8.95218436571022
20
-1.11549310595416
30
0
41
1
10
9.07726039449162
20
-1.07850302200242
30
0
41
1
10
9.22858959385886
20
-1.02770827713101
30
0
41
1
10
9.25457373075639
20
-1.01877095079686
30
0
41
1
10
9.2805585466356
20
-1.00962279768655
30
0
0
SPLINE
5
C1
100
AcDbEntity
8
1
62
256
6
ByLayer
370
18
48
1
60
0
100
AcDbSpline
70
4
71
3
72
38
73
34
40
0
40
0
40
0
40
0
40
0.0189667202220622
40
0.0189667202220622
40
0.18247226685171
40
0.18247226685171
40
0.264225040166536
40
0.264225040166536
40
0.345977813481364
40
0.345977813481364
40
0.509483360111018
40
0.509483360111018
40
0.591236133425845
40
0.591236133425845
40
0.672988906740672
40
0.672988906740672
40
0.754741680055499
40
0.754741680055499
40
0.836494453370326
40
0.836494453370326
40
0.87737084002774
40
0.87737084002774
40
0.89780903335645
40
0.89780903335645
40
0.91824722668516
40
0.91824722668516
40
0.93868542001387
40
0.93868542001387
40
0.95912361334258
40
0.95912361334258
40
0.979561806671291
40
0.979561806671291
40
1
40
1
40
1
40
1
41
1
10
14.7669266602767
20
1.27500012269812
30
0
41
1
10
14.7813009407331
20
1.27500397839896
30
0
41
1
10
14.7956774482999
20
1.27492661161659
30
0
41
1
10
14.9340154907109
20
1.27339890018931
30
0
41
1
10
15.0583500866844
20
1.26598126953076
30
0
41
1
10
15.2459972722406
20
1.2456886094773
30
0
41
1
10
15.30883563198
20
1.23737896855488
30
0
41
1
10
15.4341971684174
20
1.21782355697667
30
0
41
1
10
15.4967850843311
20
1.20657122292872
30
0
41
1
10
15.684447882525
20
1.1685020274094
30
0
41
1
10
15.8095495592009
20
1.1374600878539
30
0
41
1
10
15.9977251470159
20
1.08283130879479
30
0
41
1
10
16.0605927022979
20
1.06324747134056
30
0
41
1
10
16.1859055820837
20
1.02165174033388
30
0
41
1
10
16.2484186424525
20
0.999619031363267
30
0
41
1
10
16.3732577838468
20
0.953197528624003
30
0
41
1
10
16.4356174729894
20
0.928846736080715
30
0
41
1
10
16.5603394204142
20
0.878025908653683
30
0
41
1
10
16.6226705353566
20
0.851515156897449
30
0
41
1
10
16.7162953214005
20
0.810326465275438
30
0
41
1
10
16.7475131469165
20
0.796346181667019
30
0
41
1
10
16.7942138393752
20
0.774793034066903
30
0
41
1
10
16.8097744056897
20
0.767530619148943
30
0
41
1
10
16.84112482286
20
0.753200077045278
30
0
41
1
10
16.8569002395787
20
0.746113670542087
30
0
41
1
10
16.888353002067
20
0.731670730153809
30
0
41
1
10
16.9040284590057
20
0.724311434719397
30
0
41
1
10
16.9349988570225
20
0.708886858736577
30
0
41
1
10
16.9502877267788
20
0.700808045428374
30
0
41
1
10
16.9811582115215
20
0.684937363849116
30
0
41
1
10
16.9967285985246
20
0.677128220477641
30
0
41
1
10
17.028959495477
20
0.663065912940283
30
0
41
1
10
17.0456874147883
20
0.656920528666916
30
0
41
1
10
17.0630577358524
20
0.651747719046341
30
0
0
SPLINE
5
C2
100
AcDbEntity
8
1
62
256
6
ByLayer
370
18
48
1
60
0
100
AcDbSpline
70
4
71
3
72
18
73
14
40
0
40
0
40
0
40
0
40
0.249999999999998
40
0.249999999999998
40
0.499999999999996
40
0.499999999999996
40
0.624999999999995
40
0.624999999999995
40
0.687499999999995
40
0.687499999999995
40
0.749999999999994
40
0.749999999999994
40
1
40
1
40
1
40
1
41
1
10
3.69458460410718
20
1.07702118201175
30
0
41
1
10
3.80874575558337
20
1.09206335800783
30
0
41
1
10
3.92347566898866
20
1.10219749713804
30
0
41
1
10
4.15403577852211
20
1.11480716593672
30
0
41
1
10
4.26986609363698
20
1.11727711893474
30
0
41
1
10
4.44444683400448
20
1.11552133475013
30
0
41
1
10
4.50278000531364
20
1.11401275709233
30
0
41
1
10
4.59049398515387
20
1.11027737162564
30
0
41
1
10
4.61975347684105
20
1.10878562676513
30
0
41
1
10
4.67800605593629
20
1.105308556175
30
0
41
1
10
4.70704084308147
20
1.10332162098408
30
0
41
1
10
4.85176064036034
20
1.09209698746065
30
0
41
1
10
4.9660883018712
20
1.07905645834032
30
0
41
1
10
5.07897000003689
20
1.06081244478491
30
0
0
SPLINE
5
C3
100
AcDbEntity
8
1
62
256
6
ByLayer
370
18
48
1
60
0
100
AcDbSpline
70
4
71
3
72
82
73
78
40
0
40
0
40
0
40
0
40
0.0060159785199563
40
0.0060159785199563
40
0.0120319570399125
40
0.0120319570399125
40
0.0180479355598688
40
0.0180479355598688
40
0.024063914079825
40
0.024063914079825
40
0.0300798925997813
40
0.0300798925997813
40
0.0360958711197375
40
0.0360958711197375
40
0.0481278281596521
40
0.0481278281596521
40
0.0721917422394811
40
0.0721917422394811
40
0.0962556563193102
40
0.0962556563193102
40
0.120319570399139
40
0.120319570399139
40
0.144383484478968
40
0.144383484478968
40
0.192511312638629
40
0.192511312638629
40
0.216575226718457
40
0.216575226718457
40
0.240639140798287
40
0.240639140798287
40
0.288766968957945
40
0.288766968957945
40
0.312830883037774
40
0.312830883037774
40
0.336894797117603
40
0.336894797117603
40
0.385022625277261
40
0.385022625277261
40
0.409086539357089
40
0.409086539357089
40
0.433150453436917
40
0.433150453436917
40
0.481278281596571
40
0.481278281596571
40
0.505342195676398
40
0.505342195676398
40
0.529406109756225
40
0.529406109756225
40
0.577533937915879
40
0.577533937915879
40
0.601597851995707
40
0.601597851995707
40
0.625661766075535
40
0.625661766075535
40
0.673789594235193
40
0.673789594235193
40
0.697853508315022
40
0.697853508315022
40
0.721917422394851
40
0.721917422394851
40
0.770045250554507
40
0.770045250554507
40
0.794109164634336
40
0.794109164634336
40
0.818173078714165
40
0.818173078714165
40
0.866300906873823
40
0.866300906873823
40
0.890364820953652
40
0.890364820953652
40
0.914428735033481
40
0.914428735033481
40
0.962556563193139
40
0.962556563193139
40
0.986620477272968
40
0.986620477272968
40
1
40
1
40
1
40
1
41
1
10
17.0630577358524
20
-1.22737049364713
30
0
41
1
10
17.0457304098081
20
-1.22574486954241
30
0
41
1
10
17.0290483405829
20
-1.2237689624524
30
0
41
1
10
16.9969087059243
20
-1.2190450770575
30
0
41
1
10
16.9813840532663
20
-1.21632615064271
30
0
41
1
10
16.9506000770764
20
-1.21054061551803
30
0
41
1
10
16.9353522635582
20
-1.2074680818917
30
0
41
1
10
16.9044576095331
20
-1.20135832913846
30
0
41
1
10
16.888813110903
20
-1.19832562700069
30
0
41
1
10
16.8574092561466
20
-1.19216406333348
30
0
41
1
10
16.8416518007484
20
-1.18903406247975
30
0
41
1
10
16.8103256817448
20
-1.18248163822895
30
0
41
1
10
16.794773816962
20
-1.17904517663428
30
0
41
1
10
16.7480904595788
20
-1.16848089115567
30
0
41
1
10
16.7168656361692
20
-1.1611510344504
30
0
41
1
10
16.6231596615251
20
-1.13813293478029
30
0
41
1
10
16.5606574105895
20
-1.121351715266
30
0
41
1
10
16.4356473890326
20
-1.08516741781941
30
0
41
1
10
16.373222532316
20
-1.06575631937517
30
0
41
1
10
16.2484092311661
20
-1.02441360289259
30
0
41
1
10
16.1859865830938
20
-1.00251646607637
30
0
41
1
10
16.061008815067
20
-0.956389243429612
30
0
41
1
10
15.9983993297386
20
-0.932132345399452
30
0
41
1
10
15.8109145062061
20
-0.856256470721576
30
0
41
1
10
15.6862790190234
20
-0.801469626406458
30
0
41
1
10
15.4993340891033
20
-0.713662605725943
30
0
41
1
10
15.4369894708506
20
-0.683498190631383
30
0
41
1
10
15.3121206047764
20
-0.621548261535764
30
0
41
1
10
15.2495453021206
20
-0.589721401630214
30
0
41
1
10
15.0622374935197
20
-0.492416655728647
30
0
41
1
10
14.9376946356388
20
-0.4250486690743
30
0
41
1
10
14.7507969698029
20
-0.321188860837822
30
0
41
1
10
14.6884452895649
20
-0.28616488722156
30
0
41
1
10
14.5635214537601
20
-0.215506313503198
30
0
41
1
10
14.5009174257619
20
-0.179833199045589
30
0
41
1
10
14.3135162746347
20
-0.0725758771671678
30
0
41
1
10
14.1888779606513
20
-0.0005922874169357
30
0
41
1
10
14.0018392325985
20
0.107186142845677
30
0
41
1
10
13.9394502143962
20
0.143028519312338
30
0
41
1
10
13.8144889967059
20
0.214375617590122
30
0
41
1
10
13.7519028202989
20
0.249895404020521
30
0
41
1
10
13.5646156171194
20
0.35523241318117
30
0
41
1
10
13.4400949266617
20
0.423989322348547
30
0
41
1
10
13.2532144696767
20
0.52390511838459
30
0
41
1
10
13.190870100528
20
0.556618185955642
30
0
41
1
10
13.0659541283208
20
0.62066014282334
30
0
41
1
10
13.0034039153526
20
0.651992407965224
30
0
41
1
10
12.8161707887047
20
0.743299807802913
30
0
41
1
10
12.6916148660712
20
0.800742866728569
30
0
41
1
10
12.5046270728822
20
0.880996329212081
30
0
41
1
10
12.4422412837692
20
0.90672113159107
30
0
41
1
10
12.317242893162
20
0.955972444456364
30
0
41
1
10
12.2546871313295
20
0.979483527210562
30
0
41
1
10
12.0674239529411
20
1.04627917052443
30
0
41
1
10
11.942863318414
20
1.08594740712289
30
0
41
1
10
11.7558972397097
20
1.13758739642461
30
0
41
1
10
11.6935155425097
20
1.15345634354486
30
0
41
1
10
11.568521229225
20
1.18241253536601
30
0
41
1
10
11.5060113478478
20
1.19548055161835
30
0
41
1
10
11.3188346033969
20
1.23027896188737
30
0
41
1
10
11.1943033044372
20
1.24765711757115
30
0
41
1
10
11.0072979643029
20
1.26472124438811
30
0
41
1
10
10.9448959669607
20
1.26889835472991
30
0
41
1
10
10.8198356630069
20
1.27420178272743
30
0
41
1
10
10.7573240467924
20
1.27532122265561
30
0
41
1
10
10.5700411842628
20
1.2741202568032
30
0
41
1
10
10.4454129302204
20
1.26725378746798
30
0
41
1
10
10.2583076441008
20
1.2478823115585
30
0
41
1
10
10.1958877970041
20
1.23991792049773
30
0
41
1
10
10.0708236512351
20
1.22099918887037
30
0
41
1
10
10.0083918447186
20
1.21007184291432
30
0
41
1
10
9.82130840185241
20
1.17300701947153
30
0
41
1
10
9.69679768424399
20
1.14260976026975
30
0
41
1
10
9.50975438605582
20
1.08889582933807
30
0
41
1
10
9.44730743100806
20
1.06965727625681
30
0
41
1
10
9.35000281503423
20
1.03775605082322
30
0
41
1
10
9.31526147885461
20
1.02598318817167
30
0
41
1
10
9.28054096610043
20
1.01384628973381
30
0
0
SPLINE
5
C4
100
AcDbEntity
8
1
62
256
6
ByLayer
370
18
48
1
60
0
100
AcDbSpline
70
4
71
3
72
22
73
18
40
0
40
0
40
0
40
0
40
0.0240330521068235
40
0.0240330521068235
40
0.186694210089019
40
0.186694210089019
40
0.349355368071215
40
0.349355368071215
40
0.512016526053411
40
0.512016526053411
40
0.593347105044509
40
0.593347105044509
40
0.674677684035607
40
0.674677684035607
40
0.837338842017804
40
0.837338842017804
40
1
40
1
40
1
40
1
41
1
10
17.424576331821
20
-0.499718906691498
30
0
41
1
10
17.4219457744948
20
-0.505336227385669
30
0
41
1
10
17.4192978391126
20
-0.510958030023602
30
0
41
1
10
17.3986138321071
20
-0.554669822986909
30
0
41
1
10
17.3798828529001
20
-0.592991667204046
30
0
41
1
10
17.3417995464491
20
-0.670051145051985
30
0
41
1
10
17.3224228672382
20
-0.70881194360922
30
0
41
1
10
17.2833132739197
20
-0.786798879614253
30
0
41
1
10
17.2635723636465
20
-0.826030649623704
30
0
41
1
10
17.2337500370453
20
-0.885442030622642
30
0
41
1
10
17.2237729549585
20
-0.905341491117298
30
0
41
1
10
17.2037745844203
20
-0.945327790856908
30
0
41
1
10
17.1937508962062
20
-0.96541905665373
30
0
41
1
10
17.1636350833343
20
-1.02588619514893
30
0
41
1
10
17.1434984156074
20
-1.06646653521145
30
0
41
1
10
17.1032432197194
20
-1.14734300331074
30
0
41
1
10
17.0831274568491
20
-1.18761341289834
30
0
41
1
10
17.0630577358523
20
-1.22737049364713
30
0
0
SPLINE
5
C5
100
AcDbEntity
8
1
62
256
6
ByLayer
370
18
48
1
60
0
100
AcDbSpline
70
4
71
3
72
68
73
64
40
0
40
0
40
0
40
0
40
0.029789080464734
40
0.029789080464734
40
0.0744169975578237
40
0.0744169975578237
40
0.0855739768310967
40
0.0855739768310967
40
0.0967309561043696
40
0.0967309561043696
40
0.119044914650916
40
0.119044914650916
40
0.163672831744009
40
0.163672831744009
40
0.185986790290555
40
0.185986790290555
40
0.208300748837101
40
0.208300748837101
40
0.297556583023284
40
0.297556583023284
40
0.342184500116376
40
0.342184500116376
40
0.364498458662921
40
0.364498458662921
40
0.386812417209468
40
0.386812417209468
40
0.431440334302564
40
0.431440334302564
40
0.453754292849112
40
0.453754292849112
40
0.476068251395659
40
0.476068251395659
40
0.520696168488757
40
0.520696168488757
40
0.565324085581854
40
0.565324085581854
40
0.609952002674951
40
0.609952002674951
40
0.632265961221499
40
0.632265961221499
40
0.654579919768047
40
0.654579919768047
40
0.69920783686114
40
0.69920783686114
40
0.721521795407687
40
0.721521795407687
40
0.743835753954234
40
0.743835753954234
40
0.788463671047326
40
0.788463671047326
40
0.833091588140417
40
0.833091588140417
40
0.877719505233509
40
0.877719505233509
40
0.900033463780056
40
0.900033463780056
40
0.922347422326603
40
0.922347422326603
40
0.966975339419696
40
0.966975339419696
40
0.989289297966242
40
0.989289297966242
40
1
40
1
40
1
40
1
41
1
10
7.83004704803997
20
1.27500061499723
30
0
41
1
10
7.91268153393386
20
1.27500423401023
30
0
41
1
10
7.99529287046826
20
1.27232919716212
30
0
41
1
10
8.20189821431381
20
1.25891403261056
30
0
41
1
10
8.32615479525253
20
1.24484922874768
30
0
41
1
10
8.48241919079081
20
1.21978024674658
30
0
41
1
10
8.51371901528981
20
1.21439164781933
30
0
41
1
10
8.57642637616834
20
1.20286529052547
30
0
41
1
10
8.60783276763846
20
1.19672681118632
30
0
41
1
10
8.70189649010598
20
1.1772594619776
30
0
41
1
10
8.76450340641344
20
1.16285516227873
30
0
41
1
10
8.95218436571025
20
1.11549310595419
30
0
41
1
10
9.07726039449162
20
1.07850302200245
30
0
41
1
10
9.26532467793683
20
1.01537787935342
30
0
41
1
10
9.32819437618804
20
0.993017537692339
30
0
41
1
10
9.45343880931316
20
0.94608753958255
30
0
41
1
10
9.51584069583714
20
0.921503357765147
30
0
41
1
10
9.82705020936677
20
0.79340652223334
30
0
41
1
10
10.0738703424944
20
0.674914361919463
30
0
41
1
10
10.4458943723108
20
0.480744000575839
30
0
41
1
10
10.5703009422056
20
0.413444454133895
30
0
41
1
10
10.7580109387691
20
0.309389630912534
30
0
41
1
10
10.8208664859582
20
0.274113045234174
30
0
41
1
10
10.9462854831835
20
0.203041232070376
30
0
41
1
10
11.0088818084377
20
0.167227416972054
30
0
41
1
10
11.1965175151507
20
0.0592741785877422
30
0
41
1
10
11.3215343209136
20
-0.0131502269338455
30
0
41
1
10
11.5095385572803
20
-0.12144422808683
30
0
41
1
10
11.5723876294005
20
-0.157540109266677
30
0
41
1
10
11.6975598955971
20
-0.228998126308369
30
0
41
1
10
11.7599342268885
20
-0.264409632538275
30
0
41
1
10
11.9465990138233
20
-0.369399010435728
30
0
41
1
10
12.0705783692747
20
-0.437477539314415
30
0
41
1
10
12.3183217460887
20
-0.568732431285042
30
0
41
1
10
12.4420700382168
20
-0.631934049256614
30
0
41
1
10
12.6900269816177
20
-0.752327231233437
30
0
41
1
10
12.8143737925588
20
-0.809312230476195
30
0
41
1
10
13.0020022336986
20
-0.88908838722827
30
0
41
1
10
13.0648313409243
20
-0.914767087525433
30
0
41
1
10
13.1901760097844
20
-0.963757000626856
30
0
41
1
10
13.2527406058633
20
-0.98710481532828
30
0
41
1
10
13.4403003149854
20
-1.05349651499199
30
0
41
1
10
13.5653000419129
20
-1.09274572570638
30
0
41
1
10
13.7533523711391
20
-1.14355165723259
30
0
41
1
10
13.816216387623
20
-1.15915733860729
30
0
41
1
10
13.9413982384777
20
-1.1874105011714
30
0
41
1
10
14.0037923376848
20
-1.20008571827725
30
0
41
1
10
14.1905348161573
20
-1.23372608160591
30
0
41
1
10
14.314557450611
20
-1.25025007799576
30
0
41
1
10
14.5623448697868
20
-1.27145425899789
30
0
41
1
10
14.6860979563442
20
-1.27613673313584
30
0
41
1
10
14.9340154907108
20
-1.27339890018931
30
0
41
1
10
15.0583500866844
20
-1.26598126953078
30
0
41
1
10
15.2459972722406
20
-1.2456886094773
30
0
41
1
10
15.30883563198
20
-1.23737896855488
30
0
41
1
10
15.4341971684173
20
-1.21782355697667
30
0
41
1
10
15.4967850843311
20
-1.20657122292872
30
0
41
1
10
15.684447882525
20
-1.1685020274094
30
0
41
1
10
15.8095495592009
20
-1.1374600878539
30
0
41
1
10
15.9977251470159
20
-1.08283130879479
30
0
41
1
10
16.0605927022979
20
-1.06324747134056
30
0
41
1
10
16.1533242387627
20
-1.03246662859541
30
0
41
1
10
16.1833663006804
20
-1.02219914331616
30
0
41
1
10
16.2133808453653
20
-1.01165343174654
30
0
0
SPLINE
5
C6
100
AcDbEntity
8
1
62
256
6
ByLayer
370
18
48
1
60
0
100
AcDbSpline
70
4
71
3
72
49
73
45
40
0
40
0
40
0
40
0
40
0.016208890527001
40
0.0429463101446793
40
0.0563150199535187
40
0.083052439571197
40
0.109789859188875
40
0.136527278806554
40
0.163264698424232
40
0.190002118041911
40
0.20337082785075
40
0.230108247468428
40
0.256845667086107
40
0.283583086703785
40
0.310320506321463
40
0.337057925939142
40
0.3571109906524
40
0.377164055365659
40
0.403901474983338
40
0.430638894601016
40
0.457376314218695
40
0.484113733836373
40
0.510851153454051
40
0.524219863262891
40
0.550957282880569
40
0.577694702498247
40
0.604432122115926
40
0.631169541733604
40
0.657906961351283
40
0.671275671160122
40
0.6980130907778
40
0.724750510395479
40
0.751487930013157
40
0.778225349630835
40
0.804962769248514
40
0.825015833961772
40
0.845068898675031
40
0.87180631829271
40
0.898543737910388
40
0.925281157528067
40
0.952018577145745
40
0.972071641859004
40
0.992124706572263
40
1
40
1
40
1
40
1
41
1
10
10.9156339121345
20
0.234772165865593
30
0
41
1
10
10.9354919917204
20
0.232834172088673
30
0
41
1
10
10.9881070206979
20
0.227621692469086
30
0
41
1
10
11.0571005243715
20
0.220521883542062
30
0
41
1
10
11.1389928978497
20
0.211816268477804
30
0
41
1
10
11.2208852713332
20
0.202856495668073
30
0
41
1
10
11.319156119496
20
0.191709959223829
30
0
41
1
10
11.4174269677087
20
0.180187492229635
30
0
41
1
10
11.5156978157365
20
0.168307506689047
30
0
41
1
10
11.5975901898312
20
0.158129481889972
30
0
41
1
10
11.6794825604742
20
0.147754454261644
30
0
41
1
10
11.7613749446406
20
0.137188355169713
30
0
41
1
10
11.8596457650443
20
0.124213388947908
30
0
41
1
10
11.9579163707457
20
0.111013991129511
30
0
41
1
10
12.0561868204199
20
0.0976134407370068
30
0
41
0.999999999999999
10
12.1462679337456
20
0.0851599647706963
30
0
41
1
10
12.2281597679927
20
0.0737213010993116
30
0
41
1
10
12.3100515369529
20
0.0621913351403407
30
0
41
1
10
12.4001324123535
20
0.0494029408439474
30
0
41
1
10
12.4984023918976
20
0.0353447075132181
30
0
41
1
10
12.5966723266835
20
0.0211893836883803
30
0
41
1
10
12.6949422382823
20
0.0070046678113158
30
0
41
1
10
12.7768338299382
20
-0.004817205802425
30
0
41
1
10
12.8587254340699
20
-0.0166284993939314
30
0
41
1
10
12.9406170574229
20
-0.0284226115451247
30
0
41
1
10
13.038887057761
20
-0.0425235518935096
30
0
41
1
10
13.1371571320249
20
-0.0565485970307975
30
0
41
1
10
13.2354273016607
20
-0.0704737379294045
30
0
41
1
10
13.31731920764
20
-0.0819821395922418
30
0
41
1
10
13.3992111983224
20
-0.0933836023564254
30
0
41
1
10
13.4811032900644
20
-0.104654028417371
30
0
41
1
10
13.5793739480409
20
-0.117956041729599
30
0
41
1
10
13.677644577825
20
-0.131014203134896
30
0
41
1
10
13.7759152122657
20
-0.143806598115475
30
0
41
1
10
13.8659966238873
20
-0.155266239199051
30
0
41
1
10
13.9478888161788
20
-0.165460005901082
30
0
41
1
10
14.0297810078038
20
-0.175452030132277
30
0
41
1
10
14.1198624183054
20
-0.186175796599599
30
0
41
1
10
14.2181330479258
20
-0.197488450145215
30
0
41
1
10
14.3164036779567
20
-0.208404373026013
30
0
41
1
10
14.4064850895714
20
-0.218031986826389
30
0
41
1
10
14.4883772828501
20
-0.226472034931362
30
0
41
1
10
14.5471608761324
20
-0.232333136844687
30
0
41
1
10
14.5813768114789
20
-0.235662116476959
30
0
41
1
10
14.5910250883377
20
-0.236594206451514
30
0
0
SPLINE
5
C7
100
AcDbEntity
8
1
62
256
6
ByLayer
370
18
48
1
60
0
100
AcDbSpline
70
4
71
3
72
26
73
22
40
0
40
0
40
0
40
0
40
0.0552975282271768
40
0.0552975282271768
40
0.110595056454353
40
0.110595056454353
40
0.16589258468153
40
0.16589258468153
40
0.221190112908707
40
0.221190112908707
40
0.276487641135884
40
0.276487641135884
40
0.331785169363061
40
0.331785169363061
40
0.442380225817433
40
0.442380225817433
40
0.663570338726176
40
0.663570338726176
40
0.88476045163492
40
0.88476045163492
40
1
40
1
40
1
40
1
41
1
10
17.0630577358524
20
1.22737049364713
30
0
41
1
10
17.0457304098081
20
1.22574486954238
30
0
41
1
10
17.0290483405829
20
1.2237689624524
30
0
41
1
10
16.9969087059243
20
1.21904507705753
30
0
41
1
10
16.9813840532663
20
1.21632615064271
30
0
41
1
10
16.9506000770763
20
1.21054061551803
30
0
41
1
10
16.9353522635581
20
1.2074680818917
30
0
41
1
10
16.9044576095331
20
1.20135832913846
30
0
41
1
10
16.888813110903
20
1.19832562700069
30
0
41
1
10
16.8574092561466
20
1.19216406333348
30
0
41
1
10
16.8416518007484
20
1.18903406247975
30
0
41
1
10
16.8103256817448
20
1.18248163822895
30
0
41
1
10
16.794773816962
20
1.17904517663428
30
0
41
1
10
16.7480904595788
20
1.16848089115567
30
0
41
1
10
16.7168656361692
20
1.1611510344504
30
0
41
1
10
16.6231596615251
20
1.13813293478029
30
0
41
1
10
16.5606574105895
20
1.12135171526603
30
0
41
1
10
16.4356473890327
20
1.08516741781941
30
0
41
1
10
16.373222532316
20
1.06575631937514
30
0
41
1
10
16.2783021579916
20
1.03431523026077
30
0
41
1
10
16.2457840919031
20
1.02321277571542
30
0
41
1
10
16.2132545788093
20
1.01178598421492
30
0
0
SPLINE
5
C8
100
AcDbEntity
8
1
62
256
6
ByLayer
370
18
48
1
60
0
100
AcDbSpline
70
4
71
3
72
52
73
48
40
0
40
0
40
0
40
0
40
0.0045789238569786
40
0.0045789238569786
40
0.0709403289331769
40
0.0709403289331769
40
0.104121031471277
40
0.104121031471277
40
0.137301734009377
40
0.137301734009377
40
0.203663139085577
40
0.203663139085577
40
0.236843841623678
40
0.236843841623678
40
0.270024544161778
40
0.270024544161778
40
0.336385949237978
40
0.336385949237978
40
0.369566651776078
40
0.369566651776078
40
0.402747354314178
40
0.402747354314178
40
0.469108759390378
40
0.469108759390378
40
0.50228946192848
40
0.50228946192848
40
0.535470164466581
40
0.535470164466581
40
0.601831569542785
40
0.601831569542785
40
0.635012272080887
40
0.635012272080887
40
0.668192974618989
40
0.668192974618989
40
0.734554379695191
40
0.734554379695191
40
0.767735082233292
40
0.767735082233292
40
0.800915784771394
40
0.800915784771394
40
0.867277189847597
40
0.867277189847597
40
0.900457892385697
40
0.900457892385697
40
0.933638594923798
40
0.933638594923798
40
1
40
1
40
1
40
1
41
1
10
10.7207460138405
20
-1.27499977409676
30
0
41
1
10
10.7121279996321
20
-1.27500244706761
30
0
41
1
10
10.7035114129913
20
-1.27497614497605
30
0
41
1
10
10.5700411842628
20
-1.2741202568032
30
0
41
1
10
10.4454129302204
20
-1.26725378746798
30
0
41
1
10
10.2583076441008
20
-1.2478823115585
30
0
41
1
10
10.1958877970041
20
-1.23991792049773
30
0
41
1
10
10.0708236512351
20
-1.22099918887037
30
0
41
1
10
10.0083918447186
20
-1.21007184291432
30
0
41
1
10
9.82130840185241
20
-1.17300701947155
30
0
41
1
10
9.69679768424399
20
-1.14260976026978
30
0
41
1
10
9.50975438605582
20
-1.08889582933807
30
0
41
1
10
9.44730743100808
20
-1.06965727625681
30
0
41
1
10
9.3222371854298
20
-1.02865311567001
30
0
41
1
10
9.25979314572982
20
-1.00694212322918
30
0
41
1
10
9.07260627465001
20
-0.938351395547897
30
0
41
1
10
8.94801467455309
20
-0.888012235740035
30
0
41
1
10
8.76090754210409
20
-0.806166800762441
30
0
41
1
10
8.69842123770911
20
-0.777854004111532
30
0
41
1
10
8.57339626341133
20
-0.719435119169191
30
0
41
1
10
8.51098457468902
20
-0.689377814323024
30
0
41
1
10
8.32390737235656
20
-0.596887104469431
30
0
41
1
10
8.1994024235735
20
-0.532131891610049
30
0
41
1
10
8.01235311994728
20
-0.431276311564886
30
0
41
1
10
7.94986247334731
20
-0.397053214179152
30
0
41
1
10
7.82488615117751
20
-0.32784392847401
30
0
41
1
10
7.7624814822741
20
-0.292884184690053
30
0
41
1
10
7.57537455067012
20
-0.187189612944678
30
0
41
1
10
7.4507776215583
20
-0.115643307721996
30
0
41
1
10
7.26355153458428
20
-0.0076312853083493
30
0
41
1
10
7.20098875775778
20
0.0284789990678007
30
0
41
1
10
7.07596448517063
20
0.100424768086413
30
0
41
1
10
7.01354145067623
20
0.136256799678449
30
0
41
1
10
6.8264020793676
20
0.243096394017016
30
0
41
1
10
6.70182766670774
20
0.313469733135065
30
0
41
1
10
6.51470182900141
20
0.416804791203475
30
0
41
1
10
6.45217124186476
20
0.450847996501864
30
0
41
1
10
6.32725724479209
20
0.517632934381538
30
0
41
1
10
6.26487474085118
20
0.5503862224611
30
0
41
1
10
6.07780735315509
20
0.646515881692778
30
0
41
1
10
5.9531855272713
20
0.707737597074583
30
0
41
1
10
5.76580178697668
20
0.794375414590689
30
0
41
1
10
5.70325142227617
20
0.82232588722573
30
0
41
1
10
5.57836380584354
20
0.876016425570498
30
0
41
1
10
5.51596591556793
20
0.901797178390467
30
0
41
1
10
5.32878468473905
20
0.975810897016856
30
0
41
1
10
5.20402860615019
20
1.0207391932297
30
0
41
1
10
5.07897
20
1.06081244479074
30
0
0
SPLINE
5
C9
100
AcDbEntity
8
1
62
256
6
ByLayer
370
18
48
1
60
0
100
AcDbSpline
70
4
71
3
72
34
73
30
40
0
40
0
40
0
40
0
40
0.076990105812831
40
0.105861395492643
40
0.134732685172454
40
0.17322773807887
40
0.211722790985285
40
0.250217843891701
40
0.288712896798116
40
0.327207949704532
40
0.346455476157739
40
0.384950529064155
40
0.42344558197057
40
0.461940634876986
40
0.500435687783401
40
0.538930740689817
40
0.567802030369628
40
0.59667332004944
40
0.635168372955855
40
0.673663425862271
40
0.712158478768686
40
0.750653531675102
40
0.779524821354913
40
0.808396111034725
40
0.846891163941141
40
0.885386216847556
40
0.923881269753971
40
0.962376322660387
40
1
40
1
40
1
40
1
41
1
10
5.07897
20
0.102836562808022
30
0
41
1
10
5.14448391782395
20
0.0938820553348875
30
0
41
1
10
5.23456555483185
20
0.0814060973449387
30
0
41
1
10
5.34921491102375
20
0.0653081733758256
30
0
41
1
10
5.43110730830364
20
0.0537338844487749
30
0
41
1
10
5.52118894531156
20
0.0409172320588027
30
0
41
1
10
5.61945982204745
20
0.0268451461831773
30
0
41
0.999999999999999
10
5.71773069878339
20
0.0127059961556881
30
0
41
1
10
5.81600157551923
20
-0.0014862832385347
30
0
41
1
10
5.89789397279915
20
-0.0133285231514719
30
0
41
1
10
5.97978637007921
20
-0.025135536687884
30
0
41
1
10
6.06167876735856
20
-0.0369092889894773
30
0
41
1
10
6.15994964409603
20
-0.0509657333926441
30
0
41
1
10
6.25822052082722
20
-0.0649255263130897
30
0
41
1
10
6.35649139758101
20
-0.0787567367706856
30
0
41
1
10
6.44657303450956
20
-0.0912984558082712
30
0
41
1
10
6.52846543217501
20
-0.102573399330737
30
0
41
1
10
6.610357827613
20
-0.113734983299764
30
0
41
1
10
6.70043947096124
20
-0.125811989368429
30
0
41
1
10
6.79871031875734
20
-0.138716682870665
30
0
41
1
10
6.89698112965641
20
-0.151332987047965
30
0
41
1
10
6.98706267662641
20
-0.162616848653215
30
0
41
1
10
7.06895497063231
20
-0.172637555120104
30
0
41
1
10
7.15084724795745
20
-0.182448346950849
30
0
41
1
10
7.24092873360809
20
-0.192953293563704
30
0
41
1
10
7.33919942442538
20
-0.204055003421587
30
0
41
1
10
7.43747009782533
20
-0.214746856576795
30
0
41
1
10
7.53499927099409
20
-0.224927655582945
30
0
41
1
10
7.59977155076916
20
-0.231399700150604
30
0
41
1
10
7.63178694642863
20
-0.234525340876871
30
0
0
SPLINE
5
CA
100
AcDbEntity
8
1
62
256
6
ByLayer
370
18
48
1
60
0
100
AcDbSpline
70
4
71
3
72
26
73
22
40
0
40
0
40
0
40
0
40
0.0624999999999999
40
0.0624999999999999
40
0.125
40
0.125
40
0.25
40
0.25
40
0.375
40
0.375
40
0.5
40
0.5
40
0.624999999999999
40
0.624999999999999
40
0.687499999999999
40
0.687499999999999
40
0.749999999999999
40
0.749999999999999
40
0.875
40
0.875
40
1
40
1
40
1
40
1
41
1
10
17.5089643942654
20
0.288921307884578
30
0
41
1
10
17.5035394827555
20
0.308059640303242
30
0
41
1
10
17.4971919945895
20
0.327071198002642
30
0
41
1
10
17.4833097954497
20
0.364995850817621
30
0
41
1
10
17.4757727596989
20
0.383908654284682
30
0
41
1
10
17.4520042401429
20
0.440653393013235
30
0
41
1
10
17.4346565624052
20
0.478500231466114
30
0
41
1
10
17.3986138321071
20
0.554669822986909
30
0
41
1
10
17.3798828529001
20
0.592991667204046
30
0
41
1
10
17.3417995464491
20
0.670051145051957
30
0
41
1
10
17.3224228672382
20
0.70881194360922
30
0
41
1
10
17.2833132739197
20
0.786798879614253
30
0
41
1
10
17.2635723636465
20
0.826030649623704
30
0
41
1
10
17.2337500370452
20
0.885442030622642
30
0
41
1
10
17.2237729549585
20
0.905341491117298
30
0
41
1
10
17.2037745844202
20
0.945327790856908
30
0
41
1
10
17.1937508962062
20
0.96541905665373
30
0
41
1
10
17.1636350833342
20
1.02588619514893
30
0
41
1
10
17.1434984156074
20
1.06646653521145
30
0
41
1
10
17.1032432197194
20
1.14734300331074
30
0
41
1
10
17.0831274568491
20
1.18761341289834
30
0
41
1
10
17.0630577358524
20
1.22737049364713
30
0
0
SPLINE
5
CB
100
AcDbEntity
8
1
62
256
6
ByLayer
370
18
48
1
60
0
100
AcDbSpline
70
4
71
3
72
47
73
43
40
0
40
0
40
0
40
0
40
0.125000000000006
40
0.125000000000006
40
0.18750000000001
40
0.18750000000001
40
0.250000000000013
40
0.250000000000013
40
0.312500000000016
40
0.312500000000016
40
0.375000000000019
40
0.375000000000019
40
0.437500000000022
40
0.437500000000022
40
0.500000000000026
40
0.500000000000026
40
0.531250000000026
40
0.531250000000026
40
0.562500000000026
40
0.562500000000026
40
0.625000000000029
40
0.625000000000029
40
0.687500000000031
40
0.687500000000031
40
0.703125000000031
40
0.703125000000031
40
0.718750000000031
40
0.750000000000029
40
0.750000000000029
40
0.812500000000023
40
0.812500000000023
40
0.828125000000021
40
0.828125000000021
40
0.843750000000019
40
0.843750000000019
40
0.875000000000016
40
0.875000000000016
40
0.937500000000008
40
0.937500000000008
40
0.968750000000004
40
0.968750000000004
40
1
40
1
40
1
40
1
41
1
10
5.07897000000003
20
-0.407987007191764
30
0
41
1
10
4.98181512907456
20
-0.381170728232632
30
0
41
1
10
4.88661687045041
20
-0.348988327404868
30
0
41
1
10
4.7467517089147
20
-0.292143033347315
30
0
41
1
10
4.70064133117245
20
-0.271763743968592
30
0
41
1
10
4.609931961131
20
-0.228257882925931
30
0
41
1
10
4.56526824941628
20
-0.205106587667785
30
0
41
1
10
4.47734781827904
20
-0.155884551346247
30
0
41
1
10
4.43397526753992
20
-0.129732830318147
30
0
41
1
10
4.34957142490896
20
-0.0749251951070562
30
0
41
1
10
4.3084745271112
20
-0.0462438226597897
30
0
41
1
10
4.22855065403473
20
0.0137180017434844
30
0
41
1
10
4.18972299511944
20
0.0449977319837842
30
0
41
1
10
4.11445101948482
20
0.110259073636343
30
0
41
1
10
4.07800539650029
20
0.14423929652952
30
0
41
1
10
4.02527149975401
20
0.197380370897093
30
0
41
1
10
4.00801671332937
20
0.215456670211978
30
0
41
1
10
3.97419038572005
20
0.252371881215737
30
0
41
1
10
3.95756431604062
20
0.271276600207045
30
0
41
1
10
3.90922604835077
20
0.32867581313883
30
0
41
1
10
3.87912370586287
20
0.36773639367911
30
0
41
1
10
3.82345659477184
20
0.447380934163817
30
0
41
1
10
3.7978863792589
20
0.48796367105922
30
0
41
1
10
3.76911577850956
20
0.539654561482422
30
0
41
1
10
3.76352282389871
20
0.550042290160292
30
0
41
1
10
3.75277024305655
20
0.570717264729183
30
0
41
1
10
3.73725036833292
20
0.601651729110728
30
0
41
1
10
3.72356203582771
20
0.632334914843483
30
0
41
1
10
3.69867461044262
20
0.693319685215641
30
0
41
1
10
3.68538373566534
20
0.733468782448625
30
0
41
1
10
3.67328377668844
20
0.782853593384658
30
0
41
1
10
3.67109090005664
20
0.792690370635313
30
0
41
1
10
3.66717552307355
20
0.812278835267591
30
0
41
1
10
3.66545437220776
20
0.82203411555011
30
0
41
1
10
3.66107133534098
20
0.85078990859364
30
0
41
1
10
3.65916079415092
20
0.869408869097157
30
0
41
1
10
3.65639832440354
20
0.923633870292207
30
0
41
1
10
3.6584972443822
20
0.957613727633145
30
0
41
1
10
3.66763249966823
20
1.00531443653344
30
0
41
1
10
3.67170224004516
20
1.02071082470863
30
0
41
1
10
3.68173119779749
20
1.04994014396107
30
0
41
1
10
3.68769414577113
20
1.06382847441426
30
0
41
1
10
3.69458460410718
20
1.07702118201175
30
0
0
LINE
5
7F
100
AcDbEntity
8
1
62
256
6
ByLayer
370
18
48
1
60
0
100
AcDbLine
10
0.157644
20
1.408975
30
0
11
0
21
1.49999
31
0
39
0
210
0
220
0
230
1
0
LINE
5
80
100
AcDbEntity
8
1
62
256
6
ByLayer
370
18
48
1
60
0
100
AcDbLine
10
0
20
-1.49999
30
0
11
0.157644
21
-1.408975
31
0
39
0
210
0
220
0
230
1
0
LINE
5
81
100
AcDbEntity
8
1
62
256
6
ByLayer
370
18
48
1
60
0
100
AcDbLine
10
17.6576
20
0
30
0
11
17.423946
21
0.501072
31
0
39
0
210
0
220
0
230
1
0
LINE
5
82
100
AcDbEntity
8
1
62
256
6
ByLayer
370
18
48
1
60
0
100
AcDbLine
10
17.423946
20
-0.501072
30
0
11
17.6576
21
0
31
0
39
0
210
0
220
0
230
1
0
LINE
5
83
100
AcDbEntity
8
1
62
256
6
ByLayer
370
18
48
1
60
0
100
AcDbLine
10
0.657644
20
-1.275
30
0
11
7.830085
21
-1.275
31
0
39
0
210
0
220
0
230
1
0
LINE
5
84
100
AcDbEntity
8
1
62
256
6
ByLayer
370
18
48
1
60
0
100
AcDbLine
10
10.720299
20
-1.275
30
0
11
14.767193
21
-1.275
31
0
39
0
210
0
220
0
230
1
0
LINE
5
85
100
AcDbEntity
8
1
62
256
6
ByLayer
370
18
48
1
60
0
100
AcDbLine
10
14.767193
20
1.275
30
0
11
10.720299
21
1.275
31
0
39
0
210
0
220
0
230
1
0
LINE
5
86
100
AcDbEntity
8
1
62
256
6
ByLayer
370
18
48
1
60
0
100
AcDbLine
10
7.830085
20
1.275
30
0
11
0.657644
21
1.275
31
0
39
0
210
0
220
0
230
1
0
LINE
5
87
100
AcDbEntity
8
SK1
62
256
6
ByLayer
370
18
48
1
60
0
100
AcDbLine
10
-20.3424
20
-1.326795
30
0
11
-20.0424
21
-1.5
31
0
39
0
210
0
220
0
230
1
0
LINE
5
89
100
AcDbEntity
8
SK1
62
256
6
ByLayer
370
18
48
1
60
0
100
AcDbLine
10
-20.0424
20
1.5
30
0
11
-20.3424
21
1.326795
31
0
39
0
210
0
220
0
230
1
0
LINE
5
8A
100
AcDbEntity
8
SK1
62
256
6
ByLayer
370
18
48
1
60
0
100
AcDbLine
10
-20.0424
20
-1.5
30
0
11
-1.7E-05
21
-1.5
31
0
39
0
210
0
220
0
230
1
0
LINE
5
8B
100
AcDbEntity
8
SK1
62
256
6
ByLayer
370
18
48
1
60
0
100
AcDbLine
10
-1.7E-05
20
1.5
30
0
11
-20.0424
21
1.5
31
0
39
0
210
0
220
0
230
1
0
LINE
5
8C
100
AcDbEntity
8
1
62
256
6
ByLayer
370
18
48
1
60
0
100
AcDbLine
10
0
20
-1.49999
30
0
11
0
21
0
31
0
39
0
210
0
220
0
230
1
0
LINE
5
8D
100
AcDbEntity
8
1
62
256
6
ByLayer
370
18
48
1
60
0
100
AcDbLine
10
0
20
0
30
0
11
0
21
1.49999
31
0
39
0
210
0
220
0
230
1
0
LINE
5
8E
100
AcDbEntity
8
1
62
256
6
ByLayer
370
18
48
1
60
0
100
AcDbLine
10
17.063058
20
0.651748
30
0
11
17.063058
21
-1.22737
31
0
39
0
210
0
220
0
230
1
0
LINE
5
8F
100
AcDbEntity
8
1
62
256
6
ByLayer
370
18
48
1
60
0
100
AcDbLine
10
5.07897
20
1.060812
30
0
11
5.07897
21
0.102837
31
0
39
0
210
0
220
0
230
1
0
LINE
5
90
100
AcDbEntity
8
1
62
256
6
ByLayer
370
13
48
1
60
0
100
AcDbLine
10
0.657644
20
1.275
30
0
11
0.657644
21
-1.275
31
0
39
0
210
0
220
0
230
1
0
LINE
5
91
100
AcDbEntity
8
1
62
256
6
ByLayer
370
18
48
1
60
0
100
AcDbLine
10
5.07897
20
0.102837
30
0
11
5.07897
21
-0.407987
31
0
39
0
210
0
220
0
230
1
0
LINE
5
92
100
AcDbEntity
8
1
62
256
6
ByLayer
370
13
48
1
60
0
100
AcDbLine
10
0.157644
20
1.408975
30
0
11
0.157644
21
-1.408975
31
0
39
0
210
0
220
0
230
1
0
LINE
5
93
100
AcDbEntity
8
SK1
62
256
6
ByLayer
370
18
48
1
60
0
100
AcDbLine
10
-20.3424
20
1.326795
30
0
11
-20.3424
21
-1.326795
31
0
39
0
210
0
220
0
230
1
0
LINE
5
94
100
AcDbEntity
8
SK1
62
256
6
ByLayer
370
18
48
1
60
0
100
AcDbLine
10
-20.0424
20
1.5
30
0
11
-20.0424
21
-1.5
31
0
39
0
210
0
220
0
230
1
0
LINE
5
95
100
AcDbEntity
8
SK1
62
256
6
ByLayer
370
18
48
1
60
0
100
AcDbLine
10
0
20
-1.49999
30
0
11
0
21
0
31
0
39
0
210
0
220
0
230
1
0
LINE
5
96
100
AcDbEntity
8
SK1
62
256
6
ByLayer
370
18
48
1
60
0
100
AcDbLine
10
0
20
0
30
0
11
0
21
1.49999
31
0
39
0
210
0
220
0
230
1
0
LINE
5
97
100
AcDbEntity
8
SK1
62
256
6
ByLayer
370
18
48
1
60
0
100
AcDbLine
10
-1.7E-05
20
1.5
30
0
11
-1.7E-05
21
-1.5
31
0
39
0
210
0
220
0
230
1
0
LINE
5
98
100
AcDbEntity
8
4
62
256
6
ByLayer
370
18
48
0.05
60
0
100
AcDbLine
10
0
20
0
30
0
11
17.6576
21
0
31
0
39
0
210
0
220
0
230
1
0
LINE
5
9A
100
AcDbEntity
8
81
62
256
6
ByLayer
370
18
48
1
60
0
100
AcDbLine
10
17.6576
20
0
30
0
11
20.6576
21
0
31
0
39
0
210
0
220
0
230
1
0
LINE
5
9B
100
AcDbEntity
8
80
62
256
6
ByLayer
370
18
48
1
60
0
100
AcDbLine
10
0
20
0
30
0
11
-3
21
0
31
0
39
0
210
0
220
0
230
1
0
LINE
5
9C
100
AcDbEntity
8
SK4
62
256
6
ByLayer
370
18
48
0.05
60
0
100
AcDbLine
10
-23.3424
20
0
30
0
11
20.6576
21
0
31
0
39
0
210
0
220
0
230
1
0
LINE
5
9E
100
AcDbEntity
8
SK2
62
256
6
ByLayer
370
13
48
1
60
0
100
AcDbLine
10
-24.8424
20
-9
30
0
11
-24.8424
21
21.782741
31
0
39
0
210
0
220
0
230
1
0
LINE
5
A0
100
AcDbEntity
8
SK2
62
256
6
ByLayer
370
13
48
1
60
0
100
AcDbLine
10
-21.9299
20
-1.5
30
0
11
-26.8424
21
-1.5
31
0
39
0
210
0
220
0
230
1
0
LINE
5
A1
100
AcDbEntity
8
SK2
62
256
6
ByLayer
370
13
48
1
60
0
100
AcDbLine
10
-21.9299
20
1.5
30
0
11
-26.8424
21
1.5
31
0
39
0
210
0
220
0
230
1
0
LINE
5
A2
100
AcDbEntity
8
1
62
256
6
ByLayer
370
18
48
1
60
1
100
AcDbLine
10
-24.8424
20
-1.5
30
0
11
-24.381616
21
-4.999998
31
0
39
0
210
0
220
0
230
1
0
LINE
5
A3
100
AcDbEntity
8
1
62
256
6
ByLayer
370
18
48
1
60
1
100
AcDbLine
10
-24.381616
20
-4.999998
30
0
11
-25.303184
21
-5.000002
31
0
39
0
210
0
220
0
230
1
0
LINE
5
A4
100
AcDbEntity
8
1
62
256
6
ByLayer
370
18
48
1
60
1
100
AcDbLine
10
-25.303184
20
-5.000002
30
0
11
-24.8424
21
-1.5
31
0
39
0
210
0
220
0
230
1
0
LINE
5
A5
100
AcDbEntity
8
1
62
256
6
ByLayer
370
18
48
1
60
1
100
AcDbLine
10
-24.8424
20
1.5
30
0
11
-25.303184
21
4.999998
31
0
39
0
210
0
220
0
230
1
0
LINE
5
A6
100
AcDbEntity
8
1
62
256
6
ByLayer
370
18
48
1
60
1
100
AcDbLine
10
-25.303184
20
4.999998
30
0
11
-24.381616
21
5.000002
31
0
39
0
210
0
220
0
230
1
0
LINE
5
A7
100
AcDbEntity
8
1
62
256
6
ByLayer
370
18
48
1
60
1
100
AcDbLine
10
-24.381616
20
5.000002
30
0
11
-24.8424
21
1.5
31
0
39
0
210
0
220
0
230
1
0
LINE
5
A8
100
AcDbEntity
8
2
62
256
6
ByLayer
370
13
48
1
60
0
100
AcDbLine
10
23.1576
20
-8.775
30
0
11
23.1576
21
29.507741
31
0
39
0
210
0
220
0
230
1
0
LINE
5
AA
100
AcDbEntity
8
2
62
256
6
ByLayer
370
13
48
1
60
0
100
AcDbLine
10
19.2451
20
-1.275
30
0
11
25.1576
21
-1.275
31
0
39
0
210
0
220
0
230
1
0
LINE
5
AB
100
AcDbEntity
8
2
62
256
6
ByLayer
370
13
48
1
60
0
100
AcDbLine
10
19.2451
20
1.275
30
0
11
25.1576
21
1.275
31
0
39
0
210
0
220
0
230
1
0
LINE
5
AC
100
AcDbEntity
8
1
62
256
6
ByLayer
370
18
48
1
60
1
100
AcDbLine
10
23.1576
20
-1.275
30
0
11
23.618384
21
-4.774998
31
0
39
0
210
0
220
0
230
1
0
LINE
5
AD
100
AcDbEntity
8
1
62
256
6
ByLayer
370
18
48
1
60
1
100
AcDbLine
10
23.618384
20
-4.774998
30
0
11
22.696816
21
-4.775002
31
0
39
0
210
0
220
0
230
1
0
LINE
5
AE
100
AcDbEntity
8
1
62
256
6
ByLayer
370
18
48
1
60
1
100
AcDbLine
10
22.696816
20
-4.775002
30
0
11
23.1576
21
-1.275
31
0
39
0
210
0
220
0
230
1
0
LINE
5
AF
100
AcDbEntity
8
1
62
256
6
ByLayer
370
18
48
1
60
1
100
AcDbLine
10
23.1576
20
1.275
30
0
11
22.696816
21
4.774998
31
0
39
0
210
0
220
0
230
1
0
LINE
5
B0
100
AcDbEntity
8
1
62
256
6
ByLayer
370
18
48
1
60
1
100
AcDbLine
10
22.696816
20
4.774998
30
0
11
23.618384
21
4.775002
31
0
39
0
210
0
220
0
230
1
0
LINE
5
B1
100
AcDbEntity
8
1
62
256
6
ByLayer
370
18
48
1
60
1
100
AcDbLine
10
23.618384
20
4.775002
30
0
11
23.1576
21
1.275
31
0
39
0
210
0
220
0
230
1
0
LINE
5
B2
100
AcDbEntity
8
SK2
62
256
6
ByLayer
370
13
48
1
60
0
100
AcDbLine
10
18.328506
20
-1.438764
30
0
11
25.412645
21
-16.630748
31
0
39
0
210
0
220
0
230
1
0
LINE
5
B3
100
AcDbEntity
8
SK2
62
256
6
ByLayer
370
13
48
1
60
0
100
AcDbLine
10
18.328506
20
1.438764
30
0
11
25.412645
21
16.630748
31
0
39
0
210
0
220
0
230
1
0
LINE
5
B4
100
AcDbEntity
8
1
62
256
6
ByLayer
370
18
48
1
60
1
100
AcDbLine
10
24.567409
20
-14.818132
30
0
11
27.439442
21
-12.765394
31
0
39
0
210
0
220
0
230
1
0
LINE
5
B5
100
AcDbEntity
8
1
62
256
6
ByLayer
370
18
48
1
60
1
100
AcDbLine
10
27.439442
20
-12.765394
30
0
11
27.872871
21
-13.578675
31
0
39
0
210
0
220
0
230
1
0
LINE
5
B6
100
AcDbEntity
8
1
62
256
6
ByLayer
370
18
48
1
60
1
100
AcDbLine
10
27.872871
20
-13.578675
30
0
11
24.567409
21
-14.818132
31
0
39
0
210
0
220
0
230
1
0
LINE
5
B7
100
AcDbEntity
8
1
62
256
6
ByLayer
370
18
48
1
60
1
100
AcDbLine
10
24.567409
20
14.818132
30
0
11
27.872868
21
13.578677
31
0
39
0
210
0
220
0
230
1
0
LINE
5
B8
100
AcDbEntity
8
1
62
256
6
ByLayer
370
18
48
1
60
1
100
AcDbLine
10
27.872868
20
13.578677
30
0
11
27.439445
21
12.765392
31
0
39
0
210
0
220
0
230
1
0
LINE
5
B9
100
AcDbEntity
8
1
62
256
6
ByLayer
370
18
48
1
60
1
100
AcDbLine
10
27.439445
20
12.765392
30
0
11
24.567409
21
14.818132
31
0
39
0
210
0
220
0
230
1
0
LINE
5
D0
100
AcDbEntity
8
1
62
256
6
ByLayer
370
18
48
1
60
1
100
AcDbLine
10
-24.8424
20
-1.5
30
0
11
-24.381616
21
-4.999998
31
0
39
0
210
0
220
0
230
1
0
LINE
5
D1
100
AcDbEntity
8
1
62
256
6
ByLayer
370
18
48
1
60
1
100
AcDbLine
10
-24.381616
20
-4.999998
30
0
11
-25.303184
21
-5.000002
31
0
39
0
210
0
220
0
230
1
0
LINE
5
D2
100
AcDbEntity
8
1
62
256
6
ByLayer
370
18
48
1
60
1
100
AcDbLine
10
-25.303184
20
-5.000002
30
0
11
-24.8424
21
-1.5
31
0
39
0
210
0
220
0
230
1
0
LINE
5
D4
100
AcDbEntity
8
1
62
256
6
ByLayer
370
18
48
1
60
1
100
AcDbLine
10
-24.8424
20
1.5
30
0
11
-25.303184
21
4.999998
31
0
39
0
210
0
220
0
230
1
0
LINE
5
D5
100
AcDbEntity
8
1
62
256
6
ByLayer
370
18
48
1
60
1
100
AcDbLine
10
-25.303184
20
4.999998
30
0
11
-24.381616
21
5.000002
31
0
39
0
210
0
220
0
230
1
0
LINE
5
D6
100
AcDbEntity
8
1
62
256
6
ByLayer
370
18
48
1
60
1
100
AcDbLine
10
-24.381616
20
5.000002
30
0
11
-24.8424
21
1.5
31
0
39
0
210
0
220
0
230
1
0
LINE
5
DA
100
AcDbEntity
8
1
62
256
6
ByLayer
370
18
48
1
60
1
100
AcDbLine
10
23.1576
20
-1.275
30
0
11
23.618384
21
-4.774998
31
0
39
0
210
0
220
0
230
1
0
LINE
5
DB
100
AcDbEntity
8
1
62
256
6
ByLayer
370
18
48
1
60
1
100
AcDbLine
10
23.618384
20
-4.774998
30
0
11
22.696816
21
-4.775002
31
0
39
0
210
0
220
0
230
1
0
LINE
5
DC
100
AcDbEntity
8
1
62
256
6
ByLayer
370
18
48
1
60
1
100
AcDbLine
10
22.696816
20
-4.775002
30
0
11
23.1576
21
-1.275
31
0
39
0
210
0
220
0
230
1
0
LINE
5
DE
100
AcDbEntity
8
1
62
256
6
ByLayer
370
18
48
1
60
1
100
AcDbLine
10
23.1576
20
1.275
30
0
11
22.696816
21
4.774998
31
0
39
0
210
0
220
0
230
1
0
LINE
5
DF
100
AcDbEntity
8
1
62
256
6
ByLayer
370
18
48
1
60
1
100
AcDbLine
10
22.696816
20
4.774998
30
0
11
23.618384
21
4.775002
31
0
39
0
210
0
220
0
230
1
0
LINE
5
E0
100
AcDbEntity
8
1
62
256
6
ByLayer
370
18
48
1
60
1
100
AcDbLine
10
23.618384
20
4.775002
30
0
11
23.1576
21
1.275
31
0
39
0
210
0
220
0
230
1
0
LINE
5
E3
100
AcDbEntity
8
1
62
256
6
ByLayer
370
18
48
1
60
1
100
AcDbLine
10
24.567409
20
-14.818132
30
0
11
27.439442
21
-12.765394
31
0
39
0
210
0
220
0
230
1
0
LINE
5
E4
100
AcDbEntity
8
1
62
256
6
ByLayer
370
18
48
1
60
1
100
AcDbLine
10
27.439442
20
-12.765394
30
0
11
27.872871
21
-13.578675
31
0
39
0
210
0
220
0
230
1
0
LINE
5
E5
100
AcDbEntity
8
1
62
256
6
ByLayer
370
18
48
1
60
1
100
AcDbLine
10
27.872871
20
-13.578675
30
0
11
24.567409
21
-14.818132
31
0
39
0
210
0
220
0
230
1
0
LINE
5
E7
100
AcDbEntity
8
1
62
256
6
ByLayer
370
18
48
1
60
1
100
AcDbLine
10
24.567409
20
14.818132
30
0
11
27.872868
21
13.578677
31
0
39
0
210
0
220
0
230
1
0
LINE
5
E8
100
AcDbEntity
8
1
62
256
6
ByLayer
370
18
48
1
60
1
100
AcDbLine
10
27.872868
20
13.578677
30
0
11
27.439445
21
12.765392
31
0
39
0
210
0
220
0
230
1
0
LINE
5
E9
100
AcDbEntity
8
1
62
256
6
ByLayer
370
18
48
1
60
1
100
AcDbLine
10
27.439445
20
12.765392
30
0
11
24.567409
21
14.818132
31
0
39
0
210
0
220
0
230
1
0
MTEXT
5
CC
100
AcDbEntity
8
SK2
62
256
6
ByLayer
370
18
48
1
60
0
100
AcDbMText
10
-26.183514
20
6.658437
30
0
210
0
220
0
230
1
1
%%c
40
3
41
0
44
1.084337
50
90
71
7
72
5
7
iso_b_vert
0
MTEXT
5
CF
100
AcDbEntity
8
SK2
62
256
6
ByLayer
370
18
48
1
60
0
100
AcDbMText
10
-26.183514
20
12.635
30
0
210
0
220
0
230
1
1
\W0.7468;3.000
40
3
41
0
44
1.084337
50
90
71
7
72
5
7
iso_b_vert
0
MTEXT
5
D8
100
AcDbEntity
8
2
62
256
6
ByLayer
370
18
48
1
60
0
100
AcDbMText
10
21.816486
20
14.383437
30
0
210
0
220
0
230
1
1
%%c
40
3
41
0
44
1.084337
50
90
71
7
72
5
7
iso_b_vert
0
MTEXT
5
D9
100
AcDbEntity
8
2
62
256
6
ByLayer
370
18
48
1
60
0
100
AcDbMText
10
21.816486
20
20.36
30
0
210
0
220
0
230
1
1
\W0.7468;2.550
40
3
41
0
44
1.084337
50
90
71
7
72
5
7
iso_b_vert
0
MTEXT
5
E2
100
AcDbEntity
8
SK2
62
256
6
ByLayer
370
18
48
1
60
0
100
AcDbMText
10
30.724886
20
-2.114886
30
0
210
0
220
0
230
1
1
\W0.6747;130%%d
40
3
41
0
44
1.084337
50
0
71
7
72
5
7
iso_b_vert
0
MTEXT
5
EB
100
AcDbEntity
8
SK6
62
256
6
ByLayer
370
18
48
1
60
0
100
AcDbMText
10
-28.971367
20
-48.114886
30
0
210
0
220
0
230
1
1
\W0.7647;462.1-0255-010A0-XM X0BU
40
3
41
0
44
1.084337
50
0
71
7
72
5
7
iso_b_vert
0
HATCH
5
D3
100
AcDbEntity
8
SK2
62
256
6
ByLayer
370
13
48
1
60
0
100
AcDbHatch
10
0
20
0
30
0
210
0
220
0
230
1
2
ANSI31
70
0
71
0
91
1
92
5
93
3
72
1
10
-24.8424
20
-1.5
11
-24.3816162584472
21
-4.99999830744682
72
1
10
-24.3816162584472
20
-4.99999830744682
11
-25.3031837415528
21
-5.00000169255318
72
1
10
-25.3031837415528
20
-5.00000169255318
11
-24.8424
21
-1.5
97
0
75
0
76
1
52
0
41
0.0062
77
0
78
1
53
45
43
0
44
0
45
-0.0139193969876572
46
0.0139193969876572
79
0
47
0
98
1
10
0
20
0
0
HATCH
5
D7
100
AcDbEntity
8
SK2
62
256
6
ByLayer
370
13
48
1
60
0
100
AcDbHatch
10
0
20
0
30
0
210
0
220
0
230
1
2
ANSI31
70
0
71
0
91
1
92
5
93
3
72
1
10
-24.8424
20
1.5
11
-25.3031837415528
21
4.99999830744682
72
1
10
-25.3031837415528
20
4.99999830744682
11
-24.3816162584472
21
5.00000169255318
72
1
10
-24.3816162584472
20
5.00000169255318
11
-24.8424
21
1.5
97
0
75
0
76
1
52
0
41
0.0062
77
0
78
1
53
45
43
0
44
0
45
-0.0139193969876572
46
0.0139193969876572
79
0
47
0
98
1
10
0
20
0
0
HATCH
5
DD
100
AcDbEntity
8
2
62
256
6
ByLayer
370
13
48
1
60
0
100
AcDbHatch
10
0
20
0
30
0
210
0
220
0
230
1
2
ANSI31
70
0
71
0
91
1
92
5
93
3
72
1
10
23.1576
20
-1.27500000000001
11
23.6183837415528
21
-4.77499830744682
72
1
10
23.6183837415528
20
-4.77499830744682
11
22.6968162584472
21
-4.77500169255319
72
1
10
22.6968162584472
20
-4.77500169255319
11
23.1576
21
-1.27500000000001
97
0
75
0
76
1
52
0
41
0.0062
77
0
78
1
53
45
43
0
44
0
45
-0.0139193969876572
46
0.0139193969876572
79
0
47
0
98
1
10
0
20
0
0
HATCH
5
E1
100
AcDbEntity
8
2
62
256
6
ByLayer
370
13
48
1
60
0
100
AcDbHatch
10
0
20
0
30
0
210
0
220
0
230
1
2
ANSI31
70
0
71
0
91
1
92
5
93
3
72
1
10
23.1576
20
1.27500000000001
11
22.6968162584472
21
4.77499830744682
72
1
10
22.6968162584472
20
4.77499830744682
11
23.6183837415528
21
4.77500169255319
72
1
10
23.6183837415528
20
4.77500169255319
11
23.1576
21
1.27500000000001
97
0
75
0
76
1
52
0
41
0.0062
77
0
78
1
53
45
43
0
44
0
45
-0.0139193969876572
46
0.0139193969876572
79
0
47
0
98
1
10
0
20
0
0
HATCH
5
E6
100
AcDbEntity
8
SK2
62
256
6
ByLayer
370
13
48
1
60
0
100
AcDbHatch
10
0
20
0
30
0
210
0
220
0
230
1
2
ANSI31
70
0
71
0
91
1
92
5
93
3
72
1
10
24.5674085794605
20
-14.8181323180492
11
27.4394418553693
21
-12.765393983365
72
1
10
27.4394418553693
20
-12.765393983365
11
27.8728706127348
21
-13.5786750775861
72
1
10
27.8728706127348
20
-13.5786750775861
11
24.5674085794605
21
-14.8181323180492
97
0
75
0
76
1
52
0
41
0.0062
77
0
78
1
53
45
43
0
44
0
45
-0.0139193969876572
46
0.0139193969876572
79
0
47
0
98
1
10
0
20
0
0
HATCH
5
EA
100
AcDbEntity
8
SK2
62
256
6
ByLayer
370
13
48
1
60
0
100
AcDbHatch
10
0
20
0
30
0
210
0
220
0
230
1
2
ANSI31
70
0
71
0
91
1
92
5
93
3
72
1
10
24.5674085794605
20
14.8181323180492
11
27.8728676253807
21
13.5786766696479
72
1
10
27.8728676253807
20
13.5786766696479
11
27.4394448427234
21
12.7653923913032
72
1
10
27.4394448427234
20
12.7653923913032
11
24.5674085794605
21
14.8181323180492
97
0
75
0
76
1
52
0
41
0.0062
77
0
78
1
53
45
43
0
44
0
45
-0.0139193969876572
46
0.0139193969876572
79
0
47
0
98
1
10
0
20
0
0
DIMENSION
5
EE
100
AcDbEntity
8
SK2
62
256
6
ByLayer
370
18
48
1
60
0
100
AcDbDimension
2
_U0
10
17.6576
20
-39.299532
30
0
11
-1.3424
21
-39.299532
31
0
70
32
71
1
72
1
41
1
210
0
220
0
230
1
3
Standard
100
AcDbAlignedDimension
13
-20.3424
23
1.5
33
0
14
17.6576
24
1.275
34
0
50
0
100
AcDbRotatedDimension
1001
ACAD
1000
DSTYLE
1002
{
1070
   371
1070
    13
1070
   372
1070
    13
1070
     3
1000

1070
   170
1070
     0
1070
   144
1040
1.0
1070
   277
1070
     2
1070
   284
1070
     8
1070
   278
1070
    46
1070
   146
1040
1.166667
1070
   345
1005
16
1070
   347
1005
16
1070
   346
1005
16
1070
   344
1005
0
1070
   343
1005
0
1070
   172
1070
     1
1070
    76
1070
     0
1070
    75
1070
     0
1070
   282
1070
     0
1070
   281
1070
     0
1070
    71
1070
     0
1070
    74
1070
     0
1070
   279
1070
     0
1070
   173
1070
     1
1070
   340
1005
CD
1070
   271
1070
     2
1070
   272
1070
     2
1070
    77
1070
     1
1070
    73
1070
     1
1070
   171
1070
     3
1070
   274
1070
     4
1070
   177
1070
     2
1070
   176
1070
     2
1070
   178
1070
     2
1070
    78
1070
     8
1070
    48
1040
-0.1
1070
    41
1040
3.5
1070
   147
1040
1.5
1070
    42
1040
1.5875
1070
    44
1040
2.0
1070
   140
1040
3.0
1002
}
1001
ACAD_DSTYLE_DIM_LINETYPE
1070
   380
1005
16
1001
ACAD_DSTYLE_DIM_EXT1_LINETYPE
1070
   381
1005
16
1001
ACAD_DSTYLE_DIM_EXT2_LINETYPE
1070
   382
1005
16
0
DIMENSION
5
107
100
AcDbEntity
8
SK2
62
256
6
ByLayer
370
18
48
1
60
0
100
AcDbDimension
2
_U1
10
7.4826
20
-22.775
30
0
11
34.943314
21
-22.775
31
0
70
32
71
1
72
1
41
1
210
0
220
0
230
1
3
Standard
100
AcDbAlignedDimension
13
17.6576
23
1.275
33
0
14
7.4826
24
0
34
0
50
0
100
AcDbRotatedDimension
1001
ACAD
1000
DSTYLE
1002
{
1070
   371
1070
    13
1070
   372
1070
    13
1070
     3
1000

1070
   170
1070
     0
1070
   144
1040
1.0
1070
   277
1070
     2
1070
   284
1070
     8
1070
   278
1070
    46
1070
   146
1040
1.166667
1070
   345
1005
16
1070
   347
1005
16
1070
   346
1005
16
1070
   344
1005
0
1070
   343
1005
0
1070
   172
1070
     1
1070
    76
1070
     0
1070
    75
1070
     0
1070
   282
1070
     0
1070
   281
1070
     0
1070
    71
1070
     0
1070
    74
1070
     0
1070
   279
1070
     0
1070
   173
1070
     1
1070
   340
1005
CD
1070
   271
1070
     2
1070
   272
1070
     2
1070
    77
1070
     1
1070
    73
1070
     1
1070
   171
1070
     3
1070
   274
1070
     4
1070
   177
1070
     2
1070
   176
1070
     2
1070
   178
1070
     2
1070
    78
1070
     8
1070
    48
1040
-0.1
1070
    41
1040
3.5
1070
   147
1040
1.5
1070
    42
1040
1.5875
1070
    44
1040
2.0
1070
   140
1040
3.0
1002
}
1001
ACAD_DSTYLE_DIM_LINETYPE
1070
   380
1005
16
1001
ACAD_DSTYLE_DIM_EXT1_LINETYPE
1070
   381
1005
16
1001
ACAD_DSTYLE_DIM_EXT2_LINETYPE
1070
   382
1005
16
0
DIMENSION
5
121
100
AcDbEntity
8
SK2
62
256
6
ByLayer
370
18
48
1
60
0
100
AcDbDimension
2
_U2
10
3.6576
20
-30.799532
30
0
11
10.6576
21
-30.799532
31
0
70
32
71
1
72
1
41
1
210
0
220
0
230
1
3
Standard
100
AcDbAlignedDimension
13
17.6576
23
1.275
33
0
14
3.6576
24
0
34
0
50
0
100
AcDbRotatedDimension
1001
ACAD
1000
DSTYLE
1002
{
1070
   371
1070
    13
1070
   372
1070
    13
1070
     3
1000

1070
   170
1070
     0
1070
   144
1040
1.0
1070
   277
1070
     2
1070
   284
1070
     8
1070
   278
1070
    46
1070
   146
1040
1.166667
1070
   345
1005
16
1070
   347
1005
16
1070
   346
1005
16
1070
   344
1005
0
1070
   343
1005
0
1070
   172
1070
     1
1070
    76
1070
     0
1070
    75
1070
     0
1070
   282
1070
     0
1070
   281
1070
     0
1070
    71
1070
     0
1070
    74
1070
     0
1070
   279
1070
     0
1070
   173
1070
     1
1070
   340
1005
CD
1070
   271
1070
     2
1070
   272
1070
     2
1070
    77
1070
     1
1070
    73
1070
     1
1070
   171
1070
     3
1070
   274
1070
     4
1070
   177
1070
     2
1070
   176
1070
     2
1070
   178
1070
     2
1070
    78
1070
     8
1070
    48
1040
-0.1
1070
    41
1040
3.5
1070
   147
1040
1.5
1070
    42
1040
1.5875
1070
    44
1040
2.0
1070
   140
1040
3.0
1002
}
1001
ACAD_DSTYLE_DIM_LINETYPE
1070
   380
1005
16
1001
ACAD_DSTYLE_DIM_EXT1_LINETYPE
1070
   381
1005
16
1001
ACAD_DSTYLE_DIM_EXT2_LINETYPE
1070
   382
1005
16
0
DIMENSION
5
13A
100
AcDbEntity
8
SK2
62
256
6
ByLayer
370
18
48
1
60
0
100
AcDbDimension
2
_U3
10
0
20
11.799532
30
0
11
-10.1712
21
11.799532
31
0
70
32
71
1
72
1
41
1
210
0
220
0
230
1
3
Standard
100
AcDbAlignedDimension
13
-20.3424
23
0
33
0
14
0
24
0
34
0
50
0
100
AcDbRotatedDimension
1001
ACAD
1000
DSTYLE
1002
{
1070
   371
1070
    13
1070
   372
1070
    13
1070
     3
1000

1070
   170
1070
     0
1070
   144
1040
1.0
1070
   277
1070
     2
1070
   284
1070
     8
1070
   278
1070
    46
1070
   146
1040
1.166667
1070
   345
1005
16
1070
   347
1005
16
1070
   346
1005
16
1070
   344
1005
0
1070
   343
1005
0
1070
   172
1070
     1
1070
    76
1070
     0
1070
    75
1070
     0
1070
   282
1070
     0
1070
   281
1070
     0
1070
    71
1070
     0
1070
    74
1070
     0
1070
   279
1070
     0
1070
   173
1070
     1
1070
   340
1005
CD
1070
   271
1070
     2
1070
   272
1070
     2
1070
    77
1070
     1
1070
    73
1070
     1
1070
   171
1070
     3
1070
   274
1070
     4
1070
   177
1070
     2
1070
   176
1070
     2
1070
   178
1070
     2
1070
    78
1070
     8
1070
    48
1040
-0.1
1070
    41
1040
3.5
1070
   147
1040
1.5
1070
    42
1040
1.5875
1070
    44
1040
2.0
1070
   140
1040
3.0
1002
}
1001
ACAD_DSTYLE_DIM_LINETYPE
1070
   380
1005
16
1001
ACAD_DSTYLE_DIM_EXT1_LINETYPE
1070
   381
1005
16
1001
ACAD_DSTYLE_DIM_EXT2_LINETYPE
1070
   382
1005
16
0
DIMENSION
5
152
100
AcDbEntity
8
2
62
256
6
ByLayer
370
18
48
1
60
0
100
AcDbDimension
2
_U4
10
0
20
11.799532
30
0
11
8.8288
21
11.799532
31
0
70
32
71
1
72
1
41
1
210
0
220
0
230
1
3
Standard
100
AcDbAlignedDimension
13
17.6576
23
1.275
33
0
14
0
24
0
34
0
50
0
100
AcDbRotatedDimension
1001
ACAD
1000
DSTYLE
1002
{
1070
   371
1070
    13
1070
   372
1070
    13
1070
     3
1000

1070
   170
1070
     0
1070
   144
1040
1.0
1070
   277
1070
     2
1070
   284
1070
     8
1070
   278
1070
    46
1070
   146
1040
1.166667
1070
   345
1005
16
1070
   347
1005
16
1070
   346
1005
16
1070
   344
1005
0
1070
   343
1005
0
1070
   172
1070
     1
1070
    76
1070
     0
1070
    75
1070
     0
1070
   282
1070
     0
1070
   281
1070
     0
1070
    71
1070
     0
1070
    74
1070
     0
1070
   279
1070
     0
1070
   173
1070
     1
1070
   340
1005
CD
1070
   271
1070
     2
1070
   272
1070
     2
1070
    77
1070
     1
1070
    73
1070
     1
1070
   171
1070
     3
1070
   274
1070
     4
1070
   177
1070
     2
1070
   176
1070
     2
1070
   178
1070
     2
1070
    78
1070
     8
1070
    48
1040
-0.1
1070
    41
1040
3.5
1070
   147
1040
1.5
1070
    42
1040
1.5875
1070
    44
1040
2.0
1070
   140
1040
3.0
1002
}
1001
ACAD_DSTYLE_DIM_LINETYPE
1070
   380
1005
16
1001
ACAD_DSTYLE_DIM_EXT1_LINETYPE
1070
   381
1005
16
1001
ACAD_DSTYLE_DIM_EXT2_LINETYPE
1070
   382
1005
16
0
ENDSEC
0
SECTION
2
OBJECTS
0
DICTIONARY
5
1da
330
0
100
AcDbDictionary
280
0
281
1
3
ACAD_GROUP
350
1db
3
ACAD_MLINESTYLE
350
1dc
0
DICTIONARY
5
1db
330
0
100
AcDbDictionary
280
0
281
1
0
DICTIONARY
5
1dc
330
0
100
AcDbDictionary
280
0
281
1
3
Standard
350
18
0
MLINESTYLE
5
18
330
1dc
100
AcDbMlineStyle
2
Standard
70
0
3

62
256
51
90
52
90
71
2
49
-0.5
62
256
6
ByLayer
49
0.5
62
256
6
ByLayer
0
RASTERVARIABLES
5
1c8
330

100
AcDbRasterVariables
90
0
70
1
71
1
72
1
0
ENDSEC
0
EOF
