0
SECTION
2
HEADER
9
$ACADVER
1
AC1015
9
$DWGCODEPAGE
3
ANSI_1252
9
$HANDSEED
5
1e9
9
$ANGBASE
50
0
9
$ANGDIR
70
0
9
$ATTMODE
70
1
9
$AUNITS
70
0
9
$AUPREC
70
0
9
$CECOLOR
62
256
9
$CELTSCALE
40
1
9
$CELTYPE
6
ByLayer
9
$CELWEIGHT
370
18
9
$CLAYER
8
0
9
$CMLJUST
70
0
9
$CMLSCALE
40
1
9
$CMLSTYLE
2
Standard
9
$DIMSTYLE
2
Standard
9
$TEXTSIZE
40
0.2
9
$TEXTSTYLE
7
Standard
9
$LUNITS
70
2
9
$LUPREC
70
4
9
$EXTNAMES
290
1
9
$INSUNITS
70
4
9
$LTSCALE
40
1
9
$LWDISPLAY
290
1
9
$PDMODE
70
0
9
$PDSIZE
40
0
9
$PLINEGEN
70
0
0
ENDSEC
0
SECTION
2
CLASSES
0
CLASS
1
RASTERVARIABLES
2
AcDbRasterVariables
3
ISM
90
0
280
0
281
0
0
ENDSEC
0
SECTION
2
TABLES
0
TABLE
2
VPORT
5
1df
100
AcDbSymbolTable
0
VPORT
5
1
100
AcDbSymbolTableRecord
100
AcDbViewportTableRecord
2
*Active
70
0
10
0
20
0
11
1
21
1
12
-1
22
1
13
0
23
0
14
0.5
24
0.5
15
10
25
10
16
0
26
0
36
1
17
0
27
0
37
0
0
ENDTAB
0
TABLE
2
LTYPE
5
1e0
100
AcDbSymbolTable
0
LTYPE
5
14
100
AcDbSymbolTableRecord
100
AcDbLinetypeTableRecord
70
0
2
ByBlock
3

72
65
73
0
40
0
0
LTYPE
5
15
100
AcDbSymbolTableRecord
100
AcDbLinetypeTableRecord
70
0
2
ByLayer
3

72
65
73
0
40
0
0
LTYPE
5
16
100
AcDbSymbolTableRecord
100
AcDbLinetypeTableRecord
70
0
2
Continuous
3
Solid line
72
65
73
0
40
0
0
LTYPE
5
6E
100
AcDbSymbolTableRecord
100
AcDbLinetypeTableRecord
70
0
2
CENTER
3
____ _ ____ _ ____ _ ____
72
65
73
4
40
47.5
49
22
74
0
49
-8.5
74
0
49
8.5
74
0
49
-8.5
74
0
0
LTYPE
5
6F
100
AcDbSymbolTableRecord
100
AcDbLinetypeTableRecord
70
0
2
DASHED
3
__ __ __ __ __ __ __ __ __
72
65
73
2
40
25.72
49
12.86
74
0
49
-12.86
74
0
0
ENDTAB
0
TABLE
2
LAYER
5
1e1
100
AcDbSymbolTable
0
LAYER
5
10
100
AcDbSymbolTableRecord
100
AcDbLayerTableRecord
2
0
70
0
62
7
6
Continuous
290
1
370
-3
390
0
0
LAYER
5
71
100
AcDbSymbolTableRecord
100
AcDbLayerTableRecord
2
80
70
0
62
-6
6
Continuous
290
1
370
-3
390
0
0
LAYER
5
73
100
AcDbSymbolTableRecord
100
AcDbLayerTableRecord
2
81
70
0
62
-3
6
Continuous
290
1
370
-3
390
0
0
LAYER
5
75
100
AcDbSymbolTableRecord
100
AcDbLayerTableRecord
2
1
70
0
62
4
6
Continuous
290
1
370
-3
390
0
0
LAYER
5
9B
100
AcDbSymbolTableRecord
100
AcDbLayerTableRecord
2
4
70
0
62
-2
6
CENTER
290
1
370
-3
390
0
0
LAYER
5
AB
100
AcDbSymbolTableRecord
100
AcDbLayerTableRecord
2
2
70
0
62
7
6
Continuous
290
1
370
-3
390
0
0
LAYER
5
F3
100
AcDbSymbolTableRecord
100
AcDbLayerTableRecord
2
Defpoints
70
0
62
7
6
Continuous
290
0
370
-3
390
0
0
LAYER
5
1cb
100
AcDbSymbolTableRecord
100
AcDbLayerTableRecord
2
SK1
70
0
62
4
6
Continuous
290
1
370
-3
390
0
0
LAYER
5
1cc
100
AcDbSymbolTableRecord
100
AcDbLayerTableRecord
2
SK4
70
0
62
2
6
CENTER
290
1
370
-3
390
0
0
LAYER
5
1cd
100
AcDbSymbolTableRecord
100
AcDbLayerTableRecord
2
SK2
70
0
62
7
6
Continuous
290
1
370
-3
390
0
0
LAYER
5
1ce
100
AcDbSymbolTableRecord
100
AcDbLayerTableRecord
2
SK6
70
0
62
5
6
Continuous
290
1
370
-3
390
0
0
ENDTAB
0
TABLE
2
STYLE
5
1e2
100
AcDbSymbolTable
0
STYLE
5
11
100
AcDbSymbolTableRecord
100
AcDbTextStyleTableRecord
2
Standard
3
txt
70
0
71
0
40
0
41
1
42
0
50
0
0
STYLE
5
CF
100
AcDbSymbolTableRecord
100
AcDbTextStyleTableRecord
2
iso_b_vert
3
simplex.shx
70
0
71
0
40
0
41
1
42
0
50
0
0
STYLE
5
D0
100
AcDbSymbolTableRecord
100
AcDbTextStyleTableRecord
2
DWGDirectTextStyle
3
simplex
70
0
71
0
40
0
41
1
42
0
50
0
0
ENDTAB
0
TABLE
2
DIMSTYLE
5
1e3
100
AcDbSymbolTable
100
AcDbDimStyleTable
0
DIMSTYLE
105
27
100
AcDbSymbolTableRecord
100
AcDbDimStyleTableRecord
2
Standard
70
0
3
<>
41
0.18
42
0.0625
44
0.18
140
0.18
147
0.09
73
0
74
0
77
1
271
2
275
0
278
52
280
0
340
11
0
ENDTAB
0
TABLE
2
VIEW
5
1e4
100
AcDbSymbolTable
0
ENDTAB
0
TABLE
2
UCS
5
1e5
100
AcDbSymbolTable
0
ENDTAB
0
TABLE
2
APPID
5
1e6
100
AcDbSymbolTable
0
APPID
5
12
100
AcDbSymbolTableRecord
100
AcDbRegAppTableRecord
2
ACAD
70
0
0
APPID
5
EF
100
AcDbSymbolTableRecord
100
AcDbRegAppTableRecord
2
ACAD_DSTYLE_DIMBREAK
70
0
0
APPID
5
18A
100
AcDbSymbolTableRecord
100
AcDbRegAppTableRecord
2
ACAD_DSTYLE_DIM_LINETYPE
70
0
0
APPID
5
18B
100
AcDbSymbolTableRecord
100
AcDbRegAppTableRecord
2
ACAD_DSTYLE_DIM_EXT1_LINETYPE
70
0
0
APPID
5
18C
100
AcDbSymbolTableRecord
100
AcDbRegAppTableRecord
2
ACAD_DSTYLE_DIM_EXT2_LINETYPE
70
0
0
APPID
5
1C7
100
AcDbSymbolTableRecord
100
AcDbRegAppTableRecord
2
ACAD_MLEADERVER
70
0
0
ENDTAB
0
TABLE
2
BLOCK_RECORD
5
1e7
100
AcDbSymbolTable
0
BLOCK_RECORD
5
1F
100
AcDbSymbolTableRecord
100
AcDbBlockTableRecord
2
*Model_Space
340
0
70
0
0
BLOCK_RECORD
5
1B
100
AcDbSymbolTableRecord
100
AcDbBlockTableRecord
2
*Paper_Space
340
0
70
0
0
BLOCK_RECORD
5
23
100
AcDbSymbolTableRecord
100
AcDbBlockTableRecord
2
*Paper_Space0
340
0
70
0
0
BLOCK_RECORD
5
F4
100
AcDbSymbolTableRecord
100
AcDbBlockTableRecord
2
*D1
340
0
70
0
0
BLOCK_RECORD
5
100
100
AcDbSymbolTableRecord
100
AcDbBlockTableRecord
2
_U0
340
0
70
0
0
BLOCK_RECORD
5
10C
100
AcDbSymbolTableRecord
100
AcDbBlockTableRecord
2
*D3
340
0
70
0
0
BLOCK_RECORD
5
11A
100
AcDbSymbolTableRecord
100
AcDbBlockTableRecord
2
_U1
340
0
70
0
0
BLOCK_RECORD
5
126
100
AcDbSymbolTableRecord
100
AcDbBlockTableRecord
2
*D5
340
0
70
0
0
BLOCK_RECORD
5
133
100
AcDbSymbolTableRecord
100
AcDbBlockTableRecord
2
_U2
340
0
70
0
0
BLOCK_RECORD
5
13F
100
AcDbSymbolTableRecord
100
AcDbBlockTableRecord
2
*D7
340
0
70
0
0
BLOCK_RECORD
5
14B
100
AcDbSymbolTableRecord
100
AcDbBlockTableRecord
2
_U3
340
0
70
0
0
BLOCK_RECORD
5
157
100
AcDbSymbolTableRecord
100
AcDbBlockTableRecord
2
*D9
340
0
70
0
0
BLOCK_RECORD
5
163
100
AcDbSymbolTableRecord
100
AcDbBlockTableRecord
2
_U4
340
0
70
0
0
ENDTAB
0
ENDSEC
0
SECTION
2
BLOCKS
0
BLOCK
5
20
100
AcDbEntity
8
0
100
AcDbBlockBegin
2
*Model_Space
70
0
10
0
20
0
30
0
3
*Model_Space
0
ENDBLK
5
21
100
AcDbEntity
8
0
100
AcDbBlockEnd
0
BLOCK
5
1C
100
AcDbEntity
8
0
100
AcDbBlockBegin
2
*Paper_Space
70
0
10
0
20
0
30
0
3
*Paper_Space
0
ENDBLK
5
1D
100
AcDbEntity
8
0
100
AcDbBlockEnd
0
BLOCK
5
24
100
AcDbEntity
8
0
100
AcDbBlockBegin
2
*Paper_Space0
70
0
10
0
20
0
30
0
3
*Paper_Space0
0
ENDBLK
5
25
100
AcDbEntity
8
0
100
AcDbBlockEnd
0
BLOCK
5
F5
100
AcDbEntity
8
0
100
AcDbBlockBegin
2
*D1
70
1
10
0
20
0
30
0
3
*D1
0
LINE
5
F7
100
AcDbEntity
8
0
62
256
6
ByLayer
370
-2
48
1
60
0
100
AcDbLine
10
-20.3684
20
-0.0875
30
0
11
-20.3684
21
-41.247212
31
0
39
0
210
0
220
0
230
1
0
LINE
5
F8
100
AcDbEntity
8
0
62
256
6
ByLayer
370
-2
48
1
60
0
100
AcDbLine
10
17.6316
20
-0.2975
30
0
11
17.6316
21
-41.247212
31
0
39
0
210
0
220
0
230
1
0
LINE
5
F9
100
AcDbEntity
8
0
62
256
6
ByLayer
370
-2
48
1
60
0
100
AcDbLine
10
-16.8684
20
-39.247212
30
0
11
14.1316
21
-39.247212
31
0
39
0
210
0
220
0
230
1
0
SOLID
5
FA
100
AcDbEntity
8
0
62
256
6
ByLayer
370
-1
48
1
60
0
100
AcDbTrace
10
-16.8684
20
-38.663879
30
0
11
-16.8684
21
-39.830546
31
0
12
-20.3684
22
-39.247212
32
0
13
-20.3684
23
-39.247212
33
0
39
0
210
0
220
0
230
1
0
SOLID
5
FB
100
AcDbEntity
8
0
62
256
6
ByLayer
370
-1
48
1
60
0
100
AcDbTrace
10
14.1316
20
-39.830546
30
0
11
14.1316
21
-38.663879
31
0
12
17.6316
22
-39.247212
32
0
13
17.6316
23
-39.247212
33
0
39
0
210
0
220
0
230
1
0
MTEXT
5
FC
100
AcDbEntity
8
0
62
256
6
ByLayer
370
18
48
1
60
0
100
AcDbMText
10
-1.3684
20
-33.247212
30
0
210
0
220
0
230
1
1
\A1;38
40
3
41
0
44
1
50
0
71
5
72
5
7
iso_b_vert
0
POINT
5
FD
100
AcDbEntity
8
Defpoints
62
0
6
ByLayer
370
-1
48
1
60
0
100
AcDbPoint
10
-20.3684
20
1.5
30
0
39
0
210
0
220
0
230
1
50
360
0
POINT
5
FE
100
AcDbEntity
8
Defpoints
62
0
6
ByLayer
370
-1
48
1
60
0
100
AcDbPoint
10
17.6316
20
1.29
30
0
39
0
210
0
220
0
230
1
50
360
0
POINT
5
FF
100
AcDbEntity
8
Defpoints
62
0
6
ByLayer
370
-1
48
1
60
0
100
AcDbPoint
10
17.6316
20
-39.247212
30
0
39
0
210
0
220
0
230
1
50
360
0
ENDBLK
5
F6
100
AcDbEntity
8
0
100
AcDbBlockEnd
0
BLOCK
5
107
100
AcDbEntity
8
0
100
AcDbBlockBegin
2
_U0
70
0
10
0
20
0
30
0
3
_U0
0
MTEXT
5
101
100
AcDbEntity
8
SK2
62
256
6
ByLayer
370
18
48
1
60
0
100
AcDbMText
10
-5.85077
20
-38.362098
30
0
210
0
220
0
230
1
1
\W0.7468;38.00
40
3
41
0
44
1.084337
50
0
71
7
72
5
7
iso_b_vert
0
LINE
5
102
100
AcDbEntity
8
SK2
62
256
6
ByLayer
370
13
48
1
60
0
100
AcDbLine
10
-20.3684
20
-0.0875
30
0
11
-20.3684
21
-41.247212
31
0
39
0
210
0
220
0
230
1
0
LINE
5
103
100
AcDbEntity
8
SK2
62
256
6
ByLayer
370
13
48
1
60
0
100
AcDbLine
10
17.6316
20
-0.2975
30
0
11
17.6316
21
-41.247212
31
0
39
0
210
0
220
0
230
1
0
LINE
5
104
100
AcDbEntity
8
SK2
62
256
6
ByLayer
370
13
48
1
60
0
100
AcDbLine
10
-20.3684
20
-39.247212
30
0
11
17.6316
21
-39.247212
31
0
39
0
210
0
220
0
230
1
0
SOLID
5
105
100
AcDbEntity
8
SK2
62
256
6
ByLayer
370
18
48
1
60
0
100
AcDbTrace
10
-20.3684
20
-39.247212
30
0
11
-16.868402
21
-38.786429
31
0
12
-16.868398
22
-39.707996
32
0
13
-16.868398
23
-39.707996
33
0
39
0
210
0
220
0
230
1
0
SOLID
5
106
100
AcDbEntity
8
SK2
62
256
6
ByLayer
370
18
48
1
60
0
100
AcDbTrace
10
17.6316
20
-39.247212
30
0
11
14.131602
21
-39.707996
31
0
12
14.131598
22
-38.786429
32
0
13
14.131598
23
-38.786429
33
0
39
0
210
0
220
0
230
1
0
ENDBLK
5
108
100
AcDbEntity
8
0
100
AcDbBlockEnd
0
BLOCK
5
10D
100
AcDbEntity
8
0
100
AcDbBlockBegin
2
*D3
70
1
10
0
20
0
30
0
3
*D3
0
LINE
5
10F
100
AcDbEntity
8
0
62
256
6
ByLayer
370
-2
48
1
60
0
100
AcDbLine
10
17.6316
20
-0.2975
30
0
11
17.6316
21
-24.79
31
0
39
0
210
0
220
0
230
1
0
LINE
5
110
100
AcDbEntity
8
0
62
256
6
ByLayer
370
-2
48
1
60
0
100
AcDbLine
10
7.5016
20
-1.5875
30
0
11
7.5016
21
-24.79
31
0
39
0
210
0
220
0
230
1
0
LINE
5
111
100
AcDbEntity
8
0
62
256
6
ByLayer
370
-2
48
1
60
0
100
AcDbLine
10
17.6316
20
-22.79
30
0
11
45.203029
21
-22.79
31
0
39
0
210
0
220
0
230
1
0
LINE
5
112
100
AcDbEntity
8
0
62
256
6
ByLayer
370
-2
48
1
60
0
100
AcDbLine
10
21.1316
20
-22.79
30
0
11
24.6316
21
-22.79
31
0
39
0
210
0
220
0
230
1
0
LINE
5
113
100
AcDbEntity
8
0
62
256
6
ByLayer
370
-2
48
1
60
0
100
AcDbLine
10
4.0016
20
-22.79
30
0
11
0.5016
21
-22.79
31
0
39
0
210
0
220
0
230
1
0
SOLID
5
114
100
AcDbEntity
8
0
62
256
6
ByLayer
370
-1
48
1
60
0
100
AcDbTrace
10
21.1316
20
-22.206667
30
0
11
21.1316
21
-23.373333
31
0
12
17.6316
22
-22.79
32
0
13
17.6316
23
-22.79
33
0
39
0
210
0
220
0
230
1
0
SOLID
5
115
100
AcDbEntity
8
0
62
256
6
ByLayer
370
-1
48
1
60
0
100
AcDbTrace
10
4.0016
20
-23.373333
30
0
11
4.0016
21
-22.206667
31
0
12
7.5016
22
-22.79
32
0
13
7.5016
23
-22.79
33
0
39
0
210
0
220
0
230
1
0
MTEXT
5
116
100
AcDbEntity
8
0
62
256
6
ByLayer
370
18
48
1
60
0
100
AcDbMText
10
34.917314
20
-16.79
30
0
210
0
220
0
230
1
1
\A1;10.13
40
3
41
0
44
1
50
0
71
5
72
5
7
iso_b_vert
0
POINT
5
117
100
AcDbEntity
8
Defpoints
62
0
6
ByLayer
370
-1
48
1
60
0
100
AcDbPoint
10
17.6316
20
1.29
30
0
39
0
210
0
220
0
230
1
50
360
0
POINT
5
118
100
AcDbEntity
8
Defpoints
62
0
6
ByLayer
370
-1
48
1
60
0
100
AcDbPoint
10
7.5016
20
0
30
0
39
0
210
0
220
0
230
1
50
360
0
POINT
5
119
100
AcDbEntity
8
Defpoints
62
0
6
ByLayer
370
-1
48
1
60
0
100
AcDbPoint
10
7.5016
20
-22.79
30
0
39
0
210
0
220
0
230
1
50
360
0
ENDBLK
5
10E
100
AcDbEntity
8
0
100
AcDbBlockEnd
0
BLOCK
5
121
100
AcDbEntity
8
0
100
AcDbBlockBegin
2
_U1
70
0
10
0
20
0
30
0
3
_U1
0
MTEXT
5
11B
100
AcDbEntity
8
SK2
62
256
6
ByLayer
370
18
48
1
60
0
100
AcDbMText
10
21.7906
20
-21.904886
30
0
210
0
220
0
230
1
1
\W0.6246;(10.13)
40
3
41
0
44
1.084337
50
0
71
7
72
5
7
iso_b_vert
0
LINE
5
11C
100
AcDbEntity
8
SK2
62
256
6
ByLayer
370
13
48
1
60
0
100
AcDbLine
10
17.6316
20
-0.2975
30
0
11
17.6316
21
-24.79
31
0
39
0
210
0
220
0
230
1
0
LINE
5
11D
100
AcDbEntity
8
SK2
62
256
6
ByLayer
370
13
48
1
60
0
100
AcDbLine
10
7.5016
20
-1.5875
30
0
11
7.5016
21
-24.79
31
0
39
0
210
0
220
0
230
1
0
LINE
5
11E
100
AcDbEntity
8
SK2
62
256
6
ByLayer
370
13
48
1
60
0
100
AcDbLine
10
7.5016
20
-22.79
30
0
11
31.845426
21
-22.79
31
0
39
0
210
0
220
0
230
1
0
SOLID
5
11F
100
AcDbEntity
8
SK2
62
256
6
ByLayer
370
18
48
1
60
0
100
AcDbTrace
10
17.6316
20
-22.79
30
0
11
14.131602
21
-23.250784
31
0
12
14.131598
22
-22.329216
32
0
13
14.131598
23
-22.329216
33
0
39
0
210
0
220
0
230
1
0
SOLID
5
120
100
AcDbEntity
8
SK2
62
256
6
ByLayer
370
18
48
1
60
0
100
AcDbTrace
10
7.5016
20
-22.79
30
0
11
11.001598
21
-22.329216
31
0
12
11.001602
22
-23.250784
32
0
13
11.001602
23
-23.250784
33
0
39
0
210
0
220
0
230
1
0
ENDBLK
5
122
100
AcDbEntity
8
0
100
AcDbBlockEnd
0
BLOCK
5
127
100
AcDbEntity
8
0
100
AcDbBlockBegin
2
*D5
70
1
10
0
20
0
30
0
3
*D5
0
LINE
5
129
100
AcDbEntity
8
0
62
256
6
ByLayer
370
-2
48
1
60
0
100
AcDbLine
10
17.6316
20
-0.2975
30
0
11
17.6316
21
-32.747212
31
0
39
0
210
0
220
0
230
1
0
LINE
5
12A
100
AcDbEntity
8
0
62
256
6
ByLayer
370
-2
48
1
60
0
100
AcDbLine
10
3.6316
20
-1.5875
30
0
11
3.6316
21
-32.747212
31
0
39
0
210
0
220
0
230
1
0
LINE
5
12B
100
AcDbEntity
8
0
62
256
6
ByLayer
370
-2
48
1
60
0
100
AcDbLine
10
21.1316
20
-30.747212
30
0
11
24.6316
21
-30.747212
31
0
39
0
210
0
220
0
230
1
0
LINE
5
12C
100
AcDbEntity
8
0
62
256
6
ByLayer
370
-2
48
1
60
0
100
AcDbLine
10
0.1316
20
-30.747212
30
0
11
-3.3684
21
-30.747212
31
0
39
0
210
0
220
0
230
1
0
SOLID
5
12D
100
AcDbEntity
8
0
62
256
6
ByLayer
370
-1
48
1
60
0
100
AcDbTrace
10
21.1316
20
-30.163879
30
0
11
21.1316
21
-31.330546
31
0
12
17.6316
22
-30.747212
32
0
13
17.6316
23
-30.747212
33
0
39
0
210
0
220
0
230
1
0
SOLID
5
12E
100
AcDbEntity
8
0
62
256
6
ByLayer
370
-1
48
1
60
0
100
AcDbTrace
10
0.1316
20
-31.330546
30
0
11
0.1316
21
-30.163879
31
0
12
3.6316
22
-30.747212
32
0
13
3.6316
23
-30.747212
33
0
39
0
210
0
220
0
230
1
0
MTEXT
5
12F
100
AcDbEntity
8
0
62
256
6
ByLayer
370
18
48
1
60
0
100
AcDbMText
10
10.6316
20
-24.747212
30
0
210
0
220
0
230
1
1
\A1;14
40
3
41
0
44
1
50
0
71
5
72
5
7
iso_b_vert
0
POINT
5
130
100
AcDbEntity
8
Defpoints
62
0
6
ByLayer
370
-1
48
1
60
0
100
AcDbPoint
10
17.6316
20
1.29
30
0
39
0
210
0
220
0
230
1
50
360
0
POINT
5
131
100
AcDbEntity
8
Defpoints
62
0
6
ByLayer
370
-1
48
1
60
0
100
AcDbPoint
10
3.6316
20
0
30
0
39
0
210
0
220
0
230
1
50
360
0
POINT
5
132
100
AcDbEntity
8
Defpoints
62
0
6
ByLayer
370
-1
48
1
60
0
100
AcDbPoint
10
3.6316
20
-30.747212
30
0
39
0
210
0
220
0
230
1
50
360
0
ENDBLK
5
128
100
AcDbEntity
8
0
100
AcDbBlockEnd
0
BLOCK
5
13A
100
AcDbEntity
8
0
100
AcDbBlockBegin
2
_U2
70
0
10
0
20
0
30
0
3
_U2
0
MTEXT
5
134
100
AcDbEntity
8
SK2
62
256
6
ByLayer
370
18
48
1
60
0
100
AcDbMText
10
6.366229
20
-29.862098
30
0
210
0
220
0
230
1
1
\W0.7091;14.00
40
3
41
0
44
1.084337
50
0
71
7
72
5
7
iso_b_vert
0
LINE
5
135
100
AcDbEntity
8
SK2
62
256
6
ByLayer
370
13
48
1
60
0
100
AcDbLine
10
17.6316
20
-0.2975
30
0
11
17.6316
21
-32.747212
31
0
39
0
210
0
220
0
230
1
0
LINE
5
136
100
AcDbEntity
8
SK2
62
256
6
ByLayer
370
13
48
1
60
0
100
AcDbLine
10
3.6316
20
-1.5875
30
0
11
3.6316
21
-32.747212
31
0
39
0
210
0
220
0
230
1
0
LINE
5
137
100
AcDbEntity
8
SK2
62
256
6
ByLayer
370
13
48
1
60
0
100
AcDbLine
10
17.6316
20
-30.747212
30
0
11
3.6316
21
-30.747212
31
0
39
0
210
0
220
0
230
1
0
SOLID
5
138
100
AcDbEntity
8
SK2
62
256
6
ByLayer
370
18
48
1
60
0
100
AcDbTrace
10
17.6316
20
-30.747212
30
0
11
14.131602
21
-31.207996
31
0
12
14.131598
22
-30.286429
32
0
13
14.131598
23
-30.286429
33
0
39
0
210
0
220
0
230
1
0
SOLID
5
139
100
AcDbEntity
8
SK2
62
256
6
ByLayer
370
18
48
1
60
0
100
AcDbTrace
10
3.6316
20
-30.747212
30
0
11
7.131598
21
-30.286429
31
0
12
7.131602
22
-31.207996
32
0
13
7.131602
23
-31.207996
33
0
39
0
210
0
220
0
230
1
0
ENDBLK
5
13B
100
AcDbEntity
8
0
100
AcDbBlockEnd
0
BLOCK
5
140
100
AcDbEntity
8
0
100
AcDbBlockBegin
2
*D7
70
1
10
0
20
0
30
0
3
*D7
0
LINE
5
142
100
AcDbEntity
8
0
62
256
6
ByLayer
370
-2
48
1
60
0
100
AcDbLine
10
-20.3684
20
1.5875
30
0
11
-20.3684
21
13.747212
31
0
39
0
210
0
220
0
230
1
0
LINE
5
143
100
AcDbEntity
8
0
62
256
6
ByLayer
370
-2
48
1
60
0
100
AcDbLine
10
0
20
1.5875
30
0
11
0
21
13.747212
31
0
39
0
210
0
220
0
230
1
0
LINE
5
144
100
AcDbEntity
8
0
62
256
6
ByLayer
370
-2
48
1
60
0
100
AcDbLine
10
-16.8684
20
11.747212
30
0
11
-3.5
21
11.747212
31
0
39
0
210
0
220
0
230
1
0
SOLID
5
145
100
AcDbEntity
8
0
62
256
6
ByLayer
370
-1
48
1
60
0
100
AcDbTrace
10
-16.8684
20
12.330546
30
0
11
-16.8684
21
11.163879
31
0
12
-20.3684
22
11.747212
32
0
13
-20.3684
23
11.747212
33
0
39
0
210
0
220
0
230
1
0
SOLID
5
146
100
AcDbEntity
8
0
62
256
6
ByLayer
370
-1
48
1
60
0
100
AcDbTrace
10
-3.5
20
11.163879
30
0
11
-3.5
21
12.330546
31
0
12
0
22
11.747212
32
0
13
0
23
11.747212
33
0
39
0
210
0
220
0
230
1
0
MTEXT
5
147
100
AcDbEntity
8
0
62
256
6
ByLayer
370
18
48
1
60
0
100
AcDbMText
10
-10.1842
20
17.747212
30
0
210
0
220
0
230
1
1
\A1;20.37
40
3
41
0
44
1
50
0
71
5
72
5
7
iso_b_vert
0
POINT
5
148
100
AcDbEntity
8
Defpoints
62
0
6
ByLayer
370
-1
48
1
60
0
100
AcDbPoint
10
-20.3684
20
0
30
0
39
0
210
0
220
0
230
1
50
360
0
POINT
5
149
100
AcDbEntity
8
Defpoints
62
0
6
ByLayer
370
-1
48
1
60
0
100
AcDbPoint
10
0
20
0
30
0
39
0
210
0
220
0
230
1
50
360
0
POINT
5
14A
100
AcDbEntity
8
Defpoints
62
0
6
ByLayer
370
-1
48
1
60
0
100
AcDbPoint
10
0
20
11.747212
30
0
39
0
210
0
220
0
230
1
50
360
0
ENDBLK
5
141
100
AcDbEntity
8
0
100
AcDbBlockEnd
0
BLOCK
5
152
100
AcDbEntity
8
0
100
AcDbBlockBegin
2
_U3
70
0
10
0
20
0
30
0
3
_U3
0
MTEXT
5
14C
100
AcDbEntity
8
SK2
62
256
6
ByLayer
370
18
48
1
60
0
100
AcDbMText
10
-14.66657
20
12.632327
30
0
210
0
220
0
230
1
1
\W0.7468;20.37
40
3
41
0
44
1.084337
50
0
71
7
72
5
7
iso_b_vert
0
LINE
5
14D
100
AcDbEntity
8
SK2
62
256
6
ByLayer
370
13
48
1
60
0
100
AcDbLine
10
-20.3684
20
1.5875
30
0
11
-20.3684
21
13.747212
31
0
39
0
210
0
220
0
230
1
0
LINE
5
14E
100
AcDbEntity
8
SK2
62
256
6
ByLayer
370
13
48
1
60
0
100
AcDbLine
10
0
20
1.5875
30
0
11
0
21
13.747212
31
0
39
0
210
0
220
0
230
1
0
LINE
5
14F
100
AcDbEntity
8
SK2
62
256
6
ByLayer
370
13
48
1
60
0
100
AcDbLine
10
-20.3684
20
11.747212
30
0
11
0
21
11.747212
31
0
39
0
210
0
220
0
230
1
0
SOLID
5
150
100
AcDbEntity
8
SK2
62
256
6
ByLayer
370
18
48
1
60
0
100
AcDbTrace
10
-20.3684
20
11.747212
30
0
11
-16.868402
21
12.207996
31
0
12
-16.868398
22
11.286429
32
0
13
-16.868398
23
11.286429
33
0
39
0
210
0
220
0
230
1
0
SOLID
5
151
100
AcDbEntity
8
SK2
62
256
6
ByLayer
370
18
48
1
60
0
100
AcDbTrace
10
0
20
11.747212
30
0
11
-3.499998
21
11.286429
31
0
12
-3.500002
22
12.207996
32
0
13
-3.500002
23
12.207996
33
0
39
0
210
0
220
0
230
1
0
ENDBLK
5
153
100
AcDbEntity
8
0
100
AcDbBlockEnd
0
BLOCK
5
158
100
AcDbEntity
8
0
100
AcDbBlockBegin
2
*D9
70
1
10
0
20
0
30
0
3
*D9
0
LINE
5
15A
100
AcDbEntity
8
0
62
256
6
ByLayer
370
-2
48
1
60
0
100
AcDbLine
10
17.6316
20
2.8775
30
0
11
17.6316
21
13.747212
31
0
39
0
210
0
220
0
230
1
0
LINE
5
15B
100
AcDbEntity
8
0
62
256
6
ByLayer
370
-2
48
1
60
0
100
AcDbLine
10
0
20
1.5875
30
0
11
0
21
13.747212
31
0
39
0
210
0
220
0
230
1
0
LINE
5
15C
100
AcDbEntity
8
0
62
256
6
ByLayer
370
-2
48
1
60
0
100
AcDbLine
10
14.1316
20
11.747212
30
0
11
3.5
21
11.747212
31
0
39
0
210
0
220
0
230
1
0
SOLID
5
15D
100
AcDbEntity
8
0
62
256
6
ByLayer
370
-1
48
1
60
0
100
AcDbTrace
10
14.1316
20
11.163879
30
0
11
14.1316
21
12.330546
31
0
12
17.6316
22
11.747212
32
0
13
17.6316
23
11.747212
33
0
39
0
210
0
220
0
230
1
0
SOLID
5
15E
100
AcDbEntity
8
0
62
256
6
ByLayer
370
-1
48
1
60
0
100
AcDbTrace
10
3.5
20
12.330546
30
0
11
3.5
21
11.163879
31
0
12
0
22
11.747212
32
0
13
0
23
11.747212
33
0
39
0
210
0
220
0
230
1
0
MTEXT
5
15F
100
AcDbEntity
8
0
62
256
6
ByLayer
370
18
48
1
60
0
100
AcDbMText
10
8.8158
20
17.747212
30
0
210
0
220
0
230
1
1
\A1;17.63
40
3
41
0
44
1
50
0
71
5
72
5
7
iso_b_vert
0
POINT
5
160
100
AcDbEntity
8
Defpoints
62
0
6
ByLayer
370
-1
48
1
60
0
100
AcDbPoint
10
17.6316
20
1.29
30
0
39
0
210
0
220
0
230
1
50
360
0
POINT
5
161
100
AcDbEntity
8
Defpoints
62
0
6
ByLayer
370
-1
48
1
60
0
100
AcDbPoint
10
0
20
0
30
0
39
0
210
0
220
0
230
1
50
360
0
POINT
5
162
100
AcDbEntity
8
Defpoints
62
0
6
ByLayer
370
-1
48
1
60
0
100
AcDbPoint
10
0
20
11.747212
30
0
39
0
210
0
220
0
230
1
50
360
0
ENDBLK
5
159
100
AcDbEntity
8
0
100
AcDbBlockEnd
0
BLOCK
5
16A
100
AcDbEntity
8
0
100
AcDbBlockBegin
2
_U4
70
0
10
0
20
0
30
0
3
_U4
0
MTEXT
5
164
100
AcDbEntity
8
2
62
256
6
ByLayer
370
18
48
1
60
0
100
AcDbMText
10
4.708372
20
12.632327
30
0
210
0
220
0
230
1
1
\W0.6864;17.63
40
3
41
0
44
1.084337
50
0
71
7
72
5
7
iso_b_vert
0
LINE
5
165
100
AcDbEntity
8
2
62
256
6
ByLayer
370
13
48
1
60
0
100
AcDbLine
10
17.6316
20
2.8775
30
0
11
17.6316
21
13.747212
31
0
39
0
210
0
220
0
230
1
0
LINE
5
166
100
AcDbEntity
8
2
62
256
6
ByLayer
370
13
48
1
60
0
100
AcDbLine
10
0
20
1.5875
30
0
11
0
21
13.747212
31
0
39
0
210
0
220
0
230
1
0
LINE
5
167
100
AcDbEntity
8
2
62
256
6
ByLayer
370
13
48
1
60
0
100
AcDbLine
10
17.6316
20
11.747212
30
0
11
0
21
11.747212
31
0
39
0
210
0
220
0
230
1
0
SOLID
5
168
100
AcDbEntity
8
2
62
256
6
ByLayer
370
18
48
1
60
0
100
AcDbTrace
10
17.6316
20
11.747212
30
0
11
14.131602
21
11.286429
31
0
12
14.131598
22
12.207996
32
0
13
14.131598
23
12.207996
33
0
39
0
210
0
220
0
230
1
0
SOLID
5
169
100
AcDbEntity
8
2
62
256
6
ByLayer
370
18
48
1
60
0
100
AcDbTrace
10
0
20
11.747212
30
0
11
3.499998
21
12.207996
31
0
12
3.500002
22
11.286429
32
0
13
3.500002
23
11.286429
33
0
39
0
210
0
220
0
230
1
0
ENDBLK
5
16B
100
AcDbEntity
8
0
100
AcDbBlockEnd
0
ENDSEC
0
SECTION
2
ENTITIES
0
ARC
5
BC
100
AcDbEntity
8
1
62
256
6
ByLayer
370
18
48
1
60
0
100
AcDbCircle
39
0
10
0.631644
20
-2.29
30
0
40
1
210
0
220
0
230
1
100
AcDbArc
50
90
51
120
0
ARC
5
BD
100
AcDbEntity
8
1
62
256
6
ByLayer
370
18
48
1
60
0
100
AcDbCircle
39
0
10
0.631644
20
2.29
30
0
40
1
210
0
220
0
230
1
100
AcDbArc
50
240
51
270
0
ARC
5
BE
100
AcDbEntity
8
SK2
62
256
6
ByLayer
370
13
48
1
60
0
100
AcDbCircle
39
0
10
17.6316
20
0
30
0
40
16.35
210
0
220
0
230
1
100
AcDbArc
50
10.57289
51
65
0
ARC
5
BF
100
AcDbEntity
8
SK2
62
256
6
ByLayer
370
13
48
1
60
0
100
AcDbCircle
39
0
10
17.6316
20
0
30
0
40
16.35
210
0
220
0
230
1
100
AcDbArc
50
295
51
349.42711
0
ELLIPSE
5
C0
100
AcDbEntity
8
1
62
256
6
ByLayer
370
18
48
1
60
0
100
AcDbEllipse
10
5.069692
20
0.650427
30
0
11
-1.93866401466552
21
1.15664797948447
31
0
210
0
220
0
230
1
40
0.218329
41
0.901639361155869
42
1.7003267812536
0
POINT
5
70
100
AcDbEntity
8
80
62
256
6
ByLayer
370
18
48
1
60
0
100
AcDbPoint
10
0
20
0
30
0
39
0
210
0
220
0
230
1
50
360
0
POINT
5
72
100
AcDbEntity
8
81
62
256
6
ByLayer
370
18
48
1
60
0
100
AcDbPoint
10
17.6316
20
0
30
0
39
0
210
0
220
0
230
1
50
360
0
POINT
5
74
100
AcDbEntity
8
1
62
256
6
ByLayer
370
18
48
1
60
1
100
AcDbPoint
10
-20.3684
20
1.5
30
0
39
0
210
0
220
0
230
1
50
360
0
POINT
5
76
100
AcDbEntity
8
1
62
256
6
ByLayer
370
18
48
1
60
1
100
AcDbPoint
10
17.6316
20
1.29
30
0
39
0
210
0
220
0
230
1
50
360
0
POINT
5
77
100
AcDbEntity
8
1
62
256
6
ByLayer
370
18
48
1
60
1
100
AcDbPoint
10
17.6316
20
1.29
30
0
39
0
210
0
220
0
230
1
50
360
0
POINT
5
78
100
AcDbEntity
8
1
62
256
6
ByLayer
370
18
48
1
60
1
100
AcDbPoint
10
7.5016
20
0
30
0
39
0
210
0
220
0
230
1
50
360
0
POINT
5
79
100
AcDbEntity
8
1
62
256
6
ByLayer
370
18
48
1
60
1
100
AcDbPoint
10
17.6316
20
1.29
30
0
39
0
210
0
220
0
230
1
50
360
0
POINT
5
7A
100
AcDbEntity
8
1
62
256
6
ByLayer
370
18
48
1
60
1
100
AcDbPoint
10
3.6316
20
0
30
0
39
0
210
0
220
0
230
1
50
360
0
POINT
5
7B
100
AcDbEntity
8
1
62
256
6
ByLayer
370
18
48
1
60
1
100
AcDbPoint
10
-20.3684
20
0
30
0
39
0
210
0
220
0
230
1
50
360
0
POINT
5
7C
100
AcDbEntity
8
1
62
256
6
ByLayer
370
18
48
1
60
1
100
AcDbPoint
10
0
20
0
30
0
39
0
210
0
220
0
230
1
50
360
0
POINT
5
7D
100
AcDbEntity
8
1
62
256
6
ByLayer
370
18
48
1
60
1
100
AcDbPoint
10
17.6316
20
1.29
30
0
39
0
210
0
220
0
230
1
50
360
0
POINT
5
7E
100
AcDbEntity
8
1
62
256
6
ByLayer
370
18
48
1
60
1
100
AcDbPoint
10
0
20
0
30
0
39
0
210
0
220
0
230
1
50
360
0
SPLINE
5
C1
100
AcDbEntity
8
1
62
256
6
ByLayer
370
18
48
1
60
0
100
AcDbSpline
70
4
71
3
72
40
73
36
40
0
40
0
40
0
40
0
40
0.0457812562240261
40
0.0457812562240261
40
0.0915625124480522
40
0.0915625124480522
40
0.137343768672078
40
0.137343768672078
40
0.183125024896104
40
0.183125024896104
40
0.274687537344155
40
0.274687537344155
40
0.297578165456167
40
0.297578165456167
40
0.32046879356818
40
0.32046879356818
40
0.366250049792205
40
0.366250049792205
40
0.457812562240255
40
0.457812562240255
40
0.549375074688305
40
0.549375074688305
40
0.640937587136355
40
0.640937587136355
40
0.686718843360381
40
0.686718843360381
40
0.732500099584407
40
0.732500099584407
40
0.824062612032459
40
0.824062612032459
40
0.869843868256485
40
0.869843868256485
40
0.915625124480511
40
0.915625124480511
40
1
40
1
40
1
40
1
41
1
10
5.069692
20
-0.501595122294475
30
0
41
1
10
5.13243817827853
20
-0.53452293948169
30
0
41
1
10
5.19491385041076
20
-0.567140672938137
30
0
41
1
10
5.31983118432879
20
-0.630922116402786
30
0
41
1
10
5.3822709455564
20
-0.662094027274321
30
0
41
1
10
5.50718631808911
20
-0.722886899717878
30
0
41
1
10
5.56971266380012
20
-0.752512999948294
30
0
41
1
10
5.69472916608495
20
-0.809949001796895
30
0
41
1
10
5.75711692618739
20
-0.837729771859756
30
0
41
1
10
5.94409203772028
20
-0.918033578341891
30
0
41
1
10
6.06860131232685
20
-0.967378860646704
30
0
41
1
10
6.22455949346511
20
-1.02324308285446
30
0
41
1
10
6.25576754575241
20
-1.03412452830906
30
0
41
1
10
6.31822995281433
20
-1.05528859760247
30
0
41
1
10
6.34951117930802
20
-1.06557994629375
30
0
41
1
10
6.44320912597024
20
-1.09546150392853
30
0
41
1
10
6.5054584567016
20
-1.11406066840883
30
0
41
1
10
6.69172875327459
20
-1.16580175832473
30
0
41
1
10
6.81540975686224
20
-1.19477819512954
30
0
41
1
10
7.06241511926461
20
-1.24156438098234
30
0
41
1
10
7.18570183500489
20
-1.25939233439661
30
0
41
1
10
7.43253541661826
20
-1.28350070487755
30
0
41
1
10
7.5562228192004
20
-1.28973789330456
30
0
41
1
10
7.74270971096939
20
-1.29011893499285
30
0
41
1
10
7.80504041999956
20
-1.2887486309609
30
0
41
1
10
7.93008291876606
20
-1.28296054678262
30
0
41
1
10
7.99247632496855
20
-1.2785556903826
30
0
41
1
10
8.17945969695415
20
-1.2608638408532
30
0
41
1
10
8.30397078732261
20
-1.24313826958652
30
0
41
1
10
8.4911183686032
20
-1.20797430321412
30
0
41
1
10
8.55356540715493
20
-1.19482120610519
30
0
41
1
10
8.67866081792357
20
-1.16569317197187
30
0
41
1
10
8.74098378326462
20
-1.14978933010337
30
0
41
1
10
8.91766739950629
20
-1.10092712954722
30
0
41
1
10
9.03171744984456
20
-1.06499598642648
30
0
41
1
10
9.14554848681712
20
-1.02516121054865
30
0
0
SPLINE
5
C2
100
AcDbEntity
8
1
62
256
6
ByLayer
370
18
48
1
60
0
100
AcDbSpline
70
4
71
3
72
40
73
36
40
0
40
0
40
0
40
0
40
0.0326480938913005
40
0.0326480938913005
40
0.193873411576084
40
0.193873411576084
40
0.274486070418476
40
0.274486070418476
40
0.355098729260867
40
0.355098729260867
40
0.51632404694565
40
0.51632404694565
40
0.596936705788041
40
0.596936705788041
40
0.677549364630433
40
0.677549364630433
40
0.758162023472824
40
0.758162023472824
40
0.838774682315216
40
0.838774682315216
40
0.879081011736415
40
0.879081011736415
40
0.899234176447012
40
0.899234176447012
40
0.919387341157608
40
0.919387341157608
40
0.939540505868204
40
0.939540505868204
40
0.959693670578801
40
0.959693670578801
40
0.979846835289398
40
0.979846835289398
40
0.989923417644699
40
0.989923417644699
40
1
40
1
40
1
40
1
41
1
10
14.7069917883463
20
1.28999985911304
30
0
41
1
10
14.7322668053786
20
1.29000677482696
30
0
41
1
10
14.7575253063601
20
1.28976541546703
30
0
41
1
10
14.9074405058528
20
1.28685788508551
30
0
41
1
10
15.0319580127712
20
1.27840060859143
30
0
41
1
10
15.2190761791779
20
1.25681455195792
30
0
41
1
10
15.2815232175943
20
1.24813430190071
30
0
41
1
10
15.4065840167323
20
1.22783549042896
30
0
41
1
10
15.4690014227868
20
1.21624556006381
30
0
41
1
10
15.6560832376317
20
1.17727382887719
30
0
41
1
10
15.7807047922813
20
1.14577945171084
30
0
41
1
10
15.9679891433007
20
1.0907141824886
30
0
41
1
10
16.030496345986
20
1.07103963956627
30
0
41
1
10
16.155587466628
20
1.02915312315045
30
0
41
1
10
16.2179778346739
20
1.00699943642852
30
0
41
1
10
16.3425607603443
20
0.960402212181606
30
0
41
1
10
16.4047770081727
20
0.935985563456143
30
0
41
1
10
16.5291920289169
20
0.885091207409857
30
0
41
1
10
16.5913523275394
20
0.85856335637294
30
0
41
1
10
16.6847139619538
20
0.817406063144404
30
0
41
1
10
16.7158551951816
20
0.803462994262588
30
0
41
1
10
16.7624004825103
20
0.781927324734937
30
0
41
1
10
16.7778824867777
20
0.774635919911105
30
0
41
1
10
16.809085398809
20
0.76026416928579
30
0
41
1
10
16.8248326559002
20
0.753224153397525
30
0
41
1
10
16.8562622155758
20
0.738930733042537
30
0
41
1
10
16.8719393678298
20
0.731669911000495
30
0
41
1
10
16.9028657828636
20
0.716383910326272
30
0
41
1
10
16.9180504745145
20
0.708258557158331
30
0
41
1
10
16.9486147796472
20
0.692146583668489
30
0
41
1
10
16.9639934708653
20
0.684157830368946
30
0
41
1
10
16.9879384133613
20
0.673424501962074
30
0
41
1
10
16.9960799581669
20
0.670076902381368
30
0
41
1
10
17.0127832543729
20
0.664008523081236
30
0
41
1
10
17.0213325153937
20
0.661268743227822
30
0
41
1
10
17.0300631209801
20
0.658803485432543
30
0
0
SPLINE
5
C3
100
AcDbEntity
8
1
62
256
6
ByLayer
370
18
48
1
60
0
100
AcDbSpline
70
4
71
3
72
26
73
22
40
0
40
0
40
0
40
0
40
0.124999999999992
40
0.124999999999992
40
0.249999999999985
40
0.249999999999985
40
0.374999999999977
40
0.374999999999977
40
0.437499999999977
40
0.437499999999977
40
0.499999999999977
40
0.499999999999977
40
0.624999999999984
40
0.624999999999984
40
0.749999999999992
40
0.749999999999992
40
0.874999999999999
40
0.874999999999999
40
0.937499999999999
40
0.937499999999999
40
1
40
1
40
1
40
1
41
1
10
17.0300631209801
20
0.658803485432543
30
0
41
1
10
17.0502840739789
20
0.630281948790213
30
0
41
1
10
17.0704718057366
20
0.605021285085826
30
0
41
1
10
17.1108545484314
20
0.5583219115573
30
0
41
1
10
17.1310467943628
20
0.536894349340514
30
0
41
1
10
17.1714315909172
20
0.496606170301817
30
0
41
1
10
17.1916239486324
20
0.477698242272794
30
0
41
1
10
17.221885107397
20
0.45086615077318
30
0
41
1
10
17.2319778462747
20
0.442193880388402
30
0
41
1
10
17.252050869599
20
0.425537246734535
30
0
41
1
10
17.2620390129184
20
0.417545420721041
30
0
41
1
10
17.2918265794546
20
0.394626060408456
30
0
41
1
10
17.3114533138594
20
0.380778415502931
30
0
41
1
10
17.3499888910841
20
0.355805135079123
30
0
41
1
10
17.36891177026
20
0.344663365163257
30
0
41
1
10
17.4054249165282
20
0.325046292843041
30
0
41
1
10
17.4230488173703
20
0.316581415469301
30
0
41
1
10
17.4472708932768
20
0.305936114605942
30
0
41
1
10
17.4549654586482
20
0.302729389010665
30
0
41
1
10
17.4691583812071
20
0.297005416135306
30
0
41
1
10
17.4756595787652
20
0.294488084829368
30
0
41
1
10
17.4812157662087
20
0.292320582954119
30
0
0
SPLINE
5
C4
100
AcDbEntity
8
1
62
256
6
ByLayer
370
18
48
1
60
0
100
AcDbSpline
70
4
71
3
72
28
73
24
40
0
40
0
40
0
40
0
40
0.0276609793943021
40
0.0276609793943021
40
0.0553219587886042
40
0.0553219587886042
40
0.11064391757719
40
0.11064391757719
40
0.165965876365775
40
0.165965876365775
40
0.22128783515436
40
0.22128783515436
40
0.276609793942946
40
0.276609793942946
40
0.331931752731531
40
0.331931752731531
40
0.44257567030872
40
0.44257567030872
40
0.663863505463079
40
0.663863505463079
40
0.885151340617439
40
0.885151340617439
40
1
40
1
40
1
40
1
41
1
10
17.0300631209801
20
1.24200259330266
30
0
41
1
10
17.0213433400191
20
1.24122870681586
30
0
41
1
10
17.0128051082895
20
1.24035838105459
30
0
41
1
10
16.9961234315039
20
1.23839519874724
30
0
41
1
10
16.9879924558188
20
1.23729584614813
30
0
41
1
10
16.9640777992732
20
1.23369552486295
30
0
41
1
10
16.9487169393778
20
1.23091597570186
30
0
41
1
10
16.9181795697654
20
1.22504463401819
30
0
41
1
10
16.903004535211
20
1.22195297818141
30
0
41
1
10
16.8720858067022
20
1.2159060508715
30
0
41
1
10
16.8564061226322
20
1.21292017025795
30
0
41
1
10
16.8249601245229
20
1.20683863590526
30
0
41
1
10
16.8091988821049
20
1.20373980524687
30
0
41
1
10
16.7779583479077
20
1.19718783560549
30
0
41
1
10
16.762453064566
20
1.19374779265402
30
0
41
1
10
16.7158222201563
20
1.18323078968265
30
0
41
1
10
16.6846020720995
20
1.17595263756849
30
0
41
1
10
16.5909480554095
20
1.15306527397581
30
0
41
1
10
16.5286704357003
20
1.13642720830137
30
0
41
1
10
16.4041727749312
20
1.10060983145212
30
0
41
1
10
16.3419916861039
20
1.08139916025519
30
0
41
1
10
16.2475393680978
20
1.0503348829921
30
0
41
1
10
16.2152613084957
20
1.03939359863239
30
0
41
1
10
16.1829691302966
20
1.02813370773743
30
0
0
SPLINE
5
C5
100
AcDbEntity
8
1
62
256
6
ByLayer
370
18
48
1
60
0
100
AcDbSpline
70
4
71
3
72
52
73
48
40
0
40
0
40
0
40
0
40
0.0562221187890202
40
0.0562221187890202
40
0.0899284716894133
40
0.0899284716894133
40
0.123634824589806
40
0.123634824589806
40
0.191047530390591
40
0.191047530390591
40
0.224753883290983
40
0.224753883290983
40
0.258460236191375
40
0.258460236191375
40
0.32587294199216
40
0.32587294199216
40
0.359579294892552
40
0.359579294892552
40
0.393285647792944
40
0.393285647792944
40
0.460698353593729
40
0.460698353593729
40
0.49440470649412
40
0.49440470649412
40
0.528111059394512
40
0.528111059394512
40
0.595523765195296
40
0.595523765195296
40
0.629230118095689
40
0.629230118095689
40
0.662936470996081
40
0.662936470996081
40
0.730349176796865
40
0.730349176796865
40
0.764055529697257
40
0.764055529697257
40
0.79776188259765
40
0.79776188259765
40
0.865174588398434
40
0.865174588398434
40
0.898880941298826
40
0.898880941298826
40
0.932587294199217
40
0.932587294199217
40
0.966293647099609
40
0.966293647099609
40
1
40
1
40
1
40
1
41
1
10
10.6130195921569
20
-1.29000082813451
30
0
41
1
10
10.5090655942589
20
-1.29003173065328
30
0
41
1
10
10.4052455867854
20
-1.28590416840461
30
0
41
1
10
10.23916116342
20
-1.27269056234766
30
0
41
1
10
10.1769142574065
20
-1.26624481961363
30
0
41
1
10
10.0522702433608
20
-1.25038184308326
30
0
41
1
10
9.9898323154348
20
-1.24096059840778
30
0
41
1
10
9.80295141405725
20
-1.20844397906899
30
0
41
1
10
9.67867220571011
20
-1.18107350582903
30
0
41
1
10
9.49213857839894
20
-1.13185470977885
30
0
41
1
10
9.42990558897606
20
-1.11411533211771
30
0
41
1
10
9.30522009868952
20
-1.07606570170526
30
0
41
1
10
9.24276338446307
20
-1.05574575254309
30
0
41
1
10
9.05580661394865
20
-0.991327887354799
30
0
41
1
10
8.9314398191429
20
-0.94368930872696
30
0
41
1
10
8.74478833123783
20
-0.865768578675585
30
0
41
1
10
8.68252121526226
20
-0.838758037713291
30
0
41
1
10
8.5577874758728
20
-0.782787437492317
30
0
41
1
10
8.49534665504183
20
-0.753826023356737
30
0
41
1
10
8.30845749590026
20
-0.664576391794299
30
0
41
1
10
8.18416784988565
20
-0.601791899895204
30
0
41
1
10
7.99760512234701
20
-0.503550401771065
30
0
41
1
10
7.93536730576591
20
-0.470170749279163
30
0
41
1
10
7.810662370107
20
-0.402351856551178
30
0
41
1
10
7.74825790853231
20
-0.367926667478258
30
0
41
1
10
7.56141961235093
20
-0.263716870556749
30
0
41
1
10
7.43710359024604
20
-0.19286232706412
30
0
41
1
10
7.25044023725434
20
-0.085456035834369
30
0
41
1
10
7.18816192851205
20
-0.0495106626069628
30
0
41
1
10
7.06335152995985
20
0.0224232936212729
30
0
41
1
10
7.00092507651453
20
0.0583814471538346
30
0
41
1
10
6.81397493933713
20
0.16571586440665
30
0
41
1
10
6.68959656564653
20
0.236717087330589
30
0
41
1
10
6.50292460601227
20
0.341536421847877
30
0
41
1
10
6.44064705916588
20
0.376134014008045
30
0
41
1
10
6.31587592834404
20
0.444458758129002
30
0
41
1
10
6.25351517085431
20
0.478122909520806
30
0
41
1
10
6.06667617552409
20
0.577221792738584
30
0
41
1
10
5.94230001085833
20
0.640823296488691
30
0
41
1
10
5.75541120516169
20
0.731587389338756
30
0
41
1
10
5.69298383197867
20
0.761049298069366
30
0
41
1
10
5.56831694790154
20
0.817969441825198
30
0
41
1
10
5.50604178927054
20
0.845463496745595
30
0
41
1
10
5.38151122477538
20
0.898402678843865
30
0
41
1
10
5.31924665845912
20
0.923836438447239
30
0
41
1
10
5.19464630644322
20
0.972542544059053
30
0
41
1
10
5.13231198240416
20
0.995809297003689
30
0
41
1
10
5.069692
20
1.01772651654284
30
0
0
SPLINE
5
C6
100
AcDbEntity
8
1
62
256
6
ByLayer
370
18
48
1
60
0
100
AcDbSpline
70
4
71
3
72
33
73
29
40
0
40
0
40
0
40
0
40
0.0811056040710972
40
0.111520205597759
40
0.14193480712442
40
0.182487609159969
40
0.223040411195517
40
0.263593213231066
40
0.304146015266614
40
0.344698817302163
40
0.364975218319937
40
0.405528020355486
40
0.446080822391035
40
0.486633624426583
40
0.527186426462132
40
0.56773922849768
40
0.598153830024342
40
0.628568431551003
40
0.669121233586552
40
0.7096740356221
40
0.750226837657649
40
0.790779639693198
40
0.821194241219859
40
0.85160884274652
40
0.892161644782069
40
0.932714446817618
40
0.973267248853166
40
1
40
1
40
1
40
1
41
1
10
5.069692
20
0.0813037842609674
30
0
41
1
10
5.13511880076484
20
0.0722884737621712
30
0
41
1
10
5.22508065181643
20
0.0595865027252671
30
0
41
1
10
5.33957755315489
20
0.043277021540888
30
0
41
1
10
5.42136105411092
20
0.0315669057507932
30
0
41
1
10
5.51132290516259
20
0.0186308993035027
30
0
41
1
10
5.60946310630976
20
0.0044782850616798
30
0
41
0.999999999999999
10
5.70760330745705
20
-0.0096917373064116
30
0
41
1
10
5.80574350860428
20
-0.0238652095468978
30
0
41
1
10
5.88752700956025
20
-0.0356488003668005
30
0
41
1
10
5.96931051051666
20
-0.047371881835403
30
0
41
1
10
6.05109401147109
20
-0.0590355418997604
30
0
41
1
10
6.14923421262278
20
-0.0729142028316403
30
0
41
1
10
6.24737441375677
20
-0.0866505721605222
30
0
41
1
10
6.34551461495414
20
-0.100216463639725
30
0
41
1
10
6.43547646578321
20
-0.112475404977943
30
0
41
1
10
6.51725996782051
20
-0.123463525139499
30
0
41
1
10
6.59904346361031
20
-0.134312156875183
30
0
41
1
10
6.68900528251913
20
-0.146018450771351
30
0
41
1
10
6.78714542274247
20
-0.158488705527702
30
0
41
1
10
6.88528553877569
20
-0.170642884851588
30
0
41
1
10
6.97524729218185
20
-0.181478986581311
30
0
41
1
10
7.05703069056772
20
-0.191079611706783
30
0
41
1
10
7.13881407834075
20
-0.200455339337651
30
0
41
1
10
7.22877579280146
20
-0.210472105834469
30
0
41
1
10
7.32691583242562
20
-0.221017366733918
30
0
41
1
10
7.41390743225693
20
-0.229981777079104
30
0
41
1
10
7.46818568546988
20
-0.235366495020344
30
0
41
1
10
7.48975059709414
20
-0.237472385968658
30
0
0
SPLINE
5
C7
100
AcDbEntity
8
1
62
256
6
ByLayer
370
18
48
1
60
0
100
AcDbSpline
70
4
71
3
72
24
73
20
40
0
40
0
40
0
40
0
40
0.0625000000000027
40
0.0625000000000027
40
0.125000000000005
40
0.125000000000005
40
0.250000000000005
40
0.250000000000005
40
0.375000000000004
40
0.375000000000004
40
0.500000000000003
40
0.500000000000003
40
0.625000000000002
40
0.625000000000002
40
0.750000000000002
40
0.750000000000002
40
0.875000000000001
40
0.875000000000001
40
1
40
1
40
1
40
1
41
1
10
17.4812157662087
20
0.292320582954119
30
0
41
1
10
17.475727267576
20
0.311683212148807
30
0
41
1
10
17.4693054110094
20
0.330917588238151
30
0
41
1
10
17.4552605253924
20
0.369286826543942
30
0
41
1
10
17.4476351445019
20
0.388421393440637
30
0
41
1
10
17.4235878484438
20
0.445831903711536
30
0
41
1
10
17.4060362123192
20
0.484124013670567
30
0
41
1
10
17.3695710322934
20
0.561187397655345
30
0
41
1
10
17.3506218578329
20
0.599955888224656
30
0
41
1
10
17.3120969451207
20
0.677904349838258
30
0
41
1
10
17.2924958985288
20
0.717108579813981
30
0
41
1
10
17.2529228229811
20
0.796029064647882
30
0
41
1
10
17.2329436911095
20
0.835750571355192
30
0
41
1
10
17.1927105647465
20
0.915918532682696
30
0
41
1
10
17.1724614622393
20
0.956382767168179
30
0
41
1
10
17.1318573408984
20
1.03782198205334
30
0
41
1
10
17.1114967947414
20
1.07879253574851
30
0
41
1
10
17.0707595054877
20
1.16070058254866
30
0
41
1
10
17.0503831470923
20
1.20164064699344
30
0
41
1
10
17.0300631209801
20
1.24200259330254
30
0
0
SPLINE
5
C8
100
AcDbEntity
8
1
62
256
6
ByLayer
370
18
48
1
60
0
100
AcDbSpline
70
4
71
3
72
86
73
82
40
0
40
0
40
0
40
0
40
0.0029630684519916
40
0.0029630684519916
40
0.0059261369039832
40
0.0059261369039832
40
0.0118522738079663
40
0.0118522738079663
40
0.0177784107119495
40
0.0177784107119495
40
0.0237045476159326
40
0.0237045476159326
40
0.0296306845199158
40
0.0296306845199158
40
0.035556821423899
40
0.035556821423899
40
0.0474090952318633
40
0.0474090952318633
40
0.071113642847794
40
0.071113642847794
40
0.0948181904637247
40
0.0948181904637247
40
0.118522738079655
40
0.118522738079655
40
0.142227285695586
40
0.142227285695586
40
0.189636380927447
40
0.189636380927447
40
0.213340928543379
40
0.213340928543379
40
0.237045476159311
40
0.237045476159311
40
0.284454571391174
40
0.284454571391174
40
0.308159119007107
40
0.308159119007107
40
0.331863666623039
40
0.331863666623039
40
0.379272761854906
40
0.379272761854906
40
0.40297730947084
40
0.40297730947084
40
0.426681857086774
40
0.426681857086774
40
0.474090952318643
40
0.474090952318643
40
0.497795499934577
40
0.497795499934577
40
0.52150004755051
40
0.52150004755051
40
0.568909142782377
40
0.568909142782377
40
0.59261369039831
40
0.59261369039831
40
0.616318238014243
40
0.616318238014243
40
0.663727333246108
40
0.663727333246108
40
0.68743188086204
40
0.68743188086204
40
0.711136428477973
40
0.711136428477973
40
0.758545523709838
40
0.758545523709838
40
0.782250071325772
40
0.782250071325772
40
0.805954618941706
40
0.805954618941706
40
0.853363714173574
40
0.853363714173574
40
0.877068261789508
40
0.877068261789508
40
0.900772809405442
40
0.900772809405442
40
0.94818190463731
40
0.94818190463731
40
0.971886452253245
40
0.971886452253245
40
0.99559099986918
40
0.99559099986918
40
1
40
1
40
1
40
1
41
1
10
17.0300631209802
20
-1.24200259330269
30
0
41
1
10
17.0213433400192
20
-1.24122870681586
30
0
41
1
10
17.0128051082896
20
-1.24035838105459
30
0
41
1
10
16.9961234315041
20
-1.23839519874727
30
0
41
1
10
16.9879924558189
20
-1.23729584614816
30
0
41
1
10
16.9640777992734
20
-1.23369552486295
30
0
41
1
10
16.9487169393779
20
-1.23091597570189
30
0
41
1
10
16.9181795697655
20
-1.22504463401822
30
0
41
1
10
16.9030045352112
20
-1.22195297818143
30
0
41
1
10
16.8720858067023
20
-1.21590605087152
30
0
41
1
10
16.8564061226324
20
-1.21292017025797
30
0
41
1
10
16.824960124523
20
-1.20683863590528
30
0
41
1
10
16.809198882105
20
-1.2037398052469
30
0
41
1
10
16.7779583479078
20
-1.19718783560552
30
0
41
1
10
16.7624530645662
20
-1.19374779265405
30
0
41
1
10
16.7158222201564
20
-1.18323078968268
30
0
41
1
10
16.6846020720996
20
-1.17595263756851
30
0
41
1
10
16.5909480554096
20
-1.15306527397587
30
0
41
1
10
16.5286704357004
20
-1.13642720830143
30
0
41
1
10
16.4041727749314
20
-1.10060983145218
30
0
41
1
10
16.341991686104
20
-1.08139916025525
30
0
41
1
10
16.2176306047185
20
-1.04049823591109
30
0
41
1
10
16.1554267412025
20
-1.01883205315482
30
0
41
1
10
16.0308602605953
20
-0.973195038667484
30
0
41
1
10
15.9684764574271
20
-0.949208401946095
30
0
41
1
10
15.781150541606
20
-0.873965925885273
30
0
41
1
10
15.6566844846342
20
-0.819661404700156
30
0
41
1
10
15.4701139533297
20
-0.732652556024675
30
0
41
1
10
15.4079138472735
20
-0.702766832824608
30
0
41
1
10
15.2833814293453
20
-0.641389884505571
30
0
41
1
10
15.2210090490053
20
-0.609866806807958
30
0
41
1
10
15.0338755539252
20
-0.513220499877605
30
0
41
1
10
14.9095233797023
20
-0.4462879526736
30
0
41
1
10
14.7230369156001
20
-0.343058752779342
30
0
41
1
10
14.6608418600008
20
-0.308243125381637
30
0
41
1
10
14.5362751977769
20
-0.237990040405435
30
0
41
1
10
14.4738519965341
20
-0.202505588710977
30
0
41
1
10
14.2866380922631
20
-0.0955508677216699
30
0
41
1
10
14.1621945644435
20
-0.0237186227069799
30
0
41
1
10
13.9755574687638
20
0.0839161955929058
30
0
41
1
10
13.9133188831992
20
0.119721651894281
30
0
41
1
10
13.7886906934661
20
0.191015326505379
30
0
41
1
10
13.7262368393212
20
0.226547983184275
30
0
41
1
10
13.539066803873
20
0.332156605308001
30
0
41
1
10
13.4146762862434
20
0.401169199637906
30
0
41
1
10
13.2281252225576
20
0.501679237852642
30
0
41
1
10
13.165926843105
20
0.534647413697115
30
0
41
1
10
13.0413969993322
20
0.59934291735533
30
0
41
1
10
12.9790044958267
20
0.631122022782534
30
0
41
1
10
12.7921188459456
20
0.724042075526711
30
0
41
1
10
12.6678185766601
20
0.782599378632938
30
0
41
1
10
12.4811594338384
20
0.864530404428194
30
0
41
1
10
12.4189139706733
20
0.89086835988951
30
0
41
1
10
12.2942565824822
20
0.941448509663104
30
0
41
1
10
12.2317781484562
20
0.965718982451989
30
0
41
1
10
12.0446820325818
20
1.03496563640604
30
0
41
1
10
11.9203164292354
20
1.07643079109087
30
0
41
1
10
11.7337896111876
20
1.13102653451818
30
0
41
1
10
11.6715799815261
20
1.14792334161197
30
0
41
1
10
11.5469848262333
20
1.17902097125011
30
0
41
1
10
11.4845441594205
20
1.19323817562378
30
0
41
1
10
11.2976064847806
20
1.23157743176367
30
0
41
1
10
11.1733219038578
20
1.25144216524453
30
0
41
1
10
10.9868151648392
20
1.27242056878509
30
0
41
1
10
10.9245991189727
20
1.27793080491614
30
0
41
1
10
10.7999480479685
20
1.28595876814384
30
0
41
1
10
10.7374685675349
20
1.28847634683837
30
0
41
1
10
10.5503942190564
20
1.29151109355823
30
0
41
1
10
10.4259129255721
20
1.28754845308492
30
0
41
1
10
10.23916116342
20
1.27269056234766
30
0
41
1
10
10.1769142574064
20
1.26624481961363
30
0
41
1
10
10.0522702433608
20
1.25038184308326
30
0
41
1
10
9.98983231543474
20
1.24096059840775
30
0
41
1
10
9.80295141405725
20
1.20844397906896
30
0
41
1
10
9.67867220571011
20
1.18107350582903
30
0
41
1
10
9.49213857839891
20
1.13185470977885
30
0
41
1
10
9.42990558897603
20
1.11411533211771
30
0
41
1
10
9.30522009868946
20
1.07606570170523
30
0
41
1
10
9.24276338446302
20
1.05574575254303
30
0
41
1
10
9.16885326139868
20
1.03027926459234
30
0
41
1
10
9.15726440612102
20
1.02624480655715
30
0
41
1
10
9.14567762279239
20
1.02217006618312
30
0
0
SPLINE
5
C9
100
AcDbEntity
8
1
62
256
6
ByLayer
370
18
48
1
60
0
100
AcDbSpline
70
4
71
3
72
20
73
16
40
0
40
0
40
0
40
0
40
0.0240130079460752
40
0.0240130079460752
40
0.186677506621729
40
0.186677506621729
40
0.349342005297384
40
0.349342005297384
40
0.512006503973038
40
0.512006503973038
40
0.674671002648692
40
0.674671002648692
40
0.837335501324346
40
0.837335501324346
40
1
40
1
40
1
40
1
41
1
10
17.3958310479961
20
-0.505606175093988
30
0
41
1
10
17.3931718788811
20
-0.511284605147466
30
0
41
1
10
17.3904951704463
20
-0.516967544856385
30
0
41
1
10
17.3695710322934
20
-0.561187397655345
30
0
41
1
10
17.3506218578329
20
-0.599955888224656
30
0
41
1
10
17.3120969451207
20
-0.677904349838258
30
0
41
1
10
17.2924958985288
20
-0.717108579813981
30
0
41
1
10
17.2529228229811
20
-0.796029064647882
30
0
41
1
10
17.2329436911095
20
-0.835750571355192
30
0
41
1
10
17.1927105647466
20
-0.915918532682696
30
0
41
1
10
17.1724614622392
20
-0.956382767168179
30
0
41
1
10
17.1318573408984
20
-1.03782198205334
30
0
41
1
10
17.1114967947414
20
-1.07879253574851
30
0
41
1
10
17.0707595054877
20
-1.16070058254866
30
0
41
1
10
17.0503831470923
20
-1.20164064699344
30
0
41
1
10
17.0300631209801
20
-1.24200259330254
30
0
0
SPLINE
5
CA
100
AcDbEntity
8
1
62
256
6
ByLayer
370
18
48
1
60
0
100
AcDbSpline
70
4
71
3
72
76
73
72
40
0
40
0
40
0
40
0
40
0.0209543905046714
40
0.0209543905046714
40
0.0429653085618583
40
0.0429653085618583
40
0.0869871446762323
40
0.0869871446762323
40
0.108998062733419
40
0.108998062733419
40
0.131008980790606
40
0.131008980790606
40
0.17503081690498
40
0.17503081690498
40
0.219052653019354
40
0.219052653019354
40
0.263074489133728
40
0.263074489133728
40
0.285085407190915
40
0.285085407190915
40
0.296090866219509
40
0.296090866219509
40
0.307096325248103
40
0.307096325248103
40
0.351118161362481
40
0.351118161362481
40
0.373129079419669
40
0.373129079419669
40
0.395139997476859
40
0.395139997476859
40
0.43916183359124
40
0.43916183359124
40
0.461172751648431
40
0.461172751648431
40
0.483183669705622
40
0.483183669705622
40
0.527205505820005
40
0.527205505820005
40
0.549216423877197
40
0.549216423877197
40
0.57122734193439
40
0.57122734193439
40
0.615249178048773
40
0.615249178048773
40
0.637260096105964
40
0.637260096105964
40
0.659271014163154
40
0.659271014163154
40
0.703292850277534
40
0.703292850277534
40
0.725303768334724
40
0.725303768334724
40
0.747314686391915
40
0.747314686391915
40
0.791336522506298
40
0.791336522506298
40
0.813347440563489
40
0.813347440563489
40
0.83535835862068
40
0.83535835862068
40
0.879380194735061
40
0.879380194735061
40
0.901391112792252
40
0.901391112792252
40
0.923402030849444
40
0.923402030849444
40
0.967423866963825
40
0.967423866963825
40
0.989434785021017
40
0.989434785021017
40
1
40
1
40
1
40
1
41
1
10
7.6894999805682
20
1.28999985870644
30
0
41
1
10
7.74869391778623
20
1.28998387465612
30
0
41
1
10
7.80804144987115
20
1.28860971648231
30
0
41
1
10
7.93008291876606
20
1.28296054678262
30
0
41
1
10
7.99247632496855
20
1.2785556903826
30
0
41
1
10
8.17945969695415
20
1.2608638408532
30
0
41
1
10
8.30397078732264
20
1.24313826958652
30
0
41
1
10
8.4911183686032
20
1.20797430321412
30
0
41
1
10
8.55356540715493
20
1.19482120610519
30
0
41
1
10
8.67866081792354
20
1.16569317197187
30
0
41
1
10
8.7409837832646
20
1.14978933010337
30
0
41
1
10
8.92742443260002
20
1.09822880291117
30
0
41
1
10
9.05114506623622
20
1.05884337517284
30
0
41
1
10
9.2981242043133
20
0.970949099226885
30
0
41
1
10
9.42137087514658
20
0.922427308899927
30
0
41
1
10
9.66803670987352
20
0.816947476857791
30
0
41
1
10
9.79161479547255
20
0.760193710201264
30
0
41
1
10
9.97792704638286
20
0.66975946183868
30
0
41
1
10
10.040189862871
20
0.638732077726701
30
0
41
1
10
10.1338974934255
20
0.590956692843491
30
0
41
1
10
10.1651732112262
20
0.574833119912057
30
0
41
1
10
10.2276395348609
20
0.542326005686363
30
0
41
1
10
10.258857406731
20
0.525931311337075
30
0
41
1
10
10.4149040732761
20
0.443310531637565
30
0
41
1
10
10.5396013890548
20
0.375142378247944
30
0
41
1
10
10.7268159789162
20
0.270419107892479
30
0
41
1
10
10.7892541622491
20
0.235107199090351
30
0
41
1
10
10.9142868890776
20
0.163817918822957
30
0
41
1
10
10.9767668159826
20
0.127895958033179
30
0
41
1
10
11.1638110329745
20
0.0198758083761561
30
0
41
1
10
11.2883025979207
20
-0.0523547468164622
30
0
41
1
10
11.4753564031585
20
-0.159944365672345
30
0
41
1
10
11.5377585498687
20
-0.195684764859493
30
0
41
1
10
11.6627628157001
20
-0.266749282603144
30
0
41
1
10
11.7252294249645
20
-0.302008087039098
30
0
41
1
10
11.9122870260529
20
-0.406503801948333
30
0
41
1
10
12.0368531824342
20
-0.474286210172892
30
0
41
1
10
12.2240421519901
20
-0.572273430128121
30
0
41
1
10
12.2864933927422
20
-0.60432376393652
30
0
41
1
10
12.4115909269621
20
-0.667059518243121
30
0
41
1
10
12.4740831909932
20
-0.697673310779521
30
0
41
1
10
12.6612735848732
20
-0.786862028005856
30
0
41
1
10
12.7857780664798
20
-0.842893295777287
30
0
41
1
10
12.9727289810966
20
-0.920901766274852
30
0
41
1
10
13.0351066941443
20
-0.945862077715077
30
0
41
1
10
13.1601049807444
20
-0.993543363768282
30
0
41
1
10
13.2225419573638
20
-1.01620967262369
30
0
41
1
10
13.4096187982487
20
-1.080478378675
30
0
41
1
10
13.5341954827877
20
-1.11829907140512
30
0
41
1
10
13.7214077433008
20
-1.16704457988322
30
0
41
1
10
13.7838692399696
20
-1.18196169871632
30
0
41
1
10
13.9089954977292
20
-1.20904915297294
30
0
41
1
10
13.9714621682687
20
-1.22117863019264
30
0
41
1
10
14.1586215497391
20
-1.25323790129178
30
0
41
1
10
14.2832413015121
20
-1.26878888898438
30
0
41
1
10
14.4704718214559
20
-1.28321734120263
30
0
41
1
10
14.5329295166947
20
-1.28654338021991
30
0
41
1
10
14.6580224415841
20
-1.29018010631719
30
0
41
1
10
14.7204360672284
20
-1.2904847427265
30
0
41
1
10
14.9074405058528
20
-1.28685788508551
30
0
41
1
10
15.0319580127712
20
-1.27840060859143
30
0
41
1
10
15.2190761791779
20
-1.25681455195792
30
0
41
1
10
15.2815232175943
20
-1.24813430190073
30
0
41
1
10
15.4065840167323
20
-1.22783549042896
30
0
41
1
10
15.4690014227868
20
-1.21624556006384
30
0
41
1
10
15.6560832376317
20
-1.17727382887719
30
0
41
1
10
15.7807047922813
20
-1.14577945171081
30
0
41
1
10
15.9679891433007
20
-1.0907141824886
30
0
41
1
10
16.030496345986
20
-1.07103963956627
30
0
41
1
10
16.1230637022655
20
-1.04004364186096
30
0
41
1
10
16.1530497420977
20
-1.02971202099013
30
0
41
1
10
16.1830062506572
20
-1.0191087628132
30
0
0
SPLINE
5
CB
100
AcDbEntity
8
1
62
256
6
ByLayer
370
18
48
1
60
0
100
AcDbSpline
70
4
71
3
72
49
73
45
40
0
40
0
40
0
40
0
40
0.0148542701108557
40
0.0411895300718184
40
0.067524790032781
40
0.0806924200132626
40
0.107027679974225
40
0.133362939935188
40
0.159698199896151
40
0.186033459857114
40
0.212368719818076
40
0.225536349798558
40
0.25187160975952
40
0.278206869720483
40
0.304542129681446
40
0.330877389642409
40
0.357212649603372
40
0.376964094574094
40
0.396715539544816
40
0.423050799505778
40
0.449386059466741
40
0.475721319427704
40
0.502056579388667
40
0.528391839349629
40
0.541559469330111
40
0.567894729291074
40
0.594229989252036
40
0.620565249212999
40
0.646900509173962
40
0.673235769134925
40
0.686403399115406
40
0.712738659076369
40
0.739073919037332
40
0.765409178998294
40
0.791744438959257
40
0.81807969892022
40
0.837831143890942
40
0.857582588861664
40
0.883917848822627
40
0.91025310878359
40
0.936588368744552
40
0.962923628705515
40
0.982675073676237
40
1
40
1
40
1
40
1
41
1
10
10.8045957749785
20
0.238105021360525
30
0
41
1
10
10.8230476068829
20
0.236310788559763
30
0
41
1
10
10.8742128462006
20
0.231266175902732
30
0
41
1
10
10.9580914929314
20
0.222685787601421
30
0
41
1
10
11.0398750114644
20
0.213943532790125
30
0
41
1
10
11.1216585299969
20
0.204937167513379
30
0
41
1
10
11.2034420485314
20
0.195691765917616
30
0
41
1
10
11.3015822707662
20
0.184226360275005
30
0
41
1
10
11.39972249302
20
0.172409266086504
30
0
41
1
10
11.4978627152032
20
0.160259628252106
30
0
41
1
10
11.579646233971
20
0.149878473589382
30
0
41
1
10
11.6614297514213
20
0.139316503811074
30
0
41
1
10
11.7432132758958
20
0.128579474238194
30
0
41
1
10
11.8413532956272
20
0.115427320340018
30
0
41
1
10
11.9394931530992
20
0.102077562670758
30
0
41
1
10
12.0376328639006
20
0.0885514679951029
30
0
41
0.999999999999999
10
12.127594151481
20
0.0760052692107536
30
0
41
1
10
12.2093770644138
20
0.0644997209928704
30
0
41
1
10
12.2911599223239
20
0.0529180692608406
30
0
41
1
10
12.381121007944
20
0.0400941662879006
30
0
41
1
10
12.4792603225897
20
0.0260170106518558
30
0
41
1
10
12.5773996066633
20
0.0118845563936816
30
0
41
1
10
12.6755388810806
20
-0.0022810879425776
30
0
41
1
10
12.7573216191446
20
-0.0140968248816478
30
0
41
1
10
12.8391043773144
20
-0.0259033536839865
30
0
41
1
10
12.9208871621425
20
-0.0377001848443968
30
0
41
1
10
13.0190265674397
20
-0.0517762420263352
30
0
41
1
10
13.1171660573266
20
-0.0657351736301166
30
0
41
1
10
13.2153056521178
20
-0.0795597155661198
30
0
41
1
10
13.297088754938
20
-0.0909554463615621
30
0
41
1
10
13.3788719406993
20
-0.10223052093653
30
0
41
1
10
13.460655261535
20
-0.113370579175523
30
0
41
1
10
13.5587952535234
20
-0.126507557011962
30
0
41
1
10
13.6569352399347
20
-0.139393380530407
30
0
41
1
10
13.7550752241399
20
-0.152007701427436
30
0
41
1
10
13.8450368742633
20
-0.163302457810602
30
0
41
1
10
13.9268201915903
20
-0.17334437191073
30
0
41
1
10
14.008603508339
20
-0.183183881133374
30
0
41
1
10
14.0985651564521
20
-0.193736825285782
30
0
41
1
10
14.1967051364917
20
-0.204858656483083
30
0
41
1
10
14.2948451174856
20
-0.215580840836651
30
0
41
1
10
14.3848067682217
20
-0.225028385732429
30
0
41
1
10
14.4635758978508
20
-0.232998261976462
30
0
41
1
10
14.5096317001953
20
-0.237512563729183
30
0
41
1
10
14.5311525061218
20
-0.239589319860926
30
0
0
SPLINE
5
CC
100
AcDbEntity
8
1
62
256
6
ByLayer
370
18
48
1
60
0
100
AcDbSpline
70
4
71
3
72
18
73
14
40
0
40
0
40
0
40
0
40
0.249999999999996
40
0.249999999999996
40
0.499999999999993
40
0.499999999999993
40
0.624999999999995
40
0.624999999999995
40
0.687499999999996
40
0.687499999999996
40
0.749999999999996
40
0.749999999999996
40
1
40
1
40
1
40
1
41
1
10
3.66901971709666
20
1.03593774797852
30
0
41
1
10
3.78452394094319
20
1.05288306908921
30
0
41
1
10
3.90060361803558
20
1.06441826948392
30
0
41
1
10
4.13387619944587
20
1.07879353817435
30
0
41
1
10
4.25106922415034
20
1.08162808640392
30
0
41
1
10
4.427703855581
20
1.07961978088446
30
0
41
1
10
4.4867232994938
20
1.07789381077214
30
0
41
1
10
4.57546920850859
20
1.07362986701719
30
0
41
1
10
4.60507292950973
20
1.07192815911225
30
0
41
1
10
4.66401083306491
20
1.06796666536835
30
0
41
1
10
4.69338720594124
20
1.06570504193766
30
0
41
1
10
4.83980958907043
20
1.05294787823649
30
0
41
1
10
4.95548228189352
20
1.03817208214434
30
0
41
1
10
5.06969200003761
20
1.01772651653624
30
0
0
SPLINE
5
CD
100
AcDbEntity
8
1
62
256
6
ByLayer
370
18
48
1
60
0
100
AcDbSpline
70
4
71
3
72
47
73
43
40
0
40
0
40
0
40
0
40
0.125
40
0.125
40
0.1875
40
0.1875
40
0.25
40
0.25
40
0.3125
40
0.3125
40
0.375
40
0.375
40
0.4375
40
0.4375
40
0.5
40
0.5
40
0.53125
40
0.53125
40
0.5625
40
0.5625
40
0.625
40
0.625
40
0.6875
40
0.6875
40
0.703125
40
0.703125
40
0.71875
40
0.75
40
0.75
40
0.812500000000001
40
0.812500000000001
40
0.828125
40
0.828125
40
0.84375
40
0.84375
40
0.875
40
0.875
40
0.9375
40
0.9375
40
0.96875
40
0.96875
40
1
40
1
40
1
40
1
41
1
10
5.06969199999998
20
-0.501595122294475
30
0
41
1
10
4.97139413059304
20
-0.475211166099399
30
0
41
1
10
4.8750758924557
20
-0.443476306875539
30
0
41
1
10
4.73356525843133
20
-0.387182873387729
30
0
41
1
10
4.68691240565681
20
-0.366967003604316
30
0
41
1
10
4.59513586655603
20
-0.323716287934929
30
0
41
1
10
4.54994669940939
20
-0.300657038914409
30
0
41
1
10
4.4609919102588
20
-0.25151493622181
30
0
41
1
10
4.41710909421687
20
-0.225350725752833
30
0
41
1
10
4.33171226520201
20
-0.170377134515121
30
0
41
1
10
4.29013187448896
20
-0.141542731819641
30
0
41
1
10
4.20926772055279
20
-0.0810968651840369
30
0
41
1
10
4.16998326565027
20
-0.0494862589541754
30
0
41
1
10
4.0938257373611
20
0.0166602344166904
30
0
41
1
10
4.05695134234148
20
0.0511944859927951
30
0
41
1
10
4.00359704680992
20
0.105378101114525
30
0
41
1
10
3.98613926289798
20
0.123837287705158
30
0
41
1
10
3.95191497849322
20
0.161598443558319
30
0
41
1
10
3.93509330799404
20
0.18096799672125
30
0
41
1
10
3.88618635480196
20
0.239884643762252
30
0
41
1
10
3.8557298671083
20
0.280116096454634
30
0
41
1
10
3.799407848828
20
0.36247942699984
30
0
41
1
10
3.7735368072502
20
0.404609501796386
30
0
41
1
10
3.74442772884498
20
0.458522791873662
30
0
41
1
10
3.73876897476811
20
0.469369638792188
30
0
41
1
10
3.72788989297487
20
0.490984266977648
30
0
41
1
10
3.71218743148981
20
0.523363422564586
30
0
41
1
10
3.69833805977862
20
0.555599009004368
30
0
41
1
10
3.67315784115374
20
0.619839321889827
30
0
41
1
10
3.65971060314377
20
0.662358817434978
30
0
41
1
10
3.64746829170829
20
0.714991863306409
30
0
41
1
10
3.64524961652788
20
0.72549262394719
30
0
41
1
10
3.6412881762862
20
0.746438949700746
30
0
41
1
10
3.63954677658668
20
0.756888521401663
30
0
41
1
10
3.63511217458031
20
0.787745824804119
30
0
41
1
10
3.63317915643503
20
0.807799320683955
30
0
41
1
10
3.63038418704358
20
0.866427149259493
30
0
41
1
10
3.63250780019848
20
0.903474181353147
30
0
41
1
10
3.64175052907606
20
0.955974379523667
30
0
41
1
10
3.64586814875156
20
0.973009187718077
30
0
41
1
10
3.65601509424215
20
1.0055297308686
30
0
41
1
10
3.66204819454489
20
1.02107589111577
30
0
41
1
10
3.66901971709666
20
1.03593774797852
30
0
0
LINE
5
7F
100
AcDbEntity
8
1
62
256
6
ByLayer
370
18
48
1
60
0
100
AcDbLine
10
0
20
-1.499979
30
0
11
0
21
0
31
0
39
0
210
0
220
0
230
1
0
LINE
5
80
100
AcDbEntity
8
1
62
256
6
ByLayer
370
18
48
1
60
0
100
AcDbLine
10
0
20
0
30
0
11
0
21
1.499979
31
0
39
0
210
0
220
0
230
1
0
LINE
5
81
100
AcDbEntity
8
1
62
256
6
ByLayer
370
18
48
1
60
0
100
AcDbLine
10
17.030063
20
0.658803
30
0
11
17.030063
21
-1.242003
31
0
39
0
210
0
220
0
230
1
0
LINE
5
82
100
AcDbEntity
8
1
62
256
6
ByLayer
370
18
48
1
60
0
100
AcDbLine
10
5.069692
20
1.017727
30
0
11
5.069692
21
0.081304
31
0
39
0
210
0
220
0
230
1
0
LINE
5
83
100
AcDbEntity
8
1
62
256
6
ByLayer
370
13
48
1
60
0
100
AcDbLine
10
0.631644
20
1.29
30
0
11
0.631644
21
-1.29
31
0
39
0
210
0
220
0
230
1
0
LINE
5
84
100
AcDbEntity
8
1
62
256
6
ByLayer
370
18
48
1
60
0
100
AcDbLine
10
5.069692
20
0.081304
30
0
11
5.069692
21
-0.501595
31
0
39
0
210
0
220
0
230
1
0
LINE
5
85
100
AcDbEntity
8
1
62
256
6
ByLayer
370
13
48
1
60
0
100
AcDbLine
10
0.131644
20
1.423975
30
0
11
0.131644
21
-1.423975
31
0
39
0
210
0
220
0
230
1
0
LINE
5
86
100
AcDbEntity
8
SK1
62
256
6
ByLayer
370
18
48
1
60
0
100
AcDbLine
10
-20.3684
20
1.326795
30
0
11
-20.3684
21
-1.326795
31
0
39
0
210
0
220
0
230
1
0
LINE
5
88
100
AcDbEntity
8
SK1
62
256
6
ByLayer
370
18
48
1
60
0
100
AcDbLine
10
-20.0684
20
1.5
30
0
11
-20.0684
21
-1.5
31
0
39
0
210
0
220
0
230
1
0
LINE
5
89
100
AcDbEntity
8
SK1
62
256
6
ByLayer
370
18
48
1
60
0
100
AcDbLine
10
0
20
-1.499979
30
0
11
0
21
0
31
0
39
0
210
0
220
0
230
1
0
LINE
5
8A
100
AcDbEntity
8
SK1
62
256
6
ByLayer
370
18
48
1
60
0
100
AcDbLine
10
0
20
0
30
0
11
0
21
1.499979
31
0
39
0
210
0
220
0
230
1
0
LINE
5
8B
100
AcDbEntity
8
SK1
62
256
6
ByLayer
370
18
48
1
60
0
100
AcDbLine
10
-3.6E-05
20
1.5
30
0
11
-3.6E-05
21
-1.5
31
0
39
0
210
0
220
0
230
1
0
LINE
5
8C
100
AcDbEntity
8
1
62
256
6
ByLayer
370
18
48
1
60
0
100
AcDbLine
10
0.131644
20
1.423975
30
0
11
0
21
1.499979
31
0
39
0
210
0
220
0
230
1
0
LINE
5
8D
100
AcDbEntity
8
1
62
256
6
ByLayer
370
18
48
1
60
0
100
AcDbLine
10
0
20
-1.499979
30
0
11
0.131644
21
-1.423975
31
0
39
0
210
0
220
0
230
1
0
LINE
5
8E
100
AcDbEntity
8
1
62
256
6
ByLayer
370
18
48
1
60
0
100
AcDbLine
10
0.631644
20
-1.29
30
0
11
7.689126
21
-1.29
31
0
39
0
210
0
220
0
230
1
0
LINE
5
8F
100
AcDbEntity
8
1
62
256
6
ByLayer
370
18
48
1
60
0
100
AcDbLine
10
10.612684
20
-1.29
30
0
11
14.70737
21
-1.29
31
0
39
0
210
0
220
0
230
1
0
LINE
5
90
100
AcDbEntity
8
1
62
256
6
ByLayer
370
18
48
1
60
0
100
AcDbLine
10
14.70737
20
1.29
30
0
11
10.612684
21
1.29
31
0
39
0
210
0
220
0
230
1
0
LINE
5
91
100
AcDbEntity
8
1
62
256
6
ByLayer
370
18
48
1
60
0
100
AcDbLine
10
7.689126
20
1.29
30
0
11
0.631644
21
1.29
31
0
39
0
210
0
220
0
230
1
0
LINE
5
92
100
AcDbEntity
8
1
62
256
6
ByLayer
370
18
48
1
60
0
100
AcDbLine
10
17.6316
20
0
30
0
11
17.395193
21
0.506976
31
0
39
0
210
0
220
0
230
1
0
LINE
5
93
100
AcDbEntity
8
1
62
256
6
ByLayer
370
18
48
1
60
0
100
AcDbLine
10
17.395193
20
-0.506976
30
0
11
17.6316
21
0
31
0
39
0
210
0
220
0
230
1
0
LINE
5
94
100
AcDbEntity
8
SK1
62
256
6
ByLayer
370
18
48
1
60
0
100
AcDbLine
10
-20.3684
20
-1.326795
30
0
11
-20.0684
21
-1.5
31
0
39
0
210
0
220
0
230
1
0
LINE
5
95
100
AcDbEntity
8
SK1
62
256
6
ByLayer
370
18
48
1
60
0
100
AcDbLine
10
-20.0684
20
1.5
30
0
11
-20.3684
21
1.326795
31
0
39
0
210
0
220
0
230
1
0
LINE
5
96
100
AcDbEntity
8
SK1
62
256
6
ByLayer
370
18
48
1
60
0
100
AcDbLine
10
-20.0684
20
-1.5
30
0
11
-3.6E-05
21
-1.5
31
0
39
0
210
0
220
0
230
1
0
LINE
5
97
100
AcDbEntity
8
SK1
62
256
6
ByLayer
370
18
48
1
60
0
100
AcDbLine
10
-3.6E-05
20
1.5
30
0
11
-20.0684
21
1.5
31
0
39
0
210
0
220
0
230
1
0
LINE
5
98
100
AcDbEntity
8
SK1
62
256
6
ByLayer
370
18
48
1
60
0
100
AcDbLine
10
0
20
1.499979
30
0
11
-3.6E-05
21
1.5
31
0
39
0
210
0
220
0
230
1
0
LINE
5
99
100
AcDbEntity
8
SK1
62
256
6
ByLayer
370
18
48
1
60
0
100
AcDbLine
10
-3.6E-05
20
-1.5
30
0
11
0
21
-1.499979
31
0
39
0
210
0
220
0
230
1
0
LINE
5
9A
100
AcDbEntity
8
4
62
256
6
ByLayer
370
18
48
0.05
60
0
100
AcDbLine
10
0
20
0
30
0
11
17.6316
21
0
31
0
39
0
210
0
220
0
230
1
0
LINE
5
9C
100
AcDbEntity
8
81
62
256
6
ByLayer
370
18
48
1
60
0
100
AcDbLine
10
17.6316
20
0
30
0
11
20.6316
21
0
31
0
39
0
210
0
220
0
230
1
0
LINE
5
9D
100
AcDbEntity
8
80
62
256
6
ByLayer
370
18
48
1
60
0
100
AcDbLine
10
0
20
0
30
0
11
-3
21
0
31
0
39
0
210
0
220
0
230
1
0
LINE
5
9E
100
AcDbEntity
8
SK4
62
256
6
ByLayer
370
18
48
0.05
60
0
100
AcDbLine
10
-23.3684
20
0
30
0
11
20.6316
21
0
31
0
39
0
210
0
220
0
230
1
0
LINE
5
A0
100
AcDbEntity
8
SK2
62
256
6
ByLayer
370
13
48
1
60
0
100
AcDbLine
10
-24.8684
20
-9
30
0
11
-24.8684
21
21.782741
31
0
39
0
210
0
220
0
230
1
0
LINE
5
A2
100
AcDbEntity
8
SK2
62
256
6
ByLayer
370
13
48
1
60
0
100
AcDbLine
10
-21.9559
20
-1.5
30
0
11
-26.8684
21
-1.5
31
0
39
0
210
0
220
0
230
1
0
LINE
5
A3
100
AcDbEntity
8
SK2
62
256
6
ByLayer
370
13
48
1
60
0
100
AcDbLine
10
-21.9559
20
1.5
30
0
11
-26.8684
21
1.5
31
0
39
0
210
0
220
0
230
1
0
LINE
5
A4
100
AcDbEntity
8
1
62
256
6
ByLayer
370
18
48
1
60
1
100
AcDbLine
10
-24.8684
20
-1.5
30
0
11
-24.407616
21
-4.999998
31
0
39
0
210
0
220
0
230
1
0
LINE
5
A5
100
AcDbEntity
8
1
62
256
6
ByLayer
370
18
48
1
60
1
100
AcDbLine
10
-24.407616
20
-4.999998
30
0
11
-25.329184
21
-5.000002
31
0
39
0
210
0
220
0
230
1
0
LINE
5
A6
100
AcDbEntity
8
1
62
256
6
ByLayer
370
18
48
1
60
1
100
AcDbLine
10
-25.329184
20
-5.000002
30
0
11
-24.8684
21
-1.5
31
0
39
0
210
0
220
0
230
1
0
LINE
5
A7
100
AcDbEntity
8
1
62
256
6
ByLayer
370
18
48
1
60
1
100
AcDbLine
10
-24.8684
20
1.5
30
0
11
-25.329184
21
4.999998
31
0
39
0
210
0
220
0
230
1
0
LINE
5
A8
100
AcDbEntity
8
1
62
256
6
ByLayer
370
18
48
1
60
1
100
AcDbLine
10
-25.329184
20
4.999998
30
0
11
-24.407616
21
5.000002
31
0
39
0
210
0
220
0
230
1
0
LINE
5
A9
100
AcDbEntity
8
1
62
256
6
ByLayer
370
18
48
1
60
1
100
AcDbLine
10
-24.407616
20
5.000002
30
0
11
-24.8684
21
1.5
31
0
39
0
210
0
220
0
230
1
0
LINE
5
AA
100
AcDbEntity
8
2
62
256
6
ByLayer
370
13
48
1
60
0
100
AcDbLine
10
23.1316
20
-8.79
30
0
11
23.1316
21
29.492741
31
0
39
0
210
0
220
0
230
1
0
LINE
5
AC
100
AcDbEntity
8
2
62
256
6
ByLayer
370
13
48
1
60
0
100
AcDbLine
10
19.2191
20
-1.29
30
0
11
25.1316
21
-1.29
31
0
39
0
210
0
220
0
230
1
0
LINE
5
AD
100
AcDbEntity
8
2
62
256
6
ByLayer
370
13
48
1
60
0
100
AcDbLine
10
19.2191
20
1.29
30
0
11
25.1316
21
1.29
31
0
39
0
210
0
220
0
230
1
0
LINE
5
AE
100
AcDbEntity
8
1
62
256
6
ByLayer
370
18
48
1
60
1
100
AcDbLine
10
23.1316
20
-1.29
30
0
11
23.592384
21
-4.789998
31
0
39
0
210
0
220
0
230
1
0
LINE
5
AF
100
AcDbEntity
8
1
62
256
6
ByLayer
370
18
48
1
60
1
100
AcDbLine
10
23.592384
20
-4.789998
30
0
11
22.670816
21
-4.790002
31
0
39
0
210
0
220
0
230
1
0
LINE
5
B0
100
AcDbEntity
8
1
62
256
6
ByLayer
370
18
48
1
60
1
100
AcDbLine
10
22.670816
20
-4.790002
30
0
11
23.1316
21
-1.29
31
0
39
0
210
0
220
0
230
1
0
LINE
5
B1
100
AcDbEntity
8
1
62
256
6
ByLayer
370
18
48
1
60
1
100
AcDbLine
10
23.1316
20
1.29
30
0
11
22.670816
21
4.789998
31
0
39
0
210
0
220
0
230
1
0
LINE
5
B2
100
AcDbEntity
8
1
62
256
6
ByLayer
370
18
48
1
60
1
100
AcDbLine
10
22.670816
20
4.789998
30
0
11
23.592384
21
4.790002
31
0
39
0
210
0
220
0
230
1
0
LINE
5
B3
100
AcDbEntity
8
1
62
256
6
ByLayer
370
18
48
1
60
1
100
AcDbLine
10
23.592384
20
4.790002
30
0
11
23.1316
21
1.29
31
0
39
0
210
0
220
0
230
1
0
LINE
5
B4
100
AcDbEntity
8
SK2
62
256
6
ByLayer
370
13
48
1
60
0
100
AcDbLine
10
18.302506
20
-1.438764
30
0
11
25.386645
21
-16.630748
31
0
39
0
210
0
220
0
230
1
0
LINE
5
B5
100
AcDbEntity
8
SK2
62
256
6
ByLayer
370
13
48
1
60
0
100
AcDbLine
10
18.302506
20
1.438764
30
0
11
25.386645
21
16.630748
31
0
39
0
210
0
220
0
230
1
0
LINE
5
B6
100
AcDbEntity
8
1
62
256
6
ByLayer
370
18
48
1
60
1
100
AcDbLine
10
24.541409
20
-14.818132
30
0
11
27.413442
21
-12.765394
31
0
39
0
210
0
220
0
230
1
0
LINE
5
B7
100
AcDbEntity
8
1
62
256
6
ByLayer
370
18
48
1
60
1
100
AcDbLine
10
27.413442
20
-12.765394
30
0
11
27.846871
21
-13.578675
31
0
39
0
210
0
220
0
230
1
0
LINE
5
B8
100
AcDbEntity
8
1
62
256
6
ByLayer
370
18
48
1
60
1
100
AcDbLine
10
27.846871
20
-13.578675
30
0
11
24.541409
21
-14.818132
31
0
39
0
210
0
220
0
230
1
0
LINE
5
B9
100
AcDbEntity
8
1
62
256
6
ByLayer
370
18
48
1
60
1
100
AcDbLine
10
24.541409
20
14.818132
30
0
11
27.846868
21
13.578677
31
0
39
0
210
0
220
0
230
1
0
LINE
5
BA
100
AcDbEntity
8
1
62
256
6
ByLayer
370
18
48
1
60
1
100
AcDbLine
10
27.846868
20
13.578677
30
0
11
27.413445
21
12.765392
31
0
39
0
210
0
220
0
230
1
0
LINE
5
BB
100
AcDbEntity
8
1
62
256
6
ByLayer
370
18
48
1
60
1
100
AcDbLine
10
27.413445
20
12.765392
30
0
11
24.541409
21
14.818132
31
0
39
0
210
0
220
0
230
1
0
LINE
5
D2
100
AcDbEntity
8
1
62
256
6
ByLayer
370
18
48
1
60
1
100
AcDbLine
10
-24.8684
20
-1.5
30
0
11
-24.407616
21
-4.999998
31
0
39
0
210
0
220
0
230
1
0
LINE
5
D3
100
AcDbEntity
8
1
62
256
6
ByLayer
370
18
48
1
60
1
100
AcDbLine
10
-24.407616
20
-4.999998
30
0
11
-25.329184
21
-5.000002
31
0
39
0
210
0
220
0
230
1
0
LINE
5
D4
100
AcDbEntity
8
1
62
256
6
ByLayer
370
18
48
1
60
1
100
AcDbLine
10
-25.329184
20
-5.000002
30
0
11
-24.8684
21
-1.5
31
0
39
0
210
0
220
0
230
1
0
LINE
5
D6
100
AcDbEntity
8
1
62
256
6
ByLayer
370
18
48
1
60
1
100
AcDbLine
10
-24.8684
20
1.5
30
0
11
-25.329184
21
4.999998
31
0
39
0
210
0
220
0
230
1
0
LINE
5
D7
100
AcDbEntity
8
1
62
256
6
ByLayer
370
18
48
1
60
1
100
AcDbLine
10
-25.329184
20
4.999998
30
0
11
-24.407616
21
5.000002
31
0
39
0
210
0
220
0
230
1
0
LINE
5
D8
100
AcDbEntity
8
1
62
256
6
ByLayer
370
18
48
1
60
1
100
AcDbLine
10
-24.407616
20
5.000002
30
0
11
-24.8684
21
1.5
31
0
39
0
210
0
220
0
230
1
0
LINE
5
DC
100
AcDbEntity
8
1
62
256
6
ByLayer
370
18
48
1
60
1
100
AcDbLine
10
23.1316
20
-1.29
30
0
11
23.592384
21
-4.789998
31
0
39
0
210
0
220
0
230
1
0
LINE
5
DD
100
AcDbEntity
8
1
62
256
6
ByLayer
370
18
48
1
60
1
100
AcDbLine
10
23.592384
20
-4.789998
30
0
11
22.670816
21
-4.790002
31
0
39
0
210
0
220
0
230
1
0
LINE
5
DE
100
AcDbEntity
8
1
62
256
6
ByLayer
370
18
48
1
60
1
100
AcDbLine
10
22.670816
20
-4.790002
30
0
11
23.1316
21
-1.29
31
0
39
0
210
0
220
0
230
1
0
LINE
5
E0
100
AcDbEntity
8
1
62
256
6
ByLayer
370
18
48
1
60
1
100
AcDbLine
10
23.1316
20
1.29
30
0
11
22.670816
21
4.789998
31
0
39
0
210
0
220
0
230
1
0
LINE
5
E1
100
AcDbEntity
8
1
62
256
6
ByLayer
370
18
48
1
60
1
100
AcDbLine
10
22.670816
20
4.789998
30
0
11
23.592384
21
4.790002
31
0
39
0
210
0
220
0
230
1
0
LINE
5
E2
100
AcDbEntity
8
1
62
256
6
ByLayer
370
18
48
1
60
1
100
AcDbLine
10
23.592384
20
4.790002
30
0
11
23.1316
21
1.29
31
0
39
0
210
0
220
0
230
1
0
LINE
5
E5
100
AcDbEntity
8
1
62
256
6
ByLayer
370
18
48
1
60
1
100
AcDbLine
10
24.541409
20
-14.818132
30
0
11
27.413442
21
-12.765394
31
0
39
0
210
0
220
0
230
1
0
LINE
5
E6
100
AcDbEntity
8
1
62
256
6
ByLayer
370
18
48
1
60
1
100
AcDbLine
10
27.413442
20
-12.765394
30
0
11
27.846871
21
-13.578675
31
0
39
0
210
0
220
0
230
1
0
LINE
5
E7
100
AcDbEntity
8
1
62
256
6
ByLayer
370
18
48
1
60
1
100
AcDbLine
10
27.846871
20
-13.578675
30
0
11
24.541409
21
-14.818132
31
0
39
0
210
0
220
0
230
1
0
LINE
5
E9
100
AcDbEntity
8
1
62
256
6
ByLayer
370
18
48
1
60
1
100
AcDbLine
10
24.541409
20
14.818132
30
0
11
27.846868
21
13.578677
31
0
39
0
210
0
220
0
230
1
0
LINE
5
EA
100
AcDbEntity
8
1
62
256
6
ByLayer
370
18
48
1
60
1
100
AcDbLine
10
27.846868
20
13.578677
30
0
11
27.413445
21
12.765392
31
0
39
0
210
0
220
0
230
1
0
LINE
5
EB
100
AcDbEntity
8
1
62
256
6
ByLayer
370
18
48
1
60
1
100
AcDbLine
10
27.413445
20
12.765392
30
0
11
24.541409
21
14.818132
31
0
39
0
210
0
220
0
230
1
0
MTEXT
5
CE
100
AcDbEntity
8
SK2
62
256
6
ByLayer
370
18
48
1
60
0
100
AcDbMText
10
-26.209514
20
6.658437
30
0
210
0
220
0
230
1
1
%%c
40
3
41
0
44
1.084337
50
90
71
7
72
5
7
iso_b_vert
0
MTEXT
5
D1
100
AcDbEntity
8
SK2
62
256
6
ByLayer
370
18
48
1
60
0
100
AcDbMText
10
-26.209514
20
12.635
30
0
210
0
220
0
230
1
1
\W0.7468;3.000
40
3
41
0
44
1.084337
50
90
71
7
72
5
7
iso_b_vert
0
MTEXT
5
DA
100
AcDbEntity
8
2
62
256
6
ByLayer
370
18
48
1
60
0
100
AcDbMText
10
21.790486
20
14.368438
30
0
210
0
220
0
230
1
1
%%c
40
3
41
0
44
1.084337
50
90
71
7
72
5
7
iso_b_vert
0
MTEXT
5
DB
100
AcDbEntity
8
2
62
256
6
ByLayer
370
18
48
1
60
0
100
AcDbMText
10
21.790486
20
20.345
30
0
210
0
220
0
230
1
1
\W0.7468;2.580
40
3
41
0
44
1.084337
50
90
71
7
72
5
7
iso_b_vert
0
MTEXT
5
E4
100
AcDbEntity
8
SK2
62
256
6
ByLayer
370
18
48
1
60
0
100
AcDbMText
10
30.698886
20
-2.114886
30
0
210
0
220
0
230
1
1
\W0.6747;130%%d
40
3
41
0
44
1.084337
50
0
71
7
72
5
7
iso_b_vert
0
MTEXT
5
ED
100
AcDbEntity
8
SK6
62
256
6
ByLayer
370
18
48
1
60
0
100
AcDbMText
10
-28.997367
20
-48.114886
30
0
210
0
220
0
230
1
1
\W0.7647;462.1-0258-010A0-XM X0BU
40
3
41
0
44
1.084337
50
0
71
7
72
5
7
iso_b_vert
0
HATCH
5
D5
100
AcDbEntity
8
SK2
62
256
6
ByLayer
370
13
48
1
60
0
100
AcDbHatch
10
0
20
0
30
0
210
0
220
0
230
1
2
ANSI31
70
0
71
0
91
1
92
5
93
3
72
1
10
-24.8684
20
-1.5
11
-24.4076162584472
21
-4.99999830744682
72
1
10
-24.4076162584472
20
-4.99999830744682
11
-25.3291837415528
21
-5.00000169255318
72
1
10
-25.3291837415528
20
-5.00000169255318
11
-24.8684
21
-1.5
97
0
75
0
76
1
52
0
41
0.0062
77
0
78
1
53
45
43
0
44
0
45
-0.0139193969876572
46
0.0139193969876572
79
0
47
0
98
1
10
0
20
0
0
HATCH
5
D9
100
AcDbEntity
8
SK2
62
256
6
ByLayer
370
13
48
1
60
0
100
AcDbHatch
10
0
20
0
30
0
210
0
220
0
230
1
2
ANSI31
70
0
71
0
91
1
92
5
93
3
72
1
10
-24.8684
20
1.5
11
-25.3291837415528
21
4.99999830744682
72
1
10
-25.3291837415528
20
4.99999830744682
11
-24.4076162584472
21
5.00000169255318
72
1
10
-24.4076162584472
20
5.00000169255318
11
-24.8684
21
1.5
97
0
75
0
76
1
52
0
41
0.0062
77
0
78
1
53
45
43
0
44
0
45
-0.0139193969876572
46
0.0139193969876572
79
0
47
0
98
1
10
0
20
0
0
HATCH
5
DF
100
AcDbEntity
8
2
62
256
6
ByLayer
370
13
48
1
60
0
100
AcDbHatch
10
0
20
0
30
0
210
0
220
0
230
1
2
ANSI31
70
0
71
0
91
1
92
5
93
3
72
1
10
23.1316
20
-1.28999999999999
11
23.5923837415528
21
-4.78999830744681
72
1
10
23.5923837415528
20
-4.78999830744681
11
22.6708162584472
21
-4.79000169255318
72
1
10
22.6708162584472
20
-4.79000169255318
11
23.1316
21
-1.28999999999999
97
0
75
0
76
1
52
0
41
0.0062
77
0
78
1
53
45
43
0
44
0
45
-0.0139193969876572
46
0.0139193969876572
79
0
47
0
98
1
10
0
20
0
0
HATCH
5
E3
100
AcDbEntity
8
2
62
256
6
ByLayer
370
13
48
1
60
0
100
AcDbHatch
10
0
20
0
30
0
210
0
220
0
230
1
2
ANSI31
70
0
71
0
91
1
92
5
93
3
72
1
10
23.1316
20
1.28999999999999
11
22.6708162584472
21
4.78999830744681
72
1
10
22.6708162584472
20
4.78999830744681
11
23.5923837415528
21
4.79000169255318
72
1
10
23.5923837415528
20
4.79000169255318
11
23.1316
21
1.28999999999999
97
0
75
0
76
1
52
0
41
0.0062
77
0
78
1
53
45
43
0
44
0
45
-0.0139193969876572
46
0.0139193969876572
79
0
47
0
98
1
10
0
20
0
0
HATCH
5
E8
100
AcDbEntity
8
SK2
62
256
6
ByLayer
370
13
48
1
60
0
100
AcDbHatch
10
0
20
0
30
0
210
0
220
0
230
1
2
ANSI31
70
0
71
0
91
1
92
5
93
3
72
1
10
24.5414085794604
20
-14.8181323180492
11
27.4134418553693
21
-12.765393983365
72
1
10
27.4134418553693
20
-12.765393983365
11
27.8468706127348
21
-13.5786750775861
72
1
10
27.8468706127348
20
-13.5786750775861
11
24.5414085794604
21
-14.8181323180492
97
0
75
0
76
1
52
0
41
0.0062
77
0
78
1
53
45
43
0
44
0
45
-0.0139193969876572
46
0.0139193969876572
79
0
47
0
98
1
10
0
20
0
0
HATCH
5
EC
100
AcDbEntity
8
SK2
62
256
6
ByLayer
370
13
48
1
60
0
100
AcDbHatch
10
0
20
0
30
0
210
0
220
0
230
1
2
ANSI31
70
0
71
0
91
1
92
5
93
3
72
1
10
24.5414085794604
20
14.8181323180492
11
27.8468676253807
21
13.5786766696479
72
1
10
27.8468676253807
20
13.5786766696479
11
27.4134448427234
21
12.7653923913032
72
1
10
27.4134448427234
20
12.7653923913032
11
24.5414085794604
21
14.8181323180492
97
0
75
0
76
1
52
0
41
0.0062
77
0
78
1
53
45
43
0
44
0
45
-0.0139193969876572
46
0.0139193969876572
79
0
47
0
98
1
10
0
20
0
0
DIMENSION
5
F0
100
AcDbEntity
8
SK2
62
256
6
ByLayer
370
18
48
1
60
0
100
AcDbDimension
2
_U0
10
17.6316
20
-39.247212
30
0
11
-1.3684
21
-39.247212
31
0
70
32
71
1
72
1
41
1
210
0
220
0
230
1
3
Standard
100
AcDbAlignedDimension
13
-20.3684
23
1.5
33
0
14
17.6316
24
1.29
34
0
50
0
100
AcDbRotatedDimension
1001
ACAD
1000
DSTYLE
1002
{
1070
   371
1070
    13
1070
   372
1070
    13
1070
     3
1000

1070
   170
1070
     0
1070
   144
1040
1.0
1070
   277
1070
     2
1070
   284
1070
     8
1070
   278
1070
    46
1070
   146
1040
1.166667
1070
   345
1005
16
1070
   347
1005
16
1070
   346
1005
16
1070
   344
1005
0
1070
   343
1005
0
1070
   172
1070
     1
1070
    76
1070
     0
1070
    75
1070
     0
1070
   282
1070
     0
1070
   281
1070
     0
1070
    71
1070
     0
1070
    74
1070
     0
1070
   279
1070
     0
1070
   173
1070
     1
1070
   340
1005
CF
1070
   271
1070
     2
1070
   272
1070
     2
1070
    77
1070
     1
1070
    73
1070
     1
1070
   171
1070
     3
1070
   274
1070
     4
1070
   177
1070
     2
1070
   176
1070
     2
1070
   178
1070
     2
1070
    78
1070
     8
1070
    48
1040
-0.1
1070
    41
1040
3.5
1070
   147
1040
1.5
1070
    42
1040
1.5875
1070
    44
1040
2.0
1070
   140
1040
3.0
1002
}
1001
ACAD_DSTYLE_DIM_LINETYPE
1070
   380
1005
16
1001
ACAD_DSTYLE_DIM_EXT1_LINETYPE
1070
   381
1005
16
1001
ACAD_DSTYLE_DIM_EXT2_LINETYPE
1070
   382
1005
16
0
DIMENSION
5
109
100
AcDbEntity
8
SK2
62
256
6
ByLayer
370
18
48
1
60
0
100
AcDbDimension
2
_U1
10
7.5016
20
-22.79
30
0
11
34.917314
21
-22.79
31
0
70
32
71
1
72
1
41
1
210
0
220
0
230
1
3
Standard
100
AcDbAlignedDimension
13
17.6316
23
1.29
33
0
14
7.5016
24
0
34
0
50
0
100
AcDbRotatedDimension
1001
ACAD
1000
DSTYLE
1002
{
1070
   371
1070
    13
1070
   372
1070
    13
1070
     3
1000

1070
   170
1070
     0
1070
   144
1040
1.0
1070
   277
1070
     2
1070
   284
1070
     8
1070
   278
1070
    46
1070
   146
1040
1.166667
1070
   345
1005
16
1070
   347
1005
16
1070
   346
1005
16
1070
   344
1005
0
1070
   343
1005
0
1070
   172
1070
     1
1070
    76
1070
     0
1070
    75
1070
     0
1070
   282
1070
     0
1070
   281
1070
     0
1070
    71
1070
     0
1070
    74
1070
     0
1070
   279
1070
     0
1070
   173
1070
     1
1070
   340
1005
CF
1070
   271
1070
     2
1070
   272
1070
     2
1070
    77
1070
     1
1070
    73
1070
     1
1070
   171
1070
     3
1070
   274
1070
     4
1070
   177
1070
     2
1070
   176
1070
     2
1070
   178
1070
     2
1070
    78
1070
     8
1070
    48
1040
-0.1
1070
    41
1040
3.5
1070
   147
1040
1.5
1070
    42
1040
1.5875
1070
    44
1040
2.0
1070
   140
1040
3.0
1002
}
1001
ACAD_DSTYLE_DIM_LINETYPE
1070
   380
1005
16
1001
ACAD_DSTYLE_DIM_EXT1_LINETYPE
1070
   381
1005
16
1001
ACAD_DSTYLE_DIM_EXT2_LINETYPE
1070
   382
1005
16
0
DIMENSION
5
123
100
AcDbEntity
8
SK2
62
256
6
ByLayer
370
18
48
1
60
0
100
AcDbDimension
2
_U2
10
3.6316
20
-30.747212
30
0
11
10.6316
21
-30.747212
31
0
70
32
71
1
72
1
41
1
210
0
220
0
230
1
3
Standard
100
AcDbAlignedDimension
13
17.6316
23
1.29
33
0
14
3.6316
24
0
34
0
50
0
100
AcDbRotatedDimension
1001
ACAD
1000
DSTYLE
1002
{
1070
   371
1070
    13
1070
   372
1070
    13
1070
     3
1000

1070
   170
1070
     0
1070
   144
1040
1.0
1070
   277
1070
     2
1070
   284
1070
     8
1070
   278
1070
    46
1070
   146
1040
1.166667
1070
   345
1005
16
1070
   347
1005
16
1070
   346
1005
16
1070
   344
1005
0
1070
   343
1005
0
1070
   172
1070
     1
1070
    76
1070
     0
1070
    75
1070
     0
1070
   282
1070
     0
1070
   281
1070
     0
1070
    71
1070
     0
1070
    74
1070
     0
1070
   279
1070
     0
1070
   173
1070
     1
1070
   340
1005
CF
1070
   271
1070
     2
1070
   272
1070
     2
1070
    77
1070
     1
1070
    73
1070
     1
1070
   171
1070
     3
1070
   274
1070
     4
1070
   177
1070
     2
1070
   176
1070
     2
1070
   178
1070
     2
1070
    78
1070
     8
1070
    48
1040
-0.1
1070
    41
1040
3.5
1070
   147
1040
1.5
1070
    42
1040
1.5875
1070
    44
1040
2.0
1070
   140
1040
3.0
1002
}
1001
ACAD_DSTYLE_DIM_LINETYPE
1070
   380
1005
16
1001
ACAD_DSTYLE_DIM_EXT1_LINETYPE
1070
   381
1005
16
1001
ACAD_DSTYLE_DIM_EXT2_LINETYPE
1070
   382
1005
16
0
DIMENSION
5
13C
100
AcDbEntity
8
SK2
62
256
6
ByLayer
370
18
48
1
60
0
100
AcDbDimension
2
_U3
10
0
20
11.747212
30
0
11
-10.1842
21
11.747212
31
0
70
32
71
1
72
1
41
1
210
0
220
0
230
1
3
Standard
100
AcDbAlignedDimension
13
-20.3684
23
0
33
0
14
0
24
0
34
0
50
0
100
AcDbRotatedDimension
1001
ACAD
1000
DSTYLE
1002
{
1070
   371
1070
    13
1070
   372
1070
    13
1070
     3
1000

1070
   170
1070
     0
1070
   144
1040
1.0
1070
   277
1070
     2
1070
   284
1070
     8
1070
   278
1070
    46
1070
   146
1040
1.166667
1070
   345
1005
16
1070
   347
1005
16
1070
   346
1005
16
1070
   344
1005
0
1070
   343
1005
0
1070
   172
1070
     1
1070
    76
1070
     0
1070
    75
1070
     0
1070
   282
1070
     0
1070
   281
1070
     0
1070
    71
1070
     0
1070
    74
1070
     0
1070
   279
1070
     0
1070
   173
1070
     1
1070
   340
1005
CF
1070
   271
1070
     2
1070
   272
1070
     2
1070
    77
1070
     1
1070
    73
1070
     1
1070
   171
1070
     3
1070
   274
1070
     4
1070
   177
1070
     2
1070
   176
1070
     2
1070
   178
1070
     2
1070
    78
1070
     8
1070
    48
1040
-0.1
1070
    41
1040
3.5
1070
   147
1040
1.5
1070
    42
1040
1.5875
1070
    44
1040
2.0
1070
   140
1040
3.0
1002
}
1001
ACAD_DSTYLE_DIM_LINETYPE
1070
   380
1005
16
1001
ACAD_DSTYLE_DIM_EXT1_LINETYPE
1070
   381
1005
16
1001
ACAD_DSTYLE_DIM_EXT2_LINETYPE
1070
   382
1005
16
0
DIMENSION
5
154
100
AcDbEntity
8
2
62
256
6
ByLayer
370
18
48
1
60
0
100
AcDbDimension
2
_U4
10
0
20
11.747212
30
0
11
8.8158
21
11.747212
31
0
70
32
71
1
72
1
41
1
210
0
220
0
230
1
3
Standard
100
AcDbAlignedDimension
13
17.6316
23
1.29
33
0
14
0
24
0
34
0
50
0
100
AcDbRotatedDimension
1001
ACAD
1000
DSTYLE
1002
{
1070
   371
1070
    13
1070
   372
1070
    13
1070
     3
1000

1070
   170
1070
     0
1070
   144
1040
1.0
1070
   277
1070
     2
1070
   284
1070
     8
1070
   278
1070
    46
1070
   146
1040
1.166667
1070
   345
1005
16
1070
   347
1005
16
1070
   346
1005
16
1070
   344
1005
0
1070
   343
1005
0
1070
   172
1070
     1
1070
    76
1070
     0
1070
    75
1070
     0
1070
   282
1070
     0
1070
   281
1070
     0
1070
    71
1070
     0
1070
    74
1070
     0
1070
   279
1070
     0
1070
   173
1070
     1
1070
   340
1005
CF
1070
   271
1070
     2
1070
   272
1070
     2
1070
    77
1070
     1
1070
    73
1070
     1
1070
   171
1070
     3
1070
   274
1070
     4
1070
   177
1070
     2
1070
   176
1070
     2
1070
   178
1070
     2
1070
    78
1070
     8
1070
    48
1040
-0.1
1070
    41
1040
3.5
1070
   147
1040
1.5
1070
    42
1040
1.5875
1070
    44
1040
2.0
1070
   140
1040
3.0
1002
}
1001
ACAD_DSTYLE_DIM_LINETYPE
1070
   380
1005
16
1001
ACAD_DSTYLE_DIM_EXT1_LINETYPE
1070
   381
1005
16
1001
ACAD_DSTYLE_DIM_EXT2_LINETYPE
1070
   382
1005
16
0
ENDSEC
0
SECTION
2
OBJECTS
0
DICTIONARY
5
1dc
330
0
100
AcDbDictionary
280
0
281
1
3
ACAD_GROUP
350
1dd
3
ACAD_MLINESTYLE
350
1de
0
DICTIONARY
5
1dd
330
0
100
AcDbDictionary
280
0
281
1
0
DICTIONARY
5
1de
330
0
100
AcDbDictionary
280
0
281
1
3
Standard
350
18
0
MLINESTYLE
5
18
330
1de
100
AcDbMlineStyle
2
Standard
70
0
3

62
256
51
90
52
90
71
2
49
-0.5
62
256
6
ByLayer
49
0.5
62
256
6
ByLayer
0
RASTERVARIABLES
5
1ca
330

100
AcDbRasterVariables
90
0
70
1
71
1
72
1
0
ENDSEC
0
EOF
