0
SECTION
2
HEADER
9
$ACADVER
1
AC1015
9
$DWGCODEPAGE
3
ANSI_1252
9
$HANDSEED
5
1e4
9
$ANGBASE
50
0
9
$ANGDIR
70
0
9
$ATTMODE
70
1
9
$AUNITS
70
0
9
$AUPREC
70
0
9
$CECOLOR
62
256
9
$CELTSCALE
40
1
9
$CELTYPE
6
ByLayer
9
$CELWEIGHT
370
18
9
$CLAYER
8
0
9
$CMLJUST
70
0
9
$CMLSCALE
40
1
9
$CMLSTYLE
2
Standard
9
$DIMSTYLE
2
Standard
9
$TEXTSIZE
40
0.2
9
$TEXTSTYLE
7
Standard
9
$LUNITS
70
2
9
$LUPREC
70
4
9
$EXTNAMES
290
1
9
$INSUNITS
70
4
9
$LTSCALE
40
1
9
$LWDISPLAY
290
1
9
$PDMODE
70
0
9
$PDSIZE
40
0
9
$PLINEGEN
70
0
0
ENDSEC
0
SECTION
2
CLASSES
0
CLASS
1
RASTERVARIABLES
2
AcDbRasterVariables
3
ISM
90
0
280
0
281
0
0
ENDSEC
0
SECTION
2
TABLES
0
TABLE
2
VPORT
5
1da
100
AcDbSymbolTable
0
VPORT
5
1
100
AcDbSymbolTableRecord
100
AcDbViewportTableRecord
2
*Active
70
0
10
0
20
0
11
1
21
1
12
-1
22
1
13
0
23
0
14
0.5
24
0.5
15
10
25
10
16
0
26
0
36
1
17
0
27
0
37
0
0
ENDTAB
0
TABLE
2
LTYPE
5
1db
100
AcDbSymbolTable
0
LTYPE
5
14
100
AcDbSymbolTableRecord
100
AcDbLinetypeTableRecord
70
0
2
ByBlock
3

72
65
73
0
40
0
0
LTYPE
5
15
100
AcDbSymbolTableRecord
100
AcDbLinetypeTableRecord
70
0
2
ByLayer
3

72
65
73
0
40
0
0
LTYPE
5
16
100
AcDbSymbolTableRecord
100
AcDbLinetypeTableRecord
70
0
2
Continuous
3
Solid line
72
65
73
0
40
0
0
LTYPE
5
6E
100
AcDbSymbolTableRecord
100
AcDbLinetypeTableRecord
70
0
2
CENTER
3
____ _ ____ _ ____ _ ____
72
65
73
4
40
47.5
49
22
74
0
49
-8.5
74
0
49
8.5
74
0
49
-8.5
74
0
0
LTYPE
5
6F
100
AcDbSymbolTableRecord
100
AcDbLinetypeTableRecord
70
0
2
DASHED
3
__ __ __ __ __ __ __ __ __
72
65
73
2
40
25.72
49
12.86
74
0
49
-12.86
74
0
0
ENDTAB
0
TABLE
2
LAYER
5
1dc
100
AcDbSymbolTable
0
LAYER
5
10
100
AcDbSymbolTableRecord
100
AcDbLayerTableRecord
2
0
70
0
62
7
6
Continuous
290
1
370
-3
390
0
0
LAYER
5
71
100
AcDbSymbolTableRecord
100
AcDbLayerTableRecord
2
80
70
0
62
-6
6
Continuous
290
1
370
-3
390
0
0
LAYER
5
73
100
AcDbSymbolTableRecord
100
AcDbLayerTableRecord
2
81
70
0
62
-3
6
Continuous
290
1
370
-3
390
0
0
LAYER
5
75
100
AcDbSymbolTableRecord
100
AcDbLayerTableRecord
2
1
70
0
62
4
6
Continuous
290
1
370
-3
390
0
0
LAYER
5
94
100
AcDbSymbolTableRecord
100
AcDbLayerTableRecord
2
4
70
0
62
-2
6
CENTER
290
1
370
-3
390
0
0
LAYER
5
A4
100
AcDbSymbolTableRecord
100
AcDbLayerTableRecord
2
2
70
0
62
7
6
Continuous
290
1
370
-3
390
0
0
LAYER
5
EE
100
AcDbSymbolTableRecord
100
AcDbLayerTableRecord
2
Defpoints
70
0
62
7
6
Continuous
290
0
370
-3
390
0
0
LAYER
5
1c6
100
AcDbSymbolTableRecord
100
AcDbLayerTableRecord
2
SK1
70
0
62
4
6
Continuous
290
1
370
-3
390
0
0
LAYER
5
1c7
100
AcDbSymbolTableRecord
100
AcDbLayerTableRecord
2
SK4
70
0
62
2
6
CENTER
290
1
370
-3
390
0
0
LAYER
5
1c8
100
AcDbSymbolTableRecord
100
AcDbLayerTableRecord
2
SK2
70
0
62
7
6
Continuous
290
1
370
-3
390
0
0
LAYER
5
1c9
100
AcDbSymbolTableRecord
100
AcDbLayerTableRecord
2
SK6
70
0
62
5
6
Continuous
290
1
370
-3
390
0
0
ENDTAB
0
TABLE
2
STYLE
5
1dd
100
AcDbSymbolTable
0
STYLE
5
11
100
AcDbSymbolTableRecord
100
AcDbTextStyleTableRecord
2
Standard
3
txt
70
0
71
0
40
0
41
1
42
0
50
0
0
STYLE
5
CA
100
AcDbSymbolTableRecord
100
AcDbTextStyleTableRecord
2
iso_b_vert
3
simplex.shx
70
0
71
0
40
0
41
1
42
0
50
0
0
STYLE
5
CB
100
AcDbSymbolTableRecord
100
AcDbTextStyleTableRecord
2
DWGDirectTextStyle
3
simplex
70
0
71
0
40
0
41
1
42
0
50
0
0
ENDTAB
0
TABLE
2
DIMSTYLE
5
1de
100
AcDbSymbolTable
100
AcDbDimStyleTable
0
DIMSTYLE
105
27
100
AcDbSymbolTableRecord
100
AcDbDimStyleTableRecord
2
Standard
70
0
3
<>
41
0.18
42
0.0625
44
0.18
140
0.18
147
0.09
73
0
74
0
77
1
271
2
275
0
278
52
280
0
340
11
0
ENDTAB
0
TABLE
2
VIEW
5
1df
100
AcDbSymbolTable
0
ENDTAB
0
TABLE
2
UCS
5
1e0
100
AcDbSymbolTable
0
ENDTAB
0
TABLE
2
APPID
5
1e1
100
AcDbSymbolTable
0
APPID
5
12
100
AcDbSymbolTableRecord
100
AcDbRegAppTableRecord
2
ACAD
70
0
0
APPID
5
EA
100
AcDbSymbolTableRecord
100
AcDbRegAppTableRecord
2
ACAD_DSTYLE_DIMBREAK
70
0
0
APPID
5
185
100
AcDbSymbolTableRecord
100
AcDbRegAppTableRecord
2
ACAD_DSTYLE_DIM_LINETYPE
70
0
0
APPID
5
186
100
AcDbSymbolTableRecord
100
AcDbRegAppTableRecord
2
ACAD_DSTYLE_DIM_EXT1_LINETYPE
70
0
0
APPID
5
187
100
AcDbSymbolTableRecord
100
AcDbRegAppTableRecord
2
ACAD_DSTYLE_DIM_EXT2_LINETYPE
70
0
0
APPID
5
1C2
100
AcDbSymbolTableRecord
100
AcDbRegAppTableRecord
2
ACAD_MLEADERVER
70
0
0
ENDTAB
0
TABLE
2
BLOCK_RECORD
5
1e2
100
AcDbSymbolTable
0
BLOCK_RECORD
5
1F
100
AcDbSymbolTableRecord
100
AcDbBlockTableRecord
2
*Model_Space
340
0
70
0
0
BLOCK_RECORD
5
1B
100
AcDbSymbolTableRecord
100
AcDbBlockTableRecord
2
*Paper_Space
340
0
70
0
0
BLOCK_RECORD
5
23
100
AcDbSymbolTableRecord
100
AcDbBlockTableRecord
2
*Paper_Space0
340
0
70
0
0
BLOCK_RECORD
5
EF
100
AcDbSymbolTableRecord
100
AcDbBlockTableRecord
2
*D1
340
0
70
0
0
BLOCK_RECORD
5
FB
100
AcDbSymbolTableRecord
100
AcDbBlockTableRecord
2
_U0
340
0
70
0
0
BLOCK_RECORD
5
107
100
AcDbSymbolTableRecord
100
AcDbBlockTableRecord
2
*D3
340
0
70
0
0
BLOCK_RECORD
5
115
100
AcDbSymbolTableRecord
100
AcDbBlockTableRecord
2
_U1
340
0
70
0
0
BLOCK_RECORD
5
121
100
AcDbSymbolTableRecord
100
AcDbBlockTableRecord
2
*D5
340
0
70
0
0
BLOCK_RECORD
5
12E
100
AcDbSymbolTableRecord
100
AcDbBlockTableRecord
2
_U2
340
0
70
0
0
BLOCK_RECORD
5
13A
100
AcDbSymbolTableRecord
100
AcDbBlockTableRecord
2
*D7
340
0
70
0
0
BLOCK_RECORD
5
146
100
AcDbSymbolTableRecord
100
AcDbBlockTableRecord
2
_U3
340
0
70
0
0
BLOCK_RECORD
5
152
100
AcDbSymbolTableRecord
100
AcDbBlockTableRecord
2
*D9
340
0
70
0
0
BLOCK_RECORD
5
15E
100
AcDbSymbolTableRecord
100
AcDbBlockTableRecord
2
_U4
340
0
70
0
0
ENDTAB
0
ENDSEC
0
SECTION
2
BLOCKS
0
BLOCK
5
20
100
AcDbEntity
8
0
100
AcDbBlockBegin
2
*Model_Space
70
0
10
0
20
0
30
0
3
*Model_Space
0
ENDBLK
5
21
100
AcDbEntity
8
0
100
AcDbBlockEnd
0
BLOCK
5
1C
100
AcDbEntity
8
0
100
AcDbBlockBegin
2
*Paper_Space
70
0
10
0
20
0
30
0
3
*Paper_Space
0
ENDBLK
5
1D
100
AcDbEntity
8
0
100
AcDbBlockEnd
0
BLOCK
5
24
100
AcDbEntity
8
0
100
AcDbBlockBegin
2
*Paper_Space0
70
0
10
0
20
0
30
0
3
*Paper_Space0
0
ENDBLK
5
25
100
AcDbEntity
8
0
100
AcDbBlockEnd
0
BLOCK
5
F0
100
AcDbEntity
8
0
100
AcDbBlockBegin
2
*D1
70
1
10
0
20
0
30
0
3
*D1
0
LINE
5
F2
100
AcDbEntity
8
0
62
256
6
ByLayer
370
-2
48
1
60
0
100
AcDbLine
10
-20.4574
20
-0.0875
30
0
11
-20.4574
21
-40.987462
31
0
39
0
210
0
220
0
230
1
0
LINE
5
F3
100
AcDbEntity
8
0
62
256
6
ByLayer
370
-2
48
1
60
0
100
AcDbLine
10
17.5426
20
-0.2475
30
0
11
17.5426
21
-40.987462
31
0
39
0
210
0
220
0
230
1
0
LINE
5
F4
100
AcDbEntity
8
0
62
256
6
ByLayer
370
-2
48
1
60
0
100
AcDbLine
10
-16.9574
20
-38.987462
30
0
11
14.0426
21
-38.987462
31
0
39
0
210
0
220
0
230
1
0
SOLID
5
F5
100
AcDbEntity
8
0
62
256
6
ByLayer
370
-1
48
1
60
0
100
AcDbTrace
10
-16.9574
20
-38.404129
30
0
11
-16.9574
21
-39.570796
31
0
12
-20.4574
22
-38.987462
32
0
13
-20.4574
23
-38.987462
33
0
39
0
210
0
220
0
230
1
0
SOLID
5
F6
100
AcDbEntity
8
0
62
256
6
ByLayer
370
-1
48
1
60
0
100
AcDbTrace
10
14.0426
20
-39.570796
30
0
11
14.0426
21
-38.404129
31
0
12
17.5426
22
-38.987462
32
0
13
17.5426
23
-38.987462
33
0
39
0
210
0
220
0
230
1
0
MTEXT
5
F7
100
AcDbEntity
8
0
62
256
6
ByLayer
370
18
48
1
60
0
100
AcDbMText
10
-1.4574
20
-32.987462
30
0
210
0
220
0
230
1
1
\A1;38
40
3
41
0
44
1
50
0
71
5
72
5
7
iso_b_vert
0
POINT
5
F8
100
AcDbEntity
8
Defpoints
62
0
6
ByLayer
370
-1
48
1
60
0
100
AcDbPoint
10
-20.4574
20
1.5
30
0
39
0
210
0
220
0
230
1
50
360
0
POINT
5
F9
100
AcDbEntity
8
Defpoints
62
0
6
ByLayer
370
-1
48
1
60
0
100
AcDbPoint
10
17.5426
20
1.34
30
0
39
0
210
0
220
0
230
1
50
360
0
POINT
5
FA
100
AcDbEntity
8
Defpoints
62
0
6
ByLayer
370
-1
48
1
60
0
100
AcDbPoint
10
17.5426
20
-38.987462
30
0
39
0
210
0
220
0
230
1
50
360
0
ENDBLK
5
F1
100
AcDbEntity
8
0
100
AcDbBlockEnd
0
BLOCK
5
102
100
AcDbEntity
8
0
100
AcDbBlockBegin
2
_U0
70
0
10
0
20
0
30
0
3
_U0
0
MTEXT
5
FC
100
AcDbEntity
8
SK2
62
256
6
ByLayer
370
18
48
1
60
0
100
AcDbMText
10
-5.93977
20
-38.102348
30
0
210
0
220
0
230
1
1
\W0.7468;38.00
40
3
41
0
44
1.084337
50
0
71
7
72
5
7
iso_b_vert
0
LINE
5
FD
100
AcDbEntity
8
SK2
62
256
6
ByLayer
370
13
48
1
60
0
100
AcDbLine
10
-20.4574
20
-0.0875
30
0
11
-20.4574
21
-40.987462
31
0
39
0
210
0
220
0
230
1
0
LINE
5
FE
100
AcDbEntity
8
SK2
62
256
6
ByLayer
370
13
48
1
60
0
100
AcDbLine
10
17.5426
20
-0.2475
30
0
11
17.5426
21
-40.987462
31
0
39
0
210
0
220
0
230
1
0
LINE
5
FF
100
AcDbEntity
8
SK2
62
256
6
ByLayer
370
13
48
1
60
0
100
AcDbLine
10
-20.4574
20
-38.987462
30
0
11
17.5426
21
-38.987462
31
0
39
0
210
0
220
0
230
1
0
SOLID
5
100
100
AcDbEntity
8
SK2
62
256
6
ByLayer
370
18
48
1
60
0
100
AcDbTrace
10
-20.4574
20
-38.987462
30
0
11
-16.957402
21
-38.526679
31
0
12
-16.957398
22
-39.448246
32
0
13
-16.957398
23
-39.448246
33
0
39
0
210
0
220
0
230
1
0
SOLID
5
101
100
AcDbEntity
8
SK2
62
256
6
ByLayer
370
18
48
1
60
0
100
AcDbTrace
10
17.5426
20
-38.987462
30
0
11
14.042602
21
-39.448246
31
0
12
14.042598
22
-38.526679
32
0
13
14.042598
23
-38.526679
33
0
39
0
210
0
220
0
230
1
0
ENDBLK
5
103
100
AcDbEntity
8
0
100
AcDbBlockEnd
0
BLOCK
5
108
100
AcDbEntity
8
0
100
AcDbBlockBegin
2
*D3
70
1
10
0
20
0
30
0
3
*D3
0
LINE
5
10A
100
AcDbEntity
8
0
62
256
6
ByLayer
370
-2
48
1
60
0
100
AcDbLine
10
17.5426
20
-0.2475
30
0
11
17.5426
21
-24.84
31
0
39
0
210
0
220
0
230
1
0
LINE
5
10B
100
AcDbEntity
8
0
62
256
6
ByLayer
370
-2
48
1
60
0
100
AcDbLine
10
7.5626
20
-1.5875
30
0
11
7.5626
21
-24.84
31
0
39
0
210
0
220
0
230
1
0
LINE
5
10C
100
AcDbEntity
8
0
62
256
6
ByLayer
370
-2
48
1
60
0
100
AcDbLine
10
17.5426
20
-22.84
30
0
11
42.685457
21
-22.84
31
0
39
0
210
0
220
0
230
1
0
LINE
5
10D
100
AcDbEntity
8
0
62
256
6
ByLayer
370
-2
48
1
60
0
100
AcDbLine
10
21.0426
20
-22.84
30
0
11
24.5426
21
-22.84
31
0
39
0
210
0
220
0
230
1
0
LINE
5
10E
100
AcDbEntity
8
0
62
256
6
ByLayer
370
-2
48
1
60
0
100
AcDbLine
10
4.0626
20
-22.84
30
0
11
0.5626
21
-22.84
31
0
39
0
210
0
220
0
230
1
0
SOLID
5
10F
100
AcDbEntity
8
0
62
256
6
ByLayer
370
-1
48
1
60
0
100
AcDbTrace
10
21.0426
20
-22.256667
30
0
11
21.0426
21
-23.423333
31
0
12
17.5426
22
-22.84
32
0
13
17.5426
23
-22.84
33
0
39
0
210
0
220
0
230
1
0
SOLID
5
110
100
AcDbEntity
8
0
62
256
6
ByLayer
370
-1
48
1
60
0
100
AcDbTrace
10
4.0626
20
-23.423333
30
0
11
4.0626
21
-22.256667
31
0
12
7.5626
22
-22.84
32
0
13
7.5626
23
-22.84
33
0
39
0
210
0
220
0
230
1
0
MTEXT
5
111
100
AcDbEntity
8
0
62
256
6
ByLayer
370
18
48
1
60
0
100
AcDbMText
10
33.614029
20
-16.84
30
0
210
0
220
0
230
1
1
\A1;9.98
40
3
41
0
44
1
50
0
71
5
72
5
7
iso_b_vert
0
POINT
5
112
100
AcDbEntity
8
Defpoints
62
0
6
ByLayer
370
-1
48
1
60
0
100
AcDbPoint
10
17.5426
20
1.34
30
0
39
0
210
0
220
0
230
1
50
360
0
POINT
5
113
100
AcDbEntity
8
Defpoints
62
0
6
ByLayer
370
-1
48
1
60
0
100
AcDbPoint
10
7.5626
20
0
30
0
39
0
210
0
220
0
230
1
50
360
0
POINT
5
114
100
AcDbEntity
8
Defpoints
62
0
6
ByLayer
370
-1
48
1
60
0
100
AcDbPoint
10
7.5626
20
-22.84
30
0
39
0
210
0
220
0
230
1
50
360
0
ENDBLK
5
109
100
AcDbEntity
8
0
100
AcDbBlockEnd
0
BLOCK
5
11C
100
AcDbEntity
8
0
100
AcDbBlockBegin
2
_U1
70
0
10
0
20
0
30
0
3
_U1
0
MTEXT
5
116
100
AcDbEntity
8
SK2
62
256
6
ByLayer
370
18
48
1
60
0
100
AcDbMText
10
21.7016
20
-21.954886
30
0
210
0
220
0
230
1
1
\W0.7051;(9.98)
40
3
41
0
44
1.084337
50
0
71
7
72
5
7
iso_b_vert
0
LINE
5
117
100
AcDbEntity
8
SK2
62
256
6
ByLayer
370
13
48
1
60
0
100
AcDbLine
10
17.5426
20
-0.2475
30
0
11
17.5426
21
-24.84
31
0
39
0
210
0
220
0
230
1
0
LINE
5
118
100
AcDbEntity
8
SK2
62
256
6
ByLayer
370
13
48
1
60
0
100
AcDbLine
10
7.5626
20
-1.5875
30
0
11
7.5626
21
-24.84
31
0
39
0
210
0
220
0
230
1
0
LINE
5
119
100
AcDbEntity
8
SK2
62
256
6
ByLayer
370
13
48
1
60
0
100
AcDbLine
10
7.5626
20
-22.84
30
0
11
31.014369
21
-22.84
31
0
39
0
210
0
220
0
230
1
0
SOLID
5
11A
100
AcDbEntity
8
SK2
62
256
6
ByLayer
370
18
48
1
60
0
100
AcDbTrace
10
17.5426
20
-22.84
30
0
11
14.042602
21
-23.300784
31
0
12
14.042598
22
-22.379216
32
0
13
14.042598
23
-22.379216
33
0
39
0
210
0
220
0
230
1
0
SOLID
5
11B
100
AcDbEntity
8
SK2
62
256
6
ByLayer
370
18
48
1
60
0
100
AcDbTrace
10
7.5626
20
-22.84
30
0
11
11.062598
21
-22.379216
31
0
12
11.062602
22
-23.300784
32
0
13
11.062602
23
-23.300784
33
0
39
0
210
0
220
0
230
1
0
ENDBLK
5
11D
100
AcDbEntity
8
0
100
AcDbBlockEnd
0
BLOCK
5
122
100
AcDbEntity
8
0
100
AcDbBlockBegin
2
*D5
70
1
10
0
20
0
30
0
3
*D5
0
LINE
5
124
100
AcDbEntity
8
0
62
256
6
ByLayer
370
-2
48
1
60
0
100
AcDbLine
10
17.5426
20
-0.2475
30
0
11
17.5426
21
-32.487462
31
0
39
0
210
0
220
0
230
1
0
LINE
5
125
100
AcDbEntity
8
0
62
256
6
ByLayer
370
-2
48
1
60
0
100
AcDbLine
10
3.5426
20
-1.5875
30
0
11
3.5426
21
-32.487462
31
0
39
0
210
0
220
0
230
1
0
LINE
5
126
100
AcDbEntity
8
0
62
256
6
ByLayer
370
-2
48
1
60
0
100
AcDbLine
10
21.0426
20
-30.487462
30
0
11
24.5426
21
-30.487462
31
0
39
0
210
0
220
0
230
1
0
LINE
5
127
100
AcDbEntity
8
0
62
256
6
ByLayer
370
-2
48
1
60
0
100
AcDbLine
10
0.0426
20
-30.487462
30
0
11
-3.4574
21
-30.487462
31
0
39
0
210
0
220
0
230
1
0
SOLID
5
128
100
AcDbEntity
8
0
62
256
6
ByLayer
370
-1
48
1
60
0
100
AcDbTrace
10
21.0426
20
-29.904129
30
0
11
21.0426
21
-31.070796
31
0
12
17.5426
22
-30.487462
32
0
13
17.5426
23
-30.487462
33
0
39
0
210
0
220
0
230
1
0
SOLID
5
129
100
AcDbEntity
8
0
62
256
6
ByLayer
370
-1
48
1
60
0
100
AcDbTrace
10
0.0426
20
-31.070796
30
0
11
0.0426
21
-29.904129
31
0
12
3.5426
22
-30.487462
32
0
13
3.5426
23
-30.487462
33
0
39
0
210
0
220
0
230
1
0
MTEXT
5
12A
100
AcDbEntity
8
0
62
256
6
ByLayer
370
18
48
1
60
0
100
AcDbMText
10
10.5426
20
-24.487462
30
0
210
0
220
0
230
1
1
\A1;14
40
3
41
0
44
1
50
0
71
5
72
5
7
iso_b_vert
0
POINT
5
12B
100
AcDbEntity
8
Defpoints
62
0
6
ByLayer
370
-1
48
1
60
0
100
AcDbPoint
10
17.5426
20
1.34
30
0
39
0
210
0
220
0
230
1
50
360
0
POINT
5
12C
100
AcDbEntity
8
Defpoints
62
0
6
ByLayer
370
-1
48
1
60
0
100
AcDbPoint
10
3.5426
20
0
30
0
39
0
210
0
220
0
230
1
50
360
0
POINT
5
12D
100
AcDbEntity
8
Defpoints
62
0
6
ByLayer
370
-1
48
1
60
0
100
AcDbPoint
10
3.5426
20
-30.487462
30
0
39
0
210
0
220
0
230
1
50
360
0
ENDBLK
5
123
100
AcDbEntity
8
0
100
AcDbBlockEnd
0
BLOCK
5
135
100
AcDbEntity
8
0
100
AcDbBlockBegin
2
_U2
70
0
10
0
20
0
30
0
3
_U2
0
MTEXT
5
12F
100
AcDbEntity
8
SK2
62
256
6
ByLayer
370
18
48
1
60
0
100
AcDbMText
10
6.277229
20
-29.602348
30
0
210
0
220
0
230
1
1
\W0.7091;14.00
40
3
41
0
44
1.084337
50
0
71
7
72
5
7
iso_b_vert
0
LINE
5
130
100
AcDbEntity
8
SK2
62
256
6
ByLayer
370
13
48
1
60
0
100
AcDbLine
10
17.5426
20
-0.2475
30
0
11
17.5426
21
-32.487462
31
0
39
0
210
0
220
0
230
1
0
LINE
5
131
100
AcDbEntity
8
SK2
62
256
6
ByLayer
370
13
48
1
60
0
100
AcDbLine
10
3.5426
20
-1.5875
30
0
11
3.5426
21
-32.487462
31
0
39
0
210
0
220
0
230
1
0
LINE
5
132
100
AcDbEntity
8
SK2
62
256
6
ByLayer
370
13
48
1
60
0
100
AcDbLine
10
17.5426
20
-30.487462
30
0
11
3.5426
21
-30.487462
31
0
39
0
210
0
220
0
230
1
0
SOLID
5
133
100
AcDbEntity
8
SK2
62
256
6
ByLayer
370
18
48
1
60
0
100
AcDbTrace
10
17.5426
20
-30.487462
30
0
11
14.042602
21
-30.948246
31
0
12
14.042598
22
-30.026679
32
0
13
14.042598
23
-30.026679
33
0
39
0
210
0
220
0
230
1
0
SOLID
5
134
100
AcDbEntity
8
SK2
62
256
6
ByLayer
370
18
48
1
60
0
100
AcDbTrace
10
3.5426
20
-30.487462
30
0
11
7.042598
21
-30.026679
31
0
12
7.042602
22
-30.948246
32
0
13
7.042602
23
-30.948246
33
0
39
0
210
0
220
0
230
1
0
ENDBLK
5
136
100
AcDbEntity
8
0
100
AcDbBlockEnd
0
BLOCK
5
13B
100
AcDbEntity
8
0
100
AcDbBlockBegin
2
*D7
70
1
10
0
20
0
30
0
3
*D7
0
LINE
5
13D
100
AcDbEntity
8
0
62
256
6
ByLayer
370
-2
48
1
60
0
100
AcDbLine
10
-20.4574
20
1.5875
30
0
11
-20.4574
21
13.487462
31
0
39
0
210
0
220
0
230
1
0
LINE
5
13E
100
AcDbEntity
8
0
62
256
6
ByLayer
370
-2
48
1
60
0
100
AcDbLine
10
0
20
1.5875
30
0
11
0
21
13.487462
31
0
39
0
210
0
220
0
230
1
0
LINE
5
13F
100
AcDbEntity
8
0
62
256
6
ByLayer
370
-2
48
1
60
0
100
AcDbLine
10
-16.9574
20
11.487462
30
0
11
-3.5
21
11.487462
31
0
39
0
210
0
220
0
230
1
0
SOLID
5
140
100
AcDbEntity
8
0
62
256
6
ByLayer
370
-1
48
1
60
0
100
AcDbTrace
10
-16.9574
20
12.070796
30
0
11
-16.9574
21
10.904129
31
0
12
-20.4574
22
11.487462
32
0
13
-20.4574
23
11.487462
33
0
39
0
210
0
220
0
230
1
0
SOLID
5
141
100
AcDbEntity
8
0
62
256
6
ByLayer
370
-1
48
1
60
0
100
AcDbTrace
10
-3.5
20
10.904129
30
0
11
-3.5
21
12.070796
31
0
12
0
22
11.487462
32
0
13
0
23
11.487462
33
0
39
0
210
0
220
0
230
1
0
MTEXT
5
142
100
AcDbEntity
8
0
62
256
6
ByLayer
370
18
48
1
60
0
100
AcDbMText
10
-10.2287
20
17.487462
30
0
210
0
220
0
230
1
1
\A1;20.46
40
3
41
0
44
1
50
0
71
5
72
5
7
iso_b_vert
0
POINT
5
143
100
AcDbEntity
8
Defpoints
62
0
6
ByLayer
370
-1
48
1
60
0
100
AcDbPoint
10
-20.4574
20
0
30
0
39
0
210
0
220
0
230
1
50
360
0
POINT
5
144
100
AcDbEntity
8
Defpoints
62
0
6
ByLayer
370
-1
48
1
60
0
100
AcDbPoint
10
0
20
0
30
0
39
0
210
0
220
0
230
1
50
360
0
POINT
5
145
100
AcDbEntity
8
Defpoints
62
0
6
ByLayer
370
-1
48
1
60
0
100
AcDbPoint
10
0
20
11.487462
30
0
39
0
210
0
220
0
230
1
50
360
0
ENDBLK
5
13C
100
AcDbEntity
8
0
100
AcDbBlockEnd
0
BLOCK
5
14D
100
AcDbEntity
8
0
100
AcDbBlockBegin
2
_U3
70
0
10
0
20
0
30
0
3
_U3
0
MTEXT
5
147
100
AcDbEntity
8
SK2
62
256
6
ByLayer
370
18
48
1
60
0
100
AcDbMText
10
-14.869013
20
12.372577
30
0
210
0
220
0
230
1
1
\W0.7694;20.46
40
3
41
0
44
1.084337
50
0
71
7
72
5
7
iso_b_vert
0
LINE
5
148
100
AcDbEntity
8
SK2
62
256
6
ByLayer
370
13
48
1
60
0
100
AcDbLine
10
-20.4574
20
1.5875
30
0
11
-20.4574
21
13.487462
31
0
39
0
210
0
220
0
230
1
0
LINE
5
149
100
AcDbEntity
8
SK2
62
256
6
ByLayer
370
13
48
1
60
0
100
AcDbLine
10
0
20
1.5875
30
0
11
0
21
13.487462
31
0
39
0
210
0
220
0
230
1
0
LINE
5
14A
100
AcDbEntity
8
SK2
62
256
6
ByLayer
370
13
48
1
60
0
100
AcDbLine
10
-20.4574
20
11.487462
30
0
11
0
21
11.487462
31
0
39
0
210
0
220
0
230
1
0
SOLID
5
14B
100
AcDbEntity
8
SK2
62
256
6
ByLayer
370
18
48
1
60
0
100
AcDbTrace
10
-20.4574
20
11.487462
30
0
11
-16.957402
21
11.948246
31
0
12
-16.957398
22
11.026679
32
0
13
-16.957398
23
11.026679
33
0
39
0
210
0
220
0
230
1
0
SOLID
5
14C
100
AcDbEntity
8
SK2
62
256
6
ByLayer
370
18
48
1
60
0
100
AcDbTrace
10
0
20
11.487462
30
0
11
-3.499998
21
11.026679
31
0
12
-3.500002
22
11.948246
32
0
13
-3.500002
23
11.948246
33
0
39
0
210
0
220
0
230
1
0
ENDBLK
5
14E
100
AcDbEntity
8
0
100
AcDbBlockEnd
0
BLOCK
5
153
100
AcDbEntity
8
0
100
AcDbBlockBegin
2
*D9
70
1
10
0
20
0
30
0
3
*D9
0
LINE
5
155
100
AcDbEntity
8
0
62
256
6
ByLayer
370
-2
48
1
60
0
100
AcDbLine
10
17.5426
20
2.9275
30
0
11
17.5426
21
13.487462
31
0
39
0
210
0
220
0
230
1
0
LINE
5
156
100
AcDbEntity
8
0
62
256
6
ByLayer
370
-2
48
1
60
0
100
AcDbLine
10
0
20
1.5875
30
0
11
0
21
13.487462
31
0
39
0
210
0
220
0
230
1
0
LINE
5
157
100
AcDbEntity
8
0
62
256
6
ByLayer
370
-2
48
1
60
0
100
AcDbLine
10
14.0426
20
11.487462
30
0
11
3.5
21
11.487462
31
0
39
0
210
0
220
0
230
1
0
SOLID
5
158
100
AcDbEntity
8
0
62
256
6
ByLayer
370
-1
48
1
60
0
100
AcDbTrace
10
14.0426
20
10.904129
30
0
11
14.0426
21
12.070796
31
0
12
17.5426
22
11.487462
32
0
13
17.5426
23
11.487462
33
0
39
0
210
0
220
0
230
1
0
SOLID
5
159
100
AcDbEntity
8
0
62
256
6
ByLayer
370
-1
48
1
60
0
100
AcDbTrace
10
3.5
20
12.070796
30
0
11
3.5
21
10.904129
31
0
12
0
22
11.487462
32
0
13
0
23
11.487462
33
0
39
0
210
0
220
0
230
1
0
MTEXT
5
15A
100
AcDbEntity
8
0
62
256
6
ByLayer
370
18
48
1
60
0
100
AcDbMText
10
8.7713
20
17.487462
30
0
210
0
220
0
230
1
1
\A1;17.54
40
3
41
0
44
1
50
0
71
5
72
5
7
iso_b_vert
0
POINT
5
15B
100
AcDbEntity
8
Defpoints
62
0
6
ByLayer
370
-1
48
1
60
0
100
AcDbPoint
10
17.5426
20
1.34
30
0
39
0
210
0
220
0
230
1
50
360
0
POINT
5
15C
100
AcDbEntity
8
Defpoints
62
0
6
ByLayer
370
-1
48
1
60
0
100
AcDbPoint
10
0
20
0
30
0
39
0
210
0
220
0
230
1
50
360
0
POINT
5
15D
100
AcDbEntity
8
Defpoints
62
0
6
ByLayer
370
-1
48
1
60
0
100
AcDbPoint
10
0
20
11.487462
30
0
39
0
210
0
220
0
230
1
50
360
0
ENDBLK
5
154
100
AcDbEntity
8
0
100
AcDbBlockEnd
0
BLOCK
5
165
100
AcDbEntity
8
0
100
AcDbBlockBegin
2
_U4
70
0
10
0
20
0
30
0
3
_U4
0
MTEXT
5
15F
100
AcDbEntity
8
2
62
256
6
ByLayer
370
18
48
1
60
0
100
AcDbMText
10
4.505929
20
12.372577
30
0
210
0
220
0
230
1
1
\W0.7010;17.54
40
3
41
0
44
1.084337
50
0
71
7
72
5
7
iso_b_vert
0
LINE
5
160
100
AcDbEntity
8
2
62
256
6
ByLayer
370
13
48
1
60
0
100
AcDbLine
10
17.5426
20
2.9275
30
0
11
17.5426
21
13.487462
31
0
39
0
210
0
220
0
230
1
0
LINE
5
161
100
AcDbEntity
8
2
62
256
6
ByLayer
370
13
48
1
60
0
100
AcDbLine
10
0
20
1.5875
30
0
11
0
21
13.487462
31
0
39
0
210
0
220
0
230
1
0
LINE
5
162
100
AcDbEntity
8
2
62
256
6
ByLayer
370
13
48
1
60
0
100
AcDbLine
10
17.5426
20
11.487462
30
0
11
0
21
11.487462
31
0
39
0
210
0
220
0
230
1
0
SOLID
5
163
100
AcDbEntity
8
2
62
256
6
ByLayer
370
18
48
1
60
0
100
AcDbTrace
10
17.5426
20
11.487462
30
0
11
14.042602
21
11.026679
31
0
12
14.042598
22
11.948246
32
0
13
14.042598
23
11.948246
33
0
39
0
210
0
220
0
230
1
0
SOLID
5
164
100
AcDbEntity
8
2
62
256
6
ByLayer
370
18
48
1
60
0
100
AcDbTrace
10
0
20
11.487462
30
0
11
3.499998
21
11.948246
31
0
12
3.500002
22
11.026679
32
0
13
3.500002
23
11.026679
33
0
39
0
210
0
220
0
230
1
0
ENDBLK
5
166
100
AcDbEntity
8
0
100
AcDbBlockEnd
0
ENDSEC
0
SECTION
2
ENTITIES
0
ARC
5
B5
100
AcDbEntity
8
1
62
256
6
ByLayer
370
18
48
1
60
0
100
AcDbCircle
39
0
10
0.540153
20
-2.34
30
0
40
1
210
0
220
0
230
1
100
AcDbArc
50
90
51
122.69406
0
ARC
5
B6
100
AcDbEntity
8
1
62
256
6
ByLayer
370
18
48
1
60
0
100
AcDbCircle
39
0
10
0.540153
20
2.34
30
0
40
1
210
0
220
0
230
1
100
AcDbArc
50
237.30594
51
270
0
ARC
5
B7
100
AcDbEntity
8
SK1
62
256
6
ByLayer
370
18
48
1
60
0
100
AcDbCircle
39
0
10
0.540153
20
-2.34
30
0
40
1
210
0
220
0
230
1
100
AcDbArc
50
122.69406
51
122.85988
0
ARC
5
B8
100
AcDbEntity
8
SK1
62
256
6
ByLayer
370
18
48
1
60
0
100
AcDbCircle
39
0
10
0.540153
20
2.34
30
0
40
1
210
0
220
0
230
1
100
AcDbArc
50
237.14012
51
237.30594
0
ARC
5
B9
100
AcDbEntity
8
SK2
62
256
6
ByLayer
370
13
48
1
60
0
100
AcDbCircle
39
0
10
17.5426
20
0
30
0
40
16.35
210
0
220
0
230
1
100
AcDbArc
50
10.57289
51
65
0
ARC
5
BA
100
AcDbEntity
8
SK2
62
256
6
ByLayer
370
13
48
1
60
0
100
AcDbCircle
39
0
10
17.5426
20
0
30
0
40
16.35
210
0
220
0
230
1
100
AcDbArc
50
295
51
349.42711
0
ELLIPSE
5
BB
100
AcDbEntity
8
1
62
256
6
ByLayer
370
18
48
1
60
0
100
AcDbEllipse
10
5.036432
20
0.057746
30
0
11
-2.03070099975336
21
1.17269803402229
31
0
210
0
220
0
230
1
40
0.018661
41
0.782884638427237
42
1.58157205852501
0
POINT
5
70
100
AcDbEntity
8
80
62
256
6
ByLayer
370
18
48
1
60
0
100
AcDbPoint
10
0
20
0
30
0
39
0
210
0
220
0
230
1
50
360
0
POINT
5
72
100
AcDbEntity
8
81
62
256
6
ByLayer
370
18
48
1
60
0
100
AcDbPoint
10
17.5426
20
0
30
0
39
0
210
0
220
0
230
1
50
360
0
POINT
5
74
100
AcDbEntity
8
1
62
256
6
ByLayer
370
18
48
1
60
1
100
AcDbPoint
10
-20.4574
20
1.5
30
0
39
0
210
0
220
0
230
1
50
360
0
POINT
5
76
100
AcDbEntity
8
1
62
256
6
ByLayer
370
18
48
1
60
1
100
AcDbPoint
10
17.5426
20
1.34
30
0
39
0
210
0
220
0
230
1
50
360
0
POINT
5
77
100
AcDbEntity
8
1
62
256
6
ByLayer
370
18
48
1
60
1
100
AcDbPoint
10
17.5426
20
1.34
30
0
39
0
210
0
220
0
230
1
50
360
0
POINT
5
78
100
AcDbEntity
8
1
62
256
6
ByLayer
370
18
48
1
60
1
100
AcDbPoint
10
7.5626
20
0
30
0
39
0
210
0
220
0
230
1
50
360
0
POINT
5
79
100
AcDbEntity
8
1
62
256
6
ByLayer
370
18
48
1
60
1
100
AcDbPoint
10
17.5426
20
1.34
30
0
39
0
210
0
220
0
230
1
50
360
0
POINT
5
7A
100
AcDbEntity
8
1
62
256
6
ByLayer
370
18
48
1
60
1
100
AcDbPoint
10
3.5426
20
0
30
0
39
0
210
0
220
0
230
1
50
360
0
POINT
5
7B
100
AcDbEntity
8
1
62
256
6
ByLayer
370
18
48
1
60
1
100
AcDbPoint
10
-20.4574
20
0
30
0
39
0
210
0
220
0
230
1
50
360
0
POINT
5
7C
100
AcDbEntity
8
1
62
256
6
ByLayer
370
18
48
1
60
1
100
AcDbPoint
10
0
20
0
30
0
39
0
210
0
220
0
230
1
50
360
0
POINT
5
7D
100
AcDbEntity
8
1
62
256
6
ByLayer
370
18
48
1
60
1
100
AcDbPoint
10
17.5426
20
1.34
30
0
39
0
210
0
220
0
230
1
50
360
0
POINT
5
7E
100
AcDbEntity
8
1
62
256
6
ByLayer
370
18
48
1
60
1
100
AcDbPoint
10
0
20
0
30
0
39
0
210
0
220
0
230
1
50
360
0
SPLINE
5
BC
100
AcDbEntity
8
1
62
256
6
ByLayer
370
18
48
1
60
0
100
AcDbSpline
70
4
71
3
72
26
73
22
40
0
40
0
40
0
40
0
40
0.125
40
0.125
40
0.1875
40
0.1875
40
0.25
40
0.25
40
0.374999999999999
40
0.374999999999999
40
0.499999999999998
40
0.499999999999998
40
0.624999999999997
40
0.624999999999997
40
0.749999999999996
40
0.749999999999996
40
0.874999999999995
40
0.874999999999995
40
0.937499999999998
40
0.937499999999998
40
1
40
1
40
1
40
1
41
1
10
16.9177477380723
20
0.679944948809151
30
0
41
1
10
16.9387493268299
20
0.650482449138082
30
0
41
1
10
16.9597616425905
20
0.626188330352619
30
0
41
1
10
16.9913091625866
20
0.59187801476611
30
0
41
1
10
17.0018279170251
20
0.580799842376365
30
0
41
1
10
17.022866419834
20
0.558782715140836
30
0
41
1
10
17.0333867327939
20
0.547909411361076
30
0
41
1
10
17.0649519535912
20
0.516000511867617
30
0
41
1
10
17.0860274326045
20
0.495683299940282
30
0
41
1
10
17.1277607307685
20
0.458490722385875
30
0
41
1
10
17.1484629466723
20
0.441489113788833
30
0
41
1
10
17.1894671907765
20
0.410186744687365
30
0
41
1
10
17.2097759915521
20
0.395866155735206
30
0
41
1
10
17.2497379849867
20
0.36987139155454
30
0
41
1
10
17.2693997479771
20
0.358233314702062
30
0
41
1
10
17.3074013189504
20
0.337782981570172
30
0
41
1
10
17.3257808002337
20
0.328955414822246
30
0
41
1
10
17.3510957246281
20
0.317828317194085
30
0
41
1
10
17.3591585312247
20
0.314467957392338
30
0
41
1
10
17.373936865742
20
0.308506322708098
30
0
41
1
10
17.3806645811463
20
0.305899816977558
30
0
41
1
10
17.3863869851839
20
0.303665223510024
30
0
0
SPLINE
5
BD
100
AcDbEntity
8
1
62
256
6
ByLayer
370
18
48
1
60
0
100
AcDbSpline
70
4
71
3
72
34
73
30
40
0
40
0
40
0
40
0
40
0.100371372768609
40
0.100371372768609
40
0.150557059152914
40
0.150557059152914
40
0.20074274553722
40
0.20074274553722
40
0.301114118305831
40
0.301114118305831
40
0.351299804690137
40
0.351299804690137
40
0.401485491074443
40
0.401485491074443
40
0.501856863843056
40
0.501856863843056
40
0.552042550227362
40
0.552042550227362
40
0.602228236611667
40
0.602228236611667
40
0.702599609380278
40
0.702599609380278
40
0.752785295764583
40
0.752785295764583
40
0.802970982148889
40
0.802970982148889
40
0.9033423549175
40
0.9033423549175
40
1
40
1
40
1
40
1
41
1
10
5.03643199999999
20
-0.792342909150761
30
0
41
1
10
5.16051638081251
20
-0.850226440766278
30
0
41
1
10
5.28439090809562
20
-0.904441838838011
30
0
41
1
10
5.47034964714001
20
-0.979720262025097
30
0
41
1
10
5.53236258317375
20
-1.00380652770588
30
0
41
1
10
5.65650629840184
20
-1.04985010325305
30
0
41
1
10
5.71845872857466
20
-1.07175072743837
30
0
41
1
10
5.90411620508181
20
-1.13393118072429
30
0
41
1
10
6.02774859405366
20
-1.17056653324306
30
0
41
1
10
6.21348747412478
20
-1.21789889536416
30
0
41
1
10
6.27544653766384
20
-1.23240723235594
30
0
41
1
10
6.39953370060107
20
-1.25881064227093
30
0
41
1
10
6.46157182767848
20
-1.27068665338265
30
0
41
1
10
6.64730078221689
20
-1.30215821636332
30
0
41
1
10
6.77095484215479
20
-1.3175763451105
30
0
41
1
10
6.95665914322814
20
-1.33225218768942
30
0
41
1
10
7.01859625609899
20
-1.33573451750291
30
0
41
1
10
7.14262395531523
20
-1.33984448564681
30
0
41
1
10
7.20470086870506
20
-1.34046811622252
30
0
41
1
10
7.39048620844
20
-1.33802181811689
30
0
41
1
10
7.51413683491924
20
-1.33066105290934
30
0
41
1
10
7.6997977189184
20
-1.31119604432752
30
0
41
1
10
7.76171298052242
20
-1.3033018552515
30
0
41
1
10
7.88568113051531
20
-1.28471390080699
30
0
41
1
10
7.94780039999699
20
-1.27399718830281
30
0
41
1
10
8.13335398665811
20
-1.23791780461366
30
0
41
1
10
8.25640176535859
20
-1.20865926883664
30
0
41
1
10
8.49732455932531
20
-1.14178749645308
30
0
41
1
10
8.61520593497335
20
-1.10451043562921
30
0
41
1
10
8.73304730247142
20
-1.06302586628442
30
0
0
SPLINE
5
BE
100
AcDbEntity
8
1
62
256
6
ByLayer
370
18
48
1
60
0
100
AcDbSpline
70
4
71
3
72
42
73
38
40
0
40
0
40
0
40
0
40
0.075429425472985
40
0.075429425472985
40
0.152476973350231
40
0.152476973350231
40
0.229524521227476
40
0.229524521227476
40
0.383619616981967
40
0.383619616981967
40
0.460667164859216
40
0.460667164859216
40
0.537714712736465
40
0.537714712736465
40
0.691809808490962
40
0.691809808490962
40
0.768857356368214
40
0.768857356368214
40
0.845904904245465
40
0.845904904245465
40
0.884428678184095
40
0.884428678184095
40
0.903690565153406
40
0.903690565153406
40
0.913321508638062
40
0.913321508638062
40
0.922952452122717
40
0.922952452122717
40
0.942214339092034
40
0.942214339092034
40
0.951845282576693
40
0.951845282576693
40
0.961476226061353
40
0.961476226061353
40
0.980738113030676
40
0.980738113030676
40
1
40
1
40
1
40
1
41
1
10
14.5049492785369
20
1.34000121104563
30
0
41
1
10
14.5655103468085
20
1.34000734016686
30
0
41
1
10
14.6260583908227
20
1.33864453176093
30
0
41
1
10
14.7485036692572
20
1.33311450538696
30
0
41
1
10
14.8104319497224
20
1.32888967067396
30
0
41
1
10
14.9345206322894
20
1.31759710904694
30
0
41
1
10
14.996575105055
20
1.31053353295624
30
0
41
1
10
15.1824136957865
20
1.2852157802044
30
0
41
1
10
15.306060945164
20
1.26282023144859
30
0
41
1
10
15.4916453581539
20
1.22118567572744
30
0
41
1
10
15.5535606900541
20
1.20598932334823
30
0
41
1
10
15.6775967435076
20
1.17302876757537
30
0
41
1
10
15.7397067161397
20
1.15526148030907
30
0
41
1
10
15.9257072549768
20
1.09841098425397
30
0
41
1
10
16.0495056308969
20
1.05571115487598
30
0
41
1
10
16.2353965622577
20
0.984931486196331
30
0
41
1
10
16.2974766330839
20
0.960225869636218
30
0
41
1
10
16.4215188774746
20
0.908918067131026
30
0
41
1
10
16.4834579960849
20
0.88226703647689
30
0
41
1
10
16.5764146245095
20
0.841027946733334
30
0
41
1
10
16.6074566077697
20
0.82713956382247
30
0
41
1
10
16.6538124723307
20
0.80568815335667
30
0
41
1
10
16.669195595598
20
0.798385577068387
30
0
41
1
10
16.6923103678353
20
0.787401565627533
30
0
41
1
10
16.7000310815337
20
0.783748082875832
30
0
41
1
10
16.7155694794001
20
0.776551298181204
30
0
41
1
10
16.7233964605555
20
0.773021415463774
30
0
41
1
10
16.7469565225326
20
0.762507047588173
30
0
41
1
10
16.7627584527561
20
0.755584922969689
30
0
41
1
10
16.786127908834
20
0.74464104842852
30
0
41
1
10
16.7938624115707
20
0.740899587911713
30
0
41
1
10
16.8091538844824
20
0.733127480414652
30
0
41
1
10
16.8166941701795
20
0.729072129951049
30
0
41
1
10
16.839160139861
20
0.716626613160628
30
0
41
1
10
16.8539604760665
20
0.707995856454176
30
0
41
1
10
16.8845699051599
20
0.692112475741368
30
0
41
1
10
16.9003665132222
20
0.68484098439896
30
0
41
1
10
16.9177477380723
20
0.679944948809151
30
0
0
SPLINE
5
BF
100
AcDbEntity
8
1
62
256
6
ByLayer
370
18
48
1
60
0
100
AcDbSpline
70
4
71
3
72
81
73
77
40
0
40
0
40
0
40
0
40
0.005673179675706
40
0.005673179675706
40
0.011346359351412
40
0.011346359351412
40
0.014182949189265
40
0.014182949189265
40
0.017019539027118
40
0.0226927187028259
40
0.0226927187028259
40
0.0255293085406789
40
0.0255293085406789
40
0.0283658983785319
40
0.0283658983785319
40
0.034039078054236
40
0.034039078054236
40
0.0453854374056423
40
0.0453854374056423
40
0.068078156108453
40
0.068078156108453
40
0.0907708748112637
40
0.0907708748112637
40
0.136156312216885
40
0.136156312216885
40
0.158849030919696
40
0.158849030919696
40
0.181541749622506
40
0.181541749622506
40
0.226927187028126
40
0.226927187028126
40
0.249619905730937
40
0.249619905730937
40
0.272312624433747
40
0.272312624433747
40
0.317698061839369
40
0.317698061839369
40
0.340390780542178
40
0.340390780542178
40
0.363083499244988
40
0.363083499244988
40
0.408468936650606
40
0.408468936650606
40
0.431161655353415
40
0.431161655353415
40
0.453854374056223
40
0.453854374056223
40
0.499239811461843
40
0.499239811461843
40
0.521932530164653
40
0.521932530164653
40
0.544625248867462
40
0.544625248867462
40
0.590010686273084
40
0.590010686273084
40
0.612703404975894
40
0.612703404975894
40
0.635396123678703
40
0.635396123678703
40
0.680781561084323
40
0.680781561084323
40
0.703474279787132
40
0.703474279787132
40
0.72616699848994
40
0.72616699848994
40
0.816937873301172
40
0.816937873301172
40
0.907708748112403
40
0.907708748112403
40
0.93040146681521
40
0.93040146681521
40
0.953094185518018
40
0.953094185518018
40
0.998479622923632
40
0.998479622923632
40
1
40
1
40
1
40
1
41
1
10
16.9177477380723
20
-1.29151254545144
30
0
41
1
10
16.9003599303631
20
-1.28999781079648
30
0
41
1
10
16.8845624144498
20
-1.28770106079821
30
0
41
1
10
16.8539476972871
20
-1.28242091124369
30
0
41
1
10
16.8391434616291
20
-1.27943133931598
30
0
41
1
10
16.8166650789486
20
-1.27492415331773
30
0
41
1
10
16.8091194605722
20
-1.27342369993201
30
0
41
1
10
16.793814869937
20
-1.27049348061581
30
0
41
1
10
16.7705887527525
20
-1.2661764373967
30
0
41
1
10
16.746854239164
20
-1.26196952439167
30
0
41
1
10
16.7232600605895
20
-1.25756672930515
30
0
41
1
10
16.715421435131
20
-1.25606418331017
30
0
41
1
10
16.6998587195029
20
-1.25294732127384
30
0
41
1
10
16.6921251075686
20
-1.25133850281483
30
0
41
1
10
16.6689687602657
20
-1.24641761227386
30
0
41
1
10
16.6535503983693
20
-1.24303343017058
30
0
41
1
10
16.6071217021575
20
-1.23277116912013
30
0
41
1
10
16.5760635682946
20
-1.22569848903183
30
0
41
1
10
16.483146046489
20
-1.20340689313267
30
0
41
1
10
16.4213512703437
20
-1.18723797329508
30
0
41
1
10
16.2978369414415
20
-1.15247172889289
30
0
41
1
10
16.2361525502622
20
-1.13384653622316
30
0
41
1
10
16.0511491321523
20
-1.0743939794238
30
0
41
1
10
15.9277637029672
20
-1.03010819694265
30
0
41
1
10
15.7421179834941
20
-0.957223068257235
30
0
41
1
10
15.6800904177389
20
-0.931825718982708
30
0
41
1
10
15.5560172915844
20
-0.879039431541912
30
0
41
1
10
15.494091412242
20
-0.85169886916637
30
0
41
1
10
15.3085044254475
20
-0.767029526773882
30
0
41
1
10
15.1848914116618
20
-0.70725276488082
30
0
41
1
10
14.9991539969544
20
-0.613321785032269
30
0
41
1
10
14.9371903364747
20
-0.581297066091565
30
0
41
1
10
14.8130781955319
20
-0.515933974517992
30
0
41
1
10
14.7511237754181
20
-0.482675577277234
30
0
41
1
10
14.5654923598777
20
-0.381509955095254
30
0
41
1
10
14.4418790393081
20
-0.3123949817587
30
0
41
1
10
14.2561817264282
20
-0.207053172119572
30
0
41
1
10
14.1942385389642
20
-0.171657066059282
30
0
41
1
10
14.070184867024
20
-0.10043188446798
30
0
41
1
10
14.0081519865542
20
-0.0646296812667799
30
0
41
1
10
13.8224411445053
20
0.04271374266213
30
0
41
1
10
13.6988172226983
20
0.114134056008908
30
0
41
1
10
13.5131566936292
20
0.220188972220655
30
0
41
1
10
13.4512354430062
20
0.255366513944068
30
0
41
1
10
13.3272448897346
20
0.32523527396603
30
0
41
1
10
13.265170422689
20
0.359938857116532
30
0
41
1
10
13.0794142960066
20
0.462628718743758
30
0
41
1
10
12.9557857962408
20
0.529117090220069
30
0
41
1
10
12.7701670392332
20
0.625135747594328
30
0
41
1
10
12.7082661752715
20
0.656524729169064
30
0
41
1
10
12.5843321417958
20
0.717943395043989
30
0
41
1
10
12.5222462032121
20
0.748002363530361
30
0
41
1
10
12.3364117635277
20
0.835556272539606
30
0
41
1
10
12.2127570925122
20
0.890330094066883
30
0
41
1
10
12.0271477471503
20
0.966528477651906
30
0
41
1
10
11.9652586262837
20
0.990935680829978
30
0
41
1
10
11.8413627614178
20
1.03766018513699
30
0
41
1
10
11.7792972860368
20
1.06001113657118
30
0
41
1
10
11.5933799429627
20
1.12352999695423
30
0
41
1
10
11.4697085486368
20
1.16104259835601
30
0
41
1
10
11.2841269923501
20
1.20971701995876
30
0
41
1
10
11.2222555939487
20
1.22467622557536
30
0
41
1
10
11.0984126680484
20
1.25199308752974
30
0
41
1
10
11.0363989125803
20
1.26436329047508
30
0
41
1
10
10.726389314906
20
1.31937387168253
30
0
41
1
10
10.4795915826982
20
1.3411349865554
30
0
41
1
10
9.98331171810503
20
1.33877432616373
30
0
41
1
10
9.73649940131236
20
1.31467964366098
30
0
41
1
10
9.42651258469431
20
1.25686219770506
30
0
41
1
10
9.36448992490281
20
1.24394180358482
30
0
41
1
10
9.24064420397858
20
1.21554099959275
30
0
41
1
10
9.17877115819957
20
1.20005047792532
30
0
41
1
10
8.99318856563815
20
1.14981356590542
30
0
41
1
10
8.86952279605617
20
1.11129917503664
30
0
41
1
10
8.74142903843668
20
1.06655844643925
30
0
41
1
10
8.73727662407808
20
1.0651030448112
30
0
41
1
10
8.73312381803348
20
1.06364248847282
30
0
0
SPLINE
5
C0
100
AcDbEntity
8
1
62
256
6
ByLayer
370
18
48
1
60
0
100
AcDbSpline
70
4
71
3
72
22
73
18
40
0
40
0
40
0
40
0
40
0.0240728306286808
40
0.0240728306286808
40
0.186727358857235
40
0.186727358857235
40
0.34938188708579
40
0.34938188708579
40
0.512036415314344
40
0.512036415314344
40
0.674690943542899
40
0.674690943542899
40
0.756018207657172
40
0.756018207657172
40
0.837345471771445
40
0.837345471771445
40
1
40
1
40
1
40
1
41
1
10
17.2977148452974
20
-0.52515599687149
30
0
41
1
10
17.2949458590492
20
-0.531068962657798
30
0
41
1
10
17.2921586256978
20
-0.536986488907331
30
0
41
1
10
17.2704192221875
20
-0.582928184165382
30
0
41
1
10
17.2507460831027
20
-0.623172346205678
30
0
41
1
10
17.2107429818755
20
-0.70409483149416
30
0
41
1
10
17.1903804017993
20
-0.744820041521564
30
0
41
1
10
17.149248085356
20
-0.826905283222118
30
0
41
1
10
17.1284773034114
20
-0.868254610371025
30
0
41
1
10
17.0867162776328
20
-0.951419269741734
30
0
41
1
10
17.0657373793575
20
-0.99317988124298
30
0
41
1
10
17.0341575172067
20
-1.05638333530561
30
0
41
1
10
17.0236105195273
20
-1.07755013089883
30
0
41
1
10
17.0024727453979
20
-1.12016695522613
30
0
41
1
10
16.9918785978705
20
-1.1416450510585
30
0
41
1
10
16.9600714383725
20
-1.20624873775762
30
0
41
1
10
16.9388384017593
20
-1.24954196773885
30
0
41
1
10
16.9177477380721
20
-1.29151254545175
30
0
0
SPLINE
5
C1
100
AcDbEntity
8
1
62
256
6
ByLayer
370
18
48
1
60
0
100
AcDbSpline
70
4
71
3
72
29
73
25
40
0
40
0
40
0
40
0
40
0.0515569950973708
40
0.0515569950973708
40
0.103113990194742
40
0.103113990194742
40
0.128892487743427
40
0.128892487743427
40
0.154670985292113
40
0.206227980389466
40
0.206227980389466
40
0.232006477938134
40
0.232006477938134
40
0.257784975486802
40
0.257784975486802
40
0.309341970584138
40
0.309341970584138
40
0.412455960778828
40
0.412455960778828
40
0.618683941168223
40
0.618683941168223
40
0.824911921557619
40
0.824911921557619
40
1
40
1
40
1
40
1
41
1
10
16.9177477380723
20
1.29151254545144
30
0
41
1
10
16.9003599303631
20
1.28999781079648
30
0
41
1
10
16.8845624144499
20
1.28770106079821
30
0
41
1
10
16.8539476972872
20
1.28242091124372
30
0
41
1
10
16.8391434616291
20
1.27943133931601
30
0
41
1
10
16.8166650789487
20
1.27492415331776
30
0
41
1
10
16.8091194605722
20
1.27342369993204
30
0
41
1
10
16.7938148699371
20
1.27049348061581
30
0
41
1
10
16.7705887527526
20
1.2661764373967
30
0
41
1
10
16.7468542391641
20
1.2619695243917
30
0
41
1
10
16.7232600605895
20
1.25756672930515
30
0
41
1
10
16.715421435131
20
1.2560641833102
30
0
41
1
10
16.699858719503
20
1.25294732127384
30
0
41
1
10
16.6921251075686
20
1.25133850281486
30
0
41
1
10
16.6689687602658
20
1.24641761227389
30
0
41
1
10
16.6535503983694
20
1.24303343017061
30
0
41
1
10
16.6071217021575
20
1.23277116912016
30
0
41
1
10
16.5760635682946
20
1.22569848903186
30
0
41
1
10
16.4831460464891
20
1.20340689313267
30
0
41
1
10
16.4213512703438
20
1.18723797329511
30
0
41
1
10
16.2978369414415
20
1.15247172889289
30
0
41
1
10
16.2361525502623
20
1.13384653622319
30
0
41
1
10
16.1221286204818
20
1.09720389344923
30
0
41
1
10
16.0697635196283
20
1.07954069925853
30
0
41
1
10
16.0173643077294
20
1.0610659359852
30
0
0
SPLINE
5
C2
100
AcDbEntity
8
1
62
256
6
ByLayer
370
18
48
1
60
0
100
AcDbSpline
70
4
71
3
72
44
73
40
40
0
40
0
40
0
40
0
40
0.0036296728790733
40
0.0036296728790733
40
0.145968291039206
40
0.145968291039206
40
0.181552945579239
40
0.181552945579239
40
0.217137600119271
40
0.217137600119271
40
0.288306909199337
40
0.288306909199337
40
0.32389156373937
40
0.32389156373937
40
0.359476218279402
40
0.359476218279402
40
0.430645527359468
40
0.430645527359468
40
0.4662301818995
40
0.4662301818995
40
0.501814836439533
40
0.501814836439533
40
0.572984145519599
40
0.572984145519599
40
0.608568800059632
40
0.608568800059632
40
0.644153454599666
40
0.644153454599666
40
0.715322763679732
40
0.715322763679732
40
0.73311509094975
40
0.73311509094975
40
0.750907418219767
40
0.750907418219767
40
0.786492072759799
40
0.786492072759799
40
0.857661381839866
40
0.857661381839866
40
1
40
1
40
1
40
1
41
1
10
10.2504319785335
20
-1.34000021011332
30
0
41
1
10
10.2441060470605
20
-1.33999993584376
30
0
41
1
10
10.2377792851231
20
-1.33998475509563
30
0
41
1
10
9.98331171810506
20
-1.33877432616373
30
0
41
1
10
9.73649940131233
20
-1.31467964366101
30
0
41
1
10
9.42651258469431
20
-1.25686219770506
30
0
41
1
10
9.36448992490284
20
-1.24394180358482
30
0
41
1
10
9.24064420397858
20
-1.21554099959275
30
0
41
1
10
9.17877115819957
20
-1.20005047792532
30
0
41
1
10
8.99318856563815
20
-1.14981356590542
30
0
41
1
10
8.86952279605617
20
-1.11129917503664
30
0
41
1
10
8.6836100915431
20
-1.04636338105257
30
0
41
1
10
8.62153676877693
20
-1.02355915149096
30
0
41
1
10
8.4976379065541
20
-0.97594959898862
30
0
41
1
10
8.43574759192234
20
-0.951116416637916
30
0
41
1
10
8.25013660947386
20
-0.873690735917108
30
0
41
1
10
8.12649349087741
20
-0.818151635737024
30
0
41
1
10
7.94065460455462
20
-0.729597110190639
30
0
41
1
10
7.87857036945985
20
-0.699216448703567
30
0
41
1
10
7.75463179057624
20
-0.63720393102065
30
0
41
1
10
7.69273046030239
20
-0.605536840052594
30
0
41
1
10
7.50710966963811
20
-0.508750621220884
30
0
41
1
10
7.38348542225452
20
-0.441829049352805
30
0
41
1
10
7.19772885700155
20
-0.338638999887934
30
0
41
1
10
7.13565729630284
20
-0.303786533892236
30
0
41
1
10
7.01165996828371
20
-0.233678642490361
30
0
41
1
10
6.94973729701755
20
-0.198401921892156
30
0
41
1
10
6.76407369989005
20
-0.0921187136895298
30
0
41
1
10
6.64044666405903
20
-0.0206431079786284
30
0
41
1
10
6.48569557745853
20
0.0687792846344166
30
0
41
1
10
6.45472691089168
20
0.086654431061703
30
0
41
1
10
6.39273352043722
20
0.122352573646879
30
0
41
1
10
6.36168828709742
20
0.140192530656918
30
0
41
1
10
6.26868889197044
20
0.193490630819269
30
0
41
1
10
6.20684526696897
20
0.228740611668599
30
0
41
1
10
6.02166592496741
20
0.333461968807057
30
0
41
1
10
5.89869216879177
20
0.401924061922159
30
0
41
1
10
5.53020604173713
20
0.601595896778235
30
0
41
1
10
5.28455542160015
20
0.72618428579284
30
0
41
1
10
5.03643199999999
20
0.838166282516966
30
0
0
SPLINE
5
C3
100
AcDbEntity
8
1
62
256
6
ByLayer
370
18
48
1
60
0
100
AcDbSpline
70
4
71
3
72
29
73
25
40
0
40
0
40
0
40
0
40
0.0984396950725424
40
0.135354580724746
40
0.172269466376949
40
0.22148931391322
40
0.270709161449491
40
0.319929008985763
40
0.369148856522034
40
0.418368704058305
40
0.442978627826441
40
0.492198475362712
40
0.541418322898983
40
0.590638170435254
40
0.639858017971525
40
0.689077865507797
40
0.72599275116
40
0.762907636812203
40
0.812127484348475
40
0.861347331884746
40
0.910567179421017
40
0.959787026957288
40
0.996701912609492
40
1
40
1
40
1
40
1
41
1
10
5.03643199999999
20
0.0072183434165538
30
0
41
1
10
5.1015675175978
20
-0.0021987492213498
30
0
41
1
10
5.19112859287458
20
-0.0151394444282005
30
0
41
1
10
5.3051152301054
20
-0.0315345221585233
30
0
41
1
10
5.38653422396607
20
-0.0432071610637479
30
0
41
1
10
5.47609512617351
20
-0.0559862718919533
30
0
41
1
10
5.57379802430213
20
-0.0698328322231418
30
0
41
0.999999999999999
10
5.67150110312958
20
-0.0835635571307023
30
0
41
1
10
5.76920444616655
20
-0.0971645723396363
30
0
41
1
10
5.85062419403076
20
-0.108363116490409
30
0
41
1
10
5.93204419458413
20
-0.119420576627192
30
0
41
1
10
6.01346457069798
20
-0.13033942212337
30
0
41
1
10
6.11116933931941
20
-0.143205718365095
30
0
41
1
10
6.20887404400406
20
-0.155815692649469
30
0
41
1
10
6.30657876536844
20
-0.1681525319824
30
0
41
1
10
6.39614142147045
20
-0.179195193801434
30
0
41
1
10
6.47756201974707
20
-0.189009245801316
30
0
41
1
10
6.55898261743394
20
-0.198626094681032
30
0
41
1
10
6.64854527503971
20
-0.208909363272312
30
0
41
1
10
6.74624999239305
20
-0.219746382752675
30
0
41
1
10
6.84395470975479
20
-0.230188592851533
30
0
41
1
10
6.93351736733399
20
-0.239386097344323
30
0
41
1
10
6.99269409443877
20
-0.245239531547241
30
0
41
1
10
7.01930258242353
20
-0.247823200961392
30
0
41
1
10
7.02148489106829
20
-0.248034776466568
30
0
0
SPLINE
5
C4
100
AcDbEntity
8
1
62
256
6
ByLayer
370
18
48
1
60
0
100
AcDbSpline
70
4
71
3
72
26
73
22
40
0
40
0
40
0
40
0
40
0.0624999999999996
40
0.0624999999999996
40
0.124999999999999
40
0.124999999999999
40
0.249999999999998
40
0.249999999999998
40
0.374999999999997
40
0.374999999999997
40
0.499999999999997
40
0.499999999999997
40
0.624999999999996
40
0.624999999999996
40
0.749999999999995
40
0.749999999999995
40
0.812499999999994
40
0.812499999999994
40
0.874999999999994
40
0.874999999999994
40
1
40
1
40
1
40
1
41
1
10
17.3863869851837
20
0.303665223509995
30
0
41
1
10
17.3806860404674
20
0.32377561144844
30
0
41
1
10
17.3740156091348
20
0.343752941598211
30
0
41
1
10
17.3594268094096
20
0.383604963335927
30
0
41
1
10
17.351505992634
20
0.403479356808077
30
0
41
1
10
17.3265262917217
20
0.46311170492487
30
0
41
1
10
17.3082927554884
20
0.502890370596418
30
0
41
1
10
17.2704192221875
20
0.582928184165326
30
0
41
1
10
17.2507460831028
20
0.623172346205649
30
0
41
1
10
17.2107429818756
20
0.704094831494103
30
0
41
1
10
17.1903804017994
20
0.744820041521479
30
0
41
1
10
17.1492480853561
20
0.826905283222032
30
0
41
1
10
17.1284773034114
20
0.86825461037094
30
0
41
1
10
17.0867162776328
20
0.951419269741621
30
0
41
1
10
17.0657373793576
20
0.993179881242867
30
0
41
1
10
17.0341575172067
20
1.05638333530547
30
0
41
1
10
17.0236105195273
20
1.07755013089869
30
0
41
1
10
17.002472745398
20
1.12016695522598
30
0
41
1
10
16.9918785978706
20
1.14164505105833
30
0
41
1
10
16.9600714383726
20
1.20624873775745
30
0
41
1
10
16.9388384017594
20
1.24954196773868
30
0
41
1
10
16.9177477380722
20
1.29151254545161
30
0
0
SPLINE
5
C5
100
AcDbEntity
8
1
62
256
6
ByLayer
370
18
48
1
60
0
100
AcDbSpline
70
4
71
3
72
70
73
66
40
0
40
0
40
0
40
0
40
0.0060488145915167
40
0.0060488145915167
40
0.0482011099356784
40
0.0482011099356784
40
0.0692772576077592
40
0.0692772576077592
40
0.0903534052798401
40
0.0903534052798401
40
0.132505700624002
40
0.132505700624002
40
0.174657995968163
40
0.174657995968163
40
0.258962586656487
40
0.258962586656487
40
0.34326717734481
40
0.34326717734481
40
0.36434332501689
40
0.36434332501689
40
0.385419472688971
40
0.385419472688971
40
0.427571768033132
40
0.427571768033132
40
0.448647915705214
40
0.448647915705214
40
0.469724063377296
40
0.469724063377296
40
0.511876358721462
40
0.511876358721462
40
0.532952506393546
40
0.532952506393546
40
0.55402865406563
40
0.55402865406563
40
0.596180949409798
40
0.596180949409798
40
0.617257097081883
40
0.617257097081883
40
0.638333244753968
40
0.638333244753968
40
0.680485540098137
40
0.680485540098137
40
0.701561687770222
40
0.701561687770222
40
0.722637835442307
40
0.722637835442307
40
0.764790130786475
40
0.764790130786475
40
0.785866278458559
40
0.785866278458559
40
0.806942426130643
40
0.806942426130643
40
0.849094721474812
40
0.849094721474812
40
0.870170869146897
40
0.870170869146897
40
0.891247016818982
40
0.891247016818982
40
0.933399312163154
40
0.933399312163154
40
0.954475459835238
40
0.954475459835238
40
0.975551607507323
40
0.975551607507323
40
1
40
1
40
1
40
1
41
1
10
7.21327758728813
20
1.33999935078242
30
0
41
1
10
7.23107039187911
20
1.34000220616886
30
0
41
1
10
7.24885596803219
20
1.33988671116657
30
0
41
1
10
7.39048620844002
20
1.33802181811689
30
0
41
1
10
7.51413683491921
20
1.33066105290934
30
0
41
1
10
7.6997977189184
20
1.31119604432752
30
0
41
1
10
7.76171298052239
20
1.3033018552515
30
0
41
1
10
7.88568113051531
20
1.28471390080699
30
0
41
1
10
7.94780039999699
20
1.27399718830284
30
0
41
1
10
8.13335398665811
20
1.23791780461366
30
0
41
1
10
8.25640176535859
20
1.20865926883664
30
0
41
1
10
8.5018656246969
20
1.14052705494436
30
0
41
1
10
8.62426382683631
20
1.10163935683673
30
0
41
1
10
8.9913625028058
20
0.971397950759524
30
0
41
1
10
9.23658078925004
20
0.867176550883016
30
0
41
1
10
9.73291887578236
20
0.628982663962915
30
0
41
1
10
9.97976211079455
20
0.498349312862814
30
0
41
1
10
10.2898219640827
20
0.325665592657629
30
0
41
1
10
10.3518669152939
20
0.29075180396822
30
0
41
1
10
10.4757540663309
20
0.220568803095631
30
0
41
1
10
10.5376445558215
20
0.185256012774516
30
0
41
1
10
10.7232770897403
20
0.078863082422572
30
0
41
1
10
10.8469676809057
20
0.0073070893878935
30
0
41
1
10
11.032908736084
20
-0.100103953722567
30
0
41
1
10
11.0949884996403
20
-0.135877188317267
30
0
41
1
10
11.2189070280725
20
-0.206830939113132
30
0
41
1
10
11.2808068410363
20
-0.242065078025064
30
0
41
1
10
11.4664459706067
20
-0.346842632865076
30
0
41
1
10
11.5901200284362
20
-0.415470853370067
30
0
41
1
10
11.7759819244605
20
-0.515755385037124
30
0
41
1
10
11.8380781297326
20
-0.548716778098196
30
0
41
1
10
11.9620557786898
20
-0.613192345246603
30
0
41
1
10
12.0239766264558
20
-0.644751754871749
30
0
41
1
10
12.2096531085174
20
-0.737228916702549
30
0
41
1
10
12.3333172592378
20
-0.795956712285061
30
0
41
1
10
12.5191062852322
20
-0.878938944049054
30
0
41
1
10
12.5811880632838
20
-0.905728210769126
30
0
41
1
10
12.7052097241528
20
-0.957198248088247
30
0
41
1
10
12.7671450392783
20
-0.981886549615524
30
0
41
1
10
12.9528399432997
20
-1.05269761894624
30
0
41
1
10
13.0764840289594
20
-1.09557534063489
30
0
41
1
10
13.2622042496101
20
-1.15283749158087
30
0
41
1
10
13.3242401543181
20
-1.17072921048617
30
0
41
1
10
13.4483237874663
20
-1.2039309110915
30
0
41
1
10
13.5102823648063
20
-1.21922554405131
30
0
41
1
10
13.696027863832
20
-1.26113648952196
30
0
41
1
10
13.8196734411034
20
-1.28379126329125
30
0
41
1
10
14.0053595922996
20
-1.30952086083477
30
0
41
1
10
14.0673210140488
20
-1.3167094992678
30
0
41
1
10
14.1914724789302
20
-1.3282572534421
30
0
41
1
10
14.2534554892828
20
-1.33260121860493
30
0
41
1
10
14.4392457859438
20
-1.34135670538549
30
0
41
1
10
14.5628866233799
20
-1.34149757390767
30
0
41
1
10
14.7485036692571
20
-1.33311450538696
30
0
41
1
10
14.8104319497223
20
-1.32888967067396
30
0
41
1
10
14.9345206322894
20
-1.31759710904694
30
0
41
1
10
14.9965751050549
20
-1.31053353295627
30
0
41
1
10
15.1824136957865
20
-1.2852157802044
30
0
41
1
10
15.3060609451639
20
-1.26282023144859
30
0
41
1
10
15.4916453581538
20
-1.22118567572747
30
0
41
1
10
15.553560690054
20
-1.20598932334823
30
0
41
1
10
15.6775967435076
20
-1.1730287675754
30
0
41
1
10
15.7397067161397
20
-1.15526148030909
30
0
41
1
10
15.8736272841153
20
-1.114329068129
30
0
41
1
10
15.9454797249549
20
-1.09073226186416
30
0
41
1
10
16.0173287803325
20
-1.06558194370598
30
0
0
SPLINE
5
C6
100
AcDbEntity
8
1
62
256
6
ByLayer
370
18
48
1
60
0
100
AcDbSpline
70
4
71
3
72
52
73
48
40
0
40
0
40
0
40
0
40
0.0003679960109387
40
0.0191755545627172
40
0.0442522992984218
40
0.0693290440341264
40
0.0944057887698311
40
0.119482533505536
40
0.14455927824124
40
0.157097650609093
40
0.182174395344797
40
0.207251140080502
40
0.232327884816207
40
0.257404629551911
40
0.282481374287616
40
0.295019746655468
40
0.320096491391173
40
0.345173236126878
40
0.370249980862582
40
0.395326725598287
40
0.420403470333992
40
0.43921102888577
40
0.458018587437549
40
0.483095332173253
40
0.508172076908958
40
0.533248821644663
40
0.558325566380367
40
0.583402311116072
40
0.595940683483924
40
0.621017428219629
40
0.646094172955334
40
0.671170917691038
40
0.696247662426743
40
0.721324407162448
40
0.7338627795303
40
0.758939524266004
40
0.784016269001709
40
0.809093013737414
40
0.834169758473119
40
0.859246503208823
40
0.878054061760602
40
0.89686162031238
40
0.921938365048085
40
0.94701510978379
40
0.972091854519494
40
0.997168599255199
40
1
40
1
40
1
40
1
41
1
10
10.4331634613088
20
0.248974911095814
30
0
41
1
10
10.433641394422
20
0.248928781834223
30
0
41
1
10
10.4585455570129
20
0.246524260895342
30
0
41
1
10
10.5160180255738
20
0.240877253852204
30
0
41
1
10
10.6055808669922
20
0.231737198662586
30
0
41
1
10
10.7032857849022
20
0.221355917643308
30
0
41
1
10
10.8009907028147
20
0.2105780967035
30
0
41
1
10
10.8986956207173
20
0.199418542895501
30
0
41
1
10
10.9801163856792
20
0.189809266878967
30
0
41
1
10
11.0615371504218
20
0.179992703267033
30
0
41
1
10
11.1429579161012
20
0.169985824757873
30
0
41
1
10
11.2406628318643
20
0.157685934578581
30
0
41
1
10
11.3383677563452
20
0.145112696338799
30
0
41
1
10
11.4360726485652
20
0.132283638397951
30
0
41
1
10
11.5174932056264
20
0.121394130105102
30
0
41
1
10
11.5989136780713
20
0.110367658142678
30
0
41
1
10
11.6803340541577
20
0.099207850370533
30
0
41
1
10
11.7780383763135
20
0.0856211926105459
30
0
41
1
10
11.8757425872628
20
0.0719059395219688
30
0
41
1
10
11.9734467060761
20
0.058077955975051
30
0
41
0.999999999999999
10
12.0630087477921
20
0.0453121786952409
30
0
41
1
10
12.144428746044
20
0.0336515919043734
30
0
41
1
10
12.2258487191376
20
0.0219516150919219
30
0
41
1
10
12.3154106686135
20
0.0090421639970089
30
0
41
1
10
12.4131146062859
20
-0.0050691472477808
30
0
41
1
10
12.5108185556284
20
-0.0191957628332489
30
0
41
1
10
12.6085225355218
20
-0.0332653745396669
30
0
41
1
10
12.6899425599589
20
-0.044932049923915
30
0
41
1
10
12.7713626270915
20
-0.0565416852017222
30
0
41
1
10
12.852782742818
20
-0.0680886743869849
30
0
41
1
10
12.9504869783282
20
-0.0818268194727238
30
0
41
1
10
13.0481913293391
20
-0.0954238838976949
30
0
41
1
10
13.1458958147988
20
-0.108866003358685
30
0
41
1
10
13.2273163468668
20
-0.119924592240409
30
0
41
1
10
13.3087368447057
20
-0.130835563002108
30
0
41
1
10
13.390157344081
20
-0.141592709910071
30
0
41
1
10
13.4878619350168
20
-0.154241090270716
30
0
41
1
10
13.5855665210039
20
-0.166611318619033
30
0
41
1
10
13.6832711031251
20
-0.178686840418294
30
0
41
1
10
13.7728336346343
20
-0.189470771303689
30
0
41
1
10
13.8542541171975
20
-0.199034810826276
30
0
41
1
10
13.9356745999215
20
-0.208388750228096
30
0
41
1
10
14.0252371320045
20
-0.218387048386148
30
0
41
1
10
14.1229417152838
20
-0.228889820077825
30
0
41
1
10
14.2206463028576
20
-0.238980522672477
30
0
41
1
10
14.2894599547914
20
-0.245787137488975
30
0
41
1
10
14.3257054104391
20
-0.24928166320089
30
0
41
1
10
14.3293826669815
20
-0.24963526177703
30
0
0
SPLINE
5
C7
100
AcDbEntity
8
1
62
256
6
ByLayer
370
18
48
1
60
0
100
AcDbSpline
70
4
71
3
72
48
73
44
40
0
40
0
40
0
40
0
40
0.124999999999998
40
0.124999999999998
40
0.187499999999998
40
0.187499999999998
40
0.249999999999999
40
0.249999999999999
40
0.312499999999999
40
0.312499999999999
40
0.375
40
0.375
40
0.437500000000001
40
0.437500000000001
40
0.500000000000001
40
0.500000000000001
40
0.53125
40
0.546874999999999
40
0.546874999999999
40
0.562499999999999
40
0.562499999999999
40
0.624999999999997
40
0.624999999999997
40
0.687499999999995
40
0.687499999999995
40
0.703124999999995
40
0.703124999999995
40
0.718749999999995
40
0.749999999999996
40
0.749999999999996
40
0.812499999999997
40
0.812499999999997
40
0.828124999999998
40
0.828124999999998
40
0.843749999999998
40
0.843749999999998
40
0.874999999999999
40
0.874999999999999
40
0.937499999999999
40
0.937499999999999
40
0.96875
40
0.96875
40
1
40
1
40
1
40
1
41
1
10
5.03643199999999
20
-0.792342909150761
30
0
41
1
10
4.9343241356548
20
-0.768353021669867
30
0
41
1
10
4.83427263247336
20
-0.739258485889536
30
0
41
1
10
4.68727709015346
20
-0.686849420778486
30
0
41
1
10
4.63881598727141
20
-0.667913694487424
30
0
41
1
10
4.54348221797295
20
-0.627089768428107
30
0
41
1
10
4.49654153271985
20
-0.605179117634691
30
0
41
1
10
4.40413888352464
20
-0.558101000565955
30
0
41
1
10
4.35855518314
20
-0.532853913097853
30
0
41
1
10
4.26984839951217
20
-0.479345910876617
30
0
41
1
10
4.22665636574823
20
-0.45106233163358
30
0
41
1
10
4.14265794227961
20
-0.391232086234794
30
0
41
1
10
4.10185083408629
20
-0.359686695465058
30
0
41
1
10
4.0227414636154
20
-0.293040053281771
30
0
41
1
10
3.98443782847875
20
-0.25794119333986
30
0
41
1
10
3.92901553699636
20
-0.202299498681271
30
0
41
1
10
3.90181387369165
20
-0.173728324463355
30
0
41
1
10
3.8754201261815
20
-0.143945777924841
30
0
41
1
10
3.85801002136694
20
-0.123809759760604
30
0
41
1
10
3.84938951924994
20
-0.11359047798291
30
0
41
1
10
3.80705404297254
20
-0.0621158163659459
30
0
41
1
10
3.77541707125977
20
-0.0194914446884979
30
0
41
1
10
3.71691202901511
20
0.0688332258512787
30
0
41
1
10
3.69003823388781
20
0.114529872351824
30
0
41
1
10
3.65980089662966
20
0.173807374009016
30
0
41
1
10
3.6539228109994
20
0.185773051944437
30
0
41
1
10
3.64262205936924
20
0.209698963736798
30
0
41
1
10
3.62631097534597
20
0.245662887996105
30
0
41
1
10
3.61192480628162
20
0.281844189360697
30
0
41
1
10
3.58576861019066
20
0.354482178315919
30
0
41
1
10
3.57180016140512
20
0.403271961541748
30
0
41
1
10
3.55908334177448
20
0.464703713398365
30
0
41
1
10
3.55677867143206
20
0.477012504928553
30
0
41
1
10
3.55266368699495
20
0.501675633846673
30
0
41
1
10
3.55085479118304
20
0.514035197178941
30
0
41
1
10
3.54624830537799
20
0.5507020170798
30
0
41
1
10
3.54424036404879
20
0.574758219756603
30
0
41
1
10
3.54133706251036
20
0.645777965214307
30
0
41
1
10
3.54354298625268
20
0.691596689775679
30
0
41
1
10
3.55314396043559
20
0.758023143896366
30
0
41
1
10
3.55742117777294
20
0.779844515343427
30
0
41
1
10
3.56796141572443
20
0.82204242547823
30
0
41
1
10
3.57422835712416
20
0.842493773147879
30
0
41
1
10
3.58147009372831
20
0.862323262845194
30
0
0
SPLINE
5
C8
100
AcDbEntity
8
1
62
256
6
ByLayer
370
18
48
1
60
0
100
AcDbSpline
70
4
71
3
72
18
73
14
40
0
40
0
40
0
40
0
40
0.249999999999996
40
0.249999999999996
40
0.499999999999993
40
0.499999999999993
40
0.624999999999991
40
0.624999999999991
40
0.687499999999994
40
0.687499999999994
40
0.749999999999996
40
0.749999999999996
40
1
40
1
40
1
40
1
41
1
10
3.58147009372831
20
0.862323262845194
30
0
41
1
10
3.70145122547586
20
0.884932622731014
30
0
41
1
10
3.82203011485868
20
0.900672004804505
30
0
41
1
10
4.06434426919185
20
0.920351236982725
30
0
41
1
10
4.18607965919495
20
0.924285956139187
30
0
41
1
10
4.36956059416943
20
0.921517315263515
30
0
41
1
10
4.43086761342767
20
0.919136673728758
30
0
41
1
10
4.52305328635777
20
0.913283463516763
30
0
41
1
10
4.55380443840548
20
0.910950729520437
30
0
41
1
10
4.61502675682712
20
0.905534637695155
30
0
41
1
10
4.6455417488072
20
0.902448756231735
30
0
41
1
10
4.79763941810421
20
0.885098022226401
30
0
41
1
10
4.91779554863379
20
0.865133101477255
30
0
41
1
10
5.03643200003927
20
0.838166282508041
30
0
0
LINE
5
7F
100
AcDbEntity
8
1
62
256
6
ByLayer
370
18
48
1
60
0
100
AcDbLine
10
0
20
1.498433
30
0
11
0
21
-1.498433
31
0
39
0
210
0
220
0
230
1
0
LINE
5
80
100
AcDbEntity
8
1
62
256
6
ByLayer
370
18
48
1
60
0
100
AcDbLine
10
16.917748
20
0.679945
30
0
11
16.917748
21
-1.291513
31
0
39
0
210
0
220
0
230
1
0
LINE
5
81
100
AcDbEntity
8
1
62
256
6
ByLayer
370
18
48
1
60
0
100
AcDbLine
10
5.036432
20
0.007218
30
0
11
5.036432
21
-0.792343
31
0
39
0
210
0
220
0
230
1
0
LINE
5
82
100
AcDbEntity
8
1
62
256
6
ByLayer
370
13
48
1
60
0
100
AcDbLine
10
0.540153
20
1.34
30
0
11
0.540153
21
-1.34
31
0
39
0
210
0
220
0
230
1
0
LINE
5
83
100
AcDbEntity
8
1
62
256
6
ByLayer
370
18
48
1
60
0
100
AcDbLine
10
5.036432
20
0.838166
30
0
11
5.036432
21
0.007218
31
0
39
0
210
0
220
0
230
1
0
LINE
5
84
100
AcDbEntity
8
SK1
62
256
6
ByLayer
370
18
48
1
60
0
100
AcDbLine
10
-20.4574
20
1.326795
30
0
11
-20.4574
21
-1.326795
31
0
39
0
210
0
220
0
230
1
0
LINE
5
86
100
AcDbEntity
8
SK1
62
256
6
ByLayer
370
18
48
1
60
0
100
AcDbLine
10
0
20
1.498433
30
0
11
0
21
-1.498433
31
0
39
0
210
0
220
0
230
1
0
LINE
5
87
100
AcDbEntity
8
SK1
62
256
6
ByLayer
370
18
48
1
60
0
100
AcDbLine
10
-0.002433
20
1.5
30
0
11
-0.002433
21
-1.5
31
0
39
0
210
0
220
0
230
1
0
LINE
5
88
100
AcDbEntity
8
SK1
62
256
6
ByLayer
370
18
48
1
60
0
100
AcDbLine
10
-20.1574
20
1.5
30
0
11
-20.1574
21
-1.5
31
0
39
0
210
0
220
0
230
1
0
LINE
5
89
100
AcDbEntity
8
1
62
256
6
ByLayer
370
18
48
1
60
0
100
AcDbLine
10
17.5426
20
0
30
0
11
17.297056
21
0.52657
31
0
39
0
210
0
220
0
230
1
0
LINE
5
8A
100
AcDbEntity
8
1
62
256
6
ByLayer
370
18
48
1
60
0
100
AcDbLine
10
17.297056
20
-0.52657
30
0
11
17.5426
21
0
31
0
39
0
210
0
220
0
230
1
0
LINE
5
8B
100
AcDbEntity
8
1
62
256
6
ByLayer
370
18
48
1
60
0
100
AcDbLine
10
0.540153
20
-1.34
30
0
11
7.213441
21
-1.34
31
0
39
0
210
0
220
0
230
1
0
LINE
5
8C
100
AcDbEntity
8
1
62
256
6
ByLayer
370
18
48
1
60
0
100
AcDbLine
10
10.250375
20
-1.34
30
0
11
14.505027
21
-1.34
31
0
39
0
210
0
220
0
230
1
0
LINE
5
8D
100
AcDbEntity
8
1
62
256
6
ByLayer
370
18
48
1
60
0
100
AcDbLine
10
14.505027
20
1.34
30
0
11
10.250375
21
1.34
31
0
39
0
210
0
220
0
230
1
0
LINE
5
8E
100
AcDbEntity
8
1
62
256
6
ByLayer
370
18
48
1
60
0
100
AcDbLine
10
7.213441
20
1.34
30
0
11
0.540153
21
1.34
31
0
39
0
210
0
220
0
230
1
0
LINE
5
8F
100
AcDbEntity
8
SK1
62
256
6
ByLayer
370
18
48
1
60
0
100
AcDbLine
10
-20.4574
20
-1.326795
30
0
11
-20.1574
21
-1.5
31
0
39
0
210
0
220
0
230
1
0
LINE
5
90
100
AcDbEntity
8
SK1
62
256
6
ByLayer
370
18
48
1
60
0
100
AcDbLine
10
-20.1574
20
1.5
30
0
11
-20.4574
21
1.326795
31
0
39
0
210
0
220
0
230
1
0
LINE
5
91
100
AcDbEntity
8
SK1
62
256
6
ByLayer
370
18
48
1
60
0
100
AcDbLine
10
-20.1574
20
-1.5
30
0
11
-0.002433
21
-1.5
31
0
39
0
210
0
220
0
230
1
0
LINE
5
92
100
AcDbEntity
8
SK1
62
256
6
ByLayer
370
18
48
1
60
0
100
AcDbLine
10
-0.002433
20
1.5
30
0
11
-20.1574
21
1.5
31
0
39
0
210
0
220
0
230
1
0
LINE
5
93
100
AcDbEntity
8
4
62
256
6
ByLayer
370
18
48
0.05
60
0
100
AcDbLine
10
0
20
0
30
0
11
17.5426
21
0
31
0
39
0
210
0
220
0
230
1
0
LINE
5
95
100
AcDbEntity
8
81
62
256
6
ByLayer
370
18
48
1
60
0
100
AcDbLine
10
17.5426
20
0
30
0
11
20.5426
21
0
31
0
39
0
210
0
220
0
230
1
0
LINE
5
96
100
AcDbEntity
8
80
62
256
6
ByLayer
370
18
48
1
60
0
100
AcDbLine
10
0
20
0
30
0
11
-3
21
0
31
0
39
0
210
0
220
0
230
1
0
LINE
5
97
100
AcDbEntity
8
SK4
62
256
6
ByLayer
370
18
48
0.05
60
0
100
AcDbLine
10
-23.4574
20
0
30
0
11
20.5426
21
0
31
0
39
0
210
0
220
0
230
1
0
LINE
5
99
100
AcDbEntity
8
SK2
62
256
6
ByLayer
370
13
48
1
60
0
100
AcDbLine
10
-24.9574
20
-9
30
0
11
-24.9574
21
21.782741
31
0
39
0
210
0
220
0
230
1
0
LINE
5
9B
100
AcDbEntity
8
SK2
62
256
6
ByLayer
370
13
48
1
60
0
100
AcDbLine
10
-22.0449
20
-1.5
30
0
11
-26.9574
21
-1.5
31
0
39
0
210
0
220
0
230
1
0
LINE
5
9C
100
AcDbEntity
8
SK2
62
256
6
ByLayer
370
13
48
1
60
0
100
AcDbLine
10
-22.0449
20
1.5
30
0
11
-26.9574
21
1.5
31
0
39
0
210
0
220
0
230
1
0
LINE
5
9D
100
AcDbEntity
8
1
62
256
6
ByLayer
370
18
48
1
60
1
100
AcDbLine
10
-24.9574
20
-1.5
30
0
11
-24.496616
21
-4.999998
31
0
39
0
210
0
220
0
230
1
0
LINE
5
9E
100
AcDbEntity
8
1
62
256
6
ByLayer
370
18
48
1
60
1
100
AcDbLine
10
-24.496616
20
-4.999998
30
0
11
-25.418184
21
-5.000002
31
0
39
0
210
0
220
0
230
1
0
LINE
5
9F
100
AcDbEntity
8
1
62
256
6
ByLayer
370
18
48
1
60
1
100
AcDbLine
10
-25.418184
20
-5.000002
30
0
11
-24.9574
21
-1.5
31
0
39
0
210
0
220
0
230
1
0
LINE
5
A0
100
AcDbEntity
8
1
62
256
6
ByLayer
370
18
48
1
60
1
100
AcDbLine
10
-24.9574
20
1.5
30
0
11
-25.418184
21
4.999998
31
0
39
0
210
0
220
0
230
1
0
LINE
5
A1
100
AcDbEntity
8
1
62
256
6
ByLayer
370
18
48
1
60
1
100
AcDbLine
10
-25.418184
20
4.999998
30
0
11
-24.496616
21
5.000002
31
0
39
0
210
0
220
0
230
1
0
LINE
5
A2
100
AcDbEntity
8
1
62
256
6
ByLayer
370
18
48
1
60
1
100
AcDbLine
10
-24.496616
20
5.000002
30
0
11
-24.9574
21
1.5
31
0
39
0
210
0
220
0
230
1
0
LINE
5
A3
100
AcDbEntity
8
2
62
256
6
ByLayer
370
13
48
1
60
0
100
AcDbLine
10
23.0426
20
-8.84
30
0
11
23.0426
21
29.442741
31
0
39
0
210
0
220
0
230
1
0
LINE
5
A5
100
AcDbEntity
8
2
62
256
6
ByLayer
370
13
48
1
60
0
100
AcDbLine
10
19.1301
20
-1.34
30
0
11
25.0426
21
-1.34
31
0
39
0
210
0
220
0
230
1
0
LINE
5
A6
100
AcDbEntity
8
2
62
256
6
ByLayer
370
13
48
1
60
0
100
AcDbLine
10
19.1301
20
1.34
30
0
11
25.0426
21
1.34
31
0
39
0
210
0
220
0
230
1
0
LINE
5
A7
100
AcDbEntity
8
1
62
256
6
ByLayer
370
18
48
1
60
1
100
AcDbLine
10
23.0426
20
-1.34
30
0
11
23.503384
21
-4.839998
31
0
39
0
210
0
220
0
230
1
0
LINE
5
A8
100
AcDbEntity
8
1
62
256
6
ByLayer
370
18
48
1
60
1
100
AcDbLine
10
23.503384
20
-4.839998
30
0
11
22.581816
21
-4.840002
31
0
39
0
210
0
220
0
230
1
0
LINE
5
A9
100
AcDbEntity
8
1
62
256
6
ByLayer
370
18
48
1
60
1
100
AcDbLine
10
22.581816
20
-4.840002
30
0
11
23.0426
21
-1.34
31
0
39
0
210
0
220
0
230
1
0
LINE
5
AA
100
AcDbEntity
8
1
62
256
6
ByLayer
370
18
48
1
60
1
100
AcDbLine
10
23.0426
20
1.34
30
0
11
22.581816
21
4.839998
31
0
39
0
210
0
220
0
230
1
0
LINE
5
AB
100
AcDbEntity
8
1
62
256
6
ByLayer
370
18
48
1
60
1
100
AcDbLine
10
22.581816
20
4.839998
30
0
11
23.503384
21
4.840002
31
0
39
0
210
0
220
0
230
1
0
LINE
5
AC
100
AcDbEntity
8
1
62
256
6
ByLayer
370
18
48
1
60
1
100
AcDbLine
10
23.503384
20
4.840002
30
0
11
23.0426
21
1.34
31
0
39
0
210
0
220
0
230
1
0
LINE
5
AD
100
AcDbEntity
8
SK2
62
256
6
ByLayer
370
13
48
1
60
0
100
AcDbLine
10
18.213506
20
-1.438764
30
0
11
25.297645
21
-16.630748
31
0
39
0
210
0
220
0
230
1
0
LINE
5
AE
100
AcDbEntity
8
SK2
62
256
6
ByLayer
370
13
48
1
60
0
100
AcDbLine
10
18.213506
20
1.438764
30
0
11
25.297645
21
16.630748
31
0
39
0
210
0
220
0
230
1
0
LINE
5
AF
100
AcDbEntity
8
1
62
256
6
ByLayer
370
18
48
1
60
1
100
AcDbLine
10
24.452409
20
-14.818132
30
0
11
27.324442
21
-12.765394
31
0
39
0
210
0
220
0
230
1
0
LINE
5
B0
100
AcDbEntity
8
1
62
256
6
ByLayer
370
18
48
1
60
1
100
AcDbLine
10
27.324442
20
-12.765394
30
0
11
27.757871
21
-13.578675
31
0
39
0
210
0
220
0
230
1
0
LINE
5
B1
100
AcDbEntity
8
1
62
256
6
ByLayer
370
18
48
1
60
1
100
AcDbLine
10
27.757871
20
-13.578675
30
0
11
24.452409
21
-14.818132
31
0
39
0
210
0
220
0
230
1
0
LINE
5
B2
100
AcDbEntity
8
1
62
256
6
ByLayer
370
18
48
1
60
1
100
AcDbLine
10
24.452409
20
14.818132
30
0
11
27.757868
21
13.578677
31
0
39
0
210
0
220
0
230
1
0
LINE
5
B3
100
AcDbEntity
8
1
62
256
6
ByLayer
370
18
48
1
60
1
100
AcDbLine
10
27.757868
20
13.578677
30
0
11
27.324445
21
12.765392
31
0
39
0
210
0
220
0
230
1
0
LINE
5
B4
100
AcDbEntity
8
1
62
256
6
ByLayer
370
18
48
1
60
1
100
AcDbLine
10
27.324445
20
12.765392
30
0
11
24.452409
21
14.818132
31
0
39
0
210
0
220
0
230
1
0
LINE
5
CD
100
AcDbEntity
8
1
62
256
6
ByLayer
370
18
48
1
60
1
100
AcDbLine
10
-24.9574
20
-1.5
30
0
11
-24.496616
21
-4.999998
31
0
39
0
210
0
220
0
230
1
0
LINE
5
CE
100
AcDbEntity
8
1
62
256
6
ByLayer
370
18
48
1
60
1
100
AcDbLine
10
-24.496616
20
-4.999998
30
0
11
-25.418184
21
-5.000002
31
0
39
0
210
0
220
0
230
1
0
LINE
5
CF
100
AcDbEntity
8
1
62
256
6
ByLayer
370
18
48
1
60
1
100
AcDbLine
10
-25.418184
20
-5.000002
30
0
11
-24.9574
21
-1.5
31
0
39
0
210
0
220
0
230
1
0
LINE
5
D1
100
AcDbEntity
8
1
62
256
6
ByLayer
370
18
48
1
60
1
100
AcDbLine
10
-24.9574
20
1.5
30
0
11
-25.418184
21
4.999998
31
0
39
0
210
0
220
0
230
1
0
LINE
5
D2
100
AcDbEntity
8
1
62
256
6
ByLayer
370
18
48
1
60
1
100
AcDbLine
10
-25.418184
20
4.999998
30
0
11
-24.496616
21
5.000002
31
0
39
0
210
0
220
0
230
1
0
LINE
5
D3
100
AcDbEntity
8
1
62
256
6
ByLayer
370
18
48
1
60
1
100
AcDbLine
10
-24.496616
20
5.000002
30
0
11
-24.9574
21
1.5
31
0
39
0
210
0
220
0
230
1
0
LINE
5
D7
100
AcDbEntity
8
1
62
256
6
ByLayer
370
18
48
1
60
1
100
AcDbLine
10
23.0426
20
-1.34
30
0
11
23.503384
21
-4.839998
31
0
39
0
210
0
220
0
230
1
0
LINE
5
D8
100
AcDbEntity
8
1
62
256
6
ByLayer
370
18
48
1
60
1
100
AcDbLine
10
23.503384
20
-4.839998
30
0
11
22.581816
21
-4.840002
31
0
39
0
210
0
220
0
230
1
0
LINE
5
D9
100
AcDbEntity
8
1
62
256
6
ByLayer
370
18
48
1
60
1
100
AcDbLine
10
22.581816
20
-4.840002
30
0
11
23.0426
21
-1.34
31
0
39
0
210
0
220
0
230
1
0
LINE
5
DB
100
AcDbEntity
8
1
62
256
6
ByLayer
370
18
48
1
60
1
100
AcDbLine
10
23.0426
20
1.34
30
0
11
22.581816
21
4.839998
31
0
39
0
210
0
220
0
230
1
0
LINE
5
DC
100
AcDbEntity
8
1
62
256
6
ByLayer
370
18
48
1
60
1
100
AcDbLine
10
22.581816
20
4.839998
30
0
11
23.503384
21
4.840002
31
0
39
0
210
0
220
0
230
1
0
LINE
5
DD
100
AcDbEntity
8
1
62
256
6
ByLayer
370
18
48
1
60
1
100
AcDbLine
10
23.503384
20
4.840002
30
0
11
23.0426
21
1.34
31
0
39
0
210
0
220
0
230
1
0
LINE
5
E0
100
AcDbEntity
8
1
62
256
6
ByLayer
370
18
48
1
60
1
100
AcDbLine
10
24.452409
20
-14.818132
30
0
11
27.324442
21
-12.765394
31
0
39
0
210
0
220
0
230
1
0
LINE
5
E1
100
AcDbEntity
8
1
62
256
6
ByLayer
370
18
48
1
60
1
100
AcDbLine
10
27.324442
20
-12.765394
30
0
11
27.757871
21
-13.578675
31
0
39
0
210
0
220
0
230
1
0
LINE
5
E2
100
AcDbEntity
8
1
62
256
6
ByLayer
370
18
48
1
60
1
100
AcDbLine
10
27.757871
20
-13.578675
30
0
11
24.452409
21
-14.818132
31
0
39
0
210
0
220
0
230
1
0
LINE
5
E4
100
AcDbEntity
8
1
62
256
6
ByLayer
370
18
48
1
60
1
100
AcDbLine
10
24.452409
20
14.818132
30
0
11
27.757868
21
13.578677
31
0
39
0
210
0
220
0
230
1
0
LINE
5
E5
100
AcDbEntity
8
1
62
256
6
ByLayer
370
18
48
1
60
1
100
AcDbLine
10
27.757868
20
13.578677
30
0
11
27.324445
21
12.765392
31
0
39
0
210
0
220
0
230
1
0
LINE
5
E6
100
AcDbEntity
8
1
62
256
6
ByLayer
370
18
48
1
60
1
100
AcDbLine
10
27.324445
20
12.765392
30
0
11
24.452409
21
14.818132
31
0
39
0
210
0
220
0
230
1
0
MTEXT
5
C9
100
AcDbEntity
8
SK2
62
256
6
ByLayer
370
18
48
1
60
0
100
AcDbMText
10
-26.298514
20
6.658437
30
0
210
0
220
0
230
1
1
%%c
40
3
41
0
44
1.084337
50
90
71
7
72
5
7
iso_b_vert
0
MTEXT
5
CC
100
AcDbEntity
8
SK2
62
256
6
ByLayer
370
18
48
1
60
0
100
AcDbMText
10
-26.298514
20
12.635
30
0
210
0
220
0
230
1
1
\W0.7468;3.000
40
3
41
0
44
1.084337
50
90
71
7
72
5
7
iso_b_vert
0
MTEXT
5
D5
100
AcDbEntity
8
2
62
256
6
ByLayer
370
18
48
1
60
0
100
AcDbMText
10
21.701486
20
14.318437
30
0
210
0
220
0
230
1
1
%%c
40
3
41
0
44
1.084337
50
90
71
7
72
5
7
iso_b_vert
0
MTEXT
5
D6
100
AcDbEntity
8
2
62
256
6
ByLayer
370
18
48
1
60
0
100
AcDbMText
10
21.701486
20
20.295
30
0
210
0
220
0
230
1
1
\W0.7468;2.680
40
3
41
0
44
1.084337
50
90
71
7
72
5
7
iso_b_vert
0
MTEXT
5
DF
100
AcDbEntity
8
SK2
62
256
6
ByLayer
370
18
48
1
60
0
100
AcDbMText
10
30.609886
20
-2.114886
30
0
210
0
220
0
230
1
1
\W0.6747;130%%d
40
3
41
0
44
1.084337
50
0
71
7
72
5
7
iso_b_vert
0
MTEXT
5
E8
100
AcDbEntity
8
SK6
62
256
6
ByLayer
370
18
48
1
60
0
100
AcDbMText
10
-29.46131
20
-48.114886
30
0
210
0
220
0
230
1
1
\W0.7754;462.1-0268-009A0-XM X0BU
40
3
41
0
44
1.084337
50
0
71
7
72
5
7
iso_b_vert
0
HATCH
5
D0
100
AcDbEntity
8
SK2
62
256
6
ByLayer
370
13
48
1
60
0
100
AcDbHatch
10
0
20
0
30
0
210
0
220
0
230
1
2
ANSI31
70
0
71
0
91
1
92
5
93
3
72
1
10
-24.9574
20
-1.5
11
-24.4966162584472
21
-4.99999830744682
72
1
10
-24.4966162584472
20
-4.99999830744682
11
-25.4181837415528
21
-5.00000169255318
72
1
10
-25.4181837415528
20
-5.00000169255318
11
-24.9574
21
-1.5
97
0
75
0
76
1
52
0
41
0.0062
77
0
78
1
53
45
43
0
44
0
45
-0.0139193969876572
46
0.0139193969876572
79
0
47
0
98
1
10
0
20
0
0
HATCH
5
D4
100
AcDbEntity
8
SK2
62
256
6
ByLayer
370
13
48
1
60
0
100
AcDbHatch
10
0
20
0
30
0
210
0
220
0
230
1
2
ANSI31
70
0
71
0
91
1
92
5
93
3
72
1
10
-24.9574
20
1.5
11
-25.4181837415528
21
4.99999830744682
72
1
10
-25.4181837415528
20
4.99999830744682
11
-24.4966162584472
21
5.00000169255318
72
1
10
-24.4966162584472
20
5.00000169255318
11
-24.9574
21
1.5
97
0
75
0
76
1
52
0
41
0.0062
77
0
78
1
53
45
43
0
44
0
45
-0.0139193969876572
46
0.0139193969876572
79
0
47
0
98
1
10
0
20
0
0
HATCH
5
DA
100
AcDbEntity
8
2
62
256
6
ByLayer
370
13
48
1
60
0
100
AcDbHatch
10
0
20
0
30
0
210
0
220
0
230
1
2
ANSI31
70
0
71
0
91
1
92
5
93
3
72
1
10
23.0426
20
-1.34
11
23.5033837415528
21
-4.83999830744682
72
1
10
23.5033837415528
20
-4.83999830744682
11
22.5818162584472
21
-4.84000169255319
72
1
10
22.5818162584472
20
-4.84000169255319
11
23.0426
21
-1.34
97
0
75
0
76
1
52
0
41
0.0062
77
0
78
1
53
45
43
0
44
0
45
-0.0139193969876572
46
0.0139193969876572
79
0
47
0
98
1
10
0
20
0
0
HATCH
5
DE
100
AcDbEntity
8
2
62
256
6
ByLayer
370
13
48
1
60
0
100
AcDbHatch
10
0
20
0
30
0
210
0
220
0
230
1
2
ANSI31
70
0
71
0
91
1
92
5
93
3
72
1
10
23.0426
20
1.34
11
22.5818162584472
21
4.83999830744682
72
1
10
22.5818162584472
20
4.83999830744682
11
23.5033837415528
21
4.84000169255319
72
1
10
23.5033837415528
20
4.84000169255319
11
23.0426
21
1.34
97
0
75
0
76
1
52
0
41
0.0062
77
0
78
1
53
45
43
0
44
0
45
-0.0139193969876572
46
0.0139193969876572
79
0
47
0
98
1
10
0
20
0
0
HATCH
5
E3
100
AcDbEntity
8
SK2
62
256
6
ByLayer
370
13
48
1
60
0
100
AcDbHatch
10
0
20
0
30
0
210
0
220
0
230
1
2
ANSI31
70
0
71
0
91
1
92
5
93
3
72
1
10
24.4524085794604
20
-14.8181323180492
11
27.3244418553693
21
-12.765393983365
72
1
10
27.3244418553693
20
-12.765393983365
11
27.7578706127348
21
-13.5786750775861
72
1
10
27.7578706127348
20
-13.5786750775861
11
24.4524085794604
21
-14.8181323180492
97
0
75
0
76
1
52
0
41
0.0062
77
0
78
1
53
45
43
0
44
0
45
-0.0139193969876572
46
0.0139193969876572
79
0
47
0
98
1
10
0
20
0
0
HATCH
5
E7
100
AcDbEntity
8
SK2
62
256
6
ByLayer
370
13
48
1
60
0
100
AcDbHatch
10
0
20
0
30
0
210
0
220
0
230
1
2
ANSI31
70
0
71
0
91
1
92
5
93
3
72
1
10
24.4524085794604
20
14.8181323180492
11
27.7578676253807
21
13.5786766696479
72
1
10
27.7578676253807
20
13.5786766696479
11
27.3244448427234
21
12.7653923913032
72
1
10
27.3244448427234
20
12.7653923913032
11
24.4524085794604
21
14.8181323180492
97
0
75
0
76
1
52
0
41
0.0062
77
0
78
1
53
45
43
0
44
0
45
-0.0139193969876572
46
0.0139193969876572
79
0
47
0
98
1
10
0
20
0
0
DIMENSION
5
EB
100
AcDbEntity
8
SK2
62
256
6
ByLayer
370
18
48
1
60
0
100
AcDbDimension
2
_U0
10
17.5426
20
-38.987462
30
0
11
-1.4574
21
-38.987462
31
0
70
32
71
1
72
1
41
1
210
0
220
0
230
1
3
Standard
100
AcDbAlignedDimension
13
-20.4574
23
1.5
33
0
14
17.5426
24
1.34
34
0
50
0
100
AcDbRotatedDimension
1001
ACAD
1000
DSTYLE
1002
{
1070
   371
1070
    13
1070
   372
1070
    13
1070
     3
1000

1070
   170
1070
     0
1070
   144
1040
1.0
1070
   277
1070
     2
1070
   284
1070
     8
1070
   278
1070
    46
1070
   146
1040
1.166667
1070
   345
1005
16
1070
   347
1005
16
1070
   346
1005
16
1070
   344
1005
0
1070
   343
1005
0
1070
   172
1070
     1
1070
    76
1070
     0
1070
    75
1070
     0
1070
   282
1070
     0
1070
   281
1070
     0
1070
    71
1070
     0
1070
    74
1070
     0
1070
   279
1070
     0
1070
   173
1070
     1
1070
   340
1005
CA
1070
   271
1070
     2
1070
   272
1070
     2
1070
    77
1070
     1
1070
    73
1070
     1
1070
   171
1070
     3
1070
   274
1070
     4
1070
   177
1070
     2
1070
   176
1070
     2
1070
   178
1070
     2
1070
    78
1070
     8
1070
    48
1040
-0.1
1070
    41
1040
3.5
1070
   147
1040
1.5
1070
    42
1040
1.5875
1070
    44
1040
2.0
1070
   140
1040
3.0
1002
}
1001
ACAD_DSTYLE_DIM_LINETYPE
1070
   380
1005
16
1001
ACAD_DSTYLE_DIM_EXT1_LINETYPE
1070
   381
1005
16
1001
ACAD_DSTYLE_DIM_EXT2_LINETYPE
1070
   382
1005
16
0
DIMENSION
5
104
100
AcDbEntity
8
SK2
62
256
6
ByLayer
370
18
48
1
60
0
100
AcDbDimension
2
_U1
10
7.5626
20
-22.84
30
0
11
33.614029
21
-22.84
31
0
70
32
71
1
72
1
41
1
210
0
220
0
230
1
3
Standard
100
AcDbAlignedDimension
13
17.5426
23
1.34
33
0
14
7.5626
24
0
34
0
50
0
100
AcDbRotatedDimension
1001
ACAD
1000
DSTYLE
1002
{
1070
   371
1070
    13
1070
   372
1070
    13
1070
     3
1000

1070
   170
1070
     0
1070
   144
1040
1.0
1070
   277
1070
     2
1070
   284
1070
     8
1070
   278
1070
    46
1070
   146
1040
1.166667
1070
   345
1005
16
1070
   347
1005
16
1070
   346
1005
16
1070
   344
1005
0
1070
   343
1005
0
1070
   172
1070
     1
1070
    76
1070
     0
1070
    75
1070
     0
1070
   282
1070
     0
1070
   281
1070
     0
1070
    71
1070
     0
1070
    74
1070
     0
1070
   279
1070
     0
1070
   173
1070
     1
1070
   340
1005
CA
1070
   271
1070
     2
1070
   272
1070
     2
1070
    77
1070
     1
1070
    73
1070
     1
1070
   171
1070
     3
1070
   274
1070
     4
1070
   177
1070
     2
1070
   176
1070
     2
1070
   178
1070
     2
1070
    78
1070
     8
1070
    48
1040
-0.1
1070
    41
1040
3.5
1070
   147
1040
1.5
1070
    42
1040
1.5875
1070
    44
1040
2.0
1070
   140
1040
3.0
1002
}
1001
ACAD_DSTYLE_DIM_LINETYPE
1070
   380
1005
16
1001
ACAD_DSTYLE_DIM_EXT1_LINETYPE
1070
   381
1005
16
1001
ACAD_DSTYLE_DIM_EXT2_LINETYPE
1070
   382
1005
16
0
DIMENSION
5
11E
100
AcDbEntity
8
SK2
62
256
6
ByLayer
370
18
48
1
60
0
100
AcDbDimension
2
_U2
10
3.5426
20
-30.487462
30
0
11
10.5426
21
-30.487462
31
0
70
32
71
1
72
1
41
1
210
0
220
0
230
1
3
Standard
100
AcDbAlignedDimension
13
17.5426
23
1.34
33
0
14
3.5426
24
0
34
0
50
0
100
AcDbRotatedDimension
1001
ACAD
1000
DSTYLE
1002
{
1070
   371
1070
    13
1070
   372
1070
    13
1070
     3
1000

1070
   170
1070
     0
1070
   144
1040
1.0
1070
   277
1070
     2
1070
   284
1070
     8
1070
   278
1070
    46
1070
   146
1040
1.166667
1070
   345
1005
16
1070
   347
1005
16
1070
   346
1005
16
1070
   344
1005
0
1070
   343
1005
0
1070
   172
1070
     1
1070
    76
1070
     0
1070
    75
1070
     0
1070
   282
1070
     0
1070
   281
1070
     0
1070
    71
1070
     0
1070
    74
1070
     0
1070
   279
1070
     0
1070
   173
1070
     1
1070
   340
1005
CA
1070
   271
1070
     2
1070
   272
1070
     2
1070
    77
1070
     1
1070
    73
1070
     1
1070
   171
1070
     3
1070
   274
1070
     4
1070
   177
1070
     2
1070
   176
1070
     2
1070
   178
1070
     2
1070
    78
1070
     8
1070
    48
1040
-0.1
1070
    41
1040
3.5
1070
   147
1040
1.5
1070
    42
1040
1.5875
1070
    44
1040
2.0
1070
   140
1040
3.0
1002
}
1001
ACAD_DSTYLE_DIM_LINETYPE
1070
   380
1005
16
1001
ACAD_DSTYLE_DIM_EXT1_LINETYPE
1070
   381
1005
16
1001
ACAD_DSTYLE_DIM_EXT2_LINETYPE
1070
   382
1005
16
0
DIMENSION
5
137
100
AcDbEntity
8
SK2
62
256
6
ByLayer
370
18
48
1
60
0
100
AcDbDimension
2
_U3
10
0
20
11.487462
30
0
11
-10.2287
21
11.487462
31
0
70
32
71
1
72
1
41
1
210
0
220
0
230
1
3
Standard
100
AcDbAlignedDimension
13
-20.4574
23
0
33
0
14
0
24
0
34
0
50
0
100
AcDbRotatedDimension
1001
ACAD
1000
DSTYLE
1002
{
1070
   371
1070
    13
1070
   372
1070
    13
1070
     3
1000

1070
   170
1070
     0
1070
   144
1040
1.0
1070
   277
1070
     2
1070
   284
1070
     8
1070
   278
1070
    46
1070
   146
1040
1.166667
1070
   345
1005
16
1070
   347
1005
16
1070
   346
1005
16
1070
   344
1005
0
1070
   343
1005
0
1070
   172
1070
     1
1070
    76
1070
     0
1070
    75
1070
     0
1070
   282
1070
     0
1070
   281
1070
     0
1070
    71
1070
     0
1070
    74
1070
     0
1070
   279
1070
     0
1070
   173
1070
     1
1070
   340
1005
CA
1070
   271
1070
     2
1070
   272
1070
     2
1070
    77
1070
     1
1070
    73
1070
     1
1070
   171
1070
     3
1070
   274
1070
     4
1070
   177
1070
     2
1070
   176
1070
     2
1070
   178
1070
     2
1070
    78
1070
     8
1070
    48
1040
-0.1
1070
    41
1040
3.5
1070
   147
1040
1.5
1070
    42
1040
1.5875
1070
    44
1040
2.0
1070
   140
1040
3.0
1002
}
1001
ACAD_DSTYLE_DIM_LINETYPE
1070
   380
1005
16
1001
ACAD_DSTYLE_DIM_EXT1_LINETYPE
1070
   381
1005
16
1001
ACAD_DSTYLE_DIM_EXT2_LINETYPE
1070
   382
1005
16
0
DIMENSION
5
14F
100
AcDbEntity
8
2
62
256
6
ByLayer
370
18
48
1
60
0
100
AcDbDimension
2
_U4
10
0
20
11.487462
30
0
11
8.7713
21
11.487462
31
0
70
32
71
1
72
1
41
1
210
0
220
0
230
1
3
Standard
100
AcDbAlignedDimension
13
17.5426
23
1.34
33
0
14
0
24
0
34
0
50
0
100
AcDbRotatedDimension
1001
ACAD
1000
DSTYLE
1002
{
1070
   371
1070
    13
1070
   372
1070
    13
1070
     3
1000

1070
   170
1070
     0
1070
   144
1040
1.0
1070
   277
1070
     2
1070
   284
1070
     8
1070
   278
1070
    46
1070
   146
1040
1.166667
1070
   345
1005
16
1070
   347
1005
16
1070
   346
1005
16
1070
   344
1005
0
1070
   343
1005
0
1070
   172
1070
     1
1070
    76
1070
     0
1070
    75
1070
     0
1070
   282
1070
     0
1070
   281
1070
     0
1070
    71
1070
     0
1070
    74
1070
     0
1070
   279
1070
     0
1070
   173
1070
     1
1070
   340
1005
CA
1070
   271
1070
     2
1070
   272
1070
     2
1070
    77
1070
     1
1070
    73
1070
     1
1070
   171
1070
     3
1070
   274
1070
     4
1070
   177
1070
     2
1070
   176
1070
     2
1070
   178
1070
     2
1070
    78
1070
     8
1070
    48
1040
-0.1
1070
    41
1040
3.5
1070
   147
1040
1.5
1070
    42
1040
1.5875
1070
    44
1040
2.0
1070
   140
1040
3.0
1002
}
1001
ACAD_DSTYLE_DIM_LINETYPE
1070
   380
1005
16
1001
ACAD_DSTYLE_DIM_EXT1_LINETYPE
1070
   381
1005
16
1001
ACAD_DSTYLE_DIM_EXT2_LINETYPE
1070
   382
1005
16
0
ENDSEC
0
SECTION
2
OBJECTS
0
DICTIONARY
5
1d7
330
0
100
AcDbDictionary
280
0
281
1
3
ACAD_GROUP
350
1d8
3
ACAD_MLINESTYLE
350
1d9
0
DICTIONARY
5
1d8
330
0
100
AcDbDictionary
280
0
281
1
0
DICTIONARY
5
1d9
330
0
100
AcDbDictionary
280
0
281
1
3
Standard
350
18
0
MLINESTYLE
5
18
330
1d9
100
AcDbMlineStyle
2
Standard
70
0
3

62
256
51
90
52
90
71
2
49
-0.5
62
256
6
ByLayer
49
0.5
62
256
6
ByLayer
0
RASTERVARIABLES
5
1c5
330

100
AcDbRasterVariables
90
0
70
1
71
1
72
1
0
ENDSEC
0
EOF
