0
SECTION
2
HEADER
9
$ACADVER
1
AC1015
9
$DWGCODEPAGE
3
ANSI_1252
9
$HANDSEED
5
1e4
9
$ANGBASE
50
0
9
$ANGDIR
70
0
9
$ATTMODE
70
1
9
$AUNITS
70
0
9
$AUPREC
70
0
9
$CECOLOR
62
256
9
$CELTSCALE
40
1
9
$CELTYPE
6
ByLayer
9
$CELWEIGHT
370
18
9
$CLAYER
8
0
9
$CMLJUST
70
0
9
$CMLSCALE
40
1
9
$CMLSTYLE
2
Standard
9
$DIMSTYLE
2
Standard
9
$TEXTSIZE
40
0.2
9
$TEXTSTYLE
7
Standard
9
$LUNITS
70
2
9
$LUPREC
70
4
9
$EXTNAMES
290
1
9
$INSUNITS
70
4
9
$LTSCALE
40
1
9
$LWDISPLAY
290
1
9
$PDMODE
70
0
9
$PDSIZE
40
0
9
$PLINEGEN
70
0
0
ENDSEC
0
SECTION
2
CLASSES
0
CLASS
1
RASTERVARIABLES
2
AcDbRasterVariables
3
ISM
90
0
280
0
281
0
0
ENDSEC
0
SECTION
2
TABLES
0
TABLE
2
VPORT
5
1da
100
AcDbSymbolTable
0
VPORT
5
1
100
AcDbSymbolTableRecord
100
AcDbViewportTableRecord
2
*Active
70
0
10
0
20
0
11
1
21
1
12
-1
22
1
13
0
23
0
14
0.5
24
0.5
15
10
25
10
16
0
26
0
36
1
17
0
27
0
37
0
0
ENDTAB
0
TABLE
2
LTYPE
5
1db
100
AcDbSymbolTable
0
LTYPE
5
14
100
AcDbSymbolTableRecord
100
AcDbLinetypeTableRecord
70
0
2
ByBlock
3

72
65
73
0
40
0
0
LTYPE
5
15
100
AcDbSymbolTableRecord
100
AcDbLinetypeTableRecord
70
0
2
ByLayer
3

72
65
73
0
40
0
0
LTYPE
5
16
100
AcDbSymbolTableRecord
100
AcDbLinetypeTableRecord
70
0
2
Continuous
3
Solid line
72
65
73
0
40
0
0
LTYPE
5
6E
100
AcDbSymbolTableRecord
100
AcDbLinetypeTableRecord
70
0
2
CENTER
3
____ _ ____ _ ____ _ ____
72
65
73
4
40
47.5
49
22
74
0
49
-8.5
74
0
49
8.5
74
0
49
-8.5
74
0
0
LTYPE
5
6F
100
AcDbSymbolTableRecord
100
AcDbLinetypeTableRecord
70
0
2
DASHED
3
__ __ __ __ __ __ __ __ __
72
65
73
2
40
25.72
49
12.86
74
0
49
-12.86
74
0
0
ENDTAB
0
TABLE
2
LAYER
5
1dc
100
AcDbSymbolTable
0
LAYER
5
10
100
AcDbSymbolTableRecord
100
AcDbLayerTableRecord
2
0
70
0
62
7
6
Continuous
290
1
370
-3
390
0
0
LAYER
5
71
100
AcDbSymbolTableRecord
100
AcDbLayerTableRecord
2
80
70
0
62
-6
6
Continuous
290
1
370
-3
390
0
0
LAYER
5
73
100
AcDbSymbolTableRecord
100
AcDbLayerTableRecord
2
81
70
0
62
-3
6
Continuous
290
1
370
-3
390
0
0
LAYER
5
75
100
AcDbSymbolTableRecord
100
AcDbLayerTableRecord
2
1
70
0
62
4
6
Continuous
290
1
370
-3
390
0
0
LAYER
5
94
100
AcDbSymbolTableRecord
100
AcDbLayerTableRecord
2
4
70
0
62
-2
6
CENTER
290
1
370
-3
390
0
0
LAYER
5
A4
100
AcDbSymbolTableRecord
100
AcDbLayerTableRecord
2
2
70
0
62
7
6
Continuous
290
1
370
-3
390
0
0
LAYER
5
EE
100
AcDbSymbolTableRecord
100
AcDbLayerTableRecord
2
Defpoints
70
0
62
7
6
Continuous
290
0
370
-3
390
0
0
LAYER
5
1c6
100
AcDbSymbolTableRecord
100
AcDbLayerTableRecord
2
SK1
70
0
62
4
6
Continuous
290
1
370
-3
390
0
0
LAYER
5
1c7
100
AcDbSymbolTableRecord
100
AcDbLayerTableRecord
2
SK4
70
0
62
2
6
CENTER
290
1
370
-3
390
0
0
LAYER
5
1c8
100
AcDbSymbolTableRecord
100
AcDbLayerTableRecord
2
SK2
70
0
62
7
6
Continuous
290
1
370
-3
390
0
0
LAYER
5
1c9
100
AcDbSymbolTableRecord
100
AcDbLayerTableRecord
2
SK6
70
0
62
5
6
Continuous
290
1
370
-3
390
0
0
ENDTAB
0
TABLE
2
STYLE
5
1dd
100
AcDbSymbolTable
0
STYLE
5
11
100
AcDbSymbolTableRecord
100
AcDbTextStyleTableRecord
2
Standard
3
txt
70
0
71
0
40
0
41
1
42
0
50
0
0
STYLE
5
CA
100
AcDbSymbolTableRecord
100
AcDbTextStyleTableRecord
2
iso_b_vert
3
simplex.shx
70
0
71
0
40
0
41
1
42
0
50
0
0
STYLE
5
CB
100
AcDbSymbolTableRecord
100
AcDbTextStyleTableRecord
2
DWGDirectTextStyle
3
simplex
70
0
71
0
40
0
41
1
42
0
50
0
0
ENDTAB
0
TABLE
2
DIMSTYLE
5
1de
100
AcDbSymbolTable
100
AcDbDimStyleTable
0
DIMSTYLE
105
27
100
AcDbSymbolTableRecord
100
AcDbDimStyleTableRecord
2
Standard
70
0
3
<>
41
0.18
42
0.0625
44
0.18
140
0.18
147
0.09
73
0
74
0
77
1
271
2
275
0
278
52
280
0
340
11
0
ENDTAB
0
TABLE
2
VIEW
5
1df
100
AcDbSymbolTable
0
ENDTAB
0
TABLE
2
UCS
5
1e0
100
AcDbSymbolTable
0
ENDTAB
0
TABLE
2
APPID
5
1e1
100
AcDbSymbolTable
0
APPID
5
12
100
AcDbSymbolTableRecord
100
AcDbRegAppTableRecord
2
ACAD
70
0
0
APPID
5
EA
100
AcDbSymbolTableRecord
100
AcDbRegAppTableRecord
2
ACAD_DSTYLE_DIMBREAK
70
0
0
APPID
5
185
100
AcDbSymbolTableRecord
100
AcDbRegAppTableRecord
2
ACAD_DSTYLE_DIM_LINETYPE
70
0
0
APPID
5
186
100
AcDbSymbolTableRecord
100
AcDbRegAppTableRecord
2
ACAD_DSTYLE_DIM_EXT1_LINETYPE
70
0
0
APPID
5
187
100
AcDbSymbolTableRecord
100
AcDbRegAppTableRecord
2
ACAD_DSTYLE_DIM_EXT2_LINETYPE
70
0
0
APPID
5
1C2
100
AcDbSymbolTableRecord
100
AcDbRegAppTableRecord
2
ACAD_MLEADERVER
70
0
0
ENDTAB
0
TABLE
2
BLOCK_RECORD
5
1e2
100
AcDbSymbolTable
0
BLOCK_RECORD
5
1F
100
AcDbSymbolTableRecord
100
AcDbBlockTableRecord
2
*Model_Space
340
0
70
0
0
BLOCK_RECORD
5
1B
100
AcDbSymbolTableRecord
100
AcDbBlockTableRecord
2
*Paper_Space
340
0
70
0
0
BLOCK_RECORD
5
23
100
AcDbSymbolTableRecord
100
AcDbBlockTableRecord
2
*Paper_Space0
340
0
70
0
0
BLOCK_RECORD
5
EF
100
AcDbSymbolTableRecord
100
AcDbBlockTableRecord
2
*D1
340
0
70
0
0
BLOCK_RECORD
5
FB
100
AcDbSymbolTableRecord
100
AcDbBlockTableRecord
2
_U0
340
0
70
0
0
BLOCK_RECORD
5
107
100
AcDbSymbolTableRecord
100
AcDbBlockTableRecord
2
*D3
340
0
70
0
0
BLOCK_RECORD
5
115
100
AcDbSymbolTableRecord
100
AcDbBlockTableRecord
2
_U1
340
0
70
0
0
BLOCK_RECORD
5
121
100
AcDbSymbolTableRecord
100
AcDbBlockTableRecord
2
*D5
340
0
70
0
0
BLOCK_RECORD
5
12E
100
AcDbSymbolTableRecord
100
AcDbBlockTableRecord
2
_U2
340
0
70
0
0
BLOCK_RECORD
5
13A
100
AcDbSymbolTableRecord
100
AcDbBlockTableRecord
2
*D7
340
0
70
0
0
BLOCK_RECORD
5
146
100
AcDbSymbolTableRecord
100
AcDbBlockTableRecord
2
_U3
340
0
70
0
0
BLOCK_RECORD
5
152
100
AcDbSymbolTableRecord
100
AcDbBlockTableRecord
2
*D9
340
0
70
0
0
BLOCK_RECORD
5
15E
100
AcDbSymbolTableRecord
100
AcDbBlockTableRecord
2
_U4
340
0
70
0
0
ENDTAB
0
ENDSEC
0
SECTION
2
BLOCKS
0
BLOCK
5
20
100
AcDbEntity
8
0
100
AcDbBlockBegin
2
*Model_Space
70
0
10
0
20
0
30
0
3
*Model_Space
0
ENDBLK
5
21
100
AcDbEntity
8
0
100
AcDbBlockEnd
0
BLOCK
5
1C
100
AcDbEntity
8
0
100
AcDbBlockBegin
2
*Paper_Space
70
0
10
0
20
0
30
0
3
*Paper_Space
0
ENDBLK
5
1D
100
AcDbEntity
8
0
100
AcDbBlockEnd
0
BLOCK
5
24
100
AcDbEntity
8
0
100
AcDbBlockBegin
2
*Paper_Space0
70
0
10
0
20
0
30
0
3
*Paper_Space0
0
ENDBLK
5
25
100
AcDbEntity
8
0
100
AcDbBlockEnd
0
BLOCK
5
F0
100
AcDbEntity
8
0
100
AcDbBlockBegin
2
*D1
70
1
10
0
20
0
30
0
3
*D1
0
LINE
5
F2
100
AcDbEntity
8
0
62
256
6
ByLayer
370
-2
48
1
60
0
100
AcDbLine
10
-20.4652
20
-0.0875
30
0
11
-20.4652
21
-40.955153
31
0
39
0
210
0
220
0
230
1
0
LINE
5
F3
100
AcDbEntity
8
0
62
256
6
ByLayer
370
-2
48
1
60
0
100
AcDbLine
10
17.5348
20
-0.2425
30
0
11
17.5348
21
-40.955153
31
0
39
0
210
0
220
0
230
1
0
LINE
5
F4
100
AcDbEntity
8
0
62
256
6
ByLayer
370
-2
48
1
60
0
100
AcDbLine
10
-16.9652
20
-38.955153
30
0
11
14.0348
21
-38.955153
31
0
39
0
210
0
220
0
230
1
0
SOLID
5
F5
100
AcDbEntity
8
0
62
256
6
ByLayer
370
-1
48
1
60
0
100
AcDbTrace
10
-16.9652
20
-38.37182
30
0
11
-16.9652
21
-39.538486
31
0
12
-20.4652
22
-38.955153
32
0
13
-20.4652
23
-38.955153
33
0
39
0
210
0
220
0
230
1
0
SOLID
5
F6
100
AcDbEntity
8
0
62
256
6
ByLayer
370
-1
48
1
60
0
100
AcDbTrace
10
14.0348
20
-39.538486
30
0
11
14.0348
21
-38.37182
31
0
12
17.5348
22
-38.955153
32
0
13
17.5348
23
-38.955153
33
0
39
0
210
0
220
0
230
1
0
MTEXT
5
F7
100
AcDbEntity
8
0
62
256
6
ByLayer
370
18
48
1
60
0
100
AcDbMText
10
-1.4652
20
-32.955153
30
0
210
0
220
0
230
1
1
\A1;38
40
3
41
0
44
1
50
0
71
5
72
5
7
iso_b_vert
0
POINT
5
F8
100
AcDbEntity
8
Defpoints
62
0
6
ByLayer
370
-1
48
1
60
0
100
AcDbPoint
10
-20.4652
20
1.5
30
0
39
0
210
0
220
0
230
1
50
360
0
POINT
5
F9
100
AcDbEntity
8
Defpoints
62
0
6
ByLayer
370
-1
48
1
60
0
100
AcDbPoint
10
17.5348
20
1.345
30
0
39
0
210
0
220
0
230
1
50
360
0
POINT
5
FA
100
AcDbEntity
8
Defpoints
62
0
6
ByLayer
370
-1
48
1
60
0
100
AcDbPoint
10
17.5348
20
-38.955153
30
0
39
0
210
0
220
0
230
1
50
360
0
ENDBLK
5
F1
100
AcDbEntity
8
0
100
AcDbBlockEnd
0
BLOCK
5
102
100
AcDbEntity
8
0
100
AcDbBlockBegin
2
_U0
70
0
10
0
20
0
30
0
3
_U0
0
MTEXT
5
FC
100
AcDbEntity
8
SK2
62
256
6
ByLayer
370
18
48
1
60
0
100
AcDbMText
10
-5.94757
20
-38.070038
30
0
210
0
220
0
230
1
1
\W0.7468;38.00
40
3
41
0
44
1.084337
50
0
71
7
72
5
7
iso_b_vert
0
LINE
5
FD
100
AcDbEntity
8
SK2
62
256
6
ByLayer
370
13
48
1
60
0
100
AcDbLine
10
-20.4652
20
-0.0875
30
0
11
-20.4652
21
-40.955153
31
0
39
0
210
0
220
0
230
1
0
LINE
5
FE
100
AcDbEntity
8
SK2
62
256
6
ByLayer
370
13
48
1
60
0
100
AcDbLine
10
17.5348
20
-0.2425
30
0
11
17.5348
21
-40.955153
31
0
39
0
210
0
220
0
230
1
0
LINE
5
FF
100
AcDbEntity
8
SK2
62
256
6
ByLayer
370
13
48
1
60
0
100
AcDbLine
10
-20.4652
20
-38.955153
30
0
11
17.5348
21
-38.955153
31
0
39
0
210
0
220
0
230
1
0
SOLID
5
100
100
AcDbEntity
8
SK2
62
256
6
ByLayer
370
18
48
1
60
0
100
AcDbTrace
10
-20.4652
20
-38.955153
30
0
11
-16.965202
21
-38.494369
31
0
12
-16.965198
22
-39.415937
32
0
13
-16.965198
23
-39.415937
33
0
39
0
210
0
220
0
230
1
0
SOLID
5
101
100
AcDbEntity
8
SK2
62
256
6
ByLayer
370
18
48
1
60
0
100
AcDbTrace
10
17.5348
20
-38.955153
30
0
11
14.034802
21
-39.415937
31
0
12
14.034798
22
-38.494369
32
0
13
14.034798
23
-38.494369
33
0
39
0
210
0
220
0
230
1
0
ENDBLK
5
103
100
AcDbEntity
8
0
100
AcDbBlockEnd
0
BLOCK
5
108
100
AcDbEntity
8
0
100
AcDbBlockBegin
2
*D3
70
1
10
0
20
0
30
0
3
*D3
0
LINE
5
10A
100
AcDbEntity
8
0
62
256
6
ByLayer
370
-2
48
1
60
0
100
AcDbLine
10
17.5348
20
-0.2425
30
0
11
17.5348
21
-24.845
31
0
39
0
210
0
220
0
230
1
0
LINE
5
10B
100
AcDbEntity
8
0
62
256
6
ByLayer
370
-2
48
1
60
0
100
AcDbLine
10
7.5698
20
-1.5875
30
0
11
7.5698
21
-24.845
31
0
39
0
210
0
220
0
230
1
0
LINE
5
10C
100
AcDbEntity
8
0
62
256
6
ByLayer
370
-2
48
1
60
0
100
AcDbLine
10
17.5348
20
-22.845
30
0
11
42.677657
21
-22.845
31
0
39
0
210
0
220
0
230
1
0
LINE
5
10D
100
AcDbEntity
8
0
62
256
6
ByLayer
370
-2
48
1
60
0
100
AcDbLine
10
21.0348
20
-22.845
30
0
11
24.5348
21
-22.845
31
0
39
0
210
0
220
0
230
1
0
LINE
5
10E
100
AcDbEntity
8
0
62
256
6
ByLayer
370
-2
48
1
60
0
100
AcDbLine
10
4.0698
20
-22.845
30
0
11
0.5698
21
-22.845
31
0
39
0
210
0
220
0
230
1
0
SOLID
5
10F
100
AcDbEntity
8
0
62
256
6
ByLayer
370
-1
48
1
60
0
100
AcDbTrace
10
21.0348
20
-22.261667
30
0
11
21.0348
21
-23.428333
31
0
12
17.5348
22
-22.845
32
0
13
17.5348
23
-22.845
33
0
39
0
210
0
220
0
230
1
0
SOLID
5
110
100
AcDbEntity
8
0
62
256
6
ByLayer
370
-1
48
1
60
0
100
AcDbTrace
10
4.0698
20
-23.428333
30
0
11
4.0698
21
-22.261667
31
0
12
7.5698
22
-22.845
32
0
13
7.5698
23
-22.845
33
0
39
0
210
0
220
0
230
1
0
MTEXT
5
111
100
AcDbEntity
8
0
62
256
6
ByLayer
370
18
48
1
60
0
100
AcDbMText
10
33.606229
20
-16.845
30
0
210
0
220
0
230
1
1
\A1;9.97
40
3
41
0
44
1
50
0
71
5
72
5
7
iso_b_vert
0
POINT
5
112
100
AcDbEntity
8
Defpoints
62
0
6
ByLayer
370
-1
48
1
60
0
100
AcDbPoint
10
17.5348
20
1.345
30
0
39
0
210
0
220
0
230
1
50
360
0
POINT
5
113
100
AcDbEntity
8
Defpoints
62
0
6
ByLayer
370
-1
48
1
60
0
100
AcDbPoint
10
7.5698
20
0
30
0
39
0
210
0
220
0
230
1
50
360
0
POINT
5
114
100
AcDbEntity
8
Defpoints
62
0
6
ByLayer
370
-1
48
1
60
0
100
AcDbPoint
10
7.5698
20
-22.845
30
0
39
0
210
0
220
0
230
1
50
360
0
ENDBLK
5
109
100
AcDbEntity
8
0
100
AcDbBlockEnd
0
BLOCK
5
11C
100
AcDbEntity
8
0
100
AcDbBlockBegin
2
_U1
70
0
10
0
20
0
30
0
3
_U1
0
MTEXT
5
116
100
AcDbEntity
8
SK2
62
256
6
ByLayer
370
18
48
1
60
0
100
AcDbMText
10
21.6938
20
-21.959886
30
0
210
0
220
0
230
1
1
\W0.7051;(9.96)
40
3
41
0
44
1.084337
50
0
71
7
72
5
7
iso_b_vert
0
LINE
5
117
100
AcDbEntity
8
SK2
62
256
6
ByLayer
370
13
48
1
60
0
100
AcDbLine
10
17.5348
20
-0.2425
30
0
11
17.5348
21
-24.845
31
0
39
0
210
0
220
0
230
1
0
LINE
5
118
100
AcDbEntity
8
SK2
62
256
6
ByLayer
370
13
48
1
60
0
100
AcDbLine
10
7.5698
20
-1.5875
30
0
11
7.5698
21
-24.845
31
0
39
0
210
0
220
0
230
1
0
LINE
5
119
100
AcDbEntity
8
SK2
62
256
6
ByLayer
370
13
48
1
60
0
100
AcDbLine
10
7.5698
20
-22.845
30
0
11
31.006569
21
-22.845
31
0
39
0
210
0
220
0
230
1
0
SOLID
5
11A
100
AcDbEntity
8
SK2
62
256
6
ByLayer
370
18
48
1
60
0
100
AcDbTrace
10
17.5348
20
-22.845
30
0
11
14.034802
21
-23.305784
31
0
12
14.034798
22
-22.384216
32
0
13
14.034798
23
-22.384216
33
0
39
0
210
0
220
0
230
1
0
SOLID
5
11B
100
AcDbEntity
8
SK2
62
256
6
ByLayer
370
18
48
1
60
0
100
AcDbTrace
10
7.5698
20
-22.845
30
0
11
11.069798
21
-22.384216
31
0
12
11.069802
22
-23.305784
32
0
13
11.069802
23
-23.305784
33
0
39
0
210
0
220
0
230
1
0
ENDBLK
5
11D
100
AcDbEntity
8
0
100
AcDbBlockEnd
0
BLOCK
5
122
100
AcDbEntity
8
0
100
AcDbBlockBegin
2
*D5
70
1
10
0
20
0
30
0
3
*D5
0
LINE
5
124
100
AcDbEntity
8
0
62
256
6
ByLayer
370
-2
48
1
60
0
100
AcDbLine
10
17.5348
20
-0.2425
30
0
11
17.5348
21
-32.455153
31
0
39
0
210
0
220
0
230
1
0
LINE
5
125
100
AcDbEntity
8
0
62
256
6
ByLayer
370
-2
48
1
60
0
100
AcDbLine
10
3.5348
20
-1.5875
30
0
11
3.5348
21
-32.455153
31
0
39
0
210
0
220
0
230
1
0
LINE
5
126
100
AcDbEntity
8
0
62
256
6
ByLayer
370
-2
48
1
60
0
100
AcDbLine
10
21.0348
20
-30.455153
30
0
11
24.5348
21
-30.455153
31
0
39
0
210
0
220
0
230
1
0
LINE
5
127
100
AcDbEntity
8
0
62
256
6
ByLayer
370
-2
48
1
60
0
100
AcDbLine
10
0.0348
20
-30.455153
30
0
11
-3.4652
21
-30.455153
31
0
39
0
210
0
220
0
230
1
0
SOLID
5
128
100
AcDbEntity
8
0
62
256
6
ByLayer
370
-1
48
1
60
0
100
AcDbTrace
10
21.0348
20
-29.87182
30
0
11
21.0348
21
-31.038486
31
0
12
17.5348
22
-30.455153
32
0
13
17.5348
23
-30.455153
33
0
39
0
210
0
220
0
230
1
0
SOLID
5
129
100
AcDbEntity
8
0
62
256
6
ByLayer
370
-1
48
1
60
0
100
AcDbTrace
10
0.0348
20
-31.038486
30
0
11
0.0348
21
-29.87182
31
0
12
3.5348
22
-30.455153
32
0
13
3.5348
23
-30.455153
33
0
39
0
210
0
220
0
230
1
0
MTEXT
5
12A
100
AcDbEntity
8
0
62
256
6
ByLayer
370
18
48
1
60
0
100
AcDbMText
10
10.5348
20
-24.455153
30
0
210
0
220
0
230
1
1
\A1;14
40
3
41
0
44
1
50
0
71
5
72
5
7
iso_b_vert
0
POINT
5
12B
100
AcDbEntity
8
Defpoints
62
0
6
ByLayer
370
-1
48
1
60
0
100
AcDbPoint
10
17.5348
20
1.345
30
0
39
0
210
0
220
0
230
1
50
360
0
POINT
5
12C
100
AcDbEntity
8
Defpoints
62
0
6
ByLayer
370
-1
48
1
60
0
100
AcDbPoint
10
3.5348
20
0
30
0
39
0
210
0
220
0
230
1
50
360
0
POINT
5
12D
100
AcDbEntity
8
Defpoints
62
0
6
ByLayer
370
-1
48
1
60
0
100
AcDbPoint
10
3.5348
20
-30.455153
30
0
39
0
210
0
220
0
230
1
50
360
0
ENDBLK
5
123
100
AcDbEntity
8
0
100
AcDbBlockEnd
0
BLOCK
5
135
100
AcDbEntity
8
0
100
AcDbBlockBegin
2
_U2
70
0
10
0
20
0
30
0
3
_U2
0
MTEXT
5
12F
100
AcDbEntity
8
SK2
62
256
6
ByLayer
370
18
48
1
60
0
100
AcDbMText
10
6.269429
20
-29.570038
30
0
210
0
220
0
230
1
1
\W0.7091;14.00
40
3
41
0
44
1.084337
50
0
71
7
72
5
7
iso_b_vert
0
LINE
5
130
100
AcDbEntity
8
SK2
62
256
6
ByLayer
370
13
48
1
60
0
100
AcDbLine
10
17.5348
20
-0.2425
30
0
11
17.5348
21
-32.455153
31
0
39
0
210
0
220
0
230
1
0
LINE
5
131
100
AcDbEntity
8
SK2
62
256
6
ByLayer
370
13
48
1
60
0
100
AcDbLine
10
3.5348
20
-1.5875
30
0
11
3.5348
21
-32.455153
31
0
39
0
210
0
220
0
230
1
0
LINE
5
132
100
AcDbEntity
8
SK2
62
256
6
ByLayer
370
13
48
1
60
0
100
AcDbLine
10
17.5348
20
-30.455153
30
0
11
3.5348
21
-30.455153
31
0
39
0
210
0
220
0
230
1
0
SOLID
5
133
100
AcDbEntity
8
SK2
62
256
6
ByLayer
370
18
48
1
60
0
100
AcDbTrace
10
17.5348
20
-30.455153
30
0
11
14.034802
21
-30.915937
31
0
12
14.034798
22
-29.994369
32
0
13
14.034798
23
-29.994369
33
0
39
0
210
0
220
0
230
1
0
SOLID
5
134
100
AcDbEntity
8
SK2
62
256
6
ByLayer
370
18
48
1
60
0
100
AcDbTrace
10
3.5348
20
-30.455153
30
0
11
7.034798
21
-29.994369
31
0
12
7.034802
22
-30.915937
32
0
13
7.034802
23
-30.915937
33
0
39
0
210
0
220
0
230
1
0
ENDBLK
5
136
100
AcDbEntity
8
0
100
AcDbBlockEnd
0
BLOCK
5
13B
100
AcDbEntity
8
0
100
AcDbBlockBegin
2
*D7
70
1
10
0
20
0
30
0
3
*D7
0
LINE
5
13D
100
AcDbEntity
8
0
62
256
6
ByLayer
370
-2
48
1
60
0
100
AcDbLine
10
-20.4652
20
1.5875
30
0
11
-20.4652
21
13.455153
31
0
39
0
210
0
220
0
230
1
0
LINE
5
13E
100
AcDbEntity
8
0
62
256
6
ByLayer
370
-2
48
1
60
0
100
AcDbLine
10
0
20
1.5875
30
0
11
0
21
13.455153
31
0
39
0
210
0
220
0
230
1
0
LINE
5
13F
100
AcDbEntity
8
0
62
256
6
ByLayer
370
-2
48
1
60
0
100
AcDbLine
10
-16.9652
20
11.455153
30
0
11
-3.5
21
11.455153
31
0
39
0
210
0
220
0
230
1
0
SOLID
5
140
100
AcDbEntity
8
0
62
256
6
ByLayer
370
-1
48
1
60
0
100
AcDbTrace
10
-16.9652
20
12.038486
30
0
11
-16.9652
21
10.87182
31
0
12
-20.4652
22
11.455153
32
0
13
-20.4652
23
11.455153
33
0
39
0
210
0
220
0
230
1
0
SOLID
5
141
100
AcDbEntity
8
0
62
256
6
ByLayer
370
-1
48
1
60
0
100
AcDbTrace
10
-3.5
20
10.87182
30
0
11
-3.5
21
12.038486
31
0
12
0
22
11.455153
32
0
13
0
23
11.455153
33
0
39
0
210
0
220
0
230
1
0
MTEXT
5
142
100
AcDbEntity
8
0
62
256
6
ByLayer
370
18
48
1
60
0
100
AcDbMText
10
-10.2326
20
17.455153
30
0
210
0
220
0
230
1
1
\A1;20.47
40
3
41
0
44
1
50
0
71
5
72
5
7
iso_b_vert
0
POINT
5
143
100
AcDbEntity
8
Defpoints
62
0
6
ByLayer
370
-1
48
1
60
0
100
AcDbPoint
10
-20.4652
20
0
30
0
39
0
210
0
220
0
230
1
50
360
0
POINT
5
144
100
AcDbEntity
8
Defpoints
62
0
6
ByLayer
370
-1
48
1
60
0
100
AcDbPoint
10
0
20
0
30
0
39
0
210
0
220
0
230
1
50
360
0
POINT
5
145
100
AcDbEntity
8
Defpoints
62
0
6
ByLayer
370
-1
48
1
60
0
100
AcDbPoint
10
0
20
11.455153
30
0
39
0
210
0
220
0
230
1
50
360
0
ENDBLK
5
13C
100
AcDbEntity
8
0
100
AcDbBlockEnd
0
BLOCK
5
14D
100
AcDbEntity
8
0
100
AcDbBlockBegin
2
_U3
70
0
10
0
20
0
30
0
3
_U3
0
MTEXT
5
147
100
AcDbEntity
8
SK2
62
256
6
ByLayer
370
18
48
1
60
0
100
AcDbMText
10
-14.872913
20
12.340267
30
0
210
0
220
0
230
1
1
\W0.7694;20.47
40
3
41
0
44
1.084337
50
0
71
7
72
5
7
iso_b_vert
0
LINE
5
148
100
AcDbEntity
8
SK2
62
256
6
ByLayer
370
13
48
1
60
0
100
AcDbLine
10
-20.4652
20
1.5875
30
0
11
-20.4652
21
13.455153
31
0
39
0
210
0
220
0
230
1
0
LINE
5
149
100
AcDbEntity
8
SK2
62
256
6
ByLayer
370
13
48
1
60
0
100
AcDbLine
10
0
20
1.5875
30
0
11
0
21
13.455153
31
0
39
0
210
0
220
0
230
1
0
LINE
5
14A
100
AcDbEntity
8
SK2
62
256
6
ByLayer
370
13
48
1
60
0
100
AcDbLine
10
-20.4652
20
11.455153
30
0
11
0
21
11.455153
31
0
39
0
210
0
220
0
230
1
0
SOLID
5
14B
100
AcDbEntity
8
SK2
62
256
6
ByLayer
370
18
48
1
60
0
100
AcDbTrace
10
-20.4652
20
11.455153
30
0
11
-16.965202
21
11.915937
31
0
12
-16.965198
22
10.994369
32
0
13
-16.965198
23
10.994369
33
0
39
0
210
0
220
0
230
1
0
SOLID
5
14C
100
AcDbEntity
8
SK2
62
256
6
ByLayer
370
18
48
1
60
0
100
AcDbTrace
10
0
20
11.455153
30
0
11
-3.499998
21
10.994369
31
0
12
-3.500002
22
11.915937
32
0
13
-3.500002
23
11.915937
33
0
39
0
210
0
220
0
230
1
0
ENDBLK
5
14E
100
AcDbEntity
8
0
100
AcDbBlockEnd
0
BLOCK
5
153
100
AcDbEntity
8
0
100
AcDbBlockBegin
2
*D9
70
1
10
0
20
0
30
0
3
*D9
0
LINE
5
155
100
AcDbEntity
8
0
62
256
6
ByLayer
370
-2
48
1
60
0
100
AcDbLine
10
17.5348
20
2.9325
30
0
11
17.5348
21
13.455153
31
0
39
0
210
0
220
0
230
1
0
LINE
5
156
100
AcDbEntity
8
0
62
256
6
ByLayer
370
-2
48
1
60
0
100
AcDbLine
10
0
20
1.5875
30
0
11
0
21
13.455153
31
0
39
0
210
0
220
0
230
1
0
LINE
5
157
100
AcDbEntity
8
0
62
256
6
ByLayer
370
-2
48
1
60
0
100
AcDbLine
10
14.0348
20
11.455153
30
0
11
3.5
21
11.455153
31
0
39
0
210
0
220
0
230
1
0
SOLID
5
158
100
AcDbEntity
8
0
62
256
6
ByLayer
370
-1
48
1
60
0
100
AcDbTrace
10
14.0348
20
10.87182
30
0
11
14.0348
21
12.038486
31
0
12
17.5348
22
11.455153
32
0
13
17.5348
23
11.455153
33
0
39
0
210
0
220
0
230
1
0
SOLID
5
159
100
AcDbEntity
8
0
62
256
6
ByLayer
370
-1
48
1
60
0
100
AcDbTrace
10
3.5
20
12.038486
30
0
11
3.5
21
10.87182
31
0
12
0
22
11.455153
32
0
13
0
23
11.455153
33
0
39
0
210
0
220
0
230
1
0
MTEXT
5
15A
100
AcDbEntity
8
0
62
256
6
ByLayer
370
18
48
1
60
0
100
AcDbMText
10
8.7674
20
17.455153
30
0
210
0
220
0
230
1
1
\A1;17.53
40
3
41
0
44
1
50
0
71
5
72
5
7
iso_b_vert
0
POINT
5
15B
100
AcDbEntity
8
Defpoints
62
0
6
ByLayer
370
-1
48
1
60
0
100
AcDbPoint
10
17.5348
20
1.345
30
0
39
0
210
0
220
0
230
1
50
360
0
POINT
5
15C
100
AcDbEntity
8
Defpoints
62
0
6
ByLayer
370
-1
48
1
60
0
100
AcDbPoint
10
0
20
0
30
0
39
0
210
0
220
0
230
1
50
360
0
POINT
5
15D
100
AcDbEntity
8
Defpoints
62
0
6
ByLayer
370
-1
48
1
60
0
100
AcDbPoint
10
0
20
11.455153
30
0
39
0
210
0
220
0
230
1
50
360
0
ENDBLK
5
154
100
AcDbEntity
8
0
100
AcDbBlockEnd
0
BLOCK
5
165
100
AcDbEntity
8
0
100
AcDbBlockBegin
2
_U4
70
0
10
0
20
0
30
0
3
_U4
0
MTEXT
5
15F
100
AcDbEntity
8
2
62
256
6
ByLayer
370
18
48
1
60
0
100
AcDbMText
10
4.659972
20
12.340267
30
0
210
0
220
0
230
1
1
\W0.6864;17.53
40
3
41
0
44
1.084337
50
0
71
7
72
5
7
iso_b_vert
0
LINE
5
160
100
AcDbEntity
8
2
62
256
6
ByLayer
370
13
48
1
60
0
100
AcDbLine
10
17.5348
20
2.9325
30
0
11
17.5348
21
13.455153
31
0
39
0
210
0
220
0
230
1
0
LINE
5
161
100
AcDbEntity
8
2
62
256
6
ByLayer
370
13
48
1
60
0
100
AcDbLine
10
0
20
1.5875
30
0
11
0
21
13.455153
31
0
39
0
210
0
220
0
230
1
0
LINE
5
162
100
AcDbEntity
8
2
62
256
6
ByLayer
370
13
48
1
60
0
100
AcDbLine
10
17.5348
20
11.455153
30
0
11
0
21
11.455153
31
0
39
0
210
0
220
0
230
1
0
SOLID
5
163
100
AcDbEntity
8
2
62
256
6
ByLayer
370
18
48
1
60
0
100
AcDbTrace
10
17.5348
20
11.455153
30
0
11
14.034802
21
10.994369
31
0
12
14.034798
22
11.915937
32
0
13
14.034798
23
11.915937
33
0
39
0
210
0
220
0
230
1
0
SOLID
5
164
100
AcDbEntity
8
2
62
256
6
ByLayer
370
18
48
1
60
0
100
AcDbTrace
10
0
20
11.455153
30
0
11
3.499998
21
11.915937
31
0
12
3.500002
22
10.994369
32
0
13
3.500002
23
10.994369
33
0
39
0
210
0
220
0
230
1
0
ENDBLK
5
166
100
AcDbEntity
8
0
100
AcDbBlockEnd
0
ENDSEC
0
SECTION
2
ENTITIES
0
ARC
5
B5
100
AcDbEntity
8
1
62
256
6
ByLayer
370
18
48
1
60
0
100
AcDbCircle
39
0
10
0.533193
20
-2.345
30
0
40
0.999999999999999
210
0
220
0
230
1
100
AcDbArc
50
90
51
122.221464
0
ARC
5
B6
100
AcDbEntity
8
1
62
256
6
ByLayer
370
18
48
1
60
0
100
AcDbCircle
39
0
10
0.533193
20
2.345
30
0
40
0.999999999999999
210
0
220
0
230
1
100
AcDbArc
50
237.778536
51
270
0
ARC
5
B7
100
AcDbEntity
8
SK1
62
256
6
ByLayer
370
18
48
1
60
0
100
AcDbCircle
39
0
10
0.533193
20
-2.345
30
0
40
0.999999999999999
210
0
220
0
230
1
100
AcDbArc
50
122.221464
51
122.328064
0
ARC
5
B8
100
AcDbEntity
8
SK1
62
256
6
ByLayer
370
18
48
1
60
0
100
AcDbCircle
39
0
10
0.533193
20
2.345
30
0
40
0.999999999999999
210
0
220
0
230
1
100
AcDbArc
50
237.671936
51
237.778536
0
ARC
5
B9
100
AcDbEntity
8
SK2
62
256
6
ByLayer
370
13
48
1
60
0
100
AcDbCircle
39
0
10
17.5348
20
0
30
0
40
16.35
210
0
220
0
230
1
100
AcDbArc
50
10.57289
51
65
0
ARC
5
BA
100
AcDbEntity
8
SK2
62
256
6
ByLayer
370
13
48
1
60
0
100
AcDbCircle
39
0
10
17.5348
20
0
30
0
40
16.35
210
0
220
0
230
1
100
AcDbArc
50
295
51
349.42711
0
ELLIPSE
5
BB
100
AcDbEntity
8
1
62
256
6
ByLayer
370
18
48
1
60
0
100
AcDbEllipse
10
5.034206
20
-0.002283
30
0
11
-2.03839640331297
21
1.17686913585653
31
0
210
0
220
0
230
1
40
0.000735
41
-1.57037205475866
42
-0.771684634662033
0
POINT
5
70
100
AcDbEntity
8
80
62
256
6
ByLayer
370
18
48
1
60
0
100
AcDbPoint
10
0
20
0
30
0
39
0
210
0
220
0
230
1
50
360
0
POINT
5
72
100
AcDbEntity
8
81
62
256
6
ByLayer
370
18
48
1
60
0
100
AcDbPoint
10
17.5348
20
0
30
0
39
0
210
0
220
0
230
1
50
360
0
POINT
5
74
100
AcDbEntity
8
1
62
256
6
ByLayer
370
18
48
1
60
1
100
AcDbPoint
10
-20.4652
20
1.5
30
0
39
0
210
0
220
0
230
1
50
360
0
POINT
5
76
100
AcDbEntity
8
1
62
256
6
ByLayer
370
18
48
1
60
1
100
AcDbPoint
10
17.5348
20
1.345
30
0
39
0
210
0
220
0
230
1
50
360
0
POINT
5
77
100
AcDbEntity
8
1
62
256
6
ByLayer
370
18
48
1
60
1
100
AcDbPoint
10
17.5348
20
1.345
30
0
39
0
210
0
220
0
230
1
50
360
0
POINT
5
78
100
AcDbEntity
8
1
62
256
6
ByLayer
370
18
48
1
60
1
100
AcDbPoint
10
7.5698
20
0
30
0
39
0
210
0
220
0
230
1
50
360
0
POINT
5
79
100
AcDbEntity
8
1
62
256
6
ByLayer
370
18
48
1
60
1
100
AcDbPoint
10
17.5348
20
1.345
30
0
39
0
210
0
220
0
230
1
50
360
0
POINT
5
7A
100
AcDbEntity
8
1
62
256
6
ByLayer
370
18
48
1
60
1
100
AcDbPoint
10
3.5348
20
0
30
0
39
0
210
0
220
0
230
1
50
360
0
POINT
5
7B
100
AcDbEntity
8
1
62
256
6
ByLayer
370
18
48
1
60
1
100
AcDbPoint
10
-20.4652
20
0
30
0
39
0
210
0
220
0
230
1
50
360
0
POINT
5
7C
100
AcDbEntity
8
1
62
256
6
ByLayer
370
18
48
1
60
1
100
AcDbPoint
10
0
20
0
30
0
39
0
210
0
220
0
230
1
50
360
0
POINT
5
7D
100
AcDbEntity
8
1
62
256
6
ByLayer
370
18
48
1
60
1
100
AcDbPoint
10
17.5348
20
1.345
30
0
39
0
210
0
220
0
230
1
50
360
0
POINT
5
7E
100
AcDbEntity
8
1
62
256
6
ByLayer
370
18
48
1
60
1
100
AcDbPoint
10
0
20
0
30
0
39
0
210
0
220
0
230
1
50
360
0
SPLINE
5
BC
100
AcDbEntity
8
1
62
256
6
ByLayer
370
18
48
1
60
0
100
AcDbSpline
70
4
71
3
72
29
73
25
40
0
40
0
40
0
40
0
40
0.0625000000000002
40
0.125
40
0.125
40
0.187500000000001
40
0.187500000000001
40
0.250000000000001
40
0.250000000000001
40
0.375
40
0.375
40
0.5
40
0.5
40
0.625
40
0.625
40
0.75
40
0.75
40
0.8125
40
0.8125
40
0.875
40
0.875
40
0.9375
40
0.9375
40
1
40
1
40
1
40
1
41
1
10
16.9076161997815
20
0.681963100346536
30
0
41
1
10
16.9181446940654
20
0.667127223756864
30
0
41
1
10
16.9392092272888
20
0.640234453660355
30
0
41
1
10
16.9603025149006
20
0.616713116705398
30
0
41
1
10
16.9814038087906
20
0.593956973386412
30
0
41
1
10
16.9919581050828
20
0.582951854920395
30
0
41
1
10
17.0130670711082
20
0.561003405599024
30
0
41
1
10
17.0236223792607
20
0.550120818598771
30
0
41
1
10
17.0552930453465
20
0.518117493919846
30
0
41
1
10
17.0763953544341
20
0.497693478843274
30
0
41
1
10
17.1182301657805
20
0.460327109183879
30
0
41
1
10
17.1389967715386
20
0.443275801262189
30
0
41
1
10
17.1801585229159
20
0.411864271635011
30
0
41
1
10
17.2005605835595
20
0.397481130201157
30
0
41
1
10
17.2407395497798
20
0.371330081178542
30
0
41
1
10
17.2605249155508
20
0.359607350091551
30
0
41
1
10
17.2892267358187
20
0.344159061158877
30
0
41
1
10
17.2986278421588
20
0.33936170487425
30
0
41
1
10
17.3169268124589
20
0.330472045867623
30
0
41
1
10
17.3258285935845
20
0.326379587528265
30
0
41
1
10
17.3427474719582
20
0.318947752265018
30
0
41
1
10
17.3507801479917
20
0.315601780999884
30
0
41
1
10
17.3655408701588
20
0.309647943331385
30
0
41
1
10
17.3722706435649
20
0.307040117776921
30
0
41
1
10
17.3780041051998
20
0.304800800894157
30
0
0
SPLINE
5
BD
100
AcDbEntity
8
1
62
256
6
ByLayer
370
18
48
1
60
0
100
AcDbSpline
70
4
71
3
72
32
73
28
40
0
40
0
40
0
40
0
40
0.10131199687493
40
0.10131199687493
40
0.20262399374986
40
0.20262399374986
40
0.30393599062479
40
0.30393599062479
40
0.354591989062254
40
0.354591989062254
40
0.405247987499718
40
0.405247987499718
40
0.506559984374644
40
0.506559984374644
40
0.557215982812107
40
0.557215982812107
40
0.607871981249571
40
0.607871981249571
40
0.709183978124499
40
0.709183978124499
40
0.759839976561964
40
0.759839976561964
40
0.810495974999429
40
0.810495974999429
40
0.911807971874359
40
0.911807971874359
40
1
40
1
40
1
40
1
41
1
10
5.03420599999998
20
-0.819391964916264
30
0
41
1
10
5.15820986257458
20
-0.876274316139359
30
0
41
1
10
5.28200437789539
20
-0.929409189073539
30
0
41
1
10
5.52978573822068
20
-1.02748374816432
30
0
41
1
10
5.65394295111949
20
-1.07247785488133
30
0
41
1
10
5.90133530445567
20
-1.15286422012571
30
0
41
1
10
6.02488961446602
20
-1.18819782515146
30
0
41
1
10
6.21050229527702
20
-1.23353739844421
30
0
41
1
10
6.27241779267535
20
-1.24737469202597
30
0
41
1
10
6.39641387494029
20
-1.27242587250512
30
0
41
1
10
6.45842381584023
20
-1.28362502565435
30
0
41
1
10
6.64404692293385
20
-1.31306021462331
30
0
41
1
10
6.76762317746667
20
-1.32712094560657
30
0
41
1
10
6.95319661402445
20
-1.33977949217643
30
0
41
1
10
7.01508775548015
20
-1.34259249695938
30
0
41
1
10
7.139018101592
20
-1.34537355163394
30
0
41
1
10
7.20106284547566
20
-1.34533739995288
30
0
41
1
10
7.38675017005943
20
-1.34093756375046
30
0
41
1
10
7.51032638354107
20
-1.33231047198618
30
0
41
1
10
7.69585731815613
20
-1.31101810170932
30
0
41
1
10
7.75772623974481
20
-1.3025267623195
30
0
41
1
10
7.88159477771686
20
-1.28277163097545
30
0
41
1
10
7.94367787881023
20
-1.27148140024298
30
0
41
1
10
8.12918844560375
20
-1.23371744319201
30
0
41
1
10
8.25219694905422
20
-1.20340220729656
30
0
41
1
10
8.48166742407889
20
-1.13784083131193
30
0
41
1
10
8.58819577225853
20
-1.10373055601292
30
0
41
1
10
8.69465871647435
20
-1.06622186567719
30
0
0
SPLINE
5
BE
100
AcDbEntity
8
1
62
256
6
ByLayer
370
18
48
1
60
0
100
AcDbSpline
70
4
71
3
72
42
73
38
40
0
40
0
40
0
40
0
40
0.0796840898484629
40
0.0796840898484629
40
0.156377082361085
40
0.156377082361085
40
0.233070074873707
40
0.233070074873707
40
0.386456059898952
40
0.386456059898952
40
0.463149052411574
40
0.463149052411574
40
0.539842044924196
40
0.539842044924196
40
0.693228029949441
40
0.693228029949441
40
0.769921022462063
40
0.769921022462063
40
0.846614014974685
40
0.846614014974685
40
0.884960511230999
40
0.884960511230999
40
0.904133759359157
40
0.904133759359157
40
0.913720383423238
40
0.913720383423238
40
0.92330700748732
40
0.92330700748732
40
0.942480255615491
40
0.942480255615491
40
0.952066879679575
40
0.952066879679575
40
0.96165350374366
40
0.96165350374366
40
0.98082675187183
40
0.98082675187183
40
1
40
1
40
1
40
1
41
1
10
14.4854606475507
20
1.34500111320295
30
0
41
1
10
14.5496985287853
20
1.34501380729836
30
0
41
1
10
14.6139073931809
20
1.34349226233917
30
0
41
1
10
14.7399463489191
20
1.33749041960982
30
0
41
1
10
14.8018043540272
20
1.33312536793639
30
0
41
1
10
14.9257287231248
20
1.3215743070653
30
0
41
1
10
14.987804400751
20
1.31437975285141
30
0
41
1
10
15.1736175387598
20
1.28869618820352
30
0
41
1
10
15.2972021336786
20
1.26609043934207
30
0
41
1
10
15.4826199175651
20
1.2242107815506
30
0
41
1
10
15.5444670374054
20
1.20894421869639
30
0
41
1
10
15.6683408023921
20
1.17586930041196
30
0
41
1
10
15.7304192828325
20
1.15804063813391
30
0
41
1
10
15.9163911839303
20
1.10100445989792
30
0
41
1
10
16.040134526138
20
1.0582183247628
30
0
41
1
10
16.2258833837279
20
0.987374073175943
30
0
41
1
10
16.28790087646
20
0.96266102078539
30
0
41
1
10
16.4119015658437
20
0.911314499870031
30
0
41
1
10
16.4738178766646
20
0.884651989159806
30
0
41
1
10
16.5667318318982
20
0.843400253161121
30
0
41
1
10
16.5977619988771
20
0.829513411406026
30
0
41
1
10
16.6441024247082
20
0.808072339980413
30
0
41
1
10
16.6594831950207
20
0.800778099303528
30
0
41
1
10
16.6825724097263
20
0.789776527540653
30
0
41
1
10
16.6902819212973
20
0.786113511843269
30
0
41
1
10
16.7057947176261
20
0.778893047313716
30
0
41
1
10
16.7136092670355
20
0.775351758847137
30
0
41
1
10
16.7371543524251
20
0.764835188978992
30
0
41
1
10
16.7529671597914
20
0.757941780642938
30
0
41
1
10
16.7763619112828
20
0.747056889816605
30
0
41
1
10
16.7841062492464
20
0.743337596163542
30
0
41
1
10
16.7994164239085
20
0.735609686123098
30
0
41
1
10
16.8069663415357
20
0.731577593920576
30
0
41
1
10
16.8294169119414
20
0.719138155168793
30
0
41
1
10
16.8441675343255
20
0.710454886745509
30
0
41
1
10
16.8746344045965
20
0.69439706246294
30
0
41
1
10
16.8903095333811
20
0.686960328293679
30
0
41
1
10
16.9076161997815
20
0.681963100346536
30
0
0
SPLINE
5
BF
100
AcDbEntity
8
1
62
256
6
ByLayer
370
18
48
1
60
0
100
AcDbSpline
70
4
71
3
72
85
73
81
40
0
40
0
40
0
40
0
40
0.0056494622505824
40
0.0056494622505824
40
0.0112989245011648
40
0.0112989245011648
40
0.014123655626456
40
0.014123655626456
40
0.0169483867517472
40
0.0225978490023276
40
0.0225978490023276
40
0.0254225801276188
40
0.0254225801276188
40
0.02824731125291
40
0.02824731125291
40
0.0338967735034905
40
0.0338967735034905
40
0.0451956980046514
40
0.0451956980046514
40
0.0677935470069753
40
0.0677935470069753
40
0.0903913960092991
40
0.0903913960092991
40
0.135587094013949
40
0.135587094013949
40
0.158184943016273
40
0.158184943016273
40
0.180782792018598
40
0.180782792018598
40
0.225978490023246
40
0.225978490023246
40
0.24857633902557
40
0.24857633902557
40
0.271174188027894
40
0.271174188027894
40
0.316369886032543
40
0.316369886032543
40
0.338967735034868
40
0.338967735034868
40
0.361565584037193
40
0.361565584037193
40
0.406761282041844
40
0.406761282041844
40
0.42935913104417
40
0.42935913104417
40
0.451956980046496
40
0.451956980046496
40
0.497152678051147
40
0.497152678051147
40
0.519750527053473
40
0.519750527053473
40
0.542348376055799
40
0.542348376055799
40
0.587544074060449
40
0.587544074060449
40
0.610141923062773
40
0.610141923062773
40
0.632739772065098
40
0.632739772065098
40
0.677935470069748
40
0.677935470069748
40
0.700533319072073
40
0.700533319072073
40
0.723131168074397
40
0.723131168074397
40
0.813522564083698
40
0.813522564083698
40
0.836120413086022
40
0.836120413086022
40
0.858718262088347
40
0.858718262088347
40
0.903913960092995
40
0.903913960092995
40
0.926511809095319
40
0.926511809095319
40
0.949109658097643
40
0.949109658097643
40
0.994305356102293
40
0.994305356102293
40
1
40
1
40
1
40
1
41
1
10
16.9076161997815
20
-1.29649208197182
30
0
41
1
10
16.8903016031559
20
-1.29494885083057
30
0
41
1
10
16.8746265847231
20
-1.29260265087362
30
0
41
1
10
16.8441570599691
20
-1.28726939642837
30
0
41
1
10
16.8294044412436
20
-1.28426287608227
30
0
41
1
10
16.806944225265
20
-1.27976140224254
30
0
41
1
10
16.7993898661704
20
-1.2782707779856
30
0
41
1
10
16.7840682683377
20
-1.27536027926698
30
0
41
1
10
16.7608148401263
20
-1.27107411933153
30
0
41
1
10
16.7370662008027
20
-1.26689215555146
30
0
41
1
10
16.7134897147077
20
-1.26249645515614
30
0
41
1
10
16.7056645453664
20
-1.26099189559508
30
0
41
1
10
16.6901295063024
20
-1.25787074937537
30
0
41
1
10
16.6824082484819
20
-1.25626080235733
30
0
41
1
10
16.6592811294173
20
-1.25134166147313
30
0
41
1
10
16.6438686452959
20
-1.2479682054713
30
0
41
1
10
16.5974680913303
20
-1.23773393923338
30
0
41
1
10
16.566430282719
20
-1.23067980028975
30
0
41
1
10
16.4735805930229
20
-1.20844135427967
30
0
41
1
10
16.4118256431353
20
-1.19231501119606
30
0
41
1
10
16.2883873821571
20
-1.15764191365798
30
0
41
1
10
16.2267379571348
20
-1.13906836665248
30
0
41
1
10
16.0418343103387
20
-1.07978110245466
30
0
41
1
10
15.918507005496
20
-1.03562039585259
30
0
41
1
10
15.7329409985402
20
-0.962935928774044
30
0
41
1
10
15.6709238525752
20
-0.937601265364322
30
0
41
1
10
15.5469639423443
20
-0.884984327967885
30
0
41
1
10
15.4850906515862
20
-0.857729495567554
30
0
41
1
10
15.2996501709942
20
-0.773318190595575
30
0
41
1
10
15.1761218004947
20
-0.713711349595314
30
0
41
1
10
14.9904963701773
20
-0.620021127365305
30
0
41
1
10
14.9285576884968
20
-0.588069242208121
30
0
41
1
10
14.804531026553
20
-0.522866628056676
30
0
41
1
10
14.7426389740955
20
-0.489696501673166
30
0
41
1
10
14.5571521571132
20
-0.388766416553864
30
0
41
1
10
14.4336260762484
20
-0.319787029249937
30
0
41
1
10
14.2480490247418
20
-0.214609428307938
30
0
41
1
10
14.1861442090925
20
-0.179261446382441
30
0
41
1
10
14.0621644829594
20
-0.108117886050024
30
0
41
1
10
14.0001873674499
20
-0.0723610301079987
30
0
41
1
10
13.814617070956
20
0.0348844175072713
30
0
41
1
10
13.6910807765852
20
0.106277617313822
30
0
41
1
10
13.505545650861
20
0.21235346761938
30
0
41
1
10
13.4436653076627
20
0.247548464946163
30
0
41
1
10
13.3197554620714
20
0.317474260293409
30
0
41
1
10
13.2577268686362
20
0.352213951466638
30
0
41
1
10
13.0721055253487
20
0.455049816495603
30
0
41
1
10
12.9485636212311
20
0.521685852450616
30
0
41
1
10
12.7630747797622
20
0.618005807205776
30
0
41
1
10
12.7012172332802
20
0.649508554310472
30
0
41
1
10
12.5773704536132
20
0.711182029129304
30
0
41
1
10
12.5153282280264
20
0.741382396432812
30
0
41
1
10
12.3296213826018
20
0.829403625826757
30
0
41
1
10
12.2060519813969
20
0.884545514768121
30
0
41
1
10
12.0205747228984
20
0.961380420560658
30
0
41
1
10
11.9587302490868
20
0.986013818929251
30
0
41
1
10
11.8349258568968
20
1.03321938594303
30
0
41
1
10
11.7729083561469
20
1.05582547980902
30
0
41
1
10
11.5871079076703
20
1.12016080864282
30
0
41
1
10
11.463518310931
20
1.15827231201652
30
0
41
1
10
11.2780688838009
20
1.20792312146784
30
0
41
1
10
11.2162431423847
20
1.22322088544874
30
0
41
1
10
11.0924955759516
20
1.25124091261191
30
0
41
1
10
11.0305411153971
20
1.26397426619266
30
0
41
1
10
10.7207098970351
20
1.32088587746279
30
0
41
1
10
10.4740821866981
20
1.34433530123721
30
0
41
1
10
10.1641823030812
20
1.34514884649207
30
0
41
1
10
10.102246240596
20
1.34387763187144
30
0
41
1
10
9.97849684050598
20
1.33850879824118
30
0
41
1
10
9.91667007360104
20
1.33441062370079
30
0
41
1
10
9.73121414936313
20
1.31791636728957
30
0
41
1
10
9.60761898365251
20
1.30132223970827
30
0
41
1
10
9.42179810702928
20
1.26811085834157
30
0
41
1
10
9.35979306982466
20
1.25567627790767
30
0
41
1
10
9.23601398886095
20
1.228246223924
30
0
41
1
10
9.17417804630355
20
1.2132392190735
30
0
41
1
10
8.98871908462985
20
1.16444528146371
30
0
41
1
10
8.86515190864284
20
1.12688310641207
30
0
41
1
10
8.72572666457043
20
1.07919222903755
30
0
41
1
10
8.7101166107432
20
1.0737809017109
30
0
41
1
10
8.69450229835815
20
1.0682974943517
30
0
0
SPLINE
5
C0
100
AcDbEntity
8
1
62
256
6
ByLayer
370
18
48
1
60
0
100
AcDbSpline
70
4
71
3
72
22
73
18
40
0
40
0
40
0
40
0
40
0.0240931705228907
40
0.0240931705228907
40
0.186744308769074
40
0.186744308769074
40
0.349395447015257
40
0.349395447015257
40
0.512046585261441
40
0.512046585261441
40
0.674697723507624
40
0.674697723507624
40
0.756023292630716
40
0.756023292630716
40
0.837348861753807
40
0.837348861753807
40
1
40
1
40
1
40
1
41
1
10
17.2890062701214
20
-0.52710445269247
30
0
41
1
10
17.2862245512325
20
-0.533044601546067
30
0
41
1
10
17.2834244932729
20
-0.538989311828203
30
0
41
1
10
17.2616015127717
20
-0.585107088577104
30
0
41
1
10
17.241855916032
20
-0.625498227542181
30
0
41
1
10
17.2017035605926
20
-0.706720849800803
30
0
41
1
10
17.1812631256701
20
-0.747603173113816
30
0
41
1
10
17.139973616532
20
-0.830007994299251
30
0
41
1
10
17.1191239627573
20
-0.871518319493958
30
0
41
1
10
17.077213968955
20
-0.954962406668329
30
0
41
1
10
17.0561632594995
20
-0.996843711583551
30
0
41
1
10
17.0244685208424
20
-1.06027928693979
30
0
41
1
10
17.0138821645728
20
-1.08153209024573
30
0
41
1
10
16.9926618528568
20
-1.12435606731117
30
0
41
1
10
16.9820247131385
20
-1.14595449259994
30
0
41
1
10
16.9500912625651
20
-1.21090392229894
30
0
41
1
10
16.9287761547605
20
-1.25442113845401
30
0
41
1
10
16.9076161997812
20
-1.29649208197233
30
0
0
SPLINE
5
C1
100
AcDbEntity
8
1
62
256
6
ByLayer
370
18
48
1
60
0
100
AcDbSpline
70
4
71
3
72
29
73
25
40
0
40
0
40
0
40
0
40
0.0513874633090741
40
0.0513874633090741
40
0.102774926618148
40
0.102774926618148
40
0.128468658272685
40
0.128468658272685
40
0.154162389927222
40
0.205549853236279
40
0.205549853236279
40
0.231243584890816
40
0.231243584890816
40
0.256937316545353
40
0.256937316545353
40
0.308324779854427
40
0.308324779854427
40
0.411099706472575
40
0.411099706472575
40
0.616649559708872
40
0.616649559708872
40
0.822199412945168
40
0.822199412945168
40
1
40
1
40
1
40
1
41
1
10
16.9076161997815
20
1.29649208197182
30
0
41
1
10
16.8903016031559
20
1.29494885083057
30
0
41
1
10
16.8746265847232
20
1.29260265087365
30
0
41
1
10
16.8441570599692
20
1.2872693964284
30
0
41
1
10
16.8294044412437
20
1.28426287608227
30
0
41
1
10
16.806944225265
20
1.27976140224257
30
0
41
1
10
16.7993898661705
20
1.27827077798563
30
0
41
1
10
16.7840682683377
20
1.27536027926698
30
0
41
1
10
16.7608148401264
20
1.27107411933153
30
0
41
1
10
16.7370662008028
20
1.26689215555149
30
0
41
1
10
16.7134897147078
20
1.26249645515617
30
0
41
1
10
16.7056645453665
20
1.26099189559511
30
0
41
1
10
16.6901295063026
20
1.25787074937537
30
0
41
1
10
16.682408248482
20
1.25626080235736
30
0
41
1
10
16.6592811294174
20
1.25134166147316
30
0
41
1
10
16.643868645296
20
1.24796820547132
30
0
41
1
10
16.5974680913305
20
1.23773393923341
30
0
41
1
10
16.5664302827192
20
1.23067980028978
30
0
41
1
10
16.4735805930229
20
1.2084413542797
30
0
41
1
10
16.4118256431355
20
1.19231501119609
30
0
41
1
10
16.2883873821572
20
1.15764191365801
30
0
41
1
10
16.2267379571349
20
1.13906836665251
30
0
41
1
10
16.1117895341696
20
1.10221145420354
30
0
41
1
10
16.0584647721618
20
1.08424979620637
30
0
41
1
10
16.0051028161986
20
1.0654484988217
30
0
0
SPLINE
5
C2
100
AcDbEntity
8
1
62
256
6
ByLayer
370
18
48
1
60
0
100
AcDbSpline
70
4
71
3
72
44
73
40
40
0
40
0
40
0
40
0
40
0.0337818131418325
40
0.0337818131418325
40
0.0695676719143553
40
0.0695676719143553
40
0.141139389459402
40
0.141139389459402
40
0.176925248231927
40
0.176925248231927
40
0.212711107004451
40
0.212711107004451
40
0.284282824549499
40
0.284282824549499
40
0.320068683322023
40
0.320068683322023
40
0.355854542094548
40
0.355854542094548
40
0.427426259639595
40
0.427426259639595
40
0.463212118412118
40
0.463212118412118
40
0.498997977184642
40
0.498997977184642
40
0.570569694729689
40
0.570569694729689
40
0.606355553502213
40
0.606355553502213
40
0.642141412274737
40
0.642141412274737
40
0.713713129819787
40
0.713713129819787
40
0.749498988592313
40
0.749498988592313
40
0.785284847364839
40
0.785284847364839
40
0.856856564909892
40
0.856856564909892
40
1
40
1
40
1
40
1
41
1
10
10.2157498648888
20
-1.34499998585361
30
0
41
1
10
10.1572455265806
20
-1.34500203581945
30
0
41
1
10
10.0987811924869
20
-1.34372730171384
30
0
41
1
10
9.97849684050601
20
-1.33850879824118
30
0
41
1
10
9.9166700736011
20
-1.33441062370079
30
0
41
1
10
9.73121414936313
20
-1.31791636728957
30
0
41
1
10
9.60761898365257
20
-1.3013222397083
30
0
41
1
10
9.42179810702933
20
-1.26811085834157
30
0
41
1
10
9.35979306982472
20
-1.25567627790767
30
0
41
1
10
9.23601398886098
20
-1.22824622392403
30
0
41
1
10
9.17417804630361
20
-1.2132392190735
30
0
41
1
10
8.98871908462991
20
-1.16444528146374
30
0
41
1
10
8.8651519086429
20
-1.12688310641207
30
0
41
1
10
8.67941662991129
20
-1.06335172469539
30
0
41
1
10
8.61737371402356
20
-1.04099821803788
30
0
41
1
10
8.49353427168072
20
-0.994266436327251
30
0
41
1
10
8.43167807971969
20
-0.969863146479753
30
0
41
1
10
8.24618355209824
20
-0.893698332293724
30
0
41
1
10
8.12263636308151
20
-0.838962428508864
30
0
41
1
10
7.93697655351326
20
-0.751542630824446
30
0
41
1
10
7.87494135952701
20
-0.72151999114584
30
0
41
1
10
7.75105236493314
20
-0.66016117743365
30
0
41
1
10
7.68918125455536
20
-0.628804733774018
30
0
41
1
10
7.50366841443187
20
-0.53289974021024
30
0
41
1
10
7.38013881579218
20
-0.466498790576225
30
0
41
1
10
7.19456441960648
20
-0.36397697036611
30
0
41
1
10
7.13256866028749
20
-0.329332364157324
30
0
41
1
10
7.00861220632083
20
-0.259526857009632
30
0
41
1
10
6.94671618107287
20
-0.224379491110852
30
0
41
1
10
6.76115193132398
20
-0.118417469545307
30
0
41
1
10
6.63761659059514
20
-0.0470676019078837
30
0
41
1
10
6.45209587146994
20
0.0601923238042161
30
0
41
1
10
6.39016145315284
20
0.0959325171492651
30
0
41
1
10
6.26614589142491
20
0.167160826301227
30
0
41
1
10
6.20429655385425
20
0.202520437574947
30
0
41
1
10
6.01910835404445
20
0.307653543059473
30
0
41
1
10
5.89613954410893
20
0.376500328252035
30
0
41
1
10
5.52770950811291
20
0.577664019648381
30
0
41
1
10
5.28215505696767
20
0.703694772663738
30
0
41
1
10
5.03420599999998
20
0.817580682832613
30
0
0
SPLINE
5
C3
100
AcDbEntity
8
1
62
256
6
ByLayer
370
18
48
1
60
0
100
AcDbSpline
70
4
71
3
72
28
73
24
40
0
40
0
40
0
40
0
40
0.100496404931277
40
0.138182556780506
40
0.175868708629735
40
0.226116911095373
40
0.276365113561012
40
0.32661331602665
40
0.376861518492289
40
0.427109720957927
40
0.452233822190746
40
0.502482024656385
40
0.552730227122023
40
0.602978429587662
40
0.6532266320533
40
0.703474834518939
40
0.741160986368168
40
0.778847138217397
40
0.829095340683035
40
0.879343543148673
40
0.929591745614312
40
0.97983994807995
40
1
40
1
40
1
40
1
41
1
10
5.03420599999998
20
-0.0002853228866968
30
0
41
1
10
5.09931237535738
20
-0.0097005113888997
30
0
41
1
10
5.18883333413646
20
-0.0226265572486852
30
0
41
1
10
5.30276889706553
20
-0.0389825263709724
30
0
41
1
10
5.38415141194182
20
-0.0506193510166497
30
0
41
1
10
5.47367220258579
20
-0.0633490800473169
30
0
41
1
10
5.57133138145903
20
-0.0771295266918912
30
0
41
0.999999999999999
10
5.66899079974769
20
-0.0907821554921498
30
0
41
1
10
5.76665056022372
20
-0.104293260491175
30
0
41
1
10
5.84803407275365
20
-0.115407341641003
30
0
41
1
10
5.92941790342814
20
-0.126373874349923
30
0
41
1
10
6.01080222651586
20
-0.137195337673916
30
0
41
1
10
6.108463402299
20
-0.149934694844091
30
0
41
1
10
6.2061245804847
20
-0.162408081100324
30
0
41
1
10
6.3037857580436
20
-0.174599039080164
30
0
41
1
10
6.39330850433271
20
-0.18549979316532
30
0
41
1
10
6.47469281907266
20
-0.195178619398632
30
0
41
1
10
6.55607713383466
20
-0.204654936911339
30
0
41
1
10
6.64559988006732
20
-0.214777814849612
30
0
41
1
10
6.74326105777689
20
-0.225433042877256
30
0
41
1
10
6.8409222354862
20
-0.235686939180169
30
0
41
1
10
6.91909054862078
20
-0.243562219439639
30
0
41
1
10
6.96470513585211
20
-0.248017784339169
30
0
41
1
10
6.97776599718034
20
-0.249281902400725
30
0
0
SPLINE
5
C4
100
AcDbEntity
8
1
62
256
6
ByLayer
370
18
48
1
60
0
100
AcDbSpline
70
4
71
3
72
26
73
22
40
0
40
0
40
0
40
0
40
0.0625000000000009
40
0.0625000000000009
40
0.125000000000002
40
0.125000000000002
40
0.250000000000004
40
0.250000000000004
40
0.375000000000005
40
0.375000000000005
40
0.500000000000007
40
0.500000000000007
40
0.625000000000009
40
0.625000000000009
40
0.750000000000011
40
0.750000000000011
40
0.812500000000008
40
0.812500000000008
40
0.875000000000006
40
0.875000000000006
40
1
40
1
40
1
40
1
41
1
10
17.3780041051998
20
0.304800800894157
30
0
41
1
10
17.3722817932358
20
0.324986284022515
30
0
41
1
10
17.3655863389557
20
0.34503823078515
30
0
41
1
10
17.3509427685719
20
0.385039191281152
30
0
41
1
10
17.3429921908655
20
0.404987912267558
30
0
41
1
10
17.3179185739852
20
0.464843490186098
30
0
41
1
10
17.299616407489
20
0.504771479625617
30
0
41
1
10
17.2616015127717
20
0.585107088577047
30
0
41
1
10
17.2418559160321
20
0.625498227542124
30
0
41
1
10
17.2017035605927
20
0.706720849800689
30
0
41
1
10
17.1812631256702
20
0.747603173113703
30
0
41
1
10
17.1399736165321
20
0.830007994299109
30
0
41
1
10
17.1191239627574
20
0.871518319493816
30
0
41
1
10
17.077213968955
20
0.954962406668159
30
0
41
1
10
17.0561632594996
20
0.996843711583381
30
0
41
1
10
17.0244685208425
20
1.06027928693959
30
0
41
1
10
17.0138821645728
20
1.08153209024553
30
0
41
1
10
16.9926618528569
20
1.12435606731097
30
0
41
1
10
16.9820247131386
20
1.14595449259974
30
0
41
1
10
16.9500912625652
20
1.21090392229871
30
0
41
1
10
16.9287761547606
20
1.25442113845375
30
0
41
1
10
16.9076161997814
20
1.29649208197208
30
0
0
SPLINE
5
C5
100
AcDbEntity
8
1
62
256
6
ByLayer
370
18
48
1
60
0
100
AcDbSpline
70
4
71
3
72
74
73
70
40
0
40
0
40
0
40
0
40
0.0107851233004185
40
0.0107851233004185
40
0.0527507941133568
40
0.0527507941133568
40
0.0737336295198263
40
0.0737336295198263
40
0.0947164649262959
40
0.0947164649262959
40
0.136682135739235
40
0.136682135739235
40
0.178647806552174
40
0.178647806552174
40
0.262579148178052
40
0.262579148178052
40
0.283561983584521
40
0.283561983584521
40
0.30454481899099
40
0.30454481899099
40
0.346510489803928
40
0.346510489803928
40
0.367493325210397
40
0.367493325210397
40
0.388476160616866
40
0.388476160616866
40
0.430441831429806
40
0.430441831429806
40
0.451424666836274
40
0.451424666836274
40
0.472407502242742
40
0.472407502242742
40
0.51437317305568
40
0.51437317305568
40
0.53535600846215
40
0.53535600846215
40
0.55633884386862
40
0.55633884386862
40
0.598304514681559
40
0.598304514681559
40
0.619287350088029
40
0.619287350088029
40
0.640270185494499
40
0.640270185494499
40
0.68223585630744
40
0.68223585630744
40
0.703218691713912
40
0.703218691713912
40
0.724201527120383
40
0.724201527120383
40
0.766167197933328
40
0.766167197933328
40
0.7871500333398
40
0.7871500333398
40
0.808132868746273
40
0.808132868746273
40
0.85009853955922
40
0.85009853955922
40
0.871081374965692
40
0.871081374965692
40
0.892064210372164
40
0.892064210372164
40
0.934029881185109
40
0.934029881185109
40
0.955012716591582
40
0.955012716591582
40
0.975995551998056
40
0.975995551998056
40
1
40
1
40
1
40
1
41
1
10
7.16742877887032
20
1.34499905147661
30
0
41
1
10
7.19929072631717
20
1.34500053940732
30
0
41
1
10
7.23114435163953
20
1.34462462270682
30
0
41
1
10
7.3867501700594
20
1.34093756375046
30
0
41
1
10
7.51032638354104
20
1.33231047198618
30
0
41
1
10
7.6958573181561
20
1.31101810170932
30
0
41
1
10
7.75772623974478
20
1.3025267623195
30
0
41
1
10
7.88159477771686
20
1.28277163097545
30
0
41
1
10
7.94367787881021
20
1.27148140024298
30
0
41
1
10
8.12918844560372
20
1.23371744319201
30
0
41
1
10
8.25219694905417
20
1.20340220729656
30
0
41
1
10
8.49755439777874
20
1.13330180791087
30
0
41
1
10
8.6198855195901
20
1.09350200987325
30
0
41
1
10
8.98673656516954
20
0.960766521830209
30
0
41
1
10
9.23170968784078
20
0.855216401272855
30
0
41
1
10
9.54152694802892
20
0.705150577676847
30
0
41
1
10
9.60350876089819
20
0.674371766752586
30
0
41
1
10
9.72728397338716
20
0.611613584982535
30
0
41
1
10
9.78912508686184
20
0.579602928057369
30
0
41
1
10
9.9746227684216
20
0.481863028655567
30
0
41
1
10
10.0982484450868
20
0.414419587958179
30
0
41
1
10
10.284097968988
20
0.310558004394693
30
0
41
1
10
10.346137789847
20
0.275547644757893
30
0
41
1
10
10.4699768721464
20
0.205228608971623
30
0
41
1
10
10.5318373166726
20
0.169869439051752
30
0
41
1
10
10.7173607769679
20
0.0634009009097554
30
0
41
1
10
10.8409537016628
20
-0.008120393880148
30
0
41
1
10
11.0267055687747
20
-0.115357793737672
30
0
41
1
10
11.0887584092179
20
-0.151077742964901
30
0
41
1
10
11.2126388467576
20
-0.221906362053744
30
0
41
1
10
11.2745128267522
20
-0.257059625836149
30
0
41
1
10
11.4600531509567
20
-0.361542743287515
30
0
41
1
10
11.5836329217612
20
-0.429905668762046
30
0
41
1
10
11.7693061725231
20
-0.529700749899831
30
0
41
1
10
11.8313461400329
20
-0.562493379058623
30
0
41
1
10
11.9552967996234
20
-0.626657941893058
30
0
41
1
10
12.0171963991392
20
-0.658048781067293
30
0
41
1
10
12.202784687904
20
-0.74998576122573
30
0
41
1
10
12.3263579768393
20
-0.80830666966898
30
0
41
1
10
12.5119579898546
20
-0.890626050359344
30
0
41
1
10
12.5739469717501
20
-0.91717843287978
30
0
41
1
10
12.6979532372424
20
-0.968239541455404
30
0
41
1
10
12.7598722233029
20
-0.992716049063745
30
0
41
1
10
12.9454918023607
20
-1.06287449215654
30
0
41
1
10
13.0690506393109
20
-1.10529404423843
30
0
41
1
10
13.2545850042763
20
-1.16185709825675
30
0
41
1
10
13.3164968999091
20
-1.17950063681263
30
0
41
1
10
13.4405560445128
20
-1.21227226785427
30
0
41
1
10
13.5025152791845
20
-1.22735622658288
30
0
41
1
10
13.6882006281269
20
-1.26862711693252
30
0
41
1
10
13.8117669090726
20
-1.29085607921385
30
0
41
1
10
13.9972718523615
20
-1.31597130208004
30
0
41
1
10
14.0591584369668
20
-1.32295936604541
30
0
41
1
10
14.1831517661945
20
-1.33412078268734
30
0
41
1
10
14.2451893343944
20
-1.33828861720031
30
0
41
1
10
14.4309353204025
20
-1.34651374635186
30
0
41
1
10
14.5545041240844
20
-1.34632098363915
30
0
41
1
10
14.739946348919
20
-1.33749041960985
30
0
41
1
10
14.8018043540271
20
-1.33312536793639
30
0
41
1
10
14.9257287231247
20
-1.3215743070653
30
0
41
1
10
14.9878044007509
20
-1.31437975285144
30
0
41
1
10
15.1736175387597
20
-1.28869618820352
30
0
41
1
10
15.2972021336785
20
-1.26609043934207
30
0
41
1
10
15.482619917565
20
-1.22421078155062
30
0
41
1
10
15.5444670374053
20
-1.20894421869642
30
0
41
1
10
15.668340802392
20
-1.17586930041199
30
0
41
1
10
15.7304192828324
20
-1.15804063813394
30
0
41
1
10
15.8633274505262
20
-1.11727870637512
30
0
41
1
10
15.9341671386585
20
-1.09397076754061
30
0
41
1
10
16.0049902083312
20
-1.06916439802717
30
0
0
SPLINE
5
C6
100
AcDbEntity
8
1
62
256
6
ByLayer
370
18
48
1
60
0
100
AcDbSpline
70
4
71
3
72
51
73
47
40
0
40
0
40
0
40
0
40
0.0080817724903856
40
0.0268068575400005
40
0.0517736376061535
40
0.0767404176723066
40
0.10170719773846
40
0.126673977804613
40
0.151640757870766
40
0.164124147903842
40
0.189090927969995
40
0.214057708036148
40
0.239024488102302
40
0.263991268168454
40
0.288958048234608
40
0.301441438267684
40
0.326408218333837
40
0.35137499839999
40
0.376341778466143
40
0.401308558532296
40
0.426275338598449
40
0.445000423648064
40
0.463725508697679
40
0.488692288763832
40
0.513659068829985
40
0.538625848896138
40
0.563592628962291
40
0.588559409028444
40
0.601042799061521
40
0.626009579127674
40
0.650976359193827
40
0.67594313925998
40
0.700909919326133
40
0.725876699392286
40
0.738360089425363
40
0.763326869491516
40
0.788293649557669
40
0.813260429623822
40
0.838227209689975
40
0.863193989756128
40
0.881919074805743
40
0.900644159855358
40
0.92561093992151
40
0.950577719987664
40
0.975544500053817
40
1
40
1
40
1
40
1
41
1
10
10.3983517638991
20
0.24995420970518
30
0
41
1
10
10.4088894607266
20
0.248937166451157
30
0
41
1
10
10.4438425032667
20
0.245538684588212
30
0
41
1
10
10.5113493400903
20
0.238815937527306
30
0
41
1
10
10.6008722743707
20
0.229566375885753
30
0
41
1
10
10.6985336572191
20
0.219072765799496
30
0
41
1
10
10.7961950400764
20
0.208189784676193
30
0
41
1
10
10.8938564228981
20
0.196932327326323
30
0
41
1
10
10.9752409087372
20
0.187247403105204
30
0
41
1
10
11.0566253937901
20
0.17736039419151
30
0
41
1
10
11.1380098822004
20
0.16728745566806
30
0
41
1
10
11.2356712573554
20
0.154915536619456
30
0
41
1
10
11.3333326637493
20
0.142277405696745
30
0
41
1
10
11.4309939545414
20
0.129390540845065
30
0
41
1
10
11.5123781992239
20
0.118458688065346
30
0
41
1
10
11.5937623563931
20
0.107394204040673
30
0
41
1
10
11.6751464221167
20
0.096200528390142
30
0
41
1
10
11.7728071767626
20
0.082580630234844
30
0
41
1
10
11.870467825353
20
0.068838766058974
30
0
41
1
10
11.9681283866795
20
0.0549903763964323
30
0
41
0.999999999999999
10
12.057650505008
20
0.0422114272046202
30
0
41
1
10
12.1390342125514
20
0.0305431783921222
30
0
41
1
10
12.220417897659
20
0.0188391534806271
30
0
41
1
10
12.3099399337269
20
0.0059298917706485
30
0
41
1
10
12.4076003335155
20
-0.0081757774703419
30
0
41
1
10
12.5052607487953
20
-0.0222907805197394
30
0
41
1
10
12.6029211982557
20
-0.036343402117609
30
0
41
1
10
12.6843049501842
20
-0.0479921372304659
30
0
41
1
10
12.7656887468803
20
-0.0595809327965924
30
0
41
1
10
12.8470725939288
20
-0.0711043319360272
30
0
41
1
10
12.9447333106502
20
-0.0848098804772234
30
0
41
1
10
13.0423941436737
20
-0.0983703984300064
30
0
41
1
10
13.1400551210177
20
-0.111772094796777
30
0
41
1
10
13.2214393687685
20
-0.12279369023031
30
0
41
1
10
13.3028235768546
20
-0.133665296743061
30
0
41
1
10
13.3842077877186
20
-0.144381418065166
30
0
41
1
10
13.4818688320193
20
-0.156977972080796
30
0
41
1
10
13.5795298714086
20
-0.169293998397677
30
0
41
1
10
13.677190906966
20
-0.181313159937048
30
0
41
1
10
13.7667135209101
20
-0.192043665039563
30
0
41
1
10
13.8480977149212
20
-0.201557829768092
30
0
41
1
10
13.9294819092526
20
-0.210861173111596
30
0
41
1
10
14.019004524353
20
-0.220801788458004
30
0
41
1
10
14.1166655622185
20
-0.231241183589475
30
0
41
1
10
14.2136599570038
20
-0.241199461248669
30
0
41
1
10
14.2781006750296
20
-0.247536807799292
30
0
41
1
10
14.309987711353
20
-0.250602489329737
30
0
0
SPLINE
5
C7
100
AcDbEntity
8
1
62
256
6
ByLayer
370
18
48
1
60
0
100
AcDbSpline
70
4
71
3
72
48
73
44
40
0
40
0
40
0
40
0
40
0.125000000000004
40
0.125000000000004
40
0.187500000000005
40
0.187500000000005
40
0.250000000000005
40
0.250000000000005
40
0.312500000000005
40
0.312500000000005
40
0.375000000000005
40
0.375000000000005
40
0.437500000000006
40
0.437500000000006
40
0.500000000000006
40
0.500000000000006
40
0.531250000000008
40
0.546875000000008
40
0.546875000000008
40
0.562500000000009
40
0.562500000000009
40
0.62500000000001
40
0.62500000000001
40
0.68750000000001
40
0.68750000000001
40
0.70312500000001
40
0.70312500000001
40
0.71875000000001
40
0.750000000000009
40
0.750000000000009
40
0.812500000000006
40
0.812500000000006
40
0.828125000000006
40
0.828125000000006
40
0.843750000000005
40
0.843750000000005
40
0.875000000000004
40
0.875000000000004
40
0.937500000000002
40
0.937500000000002
40
0.968750000000001
40
0.968750000000001
40
1
40
1
40
1
40
1
41
1
10
5.03420600000001
20
-0.819391964916264
30
0
41
1
10
4.93171713616098
20
-0.795714004800885
30
0
41
1
10
4.83129230647515
20
-0.76697119007676
30
0
41
1
10
4.68374827332573
20
-0.715107647740581
30
0
41
1
10
4.63510634543289
20
-0.696356568743823
30
0
41
1
10
4.53941685311466
20
-0.65589708497987
30
0
41
1
10
4.4923010160509
20
-0.634166491978988
30
0
41
1
10
4.39955358085123
20
-0.587434456898166
30
0
41
1
10
4.35379979203231
20
-0.562353801672856
30
0
41
1
10
4.26476201294318
20
-0.509150240080032
30
0
41
1
10
4.22140881487417
20
-0.48100497357575
30
0
41
1
10
4.13709696445233
20
-0.42141180431102
30
0
41
1
10
4.09613759092991
20
-0.389965215393175
30
0
41
1
10
4.01673303624085
20
-0.323462883586757
30
0
41
1
10
3.97828647709247
20
-0.288409601524847
30
0
41
1
10
3.922657386015
20
-0.232783296828899
30
0
41
1
10
3.89535422396665
20
-0.204206522309505
30
0
41
1
10
3.86886199232399
20
-0.174395338866077
30
0
41
1
10
3.85138692443175
20
-0.15423470581095
30
0
41
1
10
3.84273425626211
20
-0.144000329796484
30
0
41
1
10
3.80024081178965
20
-0.0924360206518315
30
0
41
1
10
3.76848579167495
20
-0.0496945680398539
30
0
41
1
10
3.70976244703383
20
0.0389739973415999
30
0
41
1
10
3.68278837655157
20
0.0848972816477271
30
0
41
1
10
3.65243821340815
20
0.144543280907897
30
0
41
1
10
3.64653819462256
20
0.156586981105875
30
0
41
1
10
3.63519527600869
20
0.180676389052707
30
0
41
1
10
3.61882332973161
20
0.216897240201689
30
0
41
1
10
3.60438348093197
20
0.253371288266152
30
0
41
1
10
3.57812968709439
20
0.326645096026681
30
0
41
1
10
3.56410911723128
20
0.375925548006364
30
0
41
1
10
3.55134484678112
20
0.438066381004148
30
0
41
1
10
3.54903157692249
20
0.450521800378454
30
0
41
1
10
3.54490123806582
20
0.475488226635264
30
0
41
1
10
3.54308559264271
20
0.488004567339345
30
0
41
1
10
3.53846191845776
20
0.525150956988909
30
0
41
1
10
3.53644648481017
20
0.549541107222069
30
0
41
1
10
3.53353235005707
20
0.621604816877067
30
0
41
1
10
3.53574650485811
20
0.668175535061067
30
0
41
1
10
3.54538330357156
20
0.735814347645032
30
0
41
1
10
3.54967648067509
20
0.758055368446804
30
0
41
1
10
3.56025604787266
20
0.801107329100205
30
0
41
1
10
3.56654637338207
20
0.821994311988476
30
0
41
1
10
3.57381513139146
20
0.842267561684821
30
0
0
SPLINE
5
C8
100
AcDbEntity
8
1
62
256
6
ByLayer
370
18
48
1
60
0
100
AcDbSpline
70
4
71
3
72
18
73
14
40
0
40
0
40
0
40
0
40
0.249999999999995
40
0.249999999999995
40
0.49999999999999
40
0.49999999999999
40
0.624999999999987
40
0.624999999999987
40
0.687499999999989
40
0.687499999999989
40
0.749999999999991
40
0.749999999999991
40
1
40
1
40
1
40
1
41
1
10
3.57381513139146
20
0.842267561684821
30
0
41
1
10
3.69424395392912
20
0.865382891702723
30
0
41
1
10
3.81527276454096
20
0.881500882288663
30
0
41
1
10
4.05849107616643
20
0.901658282810843
30
0
41
1
10
4.18068070269936
20
0.905692616098435
30
0
41
1
10
4.36484626802823
20
0.902855275448104
30
0
41
1
10
4.42638204482105
20
0.900415471884202
30
0
41
1
10
4.51891169414267
20
0.894418857550846
30
0
41
1
10
4.54977758929505
20
0.892029209637485
30
0
41
1
10
4.61122834920334
20
0.886482037272515
30
0
41
1
10
4.64185720309376
20
0.883321927273926
30
0
41
1
10
4.79452240100755
20
0.865557967231496
30
0
41
1
10
4.91512687530698
20
0.84512731190074
30
0
41
1
10
5.03420600003861
20
0.817580682823689
30
0
0
LINE
5
7F
100
AcDbEntity
8
1
62
256
6
ByLayer
370
18
48
1
60
0
100
AcDbLine
10
0
20
1.499007
30
0
11
0
21
-1.499007
31
0
39
0
210
0
220
0
230
1
0
LINE
5
80
100
AcDbEntity
8
1
62
256
6
ByLayer
370
18
48
1
60
0
100
AcDbLine
10
16.907616
20
0.681963
30
0
11
16.907616
21
-1.296492
31
0
39
0
210
0
220
0
230
1
0
LINE
5
81
100
AcDbEntity
8
1
62
256
6
ByLayer
370
18
48
1
60
0
100
AcDbLine
10
5.034206
20
-0.000285
30
0
11
5.034206
21
-0.819392
31
0
39
0
210
0
220
0
230
1
0
LINE
5
82
100
AcDbEntity
8
1
62
256
6
ByLayer
370
13
48
1
60
0
100
AcDbLine
10
0.533193
20
1.345
30
0
11
0.533193
21
-1.345
31
0
39
0
210
0
220
0
230
1
0
LINE
5
83
100
AcDbEntity
8
1
62
256
6
ByLayer
370
18
48
1
60
0
100
AcDbLine
10
5.034206
20
0.817581
30
0
11
5.034206
21
-0.000285
31
0
39
0
210
0
220
0
230
1
0
LINE
5
84
100
AcDbEntity
8
SK1
62
256
6
ByLayer
370
18
48
1
60
0
100
AcDbLine
10
-20.4652
20
1.326795
30
0
11
-20.4652
21
-1.326795
31
0
39
0
210
0
220
0
230
1
0
LINE
5
86
100
AcDbEntity
8
SK1
62
256
6
ByLayer
370
18
48
1
60
0
100
AcDbLine
10
0
20
1.499007
30
0
11
0
21
-1.499007
31
0
39
0
210
0
220
0
230
1
0
LINE
5
87
100
AcDbEntity
8
SK1
62
256
6
ByLayer
370
18
48
1
60
0
100
AcDbLine
10
-0.001573
20
1.5
30
0
11
-0.001573
21
-1.5
31
0
39
0
210
0
220
0
230
1
0
LINE
5
88
100
AcDbEntity
8
SK1
62
256
6
ByLayer
370
18
48
1
60
0
100
AcDbLine
10
-20.1652
20
1.5
30
0
11
-20.1652
21
-1.5
31
0
39
0
210
0
220
0
230
1
0
LINE
5
89
100
AcDbEntity
8
1
62
256
6
ByLayer
370
18
48
1
60
0
100
AcDbLine
10
17.5348
20
0
30
0
11
17.288347
21
0.528519
31
0
39
0
210
0
220
0
230
1
0
LINE
5
8A
100
AcDbEntity
8
1
62
256
6
ByLayer
370
18
48
1
60
0
100
AcDbLine
10
17.288347
20
-0.528519
30
0
11
17.5348
21
0
31
0
39
0
210
0
220
0
230
1
0
LINE
5
8B
100
AcDbEntity
8
1
62
256
6
ByLayer
370
18
48
1
60
0
100
AcDbLine
10
0.533193
20
-1.345
30
0
11
7.167473
21
-1.345
31
0
39
0
210
0
220
0
230
1
0
LINE
5
8C
100
AcDbEntity
8
1
62
256
6
ByLayer
370
18
48
1
60
0
100
AcDbLine
10
10.215592
20
-1.345
30
0
11
14.485713
21
-1.345
31
0
39
0
210
0
220
0
230
1
0
LINE
5
8D
100
AcDbEntity
8
1
62
256
6
ByLayer
370
18
48
1
60
0
100
AcDbLine
10
14.485713
20
1.345
30
0
11
10.215592
21
1.345
31
0
39
0
210
0
220
0
230
1
0
LINE
5
8E
100
AcDbEntity
8
1
62
256
6
ByLayer
370
18
48
1
60
0
100
AcDbLine
10
7.167473
20
1.345
30
0
11
0.533193
21
1.345
31
0
39
0
210
0
220
0
230
1
0
LINE
5
8F
100
AcDbEntity
8
SK1
62
256
6
ByLayer
370
18
48
1
60
0
100
AcDbLine
10
-20.4652
20
-1.326795
30
0
11
-20.1652
21
-1.5
31
0
39
0
210
0
220
0
230
1
0
LINE
5
90
100
AcDbEntity
8
SK1
62
256
6
ByLayer
370
18
48
1
60
0
100
AcDbLine
10
-20.1652
20
1.5
30
0
11
-20.4652
21
1.326795
31
0
39
0
210
0
220
0
230
1
0
LINE
5
91
100
AcDbEntity
8
SK1
62
256
6
ByLayer
370
18
48
1
60
0
100
AcDbLine
10
-20.1652
20
-1.5
30
0
11
-0.001573
21
-1.5
31
0
39
0
210
0
220
0
230
1
0
LINE
5
92
100
AcDbEntity
8
SK1
62
256
6
ByLayer
370
18
48
1
60
0
100
AcDbLine
10
-0.001573
20
1.5
30
0
11
-20.1652
21
1.5
31
0
39
0
210
0
220
0
230
1
0
LINE
5
93
100
AcDbEntity
8
4
62
256
6
ByLayer
370
18
48
0.05
60
0
100
AcDbLine
10
0
20
0
30
0
11
17.5348
21
0
31
0
39
0
210
0
220
0
230
1
0
LINE
5
95
100
AcDbEntity
8
81
62
256
6
ByLayer
370
18
48
1
60
0
100
AcDbLine
10
17.5348
20
0
30
0
11
20.5348
21
0
31
0
39
0
210
0
220
0
230
1
0
LINE
5
96
100
AcDbEntity
8
80
62
256
6
ByLayer
370
18
48
1
60
0
100
AcDbLine
10
0
20
0
30
0
11
-3
21
0
31
0
39
0
210
0
220
0
230
1
0
LINE
5
97
100
AcDbEntity
8
SK4
62
256
6
ByLayer
370
18
48
0.05
60
0
100
AcDbLine
10
-23.4652
20
0
30
0
11
20.5348
21
0
31
0
39
0
210
0
220
0
230
1
0
LINE
5
99
100
AcDbEntity
8
SK2
62
256
6
ByLayer
370
13
48
1
60
0
100
AcDbLine
10
-24.9652
20
-9
30
0
11
-24.9652
21
21.782741
31
0
39
0
210
0
220
0
230
1
0
LINE
5
9B
100
AcDbEntity
8
SK2
62
256
6
ByLayer
370
13
48
1
60
0
100
AcDbLine
10
-22.0527
20
-1.5
30
0
11
-26.9652
21
-1.5
31
0
39
0
210
0
220
0
230
1
0
LINE
5
9C
100
AcDbEntity
8
SK2
62
256
6
ByLayer
370
13
48
1
60
0
100
AcDbLine
10
-22.0527
20
1.5
30
0
11
-26.9652
21
1.5
31
0
39
0
210
0
220
0
230
1
0
LINE
5
9D
100
AcDbEntity
8
1
62
256
6
ByLayer
370
18
48
1
60
1
100
AcDbLine
10
-24.9652
20
-1.5
30
0
11
-24.504416
21
-4.999998
31
0
39
0
210
0
220
0
230
1
0
LINE
5
9E
100
AcDbEntity
8
1
62
256
6
ByLayer
370
18
48
1
60
1
100
AcDbLine
10
-24.504416
20
-4.999998
30
0
11
-25.425984
21
-5.000002
31
0
39
0
210
0
220
0
230
1
0
LINE
5
9F
100
AcDbEntity
8
1
62
256
6
ByLayer
370
18
48
1
60
1
100
AcDbLine
10
-25.425984
20
-5.000002
30
0
11
-24.9652
21
-1.5
31
0
39
0
210
0
220
0
230
1
0
LINE
5
A0
100
AcDbEntity
8
1
62
256
6
ByLayer
370
18
48
1
60
1
100
AcDbLine
10
-24.9652
20
1.5
30
0
11
-25.425984
21
4.999998
31
0
39
0
210
0
220
0
230
1
0
LINE
5
A1
100
AcDbEntity
8
1
62
256
6
ByLayer
370
18
48
1
60
1
100
AcDbLine
10
-25.425984
20
4.999998
30
0
11
-24.504416
21
5.000002
31
0
39
0
210
0
220
0
230
1
0
LINE
5
A2
100
AcDbEntity
8
1
62
256
6
ByLayer
370
18
48
1
60
1
100
AcDbLine
10
-24.504416
20
5.000002
30
0
11
-24.9652
21
1.5
31
0
39
0
210
0
220
0
230
1
0
LINE
5
A3
100
AcDbEntity
8
2
62
256
6
ByLayer
370
13
48
1
60
0
100
AcDbLine
10
23.0348
20
-8.845
30
0
11
23.0348
21
29.437741
31
0
39
0
210
0
220
0
230
1
0
LINE
5
A5
100
AcDbEntity
8
2
62
256
6
ByLayer
370
13
48
1
60
0
100
AcDbLine
10
19.1223
20
-1.345
30
0
11
25.0348
21
-1.345
31
0
39
0
210
0
220
0
230
1
0
LINE
5
A6
100
AcDbEntity
8
2
62
256
6
ByLayer
370
13
48
1
60
0
100
AcDbLine
10
19.1223
20
1.345
30
0
11
25.0348
21
1.345
31
0
39
0
210
0
220
0
230
1
0
LINE
5
A7
100
AcDbEntity
8
1
62
256
6
ByLayer
370
18
48
1
60
1
100
AcDbLine
10
23.0348
20
-1.345
30
0
11
23.495584
21
-4.844998
31
0
39
0
210
0
220
0
230
1
0
LINE
5
A8
100
AcDbEntity
8
1
62
256
6
ByLayer
370
18
48
1
60
1
100
AcDbLine
10
23.495584
20
-4.844998
30
0
11
22.574016
21
-4.845002
31
0
39
0
210
0
220
0
230
1
0
LINE
5
A9
100
AcDbEntity
8
1
62
256
6
ByLayer
370
18
48
1
60
1
100
AcDbLine
10
22.574016
20
-4.845002
30
0
11
23.0348
21
-1.345
31
0
39
0
210
0
220
0
230
1
0
LINE
5
AA
100
AcDbEntity
8
1
62
256
6
ByLayer
370
18
48
1
60
1
100
AcDbLine
10
23.0348
20
1.345
30
0
11
22.574016
21
4.844998
31
0
39
0
210
0
220
0
230
1
0
LINE
5
AB
100
AcDbEntity
8
1
62
256
6
ByLayer
370
18
48
1
60
1
100
AcDbLine
10
22.574016
20
4.844998
30
0
11
23.495584
21
4.845002
31
0
39
0
210
0
220
0
230
1
0
LINE
5
AC
100
AcDbEntity
8
1
62
256
6
ByLayer
370
18
48
1
60
1
100
AcDbLine
10
23.495584
20
4.845002
30
0
11
23.0348
21
1.345
31
0
39
0
210
0
220
0
230
1
0
LINE
5
AD
100
AcDbEntity
8
SK2
62
256
6
ByLayer
370
13
48
1
60
0
100
AcDbLine
10
18.205706
20
-1.438764
30
0
11
25.289845
21
-16.630748
31
0
39
0
210
0
220
0
230
1
0
LINE
5
AE
100
AcDbEntity
8
SK2
62
256
6
ByLayer
370
13
48
1
60
0
100
AcDbLine
10
18.205706
20
1.438764
30
0
11
25.289845
21
16.630748
31
0
39
0
210
0
220
0
230
1
0
LINE
5
AF
100
AcDbEntity
8
1
62
256
6
ByLayer
370
18
48
1
60
1
100
AcDbLine
10
24.444609
20
-14.818132
30
0
11
27.316642
21
-12.765394
31
0
39
0
210
0
220
0
230
1
0
LINE
5
B0
100
AcDbEntity
8
1
62
256
6
ByLayer
370
18
48
1
60
1
100
AcDbLine
10
27.316642
20
-12.765394
30
0
11
27.750071
21
-13.578675
31
0
39
0
210
0
220
0
230
1
0
LINE
5
B1
100
AcDbEntity
8
1
62
256
6
ByLayer
370
18
48
1
60
1
100
AcDbLine
10
27.750071
20
-13.578675
30
0
11
24.444609
21
-14.818132
31
0
39
0
210
0
220
0
230
1
0
LINE
5
B2
100
AcDbEntity
8
1
62
256
6
ByLayer
370
18
48
1
60
1
100
AcDbLine
10
24.444609
20
14.818132
30
0
11
27.750068
21
13.578677
31
0
39
0
210
0
220
0
230
1
0
LINE
5
B3
100
AcDbEntity
8
1
62
256
6
ByLayer
370
18
48
1
60
1
100
AcDbLine
10
27.750068
20
13.578677
30
0
11
27.316645
21
12.765392
31
0
39
0
210
0
220
0
230
1
0
LINE
5
B4
100
AcDbEntity
8
1
62
256
6
ByLayer
370
18
48
1
60
1
100
AcDbLine
10
27.316645
20
12.765392
30
0
11
24.444609
21
14.818132
31
0
39
0
210
0
220
0
230
1
0
LINE
5
CD
100
AcDbEntity
8
1
62
256
6
ByLayer
370
18
48
1
60
1
100
AcDbLine
10
-24.9652
20
-1.5
30
0
11
-24.504416
21
-4.999998
31
0
39
0
210
0
220
0
230
1
0
LINE
5
CE
100
AcDbEntity
8
1
62
256
6
ByLayer
370
18
48
1
60
1
100
AcDbLine
10
-24.504416
20
-4.999998
30
0
11
-25.425984
21
-5.000002
31
0
39
0
210
0
220
0
230
1
0
LINE
5
CF
100
AcDbEntity
8
1
62
256
6
ByLayer
370
18
48
1
60
1
100
AcDbLine
10
-25.425984
20
-5.000002
30
0
11
-24.9652
21
-1.5
31
0
39
0
210
0
220
0
230
1
0
LINE
5
D1
100
AcDbEntity
8
1
62
256
6
ByLayer
370
18
48
1
60
1
100
AcDbLine
10
-24.9652
20
1.5
30
0
11
-25.425984
21
4.999998
31
0
39
0
210
0
220
0
230
1
0
LINE
5
D2
100
AcDbEntity
8
1
62
256
6
ByLayer
370
18
48
1
60
1
100
AcDbLine
10
-25.425984
20
4.999998
30
0
11
-24.504416
21
5.000002
31
0
39
0
210
0
220
0
230
1
0
LINE
5
D3
100
AcDbEntity
8
1
62
256
6
ByLayer
370
18
48
1
60
1
100
AcDbLine
10
-24.504416
20
5.000002
30
0
11
-24.9652
21
1.5
31
0
39
0
210
0
220
0
230
1
0
LINE
5
D7
100
AcDbEntity
8
1
62
256
6
ByLayer
370
18
48
1
60
1
100
AcDbLine
10
23.0348
20
-1.345
30
0
11
23.495584
21
-4.844998
31
0
39
0
210
0
220
0
230
1
0
LINE
5
D8
100
AcDbEntity
8
1
62
256
6
ByLayer
370
18
48
1
60
1
100
AcDbLine
10
23.495584
20
-4.844998
30
0
11
22.574016
21
-4.845002
31
0
39
0
210
0
220
0
230
1
0
LINE
5
D9
100
AcDbEntity
8
1
62
256
6
ByLayer
370
18
48
1
60
1
100
AcDbLine
10
22.574016
20
-4.845002
30
0
11
23.0348
21
-1.345
31
0
39
0
210
0
220
0
230
1
0
LINE
5
DB
100
AcDbEntity
8
1
62
256
6
ByLayer
370
18
48
1
60
1
100
AcDbLine
10
23.0348
20
1.345
30
0
11
22.574016
21
4.844998
31
0
39
0
210
0
220
0
230
1
0
LINE
5
DC
100
AcDbEntity
8
1
62
256
6
ByLayer
370
18
48
1
60
1
100
AcDbLine
10
22.574016
20
4.844998
30
0
11
23.495584
21
4.845002
31
0
39
0
210
0
220
0
230
1
0
LINE
5
DD
100
AcDbEntity
8
1
62
256
6
ByLayer
370
18
48
1
60
1
100
AcDbLine
10
23.495584
20
4.845002
30
0
11
23.0348
21
1.345
31
0
39
0
210
0
220
0
230
1
0
LINE
5
E0
100
AcDbEntity
8
1
62
256
6
ByLayer
370
18
48
1
60
1
100
AcDbLine
10
24.444609
20
-14.818132
30
0
11
27.316642
21
-12.765394
31
0
39
0
210
0
220
0
230
1
0
LINE
5
E1
100
AcDbEntity
8
1
62
256
6
ByLayer
370
18
48
1
60
1
100
AcDbLine
10
27.316642
20
-12.765394
30
0
11
27.750071
21
-13.578675
31
0
39
0
210
0
220
0
230
1
0
LINE
5
E2
100
AcDbEntity
8
1
62
256
6
ByLayer
370
18
48
1
60
1
100
AcDbLine
10
27.750071
20
-13.578675
30
0
11
24.444609
21
-14.818132
31
0
39
0
210
0
220
0
230
1
0
LINE
5
E4
100
AcDbEntity
8
1
62
256
6
ByLayer
370
18
48
1
60
1
100
AcDbLine
10
24.444609
20
14.818132
30
0
11
27.750068
21
13.578677
31
0
39
0
210
0
220
0
230
1
0
LINE
5
E5
100
AcDbEntity
8
1
62
256
6
ByLayer
370
18
48
1
60
1
100
AcDbLine
10
27.750068
20
13.578677
30
0
11
27.316645
21
12.765392
31
0
39
0
210
0
220
0
230
1
0
LINE
5
E6
100
AcDbEntity
8
1
62
256
6
ByLayer
370
18
48
1
60
1
100
AcDbLine
10
27.316645
20
12.765392
30
0
11
24.444609
21
14.818132
31
0
39
0
210
0
220
0
230
1
0
MTEXT
5
C9
100
AcDbEntity
8
SK2
62
256
6
ByLayer
370
18
48
1
60
0
100
AcDbMText
10
-26.306314
20
6.658437
30
0
210
0
220
0
230
1
1
%%c
40
3
41
0
44
1.084337
50
90
71
7
72
5
7
iso_b_vert
0
MTEXT
5
CC
100
AcDbEntity
8
SK2
62
256
6
ByLayer
370
18
48
1
60
0
100
AcDbMText
10
-26.306314
20
12.635
30
0
210
0
220
0
230
1
1
\W0.7468;3.000
40
3
41
0
44
1.084337
50
90
71
7
72
5
7
iso_b_vert
0
MTEXT
5
D5
100
AcDbEntity
8
2
62
256
6
ByLayer
370
18
48
1
60
0
100
AcDbMText
10
21.693686
20
14.313438
30
0
210
0
220
0
230
1
1
%%c
40
3
41
0
44
1.084337
50
90
71
7
72
5
7
iso_b_vert
0
MTEXT
5
D6
100
AcDbEntity
8
2
62
256
6
ByLayer
370
18
48
1
60
0
100
AcDbMText
10
21.693686
20
20.29
30
0
210
0
220
0
230
1
1
\W0.7468;2.690
40
3
41
0
44
1.084337
50
90
71
7
72
5
7
iso_b_vert
0
MTEXT
5
DF
100
AcDbEntity
8
SK2
62
256
6
ByLayer
370
18
48
1
60
0
100
AcDbMText
10
30.602086
20
-2.114886
30
0
210
0
220
0
230
1
1
\W0.6747;130%%d
40
3
41
0
44
1.084337
50
0
71
7
72
5
7
iso_b_vert
0
MTEXT
5
E8
100
AcDbEntity
8
SK6
62
256
6
ByLayer
370
18
48
1
60
0
100
AcDbMText
10
-29.46911
20
-48.114886
30
0
210
0
220
0
230
1
1
\W0.7754;462.1-0269-009A0-XM X0BU
40
3
41
0
44
1.084337
50
0
71
7
72
5
7
iso_b_vert
0
HATCH
5
D0
100
AcDbEntity
8
SK2
62
256
6
ByLayer
370
13
48
1
60
0
100
AcDbHatch
10
0
20
0
30
0
210
0
220
0
230
1
2
ANSI31
70
0
71
0
91
1
92
5
93
3
72
1
10
-24.9652
20
-1.5
11
-24.5044162584472
21
-4.99999830744682
72
1
10
-24.5044162584472
20
-4.99999830744682
11
-25.4259837415528
21
-5.00000169255318
72
1
10
-25.4259837415528
20
-5.00000169255318
11
-24.9652
21
-1.5
97
0
75
0
76
1
52
0
41
0.0062
77
0
78
1
53
45
43
0
44
0
45
-0.0139193969876572
46
0.0139193969876572
79
0
47
0
98
1
10
0
20
0
0
HATCH
5
D4
100
AcDbEntity
8
SK2
62
256
6
ByLayer
370
13
48
1
60
0
100
AcDbHatch
10
0
20
0
30
0
210
0
220
0
230
1
2
ANSI31
70
0
71
0
91
1
92
5
93
3
72
1
10
-24.9652
20
1.5
11
-25.4259837415528
21
4.99999830744682
72
1
10
-25.4259837415528
20
4.99999830744682
11
-24.5044162584472
21
5.00000169255318
72
1
10
-24.5044162584472
20
5.00000169255318
11
-24.9652
21
1.5
97
0
75
0
76
1
52
0
41
0.0062
77
0
78
1
53
45
43
0
44
0
45
-0.0139193969876572
46
0.0139193969876572
79
0
47
0
98
1
10
0
20
0
0
HATCH
5
DA
100
AcDbEntity
8
2
62
256
6
ByLayer
370
13
48
1
60
0
100
AcDbHatch
10
0
20
0
30
0
210
0
220
0
230
1
2
ANSI31
70
0
71
0
91
1
92
5
93
3
72
1
10
23.0348
20
-1.345
11
23.4955837415528
21
-4.84499830744682
72
1
10
23.4955837415528
20
-4.84499830744682
11
22.5740162584472
21
-4.84500169255318
72
1
10
22.5740162584472
20
-4.84500169255318
11
23.0348
21
-1.345
97
0
75
0
76
1
52
0
41
0.0062
77
0
78
1
53
45
43
0
44
0
45
-0.0139193969876572
46
0.0139193969876572
79
0
47
0
98
1
10
0
20
0
0
HATCH
5
DE
100
AcDbEntity
8
2
62
256
6
ByLayer
370
13
48
1
60
0
100
AcDbHatch
10
0
20
0
30
0
210
0
220
0
230
1
2
ANSI31
70
0
71
0
91
1
92
5
93
3
72
1
10
23.0348
20
1.345
11
22.5740162584472
21
4.84499830744682
72
1
10
22.5740162584472
20
4.84499830744682
11
23.4955837415528
21
4.84500169255318
72
1
10
23.4955837415528
20
4.84500169255318
11
23.0348
21
1.345
97
0
75
0
76
1
52
0
41
0.0062
77
0
78
1
53
45
43
0
44
0
45
-0.0139193969876572
46
0.0139193969876572
79
0
47
0
98
1
10
0
20
0
0
HATCH
5
E3
100
AcDbEntity
8
SK2
62
256
6
ByLayer
370
13
48
1
60
0
100
AcDbHatch
10
0
20
0
30
0
210
0
220
0
230
1
2
ANSI31
70
0
71
0
91
1
92
5
93
3
72
1
10
24.4446085794604
20
-14.8181323180492
11
27.3166418553693
21
-12.765393983365
72
1
10
27.3166418553693
20
-12.765393983365
11
27.7500706127348
21
-13.5786750775861
72
1
10
27.7500706127348
20
-13.5786750775861
11
24.4446085794604
21
-14.8181323180492
97
0
75
0
76
1
52
0
41
0.0062
77
0
78
1
53
45
43
0
44
0
45
-0.0139193969876572
46
0.0139193969876572
79
0
47
0
98
1
10
0
20
0
0
HATCH
5
E7
100
AcDbEntity
8
SK2
62
256
6
ByLayer
370
13
48
1
60
0
100
AcDbHatch
10
0
20
0
30
0
210
0
220
0
230
1
2
ANSI31
70
0
71
0
91
1
92
5
93
3
72
1
10
24.4446085794604
20
14.8181323180492
11
27.7500676253807
21
13.5786766696479
72
1
10
27.7500676253807
20
13.5786766696479
11
27.3166448427234
21
12.7653923913032
72
1
10
27.3166448427234
20
12.7653923913032
11
24.4446085794604
21
14.8181323180492
97
0
75
0
76
1
52
0
41
0.0062
77
0
78
1
53
45
43
0
44
0
45
-0.0139193969876572
46
0.0139193969876572
79
0
47
0
98
1
10
0
20
0
0
DIMENSION
5
EB
100
AcDbEntity
8
SK2
62
256
6
ByLayer
370
18
48
1
60
0
100
AcDbDimension
2
_U0
10
17.5348
20
-38.955153
30
0
11
-1.4652
21
-38.955153
31
0
70
32
71
1
72
1
41
1
210
0
220
0
230
1
3
Standard
100
AcDbAlignedDimension
13
-20.4652
23
1.5
33
0
14
17.5348
24
1.345
34
0
50
0
100
AcDbRotatedDimension
1001
ACAD
1000
DSTYLE
1002
{
1070
   371
1070
    13
1070
   372
1070
    13
1070
     3
1000

1070
   170
1070
     0
1070
   144
1040
1.0
1070
   277
1070
     2
1070
   284
1070
     8
1070
   278
1070
    46
1070
   146
1040
1.166667
1070
   345
1005
16
1070
   347
1005
16
1070
   346
1005
16
1070
   344
1005
0
1070
   343
1005
0
1070
   172
1070
     1
1070
    76
1070
     0
1070
    75
1070
     0
1070
   282
1070
     0
1070
   281
1070
     0
1070
    71
1070
     0
1070
    74
1070
     0
1070
   279
1070
     0
1070
   173
1070
     1
1070
   340
1005
CA
1070
   271
1070
     2
1070
   272
1070
     2
1070
    77
1070
     1
1070
    73
1070
     1
1070
   171
1070
     3
1070
   274
1070
     4
1070
   177
1070
     2
1070
   176
1070
     2
1070
   178
1070
     2
1070
    78
1070
     8
1070
    48
1040
-0.1
1070
    41
1040
3.5
1070
   147
1040
1.5
1070
    42
1040
1.5875
1070
    44
1040
2.0
1070
   140
1040
3.0
1002
}
1001
ACAD_DSTYLE_DIM_LINETYPE
1070
   380
1005
16
1001
ACAD_DSTYLE_DIM_EXT1_LINETYPE
1070
   381
1005
16
1001
ACAD_DSTYLE_DIM_EXT2_LINETYPE
1070
   382
1005
16
0
DIMENSION
5
104
100
AcDbEntity
8
SK2
62
256
6
ByLayer
370
18
48
1
60
0
100
AcDbDimension
2
_U1
10
7.5698
20
-22.845
30
0
11
33.606229
21
-22.845
31
0
70
32
71
1
72
1
41
1
210
0
220
0
230
1
3
Standard
100
AcDbAlignedDimension
13
17.5348
23
1.345
33
0
14
7.5698
24
0
34
0
50
0
100
AcDbRotatedDimension
1001
ACAD
1000
DSTYLE
1002
{
1070
   371
1070
    13
1070
   372
1070
    13
1070
     3
1000

1070
   170
1070
     0
1070
   144
1040
1.0
1070
   277
1070
     2
1070
   284
1070
     8
1070
   278
1070
    46
1070
   146
1040
1.166667
1070
   345
1005
16
1070
   347
1005
16
1070
   346
1005
16
1070
   344
1005
0
1070
   343
1005
0
1070
   172
1070
     1
1070
    76
1070
     0
1070
    75
1070
     0
1070
   282
1070
     0
1070
   281
1070
     0
1070
    71
1070
     0
1070
    74
1070
     0
1070
   279
1070
     0
1070
   173
1070
     1
1070
   340
1005
CA
1070
   271
1070
     2
1070
   272
1070
     2
1070
    77
1070
     1
1070
    73
1070
     1
1070
   171
1070
     3
1070
   274
1070
     4
1070
   177
1070
     2
1070
   176
1070
     2
1070
   178
1070
     2
1070
    78
1070
     8
1070
    48
1040
-0.1
1070
    41
1040
3.5
1070
   147
1040
1.5
1070
    42
1040
1.5875
1070
    44
1040
2.0
1070
   140
1040
3.0
1002
}
1001
ACAD_DSTYLE_DIM_LINETYPE
1070
   380
1005
16
1001
ACAD_DSTYLE_DIM_EXT1_LINETYPE
1070
   381
1005
16
1001
ACAD_DSTYLE_DIM_EXT2_LINETYPE
1070
   382
1005
16
0
DIMENSION
5
11E
100
AcDbEntity
8
SK2
62
256
6
ByLayer
370
18
48
1
60
0
100
AcDbDimension
2
_U2
10
3.5348
20
-30.455153
30
0
11
10.5348
21
-30.455153
31
0
70
32
71
1
72
1
41
1
210
0
220
0
230
1
3
Standard
100
AcDbAlignedDimension
13
17.5348
23
1.345
33
0
14
3.5348
24
0
34
0
50
0
100
AcDbRotatedDimension
1001
ACAD
1000
DSTYLE
1002
{
1070
   371
1070
    13
1070
   372
1070
    13
1070
     3
1000

1070
   170
1070
     0
1070
   144
1040
1.0
1070
   277
1070
     2
1070
   284
1070
     8
1070
   278
1070
    46
1070
   146
1040
1.166667
1070
   345
1005
16
1070
   347
1005
16
1070
   346
1005
16
1070
   344
1005
0
1070
   343
1005
0
1070
   172
1070
     1
1070
    76
1070
     0
1070
    75
1070
     0
1070
   282
1070
     0
1070
   281
1070
     0
1070
    71
1070
     0
1070
    74
1070
     0
1070
   279
1070
     0
1070
   173
1070
     1
1070
   340
1005
CA
1070
   271
1070
     2
1070
   272
1070
     2
1070
    77
1070
     1
1070
    73
1070
     1
1070
   171
1070
     3
1070
   274
1070
     4
1070
   177
1070
     2
1070
   176
1070
     2
1070
   178
1070
     2
1070
    78
1070
     8
1070
    48
1040
-0.1
1070
    41
1040
3.5
1070
   147
1040
1.5
1070
    42
1040
1.5875
1070
    44
1040
2.0
1070
   140
1040
3.0
1002
}
1001
ACAD_DSTYLE_DIM_LINETYPE
1070
   380
1005
16
1001
ACAD_DSTYLE_DIM_EXT1_LINETYPE
1070
   381
1005
16
1001
ACAD_DSTYLE_DIM_EXT2_LINETYPE
1070
   382
1005
16
0
DIMENSION
5
137
100
AcDbEntity
8
SK2
62
256
6
ByLayer
370
18
48
1
60
0
100
AcDbDimension
2
_U3
10
0
20
11.455153
30
0
11
-10.2326
21
11.455153
31
0
70
32
71
1
72
1
41
1
210
0
220
0
230
1
3
Standard
100
AcDbAlignedDimension
13
-20.4652
23
0
33
0
14
0
24
0
34
0
50
0
100
AcDbRotatedDimension
1001
ACAD
1000
DSTYLE
1002
{
1070
   371
1070
    13
1070
   372
1070
    13
1070
     3
1000

1070
   170
1070
     0
1070
   144
1040
1.0
1070
   277
1070
     2
1070
   284
1070
     8
1070
   278
1070
    46
1070
   146
1040
1.166667
1070
   345
1005
16
1070
   347
1005
16
1070
   346
1005
16
1070
   344
1005
0
1070
   343
1005
0
1070
   172
1070
     1
1070
    76
1070
     0
1070
    75
1070
     0
1070
   282
1070
     0
1070
   281
1070
     0
1070
    71
1070
     0
1070
    74
1070
     0
1070
   279
1070
     0
1070
   173
1070
     1
1070
   340
1005
CA
1070
   271
1070
     2
1070
   272
1070
     2
1070
    77
1070
     1
1070
    73
1070
     1
1070
   171
1070
     3
1070
   274
1070
     4
1070
   177
1070
     2
1070
   176
1070
     2
1070
   178
1070
     2
1070
    78
1070
     8
1070
    48
1040
-0.1
1070
    41
1040
3.5
1070
   147
1040
1.5
1070
    42
1040
1.5875
1070
    44
1040
2.0
1070
   140
1040
3.0
1002
}
1001
ACAD_DSTYLE_DIM_LINETYPE
1070
   380
1005
16
1001
ACAD_DSTYLE_DIM_EXT1_LINETYPE
1070
   381
1005
16
1001
ACAD_DSTYLE_DIM_EXT2_LINETYPE
1070
   382
1005
16
0
DIMENSION
5
14F
100
AcDbEntity
8
2
62
256
6
ByLayer
370
18
48
1
60
0
100
AcDbDimension
2
_U4
10
0
20
11.455153
30
0
11
8.7674
21
11.455153
31
0
70
32
71
1
72
1
41
1
210
0
220
0
230
1
3
Standard
100
AcDbAlignedDimension
13
17.5348
23
1.345
33
0
14
0
24
0
34
0
50
0
100
AcDbRotatedDimension
1001
ACAD
1000
DSTYLE
1002
{
1070
   371
1070
    13
1070
   372
1070
    13
1070
     3
1000

1070
   170
1070
     0
1070
   144
1040
1.0
1070
   277
1070
     2
1070
   284
1070
     8
1070
   278
1070
    46
1070
   146
1040
1.166667
1070
   345
1005
16
1070
   347
1005
16
1070
   346
1005
16
1070
   344
1005
0
1070
   343
1005
0
1070
   172
1070
     1
1070
    76
1070
     0
1070
    75
1070
     0
1070
   282
1070
     0
1070
   281
1070
     0
1070
    71
1070
     0
1070
    74
1070
     0
1070
   279
1070
     0
1070
   173
1070
     1
1070
   340
1005
CA
1070
   271
1070
     2
1070
   272
1070
     2
1070
    77
1070
     1
1070
    73
1070
     1
1070
   171
1070
     3
1070
   274
1070
     4
1070
   177
1070
     2
1070
   176
1070
     2
1070
   178
1070
     2
1070
    78
1070
     8
1070
    48
1040
-0.1
1070
    41
1040
3.5
1070
   147
1040
1.5
1070
    42
1040
1.5875
1070
    44
1040
2.0
1070
   140
1040
3.0
1002
}
1001
ACAD_DSTYLE_DIM_LINETYPE
1070
   380
1005
16
1001
ACAD_DSTYLE_DIM_EXT1_LINETYPE
1070
   381
1005
16
1001
ACAD_DSTYLE_DIM_EXT2_LINETYPE
1070
   382
1005
16
0
ENDSEC
0
SECTION
2
OBJECTS
0
DICTIONARY
5
1d7
330
0
100
AcDbDictionary
280
0
281
1
3
ACAD_GROUP
350
1d8
3
ACAD_MLINESTYLE
350
1d9
0
DICTIONARY
5
1d8
330
0
100
AcDbDictionary
280
0
281
1
0
DICTIONARY
5
1d9
330
0
100
AcDbDictionary
280
0
281
1
3
Standard
350
18
0
MLINESTYLE
5
18
330
1d9
100
AcDbMlineStyle
2
Standard
70
0
3

62
256
51
90
52
90
71
2
49
-0.5
62
256
6
ByLayer
49
0.5
62
256
6
ByLayer
0
RASTERVARIABLES
5
1c5
330

100
AcDbRasterVariables
90
0
70
1
71
1
72
1
0
ENDSEC
0
EOF
