0
SECTION
2
HEADER
9
$ACADVER
1
AC1015
9
$DWGCODEPAGE
3
ANSI_1252
9
$HANDSEED
5
1e4
9
$ANGBASE
50
0
9
$ANGDIR
70
0
9
$ATTMODE
70
1
9
$AUNITS
70
0
9
$AUPREC
70
0
9
$CECOLOR
62
256
9
$CELTSCALE
40
1
9
$CELTYPE
6
ByLayer
9
$CELWEIGHT
370
18
9
$CLAYER
8
0
9
$CMLJUST
70
0
9
$CMLSCALE
40
1
9
$CMLSTYLE
2
Standard
9
$DIMSTYLE
2
Standard
9
$TEXTSIZE
40
0.2
9
$TEXTSTYLE
7
Standard
9
$LUNITS
70
2
9
$LUPREC
70
4
9
$EXTNAMES
290
1
9
$INSUNITS
70
4
9
$LTSCALE
40
1
9
$LWDISPLAY
290
1
9
$PDMODE
70
0
9
$PDSIZE
40
0
9
$PLINEGEN
70
0
0
ENDSEC
0
SECTION
2
CLASSES
0
CLASS
1
RASTERVARIABLES
2
AcDbRasterVariables
3
ISM
90
0
280
0
281
0
0
ENDSEC
0
SECTION
2
TABLES
0
TABLE
2
VPORT
5
1da
100
AcDbSymbolTable
0
VPORT
5
1
100
AcDbSymbolTableRecord
100
AcDbViewportTableRecord
2
*Active
70
0
10
0
20
0
11
1
21
1
12
-1
22
1
13
0
23
0
14
0.5
24
0.5
15
10
25
10
16
0
26
0
36
1
17
0
27
0
37
0
0
ENDTAB
0
TABLE
2
LTYPE
5
1db
100
AcDbSymbolTable
0
LTYPE
5
14
100
AcDbSymbolTableRecord
100
AcDbLinetypeTableRecord
70
0
2
ByBlock
3

72
65
73
0
40
0
0
LTYPE
5
15
100
AcDbSymbolTableRecord
100
AcDbLinetypeTableRecord
70
0
2
ByLayer
3

72
65
73
0
40
0
0
LTYPE
5
16
100
AcDbSymbolTableRecord
100
AcDbLinetypeTableRecord
70
0
2
Continuous
3
Solid line
72
65
73
0
40
0
0
LTYPE
5
6E
100
AcDbSymbolTableRecord
100
AcDbLinetypeTableRecord
70
0
2
CENTER
3
____ _ ____ _ ____ _ ____
72
65
73
4
40
47.5
49
22
74
0
49
-8.5
74
0
49
8.5
74
0
49
-8.5
74
0
0
LTYPE
5
6F
100
AcDbSymbolTableRecord
100
AcDbLinetypeTableRecord
70
0
2
DASHED
3
__ __ __ __ __ __ __ __ __
72
65
73
2
40
25.72
49
12.86
74
0
49
-12.86
74
0
0
ENDTAB
0
TABLE
2
LAYER
5
1dc
100
AcDbSymbolTable
0
LAYER
5
10
100
AcDbSymbolTableRecord
100
AcDbLayerTableRecord
2
0
70
0
62
7
6
Continuous
290
1
370
-3
390
0
0
LAYER
5
71
100
AcDbSymbolTableRecord
100
AcDbLayerTableRecord
2
80
70
0
62
-6
6
Continuous
290
1
370
-3
390
0
0
LAYER
5
73
100
AcDbSymbolTableRecord
100
AcDbLayerTableRecord
2
81
70
0
62
-3
6
Continuous
290
1
370
-3
390
0
0
LAYER
5
75
100
AcDbSymbolTableRecord
100
AcDbLayerTableRecord
2
1
70
0
62
4
6
Continuous
290
1
370
-3
390
0
0
LAYER
5
94
100
AcDbSymbolTableRecord
100
AcDbLayerTableRecord
2
4
70
0
62
-2
6
CENTER
290
1
370
-3
390
0
0
LAYER
5
A4
100
AcDbSymbolTableRecord
100
AcDbLayerTableRecord
2
2
70
0
62
7
6
Continuous
290
1
370
-3
390
0
0
LAYER
5
EE
100
AcDbSymbolTableRecord
100
AcDbLayerTableRecord
2
Defpoints
70
0
62
7
6
Continuous
290
0
370
-3
390
0
0
LAYER
5
1c6
100
AcDbSymbolTableRecord
100
AcDbLayerTableRecord
2
SK1
70
0
62
4
6
Continuous
290
1
370
-3
390
0
0
LAYER
5
1c7
100
AcDbSymbolTableRecord
100
AcDbLayerTableRecord
2
SK4
70
0
62
2
6
CENTER
290
1
370
-3
390
0
0
LAYER
5
1c8
100
AcDbSymbolTableRecord
100
AcDbLayerTableRecord
2
SK2
70
0
62
7
6
Continuous
290
1
370
-3
390
0
0
LAYER
5
1c9
100
AcDbSymbolTableRecord
100
AcDbLayerTableRecord
2
SK6
70
0
62
5
6
Continuous
290
1
370
-3
390
0
0
ENDTAB
0
TABLE
2
STYLE
5
1dd
100
AcDbSymbolTable
0
STYLE
5
11
100
AcDbSymbolTableRecord
100
AcDbTextStyleTableRecord
2
Standard
3
txt
70
0
71
0
40
0
41
1
42
0
50
0
0
STYLE
5
CA
100
AcDbSymbolTableRecord
100
AcDbTextStyleTableRecord
2
iso_b_vert
3
simplex.shx
70
0
71
0
40
0
41
1
42
0
50
0
0
STYLE
5
CB
100
AcDbSymbolTableRecord
100
AcDbTextStyleTableRecord
2
DWGDirectTextStyle
3
simplex
70
0
71
0
40
0
41
1
42
0
50
0
0
ENDTAB
0
TABLE
2
DIMSTYLE
5
1de
100
AcDbSymbolTable
100
AcDbDimStyleTable
0
DIMSTYLE
105
27
100
AcDbSymbolTableRecord
100
AcDbDimStyleTableRecord
2
Standard
70
0
3
<>
41
0.18
42
0.0625
44
0.18
140
0.18
147
0.09
73
0
74
0
77
1
271
2
275
0
278
52
280
0
340
11
0
ENDTAB
0
TABLE
2
VIEW
5
1df
100
AcDbSymbolTable
0
ENDTAB
0
TABLE
2
UCS
5
1e0
100
AcDbSymbolTable
0
ENDTAB
0
TABLE
2
APPID
5
1e1
100
AcDbSymbolTable
0
APPID
5
12
100
AcDbSymbolTableRecord
100
AcDbRegAppTableRecord
2
ACAD
70
0
0
APPID
5
EA
100
AcDbSymbolTableRecord
100
AcDbRegAppTableRecord
2
ACAD_DSTYLE_DIMBREAK
70
0
0
APPID
5
185
100
AcDbSymbolTableRecord
100
AcDbRegAppTableRecord
2
ACAD_DSTYLE_DIM_LINETYPE
70
0
0
APPID
5
186
100
AcDbSymbolTableRecord
100
AcDbRegAppTableRecord
2
ACAD_DSTYLE_DIM_EXT1_LINETYPE
70
0
0
APPID
5
187
100
AcDbSymbolTableRecord
100
AcDbRegAppTableRecord
2
ACAD_DSTYLE_DIM_EXT2_LINETYPE
70
0
0
APPID
5
1C2
100
AcDbSymbolTableRecord
100
AcDbRegAppTableRecord
2
ACAD_MLEADERVER
70
0
0
ENDTAB
0
TABLE
2
BLOCK_RECORD
5
1e2
100
AcDbSymbolTable
0
BLOCK_RECORD
5
1F
100
AcDbSymbolTableRecord
100
AcDbBlockTableRecord
2
*Model_Space
340
0
70
0
0
BLOCK_RECORD
5
1B
100
AcDbSymbolTableRecord
100
AcDbBlockTableRecord
2
*Paper_Space
340
0
70
0
0
BLOCK_RECORD
5
23
100
AcDbSymbolTableRecord
100
AcDbBlockTableRecord
2
*Paper_Space0
340
0
70
0
0
BLOCK_RECORD
5
EF
100
AcDbSymbolTableRecord
100
AcDbBlockTableRecord
2
*D1
340
0
70
0
0
BLOCK_RECORD
5
FB
100
AcDbSymbolTableRecord
100
AcDbBlockTableRecord
2
_U0
340
0
70
0
0
BLOCK_RECORD
5
107
100
AcDbSymbolTableRecord
100
AcDbBlockTableRecord
2
*D3
340
0
70
0
0
BLOCK_RECORD
5
115
100
AcDbSymbolTableRecord
100
AcDbBlockTableRecord
2
_U1
340
0
70
0
0
BLOCK_RECORD
5
121
100
AcDbSymbolTableRecord
100
AcDbBlockTableRecord
2
*D5
340
0
70
0
0
BLOCK_RECORD
5
12E
100
AcDbSymbolTableRecord
100
AcDbBlockTableRecord
2
_U2
340
0
70
0
0
BLOCK_RECORD
5
13A
100
AcDbSymbolTableRecord
100
AcDbBlockTableRecord
2
*D7
340
0
70
0
0
BLOCK_RECORD
5
146
100
AcDbSymbolTableRecord
100
AcDbBlockTableRecord
2
_U3
340
0
70
0
0
BLOCK_RECORD
5
152
100
AcDbSymbolTableRecord
100
AcDbBlockTableRecord
2
*D9
340
0
70
0
0
BLOCK_RECORD
5
15E
100
AcDbSymbolTableRecord
100
AcDbBlockTableRecord
2
_U4
340
0
70
0
0
ENDTAB
0
ENDSEC
0
SECTION
2
BLOCKS
0
BLOCK
5
20
100
AcDbEntity
8
0
100
AcDbBlockBegin
2
*Model_Space
70
0
10
0
20
0
30
0
3
*Model_Space
0
ENDBLK
5
21
100
AcDbEntity
8
0
100
AcDbBlockEnd
0
BLOCK
5
1C
100
AcDbEntity
8
0
100
AcDbBlockBegin
2
*Paper_Space
70
0
10
0
20
0
30
0
3
*Paper_Space
0
ENDBLK
5
1D
100
AcDbEntity
8
0
100
AcDbBlockEnd
0
BLOCK
5
24
100
AcDbEntity
8
0
100
AcDbBlockBegin
2
*Paper_Space0
70
0
10
0
20
0
30
0
3
*Paper_Space0
0
ENDBLK
5
25
100
AcDbEntity
8
0
100
AcDbBlockEnd
0
BLOCK
5
F0
100
AcDbEntity
8
0
100
AcDbBlockBegin
2
*D1
70
1
10
0
20
0
30
0
3
*D1
0
LINE
5
F2
100
AcDbEntity
8
0
62
256
6
ByLayer
370
-2
48
1
60
0
100
AcDbLine
10
-20.4732
20
-0.0875
30
0
11
-20.4732
21
-40.921842
31
0
39
0
210
0
220
0
230
1
0
LINE
5
F3
100
AcDbEntity
8
0
62
256
6
ByLayer
370
-2
48
1
60
0
100
AcDbLine
10
17.5268
20
-0.2375
30
0
11
17.5268
21
-40.921842
31
0
39
0
210
0
220
0
230
1
0
LINE
5
F4
100
AcDbEntity
8
0
62
256
6
ByLayer
370
-2
48
1
60
0
100
AcDbLine
10
-16.9732
20
-38.921842
30
0
11
14.0268
21
-38.921842
31
0
39
0
210
0
220
0
230
1
0
SOLID
5
F5
100
AcDbEntity
8
0
62
256
6
ByLayer
370
-1
48
1
60
0
100
AcDbTrace
10
-16.9732
20
-38.338508
30
0
11
-16.9732
21
-39.505175
31
0
12
-20.4732
22
-38.921842
32
0
13
-20.4732
23
-38.921842
33
0
39
0
210
0
220
0
230
1
0
SOLID
5
F6
100
AcDbEntity
8
0
62
256
6
ByLayer
370
-1
48
1
60
0
100
AcDbTrace
10
14.0268
20
-39.505175
30
0
11
14.0268
21
-38.338508
31
0
12
17.5268
22
-38.921842
32
0
13
17.5268
23
-38.921842
33
0
39
0
210
0
220
0
230
1
0
MTEXT
5
F7
100
AcDbEntity
8
0
62
256
6
ByLayer
370
18
48
1
60
0
100
AcDbMText
10
-1.4732
20
-32.921842
30
0
210
0
220
0
230
1
1
\A1;38
40
3
41
0
44
1
50
0
71
5
72
5
7
iso_b_vert
0
POINT
5
F8
100
AcDbEntity
8
Defpoints
62
0
6
ByLayer
370
-1
48
1
60
0
100
AcDbPoint
10
-20.4732
20
1.5
30
0
39
0
210
0
220
0
230
1
50
360
0
POINT
5
F9
100
AcDbEntity
8
Defpoints
62
0
6
ByLayer
370
-1
48
1
60
0
100
AcDbPoint
10
17.5268
20
1.35
30
0
39
0
210
0
220
0
230
1
50
360
0
POINT
5
FA
100
AcDbEntity
8
Defpoints
62
0
6
ByLayer
370
-1
48
1
60
0
100
AcDbPoint
10
17.5268
20
-38.921842
30
0
39
0
210
0
220
0
230
1
50
360
0
ENDBLK
5
F1
100
AcDbEntity
8
0
100
AcDbBlockEnd
0
BLOCK
5
102
100
AcDbEntity
8
0
100
AcDbBlockBegin
2
_U0
70
0
10
0
20
0
30
0
3
_U0
0
MTEXT
5
FC
100
AcDbEntity
8
SK2
62
256
6
ByLayer
370
18
48
1
60
0
100
AcDbMText
10
-5.95557
20
-38.036727
30
0
210
0
220
0
230
1
1
\W0.7468;38.00
40
3
41
0
44
1.084337
50
0
71
7
72
5
7
iso_b_vert
0
LINE
5
FD
100
AcDbEntity
8
SK2
62
256
6
ByLayer
370
13
48
1
60
0
100
AcDbLine
10
-20.4732
20
-0.0875
30
0
11
-20.4732
21
-40.921842
31
0
39
0
210
0
220
0
230
1
0
LINE
5
FE
100
AcDbEntity
8
SK2
62
256
6
ByLayer
370
13
48
1
60
0
100
AcDbLine
10
17.5268
20
-0.2375
30
0
11
17.5268
21
-40.921842
31
0
39
0
210
0
220
0
230
1
0
LINE
5
FF
100
AcDbEntity
8
SK2
62
256
6
ByLayer
370
13
48
1
60
0
100
AcDbLine
10
-20.4732
20
-38.921842
30
0
11
17.5268
21
-38.921842
31
0
39
0
210
0
220
0
230
1
0
SOLID
5
100
100
AcDbEntity
8
SK2
62
256
6
ByLayer
370
18
48
1
60
0
100
AcDbTrace
10
-20.4732
20
-38.921842
30
0
11
-16.973202
21
-38.461058
31
0
12
-16.973198
22
-39.382625
32
0
13
-16.973198
23
-39.382625
33
0
39
0
210
0
220
0
230
1
0
SOLID
5
101
100
AcDbEntity
8
SK2
62
256
6
ByLayer
370
18
48
1
60
0
100
AcDbTrace
10
17.5268
20
-38.921842
30
0
11
14.026802
21
-39.382625
31
0
12
14.026798
22
-38.461058
32
0
13
14.026798
23
-38.461058
33
0
39
0
210
0
220
0
230
1
0
ENDBLK
5
103
100
AcDbEntity
8
0
100
AcDbBlockEnd
0
BLOCK
5
108
100
AcDbEntity
8
0
100
AcDbBlockBegin
2
*D3
70
1
10
0
20
0
30
0
3
*D3
0
LINE
5
10A
100
AcDbEntity
8
0
62
256
6
ByLayer
370
-2
48
1
60
0
100
AcDbLine
10
17.5268
20
-0.2375
30
0
11
17.5268
21
-24.85
31
0
39
0
210
0
220
0
230
1
0
LINE
5
10B
100
AcDbEntity
8
0
62
256
6
ByLayer
370
-2
48
1
60
0
100
AcDbLine
10
7.5768
20
-1.5875
30
0
11
7.5768
21
-24.85
31
0
39
0
210
0
220
0
230
1
0
LINE
5
10C
100
AcDbEntity
8
0
62
256
6
ByLayer
370
-2
48
1
60
0
100
AcDbLine
10
17.5268
20
-22.85
30
0
11
42.669657
21
-22.85
31
0
39
0
210
0
220
0
230
1
0
LINE
5
10D
100
AcDbEntity
8
0
62
256
6
ByLayer
370
-2
48
1
60
0
100
AcDbLine
10
21.0268
20
-22.85
30
0
11
24.5268
21
-22.85
31
0
39
0
210
0
220
0
230
1
0
LINE
5
10E
100
AcDbEntity
8
0
62
256
6
ByLayer
370
-2
48
1
60
0
100
AcDbLine
10
4.0768
20
-22.85
30
0
11
0.5768
21
-22.85
31
0
39
0
210
0
220
0
230
1
0
SOLID
5
10F
100
AcDbEntity
8
0
62
256
6
ByLayer
370
-1
48
1
60
0
100
AcDbTrace
10
21.0268
20
-22.266667
30
0
11
21.0268
21
-23.433333
31
0
12
17.5268
22
-22.85
32
0
13
17.5268
23
-22.85
33
0
39
0
210
0
220
0
230
1
0
SOLID
5
110
100
AcDbEntity
8
0
62
256
6
ByLayer
370
-1
48
1
60
0
100
AcDbTrace
10
4.0768
20
-23.433333
30
0
11
4.0768
21
-22.266667
31
0
12
7.5768
22
-22.85
32
0
13
7.5768
23
-22.85
33
0
39
0
210
0
220
0
230
1
0
MTEXT
5
111
100
AcDbEntity
8
0
62
256
6
ByLayer
370
18
48
1
60
0
100
AcDbMText
10
33.598229
20
-16.85
30
0
210
0
220
0
230
1
1
\A1;9.95
40
3
41
0
44
1
50
0
71
5
72
5
7
iso_b_vert
0
POINT
5
112
100
AcDbEntity
8
Defpoints
62
0
6
ByLayer
370
-1
48
1
60
0
100
AcDbPoint
10
17.5268
20
1.35
30
0
39
0
210
0
220
0
230
1
50
360
0
POINT
5
113
100
AcDbEntity
8
Defpoints
62
0
6
ByLayer
370
-1
48
1
60
0
100
AcDbPoint
10
7.5768
20
0
30
0
39
0
210
0
220
0
230
1
50
360
0
POINT
5
114
100
AcDbEntity
8
Defpoints
62
0
6
ByLayer
370
-1
48
1
60
0
100
AcDbPoint
10
7.5768
20
-22.85
30
0
39
0
210
0
220
0
230
1
50
360
0
ENDBLK
5
109
100
AcDbEntity
8
0
100
AcDbBlockEnd
0
BLOCK
5
11C
100
AcDbEntity
8
0
100
AcDbBlockBegin
2
_U1
70
0
10
0
20
0
30
0
3
_U1
0
MTEXT
5
116
100
AcDbEntity
8
SK2
62
256
6
ByLayer
370
18
48
1
60
0
100
AcDbMText
10
21.6858
20
-21.964886
30
0
210
0
220
0
230
1
1
\W0.7051;(9.95)
40
3
41
0
44
1.084337
50
0
71
7
72
5
7
iso_b_vert
0
LINE
5
117
100
AcDbEntity
8
SK2
62
256
6
ByLayer
370
13
48
1
60
0
100
AcDbLine
10
17.5268
20
-0.2375
30
0
11
17.5268
21
-24.85
31
0
39
0
210
0
220
0
230
1
0
LINE
5
118
100
AcDbEntity
8
SK2
62
256
6
ByLayer
370
13
48
1
60
0
100
AcDbLine
10
7.5768
20
-1.5875
30
0
11
7.5768
21
-24.85
31
0
39
0
210
0
220
0
230
1
0
LINE
5
119
100
AcDbEntity
8
SK2
62
256
6
ByLayer
370
13
48
1
60
0
100
AcDbLine
10
7.5768
20
-22.85
30
0
11
30.998569
21
-22.85
31
0
39
0
210
0
220
0
230
1
0
SOLID
5
11A
100
AcDbEntity
8
SK2
62
256
6
ByLayer
370
18
48
1
60
0
100
AcDbTrace
10
17.5268
20
-22.85
30
0
11
14.026802
21
-23.310784
31
0
12
14.026798
22
-22.389216
32
0
13
14.026798
23
-22.389216
33
0
39
0
210
0
220
0
230
1
0
SOLID
5
11B
100
AcDbEntity
8
SK2
62
256
6
ByLayer
370
18
48
1
60
0
100
AcDbTrace
10
7.5768
20
-22.85
30
0
11
11.076798
21
-22.389216
31
0
12
11.076802
22
-23.310784
32
0
13
11.076802
23
-23.310784
33
0
39
0
210
0
220
0
230
1
0
ENDBLK
5
11D
100
AcDbEntity
8
0
100
AcDbBlockEnd
0
BLOCK
5
122
100
AcDbEntity
8
0
100
AcDbBlockBegin
2
*D5
70
1
10
0
20
0
30
0
3
*D5
0
LINE
5
124
100
AcDbEntity
8
0
62
256
6
ByLayer
370
-2
48
1
60
0
100
AcDbLine
10
17.5268
20
-0.2375
30
0
11
17.5268
21
-32.421842
31
0
39
0
210
0
220
0
230
1
0
LINE
5
125
100
AcDbEntity
8
0
62
256
6
ByLayer
370
-2
48
1
60
0
100
AcDbLine
10
3.5268
20
-1.5875
30
0
11
3.5268
21
-32.421842
31
0
39
0
210
0
220
0
230
1
0
LINE
5
126
100
AcDbEntity
8
0
62
256
6
ByLayer
370
-2
48
1
60
0
100
AcDbLine
10
21.0268
20
-30.421842
30
0
11
24.5268
21
-30.421842
31
0
39
0
210
0
220
0
230
1
0
LINE
5
127
100
AcDbEntity
8
0
62
256
6
ByLayer
370
-2
48
1
60
0
100
AcDbLine
10
0.0268
20
-30.421842
30
0
11
-3.4732
21
-30.421842
31
0
39
0
210
0
220
0
230
1
0
SOLID
5
128
100
AcDbEntity
8
0
62
256
6
ByLayer
370
-1
48
1
60
0
100
AcDbTrace
10
21.0268
20
-29.838508
30
0
11
21.0268
21
-31.005175
31
0
12
17.5268
22
-30.421842
32
0
13
17.5268
23
-30.421842
33
0
39
0
210
0
220
0
230
1
0
SOLID
5
129
100
AcDbEntity
8
0
62
256
6
ByLayer
370
-1
48
1
60
0
100
AcDbTrace
10
0.0268
20
-31.005175
30
0
11
0.0268
21
-29.838508
31
0
12
3.5268
22
-30.421842
32
0
13
3.5268
23
-30.421842
33
0
39
0
210
0
220
0
230
1
0
MTEXT
5
12A
100
AcDbEntity
8
0
62
256
6
ByLayer
370
18
48
1
60
0
100
AcDbMText
10
10.5268
20
-24.421842
30
0
210
0
220
0
230
1
1
\A1;14
40
3
41
0
44
1
50
0
71
5
72
5
7
iso_b_vert
0
POINT
5
12B
100
AcDbEntity
8
Defpoints
62
0
6
ByLayer
370
-1
48
1
60
0
100
AcDbPoint
10
17.5268
20
1.35
30
0
39
0
210
0
220
0
230
1
50
360
0
POINT
5
12C
100
AcDbEntity
8
Defpoints
62
0
6
ByLayer
370
-1
48
1
60
0
100
AcDbPoint
10
3.5268
20
0
30
0
39
0
210
0
220
0
230
1
50
360
0
POINT
5
12D
100
AcDbEntity
8
Defpoints
62
0
6
ByLayer
370
-1
48
1
60
0
100
AcDbPoint
10
3.5268
20
-30.421842
30
0
39
0
210
0
220
0
230
1
50
360
0
ENDBLK
5
123
100
AcDbEntity
8
0
100
AcDbBlockEnd
0
BLOCK
5
135
100
AcDbEntity
8
0
100
AcDbBlockBegin
2
_U2
70
0
10
0
20
0
30
0
3
_U2
0
MTEXT
5
12F
100
AcDbEntity
8
SK2
62
256
6
ByLayer
370
18
48
1
60
0
100
AcDbMText
10
6.261429
20
-29.536727
30
0
210
0
220
0
230
1
1
\W0.7091;14.00
40
3
41
0
44
1.084337
50
0
71
7
72
5
7
iso_b_vert
0
LINE
5
130
100
AcDbEntity
8
SK2
62
256
6
ByLayer
370
13
48
1
60
0
100
AcDbLine
10
17.5268
20
-0.2375
30
0
11
17.5268
21
-32.421842
31
0
39
0
210
0
220
0
230
1
0
LINE
5
131
100
AcDbEntity
8
SK2
62
256
6
ByLayer
370
13
48
1
60
0
100
AcDbLine
10
3.5268
20
-1.5875
30
0
11
3.5268
21
-32.421842
31
0
39
0
210
0
220
0
230
1
0
LINE
5
132
100
AcDbEntity
8
SK2
62
256
6
ByLayer
370
13
48
1
60
0
100
AcDbLine
10
17.5268
20
-30.421842
30
0
11
3.5268
21
-30.421842
31
0
39
0
210
0
220
0
230
1
0
SOLID
5
133
100
AcDbEntity
8
SK2
62
256
6
ByLayer
370
18
48
1
60
0
100
AcDbTrace
10
17.5268
20
-30.421842
30
0
11
14.026802
21
-30.882625
31
0
12
14.026798
22
-29.961058
32
0
13
14.026798
23
-29.961058
33
0
39
0
210
0
220
0
230
1
0
SOLID
5
134
100
AcDbEntity
8
SK2
62
256
6
ByLayer
370
18
48
1
60
0
100
AcDbTrace
10
3.5268
20
-30.421842
30
0
11
7.026798
21
-29.961058
31
0
12
7.026802
22
-30.882625
32
0
13
7.026802
23
-30.882625
33
0
39
0
210
0
220
0
230
1
0
ENDBLK
5
136
100
AcDbEntity
8
0
100
AcDbBlockEnd
0
BLOCK
5
13B
100
AcDbEntity
8
0
100
AcDbBlockBegin
2
*D7
70
1
10
0
20
0
30
0
3
*D7
0
LINE
5
13D
100
AcDbEntity
8
0
62
256
6
ByLayer
370
-2
48
1
60
0
100
AcDbLine
10
-20.4732
20
1.5875
30
0
11
-20.4732
21
13.421842
31
0
39
0
210
0
220
0
230
1
0
LINE
5
13E
100
AcDbEntity
8
0
62
256
6
ByLayer
370
-2
48
1
60
0
100
AcDbLine
10
0
20
1.5875
30
0
11
0
21
13.421842
31
0
39
0
210
0
220
0
230
1
0
LINE
5
13F
100
AcDbEntity
8
0
62
256
6
ByLayer
370
-2
48
1
60
0
100
AcDbLine
10
-16.9732
20
11.421842
30
0
11
-3.5
21
11.421842
31
0
39
0
210
0
220
0
230
1
0
SOLID
5
140
100
AcDbEntity
8
0
62
256
6
ByLayer
370
-1
48
1
60
0
100
AcDbTrace
10
-16.9732
20
12.005175
30
0
11
-16.9732
21
10.838508
31
0
12
-20.4732
22
11.421842
32
0
13
-20.4732
23
11.421842
33
0
39
0
210
0
220
0
230
1
0
SOLID
5
141
100
AcDbEntity
8
0
62
256
6
ByLayer
370
-1
48
1
60
0
100
AcDbTrace
10
-3.5
20
10.838508
30
0
11
-3.5
21
12.005175
31
0
12
0
22
11.421842
32
0
13
0
23
11.421842
33
0
39
0
210
0
220
0
230
1
0
MTEXT
5
142
100
AcDbEntity
8
0
62
256
6
ByLayer
370
18
48
1
60
0
100
AcDbMText
10
-10.2366
20
17.421842
30
0
210
0
220
0
230
1
1
\A1;20.47
40
3
41
0
44
1
50
0
71
5
72
5
7
iso_b_vert
0
POINT
5
143
100
AcDbEntity
8
Defpoints
62
0
6
ByLayer
370
-1
48
1
60
0
100
AcDbPoint
10
-20.4732
20
0
30
0
39
0
210
0
220
0
230
1
50
360
0
POINT
5
144
100
AcDbEntity
8
Defpoints
62
0
6
ByLayer
370
-1
48
1
60
0
100
AcDbPoint
10
0
20
0
30
0
39
0
210
0
220
0
230
1
50
360
0
POINT
5
145
100
AcDbEntity
8
Defpoints
62
0
6
ByLayer
370
-1
48
1
60
0
100
AcDbPoint
10
0
20
11.421842
30
0
39
0
210
0
220
0
230
1
50
360
0
ENDBLK
5
13C
100
AcDbEntity
8
0
100
AcDbBlockEnd
0
BLOCK
5
14D
100
AcDbEntity
8
0
100
AcDbBlockBegin
2
_U3
70
0
10
0
20
0
30
0
3
_U3
0
MTEXT
5
147
100
AcDbEntity
8
SK2
62
256
6
ByLayer
370
18
48
1
60
0
100
AcDbMText
10
-14.876913
20
12.306956
30
0
210
0
220
0
230
1
1
\W0.7694;20.47
40
3
41
0
44
1.084337
50
0
71
7
72
5
7
iso_b_vert
0
LINE
5
148
100
AcDbEntity
8
SK2
62
256
6
ByLayer
370
13
48
1
60
0
100
AcDbLine
10
-20.4732
20
1.5875
30
0
11
-20.4732
21
13.421842
31
0
39
0
210
0
220
0
230
1
0
LINE
5
149
100
AcDbEntity
8
SK2
62
256
6
ByLayer
370
13
48
1
60
0
100
AcDbLine
10
0
20
1.5875
30
0
11
0
21
13.421842
31
0
39
0
210
0
220
0
230
1
0
LINE
5
14A
100
AcDbEntity
8
SK2
62
256
6
ByLayer
370
13
48
1
60
0
100
AcDbLine
10
-20.4732
20
11.421842
30
0
11
0
21
11.421842
31
0
39
0
210
0
220
0
230
1
0
SOLID
5
14B
100
AcDbEntity
8
SK2
62
256
6
ByLayer
370
18
48
1
60
0
100
AcDbTrace
10
-20.4732
20
11.421842
30
0
11
-16.973202
21
11.882625
31
0
12
-16.973198
22
10.961058
32
0
13
-16.973198
23
10.961058
33
0
39
0
210
0
220
0
230
1
0
SOLID
5
14C
100
AcDbEntity
8
SK2
62
256
6
ByLayer
370
18
48
1
60
0
100
AcDbTrace
10
0
20
11.421842
30
0
11
-3.499998
21
10.961058
31
0
12
-3.500002
22
11.882625
32
0
13
-3.500002
23
11.882625
33
0
39
0
210
0
220
0
230
1
0
ENDBLK
5
14E
100
AcDbEntity
8
0
100
AcDbBlockEnd
0
BLOCK
5
153
100
AcDbEntity
8
0
100
AcDbBlockBegin
2
*D9
70
1
10
0
20
0
30
0
3
*D9
0
LINE
5
155
100
AcDbEntity
8
0
62
256
6
ByLayer
370
-2
48
1
60
0
100
AcDbLine
10
17.5268
20
2.9375
30
0
11
17.5268
21
13.421842
31
0
39
0
210
0
220
0
230
1
0
LINE
5
156
100
AcDbEntity
8
0
62
256
6
ByLayer
370
-2
48
1
60
0
100
AcDbLine
10
0
20
1.5875
30
0
11
0
21
13.421842
31
0
39
0
210
0
220
0
230
1
0
LINE
5
157
100
AcDbEntity
8
0
62
256
6
ByLayer
370
-2
48
1
60
0
100
AcDbLine
10
14.0268
20
11.421842
30
0
11
3.5
21
11.421842
31
0
39
0
210
0
220
0
230
1
0
SOLID
5
158
100
AcDbEntity
8
0
62
256
6
ByLayer
370
-1
48
1
60
0
100
AcDbTrace
10
14.0268
20
10.838508
30
0
11
14.0268
21
12.005175
31
0
12
17.5268
22
11.421842
32
0
13
17.5268
23
11.421842
33
0
39
0
210
0
220
0
230
1
0
SOLID
5
159
100
AcDbEntity
8
0
62
256
6
ByLayer
370
-1
48
1
60
0
100
AcDbTrace
10
3.5
20
12.005175
30
0
11
3.5
21
10.838508
31
0
12
0
22
11.421842
32
0
13
0
23
11.421842
33
0
39
0
210
0
220
0
230
1
0
MTEXT
5
15A
100
AcDbEntity
8
0
62
256
6
ByLayer
370
18
48
1
60
0
100
AcDbMText
10
8.7634
20
17.421842
30
0
210
0
220
0
230
1
1
\A1;17.53
40
3
41
0
44
1
50
0
71
5
72
5
7
iso_b_vert
0
POINT
5
15B
100
AcDbEntity
8
Defpoints
62
0
6
ByLayer
370
-1
48
1
60
0
100
AcDbPoint
10
17.5268
20
1.35
30
0
39
0
210
0
220
0
230
1
50
360
0
POINT
5
15C
100
AcDbEntity
8
Defpoints
62
0
6
ByLayer
370
-1
48
1
60
0
100
AcDbPoint
10
0
20
0
30
0
39
0
210
0
220
0
230
1
50
360
0
POINT
5
15D
100
AcDbEntity
8
Defpoints
62
0
6
ByLayer
370
-1
48
1
60
0
100
AcDbPoint
10
0
20
11.421842
30
0
39
0
210
0
220
0
230
1
50
360
0
ENDBLK
5
154
100
AcDbEntity
8
0
100
AcDbBlockEnd
0
BLOCK
5
165
100
AcDbEntity
8
0
100
AcDbBlockBegin
2
_U4
70
0
10
0
20
0
30
0
3
_U4
0
MTEXT
5
15F
100
AcDbEntity
8
2
62
256
6
ByLayer
370
18
48
1
60
0
100
AcDbMText
10
4.655972
20
12.306956
30
0
210
0
220
0
230
1
1
\W0.6864;17.53
40
3
41
0
44
1.084337
50
0
71
7
72
5
7
iso_b_vert
0
LINE
5
160
100
AcDbEntity
8
2
62
256
6
ByLayer
370
13
48
1
60
0
100
AcDbLine
10
17.5268
20
2.9375
30
0
11
17.5268
21
13.421842
31
0
39
0
210
0
220
0
230
1
0
LINE
5
161
100
AcDbEntity
8
2
62
256
6
ByLayer
370
13
48
1
60
0
100
AcDbLine
10
0
20
1.5875
30
0
11
0
21
13.421842
31
0
39
0
210
0
220
0
230
1
0
LINE
5
162
100
AcDbEntity
8
2
62
256
6
ByLayer
370
13
48
1
60
0
100
AcDbLine
10
17.5268
20
11.421842
30
0
11
0
21
11.421842
31
0
39
0
210
0
220
0
230
1
0
SOLID
5
163
100
AcDbEntity
8
2
62
256
6
ByLayer
370
18
48
1
60
0
100
AcDbTrace
10
17.5268
20
11.421842
30
0
11
14.026802
21
10.961058
31
0
12
14.026798
22
11.882625
32
0
13
14.026798
23
11.882625
33
0
39
0
210
0
220
0
230
1
0
SOLID
5
164
100
AcDbEntity
8
2
62
256
6
ByLayer
370
18
48
1
60
0
100
AcDbTrace
10
0
20
11.421842
30
0
11
3.499998
21
11.882625
31
0
12
3.500002
22
10.961058
32
0
13
3.500002
23
10.961058
33
0
39
0
210
0
220
0
230
1
0
ENDBLK
5
166
100
AcDbEntity
8
0
100
AcDbBlockEnd
0
ENDSEC
0
SECTION
2
ENTITIES
0
ARC
5
B5
100
AcDbEntity
8
1
62
256
6
ByLayer
370
18
48
1
60
0
100
AcDbCircle
39
0
10
0.52587
20
-2.35
30
0
40
1
210
0
220
0
230
1
100
AcDbArc
50
90
51
121.726821
0
ARC
5
B6
100
AcDbEntity
8
1
62
256
6
ByLayer
370
18
48
1
60
0
100
AcDbCircle
39
0
10
0.52587
20
2.35
30
0
40
1
210
0
220
0
230
1
100
AcDbArc
50
238.273179
51
270
0
ARC
5
B7
100
AcDbEntity
8
SK1
62
256
6
ByLayer
370
18
48
1
60
0
100
AcDbCircle
39
0
10
0.52587
20
-2.35
30
0
40
1
210
0
220
0
230
1
100
AcDbArc
50
121.726821
51
121.788331
0
ARC
5
B8
100
AcDbEntity
8
SK1
62
256
6
ByLayer
370
18
48
1
60
0
100
AcDbCircle
39
0
10
0.52587
20
2.35
30
0
40
1
210
0
220
0
230
1
100
AcDbArc
50
238.211669
51
238.273179
0
ARC
5
B9
100
AcDbEntity
8
SK2
62
256
6
ByLayer
370
13
48
1
60
0
100
AcDbCircle
39
0
10
17.5268
20
0
30
0
40
16.35
210
0
220
0
230
1
100
AcDbArc
50
10.57289
51
65
0
ARC
5
BA
100
AcDbEntity
8
SK2
62
256
6
ByLayer
370
13
48
1
60
0
100
AcDbCircle
39
0
10
17.5268
20
0
30
0
40
16.35
210
0
220
0
230
1
100
AcDbArc
50
295
51
349.42711
0
ELLIPSE
5
BB
100
AcDbEntity
8
1
62
256
6
ByLayer
370
18
48
1
60
0
100
AcDbEllipse
10
5.03178
20
-0.062333
30
0
11
-2.04583790133487
21
1.18147995979436
31
0
210
0
220
0
230
1
40
0.019993
41
-1.55925054266084
42
-0.760563122563156
0
POINT
5
70
100
AcDbEntity
8
80
62
256
6
ByLayer
370
18
48
1
60
0
100
AcDbPoint
10
0
20
0
30
0
39
0
210
0
220
0
230
1
50
360
0
POINT
5
72
100
AcDbEntity
8
81
62
256
6
ByLayer
370
18
48
1
60
0
100
AcDbPoint
10
17.5268
20
0
30
0
39
0
210
0
220
0
230
1
50
360
0
POINT
5
74
100
AcDbEntity
8
1
62
256
6
ByLayer
370
18
48
1
60
1
100
AcDbPoint
10
-20.4732
20
1.5
30
0
39
0
210
0
220
0
230
1
50
360
0
POINT
5
76
100
AcDbEntity
8
1
62
256
6
ByLayer
370
18
48
1
60
1
100
AcDbPoint
10
17.5268
20
1.35
30
0
39
0
210
0
220
0
230
1
50
360
0
POINT
5
77
100
AcDbEntity
8
1
62
256
6
ByLayer
370
18
48
1
60
1
100
AcDbPoint
10
17.5268
20
1.35
30
0
39
0
210
0
220
0
230
1
50
360
0
POINT
5
78
100
AcDbEntity
8
1
62
256
6
ByLayer
370
18
48
1
60
1
100
AcDbPoint
10
7.5768
20
0
30
0
39
0
210
0
220
0
230
1
50
360
0
POINT
5
79
100
AcDbEntity
8
1
62
256
6
ByLayer
370
18
48
1
60
1
100
AcDbPoint
10
17.5268
20
1.35
30
0
39
0
210
0
220
0
230
1
50
360
0
POINT
5
7A
100
AcDbEntity
8
1
62
256
6
ByLayer
370
18
48
1
60
1
100
AcDbPoint
10
3.5268
20
0
30
0
39
0
210
0
220
0
230
1
50
360
0
POINT
5
7B
100
AcDbEntity
8
1
62
256
6
ByLayer
370
18
48
1
60
1
100
AcDbPoint
10
-20.4732
20
0
30
0
39
0
210
0
220
0
230
1
50
360
0
POINT
5
7C
100
AcDbEntity
8
1
62
256
6
ByLayer
370
18
48
1
60
1
100
AcDbPoint
10
0
20
0
30
0
39
0
210
0
220
0
230
1
50
360
0
POINT
5
7D
100
AcDbEntity
8
1
62
256
6
ByLayer
370
18
48
1
60
1
100
AcDbPoint
10
17.5268
20
1.35
30
0
39
0
210
0
220
0
230
1
50
360
0
POINT
5
7E
100
AcDbEntity
8
1
62
256
6
ByLayer
370
18
48
1
60
1
100
AcDbPoint
10
0
20
0
30
0
39
0
210
0
220
0
230
1
50
360
0
SPLINE
5
BC
100
AcDbEntity
8
1
62
256
6
ByLayer
370
18
48
1
60
0
100
AcDbSpline
70
4
71
3
72
29
73
25
40
0
40
0
40
0
40
0
40
0.062500000000001
40
0.125000000000002
40
0.125000000000002
40
0.187500000000003
40
0.187500000000003
40
0.250000000000004
40
0.250000000000004
40
0.375000000000005
40
0.375000000000005
40
0.500000000000007
40
0.500000000000007
40
0.625000000000008
40
0.625000000000008
40
0.75000000000001
40
0.75000000000001
40
0.812500000000007
40
0.812500000000007
40
0.875000000000005
40
0.875000000000005
40
0.937500000000002
40
0.937500000000002
40
1
40
1
40
1
40
1
41
1
10
16.8972846614908
20
0.684067383470079
30
0
41
1
10
16.9078488009904
20
0.669093977260388
30
0
41
1
10
16.9289898893647
20
0.642080968625947
30
0
41
1
10
16.9501674493914
20
0.61861258030504
30
0
41
1
10
16.9713545454098
20
0.595934909657814
30
0
41
1
10
16.9819525315714
20
0.584987803173163
30
0
41
1
10
17.0031482627025
20
0.563102144683512
30
0
41
1
10
17.0137465925708
20
0.552209338959699
30
0
41
1
10
17.0455465259948
20
0.520110003760692
30
0
41
1
10
17.0666896510935
20
0.499582120956575
30
0
41
1
10
17.1086528685696
20
0.462028091837397
30
0
41
1
10
17.1294842025085
20
0.444931003062663
30
0
41
1
10
17.1707811241051
20
0.413435778911918
30
0
41
1
10
17.1912537450954
20
0.399012687160109
30
0
41
1
10
17.2315824326371
20
0.372757668584029
30
0
41
1
10
17.2514464630989
20
0.360979393094198
30
0
41
1
10
17.280268089221
20
0.345461743855225
30
0
41
1
10
17.2897094514339
20
0.340643013128897
30
0
41
1
10
17.3080887798692
20
0.331713417231157
30
0
41
1
10
17.3170275017698
20
0.327603899834827
30
0
41
1
10
17.3340164259529
20
0.320141120954474
30
0
41
1
10
17.3420826435351
20
0.31678110190461
30
0
41
1
10
17.3569053784675
20
0.310802118005995
30
0
41
1
10
17.3636636404036
20
0.308183211367549
30
0
41
1
10
17.3694212240318
20
0.305934406790925
30
0
0
SPLINE
5
BD
100
AcDbEntity
8
1
62
256
6
ByLayer
370
18
48
1
60
0
100
AcDbSpline
70
4
71
3
72
30
73
26
40
0
40
0
40
0
40
0
40
0.102632531579654
40
0.102632531579654
40
0.205265063159309
40
0.205265063159309
40
0.307897594738963
40
0.307897594738963
40
0.359213860528791
40
0.359213860528791
40
0.410530126318618
40
0.410530126318618
40
0.513162657898274
40
0.513162657898274
40
0.564478923688103
40
0.564478923688103
40
0.615795189477931
40
0.615795189477931
40
0.718427721057588
40
0.718427721057588
40
0.769743986847416
40
0.769743986847416
40
0.821060252637244
40
0.821060252637244
40
1
40
1
40
1
40
1
41
1
10
5.03178
20
-0.846041848342765
30
0
41
1
10
5.15574756538865
20
-0.901922864446419
30
0
41
1
10
5.2795062486743
20
-0.953977513885519
30
0
41
1
10
5.52721282046409
20
-1.04975631759649
30
0
41
1
10
5.65133437574585
20
-1.09353410271234
30
0
41
1
10
5.89866364854447
20
-1.17139890177157
30
0
41
1
10
6.02218426253339
20
-1.20542966821836
30
0
41
1
10
6.20773781485332
20
-1.24877351922763
30
0
41
1
10
6.26963220909207
20
-1.26193854745651
30
0
41
1
10
6.39358248538193
20
-1.28563436937407
30
0
41
1
10
6.45558408657982
20
-1.2961539343093
30
0
41
1
10
6.64116649714822
20
-1.32354426554255
30
0
41
1
10
6.764709270661
20
-1.33624011912704
30
0
41
1
10
6.95021936751397
20
-1.34686723742399
30
0
41
1
10
7.01208727655717
20
-1.34900569827011
30
0
41
1
10
7.13596625325007
20
-1.35044626620206
30
0
41
1
10
7.19799749753949
20
-1.34974360395631
30
0
41
1
10
7.3836520228908
20
-1.34336853911898
30
0
41
1
10
7.50719846894398
20
-1.33345876576089
30
0
41
1
10
7.69266764191016
20
-1.31031088934503
30
0
41
1
10
7.75451317500986
20
-1.30121240327156
30
0
41
1
10
7.87832870201996
20
-1.28026880294152
30
0
41
1
10
7.94039023747672
20
-1.26839496606217
30
0
41
1
10
8.21787854978538
20
-1.20934100027623
30
0
41
1
10
8.43151102836009
20
-1.14810826044274
30
0
41
1
10
8.64473324906183
20
-1.07339222090695
30
0
0
SPLINE
5
BE
100
AcDbEntity
8
1
62
256
6
ByLayer
370
18
48
1
60
0
100
AcDbSpline
70
4
71
3
72
44
73
40
40
0
40
0
40
0
40
0
40
0.0850870175416338
40
0.0850870175416338
40
0.161329766079832
40
0.161329766079832
40
0.23757251461803
40
0.23757251461803
40
0.390058011694432
40
0.390058011694432
40
0.466300760232631
40
0.466300760232631
40
0.504422134501727
40
0.504422134501727
40
0.542543508770823
40
0.542543508770823
40
0.695029005847213
40
0.695029005847213
40
0.771271754385408
40
0.771271754385408
40
0.847514502923603
40
0.847514502923603
40
0.8856358771927
40
0.8856358771927
40
0.904696564327249
40
0.904696564327249
40
0.923757251461798
40
0.923757251461798
40
0.942817938596347
40
0.942817938596347
40
0.952348282163624
40
0.952348282163624
40
0.961878625730902
40
0.961878625730902
40
0.980939312865451
40
0.980939312865451
40
0.990469656432726
40
0.990469656432726
40
1
40
1
40
1
40
1
41
1
10
14.4659921397141
20
1.35000096615681
30
0
41
1
10
14.5349860427911
20
1.35001695846097
30
0
41
1
10
14.603930327204
20
1.34826995718194
30
0
41
1
10
14.7346649369898
20
1.34161369488911
30
0
41
1
10
14.796483542278
20
1.33705463721262
30
0
41
1
10
14.9203056753038
20
1.32513490646463
30
0
41
1
10
14.9823641508581
20
1.31776120904172
30
0
41
1
10
15.1682240617647
20
1.29154567709941
30
0
41
1
10
15.2917962630482
20
1.26861517160702
30
0
41
1
10
15.4771332425566
20
1.22631581123986
30
0
41
1
10
15.538943591356
20
1.21092141801947
30
0
41
1
10
15.6317747834445
20
1.18594107252201
30
0
41
1
10
15.6627371151066
20
1.17729894737471
30
0
41
1
10
15.7247084126339
20
1.15939044956289
30
0
41
1
10
15.7557375047822
20
1.15011759540926
30
0
41
1
10
15.9106709923705
20
1.10231605373932
30
0
41
1
10
16.0340485125451
20
1.05944500014132
30
0
41
1
10
16.2187511838304
20
0.988783838908716
30
0
41
1
10
16.28028751758
20
0.964204011721534
30
0
41
1
10
16.4034036047991
20
0.913132169418134
30
0
41
1
10
16.4649505725141
20
0.886597207394772
30
0
41
1
10
16.5574130299035
20
0.845505050158152
30
0
41
1
10
16.5883107981856
20
0.831668563092222
30
0
41
1
10
16.6344881112753
20
0.810303775429475
30
0
41
1
10
16.6498241324277
20
0.803039635288712
30
0
41
1
10
16.6805033862977
20
0.788391246916547
30
0
41
1
10
16.6959257059843
20
0.78111935176841
30
0
41
1
10
16.7272189772559
20
0.767109964974424
30
0
41
1
10
16.7430024627598
20
0.760249117547858
30
0
41
1
10
16.7663822368133
20
0.749435724904174
30
0
41
1
10
16.7741263214879
20
0.745743830325466
30
0
41
1
10
16.789444284413
20
0.738073309140901
30
0
41
1
10
16.7970051260122
20
0.734075022339027
30
0
41
1
10
16.8194556787108
20
0.721673542628309
30
0
41
1
10
16.8341785620297
20
0.712955402006997
30
0
41
1
10
16.8569452157878
20
0.700805440861217
30
0
41
1
10
16.8646473716753
20
0.696910458913493
30
0
41
1
10
16.8805210317066
20
0.689817202670952
30
0
41
1
10
16.8886958655447
20
0.686624112217316
30
0
41
1
10
16.8972846614908
20
0.684067383470079
30
0
0
SPLINE
5
BF
100
AcDbEntity
8
1
62
256
6
ByLayer
370
18
48
1
60
0
100
AcDbSpline
70
4
71
3
72
29
73
25
40
0
40
0
40
0
40
0
40
0.0262549878685685
40
0.0262549878685685
40
0.0525099757371369
40
0.0525099757371369
40
0.105019951474257
40
0.105019951474257
40
0.131274939342817
40
0.131274939342817
40
0.157529927211377
40
0.210039902948496
40
0.210039902948496
40
0.262549878685616
40
0.262549878685616
40
0.315059854422735
40
0.315059854422735
40
0.420079805896993
40
0.420079805896993
40
0.630119708845524
40
0.630119708845524
40
0.840159611794056
40
0.840159611794056
40
1
40
1
40
1
40
1
41
1
10
16.8972846614908
20
1.3014447753101
30
0
41
1
10
16.8887479851761
20
1.30066159191526
30
0
41
1
10
16.8806065919165
20
1.29967192291497
30
0
41
1
10
16.8647807584813
20
1.2974213254482
30
0
41
1
10
16.8570928461762
20
1.29616210437499
30
0
41
1
10
16.8343531523124
20
1.29213886019517
30
0
41
1
10
16.8196362228888
20
1.28912422167483
30
0
41
1
10
16.7971874280202
20
1.28464055763007
30
0
41
1
10
16.7896232057552
20
1.28316257098925
30
0
41
1
10
16.7742856597384
20
1.28027364827887
30
0
41
1
10
16.7510073383063
20
1.27601821455798
30
0
41
1
10
16.7272494060248
20
1.2718550361476
30
0
41
1
10
16.695845647029
20
1.26599871183922
30
0
41
1
10
16.6803719390603
20
1.26285981469974
30
0
41
1
10
16.6495803311446
20
1.25631037723843
30
0
41
1
10
16.634180028337
20
1.25295108799395
30
0
41
1
10
16.5877845105788
20
1.24274265947031
30
0
41
1
10
16.5567307233194
20
1.23569869135281
30
0
41
1
10
16.463870538818
20
1.21349679678266
30
0
41
1
10
16.4021068910827
20
1.19740122724821
30
0
41
1
10
16.2786569428041
20
1.16279582981369
30
0
41
1
10
16.2170028227204
20
1.14426058985862
30
0
41
1
10
16.1084603365376
20
1.10953243936808
30
0
41
1
10
16.0615473634595
20
1.09385600442857
30
0
41
1
10
16.0146093359048
20
1.07752918538586
30
0
0
SPLINE
5
C0
100
AcDbEntity
8
1
62
256
6
ByLayer
370
18
48
1
60
0
100
AcDbSpline
70
4
71
3
72
44
73
40
40
0
40
0
40
0
40
0
40
0.0283226248083531
40
0.0283226248083531
40
0.0643106757413759
40
0.0643106757413759
40
0.136286777607423
40
0.136286777607423
40
0.172274828540447
40
0.172274828540447
40
0.208262879473471
40
0.208262879473471
40
0.280238981339518
40
0.280238981339518
40
0.316227032272542
40
0.316227032272542
40
0.352215083205565
40
0.352215083205565
40
0.424191185071612
40
0.424191185071612
40
0.460179236004635
40
0.460179236004635
40
0.496167286937659
40
0.496167286937659
40
0.568143388803706
40
0.568143388803706
40
0.60413143973673
40
0.60413143973673
40
0.640119490669754
40
0.640119490669754
40
0.712095592535802
40
0.712095592535802
40
0.748083643468827
40
0.748083643468827
40
0.784071694401852
40
0.784071694401852
40
0.856047796267902
40
0.856047796267902
40
1
40
1
40
1
40
1
41
1
10
10.1808161320486
20
-1.34999987283706
30
0
41
1
10
10.1320876927549
20
-1.35000403630639
30
0
41
1
10
10.0833887053114
20
-1.34912681212339
30
0
41
1
10
9.97289653655346
20
-1.34515446961584
30
0
41
1
10
9.91111327905239
20
-1.34152318202928
30
0
41
1
10
9.7257887677896
20
-1.32644284461898
30
0
41
1
10
9.60228243528857
20
-1.31080919270892
30
0
41
1
10
9.41660201285984
20
-1.27905385917302
30
0
41
1
10
9.35463588301371
20
-1.26710409963923
30
0
41
1
10
9.23093945787201
20
-1.24063941343229
30
0
41
1
10
9.16914573982021
20
-1.22611331601561
30
0
41
1
10
8.98381716978281
20
-1.17875373603016
30
0
41
1
10
8.86034179090331
20
-1.142136822238
30
0
41
1
10
8.67475584215217
20
-1.07999438643174
30
0
41
1
10
8.61275506118324
20
-1.058094540414
30
0
41
1
10
8.48899277874432
20
-1.01224640993721
30
0
41
1
10
8.42717670749951
20
-0.988275640668434
30
0
41
1
10
8.24180804433669
20
-0.913377842081843
30
0
41
1
10
8.11835164437397
20
-0.85944686391872
30
0
41
1
10
7.9328453298022
20
-0.773158766728329
30
0
41
1
10
7.8708621310133
20
-0.743499381224126
30
0
41
1
10
7.74704185589317
20
-0.682813319883081
30
0
41
1
10
7.68520763135129
20
-0.651776420780067
30
0
41
1
10
7.49981405475421
20
-0.556777012542568
30
0
41
1
10
7.37637525796742
20
-0.490909528012423
30
0
41
1
10
7.19095955288489
20
-0.38906911855392
30
0
41
1
10
7.12903463623465
20
-0.354639132028865
30
0
41
1
10
7.0051395142946
20
-0.285168151691039
30
0
41
1
10
6.94327747190297
20
-0.250165229068159
30
0
41
1
10
6.75782601306366
20
-0.144566467259296
30
0
41
1
10
6.63438008501674
20
-0.0733658470741148
30
0
41
1
10
6.44901889230457
20
0.0338179351833503
30
0
41
1
10
6.38716328105957
20
0.0695460530103844
30
0
41
1
10
6.26322875684801
20
0.140852303817496
30
0
41
1
10
6.20136712972518
20
0.176309892348229
30
0
41
1
10
6.01622306582746
20
0.281777002679718
30
0
41
1
10
5.8932885280081
20
0.350959047493063
30
0
41
1
10
5.52498517949238
20
0.553473348362218
30
0
41
1
10
5.27955160408035
20
0.680863382746793
30
0
41
1
10
5.03178
20
0.796578871016578
30
0
0
SPLINE
5
C1
100
AcDbEntity
8
1
62
256
6
ByLayer
370
18
48
1
60
0
100
AcDbSpline
70
4
71
3
72
27
73
23
40
0
40
0
40
0
40
0
40
0.102630338546767
40
0.141116715501805
40
0.179603092456843
40
0.230918261730227
40
0.28223343100361
40
0.333548600276994
40
0.384863769550377
40
0.436178938823761
40
0.461836523460453
40
0.513151692733837
40
0.56446686200722
40
0.615782031280604
40
0.667097200553988
40
0.718412369827371
40
0.756898746782409
40
0.795385123737447
40
0.846700293010831
40
0.898015462284214
40
0.949330631557598
40
1
40
1
40
1
40
1
41
1
10
5.03178
20
-0.0077916733894199
30
0
41
1
10
5.09685724101533
20
-0.0172002910943547
30
0
41
1
10
5.18633809224326
20
-0.0301054511134567
30
0
41
1
10
5.30022259763464
20
-0.0464147264995063
30
0
41
1
10
5.38156864892065
20
-0.0580104603450877
30
0
41
1
10
5.47104935078474
20
-0.0706851941465629
30
0
41
1
10
5.56866484581855
20
-0.0843936480486605
30
0
41
0.999999999999999
10
5.6662806507822
20
-0.0979625596268932
30
0
41
1
10
5.7638968959057
20
-0.111378399329169
30
0
41
1
10
5.8452442262419
20
-0.122403786648306
30
0
41
1
10
5.92659204267158
20
-0.133275343841262
30
0
41
1
10
6.00794011710187
20
-0.143995544790727
30
0
41
1
10
6.1055577425931
20
-0.156603588606828
30
0
41
1
10
6.20317538094591
20
-0.168936315707157
30
0
41
1
10
6.30079301594341
20
-0.18097761504336
30
0
41
1
10
6.39027584906017
20
-0.191733260122419
30
0
41
1
10
6.47162387880019
20
-0.201274164956118
30
0
41
1
10
6.55297190865875
20
-0.210607446504241
30
0
41
1
10
6.64245474147302
20
-0.220567383703212
30
0
41
1
10
6.74007237727736
20
-0.231038280867324
30
0
41
1
10
6.83728050746202
20
-0.241059351083152
30
0
41
1
10
6.9019494257129
20
-0.247449049727436
30
0
41
1
10
6.93407913202915
20
-0.250553260346663
30
0
0
SPLINE
5
C2
100
AcDbEntity
8
1
62
256
6
ByLayer
370
18
48
1
60
0
100
AcDbSpline
70
4
71
3
72
26
73
22
40
0
40
0
40
0
40
0
40
0.0625
40
0.0625
40
0.125
40
0.125
40
0.25
40
0.25
40
0.375
40
0.375
40
0.5
40
0.5
40
0.625
40
0.625
40
0.75
40
0.75
40
0.8125
40
0.8125
40
0.875
40
0.875
40
1
40
1
40
1
40
1
41
1
10
17.3694212240318
20
0.305934406790925
30
0
41
1
10
17.3636775193317
20
0.32619527394715
30
0
41
1
10
17.3569570083369
20
0.346322118969539
30
0
41
1
10
17.3422585939549
20
0.386472567384715
30
0
41
1
10
17.3342782146849
20
0.406495885168937
30
0
41
1
10
17.3091105700101
20
0.466575457685906
30
0
41
1
10
17.2907397164704
20
0.50665320412412
30
0
41
1
10
17.2525832796424
20
0.587287568991314
30
0
41
1
10
17.2327650235623
20
0.627826411304284
30
0
41
1
10
17.1924629332323
20
0.709351029018364
30
0
41
1
10
17.1719444369877
20
0.75039142345878
30
0
41
1
10
17.1304979576176
20
0.833115119321775
30
0
41
1
10
17.1095697181821
20
0.874785169921097
30
0
41
1
10
17.0675108589715
20
0.958507792860672
30
0
41
1
10
17.0463872556627
20
1.0005148565283
30
0
41
1
10
17.0145762409198
20
1.06419083555346
30
0
41
1
10
17.0039500580419
20
1.08553258455714
30
0
41
1
10
16.9826464269552
20
1.12856850773562
30
0
41
1
10
16.9719664697867
20
1.15028513851522
30
0
41
1
10
16.9399078546532
20
1.21556747935759
30
0
41
1
10
16.9185125073832
20
1.25929011879469
30
0
41
1
10
16.8972846614905
20
1.3014447753105
30
0
0
SPLINE
5
C3
100
AcDbEntity
8
1
62
256
6
ByLayer
370
18
48
1
60
0
100
AcDbSpline
70
4
71
3
72
85
73
81
40
0
40
0
40
0
40
0
40
0.0028092412752337
40
0.0028092412752337
40
0.0056184825504673
40
0.0056184825504673
40
0.0112369651009328
40
0.0112369651009328
40
0.0140462063761655
40
0.0140462063761655
40
0.0168554476513982
40
0.0224739302018637
40
0.0224739302018637
40
0.0280924127523292
40
0.0280924127523292
40
0.0337108953027946
40
0.0337108953027946
40
0.0449478604037255
40
0.0449478604037255
40
0.0674217906055854
40
0.0674217906055854
40
0.0898957208074453
40
0.0898957208074453
40
0.134843581211167
40
0.134843581211167
40
0.157317511413029
40
0.157317511413029
40
0.179791441614891
40
0.179791441614891
40
0.224739302018614
40
0.224739302018614
40
0.247213232220475
40
0.247213232220475
40
0.269687162422336
40
0.269687162422336
40
0.314635022826057
40
0.314635022826057
40
0.337108953027919
40
0.337108953027919
40
0.359582883229781
40
0.359582883229781
40
0.404530743633505
40
0.404530743633505
40
0.427004673835367
40
0.427004673835367
40
0.449478604037228
40
0.449478604037228
40
0.494426464440952
40
0.494426464440952
40
0.516900394642813
40
0.516900394642813
40
0.539374324844673
40
0.539374324844673
40
0.584322185248395
40
0.584322185248395
40
0.606796115450255
40
0.606796115450255
40
0.629270045652115
40
0.629270045652115
40
0.674217906055837
40
0.674217906055837
40
0.696691836257697
40
0.696691836257697
40
0.719165766459558
40
0.719165766459558
40
0.809061487267002
40
0.809061487267002
40
0.831535417468863
40
0.831535417468863
40
0.854009347670723
40
0.854009347670723
40
0.898957208074444
40
0.898957208074444
40
0.921431138276305
40
0.921431138276305
40
0.943905068478165
40
0.943905068478165
40
0.988852928881886
40
0.988852928881886
40
1
40
1
40
1
40
1
41
1
10
16.8972846614908
20
-1.3014447753101
30
0
41
1
10
16.8887479851764
20
-1.30066159191514
30
0
41
1
10
16.8806065919163
20
-1.29967192291494
30
0
41
1
10
16.8647807584811
20
-1.29742132544817
30
0
41
1
10
16.857092846176
20
-1.29616210437496
30
0
41
1
10
16.8343531523123
20
-1.29213886019514
30
0
41
1
10
16.8196362228886
20
-1.2891242216748
30
0
41
1
10
16.7971874280201
20
-1.28464055763004
30
0
41
1
10
16.789623205755
20
-1.28316257098922
30
0
41
1
10
16.7742856597382
20
-1.28027364827881
30
0
41
1
10
16.7510073383061
20
-1.27601821455795
30
0
41
1
10
16.7272494060246
20
-1.27185503614757
30
0
41
1
10
16.6958456470289
20
-1.26599871183919
30
0
41
1
10
16.6803719390602
20
-1.26285981469971
30
0
41
1
10
16.6495803311444
20
-1.25631037723841
30
0
41
1
10
16.6341800283369
20
-1.25295108799392
30
0
41
1
10
16.5877845105786
20
-1.24274265947025
30
0
41
1
10
16.5567307233193
20
-1.23569869135278
30
0
41
1
10
16.4638705388179
20
-1.21349679678264
30
0
41
1
10
16.4021068910826
20
-1.19740122724815
30
0
41
1
10
16.2786569428039
20
-1.16279582981363
30
0
41
1
10
16.2170028227203
20
-1.14426058985856
30
0
41
1
10
16.0320922951076
20
-1.08509849715142
30
0
41
1
10
15.9087679855115
20
-1.04103643149114
30
0
41
1
10
15.7232229542256
20
-0.968518724481584
30
0
41
1
10
15.6612086320822
20
-0.943239478463255
30
0
41
1
10
15.5373829267712
20
-0.890793433759711
30
0
41
1
10
15.4755699924358
20
-0.863624178266434
30
0
41
1
10
15.2902901763438
20
-0.779468265283811
30
0
41
1
10
15.1668444355054
20
-0.72002569880047
30
0
41
1
10
14.9813110159801
20
-0.626559149668878
30
0
41
1
10
14.9193626455417
20
-0.594659767468386
30
0
41
1
10
14.7954687887668
20
-0.529638257258824
30
0
41
1
10
14.7336373388921
20
-0.496553618840864
30
0
41
1
10
14.5483138808866
20
-0.395865289528359
30
0
41
1
10
14.4248758923873
20
-0.327020911201345
30
0
41
1
10
14.2394033141606
20
-0.22199780887334
30
0
41
1
10
14.1775287348105
20
-0.186693281912511
30
0
41
1
10
14.0536008528243
20
-0.115619030176077
30
0
41
1
10
13.9917090886229
20
-0.0799249675446276
30
0
41
1
10
13.8063021888082
20
0.0272067533893505
30
0
41
1
10
13.6828569082551
20
0.0985673807161618
30
0
41
1
10
13.497435279788
20
0.204664476024078
30
0
41
1
10
13.4355890001748
20
0.239878377147477
30
0
41
1
10
13.3117403345499
20
0.3098666355597
30
0
41
1
10
13.2497725304587
20
0.344631067645679
30
0
41
1
10
13.0643124963313
20
0.44758764135139
30
0
41
1
10
12.9408630170614
20
0.514359872980378
30
0
41
1
10
12.7554958321274
20
0.610971378175037
30
0
41
1
10
12.6936759867013
20
0.642585838763466
30
0
41
1
10
12.5698993706536
20
0.704511947780901
30
0
41
1
10
12.507901965489
20
0.734847494063615
30
0
41
1
10
12.3223526553881
20
0.823303712249043
30
0
41
1
10
12.1988766969958
20
0.878797575620411
30
0
41
1
10
12.0135268283887
20
0.956250816277844
30
0
41
1
10
11.9517225551222
20
0.981105268578659
30
0
41
1
10
11.8279949596356
20
1.02878294987857
30
0
41
1
10
11.7660136472825
20
1.05164070569367
30
0
41
1
10
11.5803633103673
20
1.11675727654486
30
0
41
1
10
11.4568657946392
20
1.1554491785613
30
0
41
1
10
11.2715468946522
20
1.20605275579965
30
0
41
1
10
11.2097634032194
20
1.22168186335955
30
0
41
1
10
11.0860985961335
20
1.2503912662346
30
0
41
1
10
11.0241796412304
20
1.26348370449779
30
0
41
1
10
10.7145872372188
20
1.32224176447045
30
0
41
1
10
10.4681314339429
20
1.34735319924437
30
0
41
1
10
10.1584509125427
20
1.35041498310127
30
0
41
1
10
10.0965586735508
20
1.34960029024631
30
0
41
1
10
9.97289653655338
20
1.34515446961584
30
0
41
1
10
9.91111327905233
20
1.34152318202928
30
0
41
1
10
9.72578876778951
20
1.32644284461898
30
0
41
1
10
9.60228243528852
20
1.31080919270892
30
0
41
1
10
9.41660201285976
20
1.27905385917299
30
0
41
1
10
9.35463588301366
20
1.26710409963923
30
0
41
1
10
9.23093945787195
20
1.24063941343226
30
0
41
1
10
9.16914573982015
20
1.22611331601561
30
0
41
1
10
8.98381716978278
20
1.17875373603013
30
0
41
1
10
8.86034179090328
20
1.14213682223794
30
0
41
1
10
8.70593427675828
20
1.09043431404527
30
0
41
1
10
8.67521658189526
20
1.07986839494364
30
0
41
1
10
8.64449627609247
20
1.0690304790165
30
0
0
SPLINE
5
C4
100
AcDbEntity
8
1
62
256
6
ByLayer
370
18
48
1
60
0
100
AcDbSpline
70
4
71
3
72
22
73
18
40
0
40
0
40
0
40
0
40
0.0241121685951111
40
0.0241121685951111
40
0.186760140495923
40
0.186760140495923
40
0.349408112396735
40
0.349408112396735
40
0.512056084297547
40
0.512056084297547
40
0.674704056198359
40
0.674704056198359
40
0.756028042148769
40
0.756028042148769
40
0.83735202809918
40
0.83735202809918
40
1
40
1
40
1
40
1
41
1
10
17.280096875711
20
-0.529054698966746
30
0
41
1
10
17.2773025515619
20
-0.535021799086195
30
0
41
1
10
17.2744897978103
20
-0.540993461738196
30
0
41
1
10
17.2525832796424
20
-0.587287568991428
30
0
41
1
10
17.2327650235622
20
-0.627826411304397
30
0
41
1
10
17.1924629332323
20
-0.709351029018507
30
0
41
1
10
17.1719444369877
20
-0.750391423458979
30
0
41
1
10
17.1304979576175
20
-0.833115119321974
30
0
41
1
10
17.109569718182
20
-0.874785169921324
30
0
41
1
10
17.0675108589714
20
-0.958507792860928
30
0
41
1
10
17.0463872556626
20
-1.00051485652858
30
0
41
1
10
17.0145762409196
20
-1.06419083555377
30
0
41
1
10
17.0039500580417
20
-1.08553258455746
30
0
41
1
10
16.982646426955
20
-1.12856850773594
30
0
41
1
10
16.9719664697866
20
-1.15028513851556
30
0
41
1
10
16.9399078546529
20
-1.21556747935796
30
0
41
1
10
16.9185125073829
20
-1.25929011879506
30
0
41
1
10
16.8972846614904
20
-1.30144477531087
30
0
0
SPLINE
5
C5
100
AcDbEntity
8
1
62
256
6
ByLayer
370
18
48
1
60
0
100
AcDbSpline
70
4
71
3
72
75
73
71
40
0
40
0
40
0
40
0
40
0.0155081131008533
40
0.0155081131008533
40
0.0571964926343522
40
0.0571964926343522
40
0.0780406824011021
40
0.0780406824011021
40
0.098884872167852
40
0.098884872167852
40
0.18226163123485
40
0.18226163123485
40
0.265638390301848
40
0.265638390301848
40
0.276060485185223
40
0.276060485185223
40
0.286482580068599
40
0.30732676983535
40
0.30732676983535
40
0.349015149368852
40
0.349015149368852
40
0.369859339135603
40
0.369859339135603
40
0.390703528902354
40
0.390703528902354
40
0.432391908435856
40
0.432391908435856
40
0.453236098202606
40
0.453236098202606
40
0.474080287969356
40
0.474080287969356
40
0.515768667502858
40
0.515768667502858
40
0.53661285726961
40
0.53661285726961
40
0.557457047036362
40
0.557457047036362
40
0.599145426569864
40
0.599145426569864
40
0.619989616336614
40
0.619989616336614
40
0.640833806103364
40
0.640833806103364
40
0.682522185636864
40
0.682522185636864
40
0.703366375403614
40
0.703366375403614
40
0.724210565170364
40
0.724210565170364
40
0.765898944703863
40
0.765898944703863
40
0.786743134470611
40
0.786743134470611
40
0.807587324237359
40
0.807587324237359
40
0.849275703770856
40
0.849275703770856
40
0.870119893537605
40
0.870119893537605
40
0.890964083304353
40
0.890964083304353
40
0.93265246283785
40
0.93265246283785
40
0.953496652604599
40
0.953496652604599
40
0.963918747487974
40
0.963918747487974
40
0.974340842371348
40
0.974340842371348
40
1
40
1
40
1
40
1
41
1
10
7.1216100159443
20
1.34999940760125
30
0
41
1
10
7.16771644206202
20
1.34999329106486
30
0
41
1
10
7.21383991040895
20
1.34919960208492
30
0
41
1
10
7.3836520228908
20
1.34336853911898
30
0
41
1
10
7.50719846894398
20
1.33345876576089
30
0
41
1
10
7.69266764191016
20
1.31031088934503
30
0
41
1
10
7.75451317500983
20
1.30121240327156
30
0
41
1
10
7.87832870201993
20
1.28026880294152
30
0
41
1
10
7.94039023747672
20
1.26839496606217
30
0
41
1
10
8.24960396425499
20
1.20258932297116
30
0
41
1
10
8.49432596203616
20
1.12975933047377
30
0
41
1
10
8.98331084129123
20
0.949333364522715
30
0
41
1
10
9.2281489825458
20
0.842382936001854
30
0
41
1
10
9.50673675518016
20
0.706174744226274
30
0
41
1
10
9.53774884347683
20
0.690824527131042
30
0
41
1
10
9.59969173136753
20
0.659833398105121
30
0
41
1
10
9.69255328453343
20
0.612865717948779
30
0
41
1
10
9.78529942531353
20
0.564528452655793
30
0
41
1
10
9.97075086003014
20
0.466214861161035
30
0
41
1
10
10.0943249202624
20
0.398479676797535
30
0
41
1
10
10.2800639222654
20
0.294322463964278
30
0
41
1
10
10.3421033396642
20
0.259214231039351
30
0
41
1
10
10.4659385685653
20
0.188736739248839
30
0
41
1
10
10.5277915202167
20
0.153320244556141
30
0
41
1
10
10.7132750940893
20
0.0467442733402095
30
0
41
1
10
10.8368176870228
20
-0.0247636396285884
30
0
41
1
10
11.0224575099278
20
-0.131852577555975
30
0
41
1
10
11.0844853844967
20
-0.167510989661764
30
0
41
1
10
11.2083720861259
20
-0.238221106657363
30
0
41
1
10
11.2702429520314
20
-0.273296149990188
30
0
41
1
10
11.4557542658715
20
-0.377490828432656
30
0
41
1
10
11.5792877186979
20
-0.445591033043201
30
0
41
1
10
11.7648507386161
20
-0.544891532161103
30
0
41
1
10
11.8268336572781
20
-0.577495553036385
30
0
41
1
10
11.950801769189
20
-0.64133338864886
30
0
41
1
10
12.0127027761853
20
-0.672547120731309
30
0
41
1
10
12.1982730571287
20
-0.763914787333704
30
0
41
1
10
12.3218035994458
20
-0.821806976255317
30
0
41
1
10
12.5072945756229
20
-0.903418879591015
30
0
41
1
10
12.5691917885311
20
-0.929705119585378
30
0
41
1
10
12.6932172797145
20
-0.980311244406067
30
0
41
1
10
12.7551476513906
20
-1.00455572333738
30
0
41
1
10
12.9407625284231
20
-1.07399164564299
30
0
41
1
10
13.0642847016696
20
-1.11590281622395
30
0
41
1
10
13.2497150642226
20
-1.17167889668988
30
0
41
1
10
13.3115845105363
20
-1.1890562929774
30
0
41
1
10
13.4355383317641
20
-1.22129556788633
30
0
41
1
10
13.4975579824868
20
-1.23614300139022
30
0
41
1
10
13.6832543920562
20
-1.27666320647609
30
0
41
1
10
13.8067906704029
20
-1.2983882272658
30
0
41
1
10
13.9921973127558
20
-1.32276131867781
30
0
41
1
10
14.0540425787935
20
-1.32950469328571
30
0
41
1
10
14.1779310423115
20
-1.34018781954288
30
0
41
1
10
14.2399936483437
20
-1.3441280618228
30
0
41
1
10
14.4257668954521
20
-1.35167805596527
30
0
41
1
10
14.5493135374061
20
-1.35105073328313
30
0
41
1
10
14.7346649369898
20
-1.34161369488913
30
0
41
1
10
14.796483542278
20
-1.33705463721262
30
0
41
1
10
14.9203056753037
20
-1.32513490646465
30
0
41
1
10
14.982364150858
20
-1.31776120904175
30
0
41
1
10
15.1682240617646
20
-1.29154567709941
30
0
41
1
10
15.2917962630481
20
-1.26861517160702
30
0
41
1
10
15.4771332425565
20
-1.22631581123989
30
0
41
1
10
15.5389435913558
20
-1.21092141801949
30
0
41
1
10
15.6317747834444
20
-1.18594107252201
30
0
41
1
10
15.6627371151065
20
-1.17729894737471
30
0
41
1
10
15.7247084126339
20
-1.15939044956292
30
0
41
1
10
15.7557375047821
20
-1.15011759540928
30
0
41
1
10
15.8630133327379
20
-1.11701984462584
30
0
41
1
10
15.9390868014984
20
-1.09172844537582
30
0
41
1
10
16.0150208251011
20
-1.06477482810701
30
0
0
SPLINE
5
C6
100
AcDbEntity
8
1
62
256
6
ByLayer
370
18
48
1
60
0
100
AcDbSpline
70
4
71
3
72
51
73
47
40
0
40
0
40
0
40
0
40
0.0158259178492443
40
0.0344692621769639
40
0.0593270546139234
40
0.0841848470508828
40
0.109042639487842
40
0.133900431924802
40
0.158758224361761
40
0.171187120580241
40
0.196044913017201
40
0.22090270545416
40
0.24576049789112
40
0.270618290328079
40
0.295476082765039
40
0.307904978983518
40
0.332762771420478
40
0.357620563857437
40
0.382478356294396
40
0.407336148731356
40
0.432193941168315
40
0.450837285496035
40
0.469480629823754
40
0.494338422260714
40
0.519196214697674
40
0.544054007134633
40
0.568911799571593
40
0.593769592008552
40
0.606198488227032
40
0.631056280663991
40
0.655914073100951
40
0.68077186553791
40
0.70562965797487
40
0.730487450411829
40
0.742916346630309
40
0.767774139067268
40
0.792631931504228
40
0.817489723941187
40
0.842347516378147
40
0.867205308815106
40
0.885848653142826
40
0.904491997470546
40
0.929349789907505
40
0.954207582344464
40
0.979065374781424
40
1
40
1
40
1
40
1
41
1
10
10.362983417915
20
0.250966350714691
30
0
41
1
10
10.3836998191408
20
0.248967140692201
30
0
41
1
10
10.4288206817675
20
0.244549914811216
30
0
41
1
10
10.5064808262618
20
0.236714615566399
30
0
41
1
10
10.5959638513989
20
0.227357808287963
30
0
41
1
10
10.6935816970002
20
0.21675430170481
30
0
41
1
10
10.7911995426104
20
0.205768558072776
30
0
41
1
10
10.8888173881847
20
0.194415554486454
30
0
41
1
10
10.9701655929857
20
0.184656904974105
30
0
41
1
10
11.051513796993
20
0.174701355874987
30
0
41
1
10
11.1328620043903
20
0.164564199832142
30
0
41
1
10
11.2304798422235
20
0.152122406912412
30
0
41
1
10
11.3280977116026
20
0.139421467849843
30
0
41
1
10
11.4257153968038
20
0.126478808055936
30
0
41
1
10
11.5070633297162
20
0.115506222909176
30
0
41
1
10
11.5884111706302
20
0.104405297666005
30
0
41
1
10
11.6697589253217
20
0.0931792601044208
30
0
41
1
10
11.7673761114911
20
0.0795278603104919
30
0
41
1
10
11.8649931966941
20
0.065761021474799
30
0
41
1
10
11.9626101994246
20
0.0518937743038918
30
0
41
0.999999999999999
10
12.0520923932805
20
0.0391029891620747
30
0
41
1
10
12.1334398090742
20
0.0274282344292658
30
0
41
1
10
12.2147872051086
20
0.0157212714368882
30
0
41
1
10
12.3042693265135
20
0.0028133601977629
30
0
41
1
10
12.4018861869772
20
-0.0112854855726425
30
0
41
1
10
12.4995030666817
20
-0.0253877500589681
30
0
41
1
10
12.5971199841274
20
-0.039422378024966
30
0
41
1
10
12.678467462167
20
-0.05105238421217
30
0
41
1
10
12.7598149870271
20
-0.062619607477643
30
0
41
1
10
12.841162563856
20
-0.0741187318196808
30
0
41
1
10
12.9387797601998
20
-0.0877909320957712
30
0
41
1
10
13.0363970726345
20
-0.101314232764167
30
0
41
1
10
13.134014542744
20
-0.114674908084595
30
0
41
1
10
13.2153624925314
20
-0.125659057795218
30
0
41
1
10
13.2967104115656
20
-0.136490927030621
30
0
41
1
10
13.3780583311864
20
-0.147165682578304
30
0
41
1
10
13.4756758264249
20
-0.159710065652917
30
0
41
1
10
13.5732933166573
20
-0.171971604920913
30
0
41
1
10
13.670910803159
20
-0.183934179013789
30
0
41
1
10
13.7603934972659
20
-0.194611099291507
30
0
41
1
10
13.841741400682
20
-0.204075282930376
30
0
41
1
10
13.9230893045926
20
-0.21332795494294
30
0
41
1
10
14.012572000499
20
-0.223210834802615
30
0
41
1
10
14.1101894905617
20
-0.233586854778423
30
0
41
1
10
14.2026715102896
20
-0.243025500558531
30
0
41
1
10
14.262614368795
20
-0.248901682493425
30
0
41
1
10
14.2900180610671
20
-0.251536337793482
30
0
0
SPLINE
5
C7
100
AcDbEntity
8
1
62
256
6
ByLayer
370
18
48
1
60
0
100
AcDbSpline
70
4
71
3
72
48
73
44
40
0
40
0
40
0
40
0
40
0.125000000000008
40
0.125000000000008
40
0.18750000000001
40
0.18750000000001
40
0.250000000000012
40
0.250000000000012
40
0.312500000000014
40
0.312500000000014
40
0.375000000000016
40
0.375000000000016
40
0.437500000000018
40
0.437500000000018
40
0.50000000000002
40
0.50000000000002
40
0.53125000000002
40
0.546875000000018
40
0.546875000000018
40
0.562500000000016
40
0.562500000000016
40
0.625000000000015
40
0.625000000000015
40
0.687500000000014
40
0.687500000000014
40
0.703125000000013
40
0.703125000000013
40
0.718750000000012
40
0.750000000000011
40
0.750000000000011
40
0.812500000000008
40
0.812500000000008
40
0.828125000000007
40
0.828125000000007
40
0.843750000000006
40
0.843750000000006
40
0.875000000000005
40
0.875000000000005
40
0.937500000000002
40
0.937500000000002
40
0.968750000000001
40
0.968750000000001
40
1
40
1
40
1
40
1
41
1
10
5.03178
20
-0.846041848342765
30
0
41
1
10
4.92891013666716
20
-0.822687762433304
30
0
41
1
10
4.8281119804769
20
-0.794311160960376
30
0
41
1
10
4.68001945649792
20
-0.743019257545541
30
0
41
1
10
4.63119670359436
20
-0.724462263302001
30
0
41
1
10
4.53515148825636
20
-0.684387572381382
30
0
41
1
10
4.48786049938195
20
-0.662847961446033
30
0
41
1
10
4.39476827817782
20
-0.61648548570443
30
0
41
1
10
4.34884440092466
20
-0.591583855528143
30
0
41
1
10
4.25947562637424
20
-0.538711429354549
30
0
41
1
10
4.2159612640001
20
-0.510718588859191
30
0
41
1
10
4.13133598662503
20
-0.451392357342542
30
0
41
1
10
4.09022434777353
20
-0.420060317978596
30
0
41
1
10
4.01052460886629
20
-0.353735574982977
30
0
41
1
10
3.97193512570618
20
-0.318745400329789
30
0
41
1
10
3.91609923503367
20
-0.263162281881989
30
0
41
1
10
3.88869457424161
20
-0.234594181695258
30
0
41
1
10
3.86210385846644
20
-0.204769244004325
30
0
41
1
10
3.84456382749656
20
-0.184594058887768
30
0
41
1
10
3.83587899327424
20
-0.174349695968402
30
0
41
1
10
3.79322758060672
20
-0.122721466669589
30
0
41
1
10
3.76135451209009
20
-0.079884242328518
30
0
41
1
10
3.70241286505256
20
0.0090840492895552
30
0
41
1
10
3.67533851921533
20
0.0552111138480882
30
0
41
1
10
3.64487553018662
20
0.115195950832543
30
0
41
1
10
3.63895357824572
20
0.1273116857422
30
0
41
1
10
3.62756849264812
20
0.15155261654607
30
0
41
1
10
3.61113568411724
20
0.1880123957053
30
0
41
1
10
3.59664215558226
20
0.224761078588756
30
0
41
1
10
3.57029076399809
20
0.29863433762813
30
0
41
1
10
3.55621807305744
20
0.348381023056987
30
0
41
1
10
3.54340635178775
20
0.411200159219817
30
0
41
1
10
3.54108448241291
20
0.423796039040326
30
0
41
1
10
3.53693878913671
20
0.449053403851792
30
0
41
1
10
3.53511639410235
20
0.461720327917391
30
0
41
1
10
3.53047553153755
20
0.499327909917071
30
0
41
1
10
3.52845260557157
20
0.524039948372121
30
0
41
1
10
3.52552763760374
20
0.597112013008427
30
0
41
1
10
3.52775002346354
20
0.644411741718301
30
0
41
1
10
3.53742264670751
20
0.713229577631893
30
0
41
1
10
3.54173178357723
20
0.735879294428202
30
0
41
1
10
3.55235068002088
20
0.779764118894775
30
0
41
1
10
3.55866438964003
20
0.801076466130837
30
0
41
1
10
3.56596016905465
20
0.821783514632642
30
0
0
SPLINE
5
C8
100
AcDbEntity
8
1
62
256
6
ByLayer
370
18
48
1
60
0
100
AcDbSpline
70
4
71
3
72
18
73
14
40
0
40
0
40
0
40
0
40
0.249999999999995
40
0.249999999999995
40
0.49999999999999
40
0.49999999999999
40
0.62499999999999
40
0.62499999999999
40
0.687499999999991
40
0.687499999999991
40
0.749999999999991
40
0.749999999999991
40
1
40
1
40
1
40
1
41
1
10
3.56596016905465
20
0.821783514632642
30
0
41
1
10
3.68683668238239
20
0.845393457142364
30
0
41
1
10
3.8083154142233
20
0.861882146440166
30
0
41
1
10
4.05243788314104
20
0.882507824952285
30
0
41
1
10
4.17508174620386
20
0.886639794374247
30
0
41
1
10
4.35993194188711
20
0.883735145583245
30
0
41
1
10
4.42169647621446
20
0.881237376610699
30
0
41
1
10
4.5145701019276
20
0.875100299997399
30
0
41
1
10
4.54555074018467
20
0.872654910576983
30
0
41
1
10
4.60722994157959
20
0.8669793796183
30
0
41
1
10
4.6379726573804
20
0.86374659188894
30
0
41
1
10
4.79120538391095
20
0.84557812488319
30
0
41
1
10
4.91225820198142
20
0.824691766524694
30
0
41
1
10
5.03178000003919
20
0.79657887100737
30
0
0
LINE
5
7F
100
AcDbEntity
8
1
62
256
6
ByLayer
370
18
48
1
60
0
100
AcDbLine
10
0
20
1.499435
30
0
11
0
21
-1.499435
31
0
39
0
210
0
220
0
230
1
0
LINE
5
80
100
AcDbEntity
8
1
62
256
6
ByLayer
370
18
48
1
60
0
100
AcDbLine
10
16.897285
20
0.684067
30
0
11
16.897285
21
-1.301445
31
0
39
0
210
0
220
0
230
1
0
LINE
5
81
100
AcDbEntity
8
1
62
256
6
ByLayer
370
18
48
1
60
0
100
AcDbLine
10
5.03178
20
-0.007792
30
0
11
5.03178
21
-0.846042
31
0
39
0
210
0
220
0
230
1
0
LINE
5
82
100
AcDbEntity
8
1
62
256
6
ByLayer
370
13
48
1
60
0
100
AcDbLine
10
0.52587
20
1.35
30
0
11
0.52587
21
-1.35
31
0
39
0
210
0
220
0
230
1
0
LINE
5
83
100
AcDbEntity
8
1
62
256
6
ByLayer
370
18
48
1
60
0
100
AcDbLine
10
5.03178
20
0.796579
30
0
11
5.03178
21
-0.007792
31
0
39
0
210
0
220
0
230
1
0
LINE
5
84
100
AcDbEntity
8
SK1
62
256
6
ByLayer
370
18
48
1
60
0
100
AcDbLine
10
-20.4732
20
1.326795
30
0
11
-20.4732
21
-1.326795
31
0
39
0
210
0
220
0
230
1
0
LINE
5
86
100
AcDbEntity
8
SK1
62
256
6
ByLayer
370
18
48
1
60
0
100
AcDbLine
10
0
20
1.499435
30
0
11
0
21
-1.499435
31
0
39
0
210
0
220
0
230
1
0
LINE
5
87
100
AcDbEntity
8
SK1
62
256
6
ByLayer
370
18
48
1
60
0
100
AcDbLine
10
-0.000913
20
1.5
30
0
11
-0.000913
21
-1.5
31
0
39
0
210
0
220
0
230
1
0
LINE
5
88
100
AcDbEntity
8
SK1
62
256
6
ByLayer
370
18
48
1
60
0
100
AcDbLine
10
-20.1732
20
1.5
30
0
11
-20.1732
21
-1.5
31
0
39
0
210
0
220
0
230
1
0
LINE
5
89
100
AcDbEntity
8
1
62
256
6
ByLayer
370
18
48
1
60
0
100
AcDbLine
10
17.5268
20
0
30
0
11
17.279434
21
0.530479
31
0
39
0
210
0
220
0
230
1
0
LINE
5
8A
100
AcDbEntity
8
1
62
256
6
ByLayer
370
18
48
1
60
0
100
AcDbLine
10
17.279434
20
-0.530479
30
0
11
17.5268
21
0
31
0
39
0
210
0
220
0
230
1
0
LINE
5
8B
100
AcDbEntity
8
1
62
256
6
ByLayer
370
18
48
1
60
0
100
AcDbLine
10
0.52587
20
-1.35
30
0
11
7.121387
21
-1.35
31
0
39
0
210
0
220
0
230
1
0
LINE
5
8C
100
AcDbEntity
8
1
62
256
6
ByLayer
370
18
48
1
60
0
100
AcDbLine
10
10.180655
20
-1.35
30
0
11
14.46621
21
-1.35
31
0
39
0
210
0
220
0
230
1
0
LINE
5
8D
100
AcDbEntity
8
1
62
256
6
ByLayer
370
18
48
1
60
0
100
AcDbLine
10
14.46621
20
1.35
30
0
11
10.180655
21
1.35
31
0
39
0
210
0
220
0
230
1
0
LINE
5
8E
100
AcDbEntity
8
1
62
256
6
ByLayer
370
18
48
1
60
0
100
AcDbLine
10
7.121387
20
1.35
30
0
11
0.52587
21
1.35
31
0
39
0
210
0
220
0
230
1
0
LINE
5
8F
100
AcDbEntity
8
SK1
62
256
6
ByLayer
370
18
48
1
60
0
100
AcDbLine
10
-20.4732
20
-1.326795
30
0
11
-20.1732
21
-1.5
31
0
39
0
210
0
220
0
230
1
0
LINE
5
90
100
AcDbEntity
8
SK1
62
256
6
ByLayer
370
18
48
1
60
0
100
AcDbLine
10
-20.1732
20
1.5
30
0
11
-20.4732
21
1.326795
31
0
39
0
210
0
220
0
230
1
0
LINE
5
91
100
AcDbEntity
8
SK1
62
256
6
ByLayer
370
18
48
1
60
0
100
AcDbLine
10
-20.1732
20
-1.5
30
0
11
-0.000913
21
-1.5
31
0
39
0
210
0
220
0
230
1
0
LINE
5
92
100
AcDbEntity
8
SK1
62
256
6
ByLayer
370
18
48
1
60
0
100
AcDbLine
10
-0.000913
20
1.5
30
0
11
-20.1732
21
1.5
31
0
39
0
210
0
220
0
230
1
0
LINE
5
93
100
AcDbEntity
8
4
62
256
6
ByLayer
370
18
48
0.05
60
0
100
AcDbLine
10
0
20
0
30
0
11
17.5268
21
0
31
0
39
0
210
0
220
0
230
1
0
LINE
5
95
100
AcDbEntity
8
81
62
256
6
ByLayer
370
18
48
1
60
0
100
AcDbLine
10
17.5268
20
0
30
0
11
20.5268
21
0
31
0
39
0
210
0
220
0
230
1
0
LINE
5
96
100
AcDbEntity
8
80
62
256
6
ByLayer
370
18
48
1
60
0
100
AcDbLine
10
0
20
0
30
0
11
-3
21
0
31
0
39
0
210
0
220
0
230
1
0
LINE
5
97
100
AcDbEntity
8
SK4
62
256
6
ByLayer
370
18
48
0.05
60
0
100
AcDbLine
10
-23.4732
20
0
30
0
11
20.5268
21
0
31
0
39
0
210
0
220
0
230
1
0
LINE
5
99
100
AcDbEntity
8
SK2
62
256
6
ByLayer
370
13
48
1
60
0
100
AcDbLine
10
-24.9732
20
-9
30
0
11
-24.9732
21
21.782741
31
0
39
0
210
0
220
0
230
1
0
LINE
5
9B
100
AcDbEntity
8
SK2
62
256
6
ByLayer
370
13
48
1
60
0
100
AcDbLine
10
-22.0607
20
-1.5
30
0
11
-26.9732
21
-1.5
31
0
39
0
210
0
220
0
230
1
0
LINE
5
9C
100
AcDbEntity
8
SK2
62
256
6
ByLayer
370
13
48
1
60
0
100
AcDbLine
10
-22.0607
20
1.5
30
0
11
-26.9732
21
1.5
31
0
39
0
210
0
220
0
230
1
0
LINE
5
9D
100
AcDbEntity
8
1
62
256
6
ByLayer
370
18
48
1
60
1
100
AcDbLine
10
-24.9732
20
-1.5
30
0
11
-24.512416
21
-4.999998
31
0
39
0
210
0
220
0
230
1
0
LINE
5
9E
100
AcDbEntity
8
1
62
256
6
ByLayer
370
18
48
1
60
1
100
AcDbLine
10
-24.512416
20
-4.999998
30
0
11
-25.433984
21
-5.000002
31
0
39
0
210
0
220
0
230
1
0
LINE
5
9F
100
AcDbEntity
8
1
62
256
6
ByLayer
370
18
48
1
60
1
100
AcDbLine
10
-25.433984
20
-5.000002
30
0
11
-24.9732
21
-1.5
31
0
39
0
210
0
220
0
230
1
0
LINE
5
A0
100
AcDbEntity
8
1
62
256
6
ByLayer
370
18
48
1
60
1
100
AcDbLine
10
-24.9732
20
1.5
30
0
11
-25.433984
21
4.999998
31
0
39
0
210
0
220
0
230
1
0
LINE
5
A1
100
AcDbEntity
8
1
62
256
6
ByLayer
370
18
48
1
60
1
100
AcDbLine
10
-25.433984
20
4.999998
30
0
11
-24.512416
21
5.000002
31
0
39
0
210
0
220
0
230
1
0
LINE
5
A2
100
AcDbEntity
8
1
62
256
6
ByLayer
370
18
48
1
60
1
100
AcDbLine
10
-24.512416
20
5.000002
30
0
11
-24.9732
21
1.5
31
0
39
0
210
0
220
0
230
1
0
LINE
5
A3
100
AcDbEntity
8
2
62
256
6
ByLayer
370
13
48
1
60
0
100
AcDbLine
10
23.0268
20
-8.85
30
0
11
23.0268
21
29.432741
31
0
39
0
210
0
220
0
230
1
0
LINE
5
A5
100
AcDbEntity
8
2
62
256
6
ByLayer
370
13
48
1
60
0
100
AcDbLine
10
19.1143
20
-1.35
30
0
11
25.0268
21
-1.35
31
0
39
0
210
0
220
0
230
1
0
LINE
5
A6
100
AcDbEntity
8
2
62
256
6
ByLayer
370
13
48
1
60
0
100
AcDbLine
10
19.1143
20
1.35
30
0
11
25.0268
21
1.35
31
0
39
0
210
0
220
0
230
1
0
LINE
5
A7
100
AcDbEntity
8
1
62
256
6
ByLayer
370
18
48
1
60
1
100
AcDbLine
10
23.0268
20
-1.35
30
0
11
23.487584
21
-4.849998
31
0
39
0
210
0
220
0
230
1
0
LINE
5
A8
100
AcDbEntity
8
1
62
256
6
ByLayer
370
18
48
1
60
1
100
AcDbLine
10
23.487584
20
-4.849998
30
0
11
22.566016
21
-4.850002
31
0
39
0
210
0
220
0
230
1
0
LINE
5
A9
100
AcDbEntity
8
1
62
256
6
ByLayer
370
18
48
1
60
1
100
AcDbLine
10
22.566016
20
-4.850002
30
0
11
23.0268
21
-1.35
31
0
39
0
210
0
220
0
230
1
0
LINE
5
AA
100
AcDbEntity
8
1
62
256
6
ByLayer
370
18
48
1
60
1
100
AcDbLine
10
23.0268
20
1.35
30
0
11
22.566016
21
4.849998
31
0
39
0
210
0
220
0
230
1
0
LINE
5
AB
100
AcDbEntity
8
1
62
256
6
ByLayer
370
18
48
1
60
1
100
AcDbLine
10
22.566016
20
4.849998
30
0
11
23.487584
21
4.850002
31
0
39
0
210
0
220
0
230
1
0
LINE
5
AC
100
AcDbEntity
8
1
62
256
6
ByLayer
370
18
48
1
60
1
100
AcDbLine
10
23.487584
20
4.850002
30
0
11
23.0268
21
1.35
31
0
39
0
210
0
220
0
230
1
0
LINE
5
AD
100
AcDbEntity
8
SK2
62
256
6
ByLayer
370
13
48
1
60
0
100
AcDbLine
10
18.197706
20
-1.438764
30
0
11
25.281845
21
-16.630748
31
0
39
0
210
0
220
0
230
1
0
LINE
5
AE
100
AcDbEntity
8
SK2
62
256
6
ByLayer
370
13
48
1
60
0
100
AcDbLine
10
18.197706
20
1.438764
30
0
11
25.281845
21
16.630748
31
0
39
0
210
0
220
0
230
1
0
LINE
5
AF
100
AcDbEntity
8
1
62
256
6
ByLayer
370
18
48
1
60
1
100
AcDbLine
10
24.436609
20
-14.818132
30
0
11
27.308642
21
-12.765394
31
0
39
0
210
0
220
0
230
1
0
LINE
5
B0
100
AcDbEntity
8
1
62
256
6
ByLayer
370
18
48
1
60
1
100
AcDbLine
10
27.308642
20
-12.765394
30
0
11
27.742071
21
-13.578675
31
0
39
0
210
0
220
0
230
1
0
LINE
5
B1
100
AcDbEntity
8
1
62
256
6
ByLayer
370
18
48
1
60
1
100
AcDbLine
10
27.742071
20
-13.578675
30
0
11
24.436609
21
-14.818132
31
0
39
0
210
0
220
0
230
1
0
LINE
5
B2
100
AcDbEntity
8
1
62
256
6
ByLayer
370
18
48
1
60
1
100
AcDbLine
10
24.436609
20
14.818132
30
0
11
27.742068
21
13.578677
31
0
39
0
210
0
220
0
230
1
0
LINE
5
B3
100
AcDbEntity
8
1
62
256
6
ByLayer
370
18
48
1
60
1
100
AcDbLine
10
27.742068
20
13.578677
30
0
11
27.308645
21
12.765392
31
0
39
0
210
0
220
0
230
1
0
LINE
5
B4
100
AcDbEntity
8
1
62
256
6
ByLayer
370
18
48
1
60
1
100
AcDbLine
10
27.308645
20
12.765392
30
0
11
24.436609
21
14.818132
31
0
39
0
210
0
220
0
230
1
0
LINE
5
CD
100
AcDbEntity
8
1
62
256
6
ByLayer
370
18
48
1
60
1
100
AcDbLine
10
-24.9732
20
-1.5
30
0
11
-24.512416
21
-4.999998
31
0
39
0
210
0
220
0
230
1
0
LINE
5
CE
100
AcDbEntity
8
1
62
256
6
ByLayer
370
18
48
1
60
1
100
AcDbLine
10
-24.512416
20
-4.999998
30
0
11
-25.433984
21
-5.000002
31
0
39
0
210
0
220
0
230
1
0
LINE
5
CF
100
AcDbEntity
8
1
62
256
6
ByLayer
370
18
48
1
60
1
100
AcDbLine
10
-25.433984
20
-5.000002
30
0
11
-24.9732
21
-1.5
31
0
39
0
210
0
220
0
230
1
0
LINE
5
D1
100
AcDbEntity
8
1
62
256
6
ByLayer
370
18
48
1
60
1
100
AcDbLine
10
-24.9732
20
1.5
30
0
11
-25.433984
21
4.999998
31
0
39
0
210
0
220
0
230
1
0
LINE
5
D2
100
AcDbEntity
8
1
62
256
6
ByLayer
370
18
48
1
60
1
100
AcDbLine
10
-25.433984
20
4.999998
30
0
11
-24.512416
21
5.000002
31
0
39
0
210
0
220
0
230
1
0
LINE
5
D3
100
AcDbEntity
8
1
62
256
6
ByLayer
370
18
48
1
60
1
100
AcDbLine
10
-24.512416
20
5.000002
30
0
11
-24.9732
21
1.5
31
0
39
0
210
0
220
0
230
1
0
LINE
5
D7
100
AcDbEntity
8
1
62
256
6
ByLayer
370
18
48
1
60
1
100
AcDbLine
10
23.0268
20
-1.35
30
0
11
23.487584
21
-4.849998
31
0
39
0
210
0
220
0
230
1
0
LINE
5
D8
100
AcDbEntity
8
1
62
256
6
ByLayer
370
18
48
1
60
1
100
AcDbLine
10
23.487584
20
-4.849998
30
0
11
22.566016
21
-4.850002
31
0
39
0
210
0
220
0
230
1
0
LINE
5
D9
100
AcDbEntity
8
1
62
256
6
ByLayer
370
18
48
1
60
1
100
AcDbLine
10
22.566016
20
-4.850002
30
0
11
23.0268
21
-1.35
31
0
39
0
210
0
220
0
230
1
0
LINE
5
DB
100
AcDbEntity
8
1
62
256
6
ByLayer
370
18
48
1
60
1
100
AcDbLine
10
23.0268
20
1.35
30
0
11
22.566016
21
4.849998
31
0
39
0
210
0
220
0
230
1
0
LINE
5
DC
100
AcDbEntity
8
1
62
256
6
ByLayer
370
18
48
1
60
1
100
AcDbLine
10
22.566016
20
4.849998
30
0
11
23.487584
21
4.850002
31
0
39
0
210
0
220
0
230
1
0
LINE
5
DD
100
AcDbEntity
8
1
62
256
6
ByLayer
370
18
48
1
60
1
100
AcDbLine
10
23.487584
20
4.850002
30
0
11
23.0268
21
1.35
31
0
39
0
210
0
220
0
230
1
0
LINE
5
E0
100
AcDbEntity
8
1
62
256
6
ByLayer
370
18
48
1
60
1
100
AcDbLine
10
24.436609
20
-14.818132
30
0
11
27.308642
21
-12.765394
31
0
39
0
210
0
220
0
230
1
0
LINE
5
E1
100
AcDbEntity
8
1
62
256
6
ByLayer
370
18
48
1
60
1
100
AcDbLine
10
27.308642
20
-12.765394
30
0
11
27.742071
21
-13.578675
31
0
39
0
210
0
220
0
230
1
0
LINE
5
E2
100
AcDbEntity
8
1
62
256
6
ByLayer
370
18
48
1
60
1
100
AcDbLine
10
27.742071
20
-13.578675
30
0
11
24.436609
21
-14.818132
31
0
39
0
210
0
220
0
230
1
0
LINE
5
E4
100
AcDbEntity
8
1
62
256
6
ByLayer
370
18
48
1
60
1
100
AcDbLine
10
24.436609
20
14.818132
30
0
11
27.742068
21
13.578677
31
0
39
0
210
0
220
0
230
1
0
LINE
5
E5
100
AcDbEntity
8
1
62
256
6
ByLayer
370
18
48
1
60
1
100
AcDbLine
10
27.742068
20
13.578677
30
0
11
27.308645
21
12.765392
31
0
39
0
210
0
220
0
230
1
0
LINE
5
E6
100
AcDbEntity
8
1
62
256
6
ByLayer
370
18
48
1
60
1
100
AcDbLine
10
27.308645
20
12.765392
30
0
11
24.436609
21
14.818132
31
0
39
0
210
0
220
0
230
1
0
MTEXT
5
C9
100
AcDbEntity
8
SK2
62
256
6
ByLayer
370
18
48
1
60
0
100
AcDbMText
10
-26.314314
20
6.658437
30
0
210
0
220
0
230
1
1
%%c
40
3
41
0
44
1.084337
50
90
71
7
72
5
7
iso_b_vert
0
MTEXT
5
CC
100
AcDbEntity
8
SK2
62
256
6
ByLayer
370
18
48
1
60
0
100
AcDbMText
10
-26.314314
20
12.635
30
0
210
0
220
0
230
1
1
\W0.7468;3.000
40
3
41
0
44
1.084337
50
90
71
7
72
5
7
iso_b_vert
0
MTEXT
5
D5
100
AcDbEntity
8
2
62
256
6
ByLayer
370
18
48
1
60
0
100
AcDbMText
10
21.685686
20
14.308438
30
0
210
0
220
0
230
1
1
%%c
40
3
41
0
44
1.084337
50
90
71
7
72
5
7
iso_b_vert
0
MTEXT
5
D6
100
AcDbEntity
8
2
62
256
6
ByLayer
370
18
48
1
60
0
100
AcDbMText
10
21.685686
20
20.285
30
0
210
0
220
0
230
1
1
\W0.7468;2.700
40
3
41
0
44
1.084337
50
90
71
7
72
5
7
iso_b_vert
0
MTEXT
5
DF
100
AcDbEntity
8
SK2
62
256
6
ByLayer
370
18
48
1
60
0
100
AcDbMText
10
30.594086
20
-2.114886
30
0
210
0
220
0
230
1
1
\W0.6747;130%%d
40
3
41
0
44
1.084337
50
0
71
7
72
5
7
iso_b_vert
0
MTEXT
5
E8
100
AcDbEntity
8
SK6
62
256
6
ByLayer
370
18
48
1
60
0
100
AcDbMText
10
-29.47711
20
-48.114886
30
0
210
0
220
0
230
1
1
\W0.7754;462.1-0270-009A0-XM X0BU
40
3
41
0
44
1.084337
50
0
71
7
72
5
7
iso_b_vert
0
HATCH
5
D0
100
AcDbEntity
8
SK2
62
256
6
ByLayer
370
13
48
1
60
0
100
AcDbHatch
10
0
20
0
30
0
210
0
220
0
230
1
2
ANSI31
70
0
71
0
91
1
92
5
93
3
72
1
10
-24.9732
20
-1.5
11
-24.5124162584472
21
-4.99999830744682
72
1
10
-24.5124162584472
20
-4.99999830744682
11
-25.4339837415528
21
-5.00000169255318
72
1
10
-25.4339837415528
20
-5.00000169255318
11
-24.9732
21
-1.5
97
0
75
0
76
1
52
0
41
0.0062
77
0
78
1
53
45
43
0
44
0
45
-0.0139193969876572
46
0.0139193969876572
79
0
47
0
98
1
10
0
20
0
0
HATCH
5
D4
100
AcDbEntity
8
SK2
62
256
6
ByLayer
370
13
48
1
60
0
100
AcDbHatch
10
0
20
0
30
0
210
0
220
0
230
1
2
ANSI31
70
0
71
0
91
1
92
5
93
3
72
1
10
-24.9732
20
1.5
11
-25.4339837415528
21
4.99999830744682
72
1
10
-25.4339837415528
20
4.99999830744682
11
-24.5124162584472
21
5.00000169255318
72
1
10
-24.5124162584472
20
5.00000169255318
11
-24.9732
21
1.5
97
0
75
0
76
1
52
0
41
0.0062
77
0
78
1
53
45
43
0
44
0
45
-0.0139193969876572
46
0.0139193969876572
79
0
47
0
98
1
10
0
20
0
0
HATCH
5
DA
100
AcDbEntity
8
2
62
256
6
ByLayer
370
13
48
1
60
0
100
AcDbHatch
10
0
20
0
30
0
210
0
220
0
230
1
2
ANSI31
70
0
71
0
91
1
92
5
93
3
72
1
10
23.0268
20
-1.34999999999999
11
23.4875837415528
21
-4.84999830744681
72
1
10
23.4875837415528
20
-4.84999830744681
11
22.5660162584472
21
-4.85000169255318
72
1
10
22.5660162584472
20
-4.85000169255318
11
23.0268
21
-1.34999999999999
97
0
75
0
76
1
52
0
41
0.0062
77
0
78
1
53
45
43
0
44
0
45
-0.0139193969876572
46
0.0139193969876572
79
0
47
0
98
1
10
0
20
0
0
HATCH
5
DE
100
AcDbEntity
8
2
62
256
6
ByLayer
370
13
48
1
60
0
100
AcDbHatch
10
0
20
0
30
0
210
0
220
0
230
1
2
ANSI31
70
0
71
0
91
1
92
5
93
3
72
1
10
23.0268
20
1.34999999999999
11
22.5660162584472
21
4.84999830744681
72
1
10
22.5660162584472
20
4.84999830744681
11
23.4875837415528
21
4.85000169255318
72
1
10
23.4875837415528
20
4.85000169255318
11
23.0268
21
1.34999999999999
97
0
75
0
76
1
52
0
41
0.0062
77
0
78
1
53
45
43
0
44
0
45
-0.0139193969876572
46
0.0139193969876572
79
0
47
0
98
1
10
0
20
0
0
HATCH
5
E3
100
AcDbEntity
8
SK2
62
256
6
ByLayer
370
13
48
1
60
0
100
AcDbHatch
10
0
20
0
30
0
210
0
220
0
230
1
2
ANSI31
70
0
71
0
91
1
92
5
93
3
72
1
10
24.4366085794605
20
-14.8181323180492
11
27.3086418553693
21
-12.765393983365
72
1
10
27.3086418553693
20
-12.765393983365
11
27.7420706127348
21
-13.5786750775861
72
1
10
27.7420706127348
20
-13.5786750775861
11
24.4366085794605
21
-14.8181323180492
97
0
75
0
76
1
52
0
41
0.0062
77
0
78
1
53
45
43
0
44
0
45
-0.0139193969876572
46
0.0139193969876572
79
0
47
0
98
1
10
0
20
0
0
HATCH
5
E7
100
AcDbEntity
8
SK2
62
256
6
ByLayer
370
13
48
1
60
0
100
AcDbHatch
10
0
20
0
30
0
210
0
220
0
230
1
2
ANSI31
70
0
71
0
91
1
92
5
93
3
72
1
10
24.4366085794605
20
14.8181323180492
11
27.7420676253807
21
13.5786766696479
72
1
10
27.7420676253807
20
13.5786766696479
11
27.3086448427234
21
12.7653923913032
72
1
10
27.3086448427234
20
12.7653923913032
11
24.4366085794605
21
14.8181323180492
97
0
75
0
76
1
52
0
41
0.0062
77
0
78
1
53
45
43
0
44
0
45
-0.0139193969876572
46
0.0139193969876572
79
0
47
0
98
1
10
0
20
0
0
DIMENSION
5
EB
100
AcDbEntity
8
SK2
62
256
6
ByLayer
370
18
48
1
60
0
100
AcDbDimension
2
_U0
10
17.5268
20
-38.921842
30
0
11
-1.4732
21
-38.921842
31
0
70
32
71
1
72
1
41
1
210
0
220
0
230
1
3
Standard
100
AcDbAlignedDimension
13
-20.4732
23
1.5
33
0
14
17.5268
24
1.35
34
0
50
0
100
AcDbRotatedDimension
1001
ACAD
1000
DSTYLE
1002
{
1070
   371
1070
    13
1070
   372
1070
    13
1070
     3
1000

1070
   170
1070
     0
1070
   144
1040
1.0
1070
   277
1070
     2
1070
   284
1070
     8
1070
   278
1070
    46
1070
   146
1040
1.166667
1070
   345
1005
16
1070
   347
1005
16
1070
   346
1005
16
1070
   344
1005
0
1070
   343
1005
0
1070
   172
1070
     1
1070
    76
1070
     0
1070
    75
1070
     0
1070
   282
1070
     0
1070
   281
1070
     0
1070
    71
1070
     0
1070
    74
1070
     0
1070
   279
1070
     0
1070
   173
1070
     1
1070
   340
1005
CA
1070
   271
1070
     2
1070
   272
1070
     2
1070
    77
1070
     1
1070
    73
1070
     1
1070
   171
1070
     3
1070
   274
1070
     4
1070
   177
1070
     2
1070
   176
1070
     2
1070
   178
1070
     2
1070
    78
1070
     8
1070
    48
1040
-0.1
1070
    41
1040
3.5
1070
   147
1040
1.5
1070
    42
1040
1.5875
1070
    44
1040
2.0
1070
   140
1040
3.0
1002
}
1001
ACAD_DSTYLE_DIM_LINETYPE
1070
   380
1005
16
1001
ACAD_DSTYLE_DIM_EXT1_LINETYPE
1070
   381
1005
16
1001
ACAD_DSTYLE_DIM_EXT2_LINETYPE
1070
   382
1005
16
0
DIMENSION
5
104
100
AcDbEntity
8
SK2
62
256
6
ByLayer
370
18
48
1
60
0
100
AcDbDimension
2
_U1
10
7.5768
20
-22.85
30
0
11
33.598229
21
-22.85
31
0
70
32
71
1
72
1
41
1
210
0
220
0
230
1
3
Standard
100
AcDbAlignedDimension
13
17.5268
23
1.35
33
0
14
7.5768
24
0
34
0
50
0
100
AcDbRotatedDimension
1001
ACAD
1000
DSTYLE
1002
{
1070
   371
1070
    13
1070
   372
1070
    13
1070
     3
1000

1070
   170
1070
     0
1070
   144
1040
1.0
1070
   277
1070
     2
1070
   284
1070
     8
1070
   278
1070
    46
1070
   146
1040
1.166667
1070
   345
1005
16
1070
   347
1005
16
1070
   346
1005
16
1070
   344
1005
0
1070
   343
1005
0
1070
   172
1070
     1
1070
    76
1070
     0
1070
    75
1070
     0
1070
   282
1070
     0
1070
   281
1070
     0
1070
    71
1070
     0
1070
    74
1070
     0
1070
   279
1070
     0
1070
   173
1070
     1
1070
   340
1005
CA
1070
   271
1070
     2
1070
   272
1070
     2
1070
    77
1070
     1
1070
    73
1070
     1
1070
   171
1070
     3
1070
   274
1070
     4
1070
   177
1070
     2
1070
   176
1070
     2
1070
   178
1070
     2
1070
    78
1070
     8
1070
    48
1040
-0.1
1070
    41
1040
3.5
1070
   147
1040
1.5
1070
    42
1040
1.5875
1070
    44
1040
2.0
1070
   140
1040
3.0
1002
}
1001
ACAD_DSTYLE_DIM_LINETYPE
1070
   380
1005
16
1001
ACAD_DSTYLE_DIM_EXT1_LINETYPE
1070
   381
1005
16
1001
ACAD_DSTYLE_DIM_EXT2_LINETYPE
1070
   382
1005
16
0
DIMENSION
5
11E
100
AcDbEntity
8
SK2
62
256
6
ByLayer
370
18
48
1
60
0
100
AcDbDimension
2
_U2
10
3.5268
20
-30.421842
30
0
11
10.5268
21
-30.421842
31
0
70
32
71
1
72
1
41
1
210
0
220
0
230
1
3
Standard
100
AcDbAlignedDimension
13
17.5268
23
1.35
33
0
14
3.5268
24
0
34
0
50
0
100
AcDbRotatedDimension
1001
ACAD
1000
DSTYLE
1002
{
1070
   371
1070
    13
1070
   372
1070
    13
1070
     3
1000

1070
   170
1070
     0
1070
   144
1040
1.0
1070
   277
1070
     2
1070
   284
1070
     8
1070
   278
1070
    46
1070
   146
1040
1.166667
1070
   345
1005
16
1070
   347
1005
16
1070
   346
1005
16
1070
   344
1005
0
1070
   343
1005
0
1070
   172
1070
     1
1070
    76
1070
     0
1070
    75
1070
     0
1070
   282
1070
     0
1070
   281
1070
     0
1070
    71
1070
     0
1070
    74
1070
     0
1070
   279
1070
     0
1070
   173
1070
     1
1070
   340
1005
CA
1070
   271
1070
     2
1070
   272
1070
     2
1070
    77
1070
     1
1070
    73
1070
     1
1070
   171
1070
     3
1070
   274
1070
     4
1070
   177
1070
     2
1070
   176
1070
     2
1070
   178
1070
     2
1070
    78
1070
     8
1070
    48
1040
-0.1
1070
    41
1040
3.5
1070
   147
1040
1.5
1070
    42
1040
1.5875
1070
    44
1040
2.0
1070
   140
1040
3.0
1002
}
1001
ACAD_DSTYLE_DIM_LINETYPE
1070
   380
1005
16
1001
ACAD_DSTYLE_DIM_EXT1_LINETYPE
1070
   381
1005
16
1001
ACAD_DSTYLE_DIM_EXT2_LINETYPE
1070
   382
1005
16
0
DIMENSION
5
137
100
AcDbEntity
8
SK2
62
256
6
ByLayer
370
18
48
1
60
0
100
AcDbDimension
2
_U3
10
0
20
11.421842
30
0
11
-10.2366
21
11.421842
31
0
70
32
71
1
72
1
41
1
210
0
220
0
230
1
3
Standard
100
AcDbAlignedDimension
13
-20.4732
23
0
33
0
14
0
24
0
34
0
50
0
100
AcDbRotatedDimension
1001
ACAD
1000
DSTYLE
1002
{
1070
   371
1070
    13
1070
   372
1070
    13
1070
     3
1000

1070
   170
1070
     0
1070
   144
1040
1.0
1070
   277
1070
     2
1070
   284
1070
     8
1070
   278
1070
    46
1070
   146
1040
1.166667
1070
   345
1005
16
1070
   347
1005
16
1070
   346
1005
16
1070
   344
1005
0
1070
   343
1005
0
1070
   172
1070
     1
1070
    76
1070
     0
1070
    75
1070
     0
1070
   282
1070
     0
1070
   281
1070
     0
1070
    71
1070
     0
1070
    74
1070
     0
1070
   279
1070
     0
1070
   173
1070
     1
1070
   340
1005
CA
1070
   271
1070
     2
1070
   272
1070
     2
1070
    77
1070
     1
1070
    73
1070
     1
1070
   171
1070
     3
1070
   274
1070
     4
1070
   177
1070
     2
1070
   176
1070
     2
1070
   178
1070
     2
1070
    78
1070
     8
1070
    48
1040
-0.1
1070
    41
1040
3.5
1070
   147
1040
1.5
1070
    42
1040
1.5875
1070
    44
1040
2.0
1070
   140
1040
3.0
1002
}
1001
ACAD_DSTYLE_DIM_LINETYPE
1070
   380
1005
16
1001
ACAD_DSTYLE_DIM_EXT1_LINETYPE
1070
   381
1005
16
1001
ACAD_DSTYLE_DIM_EXT2_LINETYPE
1070
   382
1005
16
0
DIMENSION
5
14F
100
AcDbEntity
8
2
62
256
6
ByLayer
370
18
48
1
60
0
100
AcDbDimension
2
_U4
10
0
20
11.421842
30
0
11
8.7634
21
11.421842
31
0
70
32
71
1
72
1
41
1
210
0
220
0
230
1
3
Standard
100
AcDbAlignedDimension
13
17.5268
23
1.35
33
0
14
0
24
0
34
0
50
0
100
AcDbRotatedDimension
1001
ACAD
1000
DSTYLE
1002
{
1070
   371
1070
    13
1070
   372
1070
    13
1070
     3
1000

1070
   170
1070
     0
1070
   144
1040
1.0
1070
   277
1070
     2
1070
   284
1070
     8
1070
   278
1070
    46
1070
   146
1040
1.166667
1070
   345
1005
16
1070
   347
1005
16
1070
   346
1005
16
1070
   344
1005
0
1070
   343
1005
0
1070
   172
1070
     1
1070
    76
1070
     0
1070
    75
1070
     0
1070
   282
1070
     0
1070
   281
1070
     0
1070
    71
1070
     0
1070
    74
1070
     0
1070
   279
1070
     0
1070
   173
1070
     1
1070
   340
1005
CA
1070
   271
1070
     2
1070
   272
1070
     2
1070
    77
1070
     1
1070
    73
1070
     1
1070
   171
1070
     3
1070
   274
1070
     4
1070
   177
1070
     2
1070
   176
1070
     2
1070
   178
1070
     2
1070
    78
1070
     8
1070
    48
1040
-0.1
1070
    41
1040
3.5
1070
   147
1040
1.5
1070
    42
1040
1.5875
1070
    44
1040
2.0
1070
   140
1040
3.0
1002
}
1001
ACAD_DSTYLE_DIM_LINETYPE
1070
   380
1005
16
1001
ACAD_DSTYLE_DIM_EXT1_LINETYPE
1070
   381
1005
16
1001
ACAD_DSTYLE_DIM_EXT2_LINETYPE
1070
   382
1005
16
0
ENDSEC
0
SECTION
2
OBJECTS
0
DICTIONARY
5
1d7
330
0
100
AcDbDictionary
280
0
281
1
3
ACAD_GROUP
350
1d8
3
ACAD_MLINESTYLE
350
1d9
0
DICTIONARY
5
1d8
330
0
100
AcDbDictionary
280
0
281
1
0
DICTIONARY
5
1d9
330
0
100
AcDbDictionary
280
0
281
1
3
Standard
350
18
0
MLINESTYLE
5
18
330
1d9
100
AcDbMlineStyle
2
Standard
70
0
3

62
256
51
90
52
90
71
2
49
-0.5
62
256
6
ByLayer
49
0.5
62
256
6
ByLayer
0
RASTERVARIABLES
5
1c5
330

100
AcDbRasterVariables
90
0
70
1
71
1
72
1
0
ENDSEC
0
EOF
